  0
SECTION
  2
HEADER
  9
$EXTMAX
 10
0
 20
282
 30
0
  9
$EXTMIN
 10
-191
 20
0
 30
0
  9
$LIMMAX
 10
0
 20
282
  9
$LIMMIN
 10
-191
 20
0
  9
$PLIMMAX
 10
0
 20
282
  9
$PLIMMIN
 10
-191
 20
0
  9
$TEXTSIZE
 40
3.2
  9
$DIMSHO
 70
     0
  9
$DIMASZ
 40
1.0
  9
$DIMTAD
 70
     1
  9
$DIMTIH
 70
     0
  9
$DIMTOH
 70
     0
  9
$DIMEXE
 40
2.54
  9
$DIMEXO
 40
2.54
  9
$DIMTVP
 40
1.0
  9
$DIMSAH
 70
     1
  9
$DIMDLE
 40
0.0
  9
$DIMTXT
 40
3.200000047683716
  9
$DIMGAP
 40
1.600000023841858
  0
ENDSEC
  0
SECTION
  2
TABLES
  0
TABLE
  2
LTYPE
 70
     39
  0
LTYPE
  2
CONTINUOUS
 70
    64
  3
Solid line
 72
    65
 73
     0
 40
0.0
  0
LTYPE
  2
ACAD_ISO02W100
 70
     0
  3
ISO dash __ __ __ __ __ __ __ __ __ __ __ __ __
 72
    65
 73
     2
 40
15.0
 49
12.0
 49
-3.0
  0
LTYPE
  2
ACAD_ISO03W100
 70
     0
  3
ISO dash space __    __    __    __    __    __
 72
    65
 73
     2
 40
30.0
 49
12.0
 49
-18.0
  0
LTYPE
  2
ACAD_ISO04W100
 70
     0
  3
ISO long-dash dot ____ . ____ . ____ . ____ . _
 72
    65
 73
     4
 40
30.0
 49
24.0
 49
-3.0
 49
0.0
 49
-3.0
  0
LTYPE
  2
ACAD_ISO05W100
 70
     0
  3
ISO long-dash double-dot ____ .. ____ .. ____ .
 72
    65
 73
     6
 40
33.0
 49
24.0
 49
-3.0
 49
0.0
 49
-3.0
 49
0.0
 49
-3.0
  0
LTYPE
  2
ACAD_ISO06W100
 70
     0
  3
ISO long-dash triple-dot ____ ... ____ ... ____
 72
    65
 73
     8
 40
36.0
 49
24.0
 49
-3.0
 49
0.0
 49
-3.0
 49
0.0
 49
-3.0
 49
0.0
 49
-3.0
  0
LTYPE
  2
ACAD_ISO07W100
 70
     0
  3
ISO dot . . . . . . . . . . . . . . . . . . . .
 72
    65
 73
     2
 40
3.0
 49
0.0
 49
-3.0
  0
LTYPE
  2
ACAD_ISO08W100
 70
     0
  3
ISO long-dash short-dash ____ __ ____ __ ____ _
 72
    65
 73
     4
 40
36.0
 49
24.0
 49
-3.0
 49
6.0
 49
-3.0
  0
LTYPE
  2
ACAD_ISO09W100
 70
     0
  3
ISO long-dash double-short-dash ____ __ __ ____
 72
    65
 73
     6
 40
45.0
 49
24.0
 49
-3.0
 49
6.0
 49
-3.0
 49
6.0
 49
-3.0
  0
LTYPE
  2
ACAD_ISO10W100
 70
     0
  3
ISO dash dot __ . __ . __ . __ . __ . __ . __ .
 72
    65
 73
     4
 40
18.0
 49
12.0
 49
-3.0
 49
0.0
 49
-3.0
  0
LTYPE
  2
ACAD_ISO11W100
 70
     0
  3
ISO double-dash dot __ __ . __ __ . __ __ . __ 
 72
    65
 73
     6
 40
33.0
 49
12.0
 49
-3.0
 49
12.0
 49
-3.0
 49
0.0
 49
-3.0
  0
LTYPE
  2
ACAD_ISO12W100
 70
     0
  3
ISO dash double-dot __ . . __ . . __ . . __ . .
 72
    65
 73
     6
 40
21.0
 49
12.0
 49
-3.0
 49
0.0
 49
-3.0
 49
0.0
 49
-3.0
  0
LTYPE
  2
ACAD_ISO13W100
 70
     0
  3
ISO double-dash double-dot __ __ . . __ __ . . 
 72
    65
 73
     8
 40
36.0
 49
12.0
 49
-3.0
 49
12.0
 49
-3.0
 49
0.0
 49
-3.0
 49
0.0
 49
-3.0
  0
LTYPE
  2
ACAD_ISO14W100
 70
     0
  3
ISO dash triple-dot __ . . . __ . . . __ . . . 
 72
    65
 73
     8
 40
24.0
 49
12.0
 49
-3.0
 49
0.0
 49
-3.0
 49
0.0
 49
-3.0
 49
0.0
 49
-3.0
  0
LTYPE
  2
ACAD_ISO15W100
 70
     0
  3
ISO double-dash triple-dot __ __ . . . __ __ . 
 72
    65
 73
    10
 40
39.0
 49
12.0
 49
-3.0
 49
12.0
 49
-3.0
 49
0.0
 49
-3.0
 49
0.0
 49
-3.0
 49
0.0
 49
-3.0
  0
LTYPE
  2
BORDER
 70
    64
  3
Border __ __ . __ __ . __ __ . __ __ . __ __ .
 72
    65
 73
     6
 40
3.5
 49
1.0
 49
-0.5
 49
1.0
 49
-0.5
 49
0.0
 49
-0.5
  0
LTYPE
  2
BORDER2
 70
    64
  3
Border (.5x) __.__.__.__.__.__.__.__.__.__.__.
 72
    65
 73
     6
 40
1.75
 49
0.5
 49
-0.25
 49
0.5
 49
-0.25
 49
0.0
 49
-0.25
  0
LTYPE
  2
BORDERX2
 70
    64
  3
Border (2x) ____  ____  .  ____  ____  .  ___
 72
    65
 73
     6
 40
7.0
 49
2.0
 49
-1.0
 49
2.0
 49
-1.0
 49
0.0
 49
-1.0
  0
LTYPE
  2
CENTER
 70
    64
  3
Center ____ _ ____ _ ____ _ ____ _ ____ _ ____
 72
    65
 73
     4
 40
12.0
 49
7.5
 49
-1.5
 49
1.5
 49
-1.5
  0
LTYPE
  2
CENTER2
 70
    64
  3
Center (.5x) ___ _ ___ _ ___ _ ___ _ ___ _ ___
 72
    65
 73
     4
 40
6.0
 49
3.75
 49
-0.75
 49
0.75
 49
-0.75
  0
LTYPE
  2
CENTERX2
 70
    64
  3
Center (2x) ________  __  ________  __  _____
 72
    65
 73
     4
 40
24.0
 49
15.0
 49
-3.0
 49
3.0
 49
-3.0
  0
LTYPE
  2
DASHDOT
 70
    64
  3
Dash dot __ . __ . __ . __ . __ . __ . __ . __
 72
    65
 73
     4
 40
6.0
 49
3.0
 49
-1.5
 49
0.0
 49
-1.5
  0
LTYPE
  2
DASHDOT2
 70
    64
  3
Dash dot (.5x) _._._._._._._._._._._._._._._.
 72
    65
 73
     4
 40
3.0
 49
1.5
 49
-0.75
 49
0.0
 49
-0.75
  0
LTYPE
  2
DASHDOTX2
 70
    64
  3
Dash dot (2x) ____  .  ____  .  ____  .  ___
 72
    65
 73
     4
 40
12.0
 49
6.0
 49
-3.0
 49
0.0
 49
-3.0
  0
LTYPE
  2
DASHED
 70
    64
  3
Dashed __ __ __ __ __ __ __ __ __ __ __ __ __ _
 72
    65
 73
     2
 40
4.5
 49
3.0
 49
-1.5
  0
LTYPE
  2
DASHED2
 70
    64
  3
Dashed (.5x) _ _ _ _ _ _ _ _ _ _ _ _ _ _ _ _ _
 72
    65
 73
     2
 40
2.25
 49
1.5
 49
-0.75
  0
LTYPE
  2
DASHEDX2
 70
    64
  3
Dashed (2x) ____  ____  ____  ____  ____  ___
 72
    65
 73
     2
 40
9.0
 49
6.0
 49
-3.0
  0
LTYPE
  2
DIVIDE
 70
    64
  3
Divide ____ . . ____ . . ____ . . ____ . . ____
 72
    65
 73
     6
 40
7.5
 49
3.0
 49
-1.5
 49
0.0
 49
-1.5
 49
0.0
 49
-1.5
  0
LTYPE
  2
DIVIDE2
 70
    64
  3
Divide (.5x) __..__..__..__..__..__..__..__.._
 72
    65
 73
     6
 40
3.75
 49
1.5
 49
-0.75
 49
0.0
 49
-0.75
 49
0.0
 49
-0.75
  0
LTYPE
  2
DIVIDEX2
 70
    64
  3
Divide (2x) ________  .  .  ________  .  .  _
 72
    65
 73
     6
 40
15.0
 49
6.0
 49
-3.0
 49
0.0
 49
-3.0
 49
0.0
 49
-3.0
  0
LTYPE
  2
DOT
 70
    64
  3
Dot . . . . . . . . . . . . . . . . . . . . . .
 72
    65
 73
     2
 40
1.5
 49
0.0
 49
-1.5
  0
LTYPE
  2
DOT2
 70
    64
  3
Dot (.5x) .....................................
 72
    65
 73
     2
 40
0.75
 49
0.0
 49
-0.75
  0
LTYPE
  2
DOTX2
 70
    64
  3
Dot (2x) .  .  .  .  .  .  .  .  .  .  .  .  . 
 72
    65
 73
     2
 40
3.0
 49
0.0
 49
-3.0
  0
LTYPE
  2
HIDDEN
 70
    64
  3
Hidden __ __ __ __ __ __ __ __ __ __ __ __ __ _
 72
    65
 73
     2
 40
4.5
 49
3.0
 49
-1.5
  0
LTYPE
  2
HIDDEN2
 70
    64
  3
Hidden (.5x) _ _ _ _ _ _ _ _ _ _ _ _ _ _ _ _ _
 72
    65
 73
     2
 40
2.25
 49
1.5
 49
-0.75
  0
LTYPE
  2
HIDDENX2
 70
    64
  3
Hidden (2x) ____ ____ ____ ____ ____ ____ ____
 72
    65
 73
     2
 40
9.0
 49
6.0
 49
-3.0
  0
LTYPE
  2
PHANTOM
 70
    64
  3
Phantom ______  __  __  ______  __  __  ______
 72
    65
 73
     6
 40
15.0
 49
7.5
 49
-1.5
 49
1.5
 49
-1.5
 49
1.5
 49
-1.5
  0
LTYPE
  2
PHANTOM2
 70
    64
  3
Phantom (.5x) ___ _ _ ___ _ _ ___ _ _ ___ _ _
 72
    65
 73
     6
 40
7.5
 49
3.75
 49
-0.75
 49
0.75
 49
-0.75
 49
0.75
 49
-0.75
  0
LTYPE
  2
PHANTOMX2
 70
    64
  3
Phantom (2x) ____________    ____    ____   _
 72
    65
 73
     6
 40
30.0
 49
15.0
 49
-3.0
 49
3.0
 49
-3.0
 49
3.0
 49
-3.0
  0
ENDTAB
  0
TABLE
  2
LAYER
 70
     2
  0
LAYER
  2
0
 70
     0
 62
     7
  6
CONTINUOUS
  0
LAYER
  2
DEFPOINTS
 70
     0
 62
     7
  6
CONTINUOUS
  0
ENDTAB
  0
TABLE
  2
STYLE
 70
     1
  0
STYLE
  2
STANDARD
 70
     0
 40
0.0
 41
1.0
 50
0.0
 71
     0
 42
0.2
  3
txt
  4
BIGFONT
  0
ENDTAB
  0
TABLE
  2
DIMSTYLE
 70
     1
  0
DIMSTYLE
  2
DIMSTYLE
 70
     0
  3

  4

  5
_OPEN30
  6
_OPEN30
  7
_OPEN30
 40
1
 41
1
 42
0
 43
0.38
 44
2.54
 45
0
 46
0
 47
0
 48
0
140
3.200000047683716
141
0.09
142
0
143
25.4
144
1
145
0
146
1
147
1.600000023841858
 71
     0
 72
     0
 73
     0
 74
     0
 75
     0
 76
     0
 78
     0
170
     0
171
     2
 77
     0
172
     0
173
     1
174
     0
175
     0
176
     0
177
     0
178
     0
  0
ENDTAB
  0
ENDSEC
  0
SECTION
  2
BLOCKS
  0
BLOCK
  8
0
  2
_OPEN30
 70
    64
 10
0
 20
0
  3
_OPEN30
  0
LINE
  8
0
  6
BYBLOCK
 62
     0
 10
0
 20
0
 11
-2.999999954944514
 21
-0.9999999849815249
  0
LINE
  8
0
  6
BYBLOCK
 62
     0
 10
0
 20
0
 11
-2.999999954944526
 21
0.9999999849814883
  0
LINE
  8
0
  6
BYBLOCK
 62
     0
 10
0
 20
0
 11
-2.99999995494452
 21
0
  0
ENDBLK
  8
0
  0
BLOCK
  8
0
  2
*D1
 70
    65
 10
0
 20
0
  0
LINE
  8
0
  6
CONTINUOUS
 62
     7
 10
-146.8738050019915
 20
220.1830184780825
 11
-146.8738050019915
 21
266.1830185681934
  0
INSERT
  8
0
  6
CONTINUOUS
 62
     7
  2
_OPEN30
 10
-146.8738050019915
 20
217.183018523138
 50
270.0000000000005
  0
INSERT
  8
0
  6
CONTINUOUS
 62
     7
  2
_OPEN30
 10
-146.8738050019915
 20
269.183018523138
 50
90.00000000000019
  0
LINE
  8
0
  6
CONTINUOUS
 62
     7
 10
-167.3747756800303
 20
217.183018523138
 11
-144.5878050019915
 21
217.183018523138
  0
LINE
  8
0
  6
CONTINUOUS
 62
     7
 10
-167.3747756800303
 20
269.183018523138
 11
-144.5878050019915
 21
269.183018523138
  0
TEXT
  8
0
  6
CONTINUOUS
 62
     7
 10
-147.6738050139124
 20
238.8400185283832
 40
3.200000047683716
 41
0.9501895996293137
  1
%%C52
 50
90.00000000000003
  0
POINT
  8
DEFPOINTS
  6
CONTINUOUS
 62
     7
 10
-167.3747756800303
 20
217.183018523138
  0
POINT
  8
DEFPOINTS
  6
CONTINUOUS
 62
     7
 10
-167.3747756800303
 20
269.183018523138
  0
POINT
  8
DEFPOINTS
  6
CONTINUOUS
 62
     7
 10
-146.8738050019915
 20
269.183018523138
  0
ENDBLK
  8
0
  0
BLOCK
  8
0
  2
*D2
 70
    65
 10
0
 20
0
  0
LINE
  8
0
  6
CONTINUOUS
 62
     7
 10
-133.2181507252985
 20
282.6830185681934
 11
-133.2181507252985
 21
203.6830184780825
  0
INSERT
  8
0
  6
CONTINUOUS
 62
     7
  2
_OPEN30
 10
-133.2181507252985
 20
285.683018523138
 50
90.00000000000019
  0
INSERT
  8
0
  6
CONTINUOUS
 62
     7
  2
_OPEN30
 10
-133.2181507252985
 20
200.683018523138
 50
270.0000000000005
  0
LINE
  8
0
  6
CONTINUOUS
 62
     7
 10
-185.5373509813444
 20
285.683018523138
 11
-130.9321507252985
 21
285.683018523138
  0
LINE
  8
0
  6
CONTINUOUS
 62
     7
 10
-185.5373509813444
 20
200.683018523138
 11
-130.9321507252985
 21
200.683018523138
  0
TEXT
  8
0
  6
CONTINUOUS
 62
     7
 10
-134.0181507372195
 20
235.6400185403041
 40
3.200000047683716
 41
1.178593729755376
  1
Do 85
 50
90.00000000000003
  0
POINT
  8
DEFPOINTS
  6
CONTINUOUS
 62
     7
 10
-185.5373509813444
 20
285.683018523138
  0
POINT
  8
DEFPOINTS
  6
CONTINUOUS
 62
     7
 10
-185.5373509813444
 20
200.683018523138
  0
POINT
  8
DEFPOINTS
  6
CONTINUOUS
 62
     7
 10
-133.2181507252985
 20
200.683018523138
  0
ENDBLK
  8
0
  0
BLOCK
  8
0
  2
*D3
 70
    65
 10
0
 20
0
  0
LINE
  8
0
  6
CONTINUOUS
 62
     7
 10
-218.1046502831196
 20
205.0830184780826
 11
-218.1046502831196
 21
281.2830185681934
  0
INSERT
  8
0
  6
CONTINUOUS
 62
     7
  2
_OPEN30
 10
-218.1046502831196
 20
202.083018523138
 50
270.0000000000005
  0
INSERT
  8
0
  6
CONTINUOUS
 62
     7
  2
_OPEN30
 10
-218.1046502831196
 20
284.283018523138
 50
90.00000000000019
  0
LINE
  8
0
  6
CONTINUOUS
 62
     7
 10
-207.8747756800303
 20
202.083018523138
 11
-220.3906502831197
 21
202.083018523138
  0
LINE
  8
0
  6
CONTINUOUS
 62
     7
 10
-207.8747756800303
 20
284.283018523138
 11
-220.3906502831197
 21
284.283018523138
  0
TEXT
  8
0
  6
CONTINUOUS
 62
     7
 10
-218.9046502950406
 20
230.8400185581856
 40
3.200000047683716
 41
1.239810245862131
  1
Dp 82.20
 50
90.00000000000003
  0
POINT
  8
DEFPOINTS
  6
CONTINUOUS
 62
     7
 10
-207.8747756800303
 20
202.083018523138
  0
POINT
  8
DEFPOINTS
  6
CONTINUOUS
 62
     7
 10
-207.8747756800303
 20
284.283018523138
  0
POINT
  8
DEFPOINTS
  6
CONTINUOUS
 62
     7
 10
-218.1046502831196
 20
284.283018523138
  0
ENDBLK
  8
0
  0
BLOCK
  8
0
  2
*D4
 70
    65
 10
0
 20
0
  0
LINE
  8
0
  6
CONTINUOUS
 62
     7
 10
-204.8747756800303
 20
297.7622039738022
 11
-222.6321861464784
 21
297.7622039738022
  0
LINE
  8
0
  6
CONTINUOUS
 62
     7
 10
-204.8747756800303
 20
297.7622039738022
 11
-200.8747756800303
 21
297.7622039738022
  0
INSERT
  8
0
  6
CONTINUOUS
 62
     7
  2
_OPEN30
 10
-204.8747756800303
 20
297.7622039738022
 50
3.562221243239139e-013
  0
LINE
  8
0
  6
CONTINUOUS
 62
     7
 10
-207.8747756349748
 20
297.7622039738022
 11
-211.2247755846628
 21
297.7622039738021
  0
INSERT
  8
0
  6
CONTINUOUS
 62
     7
  2
_OPEN30
 10
-200.8747756800303
 20
297.7622039738022
 50
180
  0
LINE
  8
0
  6
CONTINUOUS
 62
     7
 10
-197.8747757250858
 20
297.7622039738022
 11
-194.5247757753977
 21
297.7622039738022
  0
LINE
  8
0
  6
CONTINUOUS
 62
     7
 10
-204.8747756800302
 20
278.183018523138
 11
-204.8747756800302
 21
300.0482039738022
  0
LINE
  8
0
  6
CONTINUOUS
 62
     7
 10
-200.8747756800302
 20
278.183018523138
 11
-200.8747756800302
 21
300.0482039738022
  0
TEXT
  8
0
  6
CONTINUOUS
 62
     7
 10
-222.6321861464784
 20
298.5622039857231
 40
3.200000047683716
 41
1.437022035674685
  1
4.0
  0
POINT
  8
DEFPOINTS
  6
CONTINUOUS
 62
     7
 10
-204.8747756800302
 20
278.183018523138
  0
POINT
  8
DEFPOINTS
  6
CONTINUOUS
 62
     7
 10
-200.8747756800302
 20
278.183018523138
  0
POINT
  8
DEFPOINTS
  6
CONTINUOUS
 62
     7
 10
-200.8747756800303
 20
297.7622039738022
  0
ENDBLK
  8
0
  0
BLOCK
  8
0
  2
*D5
 70
    65
 10
0
 20
0
  0
LINE
  8
0
  6
CONTINUOUS
 62
     7
 10
-184.4747756800302
 20
297.7622039738022
 11
-170.3957211664345
 21
297.7622039738022
  0
LINE
  8
0
  6
CONTINUOUS
 62
     7
 10
-188.4747756800302
 20
297.7622039738022
 11
-184.4747756800302
 21
297.7622039738022
  0
INSERT
  8
0
  6
CONTINUOUS
 62
     7
  2
_OPEN30
 10
-188.4747756800302
 20
297.7622039738022
 50
3.562221243239139e-013
  0
LINE
  8
0
  6
CONTINUOUS
 62
     7
 10
-191.4747756349748
 20
297.7622039738022
 11
-194.8247755846628
 21
297.7622039738021
  0
INSERT
  8
0
  6
CONTINUOUS
 62
     7
  2
_OPEN30
 10
-184.4747756800302
 20
297.7622039738022
 50
180
  0
LINE
  8
0
  6
CONTINUOUS
 62
     7
 10
-181.4747757250857
 20
297.7622039738022
 11
-178.1247757753977
 21
297.7622039738022
  0
LINE
  8
0
  6
CONTINUOUS
 62
     7
 10
-188.4747756800302
 20
278.183018523138
 11
-188.4747756800302
 21
300.0482039738022
  0
LINE
  8
0
  6
CONTINUOUS
 62
     7
 10
-184.4747756800302
 20
278.183018523138
 11
-184.4747756800302
 21
300.0482039738022
  0
TEXT
  8
0
  6
CONTINUOUS
 62
     7
 10
-179.0817211559441
 20
298.5622039857231
 40
3.200000047683716
 41
1.437022035674685
  1
4.0
  0
POINT
  8
DEFPOINTS
  6
CONTINUOUS
 62
     7
 10
-188.4747756800302
 20
278.183018523138
  0
POINT
  8
DEFPOINTS
  6
CONTINUOUS
 62
     7
 10
-184.4747756800302
 20
278.183018523138
  0
POINT
  8
DEFPOINTS
  6
CONTINUOUS
 62
     7
 10
-184.4747756800302
 20
297.7622039738022
  0
ENDBLK
  8
0
  0
BLOCK
  8
0
  2
*D6
 70
    65
 10
0
 20
0
  0
LINE
  8
0
  6
CONTINUOUS
 62
     7
 10
-201.8747757250858
 20
307.542605009812
 11
-187.4747756349748
 21
307.542605009812
  0
INSERT
  8
0
  6
CONTINUOUS
 62
     7
  2
_OPEN30
 10
-204.8747756800303
 20
307.542605009812
 50
180.0000000000004
  0
INSERT
  8
0
  6
CONTINUOUS
 62
     7
  2
_OPEN30
 10
-184.4747756800302
 20
307.542605009812
  0
LINE
  8
0
  6
CONTINUOUS
 62
     7
 10
-204.8747756800302
 20
300.0482039738022
 11
-204.8747756800302
 21
309.8286050098121
  0
LINE
  8
0
  6
CONTINUOUS
 62
     7
 10
-184.4747756800302
 20
300.0482039738022
 11
-184.4747756800302
 21
309.8286050098121
  0
TEXT
  8
0
  6
CONTINUOUS
 62
     7
 10
-200.6177756688246
 20
308.3426050217329
 40
3.200000047683716
 41
1.310955860346337
  1
20.4
  0
POINT
  8
DEFPOINTS
  6
CONTINUOUS
 62
     7
 10
-204.8747756800302
 20
300.0482039738022
  0
POINT
  8
DEFPOINTS
  6
CONTINUOUS
 62
     7
 10
-184.4747756800302
 20
300.0482039738022
  0
POINT
  8
DEFPOINTS
  6
CONTINUOUS
 62
     7
 10
-184.4747756800302
 20
307.542605009812
  0
ENDBLK
  8
0
  0
BLOCK
  8
0
  2
*D7
 70
    65
 10
0
 20
0
  0
LINE
  8
0
  6
CONTINUOUS
 62
     7
 10
-201.8747757250858
 20
317.8766136516337
 11
-167.8747756349748
 21
317.8766136516337
  0
INSERT
  8
0
  6
CONTINUOUS
 62
     7
  2
_OPEN30
 10
-204.8747756800303
 20
317.8766136516337
 50
180.0000000000004
  0
INSERT
  8
0
  6
CONTINUOUS
 62
     7
  2
_OPEN30
 10
-164.8747756800303
 20
317.8766136516337
  0
LINE
  8
0
  6
CONTINUOUS
 62
     7
 10
-204.8747756800302
 20
309.8286050098121
 11
-204.8747756800302
 21
320.1626136516338
  0
LINE
  8
0
  6
CONTINUOUS
 62
     7
 10
-164.8747756800303
 20
266.683018523138
 11
-164.8747756800303
 21
320.1626136516338
  0
TEXT
  8
0
  6
CONTINUOUS
 62
     7
 10
-187.6177756807455
 20
318.6766136635546
 40
3.200000047683716
 41
1.102098198150551
  1
40
  0
POINT
  8
DEFPOINTS
  6
CONTINUOUS
 62
     7
 10
-204.8747756800302
 20
309.8286050098121
  0
POINT
  8
DEFPOINTS
  6
CONTINUOUS
 62
     7
 10
-164.8747756800303
 20
266.683018523138
  0
POINT
  8
DEFPOINTS
  6
CONTINUOUS
 62
     7
 10
-164.8747756800303
 20
317.8766136516337
  0
ENDBLK
  8
0
  0
BLOCK
  8
0
  2
*D8
 70
    65
 10
0
 20
0
  0
LINE
  8
0
  6
CONTINUOUS
 62
     7
 10
-199.8747757250857
 20
188.776910462884
 11
-189.4747756349748
 21
188.776910462884
  0
INSERT
  8
0
  6
CONTINUOUS
 62
     7
  2
_OPEN30
 10
-202.8747756800302
 20
188.776910462884
 50
180.0000000000004
  0
INSERT
  8
0
  6
CONTINUOUS
 62
     7
  2
_OPEN30
 10
-186.4747756800302
 20
188.776910462884
  0
LINE
  8
0
  6
CONTINUOUS
 62
     7
 10
-202.8747756800302
 20
198.1591277381551
 11
-202.8747756800302
 21
186.490910462884
  0
LINE
  8
0
  6
CONTINUOUS
 62
     7
 10
-186.4747756800302
 20
198.1591277381551
 11
-186.4747756800302
 21
186.490910462884
  0
TEXT
  8
0
  6
CONTINUOUS
 62
     7
 10
-200.6177756688246
 20
189.5769104748049
 40
3.200000047683716
 41
1.392890601617983
  1
16.4
  0
POINT
  8
DEFPOINTS
  6
CONTINUOUS
 62
     7
 10
-202.8747756800302
 20
198.1591277381551
  0
POINT
  8
DEFPOINTS
  6
CONTINUOUS
 62
     7
 10
-186.4747756800302
 20
198.1591277381551
  0
POINT
  8
DEFPOINTS
  6
CONTINUOUS
 62
     7
 10
-186.4747756800302
 20
188.776910462884
  0
ENDBLK
  8
0
  0
ENDSEC
  0
SECTION
  2
ENTITIES
  0
POINT
  8
0
  6
CONTINUOUS
 62
     7
 10
0
 20
0
  0
LINE
  8
0
  6
CONTINUOUS
 62
     7
 10
-204.8747756800302
 20
278.183018523138
 11
-204.8747756800302
 21
251.123018523138
  0
LINE
  8
0
  6
CONTINUOUS
 62
     7
 10
-204.8747756800303
 20
251.123018523138
 11
-164.8747756800303
 21
251.123018523138
  0
LINE
  8
0
  6
CONTINUOUS
 62
     7
 10
-164.8747756800303
 20
251.123018523138
 11
-164.8747756800303
 21
266.683018523138
  0
LINE
  8
0
  6
CONTINUOUS
 62
     7
 10
-167.3747756800303
 20
269.183018523138
 11
-183.6747756800303
 21
269.183018523138
  0
LINE
  8
0
  6
CONTINUOUS
 62
     7
 10
-184.4747756800302
 20
269.983018523138
 11
-184.4747756800302
 21
278.183018523138
  0
LINE
  8
0
  6
CONTINUOUS
 62
     7
 10
-184.4747756800302
 20
276.343018523138
 11
-188.4747756800302
 21
276.343018523138
  0
LINE
  8
0
  6
CONTINUOUS
 62
     7
 10
-188.4747756800302
 20
278.183018523138
 11
-188.4747756800302
 21
269.983018523138
  0
LINE
  8
0
  6
CONTINUOUS
 62
     7
 10
-189.2747756800303
 20
269.183018523138
 11
-200.0747756800303
 21
269.183018523138
  0
LINE
  8
0
  6
CONTINUOUS
 62
     7
 10
-200.8747756800302
 20
269.983018523138
 11
-200.8747756800302
 21
278.183018523138
  0
LINE
  8
0
  6
CONTINUOUS
 62
     7
 10
-200.8747756800303
 20
276.343018523138
 11
-204.8747756800303
 21
276.343018523138
  0
LINE
  8
0
  6
CONTINUOUS
 62
     7
 10
-203.8122003787161
 20
285.683018523138
 11
-201.9373509813444
 21
285.683018523138
  0
LINE
  8
0
  6
CENTER
 62
     7
 10
-207.8747756800303
 20
284.283018523138
 11
-197.8747756800303
 21
284.283018523138
  0
LINE
  8
0
  6
CENTER
 62
     7
 10
-202.8747756800302
 20
288.2069093081209
 11
-202.8747756800302
 21
274.283018523138
  0
LINE
  8
0
  6
CENTER
 62
     7
 10
-186.4747756800302
 20
288.2069093081209
 11
-186.4747756800302
 21
274.283018523138
  0
LINE
  8
0
  6
CENTER
 62
     7
 10
-181.4747756800302
 20
284.283018523138
 11
-191.4747756800302
 21
284.283018523138
  0
LINE
  8
0
  6
CONTINUOUS
 62
     7
 10
-185.5373509813444
 20
285.683018523138
 11
-187.4122003787161
 21
285.683018523138
  0
LINE
  8
0
  6
CONTINUOUS
 62
     7
 10
-167.3747756800303
 20
269.183018523138
 11
-164.8747756800303
 21
266.6830185231379
  0
LINE
  8
0
  6
CENTER
 62
     7
 10
-206.9747756800302
 20
243.183018523138
 11
-161.9747756800302
 21
243.183018523138
  0
LINE
  8
0
  6
CONTINUOUS
 62
     7
 10
-167.3747756800298
 20
217.1830185231376
 11
-164.8747756800298
 21
219.6830185231376
  0
LINE
  8
0
  6
CENTER
 62
     7
 10
-186.4747756800302
 20
198.1591277381551
 11
-186.4747756800302
 21
212.083018523138
  0
LINE
  8
0
  6
CONTINUOUS
 62
     7
 10
-185.5373509813444
 20
200.683018523138
 11
-187.4122003787161
 21
200.683018523138
  0
LINE
  8
0
  6
CENTER
 62
     7
 10
-181.4747756800302
 20
202.083018523138
 11
-191.4747756800302
 21
202.083018523138
  0
LINE
  8
0
  6
CENTER
 62
     7
 10
-202.8747756800302
 20
198.1591277381551
 11
-202.8747756800302
 21
212.083018523138
  0
LINE
  8
0
  6
CENTER
 62
     7
 10
-207.8747756800303
 20
202.083018523138
 11
-197.8747756800303
 21
202.083018523138
  0
LINE
  8
0
  6
CONTINUOUS
 62
     7
 10
-200.8747756800302
 20
216.383018523138
 11
-200.8747756800302
 21
208.183018523138
  0
LINE
  8
0
  6
CONTINUOUS
 62
     7
 10
-188.4747756800302
 20
208.183018523138
 11
-188.4747756800302
 21
216.383018523138
  0
LINE
  8
0
  6
CONTINUOUS
 62
     7
 10
-203.8122003787161
 20
200.683018523138
 11
-201.9373509813444
 21
200.683018523138
  0
LINE
  8
0
  6
CONTINUOUS
 62
     7
 10
-189.2747756800303
 20
217.183018523138
 11
-200.0747756800303
 21
217.183018523138
  0
LINE
  8
0
  6
CONTINUOUS
 62
     7
 10
-200.8747756800303
 20
210.023018523138
 11
-204.8747756800303
 21
210.023018523138
  0
LINE
  8
0
  6
CONTINUOUS
 62
     7
 10
-204.8747756800302
 20
208.183018523138
 11
-204.8747756800302
 21
235.243018523138
  0
LINE
  8
0
  6
CONTINUOUS
 62
     7
 10
-184.4747756800302
 20
210.023018523138
 11
-188.4747756800302
 21
210.023018523138
  0
LINE
  8
0
  6
CONTINUOUS
 62
     7
 10
-164.8747756800303
 20
235.243018523138
 11
-164.8747756800303
 21
219.683018523138
  0
LINE
  8
0
  6
CONTINUOUS
 62
     7
 10
-167.3747756800303
 20
217.183018523138
 11
-183.6747756800303
 21
217.183018523138
  0
LINE
  8
0
  6
CONTINUOUS
 62
     7
 10
-204.8747756800303
 20
235.243018523138
 11
-164.8747756800303
 21
235.243018523138
  0
LINE
  8
0
  6
CONTINUOUS
 62
     7
 10
-184.4747756800302
 20
216.383018523138
 11
-184.4747756800302
 21
208.183018523138
  0
LINE
  8
0
  6
CONTINUOUS
 62
     7
 10
-204.8747756800302
 20
251.123018523138
 11
-204.8747756800302
 21
235.243018523138
  0
LINE
  8
0
  6
CONTINUOUS
 62
     7
 10
-164.8747756800303
 20
251.123018523138
 11
-164.8747756800303
 21
235.243018523138
  0
LINE
  8
0
  6
CENTER
 62
     7
 10
-68.63187429237232
 20
273.183018523138
 11
-68.63187429237232
 21
213.183018523138
  0
LINE
  8
0
  6
CENTER
 62
     7
 10
-98.63187429237232
 20
243.183018523138
 11
-38.63187429237232
 21
243.183018523138
  0
ARC
  8
0
  6
CONTINUOUS
 62
     7
 10
-177.8747756800303
 20
278.183018523138
 40
27
 50
163.8723797868393
 51
180.0000000000004
  0
ARC
  8
0
  6
CONTINUOUS
 62
     7
 10
-227.8747756800302
 20
278.183018523138
 40
27
 50
0
 51
16.12762021316076
  0
ARC
  8
0
  6
CONTINUOUS
 62
     7
 10
-161.4747756800302
 20
278.183018523138
 40
27
 50
163.8723797868393
 51
180.0000000000004
  0
ARC
  8
0
  6
CONTINUOUS
 62
     7
 10
-211.4747756800302
 20
278.183018523138
 40
27
 50
0
 51
16.12762021316076
  0
ARC
  8
0
  6
CONTINUOUS
 62
     7
 10
-200.0747756800302
 20
269.983018523138
 40
0.8
 50
180.0000000000004
 51
270.0000000000005
  0
ARC
  8
0
  6
CONTINUOUS
 62
     7
 10
-189.2747756800303
 20
269.983018523138
 40
0.8
 50
270.0000000000005
 51
360
  0
ARC
  8
0
  6
CONTINUOUS
 62
     7
 10
-183.6747756800303
 20
269.983018523138
 40
0.8
 50
180.0000000000004
 51
270.0000000000005
  0
ARC
  8
0
  6
CONTINUOUS
 62
     7
 10
-200.0747756800302
 20
216.383018523138
 40
0.8
 50
90.00000000000019
 51
180.0000000000004
  0
ARC
  8
0
  6
CONTINUOUS
 62
     7
 10
-183.6747756800303
 20
216.383018523138
 40
0.8
 50
90.00000000000019
 51
180.0000000000004
  0
ARC
  8
0
  6
CONTINUOUS
 62
     7
 10
-211.4747756800302
 20
208.183018523138
 40
27
 50
343.8723797868399
 51
360
  0
ARC
  8
0
  6
CONTINUOUS
 62
     7
 10
-161.4747756800302
 20
208.183018523138
 40
27
 50
180.0000000000004
 51
196.1276202131615
  0
ARC
  8
0
  6
CONTINUOUS
 62
     7
 10
-227.8747756800302
 20
208.183018523138
 40
27
 50
343.8723797868399
 51
360
  0
ARC
  8
0
  6
CONTINUOUS
 62
     7
 10
-189.2747756800303
 20
216.383018523138
 40
0.8
 50
0
 51
90.00000000000019
  0
ARC
  8
0
  6
CONTINUOUS
 62
     7
 10
-177.8747756800303
 20
208.183018523138
 40
27
 50
180.0000000000004
 51
196.1276202131615
  0
CIRCLE
  8
0
  6
CONTINUOUS
 62
     7
 10
-68.63187429237232
 20
243.183018523138
 40
26
  0
CIRCLE
  8
0
  6
CONTINUOUS
 62
     7
 10
-68.63187429237232
 20
243.183018523138
 40
7.94
  0
TEXT
  8
0
  6
CONTINUOUS
 62
     7
 10
-93.41770965808976
 20
199.0580423281451
 40
3.200000047683716
 41
1.036112618514102
  1
RF2040VRP-10T-SC
  0
TEXT
  8
0
  6
CONTINUOUS
 62
     7
 10
-90.80809835066604
 20
192.8948801812449
 40
3.200000047683716
 41
0.8643907436474909
  1
品名
  0
TEXT
  8
0
  6
CONTINUOUS
 62
     7
 10
-90.80809835066604
 20
187.8948801812449
 40
3.200000047683716
 41
0.8553702593301699
  1
下穴径
  0
TEXT
  8
0
  6
CONTINUOUS
 62
     7
 10
-90.80809835066604
 20
182.8948801812449
 40
3.200000047683716
 41
0.851270039185933
  1
最大軸径
  0
TEXT
  8
0
  6
CONTINUOUS
 62
     7
 10
-90.80809835066604
 20
177.8948801812449
 40
3.200000047683716
 41
0.8643907436474909
  1
質量
  0
TEXT
  8
0
  6
CONTINUOUS
 62
     7
 10
-90.80809835066604
 20
172.8948801812449
 40
3.200000047683716
 41
0.8643907436474909
  1
材質
  0
TEXT
  8
0
  6
CONTINUOUS
 62
     7
 10
-73.80809835066604
 20
192.8948801812449
 40
3.200000047683716
 41
1.036112618514102
  1
RF2040VRP-10T-SC
  0
TEXT
  8
0
  6
CONTINUOUS
 62
     7
 10
-73.80809835066604
 20
177.8948801812449
 40
3.200000047683716
 41
1.371449976094813
  1
0.8 kg
  0
TEXT
  8
0
  6
CONTINUOUS
 62
     7
 10
-73.80809835066604
 20
187.8948801812449
 40
3.200000047683716
 41
1.075710022301614
  1
%%C16
  0
TEXT
  8
0
  6
CONTINUOUS
 62
     7
 10
-73.80809835066604
 20
182.8948801812449
 40
3.200000047683716
 41
0.9501895996293137
  1
%%C32
  0
TEXT
  8
0
  6
CONTINUOUS
 62
     7
 10
-73.80809835066604
 20
172.8948801812449
 40
3.200000047683716
 41
0.8455653850722125
  1
機械構造用炭素鋼
  0
TEXT
  8
0
  6
CONTINUOUS
 62
     7
 10
-79.01770971173394
 20
205.0580423281451
 40
3.200000047683716
 41
1.041885757515817
  1
TSUBAKI
  0
DIMENSION
  8
0
  6
CONTINUOUS
 62
     7
  2
*D1
 70
     0
 10
-146.8738050019915
 20
269.183018523138
 11
-146.8738050019915
 21
243.183018523138
  3
DIMSTYLE
 13
-167.3747756800303
 23
217.183018523138
 14
-167.3747756800303
 24
269.183018523138
 50
90
1001
ACAD
1000
DSTYLE
1002
{
1070
    77
1070
     1
1070
   172
1070
     1
1002
}
  0
DIMENSION
  8
0
  6
CONTINUOUS
 62
     7
  2
*D2
 70
     0
 10
-133.2181507252985
 20
200.683018523138
 11
-133.2181507252985
 21
243.183018523138
  3
DIMSTYLE
 13
-185.5373509813444
 23
285.683018523138
 14
-185.5373509813444
 24
200.683018523138
 50
90
1001
ACAD
1000
DSTYLE
1002
{
1070
    77
1070
     1
1070
   172
1070
     1
1002
}
  0
DIMENSION
  8
0
  6
CONTINUOUS
 62
     7
  2
*D3
 70
     0
 10
-218.1046502831196
 20
284.283018523138
 11
-218.1046502831196
 21
243.183018523138
  3
DIMSTYLE
 13
-207.8747756800303
 23
202.083018523138
 14
-207.8747756800303
 24
284.283018523138
 50
90
1001
ACAD
1000
DSTYLE
1002
{
1070
    77
1070
     1
1070
   172
1070
     1
1002
}
  0
DIMENSION
  8
0
  6
CONTINUOUS
 62
     7
  2
*D4
 70
     0
 10
-200.8747756800302
 20
297.7622039738022
 11
-218.2891861517236
 21
297.7622039738022
  3
DIMSTYLE
 13
-204.8747756800302
 23
278.183018523138
 14
-200.8747756800302
 24
278.183018523138
 50
0
1001
ACAD
1000
DSTYLE
1002
{
1070
    77
1070
     1
1070
   172
1070
     1
1002
}
  0
DIMENSION
  8
0
  6
CONTINUOUS
 62
     7
  2
*D5
 70
     0
 10
-184.4747756800302
 20
297.7622039738022
 11
-174.7387211611893
 21
297.7622039738022
  3
DIMSTYLE
 13
-188.4747756800302
 23
278.183018523138
 14
-184.4747756800302
 24
278.183018523138
 50
0
1001
ACAD
1000
DSTYLE
1002
{
1070
    77
1070
     1
1070
   172
1070
     1
1002
}
  0
DIMENSION
  8
0
  6
CONTINUOUS
 62
     7
  2
*D6
 70
     0
 10
-184.4747756800302
 20
307.542605009812
 11
-194.6747756800303
 21
307.542605009812
  3
DIMSTYLE
 13
-204.8747756800302
 23
300.0482039738022
 14
-184.4747756800302
 24
300.0482039738022
 50
0
1001
ACAD
1000
DSTYLE
1002
{
1070
    77
1070
     1
1070
   172
1070
     1
1002
}
  0
DIMENSION
  8
0
  6
CONTINUOUS
 62
     7
  2
*D7
 70
     0
 10
-164.8747756800303
 20
317.8766136516337
 11
-184.8747756800303
 21
317.8766136516337
  3
DIMSTYLE
 13
-204.8747756800302
 23
309.8286050098121
 14
-164.8747756800303
 24
266.683018523138
 50
0
1001
ACAD
1000
DSTYLE
1002
{
1070
    77
1070
     1
1070
   172
1070
     1
1002
}
  0
DIMENSION
  8
0
  6
CONTINUOUS
 62
     7
  2
*D8
 70
     0
 10
-186.4747756800302
 20
188.776910462884
 11
-194.6747756800302
 21
188.776910462884
  3
DIMSTYLE
 13
-202.8747756800302
 23
198.1591277381551
 14
-186.4747756800302
 24
198.1591277381551
 50
0
1001
ACAD
1000
DSTYLE
1002
{
1070
    77
1070
     1
1070
   172
1070
     1
1002
}
  0
ENDSEC
  0
EOF
