  0
SECTION
  2
HEADER
  9
$ACADVER
  1
AC1014
  9
$ACADMAINTVER
 70
         0
  9
$DWGCODEPAGE
  3
ANSI_932
  9
$INSBASE
 10
0.0
 20
0.0
 30
0.0
  9
$EXTMIN
 10
-354.043826
 20
-330.33
 30
0.0
  9
$EXTMAX
 10
360.090231
 20
337.9413085316
 30
0.0
  9
$LIMMIN
 10
-354.043826
 20
-330.33
  9
$LIMMAX
 10
360.090231
 20
337.9413085316
  9
$ORTHOMODE
 70
         0
  9
$REGENMODE
 70
         1
  9
$FILLMODE
 70
         1
  9
$QTEXTMODE
 70
         0
  9
$MIRRTEXT
 70
         1
  9
$DRAGMODE
 70
         2
  9
$LTSCALE
 40
1.0
  9
$OSMODE
 70
         0
  9
$ATTMODE
 70
         1
  9
$TEXTSIZE
 40
3.2000000477
  9
$TRACEWID
 40
0.05
  9
$TEXTSTYLE
  7
MX_NOTE_STANDARD
  9
$CLAYER
  8
0
  9
$CELTYPE
  6
CONTINUOUS
  9
$CECOLOR
 62
       256
  9
$CELTSCALE
 40
1.0
  9
$DELOBJ
 70
         1
  9
$DISPSILH
 70
         0
  9
$DIMSCALE
 40
1.0
  9
$DIMASZ
 40
2.5
  9
$DIMEXO
 40
0.0
  9
$DIMDLI
 40
3.75
  9
$DIMRND
 40
0.0
  9
$DIMDLE
 40
0.0
  9
$DIMEXE
 40
2.5
  9
$DIMTP
 40
0.0
  9
$DIMTM
 40
0.0
  9
$DIMTXT
 40
3.2000000477
  9
$DIMCEN
 40
2.5
  9
$DIMTSZ
 40
0.0
  9
$DIMTOL
 70
         0
  9
$DIMLIM
 70
         0
  9
$DIMTIH
 70
         0
  9
$DIMTOH
 70
         0
  9
$DIMSE1
 70
         0
  9
$DIMSE2
 70
         0
  9
$DIMTAD
 70
         1
  9
$DIMZIN
 70
         8
  9
$DIMBLK
  1

  9
$DIMASO
 70
         1
  9
$DIMSHO
 70
         1
  9
$DIMPOST
  1

  9
$DIMAPOST
  1

  9
$DIMALT
 70
         0
  9
$DIMALTD
 70
         4
  9
$DIMALTF
 40
0.0393700787
  9
$DIMLFAC
 40
1.0
  9
$DIMTOFL
 70
         1
  9
$DIMTVP
 40
0.0
  9
$DIMTIX
 70
         0
  9
$DIMSOXD
 70
         0
  9
$DIMSAH
 70
         1
  9
$DIMBLK1
  1
_OPEN30
  9
$DIMBLK2
  1
_OPEN30
  9
$DIMSTYLE
  2
MXDIMSTYLE
  9
$DIMCLRD
 70
         0
  9
$DIMCLRE
 70
         0
  9
$DIMCLRT
 70
         0
  9
$DIMTFAC
 40
1.0
  9
$DIMGAP
 40
1.0
  9
$DIMJUST
 70
         0
  9
$DIMSD1
 70
         0
  9
$DIMSD2
 70
         0
  9
$DIMTOLJ
 70
         0
  9
$DIMTZIN
 70
         0
  9
$DIMALTZ
 70
         0
  9
$DIMALTTZ
 70
         0
  9
$DIMFIT
 70
         3
  9
$DIMUPT
 70
         0
  9
$DIMUNIT
 70
         2
  9
$DIMDEC
 70
         2
  9
$DIMTDEC
 70
         2
  9
$DIMALTU
 70
         2
  9
$DIMALTTD
 70
         4
  9
$DIMTXSTY
  7
MX_NOTE_STANDARD
  9
$DIMAUNIT
 70
         0
  9
$LUNITS
 70
         2
  9
$LUPREC
 70
         4
  9
$SKETCHINC
 40
0.1
  9
$FILLETRAD
 40
0.0
  9
$AUNITS
 70
         0
  9
$AUPREC
 70
         0
  9
$MENU
  1
acad
  9
$ELEVATION
 40
0.0
  9
$PELEVATION
 40
0.0
  9
$THICKNESS
 40
0.0
  9
$LIMCHECK
 70
         0
  9
$BLIPMODE
 70
         1
  9
$CHAMFERA
 40
0.0
  9
$CHAMFERB
 40
0.0
  9
$CHAMFERC
 40
0.0
  9
$CHAMFERD
 40
0.0
  9
$SKPOLY
 70
         0
  9
$TDCREATE
 40
2456603.419317130
  9
$TDUPDATE
 40
2456603.419317130
  9
$TDINDWG
 40
0.0000000000
  9
$TDUSRTIMER
 40
0.0000000000
  9
$USRTIMER
 70
         1
  9
$ANGBASE
 50
0.0
  9
$ANGDIR
 70
         0
  9
$PDMODE
 70
         0
  9
$PDSIZE
 40
0.0
  9
$PLINEWID
 40
0.0
  9
$COORDS
 70
         1
  9
$SPLFRAME
 70
         0
  9
$SPLINETYPE
 70
         6
  9
$SPLINESEGS
 70
         8
  9
$ATTDIA
 70
         0
  9
$ATTREQ
 70
         1
  9
$HANDLING
 70
         1
  9
$HANDSEED
  5
1FE
  9
$SURFTAB1
 70
         6
  9
$SURFTAB2
 70
         6
  9
$SURFTYPE
 70
         6
  9
$SURFU
 70
         6
  9
$SURFV
 70
         6
  9
$UCSNAME
  2

  9
$UCSORG
 10
0.0
 20
0.0
 30
0.0
  9
$UCSXDIR
 10
1.0
 20
0.0
 30
0.0
  9
$UCSYDIR
 10
0.0
 20
1.0
 30
0.0
  9
$PUCSNAME
  2

  9
$PUCSORG
 10
0.0
 20
0.0
 30
0.0
  9
$PUCSXDIR
 10
1.0
 20
0.0
 30
0.0
  9
$PUCSYDIR
 10
0.0
 20
1.0
 30
0.0
  9
$USERI1
 70
         0
  9
$USERI2
 70
         0
  9
$USERI3
 70
         0
  9
$USERI4
 70
         0
  9
$USERI5
 70
         0
  9
$USERR1
 40
0.0
  9
$USERR2
 40
0.0
  9
$USERR3
 40
0.0
  9
$USERR4
 40
0.0
  9
$USERR5
 40
0.0
  9
$WORLDVIEW
 70
         1
  9
$SHADEDGE
 70
         3
  9
$SHADEDIF
 70
        70
  9
$TILEMODE
 70
         1
  9
$MAXACTVP
 70
        16
  9
$PINSBASE
 10
0.0
 20
0.0
 30
0.0
  9
$PLIMCHECK
 70
         0
  9
$PEXTMIN
 10
1.0000000000E+20
 20
1.0000000000E+20
 30
1.0000000000E+20
  9
$PEXTMAX
 10
-1.0000000000E+20
 20
-1.0000000000E+20
 30
-1.0000000000E+20
  9
$PLIMMIN
 10
0.0
 20
0.0
  9
$PLIMMAX
 10
12.0
 20
9.0
  9
$UNITMODE
 70
         0
  9
$VISRETAIN
 70
         0
  9
$PLINEGEN
 70
         1
  9
$PSLTSCALE
 70
         0
  9
$TREEDEPTH
 70
      3020
  9
$PICKSTYLE
 70
         1
  9
$CMLSTYLE
  2
Standard
  9
$CMLJUST
 70
         0
  9
$CMLSCALE
 40
1.0
  9
$PROXYGRAPHICS
 70
         0
  9
$MEASUREMENT
 70
         1
  0
ENDSEC
  0
SECTION
  2
CLASSES
  0
CLASS
  1
LWPOLYLINE
  2
AcDbPolyline
  3
"AutoCAD"
 90
        0
280
         0
281
         1
  0
CLASS
  1
IMAGE
  2
AcDbRasterImage
  3
ISM
 90
      127
280
         0
281
         1
  0
CLASS
  1
OLE2FRAME
  2
AcDbOle2Frame
  3
""
 90
        0
280
         0
281
         1
  0
CLASS
  1
HATCH
  2
AcDbHatch
  3
"ACAD_SEDONA"
 90
        0
280
         0
281
         1
  0
CLASS
  1
DICTIONARYVAR
  2
AcDbDictionaryVar
  3
"AutoCAD"
 90
        0
280
         0
281
         0
  0
CLASS
  1
RASTERVARIABLES
  2
AcDbRasterVariables
  3
ISM
 90
        0
280
         0
281
         0
  0
CLASS
  1
IMAGEDEF
  2
AcDbRasterImageDef
  3
ISM
 90
        0
280
         0
281
         0
  0
CLASS
  1
IMAGEDEF_REACTOR
  2
AcDbRasterImageDefReactor
  3
ISM
 90
        1
280
         0
281
         0
  0
CLASS
  1
IDBUFFER
  2
AcDbIdBuffer
  3
"Acad"
 90
        0
280
         0
281
         0
  0
CLASS
  1
SPATIAL_FILTER
  2
AcDbSpatialFilter
  3
"Acad"
 90
        0
280
         0
281
         0
  0
CLASS
  1
XRECORD
  2
AcDbXrecord
  3
"<Built In>"
 90
        0
280
         0
281
         0
  0
CLASS
  1
SORTENTSTABLE
  2
AcDbSortentsTable
  3
"AutoCAD"
 90
        0
280
         0
281
         0
  0
CLASS
  1
LAYER_INDEX
  2
AcDbLayerIndex
  3
"Acad"
 90
        0
280
         0
281
         0
  0
CLASS
  1
SPATIAL_INDEX
  2
AcDbSpatialIndex
  3
"Acad"
 90
        0
280
         0
281
         0
  0
CLASS
  1
OBJECT_PTR
  2
CAseDLPNTableRecord
  3
"ASE-LPNTableRecord"
 90
        1
280
         0
281
         0
  0
CLASS
  1
LAYOUT
  2
AcDbLayout
  3
"AutoCAD 2000"
 90
        0
280
         0
281
         0
  0
CLASS
  1
PLOTSETTINGS
  2
AcDbPlotSettings
  3
"AutoCAD 2000"
 90
        0
280
         0
281
         0
  0
CLASS
  1
ACDBDICTIONARYWDFLT
  2
AcDbDictionaryWithDefault
  3
"AutoCAD 2000"
 90
        0
280
         0
281
         0
  0
CLASS
  1
ACDBPLACEHOLDER
  2
AcDbPlaceHolder
  3
"AutoCAD 2000"
 90
        0
280
         0
281
         0
  0
ENDSEC
  0
SECTION
  2
TABLES
  0
TABLE
  2
VPORT
  5
7
100
AcDbSymbolTable
 70
         1
  0
VPORT
  5
15
100
AcDbSymbolTableRecord
100
AcDbViewportTableRecord
  2
*ACTIVE
 70
         0
 10
0.0
 20
0.0
 11
1.0
 21
1.0
 12
3.0232025
 22
3.8056542658
 13
0.0
 23
0.0
 14
1.0
 24
1.0
 15
0.0
 25
0.0
 16
0.0
 26
0.0
 36
1.0
 17
0.0
 27
0.0
 37
0.0
 40
674.9540216169
 41
1.7320508076
 42
50.0
 43
0.0
 44
0.0
 50
0.0
 51
0.0
 71
         0
 72
       100
 73
         1
 74
         1
 75
         0
 76
         0
 77
         0
 78
         0
  0
ENDTAB
  0
TABLE
  2
LTYPE
  5
4
100
AcDbSymbolTable
 70
         4
  0
LTYPE
  5
11
100
AcDbSymbolTableRecord
100
AcDbLinetypeTableRecord
  2
BYBLOCK
 70
        64
  3

 72
        65
 73
         0
 40
0.0
  0
LTYPE
  5
12
100
AcDbSymbolTableRecord
100
AcDbLinetypeTableRecord
  2
BYLAYER
 70
        64
  3

 72
        65
 73
         0
 40
0.0
  0
LTYPE
  5
13
100
AcDbSymbolTableRecord
100
AcDbLinetypeTableRecord
  2
CONTINUOUS
 70
        64
  3
Solid line
 72
        65
 73
         0
 40
0.0
  0
LTYPE
  5
2B
100
AcDbSymbolTableRecord
100
AcDbLinetypeTableRecord
  2
CENTER
 70
        64
  3
Center ____ _ ____ _ ____ _ ____ _ ____ _ ____
 72
        65
 73
         4
 40
50.8
 49
31.75
 74
         0
 49
-6.35
 74
         0
 49
6.35
 74
         0
 49
-6.35
 74
         0
  0
ENDTAB
  0
TABLE
  2
LAYER
  5
2
100
AcDbSymbolTable
 70
         3
  0
LAYER
  5
14
100
AcDbSymbolTableRecord
100
AcDbLayerTableRecord
  2
0
 70
         0
 62
         7
  6
CONTINUOUS
  0
LAYER
  5
1D
100
AcDbSymbolTableRecord
100
AcDbLayerTableRecord
  2
DEFPOINTS
 70
         0
 62
         7
  6
CONTINUOUS
  0
LAYER
  5
1E
100
AcDbSymbolTableRecord
100
AcDbLayerTableRecord
  2
PV
 70
         0
 62
         3
  6
CONTINUOUS
  0
ENDTAB
  0
TABLE
  2
STYLE
  5
3
100
AcDbSymbolTable
 70
         3
  0
STYLE
  5
17
100
AcDbSymbolTableRecord
100
AcDbTextStyleTableRecord
  2
MX_NOTE_STANDARD
 70
         0
 40
0.0
 41
1.0
 50
0.0
 71
         0
 42
3.2000000477
  3
txt.shx
  4
extfont.shx
  0
STYLE
  5
1BA
100
AcDbSymbolTableRecord
100
AcDbTextStyleTableRecord
  2
MX_DIMTXSTY_2
 70
         0
 40
0.0
 41
0.9
 50
0.0
 71
         0
 42
3.2000000477
  3
txt.shx
  4
extfont.shx
  0
STYLE
  5
1CA
100
AcDbSymbolTableRecord
100
AcDbTextStyleTableRecord
  2
MX_DIMTXSTY_3
 70
         0
 40
0.0
 41
1.1
 50
0.0
 71
         0
 42
3.2000000477
  3
txt.shx
  4
extfont.shx
  0
ENDTAB
  0
TABLE
  2
VIEW
  5
5
100
AcDbSymbolTable
 70
         0
  0
ENDTAB
  0
TABLE
  2
UCS
  5
6
100
AcDbSymbolTable
 70
         0
  0
ENDTAB
  0
TABLE
  2
APPID
  5
8
100
AcDbSymbolTable
 70
         1
  0
APPID
  5
16
100
AcDbSymbolTableRecord
100
AcDbRegAppTableRecord
  2
ACAD
 70
         0
  0
ENDTAB
  0
TABLE
  2
DIMSTYLE
  5
9
100
AcDbSymbolTable
 70
         1
  0
DIMSTYLE
105
18
100
AcDbSymbolTableRecord
100
AcDbDimStyleTableRecord
  2
MXDIMSTYLE
 70
         0
  3

  4

  5

  6
_OPEN30
  7
_OPEN30
 40
1.0
 41
2.5
 42
0.0
 43
3.75
 44
2.5
 45
0.0
 46
0.0
 47
0.0
 48
0.0
 71
         0
 72
         0
 73
         0
 74
         0
 75
         0
 76
         0
 77
         1
 78
         8
140
3.2000000477
141
2.5
142
0.0
143
0.0393700787
144
1.0
145
0.0
146
1.0
147
1.0
170
         0
171
         4
172
         1
173
         1
174
         0
175
         0
176
         0
177
         0
178
         0
270
         2
271
         2
272
         2
273
         2
274
         4
275
         0
280
         0
281
         0
282
         0
283
         0
284
         0
285
         0
286
         0
287
         3
288
         0
340
17
  0
ENDTAB
  0
TABLE
  2
BLOCK_RECORD
  5
1
100
AcDbSymbolTable
 70
         9
  0
BLOCK_RECORD
  5
A
100
AcDbSymbolTableRecord
100
AcDbBlockTableRecord
  2
*MODEL_SPACE
  0
BLOCK_RECORD
  5
B
100
AcDbSymbolTableRecord
100
AcDbBlockTableRecord
  2
*PAPER_SPACE
  0
BLOCK_RECORD
  5
1F
100
AcDbSymbolTableRecord
100
AcDbBlockTableRecord
  2
ARROW
  0
BLOCK_RECORD
  5
20
100
AcDbSymbolTableRecord
100
AcDbBlockTableRecord
  2
_OPEN30
  0
BLOCK_RECORD
  5
193
100
AcDbSymbolTableRecord
100
AcDbBlockTableRecord
  2
*D2
  0
BLOCK_RECORD
  5
1A2
100
AcDbSymbolTableRecord
100
AcDbBlockTableRecord
  2
*D3
  0
BLOCK_RECORD
  5
1B1
100
AcDbSymbolTableRecord
100
AcDbBlockTableRecord
  2
*D4
  0
BLOCK_RECORD
  5
1C1
100
AcDbSymbolTableRecord
100
AcDbBlockTableRecord
  2
*D5
  0
BLOCK_RECORD
  5
1D1
100
AcDbSymbolTableRecord
100
AcDbBlockTableRecord
  2
*D6
  0
BLOCK_RECORD
  5
1E0
100
AcDbSymbolTableRecord
100
AcDbBlockTableRecord
  2
*D7
  0
BLOCK_RECORD
  5
1EF
100
AcDbSymbolTableRecord
100
AcDbBlockTableRecord
  2
*D8
  0
ENDTAB
  0
ENDSEC
  0
SECTION
  2
BLOCKS
  0
BLOCK
  5
D
100
AcDbEntity
  8
0
100
AcDbBlockBegin
  2
*MODEL_SPACE
 70
         0
 10
0.0
 20
0.0
 30
0.0
  3
*MODEL_SPACE
  1

  0
ENDBLK
  5
E
100
AcDbEntity
  8
0
100
AcDbBlockEnd
  0
BLOCK
  5
F
100
AcDbEntity
 67
         1
  8
0
100
AcDbBlockBegin
  2
*PAPER_SPACE
 70
         0
 10
0.0
 20
0.0
 30
0.0
  3
*PAPER_SPACE
  1

  0
ENDBLK
  5
10
100
AcDbEntity
 67
         1
  8
0
100
AcDbBlockEnd
  0
BLOCK
  5
26
100
AcDbEntity
  8
0
100
AcDbBlockBegin
  2
ARROW
 70
         0
 10
0.0
 20
0.0
 30
0.0
  3
ARROW
  1

  0
LWPOLYLINE
  5
27
100
AcDbEntity
  8
0
  6
CONTINUOUS
 62
       161
100
AcDbPolyline
 90
        3
 70
         0
 10
3.401564
 20
0.911446
 10
0.0
 20
0.0
 10
3.401564
 20
-0.911446
  0
ENDBLK
  5
28
100
AcDbEntity
  8
0
100
AcDbBlockEnd
  0
BLOCK
  5
21
100
AcDbEntity
  8
0
  6
ByBlock
 62
         0
100
AcDbBlockBegin
  2
_OPEN30
 70
         2
 10
0.0
 20
0.0
 30
0.0
  3
_OPEN30
  1

  0
LINE
  5
22
100
AcDbEntity
  8
0
  6
ByBlock
 62
         0
100
AcDbLine
 10
-1.0
 20
0.267949
 30
0.0
 11
0.0
 21
0.0
 31
0.0
  0
LINE
  5
23
100
AcDbEntity
  8
0
  6
ByBlock
 62
         0
100
AcDbLine
 10
0.0
 20
0.0
 30
0.0
 11
-1.0
 21
-0.267949
 31
0.0
  0
LINE
  5
24
100
AcDbEntity
  8
0
  6
ByBlock
 62
         0
100
AcDbLine
 10
0.0
 20
0.0
 30
0.0
 11
-1.0
 21
0.0
 31
0.0
  0
ENDBLK
  5
25
100
AcDbEntity
  8
0
  6
ByBlock
 62
         0
100
AcDbBlockEnd
  0
BLOCK
  5
194
100
AcDbEntity
  8
0
  6
ByBlock
 62
         0
100
AcDbBlockBegin
  2
*D2
 70
         1
 10
0.0
 20
0.0
 30
0.0
  3
*D2
  1

  0
LINE
  5
195
100
AcDbEntity
  8
0
  6
CONTINUOUS
 62
        80
100
AcDbLine
 10
111.774723
 20
-46.150855
 30
0.0
 11
111.774723
 21
246.348853
 31
0.0
  0
LINE
  5
196
100
AcDbEntity
  8
0
  6
CONTINUOUS
 62
        80
100
AcDbLine
 10
129.150021
 20
-46.150855
 30
0.0
 11
109.774723
 21
-46.150855
 31
0.0
  0
LINE
  5
197
100
AcDbEntity
  8
0
  6
CONTINUOUS
 62
        80
100
AcDbLine
 10
129.150021
 20
246.348853
 30
0.0
 11
109.774723
 21
246.348853
 31
0.0
  0
LINE
  5
198
100
AcDbEntity
  8
0
  6
CONTINUOUS
 62
        80
100
AcDbLine
 10
111.774723
 20
-46.150855
 30
0.0
 11
111.774723
 21
-50.150855
 31
0.0
  0
LINE
  5
199
100
AcDbEntity
  8
0
  6
CONTINUOUS
 62
        80
100
AcDbLine
 10
111.774723
 20
246.348853
 30
0.0
 11
111.774723
 21
250.348853
 31
0.0
  0
SOLID
  5
19A
100
AcDbEntity
  8
0
  6
CONTINUOUS
 62
        80
100
AcDbTrace
 10
111.608055995
 20
-47.1508550298
 30
0.0
 11
111.941390005
 21
-47.1508550298
 31
0.0
 12
111.774723
 22
-46.150855
 32
0.0
 13
111.774723
 23
-46.150855
 33
0.0
  0
SOLID
  5
19B
100
AcDbEntity
  8
0
  6
CONTINUOUS
 62
        80
100
AcDbTrace
 10
111.941390005
 20
247.3488530298
 30
0.0
 11
111.608055995
 21
247.3488530298
 31
0.0
 12
111.774723
 22
246.348853
 32
0.0
 13
111.774723
 23
246.348853
 33
0.0
  0
MTEXT
  5
19C
100
AcDbEntity
  8
0
  6
CONTINUOUS
 62
        80
100
AcDbMText
 10
109.1747229762
 20
98.9073267627
 30
0.0
 40
3.2000000477
 41
0.0
 71
         5
 72
         1
  1
\A1;\U+2205292.5
 11
0.0
 21
1.0
 31
0.0
  0
POINT
  5
19D
100
AcDbEntity
  8
DEFPOINTS
  6
CONTINUOUS
 62
         0
100
AcDbPoint
 10
129.150021
 20
-46.150855
 30
0.0
  0
POINT
  5
19E
100
AcDbEntity
  8
DEFPOINTS
  6
CONTINUOUS
 62
         0
100
AcDbPoint
 10
129.150021
 20
246.348853
 30
0.0
  0
POINT
  5
19F
100
AcDbEntity
  8
DEFPOINTS
  6
CONTINUOUS
 62
         0
100
AcDbPoint
 10
111.774723
 20
246.348853
 30
0.0
  0
ENDBLK
  5
1A0
100
AcDbEntity
  8
0
  6
ByBlock
 62
         0
100
AcDbBlockEnd
  0
BLOCK
  5
1A3
100
AcDbEntity
  8
0
  6
ByBlock
 62
         0
100
AcDbBlockBegin
  2
*D3
 70
         1
 10
0.0
 20
0.0
 30
0.0
  3
*D3
  1

  0
LINE
  5
1A4
100
AcDbEntity
  8
0
  6
CONTINUOUS
 62
        80
100
AcDbLine
 10
243.029244
 20
230.098869
 30
0.0
 11
243.029244
 21
-29.900871
 31
0.0
  0
LINE
  5
1A5
100
AcDbEntity
  8
0
  6
CONTINUOUS
 62
        80
100
AcDbLine
 10
203.649945
 20
230.098869
 30
0.0
 11
245.029244
 21
230.098869
 31
0.0
  0
LINE
  5
1A6
100
AcDbEntity
  8
0
  6
CONTINUOUS
 62
        80
100
AcDbLine
 10
203.649945
 20
-29.900871
 30
0.0
 11
245.029244
 21
-29.900871
 31
0.0
  0
LINE
  5
1A7
100
AcDbEntity
  8
0
  6
CONTINUOUS
 62
        80
100
AcDbLine
 10
243.029244
 20
230.098869
 30
0.0
 11
243.029244
 21
234.098869
 31
0.0
  0
LINE
  5
1A8
100
AcDbEntity
  8
0
  6
CONTINUOUS
 62
        80
100
AcDbLine
 10
243.029244
 20
-29.900871
 30
0.0
 11
243.029244
 21
-33.900871
 31
0.0
  0
SOLID
  5
1A9
100
AcDbEntity
  8
0
  6
CONTINUOUS
 62
        80
100
AcDbTrace
 10
243.195911005
 20
231.0988690298
 30
0.0
 11
242.862576995
 21
231.0988690298
 31
0.0
 12
243.029244
 22
230.098869
 32
0.0
 13
243.029244
 23
230.098869
 33
0.0
  0
SOLID
  5
1AA
100
AcDbEntity
  8
0
  6
CONTINUOUS
 62
        80
100
AcDbTrace
 10
242.862576995
 20
-30.9008710298
 30
0.0
 11
243.195911005
 21
-30.9008710298
 31
0.0
 12
243.029244
 22
-29.900871
 32
0.0
 13
243.029244
 23
-29.900871
 33
0.0
  0
MTEXT
  5
1AB
100
AcDbEntity
  8
0
  6
CONTINUOUS
 62
        80
100
AcDbMText
 10
240.4292439762
 20
99.1073376279
 30
0.0
 40
3.2000000477
 41
0.0
 71
         5
 72
         1
  1
\A1;\U+2205260
 11
0.0
 21
1.0
 31
0.0
  0
POINT
  5
1AC
100
AcDbEntity
  8
DEFPOINTS
  6
CONTINUOUS
 62
         0
100
AcDbPoint
 10
203.649945
 20
230.098869
 30
0.0
  0
POINT
  5
1AD
100
AcDbEntity
  8
DEFPOINTS
  6
CONTINUOUS
 62
         0
100
AcDbPoint
 10
203.649945
 20
-29.900871
 30
0.0
  0
POINT
  5
1AE
100
AcDbEntity
  8
DEFPOINTS
  6
CONTINUOUS
 62
         0
100
AcDbPoint
 10
243.029244
 20
-29.900871
 30
0.0
  0
ENDBLK
  5
1AF
100
AcDbEntity
  8
0
  6
ByBlock
 62
         0
100
AcDbBlockEnd
  0
BLOCK
  5
1B2
100
AcDbEntity
  8
0
  6
ByBlock
 62
         0
100
AcDbBlockBegin
  2
*D4
 70
         1
 10
0.0
 20
0.0
 30
0.0
  3
*D4
  1

  0
LINE
  5
1B3
100
AcDbEntity
  8
0
  6
CONTINUOUS
 62
        80
100
AcDbLine
 10
274.575395
 20
262.598836
 30
0.0
 11
274.575395
 21
-62.400838
 31
0.0
  0
LINE
  5
1B4
100
AcDbEntity
  8
0
  6
CONTINUOUS
 62
        80
100
AcDbLine
 10
203.649949
 20
262.598836
 30
0.0
 11
276.575395
 21
262.598836
 31
0.0
  0
LINE
  5
1B5
100
AcDbEntity
  8
0
  6
CONTINUOUS
 62
        80
100
AcDbLine
 10
203.649949
 20
-62.400838
 30
0.0
 11
276.575395
 21
-62.400838
 31
0.0
  0
LINE
  5
1B6
100
AcDbEntity
  8
0
  6
CONTINUOUS
 62
        80
100
AcDbLine
 10
274.575395
 20
262.598836
 30
0.0
 11
274.575395
 21
266.598836
 31
0.0
  0
LINE
  5
1B7
100
AcDbEntity
  8
0
  6
CONTINUOUS
 62
        80
100
AcDbLine
 10
274.575395
 20
-62.400838
 30
0.0
 11
274.575395
 21
-66.400838
 31
0.0
  0
SOLID
  5
1B8
100
AcDbEntity
  8
0
  6
CONTINUOUS
 62
        80
100
AcDbTrace
 10
274.742062005
 20
263.5988360298
 30
0.0
 11
274.408727995
 21
263.5988360298
 31
0.0
 12
274.575395
 22
262.598836
 32
0.0
 13
274.575395
 23
262.598836
 33
0.0
  0
SOLID
  5
1B9
100
AcDbEntity
  8
0
  6
CONTINUOUS
 62
        80
100
AcDbTrace
 10
274.408727995
 20
-63.4008380298
 30
0.0
 11
274.742062005
 21
-63.4008380298
 31
0.0
 12
274.575395
 22
-62.400838
 32
0.0
 13
274.575395
 23
-62.400838
 33
0.0
  0
MTEXT
  5
1BB
100
AcDbEntity
  8
0
  6
CONTINUOUS
 62
        80
100
AcDbMText
 10
271.9753949762
 20
99.1073351455
 30
0.0
 40
3.2000000477
 41
0.0
 71
         5
 72
         1
  1
\A1;\U+2205325
  7
MX_DIMTXSTY_2
 11
0.0
 21
1.0
 31
0.0
  0
POINT
  5
1BC
100
AcDbEntity
  8
DEFPOINTS
  6
CONTINUOUS
 62
         0
100
AcDbPoint
 10
203.649949
 20
262.598836
 30
0.0
  0
POINT
  5
1BD
100
AcDbEntity
  8
DEFPOINTS
  6
CONTINUOUS
 62
         0
100
AcDbPoint
 10
203.649949
 20
-62.400838
 30
0.0
  0
POINT
  5
1BE
100
AcDbEntity
  8
DEFPOINTS
  6
CONTINUOUS
 62
         0
100
AcDbPoint
 10
274.575395
 20
-62.400838
 30
0.0
  0
ENDBLK
  5
1BF
100
AcDbEntity
  8
0
  6
ByBlock
 62
         0
100
AcDbBlockEnd
  0
BLOCK
  5
1C2
100
AcDbEntity
  8
0
  6
ByBlock
 62
         0
100
AcDbBlockBegin
  2
*D5
 70
         1
 10
0.0
 20
0.0
 30
0.0
  3
*D5
  1

  0
LINE
  5
1C3
100
AcDbEntity
  8
0
  6
CONTINUOUS
 62
        80
100
AcDbLine
 10
152.649997
 20
298.836272
 30
0.0
 11
203.649946
 21
298.836272
 31
0.0
  0
LINE
  5
1C4
100
AcDbEntity
  8
0
  6
CONTINUOUS
 62
        80
100
AcDbLine
 10
152.649997
 20
262.598838
 30
0.0
 11
152.649997
 21
300.836272
 31
0.0
  0
LINE
  5
1C5
100
AcDbEntity
  8
0
  6
CONTINUOUS
 62
        80
100
AcDbLine
 10
203.649946
 20
262.598838
 30
0.0
 11
203.649946
 21
300.836272
 31
0.0
  0
LINE
  5
1C6
100
AcDbEntity
  8
0
  6
CONTINUOUS
 62
        80
100
AcDbLine
 10
152.649997
 20
298.836272
 30
0.0
 11
148.649997
 21
298.836272
 31
0.0
  0
LINE
  5
1C7
100
AcDbEntity
  8
0
  6
CONTINUOUS
 62
        80
100
AcDbLine
 10
203.649946
 20
298.836272
 30
0.0
 11
207.649946
 21
298.836272
 31
0.0
  0
SOLID
  5
1C8
100
AcDbEntity
  8
0
  6
CONTINUOUS
 62
        80
100
AcDbTrace
 10
151.6499969702
 20
299.002939005
 30
0.0
 11
151.6499969702
 21
298.669604995
 31
0.0
 12
152.649997
 22
298.836272
 32
0.0
 13
152.649997
 23
298.836272
 33
0.0
  0
SOLID
  5
1C9
100
AcDbEntity
  8
0
  6
CONTINUOUS
 62
        80
100
AcDbTrace
 10
204.6499460298
 20
298.669604995
 30
0.0
 11
204.6499460298
 21
299.002939005
 31
0.0
 12
203.649946
 22
298.836272
 32
0.0
 13
203.649946
 23
298.836272
 33
0.0
  0
MTEXT
  5
1CB
100
AcDbEntity
  8
0
  6
CONTINUOUS
 62
        80
100
AcDbMText
 10
177.3583042662
 20
301.4362720238
 30
0.0
 40
3.2000000477
 41
0.0
 71
         5
 72
         1
  1
\A1;51
  7
MX_DIMTXSTY_3
  0
POINT
  5
1CC
100
AcDbEntity
  8
DEFPOINTS
  6
CONTINUOUS
 62
         0
100
AcDbPoint
 10
152.649997
 20
262.598838
 30
0.0
  0
POINT
  5
1CD
100
AcDbEntity
  8
DEFPOINTS
  6
CONTINUOUS
 62
         0
100
AcDbPoint
 10
203.649946
 20
262.598838
 30
0.0
  0
POINT
  5
1CE
100
AcDbEntity
  8
DEFPOINTS
  6
CONTINUOUS
 62
         0
100
AcDbPoint
 10
203.649946
 20
298.836272
 30
0.0
  0
ENDBLK
  5
1CF
100
AcDbEntity
  8
0
  6
ByBlock
 62
         0
100
AcDbBlockEnd
  0
BLOCK
  5
1D2
100
AcDbEntity
  8
0
  6
ByBlock
 62
         0
100
AcDbBlockBegin
  2
*D6
 70
         1
 10
0.0
 20
0.0
 30
0.0
  3
*D6
  1

  0
LINE
  5
1D3
100
AcDbEntity
  8
0
  6
CONTINUOUS
 62
        80
100
AcDbLine
 10
150.15
 20
316.299319
 30
0.0
 11
206.149944
 21
316.299319
 31
0.0
  0
LINE
  5
1D4
100
AcDbEntity
  8
0
  6
CONTINUOUS
 62
        80
100
AcDbLine
 10
150.15
 20
260.648837
 30
0.0
 11
150.15
 21
318.299319
 31
0.0
  0
LINE
  5
1D5
100
AcDbEntity
  8
0
  6
CONTINUOUS
 62
        80
100
AcDbLine
 10
206.149944
 20
260.648837
 30
0.0
 11
206.149944
 21
318.299319
 31
0.0
  0
LINE
  5
1D6
100
AcDbEntity
  8
0
  6
CONTINUOUS
 62
        80
100
AcDbLine
 10
150.15
 20
316.299319
 30
0.0
 11
146.15
 21
316.299319
 31
0.0
  0
LINE
  5
1D7
100
AcDbEntity
  8
0
  6
CONTINUOUS
 62
        80
100
AcDbLine
 10
206.149944
 20
316.299319
 30
0.0
 11
210.149944
 21
316.299319
 31
0.0
  0
SOLID
  5
1D8
100
AcDbEntity
  8
0
  6
CONTINUOUS
 62
        80
100
AcDbTrace
 10
149.1499999702
 20
316.465986005
 30
0.0
 11
149.1499999702
 21
316.132651995
 31
0.0
 12
150.15
 22
316.299319
 32
0.0
 13
150.15
 23
316.299319
 33
0.0
  0
SOLID
  5
1D9
100
AcDbEntity
  8
0
  6
CONTINUOUS
 62
        80
100
AcDbTrace
 10
207.1499440298
 20
316.132651995
 30
0.0
 11
207.1499440298
 21
316.465986005
 31
0.0
 12
206.149944
 22
316.299319
 32
0.0
 13
206.149944
 23
316.299319
 33
0.0
  0
MTEXT
  5
1DA
100
AcDbEntity
  8
0
  6
CONTINUOUS
 62
        80
100
AcDbMText
 10
177.3583034515
 20
318.8993190238
 30
0.0
 40
3.2000000477
 41
0.0
 71
         5
 72
         1
  1
\A1;56
  0
POINT
  5
1DB
100
AcDbEntity
  8
DEFPOINTS
  6
CONTINUOUS
 62
         0
100
AcDbPoint
 10
150.15
 20
260.648837
 30
0.0
  0
POINT
  5
1DC
100
AcDbEntity
  8
DEFPOINTS
  6
CONTINUOUS
 62
         0
100
AcDbPoint
 10
206.149944
 20
260.648837
 30
0.0
  0
POINT
  5
1DD
100
AcDbEntity
  8
DEFPOINTS
  6
CONTINUOUS
 62
         0
100
AcDbPoint
 10
206.149944
 20
316.299319
 30
0.0
  0
ENDBLK
  5
1DE
100
AcDbEntity
  8
0
  6
ByBlock
 62
         0
100
AcDbBlockEnd
  0
BLOCK
  5
1E1
100
AcDbEntity
  8
0
  6
ByBlock
 62
         0
100
AcDbBlockBegin
  2
*D7
 70
         1
 10
0.0
 20
0.0
 30
0.0
  3
*D7
  1

  0
LINE
  5
1E2
100
AcDbEntity
  8
0
  6
CONTINUOUS
 62
        80
100
AcDbLine
 10
134.150016
 20
316.299319
 30
0.0
 11
150.15
 21
316.299319
 31
0.0
  0
LINE
  5
1E3
100
AcDbEntity
  8
0
  6
CONTINUOUS
 62
        80
100
AcDbLine
 10
134.150016
 20
256.616843
 30
0.0
 11
134.150016
 21
318.299319
 31
0.0
  0
LINE
  5
1E4
100
AcDbEntity
  8
0
  6
CONTINUOUS
 62
        80
100
AcDbLine
 10
150.15
 20
260.648837
 30
0.0
 11
150.15
 21
318.299319
 31
0.0
  0
LINE
  5
1E5
100
AcDbEntity
  8
0
  6
CONTINUOUS
 62
        80
100
AcDbLine
 10
134.150016
 20
316.299319
 30
0.0
 11
130.150016
 21
316.299319
 31
0.0
  0
LINE
  5
1E6
100
AcDbEntity
  8
0
  6
CONTINUOUS
 62
        80
100
AcDbLine
 10
150.15
 20
316.299319
 30
0.0
 11
154.15
 21
316.299319
 31
0.0
  0
SOLID
  5
1E7
100
AcDbEntity
  8
0
  6
CONTINUOUS
 62
        80
100
AcDbTrace
 10
133.1500159702
 20
316.465986005
 30
0.0
 11
133.1500159702
 21
316.132651995
 31
0.0
 12
134.150016
 22
316.299319
 32
0.0
 13
134.150016
 23
316.299319
 33
0.0
  0
SOLID
  5
1E8
100
AcDbEntity
  8
0
  6
CONTINUOUS
 62
        80
100
AcDbTrace
 10
151.1500000298
 20
316.132651995
 30
0.0
 11
151.1500000298
 21
316.465986005
 31
0.0
 12
150.15
 22
316.299319
 32
0.0
 13
150.15
 23
316.299319
 33
0.0
  0
MTEXT
  5
1E9
100
AcDbEntity
  8
0
  6
CONTINUOUS
 62
        80
100
AcDbMText
 10
141.3583418629
 20
318.8993190238
 30
0.0
 40
3.2000000477
 41
0.0
 71
         5
 72
         1
  1
\A1;16
  7
MX_DIMTXSTY_3
  0
POINT
  5
1EA
100
AcDbEntity
  8
DEFPOINTS
  6
CONTINUOUS
 62
         0
100
AcDbPoint
 10
134.150016
 20
256.616843
 30
0.0
  0
POINT
  5
1EB
100
AcDbEntity
  8
DEFPOINTS
  6
CONTINUOUS
 62
         0
100
AcDbPoint
 10
150.15
 20
260.648837
 30
0.0
  0
POINT
  5
1EC
100
AcDbEntity
  8
DEFPOINTS
  6
CONTINUOUS
 62
         0
100
AcDbPoint
 10
150.15
 20
316.299319
 30
0.0
  0
ENDBLK
  5
1ED
100
AcDbEntity
  8
0
  6
ByBlock
 62
         0
100
AcDbBlockEnd
  0
BLOCK
  5
1F0
100
AcDbEntity
  8
0
  6
ByBlock
 62
         0
100
AcDbBlockBegin
  2
*D8
 70
         1
 10
0.0
 20
0.0
 30
0.0
  3
*D8
  1

  0
LINE
  5
1F1
100
AcDbEntity
  8
0
  6
CONTINUOUS
 62
        80
100
AcDbLine
 10
134.150016
 20
332.674642
 30
0.0
 11
206.149944
 21
332.674642
 31
0.0
  0
LINE
  5
1F2
100
AcDbEntity
  8
0
  6
CONTINUOUS
 62
        80
100
AcDbLine
 10
134.150016
 20
256.616842
 30
0.0
 11
134.150016
 21
334.674642
 31
0.0
  0
LINE
  5
1F3
100
AcDbEntity
  8
0
  6
CONTINUOUS
 62
        80
100
AcDbLine
 10
206.149944
 20
260.648839
 30
0.0
 11
206.149944
 21
334.674642
 31
0.0
  0
LINE
  5
1F4
100
AcDbEntity
  8
0
  6
CONTINUOUS
 62
        80
100
AcDbLine
 10
134.150016
 20
332.674642
 30
0.0
 11
130.150016
 21
332.674642
 31
0.0
  0
LINE
  5
1F5
100
AcDbEntity
  8
0
  6
CONTINUOUS
 62
        80
100
AcDbLine
 10
206.149944
 20
332.674642
 30
0.0
 11
210.149944
 21
332.674642
 31
0.0
  0
SOLID
  5
1F6
100
AcDbEntity
  8
0
  6
CONTINUOUS
 62
        80
100
AcDbTrace
 10
133.1500159702
 20
332.841309005
 30
0.0
 11
133.1500159702
 21
332.507974995
 31
0.0
 12
134.150016
 22
332.674642
 32
0.0
 13
134.150016
 23
332.674642
 33
0.0
  0
SOLID
  5
1F7
100
AcDbEntity
  8
0
  6
CONTINUOUS
 62
        80
100
AcDbTrace
 10
207.1499440298
 20
332.507974995
 30
0.0
 11
207.1499440298
 21
332.841309005
 31
0.0
 12
206.149944
 22
332.674642
 32
0.0
 13
206.149944
 23
332.674642
 33
0.0
  0
MTEXT
  5
1F8
100
AcDbEntity
  8
0
  6
CONTINUOUS
 62
        80
100
AcDbMText
 10
169.3583137295
 20
335.2746420238
 30
0.0
 40
3.2000000477
 41
0.0
 71
         5
 72
         1
  1
\A1;72
  0
POINT
  5
1F9
100
AcDbEntity
  8
DEFPOINTS
  6
CONTINUOUS
 62
         0
100
AcDbPoint
 10
134.150016
 20
256.616842
 30
0.0
  0
POINT
  5
1FA
100
AcDbEntity
  8
DEFPOINTS
  6
CONTINUOUS
 62
         0
100
AcDbPoint
 10
206.149944
 20
260.648839
 30
0.0
  0
POINT
  5
1FB
100
AcDbEntity
  8
DEFPOINTS
  6
CONTINUOUS
 62
         0
100
AcDbPoint
 10
206.149944
 20
332.674642
 30
0.0
  0
ENDBLK
  5
1FC
100
AcDbEntity
  8
0
  6
ByBlock
 62
         0
100
AcDbBlockEnd
  0
ENDSEC
  0
SECTION
  2
ENTITIES
  0
MTEXT
  5
29
100
AcDbEntity
  8
0
  6
CONTINUOUS
 62
       110
100
AcDbMText
 10
-91.4628075068
 20
-155.2661995775
 30
0.0
 40
9.6096000671
 41
0.0
 71
         1
 72
         1
  1
\T1.065;\W1.018;\A1;TSUBAKI
  0
MTEXT
  5
2A
100
AcDbEntity
  8
0
  6
CONTINUOUS
 62
       110
100
AcDbMText
 10
-49.2348075068
 20
-79.4381995775
 30
0.0
 40
9.6096000671
 41
0.0
 71
         1
 72
         1
  1
\T1.065;\W1.018;\A1;TSUBAKI
  0
LINE
  5
2C
100
AcDbEntity
  8
PV
  6
CENTER
 62
         3
100
AcDbLine
 10
-63.893116
 20
126.640972
 30
0.0
 11
-10.67417
 21
138.78796
 31
0.0
  0
LINE
  5
2D
100
AcDbEntity
  8
PV
  6
CENTER
 62
         3
100
AcDbLine
 10
-72.715107
 20
151.850947
 30
0.0
 11
-23.533157
 21
175.535924
 31
0.0
  0
LINE
  5
2E
100
AcDbEntity
  8
PV
  6
CENTER
 62
         3
100
AcDbLine
 10
-86.925093
 20
174.466925
 30
0.0
 11
-44.247136
 21
208.501891
 31
0.0
  0
LINE
  5
2F
100
AcDbEntity
  8
PV
  6
CENTER
 62
         3
100
AcDbLine
 10
-105.812074
 20
193.353906
 30
0.0
 11
-71.777108
 21
236.031863
 31
0.0
  0
LINE
  5
30
100
AcDbEntity
  8
PV
  6
CENTER
 62
         3
100
AcDbLine
 10
-128.428052
 20
207.563892
 30
0.0
 11
-104.743075
 21
256.745842
 31
0.0
  0
LINE
  5
31
100
AcDbEntity
  8
PV
  6
CENTER
 62
         3
100
AcDbLine
 10
-153.638027
 20
216.385883
 30
0.0
 11
-141.491039
 21
269.604829
 31
0.0
  0
LINE
  5
32
100
AcDbEntity
  8
PV
  6
CENTER
 62
         3
100
AcDbLine
 10
-180.18
 20
-76.070825
 30
0.0
 11
-180.18
 21
273.963825
 31
0.0
  0
LINE
  5
33
100
AcDbEntity
  8
PV
  6
CENTER
 62
         3
100
AcDbLine
 10
-206.721973
 20
216.385883
 30
0.0
 11
-218.867961
 21
269.604829
 31
0.0
  0
LINE
  5
34
100
AcDbEntity
  8
PV
  6
CENTER
 62
         3
100
AcDbLine
 10
-231.931948
 20
207.563892
 30
0.0
 11
-255.616925
 21
256.745842
 31
0.0
  0
LINE
  5
35
100
AcDbEntity
  8
PV
  6
CENTER
 62
         3
100
AcDbLine
 10
-254.547926
 20
193.353906
 30
0.0
 11
-288.582892
 21
236.031863
 31
0.0
  0
LINE
  5
36
100
AcDbEntity
  8
PV
  6
CENTER
 62
         3
100
AcDbLine
 10
-273.433907
 20
174.466925
 30
0.0
 11
-316.111864
 21
208.500891
 31
0.0
  0
LINE
  5
37
100
AcDbEntity
  8
PV
  6
CENTER
 62
         3
100
AcDbLine
 10
-287.644893
 20
151.850947
 30
0.0
 11
-336.825843
 21
175.535924
 31
0.0
  0
LINE
  5
38
100
AcDbEntity
  8
PV
  6
CENTER
 62
         3
100
AcDbLine
 10
-296.465884
 20
126.639972
 30
0.0
 11
-349.68483
 21
138.78696
 31
0.0
  0
LINE
  5
39
100
AcDbEntity
  8
PV
  6
CENTER
 62
         3
100
AcDbLine
 10
-6.232174
 20
100.098999
 30
0.0
 11
-354.043826
 21
100.098999
 31
0.0
  0
LINE
  5
3A
100
AcDbEntity
  8
PV
  6
CENTER
 62
         3
100
AcDbLine
 10
-296.465884
 20
73.557026
 30
0.0
 11
-349.68483
 21
61.411038
 31
0.0
  0
LINE
  5
3B
100
AcDbEntity
  8
PV
  6
CENTER
 62
         3
100
AcDbLine
 10
-287.644893
 20
48.347051
 30
0.0
 11
-336.825843
 21
24.662074
 31
0.0
  0
LINE
  5
3C
100
AcDbEntity
  8
PV
  6
CENTER
 62
         3
100
AcDbLine
 10
-273.433907
 20
25.731073
 30
0.0
 11
-316.111864
 21
-8.302893
 31
0.0
  0
LINE
  5
3D
100
AcDbEntity
  8
PV
  6
CENTER
 62
         3
100
AcDbLine
 10
-254.547926
 20
6.845092
 30
0.0
 11
-288.581892
 21
-35.832865
 31
0.0
  0
LINE
  5
3E
100
AcDbEntity
  8
PV
  6
CENTER
 62
         3
100
AcDbLine
 10
-231.931948
 20
-7.364894
 30
0.0
 11
-255.616925
 21
-56.546844
 31
0.0
  0
LINE
  5
3F
100
AcDbEntity
  8
PV
  6
CENTER
 62
         3
100
AcDbLine
 10
-206.721973
 20
-16.186885
 30
0.0
 11
-218.867961
 21
-69.405831
 31
0.0
  0
LINE
  5
40
100
AcDbEntity
  8
PV
  6
CENTER
 62
         3
100
AcDbLine
 10
-153.639027
 20
-16.186885
 30
0.0
 11
-141.492039
 21
-69.404831
 31
0.0
  0
LINE
  5
41
100
AcDbEntity
  8
PV
  6
CENTER
 62
         3
100
AcDbLine
 10
-128.428052
 20
-7.365894
 30
0.0
 11
-104.744075
 21
-56.546844
 31
0.0
  0
LINE
  5
42
100
AcDbEntity
  8
PV
  6
CENTER
 62
         3
100
AcDbLine
 10
-105.812074
 20
6.845092
 30
0.0
 11
-71.778108
 21
-35.832865
 31
0.0
  0
LINE
  5
43
100
AcDbEntity
  8
PV
  6
CENTER
 62
         3
100
AcDbLine
 10
-86.926093
 20
25.731073
 30
0.0
 11
-44.248136
 21
-8.302893
 31
0.0
  0
LINE
  5
44
100
AcDbEntity
  8
PV
  6
CENTER
 62
         3
100
AcDbLine
 10
-72.716107
 20
48.347051
 30
0.0
 11
-23.535157
 21
24.662074
 31
0.0
  0
LINE
  5
45
100
AcDbEntity
  8
PV
  6
CENTER
 62
         3
100
AcDbLine
 10
-63.894116
 20
73.557026
 30
0.0
 11
-10.67617
 21
61.411038
 31
0.0
  0
LINE
  5
46
100
AcDbEntity
  8
PV
  6
CONTINUOUS
 62
         3
100
AcDbLine
 10
-180.18
 20
254.431845
 30
0.0
 11
-173.180007
 21
250.389849
 31
0.0
  0
LINE
  5
47
100
AcDbEntity
  8
PV
  6
CONTINUOUS
 62
         3
100
AcDbLine
 10
-180.18
 20
254.430845
 30
0.0
 11
-187.179993
 21
250.389849
 31
0.0
  0
LINE
  5
48
100
AcDbEntity
  8
PV
  6
CONTINUOUS
 62
         3
100
AcDbLine
 10
-180.18
 20
238.265861
 30
0.0
 11
-187.179993
 21
242.306857
 31
0.0
  0
LINE
  5
49
100
AcDbEntity
  8
PV
  6
CONTINUOUS
 62
         3
100
AcDbLine
 10
-180.18
 20
238.264861
 30
0.0
 11
-173.180007
 21
242.306857
 31
0.0
  0
LINE
  5
4A
100
AcDbEntity
  8
PV
  6
CONTINUOUS
 62
         3
100
AcDbLine
 10
-173.180007
 20
250.389849
 30
0.0
 11
-173.180007
 21
242.306857
 31
0.0
  0
LINE
  5
4B
100
AcDbEntity
  8
PV
  6
CONTINUOUS
 62
         3
100
AcDbLine
 10
-187.179993
 20
250.389849
 30
0.0
 11
-187.179993
 21
242.306857
 31
0.0
  0
LINE
  5
4C
100
AcDbEntity
  8
PV
  6
CONTINUOUS
 62
         3
100
AcDbLine
 10
-212.723967
 20
250.764848
 30
0.0
 11
-205.723974
 21
246.722852
 31
0.0
  0
LINE
  5
4D
100
AcDbEntity
  8
PV
  6
CONTINUOUS
 62
         3
100
AcDbLine
 10
-212.722967
 20
250.764848
 30
0.0
 11
-219.72296
 21
246.722852
 31
0.0
  0
LINE
  5
4E
100
AcDbEntity
  8
PV
  6
CONTINUOUS
 62
         3
100
AcDbLine
 10
-212.723967
 20
234.598864
 30
0.0
 11
-219.72396
 21
238.63986
 31
0.0
  0
LINE
  5
4F
100
AcDbEntity
  8
PV
  6
CONTINUOUS
 62
         3
100
AcDbLine
 10
-212.722967
 20
234.598864
 30
0.0
 11
-205.722974
 21
238.63986
 31
0.0
  0
LINE
  5
50
100
AcDbEntity
  8
PV
  6
CONTINUOUS
 62
         3
100
AcDbLine
 10
-205.723974
 20
246.722852
 30
0.0
 11
-205.723974
 21
238.64086
 31
0.0
  0
LINE
  5
51
100
AcDbEntity
  8
PV
  6
CONTINUOUS
 62
         3
100
AcDbLine
 10
-219.72296
 20
246.722852
 30
0.0
 11
-219.72296
 21
238.64086
 31
0.0
  0
LINE
  5
52
100
AcDbEntity
  8
PV
  6
CONTINUOUS
 62
         3
100
AcDbLine
 10
-243.635937
 20
239.947859
 30
0.0
 11
-236.634944
 21
235.906863
 31
0.0
  0
LINE
  5
53
100
AcDbEntity
  8
PV
  6
CONTINUOUS
 62
         3
100
AcDbLine
 10
-243.634937
 20
239.947859
 30
0.0
 11
-250.63493
 21
235.906863
 31
0.0
  0
LINE
  5
54
100
AcDbEntity
  8
PV
  6
CONTINUOUS
 62
         3
100
AcDbLine
 10
-243.634937
 20
223.782875
 30
0.0
 11
-250.63493
 21
227.823871
 31
0.0
  0
LINE
  5
55
100
AcDbEntity
  8
PV
  6
CONTINUOUS
 62
         3
100
AcDbLine
 10
-243.634937
 20
223.781875
 30
0.0
 11
-236.634944
 21
227.823871
 31
0.0
  0
LINE
  5
56
100
AcDbEntity
  8
PV
  6
CONTINUOUS
 62
         3
100
AcDbLine
 10
-236.634944
 20
235.906863
 30
0.0
 11
-236.634944
 21
227.823871
 31
0.0
  0
LINE
  5
57
100
AcDbEntity
  8
PV
  6
CONTINUOUS
 62
         3
100
AcDbLine
 10
-250.63493
 20
235.906863
 30
0.0
 11
-250.63493
 21
227.823871
 31
0.0
  0
LINE
  5
58
100
AcDbEntity
  8
PV
  6
CONTINUOUS
 62
         3
100
AcDbLine
 10
-147.636033
 20
250.764848
 30
0.0
 11
-140.63704
 21
246.722852
 31
0.0
  0
LINE
  5
59
100
AcDbEntity
  8
PV
  6
CONTINUOUS
 62
         3
100
AcDbLine
 10
-147.636033
 20
250.764848
 30
0.0
 11
-154.636026
 21
246.722852
 31
0.0
  0
LINE
  5
5A
100
AcDbEntity
  8
PV
  6
CONTINUOUS
 62
         3
100
AcDbLine
 10
-147.637033
 20
234.598864
 30
0.0
 11
-154.636026
 21
238.63986
 31
0.0
  0
LINE
  5
5B
100
AcDbEntity
  8
PV
  6
CONTINUOUS
 62
         3
100
AcDbLine
 10
-147.636033
 20
234.598864
 30
0.0
 11
-140.63604
 21
238.63986
 31
0.0
  0
LINE
  5
5C
100
AcDbEntity
  8
PV
  6
CONTINUOUS
 62
         3
100
AcDbLine
 10
-140.63604
 20
246.722852
 30
0.0
 11
-140.63604
 21
238.64086
 31
0.0
  0
LINE
  5
5D
100
AcDbEntity
  8
PV
  6
CONTINUOUS
 62
         3
100
AcDbLine
 10
-154.636026
 20
246.722852
 30
0.0
 11
-154.636026
 21
238.64086
 31
0.0
  0
LINE
  5
5E
100
AcDbEntity
  8
PV
  6
CONTINUOUS
 62
         3
100
AcDbLine
 10
-116.725063
 20
239.947859
 30
0.0
 11
-109.72507
 21
235.906863
 31
0.0
  0
LINE
  5
5F
100
AcDbEntity
  8
PV
  6
CONTINUOUS
 62
         3
100
AcDbLine
 10
-116.724063
 20
239.947859
 30
0.0
 11
-123.724056
 21
235.906863
 31
0.0
  0
LINE
  5
60
100
AcDbEntity
  8
PV
  6
CONTINUOUS
 62
         3
100
AcDbLine
 10
-116.725063
 20
223.781875
 30
0.0
 11
-123.725056
 21
227.823871
 31
0.0
  0
LINE
  5
61
100
AcDbEntity
  8
PV
  6
CONTINUOUS
 62
         3
100
AcDbLine
 10
-116.724063
 20
223.781875
 30
0.0
 11
-109.72407
 21
227.823871
 31
0.0
  0
LINE
  5
62
100
AcDbEntity
  8
PV
  6
CONTINUOUS
 62
         3
100
AcDbLine
 10
-109.72507
 20
235.906863
 30
0.0
 11
-109.72507
 21
227.823871
 31
0.0
  0
LINE
  5
63
100
AcDbEntity
  8
PV
  6
CONTINUOUS
 62
         3
100
AcDbLine
 10
-123.725056
 20
235.906863
 30
0.0
 11
-123.725056
 21
227.823871
 31
0.0
  0
LINE
  5
64
100
AcDbEntity
  8
PV
  6
CONTINUOUS
 62
         3
100
AcDbLine
 10
-65.837114
 20
199.3669
 30
0.0
 11
-58.837121
 21
195.325904
 31
0.0
  0
LINE
  5
65
100
AcDbEntity
  8
PV
  6
CONTINUOUS
 62
         3
100
AcDbLine
 10
-65.837114
 20
199.3669
 30
0.0
 11
-72.837107
 21
195.325904
 31
0.0
  0
LINE
  5
66
100
AcDbEntity
  8
PV
  6
CONTINUOUS
 62
         3
100
AcDbLine
 10
-65.837114
 20
183.200916
 30
0.0
 11
-72.837107
 21
187.242912
 31
0.0
  0
LINE
  5
67
100
AcDbEntity
  8
PV
  6
CONTINUOUS
 62
         3
100
AcDbLine
 10
-65.837114
 20
183.200916
 30
0.0
 11
-58.837121
 21
187.242912
 31
0.0
  0
LINE
  5
68
100
AcDbEntity
  8
PV
  6
CONTINUOUS
 62
         3
100
AcDbLine
 10
-58.837121
 20
195.325904
 30
0.0
 11
-58.837121
 21
187.242912
 31
0.0
  0
LINE
  5
69
100
AcDbEntity
  8
PV
  6
CONTINUOUS
 62
         3
100
AcDbLine
 10
-72.837107
 20
195.325904
 30
0.0
 11
-72.837107
 21
187.242912
 31
0.0
  0
LINE
  5
6A
100
AcDbEntity
  8
PV
  6
CONTINUOUS
 62
         3
100
AcDbLine
 10
-48.414132
 20
171.636927
 30
0.0
 11
-41.413139
 21
167.595932
 31
0.0
  0
LINE
  5
6B
100
AcDbEntity
  8
PV
  6
CONTINUOUS
 62
         3
100
AcDbLine
 10
-48.414132
 20
171.636927
 30
0.0
 11
-55.414125
 21
167.595932
 31
0.0
  0
LINE
  5
6C
100
AcDbEntity
  8
PV
  6
CONTINUOUS
 62
         3
100
AcDbLine
 10
-48.413132
 20
155.470944
 30
0.0
 11
-55.414125
 21
159.51294
 31
0.0
  0
LINE
  5
6D
100
AcDbEntity
  8
PV
  6
CONTINUOUS
 62
         3
100
AcDbLine
 10
-48.414132
 20
155.470944
 30
0.0
 11
-41.414139
 21
159.51294
 31
0.0
  0
LINE
  5
6E
100
AcDbEntity
  8
PV
  6
CONTINUOUS
 62
         3
100
AcDbLine
 10
-41.413139
 20
167.595932
 30
0.0
 11
-41.413139
 21
159.51294
 31
0.0
  0
LINE
  5
6F
100
AcDbEntity
  8
PV
  6
CONTINUOUS
 62
         3
100
AcDbLine
 10
-55.413125
 20
167.595932
 30
0.0
 11
-55.413125
 21
159.51294
 31
0.0
  0
LINE
  5
70
100
AcDbEntity
  8
PV
  6
CONTINUOUS
 62
         3
100
AcDbLine
 10
-37.597143
 20
140.724958
 30
0.0
 11
-30.59715
 21
136.683962
 31
0.0
  0
LINE
  5
71
100
AcDbEntity
  8
PV
  6
CONTINUOUS
 62
         3
100
AcDbLine
 10
-37.597143
 20
140.724958
 30
0.0
 11
-44.597136
 21
136.683962
 31
0.0
  0
LINE
  5
72
100
AcDbEntity
  8
PV
  6
CONTINUOUS
 62
         3
100
AcDbLine
 10
-37.597143
 20
124.559975
 30
0.0
 11
-44.597136
 21
128.60097
 31
0.0
  0
LINE
  5
73
100
AcDbEntity
  8
PV
  6
CONTINUOUS
 62
         3
100
AcDbLine
 10
-37.597143
 20
124.559975
 30
0.0
 11
-30.59715
 21
128.60097
 31
0.0
  0
LINE
  5
74
100
AcDbEntity
  8
PV
  6
CONTINUOUS
 62
         3
100
AcDbLine
 10
-30.59715
 20
136.683962
 30
0.0
 11
-30.59715
 21
128.60097
 31
0.0
  0
LINE
  5
75
100
AcDbEntity
  8
PV
  6
CONTINUOUS
 62
         3
100
AcDbLine
 10
-44.597136
 20
136.683962
 30
0.0
 11
-44.597136
 21
128.60097
 31
0.0
  0
LINE
  5
76
100
AcDbEntity
  8
PV
  6
CONTINUOUS
 62
         3
100
AcDbLine
 10
-33.930146
 20
108.181991
 30
0.0
 11
-26.930153
 21
104.139995
 31
0.0
  0
LINE
  5
77
100
AcDbEntity
  8
PV
  6
CONTINUOUS
 62
         3
100
AcDbLine
 10
-33.930146
 20
108.181991
 30
0.0
 11
-40.930139
 21
104.139995
 31
0.0
  0
LINE
  5
78
100
AcDbEntity
  8
PV
  6
CONTINUOUS
 62
         3
100
AcDbLine
 10
-33.930146
 20
92.016007
 30
0.0
 11
-40.930139
 21
96.057003
 31
0.0
  0
LINE
  5
79
100
AcDbEntity
  8
PV
  6
CONTINUOUS
 62
         3
100
AcDbLine
 10
-33.930146
 20
92.016007
 30
0.0
 11
-26.930153
 21
96.057003
 31
0.0
  0
LINE
  5
7A
100
AcDbEntity
  8
PV
  6
CONTINUOUS
 62
         3
100
AcDbLine
 10
-26.930153
 20
104.139995
 30
0.0
 11
-26.930153
 21
96.057003
 31
0.0
  0
LINE
  5
7B
100
AcDbEntity
  8
PV
  6
CONTINUOUS
 62
         3
100
AcDbLine
 10
-40.930139
 20
104.139995
 30
0.0
 11
-40.930139
 21
96.057003
 31
0.0
  0
LINE
  5
7C
100
AcDbEntity
  8
PV
  6
CONTINUOUS
 62
         3
100
AcDbLine
 10
-294.522886
 20
199.3669
 30
0.0
 11
-287.521893
 21
195.324904
 31
0.0
  0
LINE
  5
7D
100
AcDbEntity
  8
PV
  6
CONTINUOUS
 62
         3
100
AcDbLine
 10
-294.522886
 20
199.3669
 30
0.0
 11
-301.522879
 21
195.324904
 31
0.0
  0
LINE
  5
7E
100
AcDbEntity
  8
PV
  6
CONTINUOUS
 62
         3
100
AcDbLine
 10
-294.521886
 20
183.200916
 30
0.0
 11
-301.522879
 21
187.242912
 31
0.0
  0
LINE
  5
7F
100
AcDbEntity
  8
PV
  6
CONTINUOUS
 62
         3
100
AcDbLine
 10
-294.521886
 20
183.200916
 30
0.0
 11
-287.521893
 21
187.241912
 31
0.0
  0
LINE
  5
80
100
AcDbEntity
  8
PV
  6
CONTINUOUS
 62
         3
100
AcDbLine
 10
-287.522893
 20
195.325904
 30
0.0
 11
-287.522893
 21
187.242912
 31
0.0
  0
LINE
  5
81
100
AcDbEntity
  8
PV
  6
CONTINUOUS
 62
         3
100
AcDbLine
 10
-301.522879
 20
195.325904
 30
0.0
 11
-301.522879
 21
187.242912
 31
0.0
  0
LINE
  5
82
100
AcDbEntity
  8
PV
  6
CONTINUOUS
 62
         3
100
AcDbLine
 10
-311.945868
 20
171.636927
 30
0.0
 11
-304.945875
 21
167.595932
 31
0.0
  0
LINE
  5
83
100
AcDbEntity
  8
PV
  6
CONTINUOUS
 62
         3
100
AcDbLine
 10
-311.945868
 20
171.636927
 30
0.0
 11
-318.945861
 21
167.594932
 31
0.0
  0
LINE
  5
84
100
AcDbEntity
  8
PV
  6
CONTINUOUS
 62
         3
100
AcDbLine
 10
-311.945868
 20
155.470944
 30
0.0
 11
-318.945861
 21
159.51294
 31
0.0
  0
LINE
  5
85
100
AcDbEntity
  8
PV
  6
CONTINUOUS
 62
         3
100
AcDbLine
 10
-311.945868
 20
155.470944
 30
0.0
 11
-304.945875
 21
159.51294
 31
0.0
  0
LINE
  5
86
100
AcDbEntity
  8
PV
  6
CONTINUOUS
 62
         3
100
AcDbLine
 10
-304.945875
 20
167.595932
 30
0.0
 11
-304.945875
 21
159.51294
 31
0.0
  0
LINE
  5
87
100
AcDbEntity
  8
PV
  6
CONTINUOUS
 62
         3
100
AcDbLine
 10
-318.945861
 20
167.595932
 30
0.0
 11
-318.945861
 21
159.51294
 31
0.0
  0
LINE
  5
88
100
AcDbEntity
  8
PV
  6
CONTINUOUS
 62
         3
100
AcDbLine
 10
-322.762857
 20
140.724958
 30
0.0
 11
-315.762864
 21
136.683962
 31
0.0
  0
LINE
  5
89
100
AcDbEntity
  8
PV
  6
CONTINUOUS
 62
         3
100
AcDbLine
 10
-322.762857
 20
140.724958
 30
0.0
 11
-329.76285
 21
136.683962
 31
0.0
  0
LINE
  5
8A
100
AcDbEntity
  8
PV
  6
CONTINUOUS
 62
         3
100
AcDbLine
 10
-322.762857
 20
124.559975
 30
0.0
 11
-329.76285
 21
128.60097
 31
0.0
  0
LINE
  5
8B
100
AcDbEntity
  8
PV
  6
CONTINUOUS
 62
         3
100
AcDbLine
 10
-322.762857
 20
124.558975
 30
0.0
 11
-315.762864
 21
128.60097
 31
0.0
  0
LINE
  5
8C
100
AcDbEntity
  8
PV
  6
CONTINUOUS
 62
         3
100
AcDbLine
 10
-315.762864
 20
136.683962
 30
0.0
 11
-315.762864
 21
128.60097
 31
0.0
  0
LINE
  5
8D
100
AcDbEntity
  8
PV
  6
CONTINUOUS
 62
         3
100
AcDbLine
 10
-329.76285
 20
136.683962
 30
0.0
 11
-329.76285
 21
128.60097
 31
0.0
  0
LINE
  5
8E
100
AcDbEntity
  8
PV
  6
CONTINUOUS
 62
         3
100
AcDbLine
 10
-326.429854
 20
108.181991
 30
0.0
 11
-319.429861
 21
104.139995
 31
0.0
  0
LINE
  5
8F
100
AcDbEntity
  8
PV
  6
CONTINUOUS
 62
         3
100
AcDbLine
 10
-326.429854
 20
108.180991
 30
0.0
 11
-333.429847
 21
104.139995
 31
0.0
  0
LINE
  5
90
100
AcDbEntity
  8
PV
  6
CONTINUOUS
 62
         3
100
AcDbLine
 10
-326.429854
 20
92.016007
 30
0.0
 11
-333.429847
 21
96.058003
 31
0.0
  0
LINE
  5
91
100
AcDbEntity
  8
PV
  6
CONTINUOUS
 62
         3
100
AcDbLine
 10
-326.429854
 20
92.016007
 30
0.0
 11
-319.429861
 21
96.058003
 31
0.0
  0
LINE
  5
92
100
AcDbEntity
  8
PV
  6
CONTINUOUS
 62
         3
100
AcDbLine
 10
-319.429861
 20
104.139995
 30
0.0
 11
-319.429861
 21
96.057003
 31
0.0
  0
LINE
  5
93
100
AcDbEntity
  8
PV
  6
CONTINUOUS
 62
         3
100
AcDbLine
 10
-333.429847
 20
104.139995
 30
0.0
 11
-333.429847
 21
96.057003
 31
0.0
  0
LINE
  5
94
100
AcDbEntity
  8
PV
  6
CONTINUOUS
 62
         3
100
AcDbLine
 10
-147.637033
 20
-34.400866
 30
0.0
 11
-140.63704
 21
-38.442862
 31
0.0
  0
LINE
  5
95
100
AcDbEntity
  8
PV
  6
CONTINUOUS
 62
         3
100
AcDbLine
 10
-147.636033
 20
-34.400866
 30
0.0
 11
-154.636026
 21
-38.442862
 31
0.0
  0
LINE
  5
96
100
AcDbEntity
  8
PV
  6
CONTINUOUS
 62
         3
100
AcDbLine
 10
-147.637033
 20
-50.56685
 30
0.0
 11
-154.636026
 21
-46.525854
 31
0.0
  0
LINE
  5
97
100
AcDbEntity
  8
PV
  6
CONTINUOUS
 62
         3
100
AcDbLine
 10
-147.636033
 20
-50.56685
 30
0.0
 11
-140.63604
 21
-46.525854
 31
0.0
  0
LINE
  5
98
100
AcDbEntity
  8
PV
  6
CONTINUOUS
 62
         3
100
AcDbLine
 10
-140.63604
 20
-38.442862
 30
0.0
 11
-140.63604
 21
-46.525854
 31
0.0
  0
LINE
  5
99
100
AcDbEntity
  8
PV
  6
CONTINUOUS
 62
         3
100
AcDbLine
 10
-154.637026
 20
-38.442862
 30
0.0
 11
-154.637026
 21
-46.525854
 31
0.0
  0
LINE
  5
9A
100
AcDbEntity
  8
PV
  6
CONTINUOUS
 62
         3
100
AcDbLine
 10
-116.725063
 20
-23.584877
 30
0.0
 11
-109.72507
 21
-27.625873
 31
0.0
  0
LINE
  5
9B
100
AcDbEntity
  8
PV
  6
CONTINUOUS
 62
         3
100
AcDbLine
 10
-116.725063
 20
-23.584877
 30
0.0
 11
-123.725056
 21
-27.625873
 31
0.0
  0
LINE
  5
9C
100
AcDbEntity
  8
PV
  6
CONTINUOUS
 62
         3
100
AcDbLine
 10
-116.725063
 20
-39.749861
 30
0.0
 11
-123.725056
 21
-35.708865
 31
0.0
  0
LINE
  5
9D
100
AcDbEntity
  8
PV
  6
CONTINUOUS
 62
         3
100
AcDbLine
 10
-116.725063
 20
-39.749861
 30
0.0
 11
-109.72507
 21
-35.708865
 31
0.0
  0
LINE
  5
9E
100
AcDbEntity
  8
PV
  6
CONTINUOUS
 62
         3
100
AcDbLine
 10
-109.72507
 20
-27.625873
 30
0.0
 11
-109.72507
 21
-35.708865
 31
0.0
  0
LINE
  5
9F
100
AcDbEntity
  8
PV
  6
CONTINUOUS
 62
         3
100
AcDbLine
 10
-123.725056
 20
-27.625873
 30
0.0
 11
-123.725056
 21
-35.708865
 31
0.0
  0
LINE
  5
A0
100
AcDbEntity
  8
PV
  6
CONTINUOUS
 62
         3
100
AcDbLine
 10
-88.995091
 20
-6.160895
 30
0.0
 11
-81.995098
 21
-10.201891
 31
0.0
  0
LINE
  5
A1
100
AcDbEntity
  8
PV
  6
CONTINUOUS
 62
         3
100
AcDbLine
 10
-88.995091
 20
-6.160895
 30
0.0
 11
-95.995084
 21
-10.201891
 31
0.0
  0
LINE
  5
A2
100
AcDbEntity
  8
PV
  6
CONTINUOUS
 62
         3
100
AcDbLine
 10
-88.995091
 20
-22.326879
 30
0.0
 11
-95.995084
 21
-18.284883
 31
0.0
  0
LINE
  5
A3
100
AcDbEntity
  8
PV
  6
CONTINUOUS
 62
         3
100
AcDbLine
 10
-88.995091
 20
-22.326879
 30
0.0
 11
-81.995098
 21
-18.284883
 31
0.0
  0
LINE
  5
A4
100
AcDbEntity
  8
PV
  6
CONTINUOUS
 62
         3
100
AcDbLine
 10
-81.995098
 20
-10.201891
 30
0.0
 11
-81.995098
 21
-18.284883
 31
0.0
  0
LINE
  5
A5
100
AcDbEntity
  8
PV
  6
CONTINUOUS
 62
         3
100
AcDbLine
 10
-95.995084
 20
-10.201891
 30
0.0
 11
-95.995084
 21
-18.284883
 31
0.0
  0
LINE
  5
A6
100
AcDbEntity
  8
PV
  6
CONTINUOUS
 62
         3
100
AcDbLine
 10
-65.837114
 20
16.997082
 30
0.0
 11
-58.837121
 21
12.955086
 31
0.0
  0
LINE
  5
A7
100
AcDbEntity
  8
PV
  6
CONTINUOUS
 62
         3
100
AcDbLine
 10
-65.837114
 20
16.997082
 30
0.0
 11
-72.837107
 21
12.955086
 31
0.0
  0
LINE
  5
A8
100
AcDbEntity
  8
PV
  6
CONTINUOUS
 62
         3
100
AcDbLine
 10
-65.837114
 20
0.831098
 30
0.0
 11
-72.837107
 21
4.872094
 31
0.0
  0
LINE
  5
A9
100
AcDbEntity
  8
PV
  6
CONTINUOUS
 62
         3
100
AcDbLine
 10
-65.837114
 20
0.831098
 30
0.0
 11
-58.837121
 21
4.872094
 31
0.0
  0
LINE
  5
AA
100
AcDbEntity
  8
PV
  6
CONTINUOUS
 62
         3
100
AcDbLine
 10
-58.838121
 20
12.955086
 30
0.0
 11
-58.838121
 21
4.872094
 31
0.0
  0
LINE
  5
AB
100
AcDbEntity
  8
PV
  6
CONTINUOUS
 62
         3
100
AcDbLine
 10
-72.838107
 20
12.955086
 30
0.0
 11
-72.838107
 21
4.872094
 31
0.0
  0
LINE
  5
AC
100
AcDbEntity
  8
PV
  6
CONTINUOUS
 62
         3
100
AcDbLine
 10
-48.414132
 20
44.726054
 30
0.0
 11
-41.414139
 21
40.685058
 31
0.0
  0
LINE
  5
AD
100
AcDbEntity
  8
PV
  6
CONTINUOUS
 62
         3
100
AcDbLine
 10
-48.414132
 20
44.726054
 30
0.0
 11
-55.414125
 21
40.685058
 31
0.0
  0
LINE
  5
AE
100
AcDbEntity
  8
PV
  6
CONTINUOUS
 62
         3
100
AcDbLine
 10
-48.414132
 20
28.561071
 30
0.0
 11
-55.414125
 21
32.602066
 31
0.0
  0
LINE
  5
AF
100
AcDbEntity
  8
PV
  6
CONTINUOUS
 62
         3
100
AcDbLine
 10
-48.414132
 20
28.561071
 30
0.0
 11
-41.414139
 21
32.602066
 31
0.0
  0
LINE
  5
B0
100
AcDbEntity
  8
PV
  6
CONTINUOUS
 62
         3
100
AcDbLine
 10
-41.414139
 20
40.685058
 30
0.0
 11
-41.414139
 21
32.602066
 31
0.0
  0
LINE
  5
B1
100
AcDbEntity
  8
PV
  6
CONTINUOUS
 62
         3
100
AcDbLine
 10
-55.414125
 20
40.685058
 30
0.0
 11
-55.414125
 21
32.602066
 31
0.0
  0
LINE
  5
B2
100
AcDbEntity
  8
PV
  6
CONTINUOUS
 62
         3
100
AcDbLine
 10
-212.723967
 20
-34.400866
 30
0.0
 11
-205.723974
 21
-38.442862
 31
0.0
  0
LINE
  5
B3
100
AcDbEntity
  8
PV
  6
CONTINUOUS
 62
         3
100
AcDbLine
 10
-212.723967
 20
-34.400866
 30
0.0
 11
-219.72396
 21
-38.442862
 31
0.0
  0
LINE
  5
B4
100
AcDbEntity
  8
PV
  6
CONTINUOUS
 62
         3
100
AcDbLine
 10
-212.723967
 20
-50.56685
 30
0.0
 11
-219.72396
 21
-46.525854
 31
0.0
  0
LINE
  5
B5
100
AcDbEntity
  8
PV
  6
CONTINUOUS
 62
         3
100
AcDbLine
 10
-212.723967
 20
-50.56685
 30
0.0
 11
-205.723974
 21
-46.524854
 31
0.0
  0
LINE
  5
B6
100
AcDbEntity
  8
PV
  6
CONTINUOUS
 62
         3
100
AcDbLine
 10
-205.723974
 20
-38.442862
 30
0.0
 11
-205.723974
 21
-46.525854
 31
0.0
  0
LINE
  5
B7
100
AcDbEntity
  8
PV
  6
CONTINUOUS
 62
         3
100
AcDbLine
 10
-219.72396
 20
-38.442862
 30
0.0
 11
-219.72396
 21
-46.525854
 31
0.0
  0
LINE
  5
B8
100
AcDbEntity
  8
PV
  6
CONTINUOUS
 62
         3
100
AcDbLine
 10
-243.635937
 20
-23.584877
 30
0.0
 11
-236.634944
 21
-27.625873
 31
0.0
  0
LINE
  5
B9
100
AcDbEntity
  8
PV
  6
CONTINUOUS
 62
         3
100
AcDbLine
 10
-243.634937
 20
-23.584877
 30
0.0
 11
-250.63493
 21
-27.625873
 31
0.0
  0
LINE
  5
BA
100
AcDbEntity
  8
PV
  6
CONTINUOUS
 62
         3
100
AcDbLine
 10
-243.634937
 20
-39.749861
 30
0.0
 11
-250.63493
 21
-35.708865
 31
0.0
  0
LINE
  5
BB
100
AcDbEntity
  8
PV
  6
CONTINUOUS
 62
         3
100
AcDbLine
 10
-243.635937
 20
-39.749861
 30
0.0
 11
-236.634944
 21
-35.708865
 31
0.0
  0
LINE
  5
BC
100
AcDbEntity
  8
PV
  6
CONTINUOUS
 62
         3
100
AcDbLine
 10
-236.634944
 20
-27.625873
 30
0.0
 11
-236.634944
 21
-35.708865
 31
0.0
  0
LINE
  5
BD
100
AcDbEntity
  8
PV
  6
CONTINUOUS
 62
         3
100
AcDbLine
 10
-250.63493
 20
-27.625873
 30
0.0
 11
-250.63493
 21
-35.708865
 31
0.0
  0
LINE
  5
BE
100
AcDbEntity
  8
PV
  6
CONTINUOUS
 62
         3
100
AcDbLine
 10
-271.364909
 20
-6.160895
 30
0.0
 11
-264.364916
 21
-10.201891
 31
0.0
  0
LINE
  5
BF
100
AcDbEntity
  8
PV
  6
CONTINUOUS
 62
         3
100
AcDbLine
 10
-271.364909
 20
-6.160895
 30
0.0
 11
-278.364902
 21
-10.201891
 31
0.0
  0
LINE
  5
C0
100
AcDbEntity
  8
PV
  6
CONTINUOUS
 62
         3
100
AcDbLine
 10
-271.364909
 20
-22.326879
 30
0.0
 11
-278.364902
 21
-18.284883
 31
0.0
  0
LINE
  5
C1
100
AcDbEntity
  8
PV
  6
CONTINUOUS
 62
         3
100
AcDbLine
 10
-271.364909
 20
-22.326879
 30
0.0
 11
-264.364916
 21
-18.284883
 31
0.0
  0
LINE
  5
C2
100
AcDbEntity
  8
PV
  6
CONTINUOUS
 62
         3
100
AcDbLine
 10
-264.364916
 20
-10.201891
 30
0.0
 11
-264.364916
 21
-18.284883
 31
0.0
  0
LINE
  5
C3
100
AcDbEntity
  8
PV
  6
CONTINUOUS
 62
         3
100
AcDbLine
 10
-278.364902
 20
-10.201891
 30
0.0
 11
-278.364902
 21
-18.284883
 31
0.0
  0
LINE
  5
C4
100
AcDbEntity
  8
PV
  6
CONTINUOUS
 62
         3
100
AcDbLine
 10
-294.522886
 20
16.997082
 30
0.0
 11
-287.522893
 21
12.955086
 31
0.0
  0
LINE
  5
C5
100
AcDbEntity
  8
PV
  6
CONTINUOUS
 62
         3
100
AcDbLine
 10
-294.522886
 20
16.997082
 30
0.0
 11
-301.522879
 21
12.955086
 31
0.0
  0
LINE
  5
C6
100
AcDbEntity
  8
PV
  6
CONTINUOUS
 62
         3
100
AcDbLine
 10
-294.522886
 20
0.831098
 30
0.0
 11
-301.522879
 21
4.872094
 31
0.0
  0
LINE
  5
C7
100
AcDbEntity
  8
PV
  6
CONTINUOUS
 62
         3
100
AcDbLine
 10
-294.522886
 20
0.831098
 30
0.0
 11
-287.522893
 21
4.872094
 31
0.0
  0
LINE
  5
C8
100
AcDbEntity
  8
PV
  6
CONTINUOUS
 62
         3
100
AcDbLine
 10
-287.522893
 20
12.955086
 30
0.0
 11
-287.522893
 21
4.872094
 31
0.0
  0
LINE
  5
C9
100
AcDbEntity
  8
PV
  6
CONTINUOUS
 62
         3
100
AcDbLine
 10
-301.522879
 20
12.955086
 30
0.0
 11
-301.522879
 21
4.872094
 31
0.0
  0
LINE
  5
CA
100
AcDbEntity
  8
PV
  6
CONTINUOUS
 62
         3
100
AcDbLine
 10
-311.946868
 20
44.727054
 30
0.0
 11
-304.946875
 21
40.685058
 31
0.0
  0
LINE
  5
CB
100
AcDbEntity
  8
PV
  6
CONTINUOUS
 62
         3
100
AcDbLine
 10
-311.946868
 20
44.726054
 30
0.0
 11
-318.946861
 21
40.685058
 31
0.0
  0
LINE
  5
CC
100
AcDbEntity
  8
PV
  6
CONTINUOUS
 62
         3
100
AcDbLine
 10
-311.946868
 20
28.561071
 30
0.0
 11
-318.946861
 21
32.602066
 31
0.0
  0
LINE
  5
CD
100
AcDbEntity
  8
PV
  6
CONTINUOUS
 62
         3
100
AcDbLine
 10
-311.946868
 20
28.561071
 30
0.0
 11
-304.946875
 21
32.602066
 31
0.0
  0
LINE
  5
CE
100
AcDbEntity
  8
PV
  6
CONTINUOUS
 62
         3
100
AcDbLine
 10
-304.945875
 20
40.685058
 30
0.0
 11
-304.945875
 21
32.602066
 31
0.0
  0
LINE
  5
CF
100
AcDbEntity
  8
PV
  6
CONTINUOUS
 62
         3
100
AcDbLine
 10
-318.946861
 20
40.685058
 30
0.0
 11
-318.946861
 21
32.602066
 31
0.0
  0
LINE
  5
D0
100
AcDbEntity
  8
PV
  6
CONTINUOUS
 62
         3
100
AcDbLine
 10
-174.180006
 20
229.959869
 30
0.0
 11
-174.180006
 21
231.911867
 31
0.0
  0
LINE
  5
D1
100
AcDbEntity
  8
PV
  6
CONTINUOUS
 62
         3
100
AcDbLine
 10
-186.179994
 20
229.959869
 30
0.0
 11
-186.179994
 21
231.911867
 31
0.0
  0
LINE
  5
D2
100
AcDbEntity
  8
PV
  6
CONTINUOUS
 62
         3
100
AcDbLine
 10
-17.692162
 20
102.098997
 30
0.0
 11
-19.643161
 21
102.098997
 31
0.0
  0
LINE
  5
D3
100
AcDbEntity
  8
PV
  6
CONTINUOUS
 62
         3
100
AcDbLine
 10
-17.692162
 20
98.099001
 30
0.0
 11
-19.643161
 21
98.099001
 31
0.0
  0
CIRCLE
  5
D4
100
AcDbEntity
  8
PV
  6
CENTER
 62
         3
100
AcDbCircle
 10
-180.18
 20
100.098999
 30
0.0
 40
146.249854
  0
CIRCLE
  5
D5
100
AcDbEntity
  8
PV
  6
CONTINUOUS
 62
         3
100
AcDbCircle
 10
-180.18
 20
100.098999
 30
0.0
 40
160.549839
  0
CIRCLE
  5
D6
100
AcDbEntity
  8
PV
  6
CONTINUOUS
 62
         3
100
AcDbCircle
 10
-180.18
 20
100.098999
 30
0.0
 40
131.949868
  0
CIRCLE
  5
D7
100
AcDbEntity
  8
PV
  6
CONTINUOUS
 62
         3
100
AcDbCircle
 10
-180.18
 20
246.348853
 30
0.0
 40
11.999988
  0
CIRCLE
  5
D8
100
AcDbEntity
  8
PV
  6
CONTINUOUS
 62
         3
100
AcDbCircle
 10
-180.18
 20
246.348853
 30
0.0
 40
10.26799
  0
CIRCLE
  5
D9
100
AcDbEntity
  8
PV
  6
CONTINUOUS
 62
         3
100
AcDbCircle
 10
-212.722967
 20
242.681856
 30
0.0
 40
11.999988
  0
CIRCLE
  5
DA
100
AcDbEntity
  8
PV
  6
CONTINUOUS
 62
         3
100
AcDbCircle
 10
-212.722967
 20
242.681856
 30
0.0
 40
10.26799
  0
CIRCLE
  5
DB
100
AcDbEntity
  8
PV
  6
CONTINUOUS
 62
         3
100
AcDbCircle
 10
-243.634937
 20
231.864867
 30
0.0
 40
11.999988
  0
CIRCLE
  5
DC
100
AcDbEntity
  8
PV
  6
CONTINUOUS
 62
         3
100
AcDbCircle
 10
-243.634937
 20
231.864867
 30
0.0
 40
10.26799
  0
CIRCLE
  5
DD
100
AcDbEntity
  8
PV
  6
CONTINUOUS
 62
         3
100
AcDbCircle
 10
-147.636033
 20
242.681856
 30
0.0
 40
11.999988
  0
CIRCLE
  5
DE
100
AcDbEntity
  8
PV
  6
CONTINUOUS
 62
         3
100
AcDbCircle
 10
-147.636033
 20
242.681856
 30
0.0
 40
10.26799
  0
CIRCLE
  5
DF
100
AcDbEntity
  8
PV
  6
CONTINUOUS
 62
         3
100
AcDbCircle
 10
-116.725063
 20
231.864867
 30
0.0
 40
11.999988
  0
CIRCLE
  5
E0
100
AcDbEntity
  8
PV
  6
CONTINUOUS
 62
         3
100
AcDbCircle
 10
-116.725063
 20
231.864867
 30
0.0
 40
10.26799
  0
CIRCLE
  5
E1
100
AcDbEntity
  8
PV
  6
CONTINUOUS
 62
         3
100
AcDbCircle
 10
-65.837114
 20
191.283908
 30
0.0
 40
11.999988
  0
CIRCLE
  5
E2
100
AcDbEntity
  8
PV
  6
CONTINUOUS
 62
         3
100
AcDbCircle
 10
-65.837114
 20
191.283908
 30
0.0
 40
10.26799
  0
CIRCLE
  5
E3
100
AcDbEntity
  8
PV
  6
CONTINUOUS
 62
         3
100
AcDbCircle
 10
-48.413132
 20
163.553936
 30
0.0
 40
11.999988
  0
CIRCLE
  5
E4
100
AcDbEntity
  8
PV
  6
CONTINUOUS
 62
         3
100
AcDbCircle
 10
-48.413132
 20
163.553936
 30
0.0
 40
10.26799
  0
CIRCLE
  5
E5
100
AcDbEntity
  8
PV
  6
CONTINUOUS
 62
         3
100
AcDbCircle
 10
-37.597143
 20
132.641966
 30
0.0
 40
11.999988
  0
CIRCLE
  5
E6
100
AcDbEntity
  8
PV
  6
CONTINUOUS
 62
         3
100
AcDbCircle
 10
-37.597143
 20
132.641966
 30
0.0
 40
10.26799
  0
CIRCLE
  5
E7
100
AcDbEntity
  8
PV
  6
CONTINUOUS
 62
         3
100
AcDbCircle
 10
-33.930146
 20
100.098999
 30
0.0
 40
11.999988
  0
CIRCLE
  5
E8
100
AcDbEntity
  8
PV
  6
CONTINUOUS
 62
         3
100
AcDbCircle
 10
-33.930146
 20
100.098999
 30
0.0
 40
10.26799
  0
CIRCLE
  5
E9
100
AcDbEntity
  8
PV
  6
CONTINUOUS
 62
         3
100
AcDbCircle
 10
-294.522886
 20
191.283908
 30
0.0
 40
11.999988
  0
CIRCLE
  5
EA
100
AcDbEntity
  8
PV
  6
CONTINUOUS
 62
         3
100
AcDbCircle
 10
-294.522886
 20
191.283908
 30
0.0
 40
10.26799
  0
CIRCLE
  5
EB
100
AcDbEntity
  8
PV
  6
CONTINUOUS
 62
         3
100
AcDbCircle
 10
-311.945868
 20
163.553936
 30
0.0
 40
11.999988
  0
CIRCLE
  5
EC
100
AcDbEntity
  8
PV
  6
CONTINUOUS
 62
         3
100
AcDbCircle
 10
-311.945868
 20
163.553936
 30
0.0
 40
10.26799
  0
CIRCLE
  5
ED
100
AcDbEntity
  8
PV
  6
CONTINUOUS
 62
         3
100
AcDbCircle
 10
-322.762857
 20
132.642966
 30
0.0
 40
11.999988
  0
CIRCLE
  5
EE
100
AcDbEntity
  8
PV
  6
CONTINUOUS
 62
         3
100
AcDbCircle
 10
-322.762857
 20
132.642966
 30
0.0
 40
10.26799
  0
CIRCLE
  5
EF
100
AcDbEntity
  8
PV
  6
CONTINUOUS
 62
         3
100
AcDbCircle
 10
-326.429854
 20
100.098999
 30
0.0
 40
11.999988
  0
CIRCLE
  5
F0
100
AcDbEntity
  8
PV
  6
CONTINUOUS
 62
         3
100
AcDbCircle
 10
-326.429854
 20
100.098999
 30
0.0
 40
10.26799
  0
CIRCLE
  5
F1
100
AcDbEntity
  8
PV
  6
CONTINUOUS
 62
         3
100
AcDbCircle
 10
-147.637033
 20
-42.483858
 30
0.0
 40
11.999988
  0
CIRCLE
  5
F2
100
AcDbEntity
  8
PV
  6
CONTINUOUS
 62
         3
100
AcDbCircle
 10
-147.637033
 20
-42.483858
 30
0.0
 40
10.26799
  0
CIRCLE
  5
F3
100
AcDbEntity
  8
PV
  6
CONTINUOUS
 62
         3
100
AcDbCircle
 10
-116.725063
 20
-31.666869
 30
0.0
 40
11.999988
  0
CIRCLE
  5
F4
100
AcDbEntity
  8
PV
  6
CONTINUOUS
 62
         3
100
AcDbCircle
 10
-116.725063
 20
-31.666869
 30
0.0
 40
10.26799
  0
CIRCLE
  5
F5
100
AcDbEntity
  8
PV
  6
CONTINUOUS
 62
         3
100
AcDbCircle
 10
-88.995091
 20
-14.243887
 30
0.0
 40
11.999988
  0
CIRCLE
  5
F6
100
AcDbEntity
  8
PV
  6
CONTINUOUS
 62
         3
100
AcDbCircle
 10
-88.995091
 20
-14.243887
 30
0.0
 40
10.26799
  0
CIRCLE
  5
F7
100
AcDbEntity
  8
PV
  6
CONTINUOUS
 62
         3
100
AcDbCircle
 10
-65.838114
 20
8.91409
 30
0.0
 40
11.999988
  0
CIRCLE
  5
F8
100
AcDbEntity
  8
PV
  6
CONTINUOUS
 62
         3
100
AcDbCircle
 10
-65.838114
 20
8.91409
 30
0.0
 40
10.26799
  0
CIRCLE
  5
F9
100
AcDbEntity
  8
PV
  6
CONTINUOUS
 62
         3
100
AcDbCircle
 10
-48.414132
 20
36.644062
 30
0.0
 40
11.999988
  0
CIRCLE
  5
FA
100
AcDbEntity
  8
PV
  6
CONTINUOUS
 62
         3
100
AcDbCircle
 10
-48.414132
 20
36.644062
 30
0.0
 40
10.26799
  0
CIRCLE
  5
FB
100
AcDbEntity
  8
PV
  6
CONTINUOUS
 62
         3
100
AcDbCircle
 10
-212.723967
 20
-42.483858
 30
0.0
 40
11.999988
  0
CIRCLE
  5
FC
100
AcDbEntity
  8
PV
  6
CONTINUOUS
 62
         3
100
AcDbCircle
 10
-212.723967
 20
-42.483858
 30
0.0
 40
10.26799
  0
CIRCLE
  5
FD
100
AcDbEntity
  8
PV
  6
CONTINUOUS
 62
         3
100
AcDbCircle
 10
-243.634937
 20
-31.666869
 30
0.0
 40
11.999988
  0
CIRCLE
  5
FE
100
AcDbEntity
  8
PV
  6
CONTINUOUS
 62
         3
100
AcDbCircle
 10
-243.634937
 20
-31.666869
 30
0.0
 40
10.26799
  0
CIRCLE
  5
FF
100
AcDbEntity
  8
PV
  6
CONTINUOUS
 62
         3
100
AcDbCircle
 10
-271.364909
 20
-14.243887
 30
0.0
 40
11.999988
  0
CIRCLE
  5
100
100
AcDbEntity
  8
PV
  6
CONTINUOUS
 62
         3
100
AcDbCircle
 10
-271.364909
 20
-14.243887
 30
0.0
 40
10.26799
  0
CIRCLE
  5
101
100
AcDbEntity
  8
PV
  6
CONTINUOUS
 62
         3
100
AcDbCircle
 10
-294.522886
 20
8.91409
 30
0.0
 40
11.999988
  0
CIRCLE
  5
102
100
AcDbEntity
  8
PV
  6
CONTINUOUS
 62
         3
100
AcDbCircle
 10
-294.522886
 20
8.91409
 30
0.0
 40
10.26799
  0
CIRCLE
  5
103
100
AcDbEntity
  8
PV
  6
CONTINUOUS
 62
         3
100
AcDbCircle
 10
-311.946868
 20
36.644062
 30
0.0
 40
11.999988
  0
CIRCLE
  5
104
100
AcDbEntity
  8
PV
  6
CONTINUOUS
 62
         3
100
AcDbCircle
 10
-311.946868
 20
36.644062
 30
0.0
 40
10.26799
  0
CIRCLE
  5
105
100
AcDbEntity
  8
PV
  6
CONTINUOUS
 62
         3
100
AcDbCircle
 10
-88.995091
 20
214.441885
 30
0.0
 40
7.999992
  0
CIRCLE
  5
106
100
AcDbEntity
  8
PV
  6
CONTINUOUS
 62
         3
100
AcDbCircle
 10
-37.597143
 20
67.555032
 30
0.0
 40
7.999992
  0
CIRCLE
  5
107
100
AcDbEntity
  8
PV
  6
CONTINUOUS
 62
         3
100
AcDbCircle
 10
-180.18
 20
-46.150855
 30
0.0
 40
7.999992
  0
CIRCLE
  5
108
100
AcDbEntity
  8
PV
  6
CONTINUOUS
 62
         3
100
AcDbCircle
 10
-322.762857
 20
67.555032
 30
0.0
 40
7.999992
  0
CIRCLE
  5
109
100
AcDbEntity
  8
PV
  6
CONTINUOUS
 62
         3
100
AcDbCircle
 10
-271.364909
 20
214.441885
 30
0.0
 40
7.999992
  0
CIRCLE
  5
10A
100
AcDbEntity
  8
PV
  6
CONTINUOUS
 62
         3
100
AcDbCircle
 10
-37.597143
 20
67.555032
 30
0.0
 40
6.919993
  0
CIRCLE
  5
10B
100
AcDbEntity
  8
PV
  6
CONTINUOUS
 62
         3
100
AcDbCircle
 10
-180.18
 20
-46.150855
 30
0.0
 40
6.919993
  0
CIRCLE
  5
10C
100
AcDbEntity
  8
PV
  6
CONTINUOUS
 62
         3
100
AcDbCircle
 10
-322.762857
 20
67.555032
 30
0.0
 40
6.919993
  0
CIRCLE
  5
10D
100
AcDbEntity
  8
PV
  6
CONTINUOUS
 62
         3
100
AcDbCircle
 10
-271.364909
 20
214.441885
 30
0.0
 40
6.919993
  0
CIRCLE
  5
10E
100
AcDbEntity
  8
PV
  6
CONTINUOUS
 62
         3
100
AcDbCircle
 10
-88.995091
 20
214.441885
 30
0.0
 40
6.919993
  0
LINE
  5
10F
100
AcDbEntity
  8
PV
  6
CENTER
 62
         3
100
AcDbLine
 10
129.593021
 20
100.098999
 30
0.0
 11
218.237932
 21
100.098999
 31
0.0
  0
LINE
  5
110
100
AcDbEntity
  8
PV
  6
CONTINUOUS
 62
         3
100
AcDbLine
 10
182.049968
 20
256.068843
 30
0.0
 11
182.049968
 21
253.266846
 31
0.0
  0
LINE
  5
111
100
AcDbEntity
  8
PV
  6
CONTINUOUS
 62
         3
100
AcDbLine
 10
181.649968
 20
255.987843
 30
0.0
 11
203.649946
 21
260.465839
 31
0.0
  0
LINE
  5
112
100
AcDbEntity
  8
PV
  6
CONTINUOUS
 62
         3
100
AcDbLine
 10
181.649968
 20
236.710862
 30
0.0
 11
203.649946
 21
232.231867
 31
0.0
  0
LINE
  5
113
100
AcDbEntity
  8
PV
  6
CONTINUOUS
 62
         3
100
AcDbLine
 10
174.249976
 20
236.628862
 30
0.0
 11
174.249976
 21
238.348861
 31
0.0
  0
LINE
  5
114
100
AcDbEntity
  8
PV
  6
CONTINUOUS
 62
         3
100
AcDbLine
 10
174.649975
 20
255.987843
 30
0.0
 11
181.649968
 21
255.987843
 31
0.0
  0
LINE
  5
115
100
AcDbEntity
  8
PV
  6
CONTINUOUS
 62
         3
100
AcDbLine
 10
174.649975
 20
236.709862
 30
0.0
 11
181.649968
 21
236.710862
 31
0.0
  0
LINE
  5
116
100
AcDbEntity
  8
PV
  6
CONTINUOUS
 62
         3
100
AcDbLine
 10
182.049968
 20
-36.430864
 30
0.0
 11
182.049968
 21
-55.870845
 31
0.0
  0
LINE
  5
117
100
AcDbEntity
  8
PV
  6
CONTINUOUS
 62
         3
100
AcDbLine
 10
174.249976
 20
-55.870845
 30
0.0
 11
174.249976
 21
-36.430864
 31
0.0
  0
LINE
  5
118
100
AcDbEntity
  8
PV
  6
CONTINUOUS
 62
         3
100
AcDbLine
 10
174.649975
 20
-55.788845
 30
0.0
 11
152.649997
 21
-60.267841
 31
0.0
  0
LINE
  5
119
100
AcDbEntity
  8
PV
  6
CONTINUOUS
 62
         3
100
AcDbLine
 10
174.649975
 20
-36.511864
 30
0.0
 11
152.649997
 21
-32.033869
 31
0.0
  0
LINE
  5
11A
100
AcDbEntity
  8
PV
  6
CONTINUOUS
 62
         3
100
AcDbLine
 10
181.649968
 20
-55.789845
 30
0.0
 11
174.649975
 21
-55.788845
 31
0.0
  0
LINE
  5
11B
100
AcDbEntity
  8
PV
  6
CONTINUOUS
 62
         3
100
AcDbLine
 10
181.649968
 20
-36.511864
 30
0.0
 11
174.649975
 21
-36.511864
 31
0.0
  0
LINE
  5
11C
100
AcDbEntity
  8
PV
  6
CONTINUOUS
 62
         3
100
AcDbLine
 10
206.149944
 20
254.348845
 30
0.0
 11
150.15
 21
254.348845
 31
0.0
  0
LINE
  5
11D
100
AcDbEntity
  8
PV
  6
CONTINUOUS
 62
         3
100
AcDbLine
 10
206.149944
 20
238.348861
 30
0.0
 11
150.15
 21
238.348861
 31
0.0
  0
LINE
  5
11E
100
AcDbEntity
  8
PV
  6
CONTINUOUS
 62
         3
100
AcDbLine
 10
198.149952
 20
254.348845
 30
0.0
 11
200.14995
 21
252.348847
 31
0.0
  0
LINE
  5
11F
100
AcDbEntity
  8
PV
  6
CONTINUOUS
 62
         3
100
AcDbLine
 10
198.149952
 20
238.348861
 30
0.0
 11
200.14995
 21
240.348859
 31
0.0
  0
LINE
  5
120
100
AcDbEntity
  8
PV
  6
CONTINUOUS
 62
         3
100
AcDbLine
 10
198.149952
 20
254.348845
 30
0.0
 11
198.149952
 21
238.348861
 31
0.0
  0
LINE
  5
121
100
AcDbEntity
  8
PV
  6
CONTINUOUS
 62
         3
100
AcDbLine
 10
200.14995
 20
252.348847
 30
0.0
 11
200.14995
 21
240.348859
 31
0.0
  0
LINE
  5
122
100
AcDbEntity
  8
PV
  6
CONTINUOUS
 62
         3
100
AcDbLine
 10
162.149988
 20
254.348845
 30
0.0
 11
162.149988
 21
238.348861
 31
0.0
  0
LINE
  5
123
100
AcDbEntity
  8
PV
  6
CONTINUOUS
 62
         3
100
AcDbLine
 10
162.149988
 20
253.265846
 30
0.0
 11
159.98499
 21
254.348845
 31
0.0
  0
LINE
  5
124
100
AcDbEntity
  8
PV
  6
CONTINUOUS
 62
         3
100
AcDbLine
 10
162.149988
 20
239.43186
 30
0.0
 11
159.98499
 21
238.348861
 31
0.0
  0
LINE
  5
125
100
AcDbEntity
  8
PV
  6
CONTINUOUS
 62
         3
100
AcDbLine
 10
162.149988
 20
239.43186
 30
0.0
 11
206.149944
 21
239.43186
 31
0.0
  0
LINE
  5
126
100
AcDbEntity
  8
PV
  6
CONTINUOUS
 62
         3
100
AcDbLine
 10
162.149988
 20
253.266846
 30
0.0
 11
206.149944
 21
253.266846
 31
0.0
  0
LINE
  5
127
100
AcDbEntity
  8
PV
  6
CONTINUOUS
 62
         3
100
AcDbLine
 10
135.150015
 20
258.348841
 30
0.0
 11
135.150015
 21
234.348865
 31
0.0
  0
LINE
  5
128
100
AcDbEntity
  8
PV
  6
CENTER
 62
         3
100
AcDbLine
 10
129.150021
 20
246.348853
 30
0.0
 11
210.51494
 21
246.348853
 31
0.0
  0
LINE
  5
129
100
AcDbEntity
  8
PV
  6
CONTINUOUS
 62
         3
100
AcDbLine
 10
182.049968
 20
239.43186
 30
0.0
 11
182.049968
 21
236.628862
 31
0.0
  0
LINE
  5
12A
100
AcDbEntity
  8
PV
  6
CONTINUOUS
 62
         3
100
AcDbLine
 10
174.249976
 20
254.348845
 30
0.0
 11
174.249976
 21
256.068843
 31
0.0
  0
LINE
  5
12B
100
AcDbEntity
  8
PV
  6
CONTINUOUS
 62
         3
100
AcDbLine
 10
150.15
 20
-54.150847
 30
0.0
 11
174.249976
 21
-54.150847
 31
0.0
  0
LINE
  5
12C
100
AcDbEntity
  8
PV
  6
CONTINUOUS
 62
         3
100
AcDbLine
 10
150.15
 20
-38.150863
 30
0.0
 11
174.249976
 21
-38.150863
 31
0.0
  0
LINE
  5
12D
100
AcDbEntity
  8
PV
  6
CONTINUOUS
 62
         3
100
AcDbLine
 10
174.249976
 20
-39.233862
 30
0.0
 11
150.15
 21
-39.233862
 31
0.0
  0
LINE
  5
12E
100
AcDbEntity
  8
PV
  6
CONTINUOUS
 62
         3
100
AcDbLine
 10
174.249976
 20
-53.067848
 30
0.0
 11
150.15
 21
-53.067848
 31
0.0
  0
LINE
  5
12F
100
AcDbEntity
  8
PV
  6
CENTER
 62
         3
100
AcDbLine
 10
210.51494
 20
-46.150855
 30
0.0
 11
129.150021
 21
-46.150855
 31
0.0
  0
LINE
  5
130
100
AcDbEntity
  8
PV
  6
CONTINUOUS
 62
         3
100
AcDbLine
 10
152.649997
 20
260.465839
 30
0.0
 11
174.649975
 21
255.987843
 31
0.0
  0
LINE
  5
131
100
AcDbEntity
  8
PV
  6
CONTINUOUS
 62
         3
100
AcDbLine
 10
152.649997
 20
232.231867
 30
0.0
 11
174.649975
 21
236.709862
 31
0.0
  0
LINE
  5
132
100
AcDbEntity
  8
PV
  6
CONTINUOUS
 62
         3
100
AcDbLine
 10
203.649946
 20
-32.033869
 30
0.0
 11
181.649968
 21
-36.511864
 31
0.0
  0
LINE
  5
133
100
AcDbEntity
  8
PV
  6
CONTINUOUS
 62
         3
100
AcDbLine
 10
203.649946
 20
-60.267841
 30
0.0
 11
181.649968
 21
-55.788845
 31
0.0
  0
LINE
  5
134
100
AcDbEntity
  8
PV
  6
CONTINUOUS
 62
         3
100
AcDbLine
 10
360.090231
 20
-150.15
 30
0.0
 11
360.090231
 21
-330.33
 31
0.0
  0
ARC
  5
135
100
AcDbEntity
  8
PV
  6
CONTINUOUS
 62
         3
100
AcDbCircle
 10
-180.18
 20
100.098999
 30
0.0
 40
162.499837
100
AcDbArc
 50
0.705197
 51
359.294803
  0
ARC
  5
136
100
AcDbEntity
  8
PV
  6
CONTINUOUS
 62
         3
100
AcDbCircle
 10
-180.18
 20
100.098999
 30
0.0
 40
129.99987
100
AcDbArc
 50
92.645
 51
87.35463
  0
LINE
  5
137
100
AcDbEntity
  8
PV
  6
CONTINUOUS
 62
         3
100
AcDbLine
 10
206.149944
 20
260.648838
 30
0.0
 11
206.149944
 21
-60.45084
 31
0.0
  0
LINE
  5
138
100
AcDbEntity
  8
PV
  6
CONTINUOUS
 62
         3
100
AcDbLine
 10
152.649997
 20
230.098869
 30
0.0
 11
203.649946
 21
230.098869
 31
0.0
  0
LINE
  5
139
100
AcDbEntity
  8
PV
  6
CONTINUOUS
 62
         3
100
AcDbLine
 10
152.649997
 20
262.598836
 30
0.0
 11
203.649946
 21
262.598836
 31
0.0
  0
LINE
  5
13A
100
AcDbEntity
  8
PV
  6
CONTINUOUS
 62
         3
100
AcDbLine
 10
204.549946
 20
260.648838
 30
0.0
 11
206.149944
 21
260.648838
 31
0.0
  0
LINE
  5
13B
100
AcDbEntity
  8
PV
  6
CONTINUOUS
 62
         3
100
AcDbLine
 10
204.549946
 20
232.048867
 30
0.0
 11
206.149944
 21
232.048867
 31
0.0
  0
LINE
  5
13C
100
AcDbEntity
  8
PV
  6
CONTINUOUS
 62
         3
100
AcDbLine
 10
150.15
 20
-60.45084
 30
0.0
 11
150.15
 21
260.648838
 31
0.0
  0
LINE
  5
13D
100
AcDbEntity
  8
PV
  6
CONTINUOUS
 62
         3
100
AcDbLine
 10
150.15
 20
260.648838
 30
0.0
 11
151.749998
 21
260.648838
 31
0.0
  0
LINE
  5
13E
100
AcDbEntity
  8
PV
  6
CONTINUOUS
 62
         3
100
AcDbLine
 10
150.15
 20
232.048867
 30
0.0
 11
151.749998
 21
232.048867
 31
0.0
  0
LINE
  5
13F
100
AcDbEntity
  8
PV
  6
CONTINUOUS
 62
         3
100
AcDbLine
 10
151.749998
 20
260.648838
 30
0.0
 11
152.649997
 21
260.465839
 31
0.0
  0
LINE
  5
140
100
AcDbEntity
  8
PV
  6
CONTINUOUS
 62
         3
100
AcDbLine
 10
151.749998
 20
232.048867
 30
0.0
 11
152.649997
 21
232.231867
 31
0.0
  0
LINE
  5
141
100
AcDbEntity
  8
PV
  6
CONTINUOUS
 62
         3
100
AcDbLine
 10
203.649946
 20
262.598836
 30
0.0
 11
203.649946
 21
260.465839
 31
0.0
  0
LINE
  5
142
100
AcDbEntity
  8
PV
  6
CONTINUOUS
 62
         3
100
AcDbLine
 10
152.649997
 20
262.598836
 30
0.0
 11
152.649997
 21
260.465839
 31
0.0
  0
LINE
  5
143
100
AcDbEntity
  8
PV
  6
CONTINUOUS
 62
         3
100
AcDbLine
 10
203.649946
 20
231.298868
 30
0.0
 11
203.649946
 21
231.251868
 31
0.0
  0
LINE
  5
144
100
AcDbEntity
  8
PV
  6
CONTINUOUS
 62
         3
100
AcDbLine
 10
203.649946
 20
-29.900871
 30
0.0
 11
152.649997
 21
-29.900871
 31
0.0
  0
LINE
  5
145
100
AcDbEntity
  8
PV
  6
CONTINUOUS
 62
         3
100
AcDbLine
 10
203.649946
 20
-62.400838
 30
0.0
 11
152.649997
 21
-62.400838
 31
0.0
  0
LINE
  5
146
100
AcDbEntity
  8
PV
  6
CONTINUOUS
 62
         3
100
AcDbLine
 10
206.149944
 20
-60.45084
 30
0.0
 11
204.549946
 21
-60.45084
 31
0.0
  0
LINE
  5
147
100
AcDbEntity
  8
PV
  6
CONTINUOUS
 62
         3
100
AcDbLine
 10
206.149944
 20
-31.850869
 30
0.0
 11
204.549946
 21
-31.850869
 31
0.0
  0
LINE
  5
148
100
AcDbEntity
  8
PV
  6
CONTINUOUS
 62
         3
100
AcDbLine
 10
204.550946
 20
-60.45084
 30
0.0
 11
203.649946
 21
-60.267841
 31
0.0
  0
LINE
  5
149
100
AcDbEntity
  8
PV
  6
CONTINUOUS
 62
         3
100
AcDbLine
 10
204.549946
 20
-31.850869
 30
0.0
 11
203.649946
 21
-32.033869
 31
0.0
  0
LINE
  5
14A
100
AcDbEntity
  8
PV
  6
CONTINUOUS
 62
         3
100
AcDbLine
 10
151.749998
 20
-60.45084
 30
0.0
 11
150.15
 21
-60.45084
 31
0.0
  0
LINE
  5
14B
100
AcDbEntity
  8
PV
  6
CONTINUOUS
 62
         3
100
AcDbLine
 10
151.749998
 20
-31.850869
 30
0.0
 11
150.15
 21
-31.850869
 31
0.0
  0
LINE
  5
14C
100
AcDbEntity
  8
PV
  6
CONTINUOUS
 62
         3
100
AcDbLine
 10
203.649946
 20
-60.267841
 30
0.0
 11
203.649946
 21
-62.400838
 31
0.0
  0
LINE
  5
14D
100
AcDbEntity
  8
PV
  6
CONTINUOUS
 62
         3
100
AcDbLine
 10
152.649997
 20
-60.267841
 30
0.0
 11
152.649997
 21
-62.400838
 31
0.0
  0
LINE
  5
14E
100
AcDbEntity
  8
PV
  6
CONTINUOUS
 62
         3
100
AcDbLine
 10
152.649997
 20
232.231867
 30
0.0
 11
152.649997
 21
-32.033869
 31
0.0
  0
LINE
  5
14F
100
AcDbEntity
  8
PV
  6
CONTINUOUS
 62
         3
100
AcDbLine
 10
203.649946
 20
232.231867
 30
0.0
 11
203.649946
 21
-32.033869
 31
0.0
  0
LINE
  5
150
100
AcDbEntity
  8
PV
  6
CONTINUOUS
 62
         3
100
AcDbLine
 10
150.15
 20
258.348841
 30
0.0
 11
135.150015
 21
258.348841
 31
0.0
  0
LINE
  5
151
100
AcDbEntity
  8
PV
  6
CONTINUOUS
 62
         3
100
AcDbLine
 10
150.15
 20
234.348865
 30
0.0
 11
135.150015
 21
234.348865
 31
0.0
  0
LINE
  5
152
100
AcDbEntity
  8
PV
  6
CONTINUOUS
 62
         3
100
AcDbLine
 10
134.150016
 20
236.080863
 30
0.0
 11
135.150015
 21
234.348865
 31
0.0
  0
LINE
  5
153
100
AcDbEntity
  8
PV
  6
CONTINUOUS
 62
         3
100
AcDbLine
 10
134.150016
 20
256.616842
 30
0.0
 11
135.150015
 21
258.348841
 31
0.0
  0
LINE
  5
154
100
AcDbEntity
  8
PV
  6
CONTINUOUS
 62
         3
100
AcDbLine
 10
134.150016
 20
256.616842
 30
0.0
 11
134.150016
 21
236.080863
 31
0.0
  0
LINE
  5
155
100
AcDbEntity
  8
PV
  6
CONTINUOUS
 62
         3
100
AcDbLine
 10
203.649946
 20
232.231867
 30
0.0
 11
204.549946
 21
232.048867
 31
0.0
  0
LINE
  5
156
100
AcDbEntity
  8
PV
  6
CONTINUOUS
 62
         3
100
AcDbLine
 10
203.649946
 20
260.465839
 30
0.0
 11
204.549946
 21
260.648838
 31
0.0
  0
LINE
  5
157
100
AcDbEntity
  8
PV
  6
CONTINUOUS
 62
         3
100
AcDbLine
 10
152.556998
 20
-32.014869
 30
0.0
 11
151.749998
 21
-31.850869
 31
0.0
  0
LINE
  5
158
100
AcDbEntity
  8
PV
  6
CONTINUOUS
 62
         3
100
AcDbLine
 10
152.649997
 20
-60.267841
 30
0.0
 11
151.749998
 21
-60.45084
 31
0.0
  0
MTEXT
  5
159
100
AcDbEntity
  8
PV
  6
CONTINUOUS
 62
       110
100
AcDbMText
 10
-281.1405659955
 20
295.5408061192
 30
0.0
 40
3.2000000477
 41
0.0
 71
         1
 72
         1
  1
\W1.125;\A1;M16
  0
MTEXT
  5
15A
100
AcDbEntity
  8
PV
  6
CONTINUOUS
 62
       110
100
AcDbMText
 10
124.3615701033
 20
-316.5161995775
 30
0.0
 40
9.6096000671
 41
0.0
 71
         1
 72
         1
  1
\W1.333;\A1;12.4
  0
MTEXT
  5
15B
100
AcDbEntity
  8
PV
  6
CONTINUOUS
 62
       110
100
AcDbMText
 10
232.7615011033
 20
-298.4981995775
 30
0.0
 40
9.6096000671
 41
0.0
 71
         1
 72
         1
  1
\W1.333;\A1;13.2
  0
MTEXT
  5
15C
100
AcDbEntity
  8
PV
  6
CONTINUOUS
 62
       110
100
AcDbMText
 10
232.7615011033
 20
-280.4801995775
 30
0.0
 40
9.6096000671
 41
0.0
 71
         1
 72
         1
  1
\W1.333;\A1;16.4
  0
MTEXT
  5
15D
100
AcDbEntity
  8
PV
  6
CONTINUOUS
 62
       110
100
AcDbMText
 10
222.8644350393
 20
-262.4621995775
 30
0.0
 40
9.6096000671
 41
0.0
 71
         1
 72
         1
  1
\W1.154;\A1;81900
  0
MTEXT
  5
15E
100
AcDbEntity
  8
PV
  6
CONTINUOUS
 62
       110
100
AcDbMText
 10
222.9383549554
 20
-244.4441995775
 30
0.0
 40
9.6096000671
 41
0.0
 71
         1
 72
         1
  1
\W1.200;\A1;10600
  0
MTEXT
  5
15F
100
AcDbEntity
  8
PV
  6
CONTINUOUS
 62
       110
100
AcDbMText
 10
232.5479549313
 20
-226.4261995775
 30
0.0
 40
9.6096000671
 41
0.0
 71
         1
 72
         1
  1
\W1.200;\A1;35.5
  0
MTEXT
  5
160
100
AcDbEntity
  8
PV
  6
CONTINUOUS
 62
       110
100
AcDbMText
 10
116.4294309202
 20
-208.8376285775
 30
0.0
 40
9.6096000671
 41
0.0
 71
         1
 72
         1
  1
\W1.059;\A1;23-M16X50
  0
MTEXT
  5
161
100
AcDbEntity
  8
PV
  6
CONTINUOUS
 62
       110
100
AcDbMText
 10
121.9754690077
 20
-190.1439535775
 30
0.0
 40
9.6096000671
 41
0.0
 71
         1
 72
         1
  1
\W1.015;\A1;PL260X325AS
  0
MTEXT
  5
162
100
AcDbEntity
  8
PV
  6
CONTINUOUS
 62
       110
100
AcDbMText
 10
167.6715050112
 20
-316.5161995775
 30
0.0
 40
9.6096000671
 41
0.0
 71
         1
 72
         1
  1
\A1;kg
  0
MTEXT
  5
163
100
AcDbEntity
  8
PV
  6
CONTINUOUS
 62
       110
100
AcDbMText
 10
133.4108710112
 20
-226.4261995775
 30
0.0
 40
9.6096000671
 41
0.0
 71
         1
 72
         1
  1
\A1;348
  0
MTEXT
  5
164
100
AcDbEntity
  8
PV
  6
CONTINUOUS
 62
       110
100
AcDbMText
 10
170.0739040234
 20
-226.4261995775
 30
0.0
 40
9.6096000671
 41
0.0
 71
         1
 72
         1
  1
\W0.833;\A1;Ｎ・ｍ
  0
MTEXT
  5
165
100
AcDbEntity
  8
PV
  6
CONTINUOUS
 62
       110
100
AcDbMText
 10
134.2600849371
 20
-244.4441995775
 30
0.0
 40
9.6096000671
 41
0.0
 71
         1
 72
         1
  1
\W1.200;\A1;104
  0
MTEXT
  5
166
100
AcDbEntity
  8
PV
  6
CONTINUOUS
 62
       110
100
AcDbMText
 10
170.0739040234
 20
-244.4441995775
 30
0.0
 40
9.6096000671
 41
0.0
 71
         1
 72
         1
  1
\W0.833;\A1;ｋＮ・ｍ
  0
MTEXT
  5
167
100
AcDbEntity
  8
PV
  6
CONTINUOUS
 62
       110
100
AcDbMText
 10
133.3081339321
 20
-262.4621995775
 30
0.0
 40
9.6096000671
 41
0.0
 71
         1
 72
         1
  1
\W1.059;\A1;803
  0
MTEXT
  5
168
100
AcDbEntity
  8
PV
  6
CONTINUOUS
 62
       110
100
AcDbMText
 10
167.6715050112
 20
-262.4621995775
 30
0.0
 40
9.6096000671
 41
0.0
 71
         1
 72
         1
  1
\A1;kN
  0
MTEXT
  5
169
100
AcDbEntity
  8
PV
  6
CONTINUOUS
 62
       110
100
AcDbMText
 10
133.7138329172
 20
-280.4801995775
 30
0.0
 40
9.6096000671
 41
0.0
 71
         1
 72
         1
  1
\W1.286;\A1;161
  0
MTEXT
  5
16A
100
AcDbEntity
  8
PV
  6
CONTINUOUS
 62
       110
100
AcDbMText
 10
167.6715050112
 20
-280.4801995775
 30
0.0
 40
9.6096000671
 41
0.0
 71
         1
 72
         1
  1
\A1;MPa
  0
MTEXT
  5
16B
100
AcDbEntity
  8
PV
  6
CONTINUOUS
 62
       110
100
AcDbMText
 10
133.6890809992
 20
-298.2293455775
 30
0.0
 40
9.6096000671
 41
0.0
 71
         1
 72
         1
  1
\W1.125;\A1;129
  0
MTEXT
  5
16C
100
AcDbEntity
  8
PV
  6
CONTINUOUS
 62
       110
100
AcDbMText
 10
167.6715050112
 20
-298.4981995775
 30
0.0
 40
9.6096000671
 41
0.0
 71
         1
 72
         1
  1
\A1;MPa
  0
MTEXT
  5
16D
100
AcDbEntity
  8
PV
  6
CONTINUOUS
 62
       110
100
AcDbMText
 10
214.5128029452
 20
-226.4261995775
 30
0.0
 40
9.6096000671
 41
0.0
 71
         1
 72
         1
  1
\W1.500;\A1;\{
  0
MTEXT
  5
16E
100
AcDbEntity
  8
PV
  6
CONTINUOUS
 62
       110
100
AcDbMText
 10
280.8366910234
 20
-226.4261995775
 30
0.0
 40
9.6096000671
 41
0.0
 71
         1
 72
         1
  1
\W0.833;\A1;ｋｇｆ・ｍ｝
  0
MTEXT
  5
16F
100
AcDbEntity
  8
PV
  6
CONTINUOUS
 62
       110
100
AcDbMText
 10
280.8366910234
 20
-244.4441995775
 30
0.0
 40
9.6096000671
 41
0.0
 71
         1
 72
         1
  1
\W0.833;\A1;ｋｇｆ・ｍ｝
  0
MTEXT
  5
170
100
AcDbEntity
  8
PV
  6
CONTINUOUS
 62
       110
100
AcDbMText
 10
278.579890944
 20
-262.4621995775
 30
0.0
 40
9.6096000671
 41
0.0
 71
         1
 72
         1
  1
\W1.091;\A1;kgf\}
  0
MTEXT
  5
171
100
AcDbEntity
  8
PV
  6
CONTINUOUS
 62
       110
100
AcDbMText
 10
278.9584463414
 20
-280.4801995775
 30
0.0
 40
9.6096000671
 41
0.0
 71
         1
 72
         1
  1
\T1.101;\W1.081;\A1;kgf/mm \}
  0
MTEXT
  5
172
100
AcDbEntity
  8
PV
  6
CONTINUOUS
 62
       110
100
AcDbMText
 10
278.9584463414
 20
-298.4981995775
 30
0.0
 40
9.6096000671
 41
0.0
 71
         1
 72
         1
  1
\T1.101;\W1.081;\A1;kgf/mm \}
  0
MTEXT
  5
173
100
AcDbEntity
  8
PV
  6
CONTINUOUS
 62
       110
100
AcDbMText
 10
336.8177449854
 20
-298.4965379808
 30
0.0
 40
4.5044999123
 41
0.0
 71
         1
 72
         1
  1
\A1;2
  0
MTEXT
  5
174
100
AcDbEntity
  8
PV
  6
CONTINUOUS
 62
       110
100
AcDbMText
 10
336.8177449854
 20
-280.4785379808
 30
0.0
 40
4.5044999123
 41
0.0
 71
         1
 72
         1
  1
\A1;2
  0
MTEXT
  5
175
100
AcDbEntity
  8
PV
  6
CONTINUOUS
 62
       110
100
AcDbMText
 10
206.3717099452
 20
-244.4441995775
 30
0.0
 40
9.6096000671
 41
0.0
 71
         1
 72
         1
  1
\W1.500;\A1;\{
  0
MTEXT
  5
176
100
AcDbEntity
  8
PV
  6
CONTINUOUS
 62
       110
100
AcDbMText
 10
205.7552199452
 20
-262.4621995775
 30
0.0
 40
9.6096000671
 41
0.0
 71
         1
 72
         1
  1
\W1.500;\A1;\{
  0
MTEXT
  5
177
100
AcDbEntity
  8
PV
  6
CONTINUOUS
 62
       110
100
AcDbMText
 10
214.2801549452
 20
-280.4801995775
 30
0.0
 40
9.6096000671
 41
0.0
 71
         1
 72
         1
  1
\W1.500;\A1;\{
  0
MTEXT
  5
178
100
AcDbEntity
  8
PV
  6
CONTINUOUS
 62
       110
100
AcDbMText
 10
214.5128029452
 20
-298.2293455775
 30
0.0
 40
9.6096000671
 41
0.0
 71
         1
 72
         1
  1
\W1.500;\A1;\{
  0
LINE
  5
179
100
AcDbEntity
  8
PV
  6
CONTINUOUS
 62
         3
100
AcDbLine
 10
-290.768889
 20
286.856812
 30
0.0
 11
-252.189928
 21
286.856812
 31
0.0
  0
LINE
  5
17A
100
AcDbEntity
  8
PV
  6
CONTINUOUS
 62
         3
100
AcDbLine
 10
-273.435907
 20
222.168877
 30
0.0
 11
-290.768889
 21
286.856812
 31
0.0
  0
LINE
  5
17B
100
AcDbEntity
  8
PV
  6
CONTINUOUS
 62
         3
100
AcDbLine
 10
-237.235662
 20
-168.33
 30
0.0
 11
360.090231
 21
-168.33
 31
0.0
  0
LINE
  5
17C
100
AcDbEntity
  8
PV
  6
CONTINUOUS
 62
         3
100
AcDbLine
 10
-237.235662
 20
-186.33
 30
0.0
 11
360.090231
 21
-186.33
 31
0.0
  0
LINE
  5
17D
100
AcDbEntity
  8
PV
  6
CONTINUOUS
 62
         3
100
AcDbLine
 10
-237.235662
 20
-204.33
 30
0.0
 11
360.090231
 21
-204.33
 31
0.0
  0
LINE
  5
17E
100
AcDbEntity
  8
PV
  6
CONTINUOUS
 62
         3
100
AcDbLine
 10
-237.235662
 20
-222.33
 30
0.0
 11
360.090231
 21
-222.33
 31
0.0
  0
LINE
  5
17F
100
AcDbEntity
  8
PV
  6
CONTINUOUS
 62
         3
100
AcDbLine
 10
-237.235662
 20
-240.33
 30
0.0
 11
360.090231
 21
-240.33
 31
0.0
  0
LINE
  5
180
100
AcDbEntity
  8
PV
  6
CONTINUOUS
 62
         3
100
AcDbLine
 10
-237.235662
 20
-258.33
 30
0.0
 11
360.090231
 21
-258.33
 31
0.0
  0
LINE
  5
181
100
AcDbEntity
  8
PV
  6
CONTINUOUS
 62
         3
100
AcDbLine
 10
-237.235662
 20
-276.33
 30
0.0
 11
360.090231
 21
-276.33
 31
0.0
  0
LINE
  5
182
100
AcDbEntity
  8
PV
  6
CONTINUOUS
 62
         3
100
AcDbLine
 10
-237.235662
 20
-294.33
 30
0.0
 11
360.090231
 21
-294.33
 31
0.0
  0
LINE
  5
183
100
AcDbEntity
  8
PV
  6
CONTINUOUS
 62
         3
100
AcDbLine
 10
-237.235662
 20
-312.33
 30
0.0
 11
360.090231
 21
-312.33
 31
0.0
  0
LINE
  5
184
100
AcDbEntity
  8
PV
  6
CONTINUOUS
 62
         3
100
AcDbLine
 10
-237.235662
 20
-330.33
 30
0.0
 11
360.090231
 21
-330.33
 31
0.0
  0
LINE
  5
185
100
AcDbEntity
  8
PV
  6
CONTINUOUS
 62
         3
100
AcDbLine
 10
-237.235662
 20
-150.33
 30
0.0
 11
360.090231
 21
-150.33
 31
0.0
  0
LINE
  5
186
100
AcDbEntity
  8
PV
  6
CONTINUOUS
 62
         3
100
AcDbLine
 10
-237.235662
 20
-150.33
 30
0.0
 11
-237.235662
 21
-330.33
 31
0.0
  0
LINE
  5
187
100
AcDbEntity
  8
PV
  6
CONTINUOUS
 62
         3
100
AcDbLine
 10
107.083338
 20
-186.33
 30
0.0
 11
107.083338
 21
-330.33
 31
0.0
  0
MTEXT
  5
188
100
AcDbEntity
  8
PV
  6
CONTINUOUS
 62
       110
100
AcDbMText
 10
-49.5038229923
 20
-115.4381995775
 30
0.0
 40
9.6096000671
 41
0.0
 71
         1
 72
         1
  1
\W1.015;\A1;PL260X325AS
  0
MTEXT
  5
189
100
AcDbEntity
  8
PV
  6
CONTINUOUS
 62
       110
100
AcDbMText
 10
-49.4941610384
 20
-97.4381995775
 30
0.0
 40
9.6096000671
 41
0.0
 71
         1
 72
         1
  1
\T1.006;\W1.063;\A1;POWER LOCK
  0
MTEXT
  5
18A
100
AcDbEntity
  8
PV
  6
CONTINUOUS
 62
       110
100
AcDbMText
 10
-223.6480400961
 20
-190.9211995775
 30
0.0
 40
9.6096000671
 41
0.0
 71
         1
 72
         1
  1
\T1.034;\W1.053;\A1;MODEL NUMBER
  0
MTEXT
  5
18B
100
AcDbEntity
  8
PV
  6
CONTINUOUS
 62
       110
100
AcDbMText
 10
-223.5040008631
 20
-298.9211995775
 30
0.0
 40
9.6096000671
 41
0.0
 71
         1
 72
         1
  1
\T1.061;\W1.093;\A1;CONTACT PRESSURE OF HUB BORE
  0
MTEXT
  5
18C
100
AcDbEntity
  8
PV
  6
CONTINUOUS
 62
       110
100
AcDbMText
 10
-223.5614410913
 20
-280.9211995775
 30
0.0
 40
9.6096000671
 41
0.0
 71
         1
 72
         1
  1
\T1.051;\W1.077;\A1;CONTACT PRESSURE OF SHAFT
  0
MTEXT
  5
18D
100
AcDbEntity
  8
PV
  6
CONTINUOUS
 62
       110
100
AcDbMText
 10
-223.5433607369
 20
-262.9211995775
 30
0.0
 40
9.6096000671
 41
0.0
 71
         1
 72
         1
  1
\T1.057;\W1.031;\A1;TRANSMISSIBLE THRUST
  0
MTEXT
  5
18E
100
AcDbEntity
  8
PV
  6
CONTINUOUS
 62
       110
100
AcDbMText
 10
-223.5433607369
 20
-244.9211995775
 30
0.0
 40
9.6096000671
 41
0.0
 71
         1
 72
         1
  1
\T1.057;\W1.031;\A1;TRANSMISSIBLE TORQUE
  0
MTEXT
  5
18F
100
AcDbEntity
  8
PV
  6
CONTINUOUS
 62
       110
100
AcDbMText
 10
-223.3124288953
 20
-208.9211995775
 30
0.0
 40
9.6096000671
 41
0.0
 71
         1
 72
         1
  1
\T1.096;\W1.097;\A1;QUANTITY AND SIZE OF LOCKING BOLTS
  0
MTEXT
  5
190
100
AcDbEntity
  8
PV
  6
CONTINUOUS
 62
       110
100
AcDbMText
 10
-223.3943481374
 20
-226.9211995775
 30
0.0
 40
9.6096000671
 41
0.0
 71
         1
 72
         1
  1
\T1.083;\W1.076;\A1;TIGHTENING TORQUE OF LOCKING BOLTS
  0
MTEXT
  5
191
100
AcDbEntity
  8
PV
  6
CONTINUOUS
 62
       110
100
AcDbMText
 10
-91.7221610384
 20
-173.2661995775
 30
0.0
 40
9.6096000671
 41
0.0
 71
         1
 72
         1
  1
\T1.006;\W1.063;\A1;POWER LOCK
  0
MTEXT
  5
192
100
AcDbEntity
  8
PV
  6
CONTINUOUS
 62
       110
100
AcDbMText
 10
-223.8224619888
 20
-316.9211995775
 30
0.0
 40
9.6096000671
 41
0.0
 71
         1
 72
         1
  1
\A1;MASS
  0
DIMENSION
  5
1A1
100
AcDbEntity
  8
PV
  6
CONTINUOUS
 62
        80
100
AcDbDimension
  2
*D2
 10
111.774723
 20
246.348853
 30
0.0
 11
111.774723
 21
98.9073267627
 31
0.0
 70
       128
  1
\A1;\U+2205<>
  3
MXDIMSTYLE
100
AcDbAlignedDimension
 13
129.150021
 23
-46.150855
 33
0.0
 14
129.150021
 24
246.348853
 34
0.0
 50
90.0
100
AcDbRotatedDimension
1001
ACAD
1000
DSTYLE
1002
{
1070
         6
1000
SOLID
1070
         7
1000
SOLID
1070
        41
1040
1.0000000298
1070
        44
1040
2.0
1070
       271
1070
         4
1070
       284
1070
         8
1070
       343
1005
0
1070
       344
1005
0
1002
}
  0
DIMENSION
  5
1B0
100
AcDbEntity
  8
PV
  6
CONTINUOUS
 62
        80
100
AcDbDimension
  2
*D3
 10
243.029244
 20
-29.900871
 30
0.0
 11
243.029244
 21
99.1073376279
 31
0.0
 70
       128
  1
\A1;\U+2205<>
  3
MXDIMSTYLE
100
AcDbAlignedDimension
 13
203.649945
 23
230.098869
 33
0.0
 14
203.649945
 24
-29.900871
 34
0.0
 50
90.0
100
AcDbRotatedDimension
1001
ACAD
1000
DSTYLE
1002
{
1070
         6
1000
SOLID
1070
         7
1000
SOLID
1070
        41
1040
1.0000000298
1070
        44
1040
2.0
1070
       271
1070
         4
1070
       284
1070
         8
1070
       343
1005
0
1070
       344
1005
0
1002
}
  0
DIMENSION
  5
1C0
100
AcDbEntity
  8
PV
  6
CONTINUOUS
 62
        80
100
AcDbDimension
  2
*D4
 10
274.575395
 20
-62.400838
 30
0.0
 11
274.575395
 21
99.1073351455
 31
0.0
 70
       128
  1
\A1;\U+2205<>
  3
MXDIMSTYLE
100
AcDbAlignedDimension
 13
203.649949
 23
262.598836
 33
0.0
 14
203.649949
 24
-62.400838
 34
0.0
 50
90.0
100
AcDbRotatedDimension
1001
ACAD
1000
DSTYLE
1002
{
1070
         6
1000
SOLID
1070
         7
1000
SOLID
1070
        41
1040
1.0000000298
1070
        44
1040
2.0
1070
       271
1070
         4
1070
       284
1070
         8
1070
       340
1005
1BA
1070
       343
1005
0
1070
       344
1005
0
1002
}
  0
DIMENSION
  5
1D0
100
AcDbEntity
  8
PV
  6
CONTINUOUS
 62
        80
100
AcDbDimension
  2
*D5
 10
203.649946
 20
298.836272
 30
0.0
 11
177.3583042662
 21
298.836272
 31
0.0
 70
       128
  1
\A1;<>
  3
MXDIMSTYLE
100
AcDbAlignedDimension
 13
152.649997
 23
262.598838
 33
0.0
 14
203.649946
 24
262.598838
 34
0.0
100
AcDbRotatedDimension
1001
ACAD
1000
DSTYLE
1002
{
1070
         6
1000
SOLID
1070
         7
1000
SOLID
1070
        41
1040
1.0000000298
1070
        44
1040
2.0
1070
       271
1070
         4
1070
       284
1070
         8
1070
       340
1005
1CA
1070
       343
1005
0
1070
       344
1005
0
1002
}
  0
DIMENSION
  5
1DF
100
AcDbEntity
  8
PV
  6
CONTINUOUS
 62
        80
100
AcDbDimension
  2
*D6
 10
206.149944
 20
316.299319
 30
0.0
 11
177.3583034515
 21
316.299319
 31
0.0
 70
       128
  1
\A1;<>
  3
MXDIMSTYLE
100
AcDbAlignedDimension
 13
150.15
 23
260.648837
 33
0.0
 14
206.149944
 24
260.648837
 34
0.0
100
AcDbRotatedDimension
1001
ACAD
1000
DSTYLE
1002
{
1070
         6
1000
SOLID
1070
         7
1000
SOLID
1070
        41
1040
1.0000000298
1070
        44
1040
2.0
1070
       271
1070
         4
1070
       284
1070
         8
1070
       343
1005
0
1070
       344
1005
0
1002
}
  0
DIMENSION
  5
1EE
100
AcDbEntity
  8
PV
  6
CONTINUOUS
 62
        80
100
AcDbDimension
  2
*D7
 10
150.15
 20
316.299319
 30
0.0
 11
141.3583418629
 21
316.299319
 31
0.0
 70
       128
  1
\A1;<>
  3
MXDIMSTYLE
100
AcDbAlignedDimension
 13
134.150016
 23
256.616843
 33
0.0
 14
150.15
 24
260.648837
 34
0.0
100
AcDbRotatedDimension
1001
ACAD
1000
DSTYLE
1002
{
1070
         6
1000
SOLID
1070
         7
1000
SOLID
1070
        41
1040
1.0000000298
1070
        44
1040
2.0
1070
       271
1070
         4
1070
       284
1070
         8
1070
       340
1005
1CA
1070
       343
1005
0
1070
       344
1005
0
1002
}
  0
DIMENSION
  5
1FD
100
AcDbEntity
  8
PV
  6
CONTINUOUS
 62
        80
100
AcDbDimension
  2
*D8
 10
206.149944
 20
332.674642
 30
0.0
 11
169.3583137295
 21
332.674642
 31
0.0
 70
       128
  1
\A1;<>
  3
MXDIMSTYLE
100
AcDbAlignedDimension
 13
134.150016
 23
256.616842
 33
0.0
 14
206.149944
 24
260.648839
 34
0.0
100
AcDbRotatedDimension
1001
ACAD
1000
DSTYLE
1002
{
1070
         6
1000
SOLID
1070
         7
1000
SOLID
1070
        41
1040
1.0000000298
1070
        44
1040
2.0
1070
       271
1070
         4
1070
       284
1070
         8
1070
       343
1005
0
1070
       344
1005
0
1002
}
  0
ENDSEC
  0
SECTION
  2
OBJECTS
  0
DICTIONARY
  5
19
100
AcDbDictionary
  3
ACAD_GROUP
350
1A
  3
ACAD_MLINESTYLE
350
1B
  0
DICTIONARY
  5
1A
102
{ACAD_REACTORS
330
19
102
}
100
AcDbDictionary
  0
DICTIONARY
  5
1B
102
{ACAD_REACTORS
330
19
102
}
100
AcDbDictionary
  3
STANDARD
350
1C
  0
MLINESTYLE
  5
1C
102
{ACAD_REACTORS
330
1B
102
}
100
AcDbMlineStyle
  2
Standard
 70
         0
  3

 62
         0
 51
90.0
 52
90.0
 71
         2
 49
0.5
 62
       256
  6
ByLayer
 49
-0.5
 62
       256
  6
ByLayer
  0
ENDSEC
  0
EOF
