  0
SECTION
  2
HEADER
  9
$ACADVER
  1
AC1014
  9
$ACADMAINTVER
 70
         0
  9
$DWGCODEPAGE
  3
ANSI_932
  9
$INSBASE
 10
0.0
 20
0.0
 30
0.0
  9
$EXTMIN
 10
-287.623
 20
-275.0
 30
0.0
  9
$EXTMAX
 10
290.502403727
 20
256.7730515316
 30
0.0
  9
$LIMMIN
 10
-287.623
 20
-275.0
  9
$LIMMAX
 10
290.502403727
 20
256.7730515316
  9
$ORTHOMODE
 70
         0
  9
$REGENMODE
 70
         1
  9
$FILLMODE
 70
         1
  9
$QTEXTMODE
 70
         0
  9
$MIRRTEXT
 70
         1
  9
$DRAGMODE
 70
         2
  9
$LTSCALE
 40
1.0
  9
$OSMODE
 70
         0
  9
$ATTMODE
 70
         1
  9
$TEXTSIZE
 40
3.2000000477
  9
$TRACEWID
 40
0.05
  9
$TEXTSTYLE
  7
MX_NOTE_STANDARD
  9
$CLAYER
  8
0
  9
$CELTYPE
  6
CONTINUOUS
  9
$CECOLOR
 62
       256
  9
$CELTSCALE
 40
1.0
  9
$DELOBJ
 70
         1
  9
$DISPSILH
 70
         0
  9
$DIMSCALE
 40
1.0
  9
$DIMASZ
 40
2.5
  9
$DIMEXO
 40
0.0
  9
$DIMDLI
 40
3.75
  9
$DIMRND
 40
0.0
  9
$DIMDLE
 40
0.0
  9
$DIMEXE
 40
2.5
  9
$DIMTP
 40
0.0
  9
$DIMTM
 40
0.0
  9
$DIMTXT
 40
3.2000000477
  9
$DIMCEN
 40
2.5
  9
$DIMTSZ
 40
0.0
  9
$DIMTOL
 70
         0
  9
$DIMLIM
 70
         0
  9
$DIMTIH
 70
         0
  9
$DIMTOH
 70
         0
  9
$DIMSE1
 70
         0
  9
$DIMSE2
 70
         0
  9
$DIMTAD
 70
         1
  9
$DIMZIN
 70
         8
  9
$DIMBLK
  1

  9
$DIMASO
 70
         1
  9
$DIMSHO
 70
         1
  9
$DIMPOST
  1

  9
$DIMAPOST
  1

  9
$DIMALT
 70
         0
  9
$DIMALTD
 70
         4
  9
$DIMALTF
 40
0.0393700787
  9
$DIMLFAC
 40
1.0
  9
$DIMTOFL
 70
         1
  9
$DIMTVP
 40
0.0
  9
$DIMTIX
 70
         0
  9
$DIMSOXD
 70
         0
  9
$DIMSAH
 70
         1
  9
$DIMBLK1
  1
_OPEN30
  9
$DIMBLK2
  1
_OPEN30
  9
$DIMSTYLE
  2
MXDIMSTYLE
  9
$DIMCLRD
 70
         0
  9
$DIMCLRE
 70
         0
  9
$DIMCLRT
 70
         0
  9
$DIMTFAC
 40
1.0
  9
$DIMGAP
 40
1.0
  9
$DIMJUST
 70
         0
  9
$DIMSD1
 70
         0
  9
$DIMSD2
 70
         0
  9
$DIMTOLJ
 70
         0
  9
$DIMTZIN
 70
         0
  9
$DIMALTZ
 70
         0
  9
$DIMALTTZ
 70
         0
  9
$DIMFIT
 70
         3
  9
$DIMUPT
 70
         0
  9
$DIMUNIT
 70
         2
  9
$DIMDEC
 70
         2
  9
$DIMTDEC
 70
         2
  9
$DIMALTU
 70
         2
  9
$DIMALTTD
 70
         4
  9
$DIMTXSTY
  7
MX_NOTE_STANDARD
  9
$DIMAUNIT
 70
         0
  9
$LUNITS
 70
         2
  9
$LUPREC
 70
         4
  9
$SKETCHINC
 40
0.1
  9
$FILLETRAD
 40
0.0
  9
$AUNITS
 70
         0
  9
$AUPREC
 70
         0
  9
$MENU
  1
acad
  9
$ELEVATION
 40
0.0
  9
$PELEVATION
 40
0.0
  9
$THICKNESS
 40
0.0
  9
$LIMCHECK
 70
         0
  9
$BLIPMODE
 70
         1
  9
$CHAMFERA
 40
0.0
  9
$CHAMFERB
 40
0.0
  9
$CHAMFERC
 40
0.0
  9
$CHAMFERD
 40
0.0
  9
$SKPOLY
 70
         0
  9
$TDCREATE
 40
2456603.419305556
  9
$TDUPDATE
 40
2456603.419305556
  9
$TDINDWG
 40
0.0000000000
  9
$TDUSRTIMER
 40
0.0000000000
  9
$USRTIMER
 70
         1
  9
$ANGBASE
 50
0.0
  9
$ANGDIR
 70
         0
  9
$PDMODE
 70
         0
  9
$PDSIZE
 40
0.0
  9
$PLINEWID
 40
0.0
  9
$COORDS
 70
         1
  9
$SPLFRAME
 70
         0
  9
$SPLINETYPE
 70
         6
  9
$SPLINESEGS
 70
         8
  9
$ATTDIA
 70
         0
  9
$ATTREQ
 70
         1
  9
$HANDLING
 70
         1
  9
$HANDSEED
  5
1D6
  9
$SURFTAB1
 70
         6
  9
$SURFTAB2
 70
         6
  9
$SURFTYPE
 70
         6
  9
$SURFU
 70
         6
  9
$SURFV
 70
         6
  9
$UCSNAME
  2

  9
$UCSORG
 10
0.0
 20
0.0
 30
0.0
  9
$UCSXDIR
 10
1.0
 20
0.0
 30
0.0
  9
$UCSYDIR
 10
0.0
 20
1.0
 30
0.0
  9
$PUCSNAME
  2

  9
$PUCSORG
 10
0.0
 20
0.0
 30
0.0
  9
$PUCSXDIR
 10
1.0
 20
0.0
 30
0.0
  9
$PUCSYDIR
 10
0.0
 20
1.0
 30
0.0
  9
$USERI1
 70
         0
  9
$USERI2
 70
         0
  9
$USERI3
 70
         0
  9
$USERI4
 70
         0
  9
$USERI5
 70
         0
  9
$USERR1
 40
0.0
  9
$USERR2
 40
0.0
  9
$USERR3
 40
0.0
  9
$USERR4
 40
0.0
  9
$USERR5
 40
0.0
  9
$WORLDVIEW
 70
         1
  9
$SHADEDGE
 70
         3
  9
$SHADEDIF
 70
        70
  9
$TILEMODE
 70
         1
  9
$MAXACTVP
 70
        16
  9
$PINSBASE
 10
0.0
 20
0.0
 30
0.0
  9
$PLIMCHECK
 70
         0
  9
$PEXTMIN
 10
1.0000000000E+20
 20
1.0000000000E+20
 30
1.0000000000E+20
  9
$PEXTMAX
 10
-1.0000000000E+20
 20
-1.0000000000E+20
 30
-1.0000000000E+20
  9
$PLIMMIN
 10
0.0
 20
0.0
  9
$PLIMMAX
 10
12.0
 20
9.0
  9
$UNITMODE
 70
         0
  9
$VISRETAIN
 70
         0
  9
$PLINEGEN
 70
         1
  9
$PSLTSCALE
 70
         0
  9
$TREEDEPTH
 70
      3020
  9
$PICKSTYLE
 70
         1
  9
$CMLSTYLE
  2
Standard
  9
$CMLJUST
 70
         0
  9
$CMLSCALE
 40
1.0
  9
$PROXYGRAPHICS
 70
         0
  9
$MEASUREMENT
 70
         1
  0
ENDSEC
  0
SECTION
  2
CLASSES
  0
CLASS
  1
LWPOLYLINE
  2
AcDbPolyline
  3
"AutoCAD"
 90
        0
280
         0
281
         1
  0
CLASS
  1
IMAGE
  2
AcDbRasterImage
  3
ISM
 90
      127
280
         0
281
         1
  0
CLASS
  1
OLE2FRAME
  2
AcDbOle2Frame
  3
""
 90
        0
280
         0
281
         1
  0
CLASS
  1
HATCH
  2
AcDbHatch
  3
"ACAD_SEDONA"
 90
        0
280
         0
281
         1
  0
CLASS
  1
DICTIONARYVAR
  2
AcDbDictionaryVar
  3
"AutoCAD"
 90
        0
280
         0
281
         0
  0
CLASS
  1
RASTERVARIABLES
  2
AcDbRasterVariables
  3
ISM
 90
        0
280
         0
281
         0
  0
CLASS
  1
IMAGEDEF
  2
AcDbRasterImageDef
  3
ISM
 90
        0
280
         0
281
         0
  0
CLASS
  1
IMAGEDEF_REACTOR
  2
AcDbRasterImageDefReactor
  3
ISM
 90
        1
280
         0
281
         0
  0
CLASS
  1
IDBUFFER
  2
AcDbIdBuffer
  3
"Acad"
 90
        0
280
         0
281
         0
  0
CLASS
  1
SPATIAL_FILTER
  2
AcDbSpatialFilter
  3
"Acad"
 90
        0
280
         0
281
         0
  0
CLASS
  1
XRECORD
  2
AcDbXrecord
  3
"<Built In>"
 90
        0
280
         0
281
         0
  0
CLASS
  1
SORTENTSTABLE
  2
AcDbSortentsTable
  3
"AutoCAD"
 90
        0
280
         0
281
         0
  0
CLASS
  1
LAYER_INDEX
  2
AcDbLayerIndex
  3
"Acad"
 90
        0
280
         0
281
         0
  0
CLASS
  1
SPATIAL_INDEX
  2
AcDbSpatialIndex
  3
"Acad"
 90
        0
280
         0
281
         0
  0
CLASS
  1
OBJECT_PTR
  2
CAseDLPNTableRecord
  3
"ASE-LPNTableRecord"
 90
        1
280
         0
281
         0
  0
CLASS
  1
LAYOUT
  2
AcDbLayout
  3
"AutoCAD 2000"
 90
        0
280
         0
281
         0
  0
CLASS
  1
PLOTSETTINGS
  2
AcDbPlotSettings
  3
"AutoCAD 2000"
 90
        0
280
         0
281
         0
  0
CLASS
  1
ACDBDICTIONARYWDFLT
  2
AcDbDictionaryWithDefault
  3
"AutoCAD 2000"
 90
        0
280
         0
281
         0
  0
CLASS
  1
ACDBPLACEHOLDER
  2
AcDbPlaceHolder
  3
"AutoCAD 2000"
 90
        0
280
         0
281
         0
  0
ENDSEC
  0
SECTION
  2
TABLES
  0
TABLE
  2
VPORT
  5
7
100
AcDbSymbolTable
 70
         1
  0
VPORT
  5
15
100
AcDbSymbolTableRecord
100
AcDbViewportTableRecord
  2
*ACTIVE
 70
         0
 10
0.0
 20
0.0
 11
1.0
 21
1.0
 12
1.4397018635
 22
-9.1134742342
 13
0.0
 23
0.0
 14
1.0
 24
1.0
 15
0.0
 25
0.0
 16
0.0
 26
0.0
 36
1.0
 17
0.0
 27
0.0
 37
0.0
 40
537.0907820469
 41
1.7320508076
 42
50.0
 43
0.0
 44
0.0
 50
0.0
 51
0.0
 71
         0
 72
       100
 73
         1
 74
         1
 75
         0
 76
         0
 77
         0
 78
         0
  0
ENDTAB
  0
TABLE
  2
LTYPE
  5
4
100
AcDbSymbolTable
 70
         4
  0
LTYPE
  5
11
100
AcDbSymbolTableRecord
100
AcDbLinetypeTableRecord
  2
BYBLOCK
 70
        64
  3

 72
        65
 73
         0
 40
0.0
  0
LTYPE
  5
12
100
AcDbSymbolTableRecord
100
AcDbLinetypeTableRecord
  2
BYLAYER
 70
        64
  3

 72
        65
 73
         0
 40
0.0
  0
LTYPE
  5
13
100
AcDbSymbolTableRecord
100
AcDbLinetypeTableRecord
  2
CONTINUOUS
 70
        64
  3
Solid line
 72
        65
 73
         0
 40
0.0
  0
LTYPE
  5
2B
100
AcDbSymbolTableRecord
100
AcDbLinetypeTableRecord
  2
CENTER
 70
        64
  3
Center ____ _ ____ _ ____ _ ____ _ ____ _ ____
 72
        65
 73
         4
 40
50.8
 49
31.75
 74
         0
 49
-6.35
 74
         0
 49
6.35
 74
         0
 49
-6.35
 74
         0
  0
ENDTAB
  0
TABLE
  2
LAYER
  5
2
100
AcDbSymbolTable
 70
         3
  0
LAYER
  5
14
100
AcDbSymbolTableRecord
100
AcDbLayerTableRecord
  2
0
 70
         0
 62
         7
  6
CONTINUOUS
  0
LAYER
  5
1D
100
AcDbSymbolTableRecord
100
AcDbLayerTableRecord
  2
DEFPOINTS
 70
         0
 62
         7
  6
CONTINUOUS
  0
LAYER
  5
1E
100
AcDbSymbolTableRecord
100
AcDbLayerTableRecord
  2
PV
 70
         0
 62
         3
  6
CONTINUOUS
  0
ENDTAB
  0
TABLE
  2
STYLE
  5
3
100
AcDbSymbolTable
 70
         4
  0
STYLE
  5
17
100
AcDbSymbolTableRecord
100
AcDbTextStyleTableRecord
  2
MX_NOTE_STANDARD
 70
         0
 40
0.0
 41
1.0
 50
0.0
 71
         0
 42
3.2000000477
  3
txt.shx
  4
extfont.shx
  0
STYLE
  5
15B
100
AcDbSymbolTableRecord
100
AcDbTextStyleTableRecord
  2
MX_DIMTXSTY_2
 70
         0
 40
0.0
 41
1.05
 50
0.0
 71
         0
 42
3.2000000477
  3
txt.shx
  4
extfont.shx
  0
STYLE
  5
17A
100
AcDbSymbolTableRecord
100
AcDbTextStyleTableRecord
  2
MX_DIMTXSTY_3
 70
         0
 40
0.0
 41
0.9
 50
0.0
 71
         0
 42
3.2000000477
  3
txt.shx
  4
extfont.shx
  0
STYLE
  5
1A8
100
AcDbSymbolTableRecord
100
AcDbTextStyleTableRecord
  2
MX_DIMTXSTY_4
 70
         0
 40
0.0
 41
1.1
 50
0.0
 71
         0
 42
3.2000000477
  3
txt.shx
  4
extfont.shx
  0
ENDTAB
  0
TABLE
  2
VIEW
  5
5
100
AcDbSymbolTable
 70
         0
  0
ENDTAB
  0
TABLE
  2
UCS
  5
6
100
AcDbSymbolTable
 70
         0
  0
ENDTAB
  0
TABLE
  2
APPID
  5
8
100
AcDbSymbolTable
 70
         1
  0
APPID
  5
16
100
AcDbSymbolTableRecord
100
AcDbRegAppTableRecord
  2
ACAD
 70
         0
  0
ENDTAB
  0
TABLE
  2
DIMSTYLE
  5
9
100
AcDbSymbolTable
 70
         1
  0
DIMSTYLE
105
18
100
AcDbSymbolTableRecord
100
AcDbDimStyleTableRecord
  2
MXDIMSTYLE
 70
         0
  3

  4

  5

  6
_OPEN30
  7
_OPEN30
 40
1.0
 41
2.5
 42
0.0
 43
3.75
 44
2.5
 45
0.0
 46
0.0
 47
0.0
 48
0.0
 71
         0
 72
         0
 73
         0
 74
         0
 75
         0
 76
         0
 77
         1
 78
         8
140
3.2000000477
141
2.5
142
0.0
143
0.0393700787
144
1.0
145
0.0
146
1.0
147
1.0
170
         0
171
         4
172
         1
173
         1
174
         0
175
         0
176
         0
177
         0
178
         0
270
         2
271
         2
272
         2
273
         2
274
         4
275
         0
280
         0
281
         0
282
         0
283
         0
284
         0
285
         0
286
         0
287
         3
288
         0
340
17
  0
ENDTAB
  0
TABLE
  2
BLOCK_RECORD
  5
1
100
AcDbSymbolTable
 70
         9
  0
BLOCK_RECORD
  5
A
100
AcDbSymbolTableRecord
100
AcDbBlockTableRecord
  2
*MODEL_SPACE
  0
BLOCK_RECORD
  5
B
100
AcDbSymbolTableRecord
100
AcDbBlockTableRecord
  2
*PAPER_SPACE
  0
BLOCK_RECORD
  5
1F
100
AcDbSymbolTableRecord
100
AcDbBlockTableRecord
  2
ARROW
  0
BLOCK_RECORD
  5
20
100
AcDbSymbolTableRecord
100
AcDbBlockTableRecord
  2
_OPEN30
  0
BLOCK_RECORD
  5
152
100
AcDbSymbolTableRecord
100
AcDbBlockTableRecord
  2
*D2
  0
BLOCK_RECORD
  5
162
100
AcDbSymbolTableRecord
100
AcDbBlockTableRecord
  2
*D3
  0
BLOCK_RECORD
  5
171
100
AcDbSymbolTableRecord
100
AcDbBlockTableRecord
  2
*D4
  0
BLOCK_RECORD
  5
181
100
AcDbSymbolTableRecord
100
AcDbBlockTableRecord
  2
*D5
  0
BLOCK_RECORD
  5
190
100
AcDbSymbolTableRecord
100
AcDbBlockTableRecord
  2
*D6
  0
BLOCK_RECORD
  5
19F
100
AcDbSymbolTableRecord
100
AcDbBlockTableRecord
  2
*D7
  0
BLOCK_RECORD
  5
1AF
100
AcDbSymbolTableRecord
100
AcDbBlockTableRecord
  2
*D8
  0
ENDTAB
  0
ENDSEC
  0
SECTION
  2
BLOCKS
  0
BLOCK
  5
D
100
AcDbEntity
  8
0
100
AcDbBlockBegin
  2
*MODEL_SPACE
 70
         0
 10
0.0
 20
0.0
 30
0.0
  3
*MODEL_SPACE
  1

  0
ENDBLK
  5
E
100
AcDbEntity
  8
0
100
AcDbBlockEnd
  0
BLOCK
  5
F
100
AcDbEntity
 67
         1
  8
0
100
AcDbBlockBegin
  2
*PAPER_SPACE
 70
         0
 10
0.0
 20
0.0
 30
0.0
  3
*PAPER_SPACE
  1

  0
ENDBLK
  5
10
100
AcDbEntity
 67
         1
  8
0
100
AcDbBlockEnd
  0
BLOCK
  5
26
100
AcDbEntity
  8
0
100
AcDbBlockBegin
  2
ARROW
 70
         0
 10
0.0
 20
0.0
 30
0.0
  3
ARROW
  1

  0
LWPOLYLINE
  5
27
100
AcDbEntity
  8
0
  6
CONTINUOUS
 62
       161
100
AcDbPolyline
 90
        3
 70
         0
 10
5.83812
 20
1.56432
 10
0.0
 20
0.0
 10
5.83812
 20
-1.56432
  0
ENDBLK
  5
28
100
AcDbEntity
  8
0
100
AcDbBlockEnd
  0
BLOCK
  5
21
100
AcDbEntity
  8
0
  6
ByBlock
 62
         0
100
AcDbBlockBegin
  2
_OPEN30
 70
         2
 10
0.0
 20
0.0
 30
0.0
  3
_OPEN30
  1

  0
LINE
  5
22
100
AcDbEntity
  8
0
  6
ByBlock
 62
         0
100
AcDbLine
 10
-1.0
 20
0.267949
 30
0.0
 11
0.0
 21
0.0
 31
0.0
  0
LINE
  5
23
100
AcDbEntity
  8
0
  6
ByBlock
 62
         0
100
AcDbLine
 10
0.0
 20
0.0
 30
0.0
 11
-1.0
 21
-0.267949
 31
0.0
  0
LINE
  5
24
100
AcDbEntity
  8
0
  6
ByBlock
 62
         0
100
AcDbLine
 10
0.0
 20
0.0
 30
0.0
 11
-1.0
 21
0.0
 31
0.0
  0
ENDBLK
  5
25
100
AcDbEntity
  8
0
  6
ByBlock
 62
         0
100
AcDbBlockEnd
  0
BLOCK
  5
153
100
AcDbEntity
  8
0
  6
ByBlock
 62
         0
100
AcDbBlockBegin
  2
*D2
 70
         1
 10
0.0
 20
0.0
 30
0.0
  3
*D2
  1

  0
LINE
  5
154
100
AcDbEntity
  8
0
  6
CONTINUOUS
 62
        80
100
AcDbLine
 10
65.24244
 20
-33.75
 30
0.0
 11
65.24244
 21
173.75
 31
0.0
  0
LINE
  5
155
100
AcDbEntity
  8
0
  6
CONTINUOUS
 62
        80
100
AcDbLine
 10
81.0
 20
-33.75
 30
0.0
 11
63.24244
 21
-33.75
 31
0.0
  0
LINE
  5
156
100
AcDbEntity
  8
0
  6
CONTINUOUS
 62
        80
100
AcDbLine
 10
81.0
 20
173.75
 30
0.0
 11
63.24244
 21
173.75
 31
0.0
  0
LINE
  5
157
100
AcDbEntity
  8
0
  6
CONTINUOUS
 62
        80
100
AcDbLine
 10
65.24244
 20
-33.75
 30
0.0
 11
65.24244
 21
-37.75
 31
0.0
  0
LINE
  5
158
100
AcDbEntity
  8
0
  6
CONTINUOUS
 62
        80
100
AcDbLine
 10
65.24244
 20
173.75
 30
0.0
 11
65.24244
 21
177.75
 31
0.0
  0
SOLID
  5
159
100
AcDbEntity
  8
0
  6
CONTINUOUS
 62
        80
100
AcDbTrace
 10
65.075772995
 20
-34.7500000298
 30
0.0
 11
65.409107005
 21
-34.7500000298
 31
0.0
 12
65.24244
 22
-33.75
 32
0.0
 13
65.24244
 23
-33.75
 33
0.0
  0
SOLID
  5
15A
100
AcDbEntity
  8
0
  6
CONTINUOUS
 62
        80
100
AcDbTrace
 10
65.409107005
 20
174.7500000298
 30
0.0
 11
65.075772995
 21
174.7500000298
 31
0.0
 12
65.24244
 22
173.75
 32
0.0
 13
65.24244
 23
173.75
 33
0.0
  0
MTEXT
  5
15C
100
AcDbEntity
  8
0
  6
CONTINUOUS
 62
        80
100
AcDbMText
 10
62.6424399762
 20
68.8083343506
 30
0.0
 40
3.2000000477
 41
0.0
 71
         5
 72
         1
  1
\A1;\U+2205207.5
  7
MX_DIMTXSTY_2
 11
0.0
 21
1.0
 31
0.0
  0
POINT
  5
15D
100
AcDbEntity
  8
DEFPOINTS
  6
CONTINUOUS
 62
         0
100
AcDbPoint
 10
81.0
 20
-33.75
 30
0.0
  0
POINT
  5
15E
100
AcDbEntity
  8
DEFPOINTS
  6
CONTINUOUS
 62
         0
100
AcDbPoint
 10
81.0
 20
173.75
 30
0.0
  0
POINT
  5
15F
100
AcDbEntity
  8
DEFPOINTS
  6
CONTINUOUS
 62
         0
100
AcDbPoint
 10
65.24244
 20
173.75
 30
0.0
  0
ENDBLK
  5
160
100
AcDbEntity
  8
0
  6
ByBlock
 62
         0
100
AcDbBlockEnd
  0
BLOCK
  5
163
100
AcDbEntity
  8
0
  6
ByBlock
 62
         0
100
AcDbBlockBegin
  2
*D3
 70
         1
 10
0.0
 20
0.0
 30
0.0
  3
*D3
  1

  0
LINE
  5
164
100
AcDbEntity
  8
0
  6
CONTINUOUS
 62
        80
100
AcDbLine
 10
177.178512
 20
160.0
 30
0.0
 11
177.178512
 21
-20.0
 31
0.0
  0
LINE
  5
165
100
AcDbEntity
  8
0
  6
CONTINUOUS
 62
        80
100
AcDbLine
 10
141.999999
 20
160.0
 30
0.0
 11
179.178512
 21
160.0
 31
0.0
  0
LINE
  5
166
100
AcDbEntity
  8
0
  6
CONTINUOUS
 62
        80
100
AcDbLine
 10
141.999999
 20
-20.0
 30
0.0
 11
179.178512
 21
-20.0
 31
0.0
  0
LINE
  5
167
100
AcDbEntity
  8
0
  6
CONTINUOUS
 62
        80
100
AcDbLine
 10
177.178512
 20
160.0
 30
0.0
 11
177.178512
 21
164.0
 31
0.0
  0
LINE
  5
168
100
AcDbEntity
  8
0
  6
CONTINUOUS
 62
        80
100
AcDbLine
 10
177.178512
 20
-20.0
 30
0.0
 11
177.178512
 21
-24.0
 31
0.0
  0
SOLID
  5
169
100
AcDbEntity
  8
0
  6
CONTINUOUS
 62
        80
100
AcDbTrace
 10
177.345179005
 20
161.0000000298
 30
0.0
 11
177.011844995
 21
161.0000000298
 31
0.0
 12
177.178512
 22
160.0
 32
0.0
 13
177.178512
 23
160.0
 33
0.0
  0
SOLID
  5
16A
100
AcDbEntity
  8
0
  6
CONTINUOUS
 62
        80
100
AcDbTrace
 10
177.011844995
 20
-21.0000000298
 30
0.0
 11
177.345179005
 21
-21.0000000298
 31
0.0
 12
177.178512
 22
-20.0
 32
0.0
 13
177.178512
 23
-20.0
 33
0.0
  0
MTEXT
  5
16B
100
AcDbEntity
  8
0
  6
CONTINUOUS
 62
        80
100
AcDbMText
 10
174.5785119762
 20
69.0083312988
 30
0.0
 40
3.2000000477
 41
0.0
 71
         5
 72
         1
  1
\A1;\U+2205180
 11
0.0
 21
1.0
 31
0.0
  0
POINT
  5
16C
100
AcDbEntity
  8
DEFPOINTS
  6
CONTINUOUS
 62
         0
100
AcDbPoint
 10
141.999999
 20
160.0
 30
0.0
  0
POINT
  5
16D
100
AcDbEntity
  8
DEFPOINTS
  6
CONTINUOUS
 62
         0
100
AcDbPoint
 10
141.999999
 20
-20.0
 30
0.0
  0
POINT
  5
16E
100
AcDbEntity
  8
DEFPOINTS
  6
CONTINUOUS
 62
         0
100
AcDbPoint
 10
177.178512
 20
-20.0
 30
0.0
  0
ENDBLK
  5
16F
100
AcDbEntity
  8
0
  6
ByBlock
 62
         0
100
AcDbBlockEnd
  0
BLOCK
  5
172
100
AcDbEntity
  8
0
  6
ByBlock
 62
         0
100
AcDbBlockBegin
  2
*D4
 70
         1
 10
0.0
 20
0.0
 30
0.0
  3
*D4
  1

  0
LINE
  5
173
100
AcDbEntity
  8
0
  6
CONTINUOUS
 62
        80
100
AcDbLine
 10
198.798563
 20
187.5
 30
0.0
 11
198.798563
 21
-47.5
 31
0.0
  0
LINE
  5
174
100
AcDbEntity
  8
0
  6
CONTINUOUS
 62
        80
100
AcDbLine
 10
141.999998
 20
187.5
 30
0.0
 11
200.798563
 21
187.5
 31
0.0
  0
LINE
  5
175
100
AcDbEntity
  8
0
  6
CONTINUOUS
 62
        80
100
AcDbLine
 10
141.999998
 20
-47.5
 30
0.0
 11
200.798563
 21
-47.5
 31
0.0
  0
LINE
  5
176
100
AcDbEntity
  8
0
  6
CONTINUOUS
 62
        80
100
AcDbLine
 10
198.798563
 20
187.5
 30
0.0
 11
198.798563
 21
191.5
 31
0.0
  0
LINE
  5
177
100
AcDbEntity
  8
0
  6
CONTINUOUS
 62
        80
100
AcDbLine
 10
198.798563
 20
-47.5
 30
0.0
 11
198.798563
 21
-51.5
 31
0.0
  0
SOLID
  5
178
100
AcDbEntity
  8
0
  6
CONTINUOUS
 62
        80
100
AcDbTrace
 10
198.965230005
 20
188.5000000298
 30
0.0
 11
198.631895995
 21
188.5000000298
 31
0.0
 12
198.798563
 22
187.5
 32
0.0
 13
198.798563
 23
187.5
 33
0.0
  0
SOLID
  5
179
100
AcDbEntity
  8
0
  6
CONTINUOUS
 62
        80
100
AcDbTrace
 10
198.631895995
 20
-48.5000000298
 30
0.0
 11
198.965230005
 21
-48.5000000298
 31
0.0
 12
198.798563
 22
-47.5
 32
0.0
 13
198.798563
 23
-47.5
 33
0.0
  0
MTEXT
  5
17B
100
AcDbEntity
  8
0
  6
CONTINUOUS
 62
        80
100
AcDbMText
 10
196.1985629762
 20
69.0083312988
 30
0.0
 40
3.2000000477
 41
0.0
 71
         5
 72
         1
  1
\A1;\U+2205235
  7
MX_DIMTXSTY_3
 11
0.0
 21
1.0
 31
0.0
  0
POINT
  5
17C
100
AcDbEntity
  8
DEFPOINTS
  6
CONTINUOUS
 62
         0
100
AcDbPoint
 10
141.999998
 20
187.5
 30
0.0
  0
POINT
  5
17D
100
AcDbEntity
  8
DEFPOINTS
  6
CONTINUOUS
 62
         0
100
AcDbPoint
 10
141.999998
 20
-47.5
 30
0.0
  0
POINT
  5
17E
100
AcDbEntity
  8
DEFPOINTS
  6
CONTINUOUS
 62
         0
100
AcDbPoint
 10
198.798563
 20
-47.5
 30
0.0
  0
ENDBLK
  5
17F
100
AcDbEntity
  8
0
  6
ByBlock
 62
         0
100
AcDbBlockEnd
  0
BLOCK
  5
182
100
AcDbEntity
  8
0
  6
ByBlock
 62
         0
100
AcDbBlockBegin
  2
*D5
 70
         1
 10
0.0
 20
0.0
 30
0.0
  3
*D5
  1

  0
LINE
  5
183
100
AcDbEntity
  8
0
  6
CONTINUOUS
 62
        80
100
AcDbLine
 10
102.0
 20
218.727598
 30
0.0
 11
142.0
 21
218.727598
 31
0.0
  0
LINE
  5
184
100
AcDbEntity
  8
0
  6
CONTINUOUS
 62
        80
100
AcDbLine
 10
102.0
 20
187.5
 30
0.0
 11
102.0
 21
220.727598
 31
0.0
  0
LINE
  5
185
100
AcDbEntity
  8
0
  6
CONTINUOUS
 62
        80
100
AcDbLine
 10
142.0
 20
187.5
 30
0.0
 11
142.0
 21
220.727598
 31
0.0
  0
LINE
  5
186
100
AcDbEntity
  8
0
  6
CONTINUOUS
 62
        80
100
AcDbLine
 10
102.0
 20
218.727598
 30
0.0
 11
98.0
 21
218.727598
 31
0.0
  0
LINE
  5
187
100
AcDbEntity
  8
0
  6
CONTINUOUS
 62
        80
100
AcDbLine
 10
142.0
 20
218.727598
 30
0.0
 11
146.0
 21
218.727598
 31
0.0
  0
SOLID
  5
188
100
AcDbEntity
  8
0
  6
CONTINUOUS
 62
        80
100
AcDbTrace
 10
100.9999999702
 20
218.894265005
 30
0.0
 11
100.9999999702
 21
218.560930995
 31
0.0
 12
102.0
 22
218.727598
 32
0.0
 13
102.0
 23
218.727598
 33
0.0
  0
SOLID
  5
189
100
AcDbEntity
  8
0
  6
CONTINUOUS
 62
        80
100
AcDbTrace
 10
143.0000000298
 20
218.560930995
 30
0.0
 11
143.0000000298
 21
218.894265005
 31
0.0
 12
142.0
 22
218.727598
 32
0.0
 13
142.0
 23
218.727598
 33
0.0
  0
MTEXT
  5
18A
100
AcDbEntity
  8
0
  6
CONTINUOUS
 62
        80
100
AcDbMText
 10
121.2083320618
 20
221.3275980238
 30
0.0
 40
3.2000000477
 41
0.0
 71
         5
 72
         1
  1
\A1;40
  0
POINT
  5
18B
100
AcDbEntity
  8
DEFPOINTS
  6
CONTINUOUS
 62
         0
100
AcDbPoint
 10
102.0
 20
187.5
 30
0.0
  0
POINT
  5
18C
100
AcDbEntity
  8
DEFPOINTS
  6
CONTINUOUS
 62
         0
100
AcDbPoint
 10
142.0
 20
187.5
 30
0.0
  0
POINT
  5
18D
100
AcDbEntity
  8
DEFPOINTS
  6
CONTINUOUS
 62
         0
100
AcDbPoint
 10
142.0
 20
218.727598
 30
0.0
  0
ENDBLK
  5
18E
100
AcDbEntity
  8
0
  6
ByBlock
 62
         0
100
AcDbBlockEnd
  0
BLOCK
  5
191
100
AcDbEntity
  8
0
  6
ByBlock
 62
         0
100
AcDbBlockBegin
  2
*D6
 70
         1
 10
0.0
 20
0.0
 30
0.0
  3
*D6
  1

  0
LINE
  5
192
100
AcDbEntity
  8
0
  6
CONTINUOUS
 62
        80
100
AcDbLine
 10
100.0
 20
234.419571
 30
0.0
 11
144.0
 21
234.419571
 31
0.0
  0
LINE
  5
193
100
AcDbEntity
  8
0
  6
CONTINUOUS
 62
        80
100
AcDbLine
 10
100.0
 20
185.700001
 30
0.0
 11
100.0
 21
236.419571
 31
0.0
  0
LINE
  5
194
100
AcDbEntity
  8
0
  6
CONTINUOUS
 62
        80
100
AcDbLine
 10
144.0
 20
185.700001
 30
0.0
 11
144.0
 21
236.419571
 31
0.0
  0
LINE
  5
195
100
AcDbEntity
  8
0
  6
CONTINUOUS
 62
        80
100
AcDbLine
 10
100.0
 20
234.419571
 30
0.0
 11
96.0
 21
234.419571
 31
0.0
  0
LINE
  5
196
100
AcDbEntity
  8
0
  6
CONTINUOUS
 62
        80
100
AcDbLine
 10
144.0
 20
234.419571
 30
0.0
 11
148.0
 21
234.419571
 31
0.0
  0
SOLID
  5
197
100
AcDbEntity
  8
0
  6
CONTINUOUS
 62
        80
100
AcDbTrace
 10
98.9999999702
 20
234.586238005
 30
0.0
 11
98.9999999702
 21
234.252903995
 31
0.0
 12
100.0
 22
234.419571
 32
0.0
 13
100.0
 23
234.419571
 33
0.0
  0
SOLID
  5
198
100
AcDbEntity
  8
0
  6
CONTINUOUS
 62
        80
100
AcDbTrace
 10
145.0000000298
 20
234.252903995
 30
0.0
 11
145.0000000298
 21
234.586238005
 31
0.0
 12
144.0
 22
234.419571
 32
0.0
 13
144.0
 23
234.419571
 33
0.0
  0
MTEXT
  5
199
100
AcDbEntity
  8
0
  6
CONTINUOUS
 62
        80
100
AcDbMText
 10
121.2083320618
 20
237.0195710238
 30
0.0
 40
3.2000000477
 41
0.0
 71
         5
 72
         1
  1
\A1;44
  0
POINT
  5
19A
100
AcDbEntity
  8
DEFPOINTS
  6
CONTINUOUS
 62
         0
100
AcDbPoint
 10
100.0
 20
185.700001
 30
0.0
  0
POINT
  5
19B
100
AcDbEntity
  8
DEFPOINTS
  6
CONTINUOUS
 62
         0
100
AcDbPoint
 10
144.0
 20
185.700001
 30
0.0
  0
POINT
  5
19C
100
AcDbEntity
  8
DEFPOINTS
  6
CONTINUOUS
 62
         0
100
AcDbPoint
 10
144.0
 20
234.419571
 30
0.0
  0
ENDBLK
  5
19D
100
AcDbEntity
  8
0
  6
ByBlock
 62
         0
100
AcDbBlockEnd
  0
BLOCK
  5
1A0
100
AcDbEntity
  8
0
  6
ByBlock
 62
         0
100
AcDbBlockBegin
  2
*D7
 70
         1
 10
0.0
 20
0.0
 30
0.0
  3
*D7
  1

  0
LINE
  5
1A1
100
AcDbEntity
  8
0
  6
CONTINUOUS
 62
        80
100
AcDbLine
 10
86.0
 20
234.419571
 30
0.0
 11
100.0
 21
234.419571
 31
0.0
  0
LINE
  5
1A2
100
AcDbEntity
  8
0
  6
CONTINUOUS
 62
        80
100
AcDbLine
 10
86.0
 20
182.863998
 30
0.0
 11
86.0
 21
236.419571
 31
0.0
  0
LINE
  5
1A3
100
AcDbEntity
  8
0
  6
CONTINUOUS
 62
        80
100
AcDbLine
 10
100.0
 20
185.700001
 30
0.0
 11
100.0
 21
236.419571
 31
0.0
  0
LINE
  5
1A4
100
AcDbEntity
  8
0
  6
CONTINUOUS
 62
        80
100
AcDbLine
 10
86.0
 20
234.419571
 30
0.0
 11
82.0
 21
234.419571
 31
0.0
  0
LINE
  5
1A5
100
AcDbEntity
  8
0
  6
CONTINUOUS
 62
        80
100
AcDbLine
 10
100.0
 20
234.419571
 30
0.0
 11
104.0
 21
234.419571
 31
0.0
  0
SOLID
  5
1A6
100
AcDbEntity
  8
0
  6
CONTINUOUS
 62
        80
100
AcDbTrace
 10
84.9999999702
 20
234.586238005
 30
0.0
 11
84.9999999702
 21
234.252903995
 31
0.0
 12
86.0
 22
234.419571
 32
0.0
 13
86.0
 23
234.419571
 33
0.0
  0
SOLID
  5
1A7
100
AcDbEntity
  8
0
  6
CONTINUOUS
 62
        80
100
AcDbTrace
 10
101.0000000298
 20
234.252903995
 30
0.0
 11
101.0000000298
 21
234.586238005
 31
0.0
 12
100.0
 22
234.419571
 32
0.0
 13
100.0
 23
234.419571
 33
0.0
  0
MTEXT
  5
1A9
100
AcDbEntity
  8
0
  6
CONTINUOUS
 62
        80
100
AcDbMText
 10
92.2083330154
 20
237.0195710238
 30
0.0
 40
3.2000000477
 41
0.0
 71
         5
 72
         1
  1
\A1;14
  7
MX_DIMTXSTY_4
  0
POINT
  5
1AA
100
AcDbEntity
  8
DEFPOINTS
  6
CONTINUOUS
 62
         0
100
AcDbPoint
 10
86.0
 20
182.863998
 30
0.0
  0
POINT
  5
1AB
100
AcDbEntity
  8
DEFPOINTS
  6
CONTINUOUS
 62
         0
100
AcDbPoint
 10
100.0
 20
185.700001
 30
0.0
  0
POINT
  5
1AC
100
AcDbEntity
  8
DEFPOINTS
  6
CONTINUOUS
 62
         0
100
AcDbPoint
 10
100.0
 20
234.419571
 30
0.0
  0
ENDBLK
  5
1AD
100
AcDbEntity
  8
0
  6
ByBlock
 62
         0
100
AcDbBlockEnd
  0
BLOCK
  5
1B0
100
AcDbEntity
  8
0
  6
ByBlock
 62
         0
100
AcDbBlockBegin
  2
*D8
 70
         1
 10
0.0
 20
0.0
 30
0.0
  3
*D8
  1

  0
LINE
  5
1B1
100
AcDbEntity
  8
0
  6
CONTINUOUS
 62
        80
100
AcDbLine
 10
86.0
 20
251.506385
 30
0.0
 11
144.0
 21
251.506385
 31
0.0
  0
LINE
  5
1B2
100
AcDbEntity
  8
0
  6
CONTINUOUS
 62
        80
100
AcDbLine
 10
86.0
 20
182.863998
 30
0.0
 11
86.0
 21
253.506385
 31
0.0
  0
LINE
  5
1B3
100
AcDbEntity
  8
0
  6
CONTINUOUS
 62
        80
100
AcDbLine
 10
144.0
 20
185.699996
 30
0.0
 11
144.0
 21
253.506385
 31
0.0
  0
LINE
  5
1B4
100
AcDbEntity
  8
0
  6
CONTINUOUS
 62
        80
100
AcDbLine
 10
86.0
 20
251.506385
 30
0.0
 11
82.0
 21
251.506385
 31
0.0
  0
LINE
  5
1B5
100
AcDbEntity
  8
0
  6
CONTINUOUS
 62
        80
100
AcDbLine
 10
144.0
 20
251.506385
 30
0.0
 11
148.0
 21
251.506385
 31
0.0
  0
SOLID
  5
1B6
100
AcDbEntity
  8
0
  6
CONTINUOUS
 62
        80
100
AcDbTrace
 10
84.9999999702
 20
251.673052005
 30
0.0
 11
84.9999999702
 21
251.339717995
 31
0.0
 12
86.0
 22
251.506385
 32
0.0
 13
86.0
 23
251.506385
 33
0.0
  0
SOLID
  5
1B7
100
AcDbEntity
  8
0
  6
CONTINUOUS
 62
        80
100
AcDbTrace
 10
145.0000000298
 20
251.339717995
 30
0.0
 11
145.0000000298
 21
251.673052005
 31
0.0
 12
144.0
 22
251.506385
 32
0.0
 13
144.0
 23
251.506385
 33
0.0
  0
MTEXT
  5
1B8
100
AcDbEntity
  8
0
  6
CONTINUOUS
 62
        80
100
AcDbMText
 10
114.2083320618
 20
254.1063850238
 30
0.0
 40
3.2000000477
 41
0.0
 71
         5
 72
         1
  1
\A1;58
  0
POINT
  5
1B9
100
AcDbEntity
  8
DEFPOINTS
  6
CONTINUOUS
 62
         0
100
AcDbPoint
 10
86.0
 20
182.863998
 30
0.0
  0
POINT
  5
1BA
100
AcDbEntity
  8
DEFPOINTS
  6
CONTINUOUS
 62
         0
100
AcDbPoint
 10
144.0
 20
185.699996
 30
0.0
  0
POINT
  5
1BB
100
AcDbEntity
  8
DEFPOINTS
  6
CONTINUOUS
 62
         0
100
AcDbPoint
 10
144.0
 20
251.506385
 30
0.0
  0
ENDBLK
  5
1BC
100
AcDbEntity
  8
0
  6
ByBlock
 62
         0
100
AcDbBlockEnd
  0
ENDSEC
  0
SECTION
  2
ENTITIES
  0
MTEXT
  5
29
100
AcDbEntity
  8
0
  6
CONTINUOUS
 62
       110
100
AcDbMText
 10
-86.5511694681
 20
-129.1175
 30
0.0
 40
8.0
 41
0.0
 71
         1
 72
         1
  1
\T1.065;\W1.018;\A1;TSUBAKI
  0
MTEXT
  5
2A
100
AcDbEntity
  8
0
  6
CONTINUOUS
 62
       110
100
AcDbMText
 10
-51.3611694681
 20
-65.9275
 30
0.0
 40
8.0
 41
0.0
 71
         1
 72
         1
  1
\T1.065;\W1.018;\A1;TSUBAKI
  0
LINE
  5
2C
100
AcDbEntity
  8
PV
  6
CENTER
 62
         3
100
AcDbLine
 10
-16.523
 20
70.0
 30
0.0
 11
-287.623
 21
70.0
 31
0.0
  0
LINE
  5
2D
100
AcDbEntity
  8
PV
  6
CENTER
 62
         3
100
AcDbLine
 10
-150.0
 20
-64.271
 30
0.0
 11
-150.0
 21
211.065
 31
0.0
  0
LINE
  5
2E
100
AcDbEntity
  8
PV
  6
CENTER
 62
         3
100
AcDbLine
 10
-126.186
 20
147.202
 30
0.0
 11
-112.672
 21
191.013
 31
0.0
  0
LINE
  5
2F
100
AcDbEntity
  8
PV
  6
CENTER
 62
         3
100
AcDbLine
 10
-173.814
 20
147.203
 30
0.0
 11
-187.328
 21
191.014
 31
0.0
  0
LINE
  5
30
100
AcDbEntity
  8
PV
  6
CENTER
 62
         3
100
AcDbLine
 10
-195.512
 20
136.754
 30
0.0
 11
-221.339
 21
174.635
 31
0.0
  0
LINE
  5
31
100
AcDbEntity
  8
PV
  6
CENTER
 62
         3
100
AcDbLine
 10
-213.166
 20
120.373
 30
0.0
 11
-249.011
 21
148.959
 31
0.0
  0
LINE
  5
32
100
AcDbEntity
  8
PV
  6
CENTER
 62
         3
100
AcDbLine
 10
-225.208
 20
99.517
 30
0.0
 11
-267.887
 21
116.267
 31
0.0
  0
LINE
  5
33
100
AcDbEntity
  8
PV
  6
CENTER
 62
         3
100
AcDbLine
 10
-230.567
 20
76.038
 30
0.0
 11
-276.287
 21
79.464
 31
0.0
  0
LINE
  5
34
100
AcDbEntity
  8
PV
  6
CENTER
 62
         3
100
AcDbLine
 10
-228.767
 20
52.022
 30
0.0
 11
-273.465
 21
41.82
 31
0.0
  0
LINE
  5
35
100
AcDbEntity
  8
PV
  6
CENTER
 62
         3
100
AcDbLine
 10
-219.968
 20
29.604
 30
0.0
 11
-259.673
 21
6.68
 31
0.0
  0
LINE
  5
36
100
AcDbEntity
  8
PV
  6
CENTER
 62
         3
100
AcDbLine
 10
-204.952
 20
10.775
 30
0.0
 11
-236.137
 21
-22.833
 31
0.0
  0
LINE
  5
37
100
AcDbEntity
  8
PV
  6
CENTER
 62
         3
100
AcDbLine
 10
-185.054
 20
-2.791
 30
0.0
 11
-204.947
 21
-44.098
 31
0.0
  0
LINE
  5
38
100
AcDbEntity
  8
PV
  6
CENTER
 62
         3
100
AcDbLine
 10
-162.041
 20
-9.89
 30
0.0
 11
-168.875
 21
-55.225
 31
0.0
  0
LINE
  5
39
100
AcDbEntity
  8
PV
  6
CENTER
 62
         3
100
AcDbLine
 10
-137.959
 20
-9.89
 30
0.0
 11
-131.125
 21
-55.225
 31
0.0
  0
LINE
  5
3A
100
AcDbEntity
  8
PV
  6
CENTER
 62
         3
100
AcDbLine
 10
-114.946
 20
-2.791
 30
0.0
 11
-95.053
 21
-44.098
 31
0.0
  0
LINE
  5
3B
100
AcDbEntity
  8
PV
  6
CENTER
 62
         3
100
AcDbLine
 10
-95.048
 20
10.775
 30
0.0
 11
-63.863
 21
-22.834
 31
0.0
  0
LINE
  5
3C
100
AcDbEntity
  8
PV
  6
CENTER
 62
         3
100
AcDbLine
 10
-80.032
 20
29.604
 30
0.0
 11
-40.327
 21
6.68
 31
0.0
  0
LINE
  5
3D
100
AcDbEntity
  8
PV
  6
CENTER
 62
         3
100
AcDbLine
 10
-71.234
 20
52.022
 30
0.0
 11
-26.535
 21
41.82
 31
0.0
  0
LINE
  5
3E
100
AcDbEntity
  8
PV
  6
CENTER
 62
         3
100
AcDbLine
 10
-69.434
 20
76.038
 30
0.0
 11
-23.714
 21
79.464
 31
0.0
  0
LINE
  5
3F
100
AcDbEntity
  8
PV
  6
CENTER
 62
         3
100
AcDbLine
 10
-74.793
 20
99.517
 30
0.0
 11
-32.114
 21
116.267
 31
0.0
  0
LINE
  5
40
100
AcDbEntity
  8
PV
  6
CENTER
 62
         3
100
AcDbLine
 10
-86.834
 20
120.373
 30
0.0
 11
-50.989
 21
148.959
 31
0.0
  0
LINE
  5
41
100
AcDbEntity
  8
PV
  6
CENTER
 62
         3
100
AcDbLine
 10
-104.488
 20
136.753
 30
0.0
 11
-78.661
 21
174.635
 31
0.0
  0
LINE
  5
42
100
AcDbEntity
  8
PV
  6
CONTINUOUS
 62
         3
100
AcDbLine
 10
-150.0
 20
180.678
 30
0.0
 11
-144.0
 21
177.214
 31
0.0
  0
LINE
  5
43
100
AcDbEntity
  8
PV
  6
CONTINUOUS
 62
         3
100
AcDbLine
 10
-150.0
 20
180.678
 30
0.0
 11
-156.0
 21
177.214
 31
0.0
  0
LINE
  5
44
100
AcDbEntity
  8
PV
  6
CONTINUOUS
 62
         3
100
AcDbLine
 10
-150.0
 20
166.822
 30
0.0
 11
-156.0
 21
170.286
 31
0.0
  0
LINE
  5
45
100
AcDbEntity
  8
PV
  6
CONTINUOUS
 62
         3
100
AcDbLine
 10
-150.0
 20
166.821
 30
0.0
 11
-144.0
 21
170.285
 31
0.0
  0
LINE
  5
46
100
AcDbEntity
  8
PV
  6
CONTINUOUS
 62
         3
100
AcDbLine
 10
-144.0
 20
177.214
 30
0.0
 11
-144.0
 21
170.286
 31
0.0
  0
LINE
  5
47
100
AcDbEntity
  8
PV
  6
CONTINUOUS
 62
         3
100
AcDbLine
 10
-156.0
 20
177.214
 30
0.0
 11
-156.0
 21
170.286
 31
0.0
  0
LINE
  5
48
100
AcDbEntity
  8
PV
  6
CONTINUOUS
 62
         3
100
AcDbLine
 10
-180.581
 20
176.069
 30
0.0
 11
-174.581
 21
172.605
 31
0.0
  0
LINE
  5
49
100
AcDbEntity
  8
PV
  6
CONTINUOUS
 62
         3
100
AcDbLine
 10
-180.581
 20
176.069
 30
0.0
 11
-186.581
 21
172.605
 31
0.0
  0
LINE
  5
4A
100
AcDbEntity
  8
PV
  6
CONTINUOUS
 62
         3
100
AcDbLine
 10
-180.581
 20
162.212
 30
0.0
 11
-186.581
 21
165.676
 31
0.0
  0
LINE
  5
4B
100
AcDbEntity
  8
PV
  6
CONTINUOUS
 62
         3
100
AcDbLine
 10
-180.58
 20
162.212
 30
0.0
 11
-174.58
 21
165.676
 31
0.0
  0
LINE
  5
4C
100
AcDbEntity
  8
PV
  6
CONTINUOUS
 62
         3
100
AcDbLine
 10
-174.581
 20
172.605
 30
0.0
 11
-174.581
 21
165.676
 31
0.0
  0
LINE
  5
4D
100
AcDbEntity
  8
PV
  6
CONTINUOUS
 62
         3
100
AcDbLine
 10
-186.581
 20
172.605
 30
0.0
 11
-186.581
 21
165.676
 31
0.0
  0
LINE
  5
4E
100
AcDbEntity
  8
PV
  6
CONTINUOUS
 62
         3
100
AcDbLine
 10
-119.419
 20
176.069
 30
0.0
 11
-113.419
 21
172.605
 31
0.0
  0
LINE
  5
4F
100
AcDbEntity
  8
PV
  6
CONTINUOUS
 62
         3
100
AcDbLine
 10
-119.419
 20
176.068
 30
0.0
 11
-125.419
 21
172.604
 31
0.0
  0
LINE
  5
50
100
AcDbEntity
  8
PV
  6
CONTINUOUS
 62
         3
100
AcDbLine
 10
-119.419
 20
162.212
 30
0.0
 11
-125.419
 21
165.676
 31
0.0
  0
LINE
  5
51
100
AcDbEntity
  8
PV
  6
CONTINUOUS
 62
         3
100
AcDbLine
 10
-119.419
 20
162.212
 30
0.0
 11
-113.419
 21
165.676
 31
0.0
  0
LINE
  5
52
100
AcDbEntity
  8
PV
  6
CONTINUOUS
 62
         3
100
AcDbLine
 10
-113.419
 20
172.605
 30
0.0
 11
-113.419
 21
165.676
 31
0.0
  0
LINE
  5
53
100
AcDbEntity
  8
PV
  6
CONTINUOUS
 62
         3
100
AcDbLine
 10
-125.419
 20
172.605
 30
0.0
 11
-125.419
 21
165.676
 31
0.0
  0
LINE
  5
54
100
AcDbEntity
  8
PV
  6
CONTINUOUS
 62
         3
100
AcDbLine
 10
-91.556
 20
162.65
 30
0.0
 11
-85.555
 21
159.186
 31
0.0
  0
LINE
  5
55
100
AcDbEntity
  8
PV
  6
CONTINUOUS
 62
         3
100
AcDbLine
 10
-91.556
 20
162.65
 30
0.0
 11
-97.556
 21
159.186
 31
0.0
  0
LINE
  5
56
100
AcDbEntity
  8
PV
  6
CONTINUOUS
 62
         3
100
AcDbLine
 10
-91.556
 20
148.794
 30
0.0
 11
-97.556
 21
152.258
 31
0.0
  0
LINE
  5
57
100
AcDbEntity
  8
PV
  6
CONTINUOUS
 62
         3
100
AcDbLine
 10
-91.556
 20
148.794
 30
0.0
 11
-85.556
 21
152.258
 31
0.0
  0
LINE
  5
58
100
AcDbEntity
  8
PV
  6
CONTINUOUS
 62
         3
100
AcDbLine
 10
-85.555
 20
159.186
 30
0.0
 11
-85.555
 21
152.258
 31
0.0
  0
LINE
  5
59
100
AcDbEntity
  8
PV
  6
CONTINUOUS
 62
         3
100
AcDbLine
 10
-97.555
 20
159.186
 30
0.0
 11
-97.555
 21
152.258
 31
0.0
  0
LINE
  5
5A
100
AcDbEntity
  8
PV
  6
CONTINUOUS
 62
         3
100
AcDbLine
 10
-208.444
 20
162.65
 30
0.0
 11
-202.444
 21
159.186
 31
0.0
  0
LINE
  5
5B
100
AcDbEntity
  8
PV
  6
CONTINUOUS
 62
         3
100
AcDbLine
 10
-208.444
 20
162.65
 30
0.0
 11
-214.444
 21
159.186
 31
0.0
  0
LINE
  5
5C
100
AcDbEntity
  8
PV
  6
CONTINUOUS
 62
         3
100
AcDbLine
 10
-208.444
 20
148.794
 30
0.0
 11
-214.444
 21
152.258
 31
0.0
  0
LINE
  5
5D
100
AcDbEntity
  8
PV
  6
CONTINUOUS
 62
         3
100
AcDbLine
 10
-208.444
 20
148.794
 30
0.0
 11
-202.444
 21
152.258
 31
0.0
  0
LINE
  5
5E
100
AcDbEntity
  8
PV
  6
CONTINUOUS
 62
         3
100
AcDbLine
 10
-202.444
 20
159.186
 30
0.0
 11
-202.444
 21
152.258
 31
0.0
  0
LINE
  5
5F
100
AcDbEntity
  8
PV
  6
CONTINUOUS
 62
         3
100
AcDbLine
 10
-214.444
 20
159.186
 30
0.0
 11
-214.444
 21
152.258
 31
0.0
  0
LINE
  5
60
100
AcDbEntity
  8
PV
  6
CONTINUOUS
 62
         3
100
AcDbLine
 10
-246.578
 20
114.832
 30
0.0
 11
-240.578
 21
111.368
 31
0.0
  0
LINE
  5
61
100
AcDbEntity
  8
PV
  6
CONTINUOUS
 62
         3
100
AcDbLine
 10
-246.578
 20
114.832
 30
0.0
 11
-252.578
 21
111.368
 31
0.0
  0
LINE
  5
62
100
AcDbEntity
  8
PV
  6
CONTINUOUS
 62
         3
100
AcDbLine
 10
-246.578
 20
100.976
 30
0.0
 11
-252.578
 21
104.44
 31
0.0
  0
LINE
  5
63
100
AcDbEntity
  8
PV
  6
CONTINUOUS
 62
         3
100
AcDbLine
 10
-246.578
 20
100.976
 30
0.0
 11
-240.578
 21
104.44
 31
0.0
  0
LINE
  5
64
100
AcDbEntity
  8
PV
  6
CONTINUOUS
 62
         3
100
AcDbLine
 10
-240.578
 20
111.368
 30
0.0
 11
-240.578
 21
104.44
 31
0.0
  0
LINE
  5
65
100
AcDbEntity
  8
PV
  6
CONTINUOUS
 62
         3
100
AcDbLine
 10
-252.578
 20
111.368
 30
0.0
 11
-252.578
 21
104.44
 31
0.0
  0
LINE
  5
66
100
AcDbEntity
  8
PV
  6
CONTINUOUS
 62
         3
100
AcDbLine
 10
-253.46
 20
84.681
 30
0.0
 11
-247.46
 21
81.217
 31
0.0
  0
LINE
  5
67
100
AcDbEntity
  8
PV
  6
CONTINUOUS
 62
         3
100
AcDbLine
 10
-253.459
 20
84.681
 30
0.0
 11
-259.459
 21
81.217
 31
0.0
  0
LINE
  5
68
100
AcDbEntity
  8
PV
  6
CONTINUOUS
 62
         3
100
AcDbLine
 10
-253.46
 20
70.825
 30
0.0
 11
-259.46
 21
74.289
 31
0.0
  0
LINE
  5
69
100
AcDbEntity
  8
PV
  6
CONTINUOUS
 62
         3
100
AcDbLine
 10
-253.46
 20
70.825
 30
0.0
 11
-247.46
 21
74.289
 31
0.0
  0
LINE
  5
6A
100
AcDbEntity
  8
PV
  6
CONTINUOUS
 62
         3
100
AcDbLine
 10
-247.46
 20
81.217
 30
0.0
 11
-247.46
 21
74.289
 31
0.0
  0
LINE
  5
6B
100
AcDbEntity
  8
PV
  6
CONTINUOUS
 62
         3
100
AcDbLine
 10
-259.46
 20
81.217
 30
0.0
 11
-259.46
 21
74.289
 31
0.0
  0
LINE
  5
6C
100
AcDbEntity
  8
PV
  6
CONTINUOUS
 62
         3
100
AcDbLine
 10
-251.149
 20
53.842
 30
0.0
 11
-245.149
 21
50.378
 31
0.0
  0
LINE
  5
6D
100
AcDbEntity
  8
PV
  6
CONTINUOUS
 62
         3
100
AcDbLine
 10
-251.149
 20
53.842
 30
0.0
 11
-257.149
 21
50.378
 31
0.0
  0
LINE
  5
6E
100
AcDbEntity
  8
PV
  6
CONTINUOUS
 62
         3
100
AcDbLine
 10
-251.149
 20
39.985
 30
0.0
 11
-257.149
 21
43.449
 31
0.0
  0
LINE
  5
6F
100
AcDbEntity
  8
PV
  6
CONTINUOUS
 62
         3
100
AcDbLine
 10
-251.149
 20
39.985
 30
0.0
 11
-245.149
 21
43.449
 31
0.0
  0
LINE
  5
70
100
AcDbEntity
  8
PV
  6
CONTINUOUS
 62
         3
100
AcDbLine
 10
-245.149
 20
50.378
 30
0.0
 11
-245.149
 21
43.449
 31
0.0
  0
LINE
  5
71
100
AcDbEntity
  8
PV
  6
CONTINUOUS
 62
         3
100
AcDbLine
 10
-257.149
 20
50.378
 30
0.0
 11
-257.149
 21
43.449
 31
0.0
  0
LINE
  5
72
100
AcDbEntity
  8
PV
  6
CONTINUOUS
 62
         3
100
AcDbLine
 10
-239.85
 20
25.053
 30
0.0
 11
-233.85
 21
21.589
 31
0.0
  0
LINE
  5
73
100
AcDbEntity
  8
PV
  6
CONTINUOUS
 62
         3
100
AcDbLine
 10
-239.85
 20
25.053
 30
0.0
 11
-245.85
 21
21.589
 31
0.0
  0
LINE
  5
74
100
AcDbEntity
  8
PV
  6
CONTINUOUS
 62
         3
100
AcDbLine
 10
-239.85
 20
11.197
 30
0.0
 11
-245.85
 21
14.661
 31
0.0
  0
LINE
  5
75
100
AcDbEntity
  8
PV
  6
CONTINUOUS
 62
         3
100
AcDbLine
 10
-239.85
 20
11.197
 30
0.0
 11
-233.85
 21
14.661
 31
0.0
  0
LINE
  5
76
100
AcDbEntity
  8
PV
  6
CONTINUOUS
 62
         3
100
AcDbLine
 10
-233.85
 20
21.589
 30
0.0
 11
-233.85
 21
14.661
 31
0.0
  0
LINE
  5
77
100
AcDbEntity
  8
PV
  6
CONTINUOUS
 62
         3
100
AcDbLine
 10
-245.85
 20
21.589
 30
0.0
 11
-245.85
 21
14.661
 31
0.0
  0
LINE
  5
78
100
AcDbEntity
  8
PV
  6
CONTINUOUS
 62
         3
100
AcDbLine
 10
-53.422
 20
114.832
 30
0.0
 11
-47.422
 21
111.368
 31
0.0
  0
LINE
  5
79
100
AcDbEntity
  8
PV
  6
CONTINUOUS
 62
         3
100
AcDbLine
 10
-53.422
 20
114.832
 30
0.0
 11
-59.422
 21
111.368
 31
0.0
  0
LINE
  5
7A
100
AcDbEntity
  8
PV
  6
CONTINUOUS
 62
         3
100
AcDbLine
 10
-53.422
 20
100.976
 30
0.0
 11
-59.422
 21
104.44
 31
0.0
  0
LINE
  5
7B
100
AcDbEntity
  8
PV
  6
CONTINUOUS
 62
         3
100
AcDbLine
 10
-53.422
 20
100.976
 30
0.0
 11
-47.422
 21
104.44
 31
0.0
  0
LINE
  5
7C
100
AcDbEntity
  8
PV
  6
CONTINUOUS
 62
         3
100
AcDbLine
 10
-47.422
 20
111.368
 30
0.0
 11
-47.422
 21
104.44
 31
0.0
  0
LINE
  5
7D
100
AcDbEntity
  8
PV
  6
CONTINUOUS
 62
         3
100
AcDbLine
 10
-59.422
 20
111.368
 30
0.0
 11
-59.422
 21
104.44
 31
0.0
  0
LINE
  5
7E
100
AcDbEntity
  8
PV
  6
CONTINUOUS
 62
         3
100
AcDbLine
 10
-46.54
 20
84.681
 30
0.0
 11
-40.54
 21
81.217
 31
0.0
  0
LINE
  5
7F
100
AcDbEntity
  8
PV
  6
CONTINUOUS
 62
         3
100
AcDbLine
 10
-46.54
 20
84.681
 30
0.0
 11
-52.54
 21
81.217
 31
0.0
  0
LINE
  5
80
100
AcDbEntity
  8
PV
  6
CONTINUOUS
 62
         3
100
AcDbLine
 10
-46.54
 20
70.825
 30
0.0
 11
-52.54
 21
74.289
 31
0.0
  0
LINE
  5
81
100
AcDbEntity
  8
PV
  6
CONTINUOUS
 62
         3
100
AcDbLine
 10
-46.54
 20
70.825
 30
0.0
 11
-40.54
 21
74.289
 31
0.0
  0
LINE
  5
82
100
AcDbEntity
  8
PV
  6
CONTINUOUS
 62
         3
100
AcDbLine
 10
-40.54
 20
81.217
 30
0.0
 11
-40.54
 21
74.289
 31
0.0
  0
LINE
  5
83
100
AcDbEntity
  8
PV
  6
CONTINUOUS
 62
         3
100
AcDbLine
 10
-52.54
 20
81.217
 30
0.0
 11
-52.54
 21
74.289
 31
0.0
  0
LINE
  5
84
100
AcDbEntity
  8
PV
  6
CONTINUOUS
 62
         3
100
AcDbLine
 10
-48.851
 20
53.842
 30
0.0
 11
-42.851
 21
50.378
 31
0.0
  0
LINE
  5
85
100
AcDbEntity
  8
PV
  6
CONTINUOUS
 62
         3
100
AcDbLine
 10
-48.851
 20
53.842
 30
0.0
 11
-54.851
 21
50.378
 31
0.0
  0
LINE
  5
86
100
AcDbEntity
  8
PV
  6
CONTINUOUS
 62
         3
100
AcDbLine
 10
-48.851
 20
39.985
 30
0.0
 11
-54.851
 21
43.449
 31
0.0
  0
LINE
  5
87
100
AcDbEntity
  8
PV
  6
CONTINUOUS
 62
         3
100
AcDbLine
 10
-48.851
 20
39.985
 30
0.0
 11
-42.851
 21
43.449
 31
0.0
  0
LINE
  5
88
100
AcDbEntity
  8
PV
  6
CONTINUOUS
 62
         3
100
AcDbLine
 10
-42.851
 20
50.377
 30
0.0
 11
-42.851
 21
43.449
 31
0.0
  0
LINE
  5
89
100
AcDbEntity
  8
PV
  6
CONTINUOUS
 62
         3
100
AcDbLine
 10
-54.851
 20
50.377
 30
0.0
 11
-54.851
 21
43.449
 31
0.0
  0
LINE
  5
8A
100
AcDbEntity
  8
PV
  6
CONTINUOUS
 62
         3
100
AcDbLine
 10
-60.15
 20
25.053
 30
0.0
 11
-54.15
 21
21.589
 31
0.0
  0
LINE
  5
8B
100
AcDbEntity
  8
PV
  6
CONTINUOUS
 62
         3
100
AcDbLine
 10
-60.15
 20
25.053
 30
0.0
 11
-66.15
 21
21.589
 31
0.0
  0
LINE
  5
8C
100
AcDbEntity
  8
PV
  6
CONTINUOUS
 62
         3
100
AcDbLine
 10
-60.15
 20
11.197
 30
0.0
 11
-66.15
 21
14.661
 31
0.0
  0
LINE
  5
8D
100
AcDbEntity
  8
PV
  6
CONTINUOUS
 62
         3
100
AcDbLine
 10
-60.15
 20
11.197
 30
0.0
 11
-54.15
 21
14.661
 31
0.0
  0
LINE
  5
8E
100
AcDbEntity
  8
PV
  6
CONTINUOUS
 62
         3
100
AcDbLine
 10
-54.15
 20
21.589
 30
0.0
 11
-54.15
 21
14.661
 31
0.0
  0
LINE
  5
8F
100
AcDbEntity
  8
PV
  6
CONTINUOUS
 62
         3
100
AcDbLine
 10
-66.15
 20
21.589
 30
0.0
 11
-66.15
 21
14.661
 31
0.0
  0
LINE
  5
90
100
AcDbEntity
  8
PV
  6
CONTINUOUS
 62
         3
100
AcDbLine
 10
-104.985
 20
-16.547
 30
0.0
 11
-98.985
 21
-20.011
 31
0.0
  0
LINE
  5
91
100
AcDbEntity
  8
PV
  6
CONTINUOUS
 62
         3
100
AcDbLine
 10
-104.985
 20
-16.547
 30
0.0
 11
-110.985
 21
-20.011
 31
0.0
  0
LINE
  5
92
100
AcDbEntity
  8
PV
  6
CONTINUOUS
 62
         3
100
AcDbLine
 10
-104.985
 20
-30.404
 30
0.0
 11
-110.985
 21
-26.939
 31
0.0
  0
LINE
  5
93
100
AcDbEntity
  8
PV
  6
CONTINUOUS
 62
         3
100
AcDbLine
 10
-104.985
 20
-30.404
 30
0.0
 11
-98.985
 21
-26.94
 31
0.0
  0
LINE
  5
94
100
AcDbEntity
  8
PV
  6
CONTINUOUS
 62
         3
100
AcDbLine
 10
-98.985
 20
-20.011
 30
0.0
 11
-98.985
 21
-26.94
 31
0.0
  0
LINE
  5
95
100
AcDbEntity
  8
PV
  6
CONTINUOUS
 62
         3
100
AcDbLine
 10
-110.985
 20
-20.011
 30
0.0
 11
-110.985
 21
-26.94
 31
0.0
  0
LINE
  5
96
100
AcDbEntity
  8
PV
  6
CONTINUOUS
 62
         3
100
AcDbLine
 10
-134.537
 20
-25.663
 30
0.0
 11
-128.537
 21
-29.127
 31
0.0
  0
LINE
  5
97
100
AcDbEntity
  8
PV
  6
CONTINUOUS
 62
         3
100
AcDbLine
 10
-134.537
 20
-25.663
 30
0.0
 11
-140.537
 21
-29.127
 31
0.0
  0
LINE
  5
98
100
AcDbEntity
  8
PV
  6
CONTINUOUS
 62
         3
100
AcDbLine
 10
-134.537
 20
-39.519
 30
0.0
 11
-140.537
 21
-36.055
 31
0.0
  0
LINE
  5
99
100
AcDbEntity
  8
PV
  6
CONTINUOUS
 62
         3
100
AcDbLine
 10
-134.537
 20
-39.519
 30
0.0
 11
-128.537
 21
-36.055
 31
0.0
  0
LINE
  5
9A
100
AcDbEntity
  8
PV
  6
CONTINUOUS
 62
         3
100
AcDbLine
 10
-128.537
 20
-29.127
 30
0.0
 11
-128.537
 21
-36.055
 31
0.0
  0
LINE
  5
9B
100
AcDbEntity
  8
PV
  6
CONTINUOUS
 62
         3
100
AcDbLine
 10
-140.537
 20
-29.127
 30
0.0
 11
-140.537
 21
-36.055
 31
0.0
  0
LINE
  5
9C
100
AcDbEntity
  8
PV
  6
CONTINUOUS
 62
         3
100
AcDbLine
 10
-165.463
 20
-25.663
 30
0.0
 11
-159.463
 21
-29.127
 31
0.0
  0
LINE
  5
9D
100
AcDbEntity
  8
PV
  6
CONTINUOUS
 62
         3
100
AcDbLine
 10
-165.463
 20
-25.663
 30
0.0
 11
-171.463
 21
-29.127
 31
0.0
  0
LINE
  5
9E
100
AcDbEntity
  8
PV
  6
CONTINUOUS
 62
         3
100
AcDbLine
 10
-165.463
 20
-39.519
 30
0.0
 11
-171.463
 21
-36.055
 31
0.0
  0
LINE
  5
9F
100
AcDbEntity
  8
PV
  6
CONTINUOUS
 62
         3
100
AcDbLine
 10
-165.463
 20
-39.519
 30
0.0
 11
-159.463
 21
-36.055
 31
0.0
  0
LINE
  5
A0
100
AcDbEntity
  8
PV
  6
CONTINUOUS
 62
         3
100
AcDbLine
 10
-159.463
 20
-29.127
 30
0.0
 11
-159.463
 21
-36.055
 31
0.0
  0
LINE
  5
A1
100
AcDbEntity
  8
PV
  6
CONTINUOUS
 62
         3
100
AcDbLine
 10
-171.463
 20
-29.127
 30
0.0
 11
-171.463
 21
-36.055
 31
0.0
  0
LINE
  5
A2
100
AcDbEntity
  8
PV
  6
CONTINUOUS
 62
         3
100
AcDbLine
 10
-195.015
 20
-16.547
 30
0.0
 11
-189.015
 21
-20.011
 31
0.0
  0
LINE
  5
A3
100
AcDbEntity
  8
PV
  6
CONTINUOUS
 62
         3
100
AcDbLine
 10
-195.015
 20
-16.547
 30
0.0
 11
-201.015
 21
-20.011
 31
0.0
  0
LINE
  5
A4
100
AcDbEntity
  8
PV
  6
CONTINUOUS
 62
         3
100
AcDbLine
 10
-195.015
 20
-30.404
 30
0.0
 11
-201.015
 21
-26.94
 31
0.0
  0
LINE
  5
A5
100
AcDbEntity
  8
PV
  6
CONTINUOUS
 62
         3
100
AcDbLine
 10
-195.015
 20
-30.404
 30
0.0
 11
-189.015
 21
-26.94
 31
0.0
  0
LINE
  5
A6
100
AcDbEntity
  8
PV
  6
CONTINUOUS
 62
         3
100
AcDbLine
 10
-189.015
 20
-20.011
 30
0.0
 11
-189.015
 21
-26.94
 31
0.0
  0
LINE
  5
A7
100
AcDbEntity
  8
PV
  6
CONTINUOUS
 62
         3
100
AcDbLine
 10
-201.015
 20
-20.011
 30
0.0
 11
-201.015
 21
-26.94
 31
0.0
  0
LINE
  5
A8
100
AcDbEntity
  8
PV
  6
CONTINUOUS
 62
         3
100
AcDbLine
 10
-147.0
 20
159.95
 30
0.0
 11
-147.0
 21
161.751
 31
0.0
  0
LINE
  5
A9
100
AcDbEntity
  8
PV
  6
CONTINUOUS
 62
         3
100
AcDbLine
 10
-153.0
 20
159.95
 30
0.0
 11
-153.0
 21
161.751
 31
0.0
  0
LINE
  5
AA
100
AcDbEntity
  8
PV
  6
CONTINUOUS
 62
         3
100
AcDbLine
 10
-32.517
 20
72.0
 30
0.0
 11
-34.304
 21
72.0
 31
0.0
  0
LINE
  5
AB
100
AcDbEntity
  8
PV
  6
CONTINUOUS
 62
         3
100
AcDbLine
 10
-32.517
 20
68.0
 30
0.0
 11
-34.304
 21
68.0
 31
0.0
  0
CIRCLE
  5
AC
100
AcDbEntity
  8
PV
  6
CENTER
 62
         3
100
AcDbCircle
 10
-150.0
 20
70.0
 30
0.0
 40
103.75
  0
CIRCLE
  5
AD
100
AcDbEntity
  8
PV
  6
CONTINUOUS
 62
         3
100
AcDbCircle
 10
-150.0
 20
173.75
 30
0.0
 40
10.5
  0
CIRCLE
  5
AE
100
AcDbEntity
  8
PV
  6
CONTINUOUS
 62
         3
100
AcDbCircle
 10
-150.0
 20
173.75
 30
0.0
 40
9.114
  0
CIRCLE
  5
AF
100
AcDbEntity
  8
PV
  6
CONTINUOUS
 62
         3
100
AcDbCircle
 10
-180.581
 20
169.141
 30
0.0
 40
10.5
  0
CIRCLE
  5
B0
100
AcDbEntity
  8
PV
  6
CONTINUOUS
 62
         3
100
AcDbCircle
 10
-180.581
 20
169.141
 30
0.0
 40
9.114
  0
CIRCLE
  5
B1
100
AcDbEntity
  8
PV
  6
CONTINUOUS
 62
         3
100
AcDbCircle
 10
-119.419
 20
169.141
 30
0.0
 40
10.5
  0
CIRCLE
  5
B2
100
AcDbEntity
  8
PV
  6
CONTINUOUS
 62
         3
100
AcDbCircle
 10
-119.419
 20
169.141
 30
0.0
 40
9.114
  0
CIRCLE
  5
B3
100
AcDbEntity
  8
PV
  6
CONTINUOUS
 62
         3
100
AcDbCircle
 10
-91.555
 20
155.722
 30
0.0
 40
10.5
  0
CIRCLE
  5
B4
100
AcDbEntity
  8
PV
  6
CONTINUOUS
 62
         3
100
AcDbCircle
 10
-91.555
 20
155.722
 30
0.0
 40
9.114
  0
CIRCLE
  5
B5
100
AcDbEntity
  8
PV
  6
CONTINUOUS
 62
         3
100
AcDbCircle
 10
-208.444
 20
155.722
 30
0.0
 40
10.5
  0
CIRCLE
  5
B6
100
AcDbEntity
  8
PV
  6
CONTINUOUS
 62
         3
100
AcDbCircle
 10
-208.444
 20
155.722
 30
0.0
 40
9.114
  0
CIRCLE
  5
B7
100
AcDbEntity
  8
PV
  6
CONTINUOUS
 62
         3
100
AcDbCircle
 10
-246.578
 20
107.904
 30
0.0
 40
10.5
  0
CIRCLE
  5
B8
100
AcDbEntity
  8
PV
  6
CONTINUOUS
 62
         3
100
AcDbCircle
 10
-246.578
 20
107.904
 30
0.0
 40
9.114
  0
CIRCLE
  5
B9
100
AcDbEntity
  8
PV
  6
CONTINUOUS
 62
         3
100
AcDbCircle
 10
-253.46
 20
77.753
 30
0.0
 40
10.5
  0
CIRCLE
  5
BA
100
AcDbEntity
  8
PV
  6
CONTINUOUS
 62
         3
100
AcDbCircle
 10
-253.46
 20
77.753
 30
0.0
 40
9.114
  0
CIRCLE
  5
BB
100
AcDbEntity
  8
PV
  6
CONTINUOUS
 62
         3
100
AcDbCircle
 10
-251.149
 20
46.914
 30
0.0
 40
10.5
  0
CIRCLE
  5
BC
100
AcDbEntity
  8
PV
  6
CONTINUOUS
 62
         3
100
AcDbCircle
 10
-251.149
 20
46.914
 30
0.0
 40
9.114
  0
CIRCLE
  5
BD
100
AcDbEntity
  8
PV
  6
CONTINUOUS
 62
         3
100
AcDbCircle
 10
-239.85
 20
18.125
 30
0.0
 40
10.5
  0
CIRCLE
  5
BE
100
AcDbEntity
  8
PV
  6
CONTINUOUS
 62
         3
100
AcDbCircle
 10
-239.85
 20
18.125
 30
0.0
 40
9.114
  0
CIRCLE
  5
BF
100
AcDbEntity
  8
PV
  6
CONTINUOUS
 62
         3
100
AcDbCircle
 10
-53.422
 20
107.904
 30
0.0
 40
10.5
  0
CIRCLE
  5
C0
100
AcDbEntity
  8
PV
  6
CONTINUOUS
 62
         3
100
AcDbCircle
 10
-53.422
 20
107.904
 30
0.0
 40
9.114
  0
CIRCLE
  5
C1
100
AcDbEntity
  8
PV
  6
CONTINUOUS
 62
         3
100
AcDbCircle
 10
-46.54
 20
77.753
 30
0.0
 40
10.5
  0
CIRCLE
  5
C2
100
AcDbEntity
  8
PV
  6
CONTINUOUS
 62
         3
100
AcDbCircle
 10
-46.54
 20
77.753
 30
0.0
 40
9.114
  0
CIRCLE
  5
C3
100
AcDbEntity
  8
PV
  6
CONTINUOUS
 62
         3
100
AcDbCircle
 10
-48.851
 20
46.913
 30
0.0
 40
10.5
  0
CIRCLE
  5
C4
100
AcDbEntity
  8
PV
  6
CONTINUOUS
 62
         3
100
AcDbCircle
 10
-48.851
 20
46.913
 30
0.0
 40
9.114
  0
CIRCLE
  5
C5
100
AcDbEntity
  8
PV
  6
CONTINUOUS
 62
         3
100
AcDbCircle
 10
-60.15
 20
18.125
 30
0.0
 40
10.5
  0
CIRCLE
  5
C6
100
AcDbEntity
  8
PV
  6
CONTINUOUS
 62
         3
100
AcDbCircle
 10
-60.15
 20
18.125
 30
0.0
 40
9.114
  0
CIRCLE
  5
C7
100
AcDbEntity
  8
PV
  6
CONTINUOUS
 62
         3
100
AcDbCircle
 10
-104.985
 20
-23.475
 30
0.0
 40
10.5
  0
CIRCLE
  5
C8
100
AcDbEntity
  8
PV
  6
CONTINUOUS
 62
         3
100
AcDbCircle
 10
-104.985
 20
-23.475
 30
0.0
 40
9.114
  0
CIRCLE
  5
C9
100
AcDbEntity
  8
PV
  6
CONTINUOUS
 62
         3
100
AcDbCircle
 10
-134.537
 20
-32.591
 30
0.0
 40
10.5
  0
CIRCLE
  5
CA
100
AcDbEntity
  8
PV
  6
CONTINUOUS
 62
         3
100
AcDbCircle
 10
-134.537
 20
-32.591
 30
0.0
 40
9.114
  0
CIRCLE
  5
CB
100
AcDbEntity
  8
PV
  6
CONTINUOUS
 62
         3
100
AcDbCircle
 10
-165.463
 20
-32.591
 30
0.0
 40
10.5
  0
CIRCLE
  5
CC
100
AcDbEntity
  8
PV
  6
CONTINUOUS
 62
         3
100
AcDbCircle
 10
-165.463
 20
-32.591
 30
0.0
 40
9.114
  0
CIRCLE
  5
CD
100
AcDbEntity
  8
PV
  6
CONTINUOUS
 62
         3
100
AcDbCircle
 10
-195.015
 20
-23.475
 30
0.0
 40
10.5
  0
CIRCLE
  5
CE
100
AcDbEntity
  8
PV
  6
CONTINUOUS
 62
         3
100
AcDbCircle
 10
-195.015
 20
-23.475
 30
0.0
 40
9.114
  0
CIRCLE
  5
CF
100
AcDbEntity
  8
PV
  6
CONTINUOUS
 62
         3
100
AcDbCircle
 10
-68.885
 20
134.687
 30
0.0
 40
7.0
  0
CIRCLE
  5
D0
100
AcDbEntity
  8
PV
  6
CONTINUOUS
 62
         3
100
AcDbCircle
 10
-231.115
 20
134.687
 30
0.0
 40
7.0
  0
CIRCLE
  5
D1
100
AcDbEntity
  8
PV
  6
CONTINUOUS
 62
         3
100
AcDbCircle
 10
-220.568
 20
-6.054
 30
0.0
 40
7.0
  0
CIRCLE
  5
D2
100
AcDbEntity
  8
PV
  6
CONTINUOUS
 62
         3
100
AcDbCircle
 10
-79.432
 20
-6.054
 30
0.0
 40
7.0
  0
CIRCLE
  5
D3
100
AcDbEntity
  8
PV
  6
CONTINUOUS
 62
         3
100
AcDbCircle
 10
-68.885
 20
134.687
 30
0.0
 40
5.92
  0
CIRCLE
  5
D4
100
AcDbEntity
  8
PV
  6
CONTINUOUS
 62
         3
100
AcDbCircle
 10
-79.432
 20
-6.054
 30
0.0
 40
5.92
  0
CIRCLE
  5
D5
100
AcDbEntity
  8
PV
  6
CONTINUOUS
 62
         3
100
AcDbCircle
 10
-220.568
 20
-6.054
 30
0.0
 40
5.92
  0
CIRCLE
  5
D6
100
AcDbEntity
  8
PV
  6
CONTINUOUS
 62
         3
100
AcDbCircle
 10
-231.115
 20
134.687
 30
0.0
 40
5.92
  0
CIRCLE
  5
D7
100
AcDbEntity
  8
PV
  6
CONTINUOUS
 62
         3
100
AcDbCircle
 10
-150.0
 20
70.0
 30
0.0
 40
115.7
  0
CIRCLE
  5
D8
100
AcDbEntity
  8
PV
  6
CONTINUOUS
 62
         3
100
AcDbCircle
 10
-150.0
 20
70.0
 30
0.0
 40
91.8
  0
LINE
  5
D9
100
AcDbEntity
  8
PV
  6
CENTER
 62
         3
100
AcDbLine
 10
80.202
 20
70.0
 30
0.0
 11
154.073
 21
70.0
 31
0.0
  0
LINE
  5
DA
100
AcDbEntity
  8
PV
  6
CONTINUOUS
 62
         3
100
AcDbLine
 10
125.2
 20
182.14
 30
0.0
 11
125.2
 21
179.667
 31
0.0
  0
LINE
  5
DB
100
AcDbEntity
  8
PV
  6
CONTINUOUS
 62
         3
100
AcDbLine
 10
125.0
 20
182.099
 30
0.0
 11
142.0
 21
185.558
 31
0.0
  0
LINE
  5
DC
100
AcDbEntity
  8
PV
  6
CONTINUOUS
 62
         3
100
AcDbLine
 10
125.0
 20
165.401
 30
0.0
 11
142.0
 21
161.942
 31
0.0
  0
LINE
  5
DD
100
AcDbEntity
  8
PV
  6
CONTINUOUS
 62
         3
100
AcDbLine
 10
118.8
 20
165.36
 30
0.0
 11
118.8
 21
166.75
 31
0.0
  0
LINE
  5
DE
100
AcDbEntity
  8
PV
  6
CONTINUOUS
 62
         3
100
AcDbLine
 10
119.0
 20
182.099
 30
0.0
 11
125.0
 21
182.099
 31
0.0
  0
LINE
  5
DF
100
AcDbEntity
  8
PV
  6
CONTINUOUS
 62
         3
100
AcDbLine
 10
119.0
 20
165.401
 30
0.0
 11
125.0
 21
165.401
 31
0.0
  0
LINE
  5
E0
100
AcDbEntity
  8
PV
  6
CONTINUOUS
 62
         3
100
AcDbLine
 10
125.2
 20
-25.36
 30
0.0
 11
125.2
 21
-42.14
 31
0.0
  0
LINE
  5
E1
100
AcDbEntity
  8
PV
  6
CONTINUOUS
 62
         3
100
AcDbLine
 10
118.8
 20
-42.14
 30
0.0
 11
118.8
 21
-25.36
 31
0.0
  0
LINE
  5
E2
100
AcDbEntity
  8
PV
  6
CONTINUOUS
 62
         3
100
AcDbLine
 10
119.0
 20
-42.099
 30
0.0
 11
102.0
 21
-45.558
 31
0.0
  0
LINE
  5
E3
100
AcDbEntity
  8
PV
  6
CONTINUOUS
 62
         3
100
AcDbLine
 10
119.0
 20
-25.401
 30
0.0
 11
102.0
 21
-21.942
 31
0.0
  0
LINE
  5
E4
100
AcDbEntity
  8
PV
  6
CONTINUOUS
 62
         3
100
AcDbLine
 10
125.0
 20
-42.099
 30
0.0
 11
119.0
 21
-42.099
 31
0.0
  0
LINE
  5
E5
100
AcDbEntity
  8
PV
  6
CONTINUOUS
 62
         3
100
AcDbLine
 10
125.0
 20
-25.401
 30
0.0
 11
119.0
 21
-25.401
 31
0.0
  0
LINE
  5
E6
100
AcDbEntity
  8
PV
  6
CONTINUOUS
 62
         3
100
AcDbLine
 10
138.0
 20
180.75
 30
0.0
 11
140.0
 21
178.75
 31
0.0
  0
LINE
  5
E7
100
AcDbEntity
  8
PV
  6
CONTINUOUS
 62
         3
100
AcDbLine
 10
138.0
 20
166.75
 30
0.0
 11
140.0
 21
168.75
 31
0.0
  0
LINE
  5
E8
100
AcDbEntity
  8
PV
  6
CONTINUOUS
 62
         3
100
AcDbLine
 10
138.0
 20
180.75
 30
0.0
 11
138.0
 21
166.75
 31
0.0
  0
LINE
  5
E9
100
AcDbEntity
  8
PV
  6
CONTINUOUS
 62
         3
100
AcDbLine
 10
140.0
 20
178.75
 30
0.0
 11
140.0
 21
168.75
 31
0.0
  0
LINE
  5
EA
100
AcDbEntity
  8
PV
  6
CONTINUOUS
 62
         3
100
AcDbLine
 10
106.0
 20
180.75
 30
0.0
 11
106.0
 21
166.75
 31
0.0
  0
LINE
  5
EB
100
AcDbEntity
  8
PV
  6
CONTINUOUS
 62
         3
100
AcDbLine
 10
106.0
 20
179.667
 30
0.0
 11
103.835
 21
180.75
 31
0.0
  0
LINE
  5
EC
100
AcDbEntity
  8
PV
  6
CONTINUOUS
 62
         3
100
AcDbLine
 10
106.0
 20
167.832
 30
0.0
 11
103.835
 21
166.75
 31
0.0
  0
LINE
  5
ED
100
AcDbEntity
  8
PV
  6
CONTINUOUS
 62
         3
100
AcDbLine
 10
86.8
 20
184.25
 30
0.0
 11
86.8
 21
163.25
 31
0.0
  0
LINE
  5
EE
100
AcDbEntity
  8
PV
  6
CENTER
 62
         3
100
AcDbLine
 10
81.0
 20
173.75
 30
0.0
 11
145.0
 21
173.75
 31
0.0
  0
LINE
  5
EF
100
AcDbEntity
  8
PV
  6
CONTINUOUS
 62
         3
100
AcDbLine
 10
144.0
 20
180.75
 30
0.0
 11
100.0
 21
180.75
 31
0.0
  0
LINE
  5
F0
100
AcDbEntity
  8
PV
  6
CONTINUOUS
 62
         3
100
AcDbLine
 10
144.0
 20
166.75
 30
0.0
 11
100.0
 21
166.75
 31
0.0
  0
LINE
  5
F1
100
AcDbEntity
  8
PV
  6
CONTINUOUS
 62
         3
100
AcDbLine
 10
138.0
 20
180.75
 30
0.0
 11
140.0
 21
178.75
 31
0.0
  0
LINE
  5
F2
100
AcDbEntity
  8
PV
  6
CONTINUOUS
 62
         3
100
AcDbLine
 10
138.0
 20
166.75
 30
0.0
 11
140.0
 21
168.75
 31
0.0
  0
LINE
  5
F3
100
AcDbEntity
  8
PV
  6
CONTINUOUS
 62
         3
100
AcDbLine
 10
138.0
 20
180.75
 30
0.0
 11
138.0
 21
166.75
 31
0.0
  0
LINE
  5
F4
100
AcDbEntity
  8
PV
  6
CONTINUOUS
 62
         3
100
AcDbLine
 10
140.0
 20
178.75
 30
0.0
 11
140.0
 21
168.75
 31
0.0
  0
LINE
  5
F5
100
AcDbEntity
  8
PV
  6
CONTINUOUS
 62
         3
100
AcDbLine
 10
106.0
 20
180.75
 30
0.0
 11
106.0
 21
166.75
 31
0.0
  0
LINE
  5
F6
100
AcDbEntity
  8
PV
  6
CONTINUOUS
 62
         3
100
AcDbLine
 10
106.0
 20
179.667
 30
0.0
 11
103.835
 21
180.75
 31
0.0
  0
LINE
  5
F7
100
AcDbEntity
  8
PV
  6
CONTINUOUS
 62
         3
100
AcDbLine
 10
106.0
 20
167.832
 30
0.0
 11
103.835
 21
166.75
 31
0.0
  0
LINE
  5
F8
100
AcDbEntity
  8
PV
  6
CONTINUOUS
 62
         3
100
AcDbLine
 10
106.0
 20
167.832
 30
0.0
 11
144.0
 21
167.832
 31
0.0
  0
LINE
  5
F9
100
AcDbEntity
  8
PV
  6
CONTINUOUS
 62
         3
100
AcDbLine
 10
106.0
 20
179.667
 30
0.0
 11
144.0
 21
179.667
 31
0.0
  0
LINE
  5
FA
100
AcDbEntity
  8
PV
  6
CONTINUOUS
 62
         3
100
AcDbLine
 10
86.8
 20
184.25
 30
0.0
 11
86.8
 21
163.25
 31
0.0
  0
LINE
  5
FB
100
AcDbEntity
  8
PV
  6
CONTINUOUS
 62
         3
100
AcDbLine
 10
118.8
 20
180.75
 30
0.0
 11
118.8
 21
182.14
 31
0.0
  0
LINE
  5
FC
100
AcDbEntity
  8
PV
  6
CONTINUOUS
 62
         3
100
AcDbLine
 10
125.2
 20
167.832
 30
0.0
 11
125.2
 21
165.36
 31
0.0
  0
LINE
  5
FD
100
AcDbEntity
  8
PV
  6
CONTINUOUS
 62
         3
100
AcDbLine
 10
100.0
 20
-40.75
 30
0.0
 11
118.8
 21
-40.75
 31
0.0
  0
LINE
  5
FE
100
AcDbEntity
  8
PV
  6
CONTINUOUS
 62
         3
100
AcDbLine
 10
100.0
 20
-26.75
 30
0.0
 11
118.8
 21
-26.75
 31
0.0
  0
LINE
  5
FF
100
AcDbEntity
  8
PV
  6
CONTINUOUS
 62
         3
100
AcDbLine
 10
118.8
 20
-27.832
 30
0.0
 11
100.0
 21
-27.832
 31
0.0
  0
LINE
  5
100
100
AcDbEntity
  8
PV
  6
CONTINUOUS
 62
         3
100
AcDbLine
 10
118.8
 20
-39.667
 30
0.0
 11
100.0
 21
-39.667
 31
0.0
  0
LINE
  5
101
100
AcDbEntity
  8
PV
  6
CENTER
 62
         3
100
AcDbLine
 10
145.0
 20
-33.75
 30
0.0
 11
81.0
 21
-33.75
 31
0.0
  0
LINE
  5
102
100
AcDbEntity
  8
PV
  6
CONTINUOUS
 62
         3
100
AcDbLine
 10
102.065
 20
185.545
 30
0.0
 11
119.0
 21
182.099
 31
0.0
  0
LINE
  5
103
100
AcDbEntity
  8
PV
  6
CONTINUOUS
 62
         3
100
AcDbLine
 10
102.0
 20
161.942
 30
0.0
 11
119.0
 21
165.401
 31
0.0
  0
LINE
  5
104
100
AcDbEntity
  8
PV
  6
CONTINUOUS
 62
         3
100
AcDbLine
 10
142.0
 20
-21.942
 30
0.0
 11
125.0
 21
-25.401
 31
0.0
  0
LINE
  5
105
100
AcDbEntity
  8
PV
  6
CONTINUOUS
 62
         3
100
AcDbLine
 10
142.0
 20
-45.558
 30
0.0
 11
125.0
 21
-42.099
 31
0.0
  0
LINE
  5
106
100
AcDbEntity
  8
PV
  6
CONTINUOUS
 62
         3
100
AcDbLine
 10
289.739274
 20
-125.0
 30
0.0
 11
289.739274
 21
-275.0
 31
0.0
  0
ARC
  5
107
100
AcDbEntity
  8
PV
  6
CONTINUOUS
 62
         3
100
AcDbCircle
 10
-150.0
 20
70.0
 30
0.0
 40
117.5
100
AcDbArc
 50
0.975294
 51
359.024706
  0
ARC
  5
108
100
AcDbEntity
  8
PV
  6
CONTINUOUS
 62
         3
100
AcDbCircle
 10
-150.0
 20
70.0
 30
0.0
 40
90.0
100
AcDbArc
 50
91.910213
 51
88.089787
  0
LINE
  5
109
100
AcDbEntity
  8
PV
  6
CONTINUOUS
 62
         3
100
AcDbLine
 10
144.0
 20
185.7
 30
0.0
 11
144.0
 21
-45.7
 31
0.0
  0
LINE
  5
10A
100
AcDbEntity
  8
PV
  6
CONTINUOUS
 62
         3
100
AcDbLine
 10
102.0
 20
187.5
 30
0.0
 11
142.0
 21
187.5
 31
0.0
  0
LINE
  5
10B
100
AcDbEntity
  8
PV
  6
CONTINUOUS
 62
         3
100
AcDbLine
 10
102.0
 20
160.0
 30
0.0
 11
142.0
 21
160.0
 31
0.0
  0
LINE
  5
10C
100
AcDbEntity
  8
PV
  6
CONTINUOUS
 62
         3
100
AcDbLine
 10
142.7
 20
185.7
 30
0.0
 11
144.0
 21
185.7
 31
0.0
  0
LINE
  5
10D
100
AcDbEntity
  8
PV
  6
CONTINUOUS
 62
         3
100
AcDbLine
 10
142.7
 20
161.8
 30
0.0
 11
144.0
 21
161.8
 31
0.0
  0
LINE
  5
10E
100
AcDbEntity
  8
PV
  6
CONTINUOUS
 62
         3
100
AcDbLine
 10
100.0
 20
185.7
 30
0.0
 11
101.3
 21
185.7
 31
0.0
  0
LINE
  5
10F
100
AcDbEntity
  8
PV
  6
CONTINUOUS
 62
         3
100
AcDbLine
 10
100.0
 20
161.8
 30
0.0
 11
101.3
 21
161.8
 31
0.0
  0
LINE
  5
110
100
AcDbEntity
  8
PV
  6
CONTINUOUS
 62
         3
100
AcDbLine
 10
101.3
 20
185.7
 30
0.0
 11
102.0
 21
185.558
 31
0.0
  0
LINE
  5
111
100
AcDbEntity
  8
PV
  6
CONTINUOUS
 62
         3
100
AcDbLine
 10
101.3
 20
161.8
 30
0.0
 11
102.0
 21
161.942
 31
0.0
  0
LINE
  5
112
100
AcDbEntity
  8
PV
  6
CONTINUOUS
 62
         3
100
AcDbLine
 10
142.0
 20
187.5
 30
0.0
 11
142.0
 21
185.558
 31
0.0
  0
LINE
  5
113
100
AcDbEntity
  8
PV
  6
CONTINUOUS
 62
         3
100
AcDbLine
 10
102.0
 20
187.5
 30
0.0
 11
102.0
 21
185.558
 31
0.0
  0
LINE
  5
114
100
AcDbEntity
  8
PV
  6
CONTINUOUS
 62
         3
100
AcDbLine
 10
142.0
 20
-47.5
 30
0.0
 11
102.0
 21
-47.5
 31
0.0
  0
LINE
  5
115
100
AcDbEntity
  8
PV
  6
CONTINUOUS
 62
         3
100
AcDbLine
 10
142.0
 20
-20.0
 30
0.0
 11
102.0
 21
-20.0
 31
0.0
  0
LINE
  5
116
100
AcDbEntity
  8
PV
  6
CONTINUOUS
 62
         3
100
AcDbLine
 10
144.0
 20
-45.7
 30
0.0
 11
142.7
 21
-45.7
 31
0.0
  0
LINE
  5
117
100
AcDbEntity
  8
PV
  6
CONTINUOUS
 62
         3
100
AcDbLine
 10
144.0
 20
-21.8
 30
0.0
 11
142.7
 21
-21.8
 31
0.0
  0
LINE
  5
118
100
AcDbEntity
  8
PV
  6
CONTINUOUS
 62
         3
100
AcDbLine
 10
142.7
 20
-45.7
 30
0.0
 11
142.0
 21
-45.558
 31
0.0
  0
LINE
  5
119
100
AcDbEntity
  8
PV
  6
CONTINUOUS
 62
         3
100
AcDbLine
 10
142.7
 20
-21.8
 30
0.0
 11
142.0
 21
-21.942
 31
0.0
  0
LINE
  5
11A
100
AcDbEntity
  8
PV
  6
CONTINUOUS
 62
         3
100
AcDbLine
 10
101.3
 20
-45.7
 30
0.0
 11
100.0
 21
-45.7
 31
0.0
  0
LINE
  5
11B
100
AcDbEntity
  8
PV
  6
CONTINUOUS
 62
         3
100
AcDbLine
 10
101.3
 20
-21.8
 30
0.0
 11
100.0
 21
-21.8
 31
0.0
  0
LINE
  5
11C
100
AcDbEntity
  8
PV
  6
CONTINUOUS
 62
         3
100
AcDbLine
 10
142.0
 20
-45.558
 30
0.0
 11
142.0
 21
-47.5
 31
0.0
  0
LINE
  5
11D
100
AcDbEntity
  8
PV
  6
CONTINUOUS
 62
         3
100
AcDbLine
 10
102.0
 20
161.942
 30
0.0
 11
102.0
 21
-21.942
 31
0.0
  0
LINE
  5
11E
100
AcDbEntity
  8
PV
  6
CONTINUOUS
 62
         3
100
AcDbLine
 10
142.0
 20
161.942
 30
0.0
 11
142.0
 21
-21.942
 31
0.0
  0
LINE
  5
11F
100
AcDbEntity
  8
PV
  6
CONTINUOUS
 62
         3
100
AcDbLine
 10
100.0
 20
184.25
 30
0.0
 11
86.8
 21
184.25
 31
0.0
  0
LINE
  5
120
100
AcDbEntity
  8
PV
  6
CONTINUOUS
 62
         3
100
AcDbLine
 10
100.0
 20
163.25
 30
0.0
 11
86.8
 21
163.25
 31
0.0
  0
LINE
  5
121
100
AcDbEntity
  8
PV
  6
CONTINUOUS
 62
         3
100
AcDbLine
 10
86.0
 20
164.635
 30
0.0
 11
86.8
 21
163.25
 31
0.0
  0
LINE
  5
122
100
AcDbEntity
  8
PV
  6
CONTINUOUS
 62
         3
100
AcDbLine
 10
86.0
 20
182.864
 30
0.0
 11
86.8
 21
184.25
 31
0.0
  0
LINE
  5
123
100
AcDbEntity
  8
PV
  6
CONTINUOUS
 62
         3
100
AcDbLine
 10
86.0
 20
182.864
 30
0.0
 11
86.0
 21
164.636
 31
0.0
  0
LINE
  5
124
100
AcDbEntity
  8
PV
  6
CONTINUOUS
 62
         3
100
AcDbLine
 10
100.0
 20
184.25
 30
0.0
 11
86.8
 21
184.25
 31
0.0
  0
LINE
  5
125
100
AcDbEntity
  8
PV
  6
CONTINUOUS
 62
         3
100
AcDbLine
 10
100.0
 20
163.25
 30
0.0
 11
86.8
 21
163.25
 31
0.0
  0
LINE
  5
126
100
AcDbEntity
  8
PV
  6
CONTINUOUS
 62
         3
100
AcDbLine
 10
86.0
 20
164.635
 30
0.0
 11
86.8
 21
163.25
 31
0.0
  0
LINE
  5
127
100
AcDbEntity
  8
PV
  6
CONTINUOUS
 62
         3
100
AcDbLine
 10
86.0
 20
182.864
 30
0.0
 11
86.8
 21
184.25
 31
0.0
  0
LINE
  5
128
100
AcDbEntity
  8
PV
  6
CONTINUOUS
 62
         3
100
AcDbLine
 10
86.0
 20
182.864
 30
0.0
 11
86.0
 21
164.636
 31
0.0
  0
LINE
  5
129
100
AcDbEntity
  8
PV
  6
CONTINUOUS
 62
         3
100
AcDbLine
 10
100.0
 20
185.7
 30
0.0
 11
100.0
 21
-45.7
 31
0.0
  0
LINE
  5
12A
100
AcDbEntity
  8
PV
  6
CENTER
 62
         3
100
AcDbLine
 10
81.0
 20
173.75
 30
0.0
 11
145.0
 21
173.75
 31
0.0
  0
LINE
  5
12B
100
AcDbEntity
  8
PV
  6
CONTINUOUS
 62
         3
100
AcDbLine
 10
102.0
 20
-45.558
 30
0.0
 11
102.0
 21
-47.5
 31
0.0
  0
LINE
  5
12C
100
AcDbEntity
  8
PV
  6
CONTINUOUS
 62
         3
100
AcDbLine
 10
142.0
 20
185.558
 30
0.0
 11
142.7
 21
185.7
 31
0.0
  0
LINE
  5
12D
100
AcDbEntity
  8
PV
  6
CONTINUOUS
 62
         3
100
AcDbLine
 10
142.0
 20
161.942
 30
0.0
 11
142.7
 21
161.8
 31
0.0
  0
LINE
  5
12E
100
AcDbEntity
  8
PV
  6
CONTINUOUS
 62
         3
100
AcDbLine
 10
102.0
 20
-21.942
 30
0.0
 11
101.3
 21
-21.8
 31
0.0
  0
LINE
  5
12F
100
AcDbEntity
  8
PV
  6
CONTINUOUS
 62
         3
100
AcDbLine
 10
102.0
 20
-45.558
 30
0.0
 11
101.3
 21
-45.7
 31
0.0
  0
MTEXT
  5
130
100
AcDbEntity
  8
PV
  6
CONTINUOUS
 62
       110
100
AcDbMText
 10
-248.1456659955
 20
233.4420001192
 30
0.0
 40
3.2000000477
 41
0.0
 71
         1
 72
         1
  1
\W1.125;\A1;M14
  0
MTEXT
  5
131
100
AcDbEntity
  8
PV
  6
CONTINUOUS
 62
       110
100
AcDbMText
 10
103.3533322641
 20
-263.5
 30
0.0
 40
8.0
 41
0.0
 71
         1
 72
         1
  1
\W1.200;\A1;5.78
  0
MTEXT
  5
132
100
AcDbEntity
  8
PV
  6
CONTINUOUS
 62
       110
100
AcDbMText
 10
184.6534099823
 20
-248.5
 30
0.0
 40
8.0
 41
0.0
 71
         1
 72
         1
  1
\W1.333;\A1;12.3
  0
MTEXT
  5
133
100
AcDbEntity
  8
PV
  6
CONTINUOUS
 62
       110
100
AcDbMText
 10
184.8756319627
 20
-233.5
 30
0.0
 40
8.0
 41
0.0
 71
         1
 72
         1
  1
\W1.500;\A1;16.1
  0
MTEXT
  5
134
100
AcDbEntity
  8
PV
  6
CONTINUOUS
 62
       110
100
AcDbMText
 10
176.3042040292
 20
-218.5
 30
0.0
 40
8.0
 41
0.0
 71
         1
 72
         1
  1
\W1.071;\A1;43500
  0
MTEXT
  5
135
100
AcDbEntity
  8
PV
  6
CONTINUOUS
 62
       110
100
AcDbMText
 10
184.2669369934
 20
-203.5
 30
0.0
 40
8.0
 41
0.0
 71
         1
 72
         1
  1
\W1.043;\A1;3920
  0
MTEXT
  5
136
100
AcDbEntity
  8
PV
  6
CONTINUOUS
 62
       110
100
AcDbMText
 10
184.5598430053
 20
-188.5
 30
0.0
 40
8.0
 41
0.0
 71
         1
 72
         1
  1
\W1.263;\A1;23.0
  0
MTEXT
  5
137
100
AcDbEntity
  8
PV
  6
CONTINUOUS
 62
       110
100
AcDbMText
 10
96.9852210321
 20
-173.8575
 30
0.0
 40
8.0
 41
0.0
 71
         1
 72
         1
  1
\W1.102;\A1;17-M14X40
  0
MTEXT
  5
138
100
AcDbEntity
  8
PV
  6
CONTINUOUS
 62
       110
100
AcDbMText
 10
101.5876579622
 20
-158.295
 30
0.0
 40
8.0
 41
0.0
 71
         1
 72
         1
  1
\W1.048;\A1;PL180X235AS
  0
MTEXT
  5
139
100
AcDbEntity
  8
PV
  6
CONTINUOUS
 62
       110
100
AcDbMText
 10
139.586667
 20
-263.5
 30
0.0
 40
8.0
 41
0.0
 71
         1
 72
         1
  1
\A1;kg
  0
MTEXT
  5
13A
100
AcDbEntity
  8
PV
  6
CONTINUOUS
 62
       110
100
AcDbMText
 10
111.06466
 20
-188.5
 30
0.0
 40
8.0
 41
0.0
 71
         1
 72
         1
  1
\A1;225
  0
MTEXT
  5
13B
100
AcDbEntity
  8
PV
  6
CONTINUOUS
 62
       110
100
AcDbMText
 10
141.5866670088
 20
-188.5
 30
0.0
 40
8.0
 41
0.0
 71
         1
 72
         1
  1
\W0.833;\A1;Ｎ・ｍ
  0
MTEXT
  5
13C
100
AcDbEntity
  8
PV
  6
CONTINUOUS
 62
       110
100
AcDbMText
 10
103.0630152641
 20
-203.5
 30
0.0
 40
8.0
 41
0.0
 71
         1
 72
         1
  1
\W1.200;\A1;38.4
  0
MTEXT
  5
13D
100
AcDbEntity
  8
PV
  6
CONTINUOUS
 62
       110
100
AcDbMText
 10
141.5866670088
 20
-203.5
 30
0.0
 40
8.0
 41
0.0
 71
         1
 72
         1
  1
\W0.833;\A1;ｋＮ・ｍ
  0
MTEXT
  5
13E
100
AcDbEntity
  8
PV
  6
CONTINUOUS
 62
       110
100
AcDbMText
 10
110.900701
 20
-218.5
 30
0.0
 40
8.0
 41
0.0
 71
         1
 72
         1
  1
\A1;426
  0
MTEXT
  5
13F
100
AcDbEntity
  8
PV
  6
CONTINUOUS
 62
       110
100
AcDbMText
 10
139.586667
 20
-218.5
 30
0.0
 40
8.0
 41
0.0
 71
         1
 72
         1
  1
\A1;kN
  0
MTEXT
  5
140
100
AcDbEntity
  8
PV
  6
CONTINUOUS
 62
       110
100
AcDbMText
 10
111.102590363
 20
-233.5
 30
0.0
 40
8.0
 41
0.0
 71
         1
 72
         1
  1
\W1.125;\A1;158
  0
MTEXT
  5
141
100
AcDbEntity
  8
PV
  6
CONTINUOUS
 62
       110
100
AcDbMText
 10
139.586667
 20
-233.5
 30
0.0
 40
8.0
 41
0.0
 71
         1
 72
         1
  1
\A1;MPa
  0
MTEXT
  5
142
100
AcDbEntity
  8
PV
  6
CONTINUOUS
 62
       110
100
AcDbMText
 10
111.5105559254
 20
-248.276179
 30
0.0
 40
8.0
 41
0.0
 71
         1
 72
         1
  1
\W1.286;\A1;121
  0
MTEXT
  5
143
100
AcDbEntity
  8
PV
  6
CONTINUOUS
 62
       110
100
AcDbMText
 10
139.586667
 20
-248.5
 30
0.0
 40
8.0
 41
0.0
 71
         1
 72
         1
  1
\A1;MPa
  0
MTEXT
  5
144
100
AcDbEntity
  8
PV
  6
CONTINUOUS
 62
       110
100
AcDbMText
 10
169.5741109404
 20
-188.5
 30
0.0
 40
8.0
 41
0.0
 71
         1
 72
         1
  1
\W1.500;\A1;\{
  0
MTEXT
  5
145
100
AcDbEntity
  8
PV
  6
CONTINUOUS
 62
       110
100
AcDbMText
 10
224.7888050088
 20
-188.5
 30
0.0
 40
8.0
 41
0.0
 71
         1
 72
         1
  1
\W0.833;\A1;ｋｇｆ・ｍ｝
  0
MTEXT
  5
146
100
AcDbEntity
  8
PV
  6
CONTINUOUS
 62
       110
100
AcDbMText
 10
224.7888050088
 20
-203.5
 30
0.0
 40
8.0
 41
0.0
 71
         1
 72
         1
  1
\W0.833;\A1;ｋｇｆ・ｍ｝
  0
MTEXT
  5
147
100
AcDbEntity
  8
PV
  6
CONTINUOUS
 62
       110
100
AcDbMText
 10
222.9100160355
 20
-218.5
 30
0.0
 40
8.0
 41
0.0
 71
         1
 72
         1
  1
\W1.091;\A1;kgf\}
  0
MTEXT
  5
148
100
AcDbEntity
  8
PV
  6
CONTINUOUS
 62
       110
100
AcDbMText
 10
223.2251637511
 20
-233.5
 30
0.0
 40
8.0
 41
0.0
 71
         1
 72
         1
  1
\T1.101;\W1.081;\A1;kgf/mm \}
  0
MTEXT
  5
149
100
AcDbEntity
  8
PV
  6
CONTINUOUS
 62
       110
100
AcDbMText
 10
223.2251637511
 20
-248.5
 30
0.0
 40
8.0
 41
0.0
 71
         1
 72
         1
  1
\T1.101;\W1.081;\A1;kgf/mm \}
  0
MTEXT
  5
14A
100
AcDbEntity
  8
PV
  6
CONTINUOUS
 62
       110
100
AcDbMText
 10
271.393078
 20
-248.4986170745
 30
0.0
 40
3.75
 41
0.0
 71
         1
 72
         1
  1
\A1;2
  0
MTEXT
  5
14B
100
AcDbEntity
  8
PV
  6
CONTINUOUS
 62
       110
100
AcDbMText
 10
271.393078
 20
-233.4986170745
 30
0.0
 40
3.75
 41
0.0
 71
         1
 72
         1
  1
\A1;2
  0
MTEXT
  5
14C
100
AcDbEntity
  8
PV
  6
CONTINUOUS
 62
       110
100
AcDbMText
 10
169.3281069404
 20
-203.5
 30
0.0
 40
8.0
 41
0.0
 71
         1
 72
         1
  1
\W1.500;\A1;\{
  0
MTEXT
  5
14D
100
AcDbEntity
  8
PV
  6
CONTINUOUS
 62
       110
100
AcDbMText
 10
161.3581259404
 20
-218.5
 30
0.0
 40
8.0
 41
0.0
 71
         1
 72
         1
  1
\W1.500;\A1;\{
  0
MTEXT
  5
14E
100
AcDbEntity
  8
PV
  6
CONTINUOUS
 62
       110
100
AcDbMText
 10
169.3804309404
 20
-233.5
 30
0.0
 40
8.0
 41
0.0
 71
         1
 72
         1
  1
\W1.500;\A1;\{
  0
MTEXT
  5
14F
100
AcDbEntity
  8
PV
  6
CONTINUOUS
 62
       110
100
AcDbMText
 10
169.5741109404
 20
-248.276179
 30
0.0
 40
8.0
 41
0.0
 71
         1
 72
         1
  1
\W1.500;\A1;\{
  0
LINE
  5
150
100
AcDbEntity
  8
PV
  6
CONTINUOUS
 62
         3
100
AcDbLine
 10
-255.483
 20
225.632
 30
0.0
 11
-221.068
 21
225.632
 31
0.0
  0
LINE
  5
151
100
AcDbEntity
  8
PV
  6
CONTINUOUS
 62
         3
100
AcDbLine
 10
-232.926
 20
141.449
 30
0.0
 11
-255.483
 21
225.632
 31
0.0
  0
DIMENSION
  5
161
100
AcDbEntity
  8
PV
  6
CONTINUOUS
 62
        80
100
AcDbDimension
  2
*D2
 10
65.24244
 20
173.75
 30
0.0
 11
65.24244
 21
68.8083343506
 31
0.0
 70
       128
  1
\A1;\U+2205<>
  3
MXDIMSTYLE
100
AcDbAlignedDimension
 13
81.0
 23
-33.75
 33
0.0
 14
81.0
 24
173.75
 34
0.0
 50
90.0
100
AcDbRotatedDimension
1001
ACAD
1000
DSTYLE
1002
{
1070
         6
1000
SOLID
1070
         7
1000
SOLID
1070
        41
1040
1.0000000298
1070
        44
1040
2.0
1070
       271
1070
         4
1070
       284
1070
         8
1070
       340
1005
15B
1070
       343
1005
0
1070
       344
1005
0
1002
}
  0
DIMENSION
  5
170
100
AcDbEntity
  8
PV
  6
CONTINUOUS
 62
        80
100
AcDbDimension
  2
*D3
 10
177.178512
 20
-20.0
 30
0.0
 11
177.178512
 21
69.0083312988
 31
0.0
 70
       128
  1
\A1;\U+2205<>
  3
MXDIMSTYLE
100
AcDbAlignedDimension
 13
141.999999
 23
160.0
 33
0.0
 14
141.999999
 24
-20.0
 34
0.0
 50
90.0
100
AcDbRotatedDimension
1001
ACAD
1000
DSTYLE
1002
{
1070
         6
1000
SOLID
1070
         7
1000
SOLID
1070
        41
1040
1.0000000298
1070
        44
1040
2.0
1070
       271
1070
         4
1070
       284
1070
         8
1070
       343
1005
0
1070
       344
1005
0
1002
}
  0
DIMENSION
  5
180
100
AcDbEntity
  8
PV
  6
CONTINUOUS
 62
        80
100
AcDbDimension
  2
*D4
 10
198.798563
 20
-47.5
 30
0.0
 11
198.798563
 21
69.0083312988
 31
0.0
 70
       128
  1
\A1;\U+2205<>
  3
MXDIMSTYLE
100
AcDbAlignedDimension
 13
141.999998
 23
187.5
 33
0.0
 14
141.999998
 24
-47.5
 34
0.0
 50
90.0
100
AcDbRotatedDimension
1001
ACAD
1000
DSTYLE
1002
{
1070
         6
1000
SOLID
1070
         7
1000
SOLID
1070
        41
1040
1.0000000298
1070
        44
1040
2.0
1070
       271
1070
         4
1070
       284
1070
         8
1070
       340
1005
17A
1070
       343
1005
0
1070
       344
1005
0
1002
}
  0
DIMENSION
  5
18F
100
AcDbEntity
  8
PV
  6
CONTINUOUS
 62
        80
100
AcDbDimension
  2
*D5
 10
142.0
 20
218.727598
 30
0.0
 11
121.2083320618
 21
218.727598
 31
0.0
 70
       128
  1
\A1;<>
  3
MXDIMSTYLE
100
AcDbAlignedDimension
 13
102.0
 23
187.5
 33
0.0
 14
142.0
 24
187.5
 34
0.0
100
AcDbRotatedDimension
1001
ACAD
1000
DSTYLE
1002
{
1070
         6
1000
SOLID
1070
         7
1000
SOLID
1070
        41
1040
1.0000000298
1070
        44
1040
2.0
1070
       271
1070
         4
1070
       284
1070
         8
1070
       343
1005
0
1070
       344
1005
0
1002
}
  0
DIMENSION
  5
19E
100
AcDbEntity
  8
PV
  6
CONTINUOUS
 62
        80
100
AcDbDimension
  2
*D6
 10
144.0
 20
234.419571
 30
0.0
 11
121.2083320618
 21
234.419571
 31
0.0
 70
       128
  1
\A1;<>
  3
MXDIMSTYLE
100
AcDbAlignedDimension
 13
100.0
 23
185.700001
 33
0.0
 14
144.0
 24
185.700001
 34
0.0
100
AcDbRotatedDimension
1001
ACAD
1000
DSTYLE
1002
{
1070
         6
1000
SOLID
1070
         7
1000
SOLID
1070
        41
1040
1.0000000298
1070
        44
1040
2.0
1070
       271
1070
         4
1070
       284
1070
         8
1070
       343
1005
0
1070
       344
1005
0
1002
}
  0
DIMENSION
  5
1AE
100
AcDbEntity
  8
PV
  6
CONTINUOUS
 62
        80
100
AcDbDimension
  2
*D7
 10
100.0
 20
234.419571
 30
0.0
 11
92.2083330154
 21
234.419571
 31
0.0
 70
       128
  1
\A1;<>
  3
MXDIMSTYLE
100
AcDbAlignedDimension
 13
86.0
 23
182.863998
 33
0.0
 14
100.0
 24
185.700001
 34
0.0
100
AcDbRotatedDimension
1001
ACAD
1000
DSTYLE
1002
{
1070
         6
1000
SOLID
1070
         7
1000
SOLID
1070
        41
1040
1.0000000298
1070
        44
1040
2.0
1070
       271
1070
         4
1070
       284
1070
         8
1070
       340
1005
1A8
1070
       343
1005
0
1070
       344
1005
0
1002
}
  0
DIMENSION
  5
1BD
100
AcDbEntity
  8
PV
  6
CONTINUOUS
 62
        80
100
AcDbDimension
  2
*D8
 10
144.0
 20
251.506385
 30
0.0
 11
114.2083320618
 21
251.506385
 31
0.0
 70
       128
  1
\A1;<>
  3
MXDIMSTYLE
100
AcDbAlignedDimension
 13
86.0
 23
182.863998
 33
0.0
 14
144.0
 24
185.699996
 34
0.0
100
AcDbRotatedDimension
1001
ACAD
1000
DSTYLE
1002
{
1070
         6
1000
SOLID
1070
         7
1000
SOLID
1070
        41
1040
1.0000000298
1070
        44
1040
2.0
1070
       271
1070
         4
1070
       284
1070
         8
1070
       343
1005
0
1070
       344
1005
0
1002
}
  0
LINE
  5
1BE
100
AcDbEntity
  8
PV
  6
CONTINUOUS
 62
         3
100
AcDbLine
 10
-208.032304
 20
-140.0
 30
0.0
 11
289.739274
 21
-140.0
 31
0.0
  0
LINE
  5
1BF
100
AcDbEntity
  8
PV
  6
CONTINUOUS
 62
         3
100
AcDbLine
 10
-208.032304
 20
-155.0
 30
0.0
 11
289.739274
 21
-155.0
 31
0.0
  0
LINE
  5
1C0
100
AcDbEntity
  8
PV
  6
CONTINUOUS
 62
         3
100
AcDbLine
 10
-208.032304
 20
-170.0
 30
0.0
 11
289.739274
 21
-170.0
 31
0.0
  0
LINE
  5
1C1
100
AcDbEntity
  8
PV
  6
CONTINUOUS
 62
         3
100
AcDbLine
 10
-208.032304
 20
-185.0
 30
0.0
 11
289.739274
 21
-185.0
 31
0.0
  0
LINE
  5
1C2
100
AcDbEntity
  8
PV
  6
CONTINUOUS
 62
         3
100
AcDbLine
 10
-208.032304
 20
-200.0
 30
0.0
 11
289.739274
 21
-200.0
 31
0.0
  0
LINE
  5
1C3
100
AcDbEntity
  8
PV
  6
CONTINUOUS
 62
         3
100
AcDbLine
 10
-208.032304
 20
-215.0
 30
0.0
 11
289.739274
 21
-215.0
 31
0.0
  0
LINE
  5
1C4
100
AcDbEntity
  8
PV
  6
CONTINUOUS
 62
         3
100
AcDbLine
 10
-208.032304
 20
-230.0
 30
0.0
 11
289.739274
 21
-230.0
 31
0.0
  0
LINE
  5
1C5
100
AcDbEntity
  8
PV
  6
CONTINUOUS
 62
         3
100
AcDbLine
 10
-208.032304
 20
-245.0
 30
0.0
 11
289.739274
 21
-245.0
 31
0.0
  0
LINE
  5
1C6
100
AcDbEntity
  8
PV
  6
CONTINUOUS
 62
         3
100
AcDbLine
 10
-208.032304
 20
-260.0
 30
0.0
 11
289.739274
 21
-260.0
 31
0.0
  0
LINE
  5
1C7
100
AcDbEntity
  8
PV
  6
CONTINUOUS
 62
         3
100
AcDbLine
 10
-208.032304
 20
-275.0
 30
0.0
 11
289.739274
 21
-275.0
 31
0.0
  0
LINE
  5
1C8
100
AcDbEntity
  8
PV
  6
CONTINUOUS
 62
         3
100
AcDbLine
 10
-208.032304
 20
-125.0
 30
0.0
 11
289.739274
 21
-125.0
 31
0.0
  0
LINE
  5
1C9
100
AcDbEntity
  8
PV
  6
CONTINUOUS
 62
         3
100
AcDbLine
 10
-208.032304
 20
-125.0
 30
0.0
 11
-208.032304
 21
-275.0
 31
0.0
  0
LINE
  5
1CA
100
AcDbEntity
  8
PV
  6
CONTINUOUS
 62
         3
100
AcDbLine
 10
78.900197
 20
-155.0
 30
0.0
 11
78.900197
 21
-275.0
 31
0.0
  0
MTEXT
  5
1CB
100
AcDbEntity
  8
PV
  6
CONTINUOUS
 62
       110
100
AcDbMText
 10
-51.5421450378
 20
-95.9275
 30
0.0
 40
8.0
 41
0.0
 71
         1
 72
         1
  1
\W1.048;\A1;PL180X235AS
  0
MTEXT
  5
1CC
100
AcDbEntity
  8
PV
  6
CONTINUOUS
 62
       110
100
AcDbMText
 10
-51.5770816935
 20
-80.9275
 30
0.0
 40
8.0
 41
0.0
 71
         1
 72
         1
  1
\T1.006;\W1.063;\A1;POWER LOCK
  0
MTEXT
  5
1CD
100
AcDbEntity
  8
PV
  6
CONTINUOUS
 62
       110
100
AcDbMText
 10
-196.705429456
 20
-158.83
 30
0.0
 40
8.0
 41
0.0
 71
         1
 72
         1
  1
\T1.034;\W1.053;\A1;MODEL NUMBER
  0
MTEXT
  5
1CE
100
AcDbEntity
  8
PV
  6
CONTINUOUS
 62
       110
100
AcDbMText
 10
-196.5855178103
 20
-248.83
 30
0.0
 40
8.0
 41
0.0
 71
         1
 72
         1
  1
\T1.061;\W1.093;\A1;CONTACT PRESSURE OF HUB BORE
  0
MTEXT
  5
1CF
100
AcDbEntity
  8
PV
  6
CONTINUOUS
 62
       110
100
AcDbMText
 10
-196.6333351283
 20
-233.83
 30
0.0
 40
8.0
 41
0.0
 71
         1
 72
         1
  1
\T1.051;\W1.077;\A1;CONTACT PRESSURE OF SHAFT
  0
MTEXT
  5
1D0
100
AcDbEntity
  8
PV
  6
CONTINUOUS
 62
       110
100
AcDbMText
 10
-196.6182845292
 20
-218.83
 30
0.0
 40
8.0
 41
0.0
 71
         1
 72
         1
  1
\T1.057;\W1.031;\A1;TRANSMISSIBLE THRUST
  0
MTEXT
  5
1D1
100
AcDbEntity
  8
PV
  6
CONTINUOUS
 62
       110
100
AcDbMText
 10
-196.6182845292
 20
-203.83
 30
0.0
 40
8.0
 41
0.0
 71
         1
 72
         1
  1
\T1.057;\W1.031;\A1;TRANSMISSIBLE TORQUE
  0
MTEXT
  5
1D2
100
AcDbEntity
  8
PV
  6
CONTINUOUS
 62
       110
100
AcDbMText
 10
-196.4260335815
 20
-173.83
 30
0.0
 40
8.0
 41
0.0
 71
         1
 72
         1
  1
\T1.096;\W1.097;\A1;QUANTITY AND SIZE OF LOCKING BOLTS
  0
MTEXT
  5
1D3
100
AcDbEntity
  8
PV
  6
CONTINUOUS
 62
       110
100
AcDbMText
 10
-196.4942307304
 20
-188.83
 30
0.0
 40
8.0
 41
0.0
 71
         1
 72
         1
  1
\T1.083;\W1.076;\A1;TIGHTENING TORQUE OF LOCKING BOLTS
  0
MTEXT
  5
1D4
100
AcDbEntity
  8
PV
  6
CONTINUOUS
 62
       110
100
AcDbMText
 10
-86.7670816935
 20
-144.1175
 30
0.0
 40
8.0
 41
0.0
 71
         1
 72
         1
  1
\T1.006;\W1.063;\A1;POWER LOCK
  0
MTEXT
  5
1D5
100
AcDbEntity
  8
PV
  6
CONTINUOUS
 62
       110
100
AcDbMText
 10
-196.850636
 20
-263.83
 30
0.0
 40
8.0
 41
0.0
 71
         1
 72
         1
  1
\A1;MASS
  0
ENDSEC
  0
SECTION
  2
OBJECTS
  0
DICTIONARY
  5
19
100
AcDbDictionary
  3
ACAD_GROUP
350
1A
  3
ACAD_MLINESTYLE
350
1B
  0
DICTIONARY
  5
1A
102
{ACAD_REACTORS
330
19
102
}
100
AcDbDictionary
  0
DICTIONARY
  5
1B
102
{ACAD_REACTORS
330
19
102
}
100
AcDbDictionary
  3
STANDARD
350
1C
  0
MLINESTYLE
  5
1C
102
{ACAD_REACTORS
330
1B
102
}
100
AcDbMlineStyle
  2
Standard
 70
         0
  3

 62
         0
 51
90.0
 52
90.0
 71
         2
 49
0.5
 62
       256
  6
ByLayer
 49
-0.5
 62
       256
  6
ByLayer
  0
ENDSEC
  0
EOF
