  0
SECTION
  2
HEADER
  9
$ACADVER
  1
AC1014
  9
$ACADMAINTVER
 70
         0
  9
$DWGCODEPAGE
  3
ANSI_932
  9
$INSBASE
 10
0.0
 20
0.0
 30
0.0
  9
$EXTMIN
 10
-188.378
 20
-220.0
 30
0.0
  9
$EXTMAX
 10
233.82438
 20
191.6580905316
 30
0.0
  9
$LIMMIN
 10
-188.378
 20
-220.0
  9
$LIMMAX
 10
233.82438
 20
191.6580905316
  9
$ORTHOMODE
 70
         0
  9
$REGENMODE
 70
         1
  9
$FILLMODE
 70
         1
  9
$QTEXTMODE
 70
         0
  9
$MIRRTEXT
 70
         1
  9
$DRAGMODE
 70
         2
  9
$LTSCALE
 40
1.0
  9
$OSMODE
 70
         0
  9
$ATTMODE
 70
         1
  9
$TEXTSIZE
 40
3.2000000477
  9
$TRACEWID
 40
0.05
  9
$TEXTSTYLE
  7
MX_NOTE_STANDARD
  9
$CLAYER
  8
0
  9
$CELTYPE
  6
CONTINUOUS
  9
$CECOLOR
 62
       256
  9
$CELTSCALE
 40
1.0
  9
$DELOBJ
 70
         1
  9
$DISPSILH
 70
         0
  9
$DIMSCALE
 40
1.0
  9
$DIMASZ
 40
2.5
  9
$DIMEXO
 40
0.0
  9
$DIMDLI
 40
3.75
  9
$DIMRND
 40
0.0
  9
$DIMDLE
 40
0.0
  9
$DIMEXE
 40
2.5
  9
$DIMTP
 40
0.0
  9
$DIMTM
 40
0.0
  9
$DIMTXT
 40
3.2000000477
  9
$DIMCEN
 40
2.5
  9
$DIMTSZ
 40
0.0
  9
$DIMTOL
 70
         0
  9
$DIMLIM
 70
         0
  9
$DIMTIH
 70
         0
  9
$DIMTOH
 70
         0
  9
$DIMSE1
 70
         0
  9
$DIMSE2
 70
         0
  9
$DIMTAD
 70
         1
  9
$DIMZIN
 70
         8
  9
$DIMBLK
  1

  9
$DIMASO
 70
         1
  9
$DIMSHO
 70
         1
  9
$DIMPOST
  1

  9
$DIMAPOST
  1

  9
$DIMALT
 70
         0
  9
$DIMALTD
 70
         4
  9
$DIMALTF
 40
0.0393700787
  9
$DIMLFAC
 40
1.0
  9
$DIMTOFL
 70
         1
  9
$DIMTVP
 40
0.0
  9
$DIMTIX
 70
         0
  9
$DIMSOXD
 70
         0
  9
$DIMSAH
 70
         1
  9
$DIMBLK1
  1
_OPEN30
  9
$DIMBLK2
  1
_OPEN30
  9
$DIMSTYLE
  2
MXDIMSTYLE
  9
$DIMCLRD
 70
         0
  9
$DIMCLRE
 70
         0
  9
$DIMCLRT
 70
         0
  9
$DIMTFAC
 40
1.0
  9
$DIMGAP
 40
1.0
  9
$DIMJUST
 70
         0
  9
$DIMSD1
 70
         0
  9
$DIMSD2
 70
         0
  9
$DIMTOLJ
 70
         0
  9
$DIMTZIN
 70
         0
  9
$DIMALTZ
 70
         0
  9
$DIMALTTZ
 70
         0
  9
$DIMFIT
 70
         3
  9
$DIMUPT
 70
         0
  9
$DIMUNIT
 70
         2
  9
$DIMDEC
 70
         2
  9
$DIMTDEC
 70
         2
  9
$DIMALTU
 70
         2
  9
$DIMALTTD
 70
         4
  9
$DIMTXSTY
  7
MX_NOTE_STANDARD
  9
$DIMAUNIT
 70
         0
  9
$LUNITS
 70
         2
  9
$LUPREC
 70
         4
  9
$SKETCHINC
 40
0.1
  9
$FILLETRAD
 40
0.0
  9
$AUNITS
 70
         0
  9
$AUPREC
 70
         0
  9
$MENU
  1
acad
  9
$ELEVATION
 40
0.0
  9
$PELEVATION
 40
0.0
  9
$THICKNESS
 40
0.0
  9
$LIMCHECK
 70
         0
  9
$BLIPMODE
 70
         1
  9
$CHAMFERA
 40
0.0
  9
$CHAMFERB
 40
0.0
  9
$CHAMFERC
 40
0.0
  9
$CHAMFERD
 40
0.0
  9
$SKPOLY
 70
         0
  9
$TDCREATE
 40
2456603.419293982
  9
$TDUPDATE
 40
2456603.419293982
  9
$TDINDWG
 40
0.0000000000
  9
$TDUSRTIMER
 40
0.0000000000
  9
$USRTIMER
 70
         1
  9
$ANGBASE
 50
0.0
  9
$ANGDIR
 70
         0
  9
$PDMODE
 70
         0
  9
$PDSIZE
 40
0.0
  9
$PLINEWID
 40
0.0
  9
$COORDS
 70
         1
  9
$SPLFRAME
 70
         0
  9
$SPLINETYPE
 70
         6
  9
$SPLINESEGS
 70
         8
  9
$ATTDIA
 70
         0
  9
$ATTREQ
 70
         1
  9
$HANDLING
 70
         1
  9
$HANDSEED
  5
196
  9
$SURFTAB1
 70
         6
  9
$SURFTAB2
 70
         6
  9
$SURFTYPE
 70
         6
  9
$SURFU
 70
         6
  9
$SURFV
 70
         6
  9
$UCSNAME
  2

  9
$UCSORG
 10
0.0
 20
0.0
 30
0.0
  9
$UCSXDIR
 10
1.0
 20
0.0
 30
0.0
  9
$UCSYDIR
 10
0.0
 20
1.0
 30
0.0
  9
$PUCSNAME
  2

  9
$PUCSORG
 10
0.0
 20
0.0
 30
0.0
  9
$PUCSXDIR
 10
1.0
 20
0.0
 30
0.0
  9
$PUCSYDIR
 10
0.0
 20
1.0
 30
0.0
  9
$USERI1
 70
         0
  9
$USERI2
 70
         0
  9
$USERI3
 70
         0
  9
$USERI4
 70
         0
  9
$USERI5
 70
         0
  9
$USERR1
 40
0.0
  9
$USERR2
 40
0.0
  9
$USERR3
 40
0.0
  9
$USERR4
 40
0.0
  9
$USERR5
 40
0.0
  9
$WORLDVIEW
 70
         1
  9
$SHADEDGE
 70
         3
  9
$SHADEDIF
 70
        70
  9
$TILEMODE
 70
         1
  9
$MAXACTVP
 70
        16
  9
$PINSBASE
 10
0.0
 20
0.0
 30
0.0
  9
$PLIMCHECK
 70
         0
  9
$PEXTMIN
 10
1.0000000000E+20
 20
1.0000000000E+20
 30
1.0000000000E+20
  9
$PEXTMAX
 10
-1.0000000000E+20
 20
-1.0000000000E+20
 30
-1.0000000000E+20
  9
$PLIMMIN
 10
0.0
 20
0.0
  9
$PLIMMAX
 10
12.0
 20
9.0
  9
$UNITMODE
 70
         0
  9
$VISRETAIN
 70
         0
  9
$PLINEGEN
 70
         1
  9
$PSLTSCALE
 70
         0
  9
$TREEDEPTH
 70
      3020
  9
$PICKSTYLE
 70
         1
  9
$CMLSTYLE
  2
Standard
  9
$CMLJUST
 70
         0
  9
$CMLSCALE
 40
1.0
  9
$PROXYGRAPHICS
 70
         0
  9
$MEASUREMENT
 70
         1
  0
ENDSEC
  0
SECTION
  2
CLASSES
  0
CLASS
  1
LWPOLYLINE
  2
AcDbPolyline
  3
"AutoCAD"
 90
        0
280
         0
281
         1
  0
CLASS
  1
IMAGE
  2
AcDbRasterImage
  3
ISM
 90
      127
280
         0
281
         1
  0
CLASS
  1
OLE2FRAME
  2
AcDbOle2Frame
  3
""
 90
        0
280
         0
281
         1
  0
CLASS
  1
HATCH
  2
AcDbHatch
  3
"ACAD_SEDONA"
 90
        0
280
         0
281
         1
  0
CLASS
  1
DICTIONARYVAR
  2
AcDbDictionaryVar
  3
"AutoCAD"
 90
        0
280
         0
281
         0
  0
CLASS
  1
RASTERVARIABLES
  2
AcDbRasterVariables
  3
ISM
 90
        0
280
         0
281
         0
  0
CLASS
  1
IMAGEDEF
  2
AcDbRasterImageDef
  3
ISM
 90
        0
280
         0
281
         0
  0
CLASS
  1
IMAGEDEF_REACTOR
  2
AcDbRasterImageDefReactor
  3
ISM
 90
        1
280
         0
281
         0
  0
CLASS
  1
IDBUFFER
  2
AcDbIdBuffer
  3
"Acad"
 90
        0
280
         0
281
         0
  0
CLASS
  1
SPATIAL_FILTER
  2
AcDbSpatialFilter
  3
"Acad"
 90
        0
280
         0
281
         0
  0
CLASS
  1
XRECORD
  2
AcDbXrecord
  3
"<Built In>"
 90
        0
280
         0
281
         0
  0
CLASS
  1
SORTENTSTABLE
  2
AcDbSortentsTable
  3
"AutoCAD"
 90
        0
280
         0
281
         0
  0
CLASS
  1
LAYER_INDEX
  2
AcDbLayerIndex
  3
"Acad"
 90
        0
280
         0
281
         0
  0
CLASS
  1
SPATIAL_INDEX
  2
AcDbSpatialIndex
  3
"Acad"
 90
        0
280
         0
281
         0
  0
CLASS
  1
OBJECT_PTR
  2
CAseDLPNTableRecord
  3
"ASE-LPNTableRecord"
 90
        1
280
         0
281
         0
  0
CLASS
  1
LAYOUT
  2
AcDbLayout
  3
"AutoCAD 2000"
 90
        0
280
         0
281
         0
  0
CLASS
  1
PLOTSETTINGS
  2
AcDbPlotSettings
  3
"AutoCAD 2000"
 90
        0
280
         0
281
         0
  0
CLASS
  1
ACDBDICTIONARYWDFLT
  2
AcDbDictionaryWithDefault
  3
"AutoCAD 2000"
 90
        0
280
         0
281
         0
  0
CLASS
  1
ACDBPLACEHOLDER
  2
AcDbPlaceHolder
  3
"AutoCAD 2000"
 90
        0
280
         0
281
         0
  0
ENDSEC
  0
SECTION
  2
TABLES
  0
TABLE
  2
VPORT
  5
7
100
AcDbSymbolTable
 70
         1
  0
VPORT
  5
15
100
AcDbSymbolTableRecord
100
AcDbViewportTableRecord
  2
*ACTIVE
 70
         0
 10
0.0
 20
0.0
 11
1.0
 21
1.0
 12
22.72319
 22
-14.1709547342
 13
0.0
 23
0.0
 14
1.0
 24
1.0
 15
0.0
 25
0.0
 16
0.0
 26
0.0
 36
1.0
 17
0.0
 27
0.0
 37
0.0
 40
415.7746714369
 41
1.7320508076
 42
50.0
 43
0.0
 44
0.0
 50
0.0
 51
0.0
 71
         0
 72
       100
 73
         1
 74
         1
 75
         0
 76
         0
 77
         0
 78
         0
  0
ENDTAB
  0
TABLE
  2
LTYPE
  5
4
100
AcDbSymbolTable
 70
         4
  0
LTYPE
  5
11
100
AcDbSymbolTableRecord
100
AcDbLinetypeTableRecord
  2
BYBLOCK
 70
        64
  3

 72
        65
 73
         0
 40
0.0
  0
LTYPE
  5
12
100
AcDbSymbolTableRecord
100
AcDbLinetypeTableRecord
  2
BYLAYER
 70
        64
  3

 72
        65
 73
         0
 40
0.0
  0
LTYPE
  5
13
100
AcDbSymbolTableRecord
100
AcDbLinetypeTableRecord
  2
CONTINUOUS
 70
        64
  3
Solid line
 72
        65
 73
         0
 40
0.0
  0
LTYPE
  5
2B
100
AcDbSymbolTableRecord
100
AcDbLinetypeTableRecord
  2
CENTER
 70
        64
  3
Center ____ _ ____ _ ____ _ ____ _ ____ _ ____
 72
        65
 73
         4
 40
50.8
 49
31.75
 74
         0
 49
-6.35
 74
         0
 49
6.35
 74
         0
 49
-6.35
 74
         0
  0
ENDTAB
  0
TABLE
  2
LAYER
  5
2
100
AcDbSymbolTable
 70
         3
  0
LAYER
  5
14
100
AcDbSymbolTableRecord
100
AcDbLayerTableRecord
  2
0
 70
         0
 62
         7
  6
CONTINUOUS
  0
LAYER
  5
1D
100
AcDbSymbolTableRecord
100
AcDbLayerTableRecord
  2
DEFPOINTS
 70
         0
 62
         7
  6
CONTINUOUS
  0
LAYER
  5
1E
100
AcDbSymbolTableRecord
100
AcDbLayerTableRecord
  2
PV
 70
         0
 62
         3
  6
CONTINUOUS
  0
ENDTAB
  0
TABLE
  2
STYLE
  5
3
100
AcDbSymbolTable
 70
         2
  0
STYLE
  5
17
100
AcDbSymbolTableRecord
100
AcDbTextStyleTableRecord
  2
MX_NOTE_STANDARD
 70
         0
 40
0.0
 41
1.0
 50
0.0
 71
         0
 42
3.2000000477
  3
txt.shx
  4
extfont.shx
  0
STYLE
  5
135
100
AcDbSymbolTableRecord
100
AcDbTextStyleTableRecord
  2
MX_DIMTXSTY_2
 70
         0
 40
0.0
 41
1.1
 50
0.0
 71
         0
 42
3.2000000477
  3
txt.shx
  4
extfont.shx
  0
ENDTAB
  0
TABLE
  2
VIEW
  5
5
100
AcDbSymbolTable
 70
         0
  0
ENDTAB
  0
TABLE
  2
UCS
  5
6
100
AcDbSymbolTable
 70
         0
  0
ENDTAB
  0
TABLE
  2
APPID
  5
8
100
AcDbSymbolTable
 70
         1
  0
APPID
  5
16
100
AcDbSymbolTableRecord
100
AcDbRegAppTableRecord
  2
ACAD
 70
         0
  0
ENDTAB
  0
TABLE
  2
DIMSTYLE
  5
9
100
AcDbSymbolTable
 70
         1
  0
DIMSTYLE
105
18
100
AcDbSymbolTableRecord
100
AcDbDimStyleTableRecord
  2
MXDIMSTYLE
 70
         0
  3

  4

  5

  6
_OPEN30
  7
_OPEN30
 40
1.0
 41
2.5
 42
0.0
 43
3.75
 44
2.5
 45
0.0
 46
0.0
 47
0.0
 48
0.0
 71
         0
 72
         0
 73
         0
 74
         0
 75
         0
 76
         0
 77
         1
 78
         8
140
3.2000000477
141
2.5
142
0.0
143
0.0393700787
144
1.0
145
0.0
146
1.0
147
1.0
170
         0
171
         4
172
         1
173
         1
174
         0
175
         0
176
         0
177
         0
178
         0
270
         2
271
         2
272
         2
273
         2
274
         4
275
         0
280
         0
281
         0
282
         0
283
         0
284
         0
285
         0
286
         0
287
         3
288
         0
340
17
  0
ENDTAB
  0
TABLE
  2
BLOCK_RECORD
  5
1
100
AcDbSymbolTable
 70
         9
  0
BLOCK_RECORD
  5
A
100
AcDbSymbolTableRecord
100
AcDbBlockTableRecord
  2
*MODEL_SPACE
  0
BLOCK_RECORD
  5
B
100
AcDbSymbolTableRecord
100
AcDbBlockTableRecord
  2
*PAPER_SPACE
  0
BLOCK_RECORD
  5
1F
100
AcDbSymbolTableRecord
100
AcDbBlockTableRecord
  2
ARROW
  0
BLOCK_RECORD
  5
20
100
AcDbSymbolTableRecord
100
AcDbBlockTableRecord
  2
_OPEN30
  0
BLOCK_RECORD
  5
12C
100
AcDbSymbolTableRecord
100
AcDbBlockTableRecord
  2
*D2
  0
BLOCK_RECORD
  5
13C
100
AcDbSymbolTableRecord
100
AcDbBlockTableRecord
  2
*D3
  0
BLOCK_RECORD
  5
14B
100
AcDbSymbolTableRecord
100
AcDbBlockTableRecord
  2
*D4
  0
BLOCK_RECORD
  5
15A
100
AcDbSymbolTableRecord
100
AcDbBlockTableRecord
  2
*D5
  0
BLOCK_RECORD
  5
169
100
AcDbSymbolTableRecord
100
AcDbBlockTableRecord
  2
*D6
  0
BLOCK_RECORD
  5
178
100
AcDbSymbolTableRecord
100
AcDbBlockTableRecord
  2
*D7
  0
BLOCK_RECORD
  5
187
100
AcDbSymbolTableRecord
100
AcDbBlockTableRecord
  2
*D8
  0
ENDTAB
  0
ENDSEC
  0
SECTION
  2
BLOCKS
  0
BLOCK
  5
D
100
AcDbEntity
  8
0
100
AcDbBlockBegin
  2
*MODEL_SPACE
 70
         0
 10
0.0
 20
0.0
 30
0.0
  3
*MODEL_SPACE
  1

  0
ENDBLK
  5
E
100
AcDbEntity
  8
0
100
AcDbBlockEnd
  0
BLOCK
  5
F
100
AcDbEntity
 67
         1
  8
0
100
AcDbBlockBegin
  2
*PAPER_SPACE
 70
         0
 10
0.0
 20
0.0
 30
0.0
  3
*PAPER_SPACE
  1

  0
ENDBLK
  5
10
100
AcDbEntity
 67
         1
  8
0
100
AcDbBlockEnd
  0
BLOCK
  5
26
100
AcDbEntity
  8
0
100
AcDbBlockBegin
  2
ARROW
 70
         0
 10
0.0
 20
0.0
 30
0.0
  3
ARROW
  1

  0
LWPOLYLINE
  5
27
100
AcDbEntity
  8
0
  6
CONTINUOUS
 62
       161
100
AcDbPolyline
 90
        3
 70
         0
 10
2.897883
 20
0.776485
 10
0.0
 20
0.0
 10
2.897883
 20
-0.776485
  0
ENDBLK
  5
28
100
AcDbEntity
  8
0
100
AcDbBlockEnd
  0
BLOCK
  5
21
100
AcDbEntity
  8
0
  6
ByBlock
 62
         0
100
AcDbBlockBegin
  2
_OPEN30
 70
         2
 10
0.0
 20
0.0
 30
0.0
  3
_OPEN30
  1

  0
LINE
  5
22
100
AcDbEntity
  8
0
  6
ByBlock
 62
         0
100
AcDbLine
 10
-1.0
 20
0.267949
 30
0.0
 11
0.0
 21
0.0
 31
0.0
  0
LINE
  5
23
100
AcDbEntity
  8
0
  6
ByBlock
 62
         0
100
AcDbLine
 10
0.0
 20
0.0
 30
0.0
 11
-1.0
 21
-0.267949
 31
0.0
  0
LINE
  5
24
100
AcDbEntity
  8
0
  6
ByBlock
 62
         0
100
AcDbLine
 10
0.0
 20
0.0
 30
0.0
 11
-1.0
 21
0.0
 31
0.0
  0
ENDBLK
  5
25
100
AcDbEntity
  8
0
  6
ByBlock
 62
         0
100
AcDbBlockEnd
  0
BLOCK
  5
12D
100
AcDbEntity
  8
0
  6
ByBlock
 62
         0
100
AcDbBlockBegin
  2
*D2
 70
         1
 10
0.0
 20
0.0
 30
0.0
  3
*D2
  1

  0
LINE
  5
12E
100
AcDbEntity
  8
0
  6
CONTINUOUS
 62
        80
100
AcDbLine
 10
67.98853
 20
-21.25
 30
0.0
 11
67.98853
 21
121.25
 31
0.0
  0
LINE
  5
12F
100
AcDbEntity
  8
0
  6
CONTINUOUS
 62
        80
100
AcDbLine
 10
83.0
 20
-21.25
 30
0.0
 11
65.98853
 21
-21.25
 31
0.0
  0
LINE
  5
130
100
AcDbEntity
  8
0
  6
CONTINUOUS
 62
        80
100
AcDbLine
 10
83.0
 20
121.25
 30
0.0
 11
65.98853
 21
121.25
 31
0.0
  0
LINE
  5
131
100
AcDbEntity
  8
0
  6
CONTINUOUS
 62
        80
100
AcDbLine
 10
67.98853
 20
-21.25
 30
0.0
 11
67.98853
 21
-25.25
 31
0.0
  0
LINE
  5
132
100
AcDbEntity
  8
0
  6
CONTINUOUS
 62
        80
100
AcDbLine
 10
67.98853
 20
121.25
 30
0.0
 11
67.98853
 21
125.25
 31
0.0
  0
SOLID
  5
133
100
AcDbEntity
  8
0
  6
CONTINUOUS
 62
        80
100
AcDbTrace
 10
67.821862995
 20
-22.2500000298
 30
0.0
 11
68.155197005
 21
-22.2500000298
 31
0.0
 12
67.98853
 22
-21.25
 32
0.0
 13
67.98853
 23
-21.25
 33
0.0
  0
SOLID
  5
134
100
AcDbEntity
  8
0
  6
CONTINUOUS
 62
        80
100
AcDbTrace
 10
68.155197005
 20
122.2500000298
 30
0.0
 11
67.821862995
 21
122.2500000298
 31
0.0
 12
67.98853
 22
121.25
 32
0.0
 13
67.98853
 23
121.25
 33
0.0
  0
MTEXT
  5
136
100
AcDbEntity
  8
0
  6
CONTINUOUS
 62
        80
100
AcDbMText
 10
65.3885299762
 20
48.8083343506
 30
0.0
 40
3.2000000477
 41
0.0
 71
         5
 72
         1
  1
\A1;\U+2205142.5
  7
MX_DIMTXSTY_2
 11
0.0
 21
1.0
 31
0.0
  0
POINT
  5
137
100
AcDbEntity
  8
DEFPOINTS
  6
CONTINUOUS
 62
         0
100
AcDbPoint
 10
83.0
 20
-21.25
 30
0.0
  0
POINT
  5
138
100
AcDbEntity
  8
DEFPOINTS
  6
CONTINUOUS
 62
         0
100
AcDbPoint
 10
83.0
 20
121.25
 30
0.0
  0
POINT
  5
139
100
AcDbEntity
  8
DEFPOINTS
  6
CONTINUOUS
 62
         0
100
AcDbPoint
 10
67.98853
 20
121.25
 30
0.0
  0
ENDBLK
  5
13A
100
AcDbEntity
  8
0
  6
ByBlock
 62
         0
100
AcDbBlockEnd
  0
BLOCK
  5
13D
100
AcDbEntity
  8
0
  6
ByBlock
 62
         0
100
AcDbBlockBegin
  2
*D3
 70
         1
 10
0.0
 20
0.0
 30
0.0
  3
*D3
  1

  0
LINE
  5
13E
100
AcDbEntity
  8
0
  6
CONTINUOUS
 62
        80
100
AcDbLine
 10
156.851798
 20
110.0
 30
0.0
 11
156.851798
 21
-10.0
 31
0.0
  0
LINE
  5
13F
100
AcDbEntity
  8
0
  6
CONTINUOUS
 62
        80
100
AcDbLine
 10
130.999999
 20
110.0
 30
0.0
 11
158.851798
 21
110.0
 31
0.0
  0
LINE
  5
140
100
AcDbEntity
  8
0
  6
CONTINUOUS
 62
        80
100
AcDbLine
 10
130.999999
 20
-10.0
 30
0.0
 11
158.851798
 21
-10.0
 31
0.0
  0
LINE
  5
141
100
AcDbEntity
  8
0
  6
CONTINUOUS
 62
        80
100
AcDbLine
 10
156.851798
 20
110.0
 30
0.0
 11
156.851798
 21
114.0
 31
0.0
  0
LINE
  5
142
100
AcDbEntity
  8
0
  6
CONTINUOUS
 62
        80
100
AcDbLine
 10
156.851798
 20
-10.0
 30
0.0
 11
156.851798
 21
-14.0
 31
0.0
  0
SOLID
  5
143
100
AcDbEntity
  8
0
  6
CONTINUOUS
 62
        80
100
AcDbTrace
 10
157.018465005
 20
111.0000000298
 30
0.0
 11
156.685130995
 21
111.0000000298
 31
0.0
 12
156.851798
 22
110.0
 32
0.0
 13
156.851798
 23
110.0
 33
0.0
  0
SOLID
  5
144
100
AcDbEntity
  8
0
  6
CONTINUOUS
 62
        80
100
AcDbTrace
 10
156.685130995
 20
-11.0000000298
 30
0.0
 11
157.018465005
 21
-11.0000000298
 31
0.0
 12
156.851798
 22
-10.0
 32
0.0
 13
156.851798
 23
-10.0
 33
0.0
  0
MTEXT
  5
145
100
AcDbEntity
  8
0
  6
CONTINUOUS
 62
        80
100
AcDbMText
 10
154.2517979762
 20
49.0083312988
 30
0.0
 40
3.2000000477
 41
0.0
 71
         5
 72
         1
  1
\A1;\U+2205120
 11
0.0
 21
1.0
 31
0.0
  0
POINT
  5
146
100
AcDbEntity
  8
DEFPOINTS
  6
CONTINUOUS
 62
         0
100
AcDbPoint
 10
130.999999
 20
110.0
 30
0.0
  0
POINT
  5
147
100
AcDbEntity
  8
DEFPOINTS
  6
CONTINUOUS
 62
         0
100
AcDbPoint
 10
130.999999
 20
-10.0
 30
0.0
  0
POINT
  5
148
100
AcDbEntity
  8
DEFPOINTS
  6
CONTINUOUS
 62
         0
100
AcDbPoint
 10
156.851798
 20
-10.0
 30
0.0
  0
ENDBLK
  5
149
100
AcDbEntity
  8
0
  6
ByBlock
 62
         0
100
AcDbBlockEnd
  0
BLOCK
  5
14C
100
AcDbEntity
  8
0
  6
ByBlock
 62
         0
100
AcDbBlockBegin
  2
*D4
 70
         1
 10
0.0
 20
0.0
 30
0.0
  3
*D4
  1

  0
LINE
  5
14D
100
AcDbEntity
  8
0
  6
CONTINUOUS
 62
        80
100
AcDbLine
 10
178.975434
 20
132.5
 30
0.0
 11
178.975434
 21
-32.5
 31
0.0
  0
LINE
  5
14E
100
AcDbEntity
  8
0
  6
CONTINUOUS
 62
        80
100
AcDbLine
 10
131.000001
 20
132.5
 30
0.0
 11
180.975434
 21
132.5
 31
0.0
  0
LINE
  5
14F
100
AcDbEntity
  8
0
  6
CONTINUOUS
 62
        80
100
AcDbLine
 10
131.000001
 20
-32.5
 30
0.0
 11
180.975434
 21
-32.5
 31
0.0
  0
LINE
  5
150
100
AcDbEntity
  8
0
  6
CONTINUOUS
 62
        80
100
AcDbLine
 10
178.975434
 20
132.5
 30
0.0
 11
178.975434
 21
136.5
 31
0.0
  0
LINE
  5
151
100
AcDbEntity
  8
0
  6
CONTINUOUS
 62
        80
100
AcDbLine
 10
178.975434
 20
-32.5
 30
0.0
 11
178.975434
 21
-36.5
 31
0.0
  0
SOLID
  5
152
100
AcDbEntity
  8
0
  6
CONTINUOUS
 62
        80
100
AcDbTrace
 10
179.142101005
 20
133.5000000298
 30
0.0
 11
178.808766995
 21
133.5000000298
 31
0.0
 12
178.975434
 22
132.5
 32
0.0
 13
178.975434
 23
132.5
 33
0.0
  0
SOLID
  5
153
100
AcDbEntity
  8
0
  6
CONTINUOUS
 62
        80
100
AcDbTrace
 10
178.808766995
 20
-33.5000000298
 30
0.0
 11
179.142101005
 21
-33.5000000298
 31
0.0
 12
178.975434
 22
-32.5
 32
0.0
 13
178.975434
 23
-32.5
 33
0.0
  0
MTEXT
  5
154
100
AcDbEntity
  8
0
  6
CONTINUOUS
 62
        80
100
AcDbMText
 10
176.3754339762
 20
49.0083312988
 30
0.0
 40
3.2000000477
 41
0.0
 71
         5
 72
         1
  1
\A1;\U+2205165
 11
0.0
 21
1.0
 31
0.0
  0
POINT
  5
155
100
AcDbEntity
  8
DEFPOINTS
  6
CONTINUOUS
 62
         0
100
AcDbPoint
 10
131.000001
 20
132.5
 30
0.0
  0
POINT
  5
156
100
AcDbEntity
  8
DEFPOINTS
  6
CONTINUOUS
 62
         0
100
AcDbPoint
 10
131.000001
 20
-32.5
 30
0.0
  0
POINT
  5
157
100
AcDbEntity
  8
DEFPOINTS
  6
CONTINUOUS
 62
         0
100
AcDbPoint
 10
178.975434
 20
-32.5
 30
0.0
  0
ENDBLK
  5
158
100
AcDbEntity
  8
0
  6
ByBlock
 62
         0
100
AcDbBlockEnd
  0
BLOCK
  5
15B
100
AcDbEntity
  8
0
  6
ByBlock
 62
         0
100
AcDbBlockBegin
  2
*D5
 70
         1
 10
0.0
 20
0.0
 30
0.0
  3
*D5
  1

  0
LINE
  5
15C
100
AcDbEntity
  8
0
  6
CONTINUOUS
 62
        80
100
AcDbLine
 10
102.0
 20
158.368153
 30
0.0
 11
131.0
 21
158.368153
 31
0.0
  0
LINE
  5
15D
100
AcDbEntity
  8
0
  6
CONTINUOUS
 62
        80
100
AcDbLine
 10
102.0
 20
132.5
 30
0.0
 11
102.0
 21
160.368153
 31
0.0
  0
LINE
  5
15E
100
AcDbEntity
  8
0
  6
CONTINUOUS
 62
        80
100
AcDbLine
 10
131.0
 20
132.5
 30
0.0
 11
131.0
 21
160.368153
 31
0.0
  0
LINE
  5
15F
100
AcDbEntity
  8
0
  6
CONTINUOUS
 62
        80
100
AcDbLine
 10
102.0
 20
158.368153
 30
0.0
 11
98.0
 21
158.368153
 31
0.0
  0
LINE
  5
160
100
AcDbEntity
  8
0
  6
CONTINUOUS
 62
        80
100
AcDbLine
 10
131.0
 20
158.368153
 30
0.0
 11
135.0
 21
158.368153
 31
0.0
  0
SOLID
  5
161
100
AcDbEntity
  8
0
  6
CONTINUOUS
 62
        80
100
AcDbTrace
 10
100.9999999702
 20
158.534820005
 30
0.0
 11
100.9999999702
 21
158.201485995
 31
0.0
 12
102.0
 22
158.368153
 32
0.0
 13
102.0
 23
158.368153
 33
0.0
  0
SOLID
  5
162
100
AcDbEntity
  8
0
  6
CONTINUOUS
 62
        80
100
AcDbTrace
 10
132.0000000298
 20
158.201485995
 30
0.0
 11
132.0000000298
 21
158.534820005
 31
0.0
 12
131.0
 22
158.368153
 32
0.0
 13
131.0
 23
158.368153
 33
0.0
  0
MTEXT
  5
163
100
AcDbEntity
  8
0
  6
CONTINUOUS
 62
        80
100
AcDbMText
 10
115.7083330154
 20
160.9681530238
 30
0.0
 40
3.2000000477
 41
0.0
 71
         5
 72
         1
  1
\A1;29
  0
POINT
  5
164
100
AcDbEntity
  8
DEFPOINTS
  6
CONTINUOUS
 62
         0
100
AcDbPoint
 10
102.0
 20
132.5
 30
0.0
  0
POINT
  5
165
100
AcDbEntity
  8
DEFPOINTS
  6
CONTINUOUS
 62
         0
100
AcDbPoint
 10
131.0
 20
132.5
 30
0.0
  0
POINT
  5
166
100
AcDbEntity
  8
DEFPOINTS
  6
CONTINUOUS
 62
         0
100
AcDbPoint
 10
131.0
 20
158.368153
 30
0.0
  0
ENDBLK
  5
167
100
AcDbEntity
  8
0
  6
ByBlock
 62
         0
100
AcDbBlockEnd
  0
BLOCK
  5
16A
100
AcDbEntity
  8
0
  6
ByBlock
 62
         0
100
AcDbBlockBegin
  2
*D6
 70
         1
 10
0.0
 20
0.0
 30
0.0
  3
*D6
  1

  0
LINE
  5
16B
100
AcDbEntity
  8
0
  6
CONTINUOUS
 62
        80
100
AcDbLine
 10
100.0
 20
170.536152
 30
0.0
 11
133.0
 21
170.536152
 31
0.0
  0
LINE
  5
16C
100
AcDbEntity
  8
0
  6
CONTINUOUS
 62
        80
100
AcDbLine
 10
100.0
 20
131.099999
 30
0.0
 11
100.0
 21
172.536152
 31
0.0
  0
LINE
  5
16D
100
AcDbEntity
  8
0
  6
CONTINUOUS
 62
        80
100
AcDbLine
 10
133.0
 20
131.099999
 30
0.0
 11
133.0
 21
172.536152
 31
0.0
  0
LINE
  5
16E
100
AcDbEntity
  8
0
  6
CONTINUOUS
 62
        80
100
AcDbLine
 10
100.0
 20
170.536152
 30
0.0
 11
96.0
 21
170.536152
 31
0.0
  0
LINE
  5
16F
100
AcDbEntity
  8
0
  6
CONTINUOUS
 62
        80
100
AcDbLine
 10
133.0
 20
170.536152
 30
0.0
 11
137.0
 21
170.536152
 31
0.0
  0
SOLID
  5
170
100
AcDbEntity
  8
0
  6
CONTINUOUS
 62
        80
100
AcDbTrace
 10
98.9999999702
 20
170.702819005
 30
0.0
 11
98.9999999702
 21
170.369484995
 31
0.0
 12
100.0
 22
170.536152
 32
0.0
 13
100.0
 23
170.536152
 33
0.0
  0
SOLID
  5
171
100
AcDbEntity
  8
0
  6
CONTINUOUS
 62
        80
100
AcDbTrace
 10
134.0000000298
 20
170.369484995
 30
0.0
 11
134.0000000298
 21
170.702819005
 31
0.0
 12
133.0
 22
170.536152
 32
0.0
 13
133.0
 23
170.536152
 33
0.0
  0
MTEXT
  5
172
100
AcDbEntity
  8
0
  6
CONTINUOUS
 62
        80
100
AcDbMText
 10
115.7083320618
 20
173.1361520238
 30
0.0
 40
3.2000000477
 41
0.0
 71
         5
 72
         1
  1
\A1;33
  0
POINT
  5
173
100
AcDbEntity
  8
DEFPOINTS
  6
CONTINUOUS
 62
         0
100
AcDbPoint
 10
100.0
 20
131.099999
 30
0.0
  0
POINT
  5
174
100
AcDbEntity
  8
DEFPOINTS
  6
CONTINUOUS
 62
         0
100
AcDbPoint
 10
133.0
 20
131.099999
 30
0.0
  0
POINT
  5
175
100
AcDbEntity
  8
DEFPOINTS
  6
CONTINUOUS
 62
         0
100
AcDbPoint
 10
133.0
 20
170.536152
 30
0.0
  0
ENDBLK
  5
176
100
AcDbEntity
  8
0
  6
ByBlock
 62
         0
100
AcDbBlockEnd
  0
BLOCK
  5
179
100
AcDbEntity
  8
0
  6
ByBlock
 62
         0
100
AcDbBlockBegin
  2
*D7
 70
         1
 10
0.0
 20
0.0
 30
0.0
  3
*D7
  1

  0
LINE
  5
17A
100
AcDbEntity
  8
0
  6
CONTINUOUS
 62
        80
100
AcDbLine
 10
88.0
 20
170.536152
 30
0.0
 11
100.0
 21
170.536152
 31
0.0
  0
LINE
  5
17B
100
AcDbEntity
  8
0
  6
CONTINUOUS
 62
        80
100
AcDbLine
 10
88.0
 20
129.037998
 30
0.0
 11
88.0
 21
172.536152
 31
0.0
  0
LINE
  5
17C
100
AcDbEntity
  8
0
  6
CONTINUOUS
 62
        80
100
AcDbLine
 10
100.0
 20
131.099999
 30
0.0
 11
100.0
 21
172.536152
 31
0.0
  0
LINE
  5
17D
100
AcDbEntity
  8
0
  6
CONTINUOUS
 62
        80
100
AcDbLine
 10
88.0
 20
170.536152
 30
0.0
 11
84.0
 21
170.536152
 31
0.0
  0
LINE
  5
17E
100
AcDbEntity
  8
0
  6
CONTINUOUS
 62
        80
100
AcDbLine
 10
100.0
 20
170.536152
 30
0.0
 11
104.0
 21
170.536152
 31
0.0
  0
SOLID
  5
17F
100
AcDbEntity
  8
0
  6
CONTINUOUS
 62
        80
100
AcDbTrace
 10
86.9999999702
 20
170.702819005
 30
0.0
 11
86.9999999702
 21
170.369484995
 31
0.0
 12
88.0
 22
170.536152
 32
0.0
 13
88.0
 23
170.536152
 33
0.0
  0
SOLID
  5
180
100
AcDbEntity
  8
0
  6
CONTINUOUS
 62
        80
100
AcDbTrace
 10
101.0000000298
 20
170.369484995
 30
0.0
 11
101.0000000298
 21
170.702819005
 31
0.0
 12
100.0
 22
170.536152
 32
0.0
 13
100.0
 23
170.536152
 33
0.0
  0
MTEXT
  5
181
100
AcDbEntity
  8
0
  6
CONTINUOUS
 62
        80
100
AcDbMText
 10
93.2083330154
 20
173.1361520238
 30
0.0
 40
3.2000000477
 41
0.0
 71
         5
 72
         1
  1
\A1;12
  7
MX_DIMTXSTY_2
  0
POINT
  5
182
100
AcDbEntity
  8
DEFPOINTS
  6
CONTINUOUS
 62
         0
100
AcDbPoint
 10
88.0
 20
129.037998
 30
0.0
  0
POINT
  5
183
100
AcDbEntity
  8
DEFPOINTS
  6
CONTINUOUS
 62
         0
100
AcDbPoint
 10
100.0
 20
131.099999
 30
0.0
  0
POINT
  5
184
100
AcDbEntity
  8
DEFPOINTS
  6
CONTINUOUS
 62
         0
100
AcDbPoint
 10
100.0
 20
170.536152
 30
0.0
  0
ENDBLK
  5
185
100
AcDbEntity
  8
0
  6
ByBlock
 62
         0
100
AcDbBlockEnd
  0
BLOCK
  5
188
100
AcDbEntity
  8
0
  6
ByBlock
 62
         0
100
AcDbBlockBegin
  2
*D8
 70
         1
 10
0.0
 20
0.0
 30
0.0
  3
*D8
  1

  0
LINE
  5
189
100
AcDbEntity
  8
0
  6
CONTINUOUS
 62
        80
100
AcDbLine
 10
88.0
 20
186.391424
 30
0.0
 11
133.0
 21
186.391424
 31
0.0
  0
LINE
  5
18A
100
AcDbEntity
  8
0
  6
CONTINUOUS
 62
        80
100
AcDbLine
 10
88.0
 20
129.038
 30
0.0
 11
88.0
 21
188.391424
 31
0.0
  0
LINE
  5
18B
100
AcDbEntity
  8
0
  6
CONTINUOUS
 62
        80
100
AcDbLine
 10
133.0
 20
131.1
 30
0.0
 11
133.0
 21
188.391424
 31
0.0
  0
LINE
  5
18C
100
AcDbEntity
  8
0
  6
CONTINUOUS
 62
        80
100
AcDbLine
 10
88.0
 20
186.391424
 30
0.0
 11
84.0
 21
186.391424
 31
0.0
  0
LINE
  5
18D
100
AcDbEntity
  8
0
  6
CONTINUOUS
 62
        80
100
AcDbLine
 10
133.0
 20
186.391424
 30
0.0
 11
137.0
 21
186.391424
 31
0.0
  0
SOLID
  5
18E
100
AcDbEntity
  8
0
  6
CONTINUOUS
 62
        80
100
AcDbTrace
 10
86.9999999702
 20
186.558091005
 30
0.0
 11
86.9999999702
 21
186.224756995
 31
0.0
 12
88.0
 22
186.391424
 32
0.0
 13
88.0
 23
186.391424
 33
0.0
  0
SOLID
  5
18F
100
AcDbEntity
  8
0
  6
CONTINUOUS
 62
        80
100
AcDbTrace
 10
134.0000000298
 20
186.224756995
 30
0.0
 11
134.0000000298
 21
186.558091005
 31
0.0
 12
133.0
 22
186.391424
 32
0.0
 13
133.0
 23
186.391424
 33
0.0
  0
MTEXT
  5
190
100
AcDbEntity
  8
0
  6
CONTINUOUS
 62
        80
100
AcDbMText
 10
109.7083320618
 20
188.9914240238
 30
0.0
 40
3.2000000477
 41
0.0
 71
         5
 72
         1
  1
\A1;45
  0
POINT
  5
191
100
AcDbEntity
  8
DEFPOINTS
  6
CONTINUOUS
 62
         0
100
AcDbPoint
 10
88.0
 20
129.038
 30
0.0
  0
POINT
  5
192
100
AcDbEntity
  8
DEFPOINTS
  6
CONTINUOUS
 62
         0
100
AcDbPoint
 10
133.0
 20
131.1
 30
0.0
  0
POINT
  5
193
100
AcDbEntity
  8
DEFPOINTS
  6
CONTINUOUS
 62
         0
100
AcDbPoint
 10
133.0
 20
186.391424
 30
0.0
  0
ENDBLK
  5
194
100
AcDbEntity
  8
0
  6
ByBlock
 62
         0
100
AcDbBlockEnd
  0
ENDSEC
  0
SECTION
  2
ENTITIES
  0
MTEXT
  5
29
100
AcDbEntity
  8
0
  6
CONTINUOUS
 62
       110
100
AcDbMText
 10
-39.0559744746
 20
-52.7419997616
 30
0.0
 40
6.4000000954
 41
0.0
 71
         1
 72
         1
  1
\T1.065;\W1.018;\A1;TSUBAKI
  0
MTEXT
  5
2A
100
AcDbEntity
  8
0
  6
CONTINUOUS
 62
       110
100
AcDbMText
 10
-67.2079744746
 20
-103.2939997616
 30
0.0
 40
6.4000000954
 41
0.0
 71
         1
 72
         1
  1
\T1.065;\W1.018;\A1;TSUBAKI
  0
LINE
  5
2C
100
AcDbEntity
  8
PV
  6
CENTER
 62
         3
100
AcDbLine
 10
-188.378
 20
50.0
 30
0.0
 11
-13.227
 21
50.0
 31
0.0
  0
LINE
  5
2D
100
AcDbEntity
  8
PV
  6
CENTER
 62
         3
100
AcDbLine
 10
-111.635
 20
-4.737
 30
0.0
 11
-118.263
 21
-35.922
 31
0.0
  0
LINE
  5
2E
100
AcDbEntity
  8
PV
  6
CENTER
 62
         3
100
AcDbLine
 10
-88.365
 20
-4.737
 30
0.0
 11
-81.737
 21
-35.923
 31
0.0
  0
LINE
  5
2F
100
AcDbEntity
  8
PV
  6
CENTER
 62
         3
100
AcDbLine
 10
-67.107
 20
4.727
 30
0.0
 11
-48.368
 21
-21.066
 31
0.0
  0
LINE
  5
30
100
AcDbEntity
  8
PV
  6
CENTER
 62
         3
100
AcDbLine
 10
-51.537
 20
22.02
 30
0.0
 11
-23.927
 21
6.079
 31
0.0
  0
LINE
  5
31
100
AcDbEntity
  8
PV
  6
CENTER
 62
         3
100
AcDbLine
 10
-44.347
 20
44.15
 30
0.0
 11
-12.639
 21
40.818
 31
0.0
  0
LINE
  5
32
100
AcDbEntity
  8
PV
  6
CENTER
 62
         3
100
AcDbLine
 10
-46.779
 20
67.292
 30
0.0
 11
-16.458
 21
77.144
 31
0.0
  0
LINE
  5
33
100
AcDbEntity
  8
PV
  6
CENTER
 62
         3
100
AcDbLine
 10
-58.414
 20
87.444
 30
0.0
 11
-34.721
 21
108.777
 31
0.0
  0
LINE
  5
34
100
AcDbEntity
  8
PV
  6
CENTER
 62
         3
100
AcDbLine
 10
-77.239
 20
101.122
 30
0.0
 11
-64.272
 21
130.247
 31
0.0
  0
LINE
  5
35
100
AcDbEntity
  8
PV
  6
CENTER
 62
         3
100
AcDbLine
 10
-100.0
 20
-46.552
 30
0.0
 11
-100.0
 21
137.841
 31
0.0
  0
LINE
  5
36
100
AcDbEntity
  8
PV
  6
CENTER
 62
         3
100
AcDbLine
 10
-122.761
 20
101.121
 30
0.0
 11
-135.728
 21
130.247
 31
0.0
  0
LINE
  5
37
100
AcDbEntity
  8
PV
  6
CENTER
 62
         3
100
AcDbLine
 10
-141.586
 20
87.444
 30
0.0
 11
-165.279
 21
108.777
 31
0.0
  0
LINE
  5
38
100
AcDbEntity
  8
PV
  6
CENTER
 62
         3
100
AcDbLine
 10
-153.221
 20
67.292
 30
0.0
 11
-183.543
 21
77.144
 31
0.0
  0
LINE
  5
39
100
AcDbEntity
  8
PV
  6
CENTER
 62
         3
100
AcDbLine
 10
-155.653
 20
44.15
 30
0.0
 11
-187.36
 21
40.818
 31
0.0
  0
LINE
  5
3A
100
AcDbEntity
  8
PV
  6
CENTER
 62
         3
100
AcDbLine
 10
-148.463
 20
22.02
 30
0.0
 11
-176.073
 21
6.079
 31
0.0
  0
LINE
  5
3B
100
AcDbEntity
  8
PV
  6
CENTER
 62
         3
100
AcDbLine
 10
-132.892
 20
4.727
 30
0.0
 11
-151.632
 21
-21.066
 31
0.0
  0
LINE
  5
3C
100
AcDbEntity
  8
PV
  6
CONTINUOUS
 62
         3
100
AcDbLine
 10
-100.0
 20
127.023
 30
0.0
 11
-95.0
 21
124.136
 31
0.0
  0
LINE
  5
3D
100
AcDbEntity
  8
PV
  6
CONTINUOUS
 62
         3
100
AcDbLine
 10
-100.0
 20
127.023
 30
0.0
 11
-105.0
 21
124.136
 31
0.0
  0
LINE
  5
3E
100
AcDbEntity
  8
PV
  6
CONTINUOUS
 62
         3
100
AcDbLine
 10
-100.0
 20
115.476
 30
0.0
 11
-105.0
 21
118.363
 31
0.0
  0
LINE
  5
3F
100
AcDbEntity
  8
PV
  6
CONTINUOUS
 62
         3
100
AcDbLine
 10
-100.0
 20
115.476
 30
0.0
 11
-95.0
 21
118.363
 31
0.0
  0
LINE
  5
40
100
AcDbEntity
  8
PV
  6
CONTINUOUS
 62
         3
100
AcDbLine
 10
-95.0
 20
124.137
 30
0.0
 11
-95.0
 21
118.363
 31
0.0
  0
LINE
  5
41
100
AcDbEntity
  8
PV
  6
CONTINUOUS
 62
         3
100
AcDbLine
 10
-105.0
 20
124.137
 30
0.0
 11
-105.0
 21
118.363
 31
0.0
  0
LINE
  5
42
100
AcDbEntity
  8
PV
  6
CONTINUOUS
 62
         3
100
AcDbLine
 10
-128.98
 20
120.863
 30
0.0
 11
-123.98
 21
117.977
 31
0.0
  0
LINE
  5
43
100
AcDbEntity
  8
PV
  6
CONTINUOUS
 62
         3
100
AcDbLine
 10
-128.98
 20
120.863
 30
0.0
 11
-133.98
 21
117.977
 31
0.0
  0
LINE
  5
44
100
AcDbEntity
  8
PV
  6
CONTINUOUS
 62
         3
100
AcDbLine
 10
-128.98
 20
109.317
 30
0.0
 11
-133.98
 21
112.203
 31
0.0
  0
LINE
  5
45
100
AcDbEntity
  8
PV
  6
CONTINUOUS
 62
         3
100
AcDbLine
 10
-128.98
 20
109.316
 30
0.0
 11
-123.98
 21
112.203
 31
0.0
  0
LINE
  5
46
100
AcDbEntity
  8
PV
  6
CONTINUOUS
 62
         3
100
AcDbLine
 10
-123.98
 20
117.977
 30
0.0
 11
-123.98
 21
112.203
 31
0.0
  0
LINE
  5
47
100
AcDbEntity
  8
PV
  6
CONTINUOUS
 62
         3
100
AcDbLine
 10
-133.98
 20
117.977
 30
0.0
 11
-133.98
 21
112.203
 31
0.0
  0
LINE
  5
48
100
AcDbEntity
  8
PV
  6
CONTINUOUS
 62
         3
100
AcDbLine
 10
-71.02
 20
120.864
 30
0.0
 11
-66.02
 21
117.977
 31
0.0
  0
LINE
  5
49
100
AcDbEntity
  8
PV
  6
CONTINUOUS
 62
         3
100
AcDbLine
 10
-71.02
 20
120.863
 30
0.0
 11
-76.02
 21
117.977
 31
0.0
  0
LINE
  5
4A
100
AcDbEntity
  8
PV
  6
CONTINUOUS
 62
         3
100
AcDbLine
 10
-71.02
 20
109.317
 30
0.0
 11
-76.02
 21
112.203
 31
0.0
  0
LINE
  5
4B
100
AcDbEntity
  8
PV
  6
CONTINUOUS
 62
         3
100
AcDbLine
 10
-71.02
 20
109.316
 30
0.0
 11
-66.02
 21
112.203
 31
0.0
  0
LINE
  5
4C
100
AcDbEntity
  8
PV
  6
CONTINUOUS
 62
         3
100
AcDbLine
 10
-66.02
 20
117.977
 30
0.0
 11
-66.02
 21
112.203
 31
0.0
  0
LINE
  5
4D
100
AcDbEntity
  8
PV
  6
CONTINUOUS
 62
         3
100
AcDbLine
 10
-76.02
 20
117.977
 30
0.0
 11
-76.02
 21
112.203
 31
0.0
  0
LINE
  5
4E
100
AcDbEntity
  8
PV
  6
CONTINUOUS
 62
         3
100
AcDbLine
 10
-47.051
 20
103.449
 30
0.0
 11
-42.051
 21
100.562
 31
0.0
  0
LINE
  5
4F
100
AcDbEntity
  8
PV
  6
CONTINUOUS
 62
         3
100
AcDbLine
 10
-47.051
 20
103.449
 30
0.0
 11
-52.051
 21
100.562
 31
0.0
  0
LINE
  5
50
100
AcDbEntity
  8
PV
  6
CONTINUOUS
 62
         3
100
AcDbLine
 10
-47.051
 20
91.902
 30
0.0
 11
-52.051
 21
94.789
 31
0.0
  0
LINE
  5
51
100
AcDbEntity
  8
PV
  6
CONTINUOUS
 62
         3
100
AcDbLine
 10
-47.051
 20
91.902
 30
0.0
 11
-42.051
 21
94.789
 31
0.0
  0
LINE
  5
52
100
AcDbEntity
  8
PV
  6
CONTINUOUS
 62
         3
100
AcDbLine
 10
-42.051
 20
100.562
 30
0.0
 11
-42.051
 21
94.789
 31
0.0
  0
LINE
  5
53
100
AcDbEntity
  8
PV
  6
CONTINUOUS
 62
         3
100
AcDbLine
 10
-52.051
 20
100.562
 30
0.0
 11
-52.051
 21
94.789
 31
0.0
  0
LINE
  5
54
100
AcDbEntity
  8
PV
  6
CONTINUOUS
 62
         3
100
AcDbLine
 10
-29.141
 20
48.326
 30
0.0
 11
-24.14
 21
45.439
 31
0.0
  0
LINE
  5
55
100
AcDbEntity
  8
PV
  6
CONTINUOUS
 62
         3
100
AcDbLine
 10
-29.141
 20
48.326
 30
0.0
 11
-34.141
 21
45.439
 31
0.0
  0
LINE
  5
56
100
AcDbEntity
  8
PV
  6
CONTINUOUS
 62
         3
100
AcDbLine
 10
-29.14
 20
36.779
 30
0.0
 11
-34.141
 21
39.665
 31
0.0
  0
LINE
  5
57
100
AcDbEntity
  8
PV
  6
CONTINUOUS
 62
         3
100
AcDbLine
 10
-29.141
 20
36.779
 30
0.0
 11
-24.141
 21
39.665
 31
0.0
  0
LINE
  5
58
100
AcDbEntity
  8
PV
  6
CONTINUOUS
 62
         3
100
AcDbLine
 10
-24.141
 20
45.439
 30
0.0
 11
-24.141
 21
39.665
 31
0.0
  0
LINE
  5
59
100
AcDbEntity
  8
PV
  6
CONTINUOUS
 62
         3
100
AcDbLine
 10
-34.141
 20
45.439
 30
0.0
 11
-34.141
 21
39.665
 31
0.0
  0
LINE
  5
5A
100
AcDbEntity
  8
PV
  6
CONTINUOUS
 62
         3
100
AcDbLine
 10
-38.296
 20
20.148
 30
0.0
 11
-33.296
 21
17.262
 31
0.0
  0
LINE
  5
5B
100
AcDbEntity
  8
PV
  6
CONTINUOUS
 62
         3
100
AcDbLine
 10
-38.296
 20
20.148
 30
0.0
 11
-43.296
 21
17.262
 31
0.0
  0
LINE
  5
5C
100
AcDbEntity
  8
PV
  6
CONTINUOUS
 62
         3
100
AcDbLine
 10
-38.296
 20
8.601
 30
0.0
 11
-43.296
 21
11.488
 31
0.0
  0
LINE
  5
5D
100
AcDbEntity
  8
PV
  6
CONTINUOUS
 62
         3
100
AcDbLine
 10
-38.296
 20
8.601
 30
0.0
 11
-33.296
 21
11.488
 31
0.0
  0
LINE
  5
5E
100
AcDbEntity
  8
PV
  6
CONTINUOUS
 62
         3
100
AcDbLine
 10
-33.296
 20
17.262
 30
0.0
 11
-33.296
 21
11.488
 31
0.0
  0
LINE
  5
5F
100
AcDbEntity
  8
PV
  6
CONTINUOUS
 62
         3
100
AcDbLine
 10
-43.296
 20
17.262
 30
0.0
 11
-43.296
 21
11.488
 31
0.0
  0
LINE
  5
60
100
AcDbEntity
  8
PV
  6
CONTINUOUS
 62
         3
100
AcDbLine
 10
-58.12
 20
-1.869
 30
0.0
 11
-53.12
 21
-4.756
 31
0.0
  0
LINE
  5
61
100
AcDbEntity
  8
PV
  6
CONTINUOUS
 62
         3
100
AcDbLine
 10
-58.12
 20
-1.869
 30
0.0
 11
-63.12
 21
-4.756
 31
0.0
  0
LINE
  5
62
100
AcDbEntity
  8
PV
  6
CONTINUOUS
 62
         3
100
AcDbLine
 10
-58.12
 20
-13.416
 30
0.0
 11
-63.12
 21
-10.529
 31
0.0
  0
LINE
  5
63
100
AcDbEntity
  8
PV
  6
CONTINUOUS
 62
         3
100
AcDbLine
 10
-58.12
 20
-13.416
 30
0.0
 11
-53.12
 21
-10.529
 31
0.0
  0
LINE
  5
64
100
AcDbEntity
  8
PV
  6
CONTINUOUS
 62
         3
100
AcDbLine
 10
-53.12
 20
-4.756
 30
0.0
 11
-53.12
 21
-10.529
 31
0.0
  0
LINE
  5
65
100
AcDbEntity
  8
PV
  6
CONTINUOUS
 62
         3
100
AcDbLine
 10
-63.12
 20
-4.756
 30
0.0
 11
-63.12
 21
-10.529
 31
0.0
  0
LINE
  5
66
100
AcDbEntity
  8
PV
  6
CONTINUOUS
 62
         3
100
AcDbLine
 10
-85.186
 20
-13.92
 30
0.0
 11
-80.186
 21
-16.807
 31
0.0
  0
LINE
  5
67
100
AcDbEntity
  8
PV
  6
CONTINUOUS
 62
         3
100
AcDbLine
 10
-85.186
 20
-13.92
 30
0.0
 11
-90.186
 21
-16.806
 31
0.0
  0
LINE
  5
68
100
AcDbEntity
  8
PV
  6
CONTINUOUS
 62
         3
100
AcDbLine
 10
-85.186
 20
-25.467
 30
0.0
 11
-90.186
 21
-22.58
 31
0.0
  0
LINE
  5
69
100
AcDbEntity
  8
PV
  6
CONTINUOUS
 62
         3
100
AcDbLine
 10
-85.186
 20
-25.467
 30
0.0
 11
-80.186
 21
-22.58
 31
0.0
  0
LINE
  5
6A
100
AcDbEntity
  8
PV
  6
CONTINUOUS
 62
         3
100
AcDbLine
 10
-80.186
 20
-16.806
 30
0.0
 11
-80.186
 21
-22.58
 31
0.0
  0
LINE
  5
6B
100
AcDbEntity
  8
PV
  6
CONTINUOUS
 62
         3
100
AcDbLine
 10
-90.187
 20
-16.806
 30
0.0
 11
-90.187
 21
-22.58
 31
0.0
  0
LINE
  5
6C
100
AcDbEntity
  8
PV
  6
CONTINUOUS
 62
         3
100
AcDbLine
 10
-141.88
 20
-1.869
 30
0.0
 11
-136.88
 21
-4.756
 31
0.0
  0
LINE
  5
6D
100
AcDbEntity
  8
PV
  6
CONTINUOUS
 62
         3
100
AcDbLine
 10
-141.88
 20
-1.869
 30
0.0
 11
-146.88
 21
-4.756
 31
0.0
  0
LINE
  5
6E
100
AcDbEntity
  8
PV
  6
CONTINUOUS
 62
         3
100
AcDbLine
 10
-141.88
 20
-13.416
 30
0.0
 11
-146.88
 21
-10.529
 31
0.0
  0
LINE
  5
6F
100
AcDbEntity
  8
PV
  6
CONTINUOUS
 62
         3
100
AcDbLine
 10
-141.88
 20
-13.416
 30
0.0
 11
-136.88
 21
-10.529
 31
0.0
  0
LINE
  5
70
100
AcDbEntity
  8
PV
  6
CONTINUOUS
 62
         3
100
AcDbLine
 10
-136.88
 20
-4.756
 30
0.0
 11
-136.88
 21
-10.529
 31
0.0
  0
LINE
  5
71
100
AcDbEntity
  8
PV
  6
CONTINUOUS
 62
         3
100
AcDbLine
 10
-146.88
 20
-4.756
 30
0.0
 11
-146.88
 21
-10.529
 31
0.0
  0
LINE
  5
72
100
AcDbEntity
  8
PV
  6
CONTINUOUS
 62
         3
100
AcDbLine
 10
-161.704
 20
20.148
 30
0.0
 11
-156.704
 21
17.262
 31
0.0
  0
LINE
  5
73
100
AcDbEntity
  8
PV
  6
CONTINUOUS
 62
         3
100
AcDbLine
 10
-161.704
 20
20.148
 30
0.0
 11
-166.704
 21
17.262
 31
0.0
  0
LINE
  5
74
100
AcDbEntity
  8
PV
  6
CONTINUOUS
 62
         3
100
AcDbLine
 10
-161.704
 20
8.601
 30
0.0
 11
-166.704
 21
11.488
 31
0.0
  0
LINE
  5
75
100
AcDbEntity
  8
PV
  6
CONTINUOUS
 62
         3
100
AcDbLine
 10
-161.704
 20
8.601
 30
0.0
 11
-156.704
 21
11.488
 31
0.0
  0
LINE
  5
76
100
AcDbEntity
  8
PV
  6
CONTINUOUS
 62
         3
100
AcDbLine
 10
-156.704
 20
17.262
 30
0.0
 11
-156.704
 21
11.488
 31
0.0
  0
LINE
  5
77
100
AcDbEntity
  8
PV
  6
CONTINUOUS
 62
         3
100
AcDbLine
 10
-166.704
 20
17.262
 30
0.0
 11
-166.704
 21
11.488
 31
0.0
  0
LINE
  5
78
100
AcDbEntity
  8
PV
  6
CONTINUOUS
 62
         3
100
AcDbLine
 10
-170.86
 20
48.326
 30
0.0
 11
-165.86
 21
45.439
 31
0.0
  0
LINE
  5
79
100
AcDbEntity
  8
PV
  6
CONTINUOUS
 62
         3
100
AcDbLine
 10
-170.86
 20
48.326
 30
0.0
 11
-175.86
 21
45.439
 31
0.0
  0
LINE
  5
7A
100
AcDbEntity
  8
PV
  6
CONTINUOUS
 62
         3
100
AcDbLine
 10
-170.86
 20
36.779
 30
0.0
 11
-175.86
 21
39.665
 31
0.0
  0
LINE
  5
7B
100
AcDbEntity
  8
PV
  6
CONTINUOUS
 62
         3
100
AcDbLine
 10
-170.86
 20
36.779
 30
0.0
 11
-165.86
 21
39.665
 31
0.0
  0
LINE
  5
7C
100
AcDbEntity
  8
PV
  6
CONTINUOUS
 62
         3
100
AcDbLine
 10
-165.86
 20
45.439
 30
0.0
 11
-165.86
 21
39.665
 31
0.0
  0
LINE
  5
7D
100
AcDbEntity
  8
PV
  6
CONTINUOUS
 62
         3
100
AcDbLine
 10
-175.86
 20
45.439
 30
0.0
 11
-175.86
 21
39.665
 31
0.0
  0
LINE
  5
7E
100
AcDbEntity
  8
PV
  6
CONTINUOUS
 62
         3
100
AcDbLine
 10
-167.763
 20
77.791
 30
0.0
 11
-162.763
 21
74.904
 31
0.0
  0
LINE
  5
7F
100
AcDbEntity
  8
PV
  6
CONTINUOUS
 62
         3
100
AcDbLine
 10
-167.763
 20
77.791
 30
0.0
 11
-172.763
 21
74.904
 31
0.0
  0
LINE
  5
80
100
AcDbEntity
  8
PV
  6
CONTINUOUS
 62
         3
100
AcDbLine
 10
-167.763
 20
66.244
 30
0.0
 11
-172.763
 21
69.131
 31
0.0
  0
LINE
  5
81
100
AcDbEntity
  8
PV
  6
CONTINUOUS
 62
         3
100
AcDbLine
 10
-167.763
 20
66.244
 30
0.0
 11
-162.763
 21
69.13
 31
0.0
  0
LINE
  5
82
100
AcDbEntity
  8
PV
  6
CONTINUOUS
 62
         3
100
AcDbLine
 10
-162.763
 20
74.904
 30
0.0
 11
-162.763
 21
69.131
 31
0.0
  0
LINE
  5
83
100
AcDbEntity
  8
PV
  6
CONTINUOUS
 62
         3
100
AcDbLine
 10
-172.763
 20
74.904
 30
0.0
 11
-172.763
 21
69.131
 31
0.0
  0
LINE
  5
84
100
AcDbEntity
  8
PV
  6
CONTINUOUS
 62
         3
100
AcDbLine
 10
-97.0
 20
109.925
 30
0.0
 11
-97.0
 21
111.327
 31
0.0
  0
LINE
  5
85
100
AcDbEntity
  8
PV
  6
CONTINUOUS
 62
         3
100
AcDbLine
 10
-103.0
 20
109.925
 30
0.0
 11
-103.0
 21
111.327
 31
0.0
  0
LINE
  5
86
100
AcDbEntity
  8
PV
  6
CONTINUOUS
 62
         3
100
AcDbLine
 10
-18.906
 20
51.0
 30
0.0
 11
-17.506
 21
51.0
 31
0.0
  0
LINE
  5
87
100
AcDbEntity
  8
PV
  6
CONTINUOUS
 62
         3
100
AcDbLine
 10
-18.906
 20
49.0
 30
0.0
 11
-17.506
 21
49.0
 31
0.0
  0
CIRCLE
  5
88
100
AcDbEntity
  8
PV
  6
CENTER
 62
         3
100
AcDbCircle
 10
-100.0
 20
50.0
 30
0.0
 40
71.25
  0
CIRCLE
  5
89
100
AcDbEntity
  8
PV
  6
CONTINUOUS
 62
         3
100
AcDbCircle
 10
-100.0
 20
50.0
 30
0.0
 40
81.1
  0
CIRCLE
  5
8A
100
AcDbEntity
  8
PV
  6
CONTINUOUS
 62
         3
100
AcDbCircle
 10
-100.0
 20
50.0
 30
0.0
 40
61.4
  0
CIRCLE
  5
8B
100
AcDbEntity
  8
PV
  6
CONTINUOUS
 62
         3
100
AcDbCircle
 10
-100.0
 20
121.25
 30
0.0
 40
9.0
  0
CIRCLE
  5
8C
100
AcDbEntity
  8
PV
  6
CONTINUOUS
 62
         3
100
AcDbCircle
 10
-100.0
 20
121.25
 30
0.0
 40
7.788
  0
CIRCLE
  5
8D
100
AcDbEntity
  8
PV
  6
CONTINUOUS
 62
         3
100
AcDbCircle
 10
-128.98
 20
115.09
 30
0.0
 40
9.0
  0
CIRCLE
  5
8E
100
AcDbEntity
  8
PV
  6
CONTINUOUS
 62
         3
100
AcDbCircle
 10
-128.98
 20
115.09
 30
0.0
 40
7.788
  0
CIRCLE
  5
8F
100
AcDbEntity
  8
PV
  6
CONTINUOUS
 62
         3
100
AcDbCircle
 10
-71.02
 20
115.09
 30
0.0
 40
9.0
  0
CIRCLE
  5
90
100
AcDbEntity
  8
PV
  6
CONTINUOUS
 62
         3
100
AcDbCircle
 10
-71.02
 20
115.09
 30
0.0
 40
7.788
  0
CIRCLE
  5
91
100
AcDbEntity
  8
PV
  6
CONTINUOUS
 62
         3
100
AcDbCircle
 10
-47.051
 20
97.675
 30
0.0
 40
9.0
  0
CIRCLE
  5
92
100
AcDbEntity
  8
PV
  6
CONTINUOUS
 62
         3
100
AcDbCircle
 10
-47.051
 20
97.675
 30
0.0
 40
7.788
  0
CIRCLE
  5
93
100
AcDbEntity
  8
PV
  6
CONTINUOUS
 62
         3
100
AcDbCircle
 10
-29.141
 20
42.552
 30
0.0
 40
9.0
  0
CIRCLE
  5
94
100
AcDbEntity
  8
PV
  6
CONTINUOUS
 62
         3
100
AcDbCircle
 10
-29.141
 20
42.552
 30
0.0
 40
7.788
  0
CIRCLE
  5
95
100
AcDbEntity
  8
PV
  6
CONTINUOUS
 62
         3
100
AcDbCircle
 10
-38.296
 20
14.375
 30
0.0
 40
9.0
  0
CIRCLE
  5
96
100
AcDbEntity
  8
PV
  6
CONTINUOUS
 62
         3
100
AcDbCircle
 10
-38.296
 20
14.375
 30
0.0
 40
7.788
  0
CIRCLE
  5
97
100
AcDbEntity
  8
PV
  6
CONTINUOUS
 62
         3
100
AcDbCircle
 10
-58.12
 20
-7.643
 30
0.0
 40
9.0
  0
CIRCLE
  5
98
100
AcDbEntity
  8
PV
  6
CONTINUOUS
 62
         3
100
AcDbCircle
 10
-58.12
 20
-7.643
 30
0.0
 40
7.788
  0
CIRCLE
  5
99
100
AcDbEntity
  8
PV
  6
CONTINUOUS
 62
         3
100
AcDbCircle
 10
-85.186
 20
-19.693
 30
0.0
 40
9.0
  0
CIRCLE
  5
9A
100
AcDbEntity
  8
PV
  6
CONTINUOUS
 62
         3
100
AcDbCircle
 10
-85.186
 20
-19.693
 30
0.0
 40
7.788
  0
CIRCLE
  5
9B
100
AcDbEntity
  8
PV
  6
CONTINUOUS
 62
         3
100
AcDbCircle
 10
-141.88
 20
-7.643
 30
0.0
 40
9.0
  0
CIRCLE
  5
9C
100
AcDbEntity
  8
PV
  6
CONTINUOUS
 62
         3
100
AcDbCircle
 10
-141.88
 20
-7.643
 30
0.0
 40
7.788
  0
CIRCLE
  5
9D
100
AcDbEntity
  8
PV
  6
CONTINUOUS
 62
         3
100
AcDbCircle
 10
-161.704
 20
14.375
 30
0.0
 40
9.0
  0
CIRCLE
  5
9E
100
AcDbEntity
  8
PV
  6
CONTINUOUS
 62
         3
100
AcDbCircle
 10
-161.704
 20
14.375
 30
0.0
 40
7.788
  0
CIRCLE
  5
9F
100
AcDbEntity
  8
PV
  6
CONTINUOUS
 62
         3
100
AcDbCircle
 10
-170.86
 20
42.552
 30
0.0
 40
9.0
  0
CIRCLE
  5
A0
100
AcDbEntity
  8
PV
  6
CONTINUOUS
 62
         3
100
AcDbCircle
 10
-170.86
 20
42.552
 30
0.0
 40
7.788
  0
CIRCLE
  5
A1
100
AcDbEntity
  8
PV
  6
CONTINUOUS
 62
         3
100
AcDbCircle
 10
-167.763
 20
72.017
 30
0.0
 40
9.0
  0
CIRCLE
  5
A2
100
AcDbEntity
  8
PV
  6
CONTINUOUS
 62
         3
100
AcDbCircle
 10
-167.763
 20
72.017
 30
0.0
 40
7.788
  0
CIRCLE
  5
A3
100
AcDbEntity
  8
PV
  6
CONTINUOUS
 62
         3
100
AcDbCircle
 10
-152.949
 20
97.675
 30
0.0
 40
6.0
  0
CIRCLE
  5
A4
100
AcDbEntity
  8
PV
  6
CONTINUOUS
 62
         3
100
AcDbCircle
 10
-32.237
 20
72.017
 30
0.0
 40
6.0
  0
CIRCLE
  5
A5
100
AcDbEntity
  8
PV
  6
CONTINUOUS
 62
         3
100
AcDbCircle
 10
-114.814
 20
-19.693
 30
0.0
 40
6.0
  0
CIRCLE
  5
A6
100
AcDbEntity
  8
PV
  6
CONTINUOUS
 62
         3
100
AcDbCircle
 10
-32.237
 20
72.017
 30
0.0
 40
5.053
  0
CIRCLE
  5
A7
100
AcDbEntity
  8
PV
  6
CONTINUOUS
 62
         3
100
AcDbCircle
 10
-114.814
 20
-19.693
 30
0.0
 40
5.053
  0
CIRCLE
  5
A8
100
AcDbEntity
  8
PV
  6
CONTINUOUS
 62
         3
100
AcDbCircle
 10
-152.949
 20
97.675
 30
0.0
 40
5.053
  0
LINE
  5
A9
100
AcDbEntity
  8
PV
  6
CONTINUOUS
 62
         3
100
AcDbLine
 10
119.3
 20
128.555
 30
0.0
 11
119.3
 21
126.303
 31
0.0
  0
LINE
  5
AA
100
AcDbEntity
  8
PV
  6
CONTINUOUS
 62
         3
100
AcDbLine
 10
119.0
 20
128.494
 30
0.0
 11
131.017
 21
130.941
 31
0.0
  0
LINE
  5
AB
100
AcDbEntity
  8
PV
  6
CONTINUOUS
 62
         3
100
AcDbLine
 10
119.0
 20
114.006
 30
0.0
 11
131.0
 21
111.563
 31
0.0
  0
LINE
  5
AC
100
AcDbEntity
  8
PV
  6
CONTINUOUS
 62
         3
100
AcDbLine
 10
113.7
 20
113.945
 30
0.0
 11
113.7
 21
115.25
 31
0.0
  0
LINE
  5
AD
100
AcDbEntity
  8
PV
  6
CONTINUOUS
 62
         3
100
AcDbLine
 10
114.0
 20
128.494
 30
0.0
 11
119.0
 21
128.494
 31
0.0
  0
LINE
  5
AE
100
AcDbEntity
  8
PV
  6
CONTINUOUS
 62
         3
100
AcDbLine
 10
114.0
 20
114.006
 30
0.0
 11
119.0
 21
114.006
 31
0.0
  0
LINE
  5
AF
100
AcDbEntity
  8
PV
  6
CONTINUOUS
 62
         3
100
AcDbLine
 10
119.3
 20
-13.945
 30
0.0
 11
119.3
 21
-28.555
 31
0.0
  0
LINE
  5
B0
100
AcDbEntity
  8
PV
  6
CONTINUOUS
 62
         3
100
AcDbLine
 10
113.7
 20
-28.555
 30
0.0
 11
113.7
 21
-13.945
 31
0.0
  0
LINE
  5
B1
100
AcDbEntity
  8
PV
  6
CONTINUOUS
 62
         3
100
AcDbLine
 10
114.0
 20
-28.494
 30
0.0
 11
102.0
 21
-30.937
 31
0.0
  0
LINE
  5
B2
100
AcDbEntity
  8
PV
  6
CONTINUOUS
 62
         3
100
AcDbLine
 10
114.0
 20
-14.006
 30
0.0
 11
102.0
 21
-11.563
 31
0.0
  0
LINE
  5
B3
100
AcDbEntity
  8
PV
  6
CONTINUOUS
 62
         3
100
AcDbLine
 10
119.0
 20
-28.494
 30
0.0
 11
114.0
 21
-28.494
 31
0.0
  0
LINE
  5
B4
100
AcDbEntity
  8
PV
  6
CONTINUOUS
 62
         3
100
AcDbLine
 10
119.0
 20
-14.006
 30
0.0
 11
114.0
 21
-14.006
 31
0.0
  0
LINE
  5
B5
100
AcDbEntity
  8
PV
  6
CONTINUOUS
 62
         3
100
AcDbLine
 10
133.0
 20
127.25
 30
0.0
 11
100.0
 21
127.25
 31
0.0
  0
LINE
  5
B6
100
AcDbEntity
  8
PV
  6
CONTINUOUS
 62
         3
100
AcDbLine
 10
133.0
 20
115.25
 30
0.0
 11
100.0
 21
115.25
 31
0.0
  0
LINE
  5
B7
100
AcDbEntity
  8
PV
  6
CONTINUOUS
 62
         3
100
AcDbLine
 10
128.0
 20
127.25
 30
0.0
 11
130.0
 21
125.25
 31
0.0
  0
LINE
  5
B8
100
AcDbEntity
  8
PV
  6
CONTINUOUS
 62
         3
100
AcDbLine
 10
128.0
 20
115.25
 30
0.0
 11
130.0
 21
117.25
 31
0.0
  0
LINE
  5
B9
100
AcDbEntity
  8
PV
  6
CONTINUOUS
 62
         3
100
AcDbLine
 10
128.0
 20
127.25
 30
0.0
 11
128.0
 21
115.25
 31
0.0
  0
LINE
  5
BA
100
AcDbEntity
  8
PV
  6
CONTINUOUS
 62
         3
100
AcDbLine
 10
130.0
 20
125.25
 30
0.0
 11
130.0
 21
117.25
 31
0.0
  0
LINE
  5
BB
100
AcDbEntity
  8
PV
  6
CONTINUOUS
 62
         3
100
AcDbLine
 10
104.375
 20
127.25
 30
0.0
 11
104.375
 21
115.25
 31
0.0
  0
LINE
  5
BC
100
AcDbEntity
  8
PV
  6
CONTINUOUS
 62
         3
100
AcDbLine
 10
104.375
 20
126.303
 30
0.0
 11
102.481
 21
127.25
 31
0.0
  0
LINE
  5
BD
100
AcDbEntity
  8
PV
  6
CONTINUOUS
 62
         3
100
AcDbLine
 10
104.375
 20
116.197
 30
0.0
 11
102.481
 21
115.25
 31
0.0
  0
LINE
  5
BE
100
AcDbEntity
  8
PV
  6
CONTINUOUS
 62
         3
100
AcDbLine
 10
104.375
 20
116.197
 30
0.0
 11
133.0
 21
116.197
 31
0.0
  0
LINE
  5
BF
100
AcDbEntity
  8
PV
  6
CONTINUOUS
 62
         3
100
AcDbLine
 10
104.375
 20
126.303
 30
0.0
 11
133.0
 21
126.303
 31
0.0
  0
LINE
  5
C0
100
AcDbEntity
  8
PV
  6
CONTINUOUS
 62
         3
100
AcDbLine
 10
88.7
 20
130.25
 30
0.0
 11
88.7
 21
112.25
 31
0.0
  0
LINE
  5
C1
100
AcDbEntity
  8
PV
  6
CONTINUOUS
 62
         3
100
AcDbLine
 10
119.3
 20
116.197
 30
0.0
 11
119.3
 21
113.945
 31
0.0
  0
LINE
  5
C2
100
AcDbEntity
  8
PV
  6
CONTINUOUS
 62
         3
100
AcDbLine
 10
113.7
 20
127.25
 30
0.0
 11
113.7
 21
128.555
 31
0.0
  0
LINE
  5
C3
100
AcDbEntity
  8
PV
  6
CONTINUOUS
 62
         3
100
AcDbLine
 10
100.0
 20
-27.25
 30
0.0
 11
113.7
 21
-27.25
 31
0.0
  0
LINE
  5
C4
100
AcDbEntity
  8
PV
  6
CONTINUOUS
 62
         3
100
AcDbLine
 10
100.0
 20
-15.25
 30
0.0
 11
113.7
 21
-15.25
 31
0.0
  0
LINE
  5
C5
100
AcDbEntity
  8
PV
  6
CONTINUOUS
 62
         3
100
AcDbLine
 10
113.7
 20
-16.197
 30
0.0
 11
100.0
 21
-16.197
 31
0.0
  0
LINE
  5
C6
100
AcDbEntity
  8
PV
  6
CONTINUOUS
 62
         3
100
AcDbLine
 10
113.7
 20
-26.303
 30
0.0
 11
100.0
 21
-26.303
 31
0.0
  0
LINE
  5
C7
100
AcDbEntity
  8
PV
  6
CONTINUOUS
 62
         3
100
AcDbLine
 10
102.013
 20
130.934
 30
0.0
 11
114.0
 21
128.494
 31
0.0
  0
LINE
  5
C8
100
AcDbEntity
  8
PV
  6
CONTINUOUS
 62
         3
100
AcDbLine
 10
102.0
 20
111.563
 30
0.0
 11
114.0
 21
114.006
 31
0.0
  0
LINE
  5
C9
100
AcDbEntity
  8
PV
  6
CONTINUOUS
 62
         3
100
AcDbLine
 10
131.007
 20
-11.561
 30
0.0
 11
119.0
 21
-14.006
 31
0.0
  0
LINE
  5
CA
100
AcDbEntity
  8
PV
  6
CONTINUOUS
 62
         3
100
AcDbLine
 10
131.0
 20
-30.937
 30
0.0
 11
119.0
 21
-28.494
 31
0.0
  0
LINE
  5
CB
100
AcDbEntity
  8
PV
  6
CONTINUOUS
 62
         3
100
AcDbLine
 10
233.82438
 20
-100.0
 30
0.0
 11
233.82438
 21
-220.0
 31
0.0
  0
ARC
  5
CC
100
AcDbEntity
  8
PV
  6
CONTINUOUS
 62
         3
100
AcDbCircle
 10
-100.0
 20
50.0
 30
0.0
 40
82.5
100
AcDbArc
 50
0.694511
 51
359.305489
  0
ARC
  5
CD
100
AcDbEntity
  8
PV
  6
CONTINUOUS
 62
         3
100
AcDbCircle
 10
-100.0
 20
50.0
 30
0.0
 40
60.0
100
AcDbArc
 50
92.866
 51
87.134018
  0
LINE
  5
CE
100
AcDbEntity
  8
PV
  6
CENTER
 62
         3
100
AcDbLine
 10
81.962
 20
50.0
 30
0.0
 11
141.059
 21
50.0
 31
0.0
  0
LINE
  5
CF
100
AcDbEntity
  8
PV
  6
CONTINUOUS
 62
         3
100
AcDbLine
 10
133.0
 20
131.1
 30
0.0
 11
133.0
 21
-31.1
 31
0.0
  0
LINE
  5
D0
100
AcDbEntity
  8
PV
  6
CONTINUOUS
 62
         3
100
AcDbLine
 10
100.0
 20
131.1
 30
0.0
 11
100.0
 21
-31.1
 31
0.0
  0
LINE
  5
D1
100
AcDbEntity
  8
PV
  6
CONTINUOUS
 62
         3
100
AcDbLine
 10
102.0
 20
110.0
 30
0.0
 11
131.0
 21
110.0
 31
0.0
  0
LINE
  5
D2
100
AcDbEntity
  8
PV
  6
CONTINUOUS
 62
         3
100
AcDbLine
 10
102.0
 20
132.5
 30
0.0
 11
131.0
 21
132.5
 31
0.0
  0
LINE
  5
D3
100
AcDbEntity
  8
PV
  6
CONTINUOUS
 62
         3
100
AcDbLine
 10
131.8
 20
131.1
 30
0.0
 11
133.0
 21
131.1
 31
0.0
  0
LINE
  5
D4
100
AcDbEntity
  8
PV
  6
CONTINUOUS
 62
         3
100
AcDbLine
 10
131.8
 20
111.4
 30
0.0
 11
133.0
 21
111.4
 31
0.0
  0
LINE
  5
D5
100
AcDbEntity
  8
PV
  6
CONTINUOUS
 62
         3
100
AcDbLine
 10
100.0
 20
131.1
 30
0.0
 11
101.2
 21
131.1
 31
0.0
  0
LINE
  5
D6
100
AcDbEntity
  8
PV
  6
CONTINUOUS
 62
         3
100
AcDbLine
 10
100.0
 20
111.4
 30
0.0
 11
101.2
 21
111.4
 31
0.0
  0
LINE
  5
D7
100
AcDbEntity
  8
PV
  6
CONTINUOUS
 62
         3
100
AcDbLine
 10
101.2
 20
131.1
 30
0.0
 11
102.0
 21
130.937
 31
0.0
  0
LINE
  5
D8
100
AcDbEntity
  8
PV
  6
CONTINUOUS
 62
         3
100
AcDbLine
 10
101.2
 20
111.4
 30
0.0
 11
102.0
 21
111.563
 31
0.0
  0
LINE
  5
D9
100
AcDbEntity
  8
PV
  6
CONTINUOUS
 62
         3
100
AcDbLine
 10
131.0
 20
132.5
 30
0.0
 11
131.0
 21
130.937
 31
0.0
  0
LINE
  5
DA
100
AcDbEntity
  8
PV
  6
CONTINUOUS
 62
         3
100
AcDbLine
 10
102.0
 20
132.5
 30
0.0
 11
102.0
 21
130.937
 31
0.0
  0
LINE
  5
DB
100
AcDbEntity
  8
PV
  6
CONTINUOUS
 62
         3
100
AcDbLine
 10
131.0
 20
-10.0
 30
0.0
 11
102.0
 21
-10.0
 31
0.0
  0
LINE
  5
DC
100
AcDbEntity
  8
PV
  6
CONTINUOUS
 62
         3
100
AcDbLine
 10
131.0
 20
-32.5
 30
0.0
 11
102.0
 21
-32.5
 31
0.0
  0
LINE
  5
DD
100
AcDbEntity
  8
PV
  6
CONTINUOUS
 62
         3
100
AcDbLine
 10
133.0
 20
-31.1
 30
0.0
 11
131.8
 21
-31.1
 31
0.0
  0
LINE
  5
DE
100
AcDbEntity
  8
PV
  6
CONTINUOUS
 62
         3
100
AcDbLine
 10
133.0
 20
-11.4
 30
0.0
 11
131.8
 21
-11.4
 31
0.0
  0
LINE
  5
DF
100
AcDbEntity
  8
PV
  6
CONTINUOUS
 62
         3
100
AcDbLine
 10
131.8
 20
-31.1
 30
0.0
 11
131.0
 21
-30.937
 31
0.0
  0
LINE
  5
E0
100
AcDbEntity
  8
PV
  6
CONTINUOUS
 62
         3
100
AcDbLine
 10
131.8
 20
-11.4
 30
0.0
 11
131.0
 21
-11.563
 31
0.0
  0
LINE
  5
E1
100
AcDbEntity
  8
PV
  6
CONTINUOUS
 62
         3
100
AcDbLine
 10
101.2
 20
-31.1
 30
0.0
 11
100.0
 21
-31.1
 31
0.0
  0
LINE
  5
E2
100
AcDbEntity
  8
PV
  6
CONTINUOUS
 62
         3
100
AcDbLine
 10
101.2
 20
-11.4
 30
0.0
 11
100.0
 21
-11.4
 31
0.0
  0
LINE
  5
E3
100
AcDbEntity
  8
PV
  6
CONTINUOUS
 62
         3
100
AcDbLine
 10
131.0
 20
-30.937
 30
0.0
 11
131.0
 21
-32.5
 31
0.0
  0
LINE
  5
E4
100
AcDbEntity
  8
PV
  6
CONTINUOUS
 62
         3
100
AcDbLine
 10
102.0
 20
-30.937
 30
0.0
 11
102.0
 21
-32.5
 31
0.0
  0
LINE
  5
E5
100
AcDbEntity
  8
PV
  6
CONTINUOUS
 62
         3
100
AcDbLine
 10
100.0
 20
130.25
 30
0.0
 11
88.7
 21
130.25
 31
0.0
  0
LINE
  5
E6
100
AcDbEntity
  8
PV
  6
CONTINUOUS
 62
         3
100
AcDbLine
 10
100.0
 20
112.25
 30
0.0
 11
88.7
 21
112.25
 31
0.0
  0
LINE
  5
E7
100
AcDbEntity
  8
PV
  6
CONTINUOUS
 62
         3
100
AcDbLine
 10
88.0
 20
113.463
 30
0.0
 11
88.7
 21
112.25
 31
0.0
  0
LINE
  5
E8
100
AcDbEntity
  8
PV
  6
CONTINUOUS
 62
         3
100
AcDbLine
 10
88.0
 20
129.038
 30
0.0
 11
88.7
 21
130.25
 31
0.0
  0
LINE
  5
E9
100
AcDbEntity
  8
PV
  6
CONTINUOUS
 62
         3
100
AcDbLine
 10
88.0
 20
129.038
 30
0.0
 11
88.0
 21
113.462
 31
0.0
  0
LINE
  5
EA
100
AcDbEntity
  8
PV
  6
CENTER
 62
         3
100
AcDbLine
 10
83.0
 20
121.25
 30
0.0
 11
135.0
 21
121.25
 31
0.0
  0
LINE
  5
EB
100
AcDbEntity
  8
PV
  6
CONTINUOUS
 62
         3
100
AcDbLine
 10
102.0
 20
111.563
 30
0.0
 11
102.0
 21
-11.563
 31
0.0
  0
LINE
  5
EC
100
AcDbEntity
  8
PV
  6
CONTINUOUS
 62
         3
100
AcDbLine
 10
131.0
 20
111.563
 30
0.0
 11
131.0
 21
-11.563
 31
0.0
  0
LINE
  5
ED
100
AcDbEntity
  8
PV
  6
CENTER
 62
         3
100
AcDbLine
 10
135.0
 20
-21.25
 30
0.0
 11
83.0
 21
-21.25
 31
0.0
  0
LINE
  5
EE
100
AcDbEntity
  8
PV
  6
CONTINUOUS
 62
         3
100
AcDbLine
 10
131.0
 20
130.937
 30
0.0
 11
131.8
 21
131.1
 31
0.0
  0
LINE
  5
EF
100
AcDbEntity
  8
PV
  6
CONTINUOUS
 62
         3
100
AcDbLine
 10
131.0
 20
111.563
 30
0.0
 11
131.8
 21
111.4
 31
0.0
  0
LINE
  5
F0
100
AcDbEntity
  8
PV
  6
CONTINUOUS
 62
         3
100
AcDbLine
 10
102.0
 20
-11.563
 30
0.0
 11
101.2
 21
-11.4
 31
0.0
  0
LINE
  5
F1
100
AcDbEntity
  8
PV
  6
CONTINUOUS
 62
         3
100
AcDbLine
 10
102.0
 20
-30.937
 30
0.0
 11
101.2
 21
-31.1
 31
0.0
  0
MTEXT
  5
F2
100
AcDbEntity
  8
PV
  6
CONTINUOUS
 62
       110
100
AcDbMText
 10
-165.3346659955
 20
180.3830001192
 30
0.0
 40
3.2000000477
 41
0.0
 71
         1
 72
         1
  1
\W1.125;\A1;M12
  0
MTEXT
  5
F3
100
AcDbEntity
  8
PV
  6
CONTINUOUS
 62
       110
100
AcDbMText
 10
82.6826653922
 20
-210.8000002384
 30
0.0
 40
6.4000000954
 41
0.0
 71
         1
 72
         1
  1
\W1.200;\A1;2.42
  0
MTEXT
  5
F4
100
AcDbEntity
  8
PV
  6
CONTINUOUS
 62
       110
100
AcDbMText
 10
148.6527690071
 20
-198.7999997616
 30
0.0
 40
6.4000000954
 41
0.0
 71
         1
 72
         1
  1
\W1.333;\A1;12.5
  0
MTEXT
  5
F5
100
AcDbEntity
  8
PV
  6
CONTINUOUS
 62
       110
100
AcDbMText
 10
148.830546994
 20
-186.7999997616
 30
0.0
 40
6.4000000954
 41
0.0
 71
         1
 72
         1
  1
\W1.500;\A1;17.1
  0
MTEXT
  5
F6
100
AcDbEntity
  8
PV
  6
CONTINUOUS
 62
       110
100
AcDbMText
 10
141.9734040234
 20
-174.7999997616
 30
0.0
 40
6.4000000954
 41
0.0
 71
         1
 72
         1
  1
\W1.071;\A1;22400
  0
MTEXT
  5
F7
100
AcDbEntity
  8
PV
  6
CONTINUOUS
 62
       110
100
AcDbMText
 10
148.4495950363
 20
-162.7999997616
 30
0.0
 40
6.4000000954
 41
0.0
 71
         1
 72
         1
  1
\W1.143;\A1;1340
  0
MTEXT
  5
F8
100
AcDbEntity
  8
PV
  6
CONTINUOUS
 62
       110
100
AcDbMText
 10
148.6527690071
 20
-150.7999997616
 30
0.0
 40
6.4000000954
 41
0.0
 71
         1
 72
         1
  1
\W1.333;\A1;14.5
  0
MTEXT
  5
F9
100
AcDbEntity
  8
PV
  6
CONTINUOUS
 62
       110
100
AcDbMText
 10
77.5881770257
 20
-139.0859997616
 30
0.0
 40
6.4000000954
 41
0.0
 71
         1
 72
         1
  1
\W1.102;\A1;12-M12X30
  0
MTEXT
  5
FA
100
AcDbEntity
  8
PV
  6
CONTINUOUS
 62
       110
100
AcDbMText
 10
81.3067650207
 20
-126.6359997616
 30
0.0
 40
6.4000000954
 41
0.0
 71
         1
 72
         1
  1
\W1.082;\A1;PL120X165AS
  0
MTEXT
  5
FB
100
AcDbEntity
  8
PV
  6
CONTINUOUS
 62
       110
100
AcDbMText
 10
111.6693330159
 20
-210.8000002384
 30
0.0
 40
6.4000000954
 41
0.0
 71
         1
 72
         1
  1
\A1;kg
  0
MTEXT
  5
FC
100
AcDbEntity
  8
PV
  6
CONTINUOUS
 62
       110
100
AcDbMText
 10
88.9850604725
 20
-150.8000002384
 30
0.0
 40
6.4000000954
 41
0.0
 71
         1
 72
         1
  1
\W1.125;\A1;142
  0
MTEXT
  5
FD
100
AcDbEntity
  8
PV
  6
CONTINUOUS
 62
       110
100
AcDbMText
 10
113.2693320203
 20
-150.7999997616
 30
0.0
 40
6.4000000954
 41
0.0
 71
         1
 72
         1
  1
\W0.833;\A1;Ｎ・ｍ
  0
MTEXT
  5
FE
100
AcDbEntity
  8
PV
  6
CONTINUOUS
 62
       110
100
AcDbMText
 10
82.770412994
 20
-162.7999997616
 30
0.0
 40
6.4000000954
 41
0.0
 71
         1
 72
         1
  1
\W1.500;\A1;13.1
  0
MTEXT
  5
FF
100
AcDbEntity
  8
PV
  6
CONTINUOUS
 62
       110
100
AcDbMText
 10
113.2693320203
 20
-162.7999997616
 30
0.0
 40
6.4000000954
 41
0.0
 71
         1
 72
         1
  1
\W0.833;\A1;ｋＮ・ｍ
  0
MTEXT
  5
100
100
AcDbEntity
  8
PV
  6
CONTINUOUS
 62
       110
100
AcDbMText
 10
88.7833050117
 20
-174.7999997616
 30
0.0
 40
6.4000000954
 41
0.0
 71
         1
 72
         1
  1
\W1.059;\A1;220
  0
MTEXT
  5
101
100
AcDbEntity
  8
PV
  6
CONTINUOUS
 62
       110
100
AcDbMText
 10
111.6693330159
 20
-174.8000002384
 30
0.0
 40
6.4000000954
 41
0.0
 71
         1
 72
         1
  1
\A1;kN
  0
MTEXT
  5
102
100
AcDbEntity
  8
PV
  6
CONTINUOUS
 62
       110
100
AcDbMText
 10
88.8820724725
 20
-186.8000002384
 30
0.0
 40
6.4000000954
 41
0.0
 71
         1
 72
         1
  1
\W1.125;\A1;168
  0
MTEXT
  5
103
100
AcDbEntity
  8
PV
  6
CONTINUOUS
 62
       110
100
AcDbMText
 10
111.6693330159
 20
-186.8000002384
 30
0.0
 40
6.4000000954
 41
0.0
 71
         1
 72
         1
  1
\A1;MPa
  0
MTEXT
  5
104
100
AcDbEntity
  8
PV
  6
CONTINUOUS
 62
       110
100
AcDbMText
 10
89.0370154725
 20
-198.6209432384
 30
0.0
 40
6.4000000954
 41
0.0
 71
         1
 72
         1
  1
\W1.125;\A1;123
  0
MTEXT
  5
105
100
AcDbEntity
  8
PV
  6
CONTINUOUS
 62
       110
100
AcDbMText
 10
111.6693330159
 20
-198.8000002384
 30
0.0
 40
6.4000000954
 41
0.0
 71
         1
 72
         1
  1
\A1;MPa
  0
MTEXT
  5
106
100
AcDbEntity
  8
PV
  6
CONTINUOUS
 62
       110
100
AcDbMText
 10
135.6592889762
 20
-150.7999997616
 30
0.0
 40
6.4000000954
 41
0.0
 71
         1
 72
         1
  1
\W1.500;\A1;\{
  0
MTEXT
  5
107
100
AcDbEntity
  8
PV
  6
CONTINUOUS
 62
       110
100
AcDbMText
 10
179.8310420203
 20
-150.7999997616
 30
0.0
 40
6.4000000954
 41
0.0
 71
         1
 72
         1
  1
\W0.833;\A1;ｋｇｆ・ｍ｝
  0
MTEXT
  5
108
100
AcDbEntity
  8
PV
  6
CONTINUOUS
 62
       110
100
AcDbMText
 10
179.8310420203
 20
-162.7999997616
 30
0.0
 40
6.4000000954
 41
0.0
 71
         1
 72
         1
  1
\W0.833;\A1;ｋｇｆ・ｍ｝
  0
MTEXT
  5
109
100
AcDbEntity
  8
PV
  6
CONTINUOUS
 62
       110
100
AcDbMText
 10
178.328013011
 20
-174.7999997616
 30
0.0
 40
6.4000000954
 41
0.0
 71
         1
 72
         1
  1
\W1.091;\A1;kgf\}
  0
MTEXT
  5
10A
100
AcDbEntity
  8
PV
  6
CONTINUOUS
 62
       110
100
AcDbMText
 10
178.5801303624
 20
-186.7999997616
 30
0.0
 40
6.4000000954
 41
0.0
 71
         1
 72
         1
  1
\T1.101;\W1.081;\A1;kgf/mm \}
  0
MTEXT
  5
10B
100
AcDbEntity
  8
PV
  6
CONTINUOUS
 62
       110
100
AcDbMText
 10
178.5801303624
 20
-198.7999997616
 30
0.0
 40
6.4000000954
 41
0.0
 71
         1
 72
         1
  1
\T1.101;\W1.081;\A1;kgf/mm \}
  0
MTEXT
  5
10C
100
AcDbEntity
  8
PV
  6
CONTINUOUS
 62
       110
100
AcDbMText
 10
217.114463
 20
-198.7988930596
 30
0.0
 40
3.0
 41
0.0
 71
         1
 72
         1
  1
\A1;2
  0
MTEXT
  5
10D
100
AcDbEntity
  8
PV
  6
CONTINUOUS
 62
       110
100
AcDbMText
 10
217.114463
 20
-186.7988930596
 30
0.0
 40
3.0
 41
0.0
 71
         1
 72
         1
  1
\A1;2
  0
MTEXT
  5
10E
100
AcDbEntity
  8
PV
  6
CONTINUOUS
 62
       110
100
AcDbMText
 10
135.4624859762
 20
-162.7999997616
 30
0.0
 40
6.4000000954
 41
0.0
 71
         1
 72
         1
  1
\W1.500;\A1;\{
  0
MTEXT
  5
10F
100
AcDbEntity
  8
PV
  6
CONTINUOUS
 62
       110
100
AcDbMText
 10
129.0865009762
 20
-174.7999997616
 30
0.0
 40
6.4000000954
 41
0.0
 71
         1
 72
         1
  1
\W1.500;\A1;\{
  0
MTEXT
  5
110
100
AcDbEntity
  8
PV
  6
CONTINUOUS
 62
       110
100
AcDbMText
 10
135.5043459762
 20
-186.7999997616
 30
0.0
 40
6.4000000954
 41
0.0
 71
         1
 72
         1
  1
\W1.500;\A1;\{
  0
MTEXT
  5
111
100
AcDbEntity
  8
PV
  6
CONTINUOUS
 62
       110
100
AcDbMText
 10
135.6592889762
 20
-198.6209427616
 30
0.0
 40
6.4000000954
 41
0.0
 71
         1
 72
         1
  1
\W1.500;\A1;\{
  0
LINE
  5
112
100
AcDbEntity
  8
PV
  6
CONTINUOUS
 62
         3
100
AcDbLine
 10
-173.536
 20
174.505
 30
0.0
 11
-141.513
 21
174.505
 31
0.0
  0
LINE
  5
113
100
AcDbEntity
  8
PV
  6
CONTINUOUS
 62
         3
100
AcDbLine
 10
-154.502
 20
103.471
 30
0.0
 11
-173.535
 21
174.505
 31
0.0
  0
LINE
  5
114
100
AcDbEntity
  8
PV
  6
CONTINUOUS
 62
         3
100
AcDbLine
 10
-164.392882
 20
-112.0
 30
0.0
 11
233.82438
 21
-112.0
 31
0.0
  0
LINE
  5
115
100
AcDbEntity
  8
PV
  6
CONTINUOUS
 62
         3
100
AcDbLine
 10
-164.392882
 20
-124.0
 30
0.0
 11
233.82438
 21
-124.0
 31
0.0
  0
LINE
  5
116
100
AcDbEntity
  8
PV
  6
CONTINUOUS
 62
         3
100
AcDbLine
 10
-164.392882
 20
-136.0
 30
0.0
 11
233.82438
 21
-136.0
 31
0.0
  0
LINE
  5
117
100
AcDbEntity
  8
PV
  6
CONTINUOUS
 62
         3
100
AcDbLine
 10
-164.392882
 20
-148.0
 30
0.0
 11
233.82438
 21
-148.0
 31
0.0
  0
LINE
  5
118
100
AcDbEntity
  8
PV
  6
CONTINUOUS
 62
         3
100
AcDbLine
 10
-164.392882
 20
-160.0
 30
0.0
 11
233.82438
 21
-160.0
 31
0.0
  0
LINE
  5
119
100
AcDbEntity
  8
PV
  6
CONTINUOUS
 62
         3
100
AcDbLine
 10
-164.392882
 20
-172.0
 30
0.0
 11
233.82438
 21
-172.0
 31
0.0
  0
LINE
  5
11A
100
AcDbEntity
  8
PV
  6
CONTINUOUS
 62
         3
100
AcDbLine
 10
-164.392882
 20
-184.0
 30
0.0
 11
233.82438
 21
-184.0
 31
0.0
  0
LINE
  5
11B
100
AcDbEntity
  8
PV
  6
CONTINUOUS
 62
         3
100
AcDbLine
 10
-164.392882
 20
-196.0
 30
0.0
 11
233.82438
 21
-196.0
 31
0.0
  0
LINE
  5
11C
100
AcDbEntity
  8
PV
  6
CONTINUOUS
 62
         3
100
AcDbLine
 10
-164.392882
 20
-208.0
 30
0.0
 11
233.82438
 21
-208.0
 31
0.0
  0
LINE
  5
11D
100
AcDbEntity
  8
PV
  6
CONTINUOUS
 62
         3
100
AcDbLine
 10
-164.392882
 20
-220.0
 30
0.0
 11
233.82438
 21
-220.0
 31
0.0
  0
LINE
  5
11E
100
AcDbEntity
  8
PV
  6
CONTINUOUS
 62
         3
100
AcDbLine
 10
-164.392882
 20
-100.0
 30
0.0
 11
233.82438
 21
-100.0
 31
0.0
  0
LINE
  5
11F
100
AcDbEntity
  8
PV
  6
CONTINUOUS
 62
         3
100
AcDbLine
 10
-164.392882
 20
-100.0
 30
0.0
 11
-164.392882
 21
-220.0
 31
0.0
  0
LINE
  5
120
100
AcDbEntity
  8
PV
  6
CONTINUOUS
 62
         3
100
AcDbLine
 10
65.153118
 20
-124.0
 30
0.0
 11
65.153118
 21
-220.0
 31
0.0
  0
MTEXT
  5
121
100
AcDbEntity
  8
PV
  6
CONTINUOUS
 62
       110
100
AcDbMText
 10
-39.1641169793
 20
-76.7419997616
 30
0.0
 40
6.4000000954
 41
0.0
 71
         1
 72
         1
  1
\W1.082;\A1;PL120X165AS
  0
MTEXT
  5
122
100
AcDbEntity
  8
PV
  6
CONTINUOUS
 62
       110
100
AcDbMText
 10
-39.2287048453
 20
-64.7419997616
 30
0.0
 40
6.4000000954
 41
0.0
 71
         1
 72
         1
  1
\T1.006;\W1.063;\A1;POWER LOCK
  0
MTEXT
  5
123
100
AcDbEntity
  8
PV
  6
CONTINUOUS
 62
       110
100
AcDbMText
 10
-155.3313832696
 20
-127.0639997616
 30
0.0
 40
6.4000000954
 41
0.0
 71
         1
 72
         1
  1
\T1.034;\W1.053;\A1;MODEL NUMBER
  0
MTEXT
  5
124
100
AcDbEntity
  8
PV
  6
CONTINUOUS
 62
       110
100
AcDbMText
 10
-155.2354529517
 20
-199.0639997616
 30
0.0
 40
6.4000000954
 41
0.0
 71
         1
 72
         1
  1
\T1.061;\W1.093;\A1;CONTACT PRESSURE OF HUB BORE
  0
MTEXT
  5
125
100
AcDbEntity
  8
PV
  6
CONTINUOUS
 62
       110
100
AcDbMText
 10
-155.2737080459
 20
-187.0639997616
 30
0.0
 40
6.4000000954
 41
0.0
 71
         1
 72
         1
  1
\T1.051;\W1.077;\A1;CONTACT PRESSURE OF SHAFT
  0
MTEXT
  5
126
100
AcDbEntity
  8
PV
  6
CONTINUOUS
 62
       110
100
AcDbMText
 10
-155.2616666601
 20
-175.0639997616
 30
0.0
 40
6.4000000954
 41
0.0
 71
         1
 72
         1
  1
\T1.057;\W1.031;\A1;TRANSMISSIBLE THRUST
  0
MTEXT
  5
127
100
AcDbEntity
  8
PV
  6
CONTINUOUS
 62
       110
100
AcDbMText
 10
-155.2616666601
 20
-163.0639997616
 30
0.0
 40
6.4000000954
 41
0.0
 71
         1
 72
         1
  1
\T1.057;\W1.031;\A1;TRANSMISSIBLE TORQUE
  0
MTEXT
  5
128
100
AcDbEntity
  8
PV
  6
CONTINUOUS
 62
       110
100
AcDbMText
 10
-155.1078658797
 20
-139.0639997616
 30
0.0
 40
6.4000000954
 41
0.0
 71
         1
 72
         1
  1
\T1.096;\W1.097;\A1;QUANTITY AND SIZE OF LOCKING BOLTS
  0
MTEXT
  5
129
100
AcDbEntity
  8
PV
  6
CONTINUOUS
 62
       110
100
AcDbMText
 10
-155.1624245307
 20
-151.0639997616
 30
0.0
 40
6.4000000954
 41
0.0
 71
         1
 72
         1
  1
\T1.083;\W1.076;\A1;TIGHTENING TORQUE OF LOCKING BOLTS
  0
MTEXT
  5
12A
100
AcDbEntity
  8
PV
  6
CONTINUOUS
 62
       110
100
AcDbMText
 10
-67.3807048453
 20
-115.2939997616
 30
0.0
 40
6.4000000954
 41
0.0
 71
         1
 72
         1
  1
\T1.006;\W1.063;\A1;POWER LOCK
  0
MTEXT
  5
12B
100
AcDbEntity
  8
PV
  6
CONTINUOUS
 62
       110
100
AcDbMText
 10
-155.4475489841
 20
-211.0640002384
 30
0.0
 40
6.4000000954
 41
0.0
 71
         1
 72
         1
  1
\A1;MASS
  0
DIMENSION
  5
13B
100
AcDbEntity
  8
PV
  6
CONTINUOUS
 62
        80
100
AcDbDimension
  2
*D2
 10
67.98853
 20
121.25
 30
0.0
 11
67.98853
 21
48.8083343506
 31
0.0
 70
       128
  1
\A1;\U+2205<>
  3
MXDIMSTYLE
100
AcDbAlignedDimension
 13
83.0
 23
-21.25
 33
0.0
 14
83.0
 24
121.25
 34
0.0
 50
90.0
100
AcDbRotatedDimension
1001
ACAD
1000
DSTYLE
1002
{
1070
         6
1000
SOLID
1070
         7
1000
SOLID
1070
        41
1040
1.0000000298
1070
        44
1040
2.0
1070
       271
1070
         4
1070
       284
1070
         8
1070
       340
1005
135
1070
       343
1005
0
1070
       344
1005
0
1002
}
  0
DIMENSION
  5
14A
100
AcDbEntity
  8
PV
  6
CONTINUOUS
 62
        80
100
AcDbDimension
  2
*D3
 10
156.851798
 20
-10.0
 30
0.0
 11
156.851798
 21
49.0083312988
 31
0.0
 70
       128
  1
\A1;\U+2205<>
  3
MXDIMSTYLE
100
AcDbAlignedDimension
 13
130.999999
 23
110.0
 33
0.0
 14
130.999999
 24
-10.0
 34
0.0
 50
90.0
100
AcDbRotatedDimension
1001
ACAD
1000
DSTYLE
1002
{
1070
         6
1000
SOLID
1070
         7
1000
SOLID
1070
        41
1040
1.0000000298
1070
        44
1040
2.0
1070
       271
1070
         4
1070
       284
1070
         8
1070
       343
1005
0
1070
       344
1005
0
1002
}
  0
DIMENSION
  5
159
100
AcDbEntity
  8
PV
  6
CONTINUOUS
 62
        80
100
AcDbDimension
  2
*D4
 10
178.975434
 20
-32.5
 30
0.0
 11
178.975434
 21
49.0083312988
 31
0.0
 70
       128
  1
\A1;\U+2205<>
  3
MXDIMSTYLE
100
AcDbAlignedDimension
 13
131.000001
 23
132.5
 33
0.0
 14
131.000001
 24
-32.5
 34
0.0
 50
90.0
100
AcDbRotatedDimension
1001
ACAD
1000
DSTYLE
1002
{
1070
         6
1000
SOLID
1070
         7
1000
SOLID
1070
        41
1040
1.0000000298
1070
        44
1040
2.0
1070
       271
1070
         4
1070
       284
1070
         8
1070
       343
1005
0
1070
       344
1005
0
1002
}
  0
DIMENSION
  5
168
100
AcDbEntity
  8
PV
  6
CONTINUOUS
 62
        80
100
AcDbDimension
  2
*D5
 10
131.0
 20
158.368153
 30
0.0
 11
115.7083330154
 21
158.368153
 31
0.0
 70
       128
  1
\A1;<>
  3
MXDIMSTYLE
100
AcDbAlignedDimension
 13
102.0
 23
132.5
 33
0.0
 14
131.0
 24
132.5
 34
0.0
100
AcDbRotatedDimension
1001
ACAD
1000
DSTYLE
1002
{
1070
         6
1000
SOLID
1070
         7
1000
SOLID
1070
        41
1040
1.0000000298
1070
        44
1040
2.0
1070
       271
1070
         4
1070
       284
1070
         8
1070
       343
1005
0
1070
       344
1005
0
1002
}
  0
DIMENSION
  5
177
100
AcDbEntity
  8
PV
  6
CONTINUOUS
 62
        80
100
AcDbDimension
  2
*D6
 10
133.0
 20
170.536152
 30
0.0
 11
115.7083320618
 21
170.536152
 31
0.0
 70
       128
  1
\A1;<>
  3
MXDIMSTYLE
100
AcDbAlignedDimension
 13
100.0
 23
131.099999
 33
0.0
 14
133.0
 24
131.099999
 34
0.0
100
AcDbRotatedDimension
1001
ACAD
1000
DSTYLE
1002
{
1070
         6
1000
SOLID
1070
         7
1000
SOLID
1070
        41
1040
1.0000000298
1070
        44
1040
2.0
1070
       271
1070
         4
1070
       284
1070
         8
1070
       343
1005
0
1070
       344
1005
0
1002
}
  0
DIMENSION
  5
186
100
AcDbEntity
  8
PV
  6
CONTINUOUS
 62
        80
100
AcDbDimension
  2
*D7
 10
100.0
 20
170.536152
 30
0.0
 11
93.2083330154
 21
170.536152
 31
0.0
 70
       128
  1
\A1;<>
  3
MXDIMSTYLE
100
AcDbAlignedDimension
 13
88.0
 23
129.037998
 33
0.0
 14
100.0
 24
131.099999
 34
0.0
100
AcDbRotatedDimension
1001
ACAD
1000
DSTYLE
1002
{
1070
         6
1000
SOLID
1070
         7
1000
SOLID
1070
        41
1040
1.0000000298
1070
        44
1040
2.0
1070
       271
1070
         4
1070
       284
1070
         8
1070
       340
1005
135
1070
       343
1005
0
1070
       344
1005
0
1002
}
  0
DIMENSION
  5
195
100
AcDbEntity
  8
PV
  6
CONTINUOUS
 62
        80
100
AcDbDimension
  2
*D8
 10
133.0
 20
186.391424
 30
0.0
 11
109.7083320618
 21
186.391424
 31
0.0
 70
       128
  1
\A1;<>
  3
MXDIMSTYLE
100
AcDbAlignedDimension
 13
88.0
 23
129.038
 33
0.0
 14
133.0
 24
131.1
 34
0.0
100
AcDbRotatedDimension
1001
ACAD
1000
DSTYLE
1002
{
1070
         6
1000
SOLID
1070
         7
1000
SOLID
1070
        41
1040
1.0000000298
1070
        44
1040
2.0
1070
       271
1070
         4
1070
       284
1070
         8
1070
       343
1005
0
1070
       344
1005
0
1002
}
  0
ENDSEC
  0
SECTION
  2
OBJECTS
  0
DICTIONARY
  5
19
100
AcDbDictionary
  3
ACAD_GROUP
350
1A
  3
ACAD_MLINESTYLE
350
1B
  0
DICTIONARY
  5
1A
102
{ACAD_REACTORS
330
19
102
}
100
AcDbDictionary
  0
DICTIONARY
  5
1B
102
{ACAD_REACTORS
330
19
102
}
100
AcDbDictionary
  3
STANDARD
350
1C
  0
MLINESTYLE
  5
1C
102
{ACAD_REACTORS
330
1B
102
}
100
AcDbMlineStyle
  2
Standard
 70
         0
  3

 62
         0
 51
90.0
 52
90.0
 71
         2
 49
0.5
 62
       256
  6
ByLayer
 49
-0.5
 62
       256
  6
ByLayer
  0
ENDSEC
  0
EOF
