  0
SECTION
  2
HEADER
  9
$ACADVER
  1
AC1014
  9
$ACADMAINTVER
 70
         0
  9
$DWGCODEPAGE
  3
ANSI_932
  9
$INSBASE
 10
0.0
 20
0.0
 30
0.0
  9
$EXTMIN
 10
-96.81
 20
-110.0
 30
0.0
  9
$EXTMAX
 10
338.3691317657
 20
305.7212205316
 30
0.0
  9
$LIMMIN
 10
-96.81
 20
-110.0
  9
$LIMMAX
 10
338.3691317657
 20
305.7212205316
  9
$ORTHOMODE
 70
         0
  9
$REGENMODE
 70
         1
  9
$FILLMODE
 70
         1
  9
$QTEXTMODE
 70
         0
  9
$MIRRTEXT
 70
         1
  9
$DRAGMODE
 70
         2
  9
$LTSCALE
 40
1.0
  9
$OSMODE
 70
         0
  9
$ATTMODE
 70
         1
  9
$TEXTSIZE
 40
3.2000000477
  9
$TRACEWID
 40
0.05
  9
$TEXTSTYLE
  7
MX_NOTE_STANDARD
  9
$CLAYER
  8
0
  9
$CELTYPE
  6
CONTINUOUS
  9
$CECOLOR
 62
       256
  9
$CELTSCALE
 40
1.0
  9
$DELOBJ
 70
         1
  9
$DISPSILH
 70
         0
  9
$DIMSCALE
 40
1.0
  9
$DIMASZ
 40
2.5
  9
$DIMEXO
 40
0.0
  9
$DIMDLI
 40
3.75
  9
$DIMRND
 40
0.0
  9
$DIMDLE
 40
0.0
  9
$DIMEXE
 40
2.5
  9
$DIMTP
 40
0.0
  9
$DIMTM
 40
0.0
  9
$DIMTXT
 40
3.2000000477
  9
$DIMCEN
 40
2.5
  9
$DIMTSZ
 40
0.0
  9
$DIMTOL
 70
         0
  9
$DIMLIM
 70
         0
  9
$DIMTIH
 70
         0
  9
$DIMTOH
 70
         0
  9
$DIMSE1
 70
         0
  9
$DIMSE2
 70
         0
  9
$DIMTAD
 70
         1
  9
$DIMZIN
 70
         8
  9
$DIMBLK
  1

  9
$DIMASO
 70
         1
  9
$DIMSHO
 70
         1
  9
$DIMPOST
  1

  9
$DIMAPOST
  1

  9
$DIMALT
 70
         0
  9
$DIMALTD
 70
         4
  9
$DIMALTF
 40
0.0393700787
  9
$DIMLFAC
 40
1.0
  9
$DIMTOFL
 70
         1
  9
$DIMTVP
 40
0.0
  9
$DIMTIX
 70
         0
  9
$DIMSOXD
 70
         0
  9
$DIMSAH
 70
         1
  9
$DIMBLK1
  1
_OPEN30
  9
$DIMBLK2
  1
_OPEN30
  9
$DIMSTYLE
  2
MXDIMSTYLE
  9
$DIMCLRD
 70
         0
  9
$DIMCLRE
 70
         0
  9
$DIMCLRT
 70
         0
  9
$DIMTFAC
 40
1.0
  9
$DIMGAP
 40
1.0
  9
$DIMJUST
 70
         0
  9
$DIMSD1
 70
         0
  9
$DIMSD2
 70
         0
  9
$DIMTOLJ
 70
         0
  9
$DIMTZIN
 70
         0
  9
$DIMALTZ
 70
         0
  9
$DIMALTTZ
 70
         0
  9
$DIMFIT
 70
         3
  9
$DIMUPT
 70
         0
  9
$DIMUNIT
 70
         2
  9
$DIMDEC
 70
         2
  9
$DIMTDEC
 70
         2
  9
$DIMALTU
 70
         2
  9
$DIMALTTD
 70
         4
  9
$DIMTXSTY
  7
MX_NOTE_STANDARD
  9
$DIMAUNIT
 70
         0
  9
$LUNITS
 70
         2
  9
$LUPREC
 70
         4
  9
$SKETCHINC
 40
0.1
  9
$FILLETRAD
 40
0.0
  9
$AUNITS
 70
         0
  9
$AUPREC
 70
         0
  9
$MENU
  1
acad
  9
$ELEVATION
 40
0.0
  9
$PELEVATION
 40
0.0
  9
$THICKNESS
 40
0.0
  9
$LIMCHECK
 70
         0
  9
$BLIPMODE
 70
         1
  9
$CHAMFERA
 40
0.0
  9
$CHAMFERB
 40
0.0
  9
$CHAMFERC
 40
0.0
  9
$CHAMFERD
 40
0.0
  9
$SKPOLY
 70
         0
  9
$TDCREATE
 40
2456603.419293982
  9
$TDUPDATE
 40
2456603.419293982
  9
$TDINDWG
 40
0.0000000000
  9
$TDUSRTIMER
 40
0.0000000000
  9
$USRTIMER
 70
         1
  9
$ANGBASE
 50
0.0
  9
$ANGDIR
 70
         0
  9
$PDMODE
 70
         0
  9
$PDSIZE
 40
0.0
  9
$PLINEWID
 40
0.0
  9
$COORDS
 70
         1
  9
$SPLFRAME
 70
         0
  9
$SPLINETYPE
 70
         6
  9
$SPLINESEGS
 70
         8
  9
$ATTDIA
 70
         0
  9
$ATTREQ
 70
         1
  9
$HANDLING
 70
         1
  9
$HANDSEED
  5
1D3
  9
$SURFTAB1
 70
         6
  9
$SURFTAB2
 70
         6
  9
$SURFTYPE
 70
         6
  9
$SURFU
 70
         6
  9
$SURFV
 70
         6
  9
$UCSNAME
  2

  9
$UCSORG
 10
0.0
 20
0.0
 30
0.0
  9
$UCSXDIR
 10
1.0
 20
0.0
 30
0.0
  9
$UCSYDIR
 10
0.0
 20
1.0
 30
0.0
  9
$PUCSNAME
  2

  9
$PUCSORG
 10
0.0
 20
0.0
 30
0.0
  9
$PUCSXDIR
 10
1.0
 20
0.0
 30
0.0
  9
$PUCSYDIR
 10
0.0
 20
1.0
 30
0.0
  9
$USERI1
 70
         0
  9
$USERI2
 70
         0
  9
$USERI3
 70
         0
  9
$USERI4
 70
         0
  9
$USERI5
 70
         0
  9
$USERR1
 40
0.0
  9
$USERR2
 40
0.0
  9
$USERR3
 40
0.0
  9
$USERR4
 40
0.0
  9
$USERR5
 40
0.0
  9
$WORLDVIEW
 70
         1
  9
$SHADEDGE
 70
         3
  9
$SHADEDIF
 70
        70
  9
$TILEMODE
 70
         1
  9
$MAXACTVP
 70
        16
  9
$PINSBASE
 10
0.0
 20
0.0
 30
0.0
  9
$PLIMCHECK
 70
         0
  9
$PEXTMIN
 10
1.0000000000E+20
 20
1.0000000000E+20
 30
1.0000000000E+20
  9
$PEXTMAX
 10
-1.0000000000E+20
 20
-1.0000000000E+20
 30
-1.0000000000E+20
  9
$PLIMMIN
 10
0.0
 20
0.0
  9
$PLIMMAX
 10
12.0
 20
9.0
  9
$UNITMODE
 70
         0
  9
$VISRETAIN
 70
         0
  9
$PLINEGEN
 70
         1
  9
$PSLTSCALE
 70
         0
  9
$TREEDEPTH
 70
      3020
  9
$PICKSTYLE
 70
         1
  9
$CMLSTYLE
  2
Standard
  9
$CMLJUST
 70
         0
  9
$CMLSCALE
 40
1.0
  9
$PROXYGRAPHICS
 70
         0
  9
$MEASUREMENT
 70
         1
  0
ENDSEC
  0
SECTION
  2
CLASSES
  0
CLASS
  1
LWPOLYLINE
  2
AcDbPolyline
  3
"AutoCAD"
 90
        0
280
         0
281
         1
  0
CLASS
  1
IMAGE
  2
AcDbRasterImage
  3
ISM
 90
      127
280
         0
281
         1
  0
CLASS
  1
OLE2FRAME
  2
AcDbOle2Frame
  3
""
 90
        0
280
         0
281
         1
  0
CLASS
  1
HATCH
  2
AcDbHatch
  3
"ACAD_SEDONA"
 90
        0
280
         0
281
         1
  0
CLASS
  1
DICTIONARYVAR
  2
AcDbDictionaryVar
  3
"AutoCAD"
 90
        0
280
         0
281
         0
  0
CLASS
  1
RASTERVARIABLES
  2
AcDbRasterVariables
  3
ISM
 90
        0
280
         0
281
         0
  0
CLASS
  1
IMAGEDEF
  2
AcDbRasterImageDef
  3
ISM
 90
        0
280
         0
281
         0
  0
CLASS
  1
IMAGEDEF_REACTOR
  2
AcDbRasterImageDefReactor
  3
ISM
 90
        1
280
         0
281
         0
  0
CLASS
  1
IDBUFFER
  2
AcDbIdBuffer
  3
"Acad"
 90
        0
280
         0
281
         0
  0
CLASS
  1
SPATIAL_FILTER
  2
AcDbSpatialFilter
  3
"Acad"
 90
        0
280
         0
281
         0
  0
CLASS
  1
XRECORD
  2
AcDbXrecord
  3
"<Built In>"
 90
        0
280
         0
281
         0
  0
CLASS
  1
SORTENTSTABLE
  2
AcDbSortentsTable
  3
"AutoCAD"
 90
        0
280
         0
281
         0
  0
CLASS
  1
LAYER_INDEX
  2
AcDbLayerIndex
  3
"Acad"
 90
        0
280
         0
281
         0
  0
CLASS
  1
SPATIAL_INDEX
  2
AcDbSpatialIndex
  3
"Acad"
 90
        0
280
         0
281
         0
  0
CLASS
  1
OBJECT_PTR
  2
CAseDLPNTableRecord
  3
"ASE-LPNTableRecord"
 90
        1
280
         0
281
         0
  0
CLASS
  1
LAYOUT
  2
AcDbLayout
  3
"AutoCAD 2000"
 90
        0
280
         0
281
         0
  0
CLASS
  1
PLOTSETTINGS
  2
AcDbPlotSettings
  3
"AutoCAD 2000"
 90
        0
280
         0
281
         0
  0
CLASS
  1
ACDBDICTIONARYWDFLT
  2
AcDbDictionaryWithDefault
  3
"AutoCAD 2000"
 90
        0
280
         0
281
         0
  0
CLASS
  1
ACDBPLACEHOLDER
  2
AcDbPlaceHolder
  3
"AutoCAD 2000"
 90
        0
280
         0
281
         0
  0
ENDSEC
  0
SECTION
  2
TABLES
  0
TABLE
  2
VPORT
  5
7
100
AcDbSymbolTable
 70
         1
  0
VPORT
  5
15
100
AcDbSymbolTableRecord
100
AcDbViewportTableRecord
  2
*ACTIVE
 70
         0
 10
0.0
 20
0.0
 11
1.0
 21
1.0
 12
120.7795658828
 22
97.8606102658
 13
0.0
 23
0.0
 14
1.0
 24
1.0
 15
0.0
 25
0.0
 16
0.0
 26
0.0
 36
1.0
 17
0.0
 27
0.0
 37
0.0
 40
419.8784327369
 41
1.7320508076
 42
50.0
 43
0.0
 44
0.0
 50
0.0
 51
0.0
 71
         0
 72
       100
 73
         1
 74
         1
 75
         0
 76
         0
 77
         0
 78
         0
  0
ENDTAB
  0
TABLE
  2
LTYPE
  5
4
100
AcDbSymbolTable
 70
         4
  0
LTYPE
  5
11
100
AcDbSymbolTableRecord
100
AcDbLinetypeTableRecord
  2
BYBLOCK
 70
        64
  3

 72
        65
 73
         0
 40
0.0
  0
LTYPE
  5
12
100
AcDbSymbolTableRecord
100
AcDbLinetypeTableRecord
  2
BYLAYER
 70
        64
  3

 72
        65
 73
         0
 40
0.0
  0
LTYPE
  5
13
100
AcDbSymbolTableRecord
100
AcDbLinetypeTableRecord
  2
CONTINUOUS
 70
        64
  3
Solid line
 72
        65
 73
         0
 40
0.0
  0
LTYPE
  5
11A
100
AcDbSymbolTableRecord
100
AcDbLinetypeTableRecord
  2
CENTER
 70
        64
  3
Center ____ _ ____ _ ____ _ ____ _ ____ _ ____
 72
        65
 73
         4
 40
50.8
 49
31.75
 74
         0
 49
-6.35
 74
         0
 49
6.35
 74
         0
 49
-6.35
 74
         0
  0
ENDTAB
  0
TABLE
  2
LAYER
  5
2
100
AcDbSymbolTable
 70
         3
  0
LAYER
  5
14
100
AcDbSymbolTableRecord
100
AcDbLayerTableRecord
  2
0
 70
         0
 62
         7
  6
CONTINUOUS
  0
LAYER
  5
1D
100
AcDbSymbolTableRecord
100
AcDbLayerTableRecord
  2
PV
 70
         0
 62
         3
  6
CONTINUOUS
  0
LAYER
  5
1E
100
AcDbSymbolTableRecord
100
AcDbLayerTableRecord
  2
DEFPOINTS
 70
         0
 62
         7
  6
CONTINUOUS
  0
ENDTAB
  0
TABLE
  2
STYLE
  5
3
100
AcDbSymbolTable
 70
         3
  0
STYLE
  5
17
100
AcDbSymbolTableRecord
100
AcDbTextStyleTableRecord
  2
MX_NOTE_STANDARD
 70
         0
 40
0.0
 41
1.0
 50
0.0
 71
         0
 42
3.2000000477
  3
txt.shx
  4
extfont.shx
  0
STYLE
  5
34
100
AcDbSymbolTableRecord
100
AcDbTextStyleTableRecord
  2
MX_DIMTXSTY_2
 70
         0
 40
0.0
 41
1.1
 50
0.0
 71
         0
 42
3.2000000477
  3
txt.shx
  4
extfont.shx
  0
STYLE
  5
8B
100
AcDbSymbolTableRecord
100
AcDbTextStyleTableRecord
  2
MX_DIMTXSTY_3
 70
         0
 40
0.0
 41
1.05
 50
0.0
 71
         0
 42
3.2000000477
  3
txt.shx
  4
extfont.shx
  0
ENDTAB
  0
TABLE
  2
VIEW
  5
5
100
AcDbSymbolTable
 70
         0
  0
ENDTAB
  0
TABLE
  2
UCS
  5
6
100
AcDbSymbolTable
 70
         0
  0
ENDTAB
  0
TABLE
  2
APPID
  5
8
100
AcDbSymbolTable
 70
         1
  0
APPID
  5
16
100
AcDbSymbolTableRecord
100
AcDbRegAppTableRecord
  2
ACAD
 70
         0
  0
ENDTAB
  0
TABLE
  2
DIMSTYLE
  5
9
100
AcDbSymbolTable
 70
         1
  0
DIMSTYLE
105
18
100
AcDbSymbolTableRecord
100
AcDbDimStyleTableRecord
  2
MXDIMSTYLE
 70
         0
  3

  4

  5

  6
_OPEN30
  7
_OPEN30
 40
1.0
 41
2.5
 42
0.0
 43
3.75
 44
2.5
 45
0.0
 46
0.0
 47
0.0
 48
0.0
 71
         0
 72
         0
 73
         0
 74
         0
 75
         0
 76
         0
 77
         1
 78
         8
140
3.2000000477
141
2.5
142
0.0
143
0.0393700787
144
1.0
145
0.0
146
1.0
147
1.0
170
         0
171
         4
172
         1
173
         1
174
         0
175
         0
176
         0
177
         0
178
         0
270
         2
271
         2
272
         2
273
         2
274
         4
275
         0
280
         0
281
         0
282
         0
283
         0
284
         0
285
         0
286
         0
287
         3
288
         0
340
17
  0
ENDTAB
  0
TABLE
  2
BLOCK_RECORD
  5
1
100
AcDbSymbolTable
 70
        12
  0
BLOCK_RECORD
  5
A
100
AcDbSymbolTableRecord
100
AcDbBlockTableRecord
  2
*MODEL_SPACE
  0
BLOCK_RECORD
  5
B
100
AcDbSymbolTableRecord
100
AcDbBlockTableRecord
  2
*PAPER_SPACE
  0
BLOCK_RECORD
  5
1F
100
AcDbSymbolTableRecord
100
AcDbBlockTableRecord
  2
ARROW
  0
BLOCK_RECORD
  5
20
100
AcDbSymbolTableRecord
100
AcDbBlockTableRecord
  2
_OPEN30
  0
BLOCK_RECORD
  5
2B
100
AcDbSymbolTableRecord
100
AcDbBlockTableRecord
  2
*D2
  0
BLOCK_RECORD
  5
3B
100
AcDbSymbolTableRecord
100
AcDbBlockTableRecord
  2
*D3
  0
BLOCK_RECORD
  5
4A
100
AcDbSymbolTableRecord
100
AcDbBlockTableRecord
  2
*D4
  0
BLOCK_RECORD
  5
57
100
AcDbSymbolTableRecord
100
AcDbBlockTableRecord
  2
*D5
  0
BLOCK_RECORD
  5
66
100
AcDbSymbolTableRecord
100
AcDbBlockTableRecord
  2
*D6
  0
BLOCK_RECORD
  5
73
100
AcDbSymbolTableRecord
100
AcDbBlockTableRecord
  2
*D7
  0
BLOCK_RECORD
  5
82
100
AcDbSymbolTableRecord
100
AcDbBlockTableRecord
  2
*D8
  0
BLOCK_RECORD
  5
92
100
AcDbSymbolTableRecord
100
AcDbBlockTableRecord
  2
*D9
  0
BLOCK_RECORD
  5
A1
100
AcDbSymbolTableRecord
100
AcDbBlockTableRecord
  2
*D10
  0
BLOCK_RECORD
  5
B0
100
AcDbSymbolTableRecord
100
AcDbBlockTableRecord
  2
*D11
  0
ENDTAB
  0
ENDSEC
  0
SECTION
  2
BLOCKS
  0
BLOCK
  5
D
100
AcDbEntity
  8
0
100
AcDbBlockBegin
  2
*MODEL_SPACE
 70
         0
 10
0.0
 20
0.0
 30
0.0
  3
*MODEL_SPACE
  1

  0
ENDBLK
  5
E
100
AcDbEntity
  8
0
100
AcDbBlockEnd
  0
BLOCK
  5
F
100
AcDbEntity
 67
         1
  8
0
100
AcDbBlockBegin
  2
*PAPER_SPACE
 70
         0
 10
0.0
 20
0.0
 30
0.0
  3
*PAPER_SPACE
  1

  0
ENDBLK
  5
10
100
AcDbEntity
 67
         1
  8
0
100
AcDbBlockEnd
  0
BLOCK
  5
26
100
AcDbEntity
  8
0
100
AcDbBlockBegin
  2
ARROW
 70
         0
 10
0.0
 20
0.0
 30
0.0
  3
ARROW
  1

  0
LWPOLYLINE
  5
27
100
AcDbEntity
  8
0
  6
CONTINUOUS
 62
       193
100
AcDbPolyline
 90
        3
 70
         0
 10
2.65613259
 20
0.711708583
 10
0.0
 20
0.0
 10
2.65613259
 20
-0.711708583
  0
ENDBLK
  5
28
100
AcDbEntity
  8
0
100
AcDbBlockEnd
  0
BLOCK
  5
21
100
AcDbEntity
  8
0
  6
ByBlock
 62
         0
100
AcDbBlockBegin
  2
_OPEN30
 70
         2
 10
0.0
 20
0.0
 30
0.0
  3
_OPEN30
  1

  0
LINE
  5
22
100
AcDbEntity
  8
0
  6
ByBlock
 62
         0
100
AcDbLine
 10
-1.0
 20
0.267949
 30
0.0
 11
0.0
 21
0.0
 31
0.0
  0
LINE
  5
23
100
AcDbEntity
  8
0
  6
ByBlock
 62
         0
100
AcDbLine
 10
0.0
 20
0.0
 30
0.0
 11
-1.0
 21
-0.267949
 31
0.0
  0
LINE
  5
24
100
AcDbEntity
  8
0
  6
ByBlock
 62
         0
100
AcDbLine
 10
0.0
 20
0.0
 30
0.0
 11
-1.0
 21
0.0
 31
0.0
  0
ENDBLK
  5
25
100
AcDbEntity
  8
0
  6
ByBlock
 62
         0
100
AcDbBlockEnd
  0
BLOCK
  5
2C
100
AcDbEntity
  8
0
  6
ByBlock
 62
         0
100
AcDbBlockBegin
  2
*D2
 70
         1
 10
0.0
 20
0.0
 30
0.0
  3
*D2
  1

  0
LINE
  5
2D
100
AcDbEntity
  8
0
  6
CONTINUOUS
 62
       110
100
AcDbLine
 10
186.81
 20
300.454554
 30
0.0
 11
246.81
 21
300.454554
 31
0.0
  0
LINE
  5
2E
100
AcDbEntity
  8
0
  6
CONTINUOUS
 62
       110
100
AcDbLine
 10
186.81
 20
228.5235008384
 30
0.0
 11
186.81
 21
302.454554
 31
0.0
  0
LINE
  5
2F
100
AcDbEntity
  8
0
  6
CONTINUOUS
 62
       110
100
AcDbLine
 10
246.81
 20
232.5625023032
 30
0.0
 11
246.81
 21
302.454554
 31
0.0
  0
LINE
  5
30
100
AcDbEntity
  8
0
  6
CONTINUOUS
 62
       110
100
AcDbLine
 10
186.81
 20
300.454554
 30
0.0
 11
182.81
 21
300.454554
 31
0.0
  0
LINE
  5
31
100
AcDbEntity
  8
0
  6
CONTINUOUS
 62
       110
100
AcDbLine
 10
246.81
 20
300.454554
 30
0.0
 11
250.81
 21
300.454554
 31
0.0
  0
SOLID
  5
32
100
AcDbEntity
  8
0
  6
CONTINUOUS
 62
       110
100
AcDbTrace
 10
185.8099999702
 20
300.621221005
 30
0.0
 11
185.8099999702
 21
300.287886995
 31
0.0
 12
186.81
 22
300.454554
 32
0.0
 13
186.81
 23
300.454554
 33
0.0
  0
SOLID
  5
33
100
AcDbEntity
  8
0
  6
CONTINUOUS
 62
       110
100
AcDbTrace
 10
247.8100000298
 20
300.287886995
 30
0.0
 11
247.8100000298
 21
300.621221005
 31
0.0
 12
246.81
 22
300.454554
 32
0.0
 13
246.81
 23
300.454554
 33
0.0
  0
MTEXT
  5
35
100
AcDbEntity
  8
0
  6
CONTINUOUS
 62
       110
100
AcDbMText
 10
216.8349996185
 20
303.0545540238
 30
0.0
 40
3.2000000477
 41
0.0
 71
         5
 72
         1
  1
\A1;60
  7
MX_DIMTXSTY_2
  0
POINT
  5
36
100
AcDbEntity
  8
DEFPOINTS
  6
CONTINUOUS
 62
         0
100
AcDbPoint
 10
186.81
 20
228.4610008384
 30
0.0
  0
POINT
  5
37
100
AcDbEntity
  8
DEFPOINTS
  6
CONTINUOUS
 62
         0
100
AcDbPoint
 10
246.81
 20
232.5000023032
 30
0.0
  0
POINT
  5
38
100
AcDbEntity
  8
DEFPOINTS
  6
CONTINUOUS
 62
         0
100
AcDbPoint
 10
246.81
 20
300.454554
 30
0.0
  0
ENDBLK
  5
39
100
AcDbEntity
  8
0
  6
ByBlock
 62
         0
100
AcDbBlockEnd
  0
BLOCK
  5
3C
100
AcDbEntity
  8
0
  6
ByBlock
 62
         0
100
AcDbBlockBegin
  2
*D3
 70
         1
 10
0.0
 20
0.0
 30
0.0
  3
*D3
  1

  0
LINE
  5
3D
100
AcDbEntity
  8
0
  6
CONTINUOUS
 62
       110
100
AcDbLine
 10
196.81
 20
286.065536
 30
0.0
 11
246.81
 21
286.065536
 31
0.0
  0
LINE
  5
3E
100
AcDbEntity
  8
0
  6
CONTINUOUS
 62
       110
100
AcDbLine
 10
196.81
 20
238.562499501
 30
0.0
 11
196.81
 21
288.065536
 31
0.0
  0
LINE
  5
3F
100
AcDbEntity
  8
0
  6
CONTINUOUS
 62
       110
100
AcDbLine
 10
246.81
 20
232.562499501
 30
0.0
 11
246.81
 21
288.065536
 31
0.0
  0
LINE
  5
40
100
AcDbEntity
  8
0
  6
CONTINUOUS
 62
       110
100
AcDbLine
 10
196.81
 20
286.065536
 30
0.0
 11
192.81
 21
286.065536
 31
0.0
  0
LINE
  5
41
100
AcDbEntity
  8
0
  6
CONTINUOUS
 62
       110
100
AcDbLine
 10
246.81
 20
286.065536
 30
0.0
 11
250.81
 21
286.065536
 31
0.0
  0
SOLID
  5
42
100
AcDbEntity
  8
0
  6
CONTINUOUS
 62
       110
100
AcDbTrace
 10
195.8099999702
 20
286.232203005
 30
0.0
 11
195.8099999702
 21
285.898868995
 31
0.0
 12
196.81
 22
286.065536
 32
0.0
 13
196.81
 23
286.065536
 33
0.0
  0
SOLID
  5
43
100
AcDbEntity
  8
0
  6
CONTINUOUS
 62
       110
100
AcDbTrace
 10
247.8100000298
 20
285.898868995
 30
0.0
 11
247.8100000298
 21
286.232203005
 31
0.0
 12
246.81
 22
286.065536
 32
0.0
 13
246.81
 23
286.065536
 33
0.0
  0
MTEXT
  5
44
100
AcDbEntity
  8
0
  6
CONTINUOUS
 62
       110
100
AcDbMText
 10
221.8349996185
 20
288.6655360238
 30
0.0
 40
3.2000000477
 41
0.0
 71
         5
 72
         1
  1
\A1;50
  7
MX_DIMTXSTY_2
  0
POINT
  5
45
100
AcDbEntity
  8
DEFPOINTS
  6
CONTINUOUS
 62
         0
100
AcDbPoint
 10
196.81
 20
238.499999501
 30
0.0
  0
POINT
  5
46
100
AcDbEntity
  8
DEFPOINTS
  6
CONTINUOUS
 62
         0
100
AcDbPoint
 10
246.81
 20
232.499999501
 30
0.0
  0
POINT
  5
47
100
AcDbEntity
  8
DEFPOINTS
  6
CONTINUOUS
 62
         0
100
AcDbPoint
 10
246.81
 20
286.065536
 30
0.0
  0
ENDBLK
  5
48
100
AcDbEntity
  8
0
  6
ByBlock
 62
         0
100
AcDbBlockEnd
  0
BLOCK
  5
4B
100
AcDbEntity
  8
0
  6
ByBlock
 62
         0
100
AcDbBlockBegin
  2
*D4
 70
         1
 10
0.0
 20
0.0
 30
0.0
  3
*D4
  1

  0
LINE
  5
4C
100
AcDbEntity
  8
0
  6
CONTINUOUS
 62
       110
100
AcDbLine
 10
196.81
 20
272.635785
 30
0.0
 11
202.81
 21
272.635785
 31
0.0
  0
LINE
  5
4D
100
AcDbEntity
  8
0
  6
CONTINUOUS
 62
       110
100
AcDbLine
 10
196.81
 20
238.5625008508
 30
0.0
 11
196.81
 21
274.635785
 31
0.0
  0
LINE
  5
4E
100
AcDbEntity
  8
0
  6
CONTINUOUS
 62
       110
100
AcDbLine
 10
202.81
 20
238.5625008508
 30
0.0
 11
202.81
 21
274.635785
 31
0.0
  0
SOLID
  5
4F
100
AcDbEntity
  8
0
  6
CONTINUOUS
 62
       110
100
AcDbTrace
 10
197.8100000298
 20
272.469117995
 30
0.0
 11
197.8100000298
 21
272.802452005
 31
0.0
 12
196.81
 22
272.635785
 32
0.0
 13
196.81
 23
272.635785
 33
0.0
  0
SOLID
  5
50
100
AcDbEntity
  8
0
  6
CONTINUOUS
 62
       110
100
AcDbTrace
 10
201.8099999702
 20
272.802452005
 30
0.0
 11
201.8099999702
 21
272.469117995
 31
0.0
 12
202.81
 22
272.635785
 32
0.0
 13
202.81
 23
272.635785
 33
0.0
  0
MTEXT
  5
51
100
AcDbEntity
  8
0
  6
CONTINUOUS
 62
       110
100
AcDbMText
 10
199.8350000954
 20
275.2357850238
 30
0.0
 40
3.2000000477
 41
0.0
 71
         5
 72
         1
  1
\A1;6
  0
POINT
  5
52
100
AcDbEntity
  8
DEFPOINTS
  6
CONTINUOUS
 62
         0
100
AcDbPoint
 10
196.81
 20
238.5000008508
 30
0.0
  0
POINT
  5
53
100
AcDbEntity
  8
DEFPOINTS
  6
CONTINUOUS
 62
         0
100
AcDbPoint
 10
202.81
 20
238.5000008508
 30
0.0
  0
POINT
  5
54
100
AcDbEntity
  8
DEFPOINTS
  6
CONTINUOUS
 62
         0
100
AcDbPoint
 10
202.81
 20
272.635785
 30
0.0
  0
ENDBLK
  5
55
100
AcDbEntity
  8
0
  6
ByBlock
 62
         0
100
AcDbBlockEnd
  0
BLOCK
  5
58
100
AcDbEntity
  8
0
  6
ByBlock
 62
         0
100
AcDbBlockBegin
  2
*D5
 70
         1
 10
0.0
 20
0.0
 30
0.0
  3
*D5
  1

  0
LINE
  5
59
100
AcDbEntity
  8
0
  6
CONTINUOUS
 62
       110
100
AcDbLine
 10
202.81
 20
272.635785
 30
0.0
 11
246.81
 21
272.635785
 31
0.0
  0
LINE
  5
5A
100
AcDbEntity
  8
0
  6
CONTINUOUS
 62
       110
100
AcDbLine
 10
202.81
 20
238.5625008508
 30
0.0
 11
202.81
 21
274.635785
 31
0.0
  0
LINE
  5
5B
100
AcDbEntity
  8
0
  6
CONTINUOUS
 62
       110
100
AcDbLine
 10
246.81
 20
232.5625008508
 30
0.0
 11
246.81
 21
274.635785
 31
0.0
  0
LINE
  5
5C
100
AcDbEntity
  8
0
  6
CONTINUOUS
 62
       110
100
AcDbLine
 10
202.81
 20
272.635785
 30
0.0
 11
198.81
 21
272.635785
 31
0.0
  0
LINE
  5
5D
100
AcDbEntity
  8
0
  6
CONTINUOUS
 62
       110
100
AcDbLine
 10
246.81
 20
272.635785
 30
0.0
 11
250.81
 21
272.635785
 31
0.0
  0
SOLID
  5
5E
100
AcDbEntity
  8
0
  6
CONTINUOUS
 62
       110
100
AcDbTrace
 10
201.8099999702
 20
272.802452005
 30
0.0
 11
201.8099999702
 21
272.469117995
 31
0.0
 12
202.81
 22
272.635785
 32
0.0
 13
202.81
 23
272.635785
 33
0.0
  0
SOLID
  5
5F
100
AcDbEntity
  8
0
  6
CONTINUOUS
 62
       110
100
AcDbTrace
 10
247.8100000298
 20
272.469117995
 30
0.0
 11
247.8100000298
 21
272.802452005
 31
0.0
 12
246.81
 22
272.635785
 32
0.0
 13
246.81
 23
272.635785
 33
0.0
  0
MTEXT
  5
60
100
AcDbEntity
  8
0
  6
CONTINUOUS
 62
       110
100
AcDbMText
 10
224.8349996185
 20
275.2357850238
 30
0.0
 40
3.2000000477
 41
0.0
 71
         5
 72
         1
  1
\A1;44
  0
POINT
  5
61
100
AcDbEntity
  8
DEFPOINTS
  6
CONTINUOUS
 62
         0
100
AcDbPoint
 10
202.81
 20
238.5000008508
 30
0.0
  0
POINT
  5
62
100
AcDbEntity
  8
DEFPOINTS
  6
CONTINUOUS
 62
         0
100
AcDbPoint
 10
246.81
 20
232.5000008508
 30
0.0
  0
POINT
  5
63
100
AcDbEntity
  8
DEFPOINTS
  6
CONTINUOUS
 62
         0
100
AcDbPoint
 10
246.81
 20
272.635785
 30
0.0
  0
ENDBLK
  5
64
100
AcDbEntity
  8
0
  6
ByBlock
 62
         0
100
AcDbBlockEnd
  0
BLOCK
  5
67
100
AcDbEntity
  8
0
  6
ByBlock
 62
         0
100
AcDbBlockBegin
  2
*D6
 70
         1
 10
0.0
 20
0.0
 30
0.0
  3
*D6
  1

  0
LINE
  5
68
100
AcDbEntity
  8
0
  6
CONTINUOUS
 62
       110
100
AcDbLine
 10
202.81
 20
260.804815
 30
0.0
 11
206.81
 21
260.804815
 31
0.0
  0
LINE
  5
69
100
AcDbEntity
  8
0
  6
CONTINUOUS
 62
       110
100
AcDbLine
 10
202.81
 20
238.5624997076
 30
0.0
 11
202.81
 21
262.804815
 31
0.0
  0
LINE
  5
6A
100
AcDbEntity
  8
0
  6
CONTINUOUS
 62
       110
100
AcDbLine
 10
206.81
 20
232.5624997076
 30
0.0
 11
206.81
 21
262.804815
 31
0.0
  0
SOLID
  5
6B
100
AcDbEntity
  8
0
  6
CONTINUOUS
 62
       110
100
AcDbTrace
 10
203.8100000298
 20
260.638147995
 30
0.0
 11
203.8100000298
 21
260.971482005
 31
0.0
 12
202.81
 22
260.804815
 32
0.0
 13
202.81
 23
260.804815
 33
0.0
  0
SOLID
  5
6C
100
AcDbEntity
  8
0
  6
CONTINUOUS
 62
       110
100
AcDbTrace
 10
205.8099999702
 20
260.971482005
 30
0.0
 11
205.8099999702
 21
260.638147995
 31
0.0
 12
206.81
 22
260.804815
 32
0.0
 13
206.81
 23
260.804815
 33
0.0
  0
MTEXT
  5
6D
100
AcDbEntity
  8
0
  6
CONTINUOUS
 62
       110
100
AcDbMText
 10
204.8350000954
 20
263.4048150238
 30
0.0
 40
3.2000000477
 41
0.0
 71
         5
 72
         1
  1
\A1;4
  0
POINT
  5
6E
100
AcDbEntity
  8
DEFPOINTS
  6
CONTINUOUS
 62
         0
100
AcDbPoint
 10
202.81
 20
238.4999997076
 30
0.0
  0
POINT
  5
6F
100
AcDbEntity
  8
DEFPOINTS
  6
CONTINUOUS
 62
         0
100
AcDbPoint
 10
206.81
 20
232.4999997076
 30
0.0
  0
POINT
  5
70
100
AcDbEntity
  8
DEFPOINTS
  6
CONTINUOUS
 62
         0
100
AcDbPoint
 10
206.81
 20
260.804815
 30
0.0
  0
ENDBLK
  5
71
100
AcDbEntity
  8
0
  6
ByBlock
 62
         0
100
AcDbBlockEnd
  0
BLOCK
  5
74
100
AcDbEntity
  8
0
  6
ByBlock
 62
         0
100
AcDbBlockBegin
  2
*D7
 70
         1
 10
0.0
 20
0.0
 30
0.0
  3
*D7
  1

  0
LINE
  5
75
100
AcDbEntity
  8
0
  6
CONTINUOUS
 62
       110
100
AcDbLine
 10
212.81
 20
260.804815
 30
0.0
 11
246.81
 21
260.804815
 31
0.0
  0
LINE
  5
76
100
AcDbEntity
  8
0
  6
CONTINUOUS
 62
       110
100
AcDbLine
 10
212.81
 20
232.5624997076
 30
0.0
 11
212.81
 21
262.804815
 31
0.0
  0
LINE
  5
77
100
AcDbEntity
  8
0
  6
CONTINUOUS
 62
       110
100
AcDbLine
 10
246.81
 20
232.5624997076
 30
0.0
 11
246.81
 21
262.804815
 31
0.0
  0
LINE
  5
78
100
AcDbEntity
  8
0
  6
CONTINUOUS
 62
       110
100
AcDbLine
 10
212.81
 20
260.804815
 30
0.0
 11
208.81
 21
260.804815
 31
0.0
  0
LINE
  5
79
100
AcDbEntity
  8
0
  6
CONTINUOUS
 62
       110
100
AcDbLine
 10
246.81
 20
260.804815
 30
0.0
 11
250.81
 21
260.804815
 31
0.0
  0
SOLID
  5
7A
100
AcDbEntity
  8
0
  6
CONTINUOUS
 62
       110
100
AcDbTrace
 10
211.8099999702
 20
260.971482005
 30
0.0
 11
211.8099999702
 21
260.638147995
 31
0.0
 12
212.81
 22
260.804815
 32
0.0
 13
212.81
 23
260.804815
 33
0.0
  0
SOLID
  5
7B
100
AcDbEntity
  8
0
  6
CONTINUOUS
 62
       110
100
AcDbTrace
 10
247.8100000298
 20
260.638147995
 30
0.0
 11
247.8100000298
 21
260.971482005
 31
0.0
 12
246.81
 22
260.804815
 32
0.0
 13
246.81
 23
260.804815
 33
0.0
  0
MTEXT
  5
7C
100
AcDbEntity
  8
0
  6
CONTINUOUS
 62
       110
100
AcDbMText
 10
229.8349996185
 20
263.4048150238
 30
0.0
 40
3.2000000477
 41
0.0
 71
         5
 72
         1
  1
\A1;34
  0
POINT
  5
7D
100
AcDbEntity
  8
DEFPOINTS
  6
CONTINUOUS
 62
         0
100
AcDbPoint
 10
212.81
 20
232.4999997076
 30
0.0
  0
POINT
  5
7E
100
AcDbEntity
  8
DEFPOINTS
  6
CONTINUOUS
 62
         0
100
AcDbPoint
 10
246.81
 20
232.4999997076
 30
0.0
  0
POINT
  5
7F
100
AcDbEntity
  8
DEFPOINTS
  6
CONTINUOUS
 62
         0
100
AcDbPoint
 10
246.81
 20
260.804815
 30
0.0
  0
ENDBLK
  5
80
100
AcDbEntity
  8
0
  6
ByBlock
 62
         0
100
AcDbBlockEnd
  0
BLOCK
  5
83
100
AcDbEntity
  8
0
  6
ByBlock
 62
         0
100
AcDbBlockBegin
  2
*D8
 70
         1
 10
0.0
 20
0.0
 30
0.0
  3
*D8
  1

  0
LINE
  5
84
100
AcDbEntity
  8
0
  6
CONTINUOUS
 62
       110
100
AcDbLine
 10
271.8197
 20
232.5
 30
0.0
 11
271.8197
 21
67.5
 31
0.0
  0
LINE
  5
85
100
AcDbEntity
  8
0
  6
CONTINUOUS
 62
       110
100
AcDbLine
 10
246.8724992249
 20
232.5
 30
0.0
 11
273.8197
 21
232.5
 31
0.0
  0
LINE
  5
86
100
AcDbEntity
  8
0
  6
CONTINUOUS
 62
       110
100
AcDbLine
 10
246.8724992249
 20
67.5
 30
0.0
 11
273.8197
 21
67.5
 31
0.0
  0
LINE
  5
87
100
AcDbEntity
  8
0
  6
CONTINUOUS
 62
       110
100
AcDbLine
 10
271.8197
 20
232.5
 30
0.0
 11
271.8197
 21
236.5
 31
0.0
  0
LINE
  5
88
100
AcDbEntity
  8
0
  6
CONTINUOUS
 62
       110
100
AcDbLine
 10
271.8197
 20
67.5
 30
0.0
 11
271.8197
 21
63.5
 31
0.0
  0
SOLID
  5
89
100
AcDbEntity
  8
0
  6
CONTINUOUS
 62
       110
100
AcDbTrace
 10
271.986367005
 20
233.5000000298
 30
0.0
 11
271.653032995
 21
233.5000000298
 31
0.0
 12
271.8197
 22
232.5
 32
0.0
 13
271.8197
 23
232.5
 33
0.0
  0
SOLID
  5
8A
100
AcDbEntity
  8
0
  6
CONTINUOUS
 62
       110
100
AcDbTrace
 10
271.653032995
 20
66.4999999702
 30
0.0
 11
271.986367005
 21
66.4999999702
 31
0.0
 12
271.8197
 22
67.5
 32
0.0
 13
271.8197
 23
67.5
 33
0.0
  0
MTEXT
  5
8C
100
AcDbEntity
  8
0
  6
CONTINUOUS
 62
       110
100
AcDbMText
 10
269.2196999762
 20
150.0250015259
 30
0.0
 40
3.2000000477
 41
0.0
 71
         5
 72
         1
  1
\A1;\U+2205165
  7
MX_DIMTXSTY_3
 11
0.0
 21
1.0
 31
0.0
  0
POINT
  5
8D
100
AcDbEntity
  8
DEFPOINTS
  6
CONTINUOUS
 62
         0
100
AcDbPoint
 10
246.8099992249
 20
232.5
 30
0.0
  0
POINT
  5
8E
100
AcDbEntity
  8
DEFPOINTS
  6
CONTINUOUS
 62
         0
100
AcDbPoint
 10
246.8099992249
 20
67.5
 30
0.0
  0
POINT
  5
8F
100
AcDbEntity
  8
DEFPOINTS
  6
CONTINUOUS
 62
         0
100
AcDbPoint
 10
271.8197
 20
67.5
 30
0.0
  0
ENDBLK
  5
90
100
AcDbEntity
  8
0
  6
ByBlock
 62
         0
100
AcDbBlockEnd
  0
BLOCK
  5
93
100
AcDbEntity
  8
0
  6
ByBlock
 62
         0
100
AcDbBlockBegin
  2
*D9
 70
         1
 10
0.0
 20
0.0
 30
0.0
  3
*D9
  1

  0
LINE
  5
94
100
AcDbEntity
  8
0
  6
CONTINUOUS
 62
       110
100
AcDbLine
 10
151.591457
 20
61.5
 30
0.0
 11
151.591457
 21
238.5
 31
0.0
  0
LINE
  5
95
100
AcDbEntity
  8
0
  6
CONTINUOUS
 62
       110
100
AcDbLine
 10
196.7475010063
 20
61.5
 30
0.0
 11
149.591457
 21
61.5
 31
0.0
  0
LINE
  5
96
100
AcDbEntity
  8
0
  6
CONTINUOUS
 62
       110
100
AcDbLine
 10
196.7475010063
 20
238.5
 30
0.0
 11
149.591457
 21
238.5
 31
0.0
  0
LINE
  5
97
100
AcDbEntity
  8
0
  6
CONTINUOUS
 62
       110
100
AcDbLine
 10
151.591457
 20
61.5
 30
0.0
 11
151.591457
 21
57.5
 31
0.0
  0
LINE
  5
98
100
AcDbEntity
  8
0
  6
CONTINUOUS
 62
       110
100
AcDbLine
 10
151.591457
 20
238.5
 30
0.0
 11
151.591457
 21
242.5
 31
0.0
  0
SOLID
  5
99
100
AcDbEntity
  8
0
  6
CONTINUOUS
 62
       110
100
AcDbTrace
 10
151.424789995
 20
60.4999999702
 30
0.0
 11
151.758124005
 21
60.4999999702
 31
0.0
 12
151.591457
 22
61.5
 32
0.0
 13
151.591457
 23
61.5
 33
0.0
  0
SOLID
  5
9A
100
AcDbEntity
  8
0
  6
CONTINUOUS
 62
       110
100
AcDbTrace
 10
151.758124005
 20
239.5000000298
 30
0.0
 11
151.424789995
 21
239.5000000298
 31
0.0
 12
151.591457
 22
238.5
 32
0.0
 13
151.591457
 23
238.5
 33
0.0
  0
MTEXT
  5
9B
100
AcDbEntity
  8
0
  6
CONTINUOUS
 62
       110
100
AcDbMText
 10
148.9914569762
 20
150.0250015259
 30
0.0
 40
3.2000000477
 41
0.0
 71
         5
 72
         1
  1
\A1;\U+2205177
  7
MX_DIMTXSTY_3
 11
0.0
 21
1.0
 31
0.0
  0
POINT
  5
9C
100
AcDbEntity
  8
DEFPOINTS
  6
CONTINUOUS
 62
         0
100
AcDbPoint
 10
196.8100010063
 20
61.5
 30
0.0
  0
POINT
  5
9D
100
AcDbEntity
  8
DEFPOINTS
  6
CONTINUOUS
 62
         0
100
AcDbPoint
 10
196.8100010063
 20
238.5
 30
0.0
  0
POINT
  5
9E
100
AcDbEntity
  8
DEFPOINTS
  6
CONTINUOUS
 62
         0
100
AcDbPoint
 10
151.591457
 20
238.5
 30
0.0
  0
ENDBLK
  5
9F
100
AcDbEntity
  8
0
  6
ByBlock
 62
         0
100
AcDbBlockEnd
  0
BLOCK
  5
A2
100
AcDbEntity
  8
0
  6
ByBlock
 62
         0
100
AcDbBlockBegin
  2
*D10
 70
         1
 10
0.0
 20
0.0
 30
0.0
  3
*D10
  1

  0
LINE
  5
A3
100
AcDbEntity
  8
0
  6
CONTINUOUS
 62
       110
100
AcDbLine
 10
166.939743
 20
78.5
 30
0.0
 11
166.939743
 21
221.5
 31
0.0
  0
LINE
  5
A4
100
AcDbEntity
  8
0
  6
CONTINUOUS
 62
       110
100
AcDbLine
 10
191.8924998817
 20
78.5
 30
0.0
 11
164.939743
 21
78.5
 31
0.0
  0
LINE
  5
A5
100
AcDbEntity
  8
0
  6
CONTINUOUS
 62
       110
100
AcDbLine
 10
183.6615008888
 20
221.5
 30
0.0
 11
164.939743
 21
221.5
 31
0.0
  0
LINE
  5
A6
100
AcDbEntity
  8
0
  6
CONTINUOUS
 62
       110
100
AcDbLine
 10
166.939743
 20
78.5
 30
0.0
 11
166.939743
 21
74.5
 31
0.0
  0
LINE
  5
A7
100
AcDbEntity
  8
0
  6
CONTINUOUS
 62
       110
100
AcDbLine
 10
166.939743
 20
221.5
 30
0.0
 11
166.939743
 21
225.5
 31
0.0
  0
SOLID
  5
A8
100
AcDbEntity
  8
0
  6
CONTINUOUS
 62
       110
100
AcDbTrace
 10
166.773075995
 20
77.4999999702
 30
0.0
 11
167.106410005
 21
77.4999999702
 31
0.0
 12
166.939743
 22
78.5
 32
0.0
 13
166.939743
 23
78.5
 33
0.0
  0
SOLID
  5
A9
100
AcDbEntity
  8
0
  6
CONTINUOUS
 62
       110
100
AcDbTrace
 10
167.106410005
 20
222.5000000298
 30
0.0
 11
166.773075995
 21
222.5000000298
 31
0.0
 12
166.939743
 22
221.5
 32
0.0
 13
166.939743
 23
221.5
 33
0.0
  0
MTEXT
  5
AA
100
AcDbEntity
  8
0
  6
CONTINUOUS
 62
       110
100
AcDbMText
 10
164.3397429762
 20
150.0250015259
 30
0.0
 40
3.2000000477
 41
0.0
 71
         5
 72
         1
  1
\A1;\U+2205143
  7
MX_DIMTXSTY_3
 11
0.0
 21
1.0
 31
0.0
  0
POINT
  5
AB
100
AcDbEntity
  8
DEFPOINTS
  6
CONTINUOUS
 62
         0
100
AcDbPoint
 10
191.9549998817
 20
78.5
 30
0.0
  0
POINT
  5
AC
100
AcDbEntity
  8
DEFPOINTS
  6
CONTINUOUS
 62
         0
100
AcDbPoint
 10
183.7240008888
 20
221.5
 30
0.0
  0
POINT
  5
AD
100
AcDbEntity
  8
DEFPOINTS
  6
CONTINUOUS
 62
         0
100
AcDbPoint
 10
166.939743
 20
221.5
 30
0.0
  0
ENDBLK
  5
AE
100
AcDbEntity
  8
0
  6
ByBlock
 62
         0
100
AcDbBlockEnd
  0
BLOCK
  5
B1
100
AcDbEntity
  8
0
  6
ByBlock
 62
         0
100
AcDbBlockBegin
  2
*D11
 70
         1
 10
0.0
 20
0.0
 30
0.0
  3
*D11
  1

  0
LINE
  5
B2
100
AcDbEntity
  8
0
  6
CONTINUOUS
 62
       110
100
AcDbLine
 10
181.328762
 20
90.0
 30
0.0
 11
181.328762
 21
210.0
 31
0.0
  0
LINE
  5
B3
100
AcDbEntity
  8
0
  6
CONTINUOUS
 62
       110
100
AcDbLine
 10
196.7475003652
 20
90.0
 30
0.0
 11
179.328762
 21
90.0
 31
0.0
  0
LINE
  5
B4
100
AcDbEntity
  8
0
  6
CONTINUOUS
 62
       110
100
AcDbLine
 10
196.7475003652
 20
210.0
 30
0.0
 11
179.328762
 21
210.0
 31
0.0
  0
LINE
  5
B5
100
AcDbEntity
  8
0
  6
CONTINUOUS
 62
       110
100
AcDbLine
 10
181.328762
 20
90.0
 30
0.0
 11
181.328762
 21
86.0
 31
0.0
  0
LINE
  5
B6
100
AcDbEntity
  8
0
  6
CONTINUOUS
 62
       110
100
AcDbLine
 10
181.328762
 20
210.0
 30
0.0
 11
181.328762
 21
214.0
 31
0.0
  0
SOLID
  5
B7
100
AcDbEntity
  8
0
  6
CONTINUOUS
 62
       110
100
AcDbTrace
 10
181.162094995
 20
88.9999999702
 30
0.0
 11
181.495429005
 21
88.9999999702
 31
0.0
 12
181.328762
 22
90.0
 32
0.0
 13
181.328762
 23
90.0
 33
0.0
  0
SOLID
  5
B8
100
AcDbEntity
  8
0
  6
CONTINUOUS
 62
       110
100
AcDbTrace
 10
181.495429005
 20
211.0000000298
 30
0.0
 11
181.162094995
 21
211.0000000298
 31
0.0
 12
181.328762
 22
210.0
 32
0.0
 13
181.328762
 23
210.0
 33
0.0
  0
MTEXT
  5
B9
100
AcDbEntity
  8
0
  6
CONTINUOUS
 62
       110
100
AcDbMText
 10
178.7287619762
 20
150.0249977112
 30
0.0
 40
3.2000000477
 41
0.0
 71
         5
 72
         1
  1
\A1;\U+2205120
  7
MX_DIMTXSTY_2
 11
0.0
 21
1.0
 31
0.0
  0
POINT
  5
BA
100
AcDbEntity
  8
DEFPOINTS
  6
CONTINUOUS
 62
         0
100
AcDbPoint
 10
196.8100003652
 20
90.0
 30
0.0
  0
POINT
  5
BB
100
AcDbEntity
  8
DEFPOINTS
  6
CONTINUOUS
 62
         0
100
AcDbPoint
 10
196.8100003652
 20
210.0
 30
0.0
  0
POINT
  5
BC
100
AcDbEntity
  8
DEFPOINTS
  6
CONTINUOUS
 62
         0
100
AcDbPoint
 10
181.328762
 20
210.0
 30
0.0
  0
ENDBLK
  5
BD
100
AcDbEntity
  8
0
  6
ByBlock
 62
         0
100
AcDbBlockEnd
  0
ENDSEC
  0
SECTION
  2
ENTITIES
  0
MTEXT
  5
29
100
AcDbEntity
  8
0
  6
CONTINUOUS
 62
       110
100
AcDbMText
 10
61.5528875657
 20
57.2580004005
 30
0.0
 40
6.4000000954
 41
0.0
 71
         1
 72
         1
  1
\T1.025;\W1.058;\A1;TSUBAKI
  0
MTEXT
  5
2A
100
AcDbEntity
  8
0
  6
CONTINUOUS
 62
       110
100
AcDbMText
 10
33.4008875657
 20
6.7060003005
 30
0.0
 40
6.4000000954
 41
0.0
 71
         1
 72
         1
  1
\T1.025;\W1.058;\A1;TSUBAKI
  0
DIMENSION
  5
3A
100
AcDbEntity
  8
PV
  6
CONTINUOUS
 62
       110
100
AcDbDimension
  2
*D2
 10
246.81
 20
300.454554
 30
0.0
 11
216.8349996185
 21
300.454554
 31
0.0
 70
       128
  1
\A1;<>
  3
MXDIMSTYLE
100
AcDbAlignedDimension
 13
186.81
 23
228.4610008384
 33
0.0
 14
246.81
 24
232.5000023032
 34
0.0
100
AcDbRotatedDimension
1001
ACAD
1000
DSTYLE
1002
{
1070
         6
1000
SOLID
1070
         7
1000
SOLID
1070
        41
1040
1.0000000298
1070
        42
1040
0.0625
1070
        44
1040
2.0
1070
       271
1070
         4
1070
       284
1070
         8
1070
       340
1005
34
1070
       343
1005
0
1070
       344
1005
0
1002
}
  0
DIMENSION
  5
49
100
AcDbEntity
  8
PV
  6
CONTINUOUS
 62
       110
100
AcDbDimension
  2
*D3
 10
246.81
 20
286.065536
 30
0.0
 11
221.8349996185
 21
286.065536
 31
0.0
 70
       128
  1
\A1;<>
  3
MXDIMSTYLE
100
AcDbAlignedDimension
 13
196.81
 23
238.499999501
 33
0.0
 14
246.81
 24
232.499999501
 34
0.0
100
AcDbRotatedDimension
1001
ACAD
1000
DSTYLE
1002
{
1070
         6
1000
SOLID
1070
         7
1000
SOLID
1070
        41
1040
1.0000000298
1070
        42
1040
0.0625
1070
        44
1040
2.0
1070
       271
1070
         4
1070
       284
1070
         8
1070
       340
1005
34
1070
       343
1005
0
1070
       344
1005
0
1002
}
  0
DIMENSION
  5
56
100
AcDbEntity
  8
PV
  6
CONTINUOUS
 62
       110
100
AcDbDimension
  2
*D4
 10
202.81
 20
272.635785
 30
0.0
 11
199.8350000954
 21
272.635785
 31
0.0
 70
       128
  1
\A1;<>
  3
MXDIMSTYLE
100
AcDbAlignedDimension
 13
196.81
 23
238.5000008508
 33
0.0
 14
202.81
 24
238.5000008508
 34
0.0
100
AcDbRotatedDimension
1001
ACAD
1000
DSTYLE
1002
{
1070
         6
1000
SOLID
1070
         7
1000
SOLID
1070
        41
1040
1.0000000298
1070
        42
1040
0.0625
1070
        44
1040
2.0
1070
       271
1070
         4
1070
       284
1070
         8
1070
       343
1005
0
1070
       344
1005
0
1002
}
  0
DIMENSION
  5
65
100
AcDbEntity
  8
PV
  6
CONTINUOUS
 62
       110
100
AcDbDimension
  2
*D5
 10
246.81
 20
272.635785
 30
0.0
 11
224.8349996185
 21
272.635785
 31
0.0
 70
       128
  1
\A1;<>
  3
MXDIMSTYLE
100
AcDbAlignedDimension
 13
202.81
 23
238.5000008508
 33
0.0
 14
246.81
 24
232.5000008508
 34
0.0
100
AcDbRotatedDimension
1001
ACAD
1000
DSTYLE
1002
{
1070
         6
1000
SOLID
1070
         7
1000
SOLID
1070
        41
1040
1.0000000298
1070
        42
1040
0.0625
1070
        44
1040
2.0
1070
       271
1070
         4
1070
       284
1070
         8
1070
       343
1005
0
1070
       344
1005
0
1002
}
  0
DIMENSION
  5
72
100
AcDbEntity
  8
PV
  6
CONTINUOUS
 62
       110
100
AcDbDimension
  2
*D6
 10
206.81
 20
260.804815
 30
0.0
 11
204.8350000954
 21
260.804815
 31
0.0
 70
       128
  1
\A1;<>
  3
MXDIMSTYLE
100
AcDbAlignedDimension
 13
202.81
 23
238.4999997076
 33
0.0
 14
206.81
 24
232.4999997076
 34
0.0
100
AcDbRotatedDimension
1001
ACAD
1000
DSTYLE
1002
{
1070
         6
1000
SOLID
1070
         7
1000
SOLID
1070
        41
1040
1.0000000298
1070
        42
1040
0.0625
1070
        44
1040
2.0
1070
       271
1070
         4
1070
       284
1070
         8
1070
       343
1005
0
1070
       344
1005
0
1002
}
  0
DIMENSION
  5
81
100
AcDbEntity
  8
PV
  6
CONTINUOUS
 62
       110
100
AcDbDimension
  2
*D7
 10
246.81
 20
260.804815
 30
0.0
 11
229.8349996185
 21
260.804815
 31
0.0
 70
       128
  1
\A1;<>
  3
MXDIMSTYLE
100
AcDbAlignedDimension
 13
212.81
 23
232.4999997076
 33
0.0
 14
246.81
 24
232.4999997076
 34
0.0
100
AcDbRotatedDimension
1001
ACAD
1000
DSTYLE
1002
{
1070
         6
1000
SOLID
1070
         7
1000
SOLID
1070
        41
1040
1.0000000298
1070
        42
1040
0.0625
1070
        44
1040
2.0
1070
       271
1070
         4
1070
       284
1070
         8
1070
       343
1005
0
1070
       344
1005
0
1002
}
  0
DIMENSION
  5
91
100
AcDbEntity
  8
PV
  6
CONTINUOUS
 62
       110
100
AcDbDimension
  2
*D8
 10
271.8197
 20
67.5
 30
0.0
 11
271.8197
 21
150.0250015259
 31
0.0
 70
       128
  1
\A1;\U+2205<>
  3
MXDIMSTYLE
100
AcDbAlignedDimension
 13
246.8099992249
 23
232.5
 33
0.0
 14
246.8099992249
 24
67.5
 34
0.0
 50
90.0
100
AcDbRotatedDimension
1001
ACAD
1000
DSTYLE
1002
{
1070
         6
1000
SOLID
1070
         7
1000
SOLID
1070
        41
1040
1.0000000298
1070
        42
1040
0.0625
1070
        44
1040
2.0
1070
       271
1070
         4
1070
       284
1070
         8
1070
       340
1005
8B
1070
       343
1005
0
1070
       344
1005
0
1002
}
  0
DIMENSION
  5
A0
100
AcDbEntity
  8
PV
  6
CONTINUOUS
 62
       110
100
AcDbDimension
  2
*D9
 10
151.591457
 20
238.5
 30
0.0
 11
151.591457
 21
150.0250015259
 31
0.0
 70
       128
  1
\A1;\U+2205<>
  3
MXDIMSTYLE
100
AcDbAlignedDimension
 13
196.8100010063
 23
61.5
 33
0.0
 14
196.8100010063
 24
238.5
 34
0.0
 50
90.0
100
AcDbRotatedDimension
1001
ACAD
1000
DSTYLE
1002
{
1070
         6
1000
SOLID
1070
         7
1000
SOLID
1070
        41
1040
1.0000000298
1070
        42
1040
0.0625
1070
        44
1040
2.0
1070
       271
1070
         4
1070
       284
1070
         8
1070
       340
1005
8B
1070
       343
1005
0
1070
       344
1005
0
1002
}
  0
DIMENSION
  5
AF
100
AcDbEntity
  8
PV
  6
CONTINUOUS
 62
       110
100
AcDbDimension
  2
*D10
 10
166.939743
 20
221.5
 30
0.0
 11
166.939743
 21
150.0250015259
 31
0.0
 70
       128
  1
\A1;\U+2205<>
  3
MXDIMSTYLE
100
AcDbAlignedDimension
 13
191.9549998817
 23
78.5
 33
0.0
 14
183.7240008888
 24
221.5
 34
0.0
 50
90.0
100
AcDbRotatedDimension
1001
ACAD
1000
DSTYLE
1002
{
1070
         6
1000
SOLID
1070
         7
1000
SOLID
1070
        41
1040
1.0000000298
1070
        42
1040
0.0625
1070
        44
1040
2.0
1070
       271
1070
         4
1070
       284
1070
         8
1070
       340
1005
8B
1070
       343
1005
0
1070
       344
1005
0
1002
}
  0
DIMENSION
  5
BE
100
AcDbEntity
  8
PV
  6
CONTINUOUS
 62
       110
100
AcDbDimension
  2
*D11
 10
181.328762
 20
210.0
 30
0.0
 11
181.328762
 21
150.0249977112
 31
0.0
 70
       128
  1
\A1;\U+2205<>
  3
MXDIMSTYLE
100
AcDbAlignedDimension
 13
196.8100003652
 23
90.0
 33
0.0
 14
196.8100003652
 24
210.0
 34
0.0
 50
90.0
100
AcDbRotatedDimension
1001
ACAD
1000
DSTYLE
1002
{
1070
         6
1000
SOLID
1070
         7
1000
SOLID
1070
        41
1040
1.0000000298
1070
        42
1040
0.0625
1070
        44
1040
2.0
1070
       271
1070
         4
1070
       284
1070
         8
1070
       340
1005
34
1070
       343
1005
0
1070
       344
1005
0
1002
}
  0
LINE
  5
BF
100
AcDbEntity
  8
PV
  6
CONTINUOUS
 62
         3
100
AcDbLine
 10
206.81
 20
67.5
 30
0.0
 11
202.81
 21
67.5
 31
0.0
  0
LINE
  5
C0
100
AcDbEntity
  8
PV
  6
CONTINUOUS
 62
         3
100
AcDbLine
 10
212.81
 20
232.5
 30
0.0
 11
246.81
 21
232.5
 31
0.0
  0
MTEXT
  5
C1
100
AcDbEntity
  8
PV
  6
CONTINUOUS
 62
       110
100
AcDbMText
 10
-54.7539285229
 20
-101.0639996995
 30
0.0
 40
6.4000000954
 41
0.0
 71
         1
 72
         1
  1
\A1;MASS
  0
MTEXT
  5
C2
100
AcDbEntity
  8
PV
  6
CONTINUOUS
 62
       110
100
AcDbMText
 10
33.3053153823
 20
-5.2939996995
 30
0.0
 40
6.4000000954
 41
0.0
 71
         1
 72
         1
  1
\T1.003;\W1.067;\A1;POWER LOCK
  0
MTEXT
  5
C3
100
AcDbEntity
  8
PV
  6
CONTINUOUS
 62
       110
100
AcDbMText
 10
-54.5619776034
 20
-41.0639996995
 30
0.0
 40
6.4000000954
 41
0.0
 71
         1
 72
         1
  1
\T1.041;\W1.120;\A1;TIGHTENING TORQUE OF LOCKING BOLTS
  0
MTEXT
  5
C4
100
AcDbEntity
  8
PV
  6
CONTINUOUS
 62
       110
100
AcDbMText
 10
-54.5248841527
 20
-29.0639996995
 30
0.0
 40
6.4000000954
 41
0.0
 71
         1
 72
         1
  1
\T1.047;\W1.149;\A1;QUANTITY AND SIZE OF LOCKING BOLTS
  0
MTEXT
  5
C5
100
AcDbEntity
  8
PV
  6
CONTINUOUS
 62
       110
100
AcDbMText
 10
-54.6291753059
 20
-53.0639996995
 30
0.0
 40
6.4000000954
 41
0.0
 71
         1
 72
         1
  1
\T1.028;\W1.060;\A1;TRANSMISSIBLE TORQUE
  0
MTEXT
  5
C6
100
AcDbEntity
  8
PV
  6
CONTINUOUS
 62
       110
100
AcDbMText
 10
-54.6291753059
 20
-65.0639996995
 30
0.0
 40
6.4000000954
 41
0.0
 71
         1
 72
         1
  1
\T1.028;\W1.060;\A1;TRANSMISSIBLE THRUST
  0
MTEXT
  5
C7
100
AcDbEntity
  8
PV
  6
CONTINUOUS
 62
       110
100
AcDbMText
 10
-54.6373078402
 20
-77.0639996995
 30
0.0
 40
6.4000000954
 41
0.0
 71
         1
 72
         1
  1
\T1.025;\W1.104;\A1;CONTACT PRESSURE OF SHAFT
  0
MTEXT
  5
C8
100
AcDbEntity
  8
PV
  6
CONTINUOUS
 62
       110
100
AcDbMText
 10
-54.6114749038
 20
-89.0639996995
 30
0.0
 40
6.4000000954
 41
0.0
 71
         1
 72
         1
  1
\T1.030;\W1.126;\A1;CONTACT PRESSURE OF HUB BORE
  0
MTEXT
  5
C9
100
AcDbEntity
  8
PV
  6
CONTINUOUS
 62
       110
100
AcDbMText
 10
-54.676165857
 20
-17.0639996995
 30
0.0
 40
6.4000000954
 41
0.0
 71
         1
 72
         1
  1
\T1.017;\W1.071;\A1;MODEL NUMBER
  0
MTEXT
  5
CA
100
AcDbEntity
  8
PV
  6
CONTINUOUS
 62
       110
100
AcDbMText
 10
61.4573153823
 20
45.2580004005
 30
0.0
 40
6.4000000954
 41
0.0
 71
         1
 72
         1
  1
\T1.003;\W1.067;\A1;POWER LOCK
  0
MTEXT
  5
CB
100
AcDbEntity
  8
PV
  6
CONTINUOUS
 62
       110
100
AcDbMText
 10
61.5295026542
 20
33.2580004005
 30
0.0
 40
6.4000000954
 41
0.0
 71
         1
 72
         1
  1
\W1.082;\A1;PL120X165AE
  0
LINE
  5
CC
100
AcDbEntity
  8
PV
  6
CONTINUOUS
 62
         3
100
AcDbLine
 10
165.846738
 20
-14.0
 30
0.0
 11
165.846738
 21
-110.0
 31
0.0
  0
LINE
  5
CD
100
AcDbEntity
  8
PV
  6
CONTINUOUS
 62
         3
100
AcDbLine
 10
-63.699262
 20
10.0
 30
0.0
 11
-63.699262
 21
-110.0
 31
0.0
  0
LINE
  5
CE
100
AcDbEntity
  8
PV
  6
CONTINUOUS
 62
         3
100
AcDbLine
 10
-63.699262
 20
10.0
 30
0.0
 11
334.518
 21
10.0
 31
0.0
  0
LINE
  5
CF
100
AcDbEntity
  8
PV
  6
CONTINUOUS
 62
         3
100
AcDbLine
 10
-63.699262
 20
-110.0
 30
0.0
 11
334.518
 21
-110.0
 31
0.0
  0
LINE
  5
D0
100
AcDbEntity
  8
PV
  6
CONTINUOUS
 62
         3
100
AcDbLine
 10
-63.699262
 20
-98.0
 30
0.0
 11
334.518
 21
-98.0
 31
0.0
  0
LINE
  5
D1
100
AcDbEntity
  8
PV
  6
CONTINUOUS
 62
         3
100
AcDbLine
 10
-63.699262
 20
-86.0
 30
0.0
 11
334.518
 21
-86.0
 31
0.0
  0
LINE
  5
D2
100
AcDbEntity
  8
PV
  6
CONTINUOUS
 62
         3
100
AcDbLine
 10
-63.699262
 20
-74.0
 30
0.0
 11
334.518
 21
-74.0
 31
0.0
  0
LINE
  5
D3
100
AcDbEntity
  8
PV
  6
CONTINUOUS
 62
         3
100
AcDbLine
 10
-63.699262
 20
-62.0
 30
0.0
 11
334.518
 21
-62.0
 31
0.0
  0
LINE
  5
D4
100
AcDbEntity
  8
PV
  6
CONTINUOUS
 62
         3
100
AcDbLine
 10
-63.699262
 20
-50.0
 30
0.0
 11
334.518
 21
-50.0
 31
0.0
  0
LINE
  5
D5
100
AcDbEntity
  8
PV
  6
CONTINUOUS
 62
         3
100
AcDbLine
 10
-63.699262
 20
-38.0
 30
0.0
 11
334.518
 21
-38.0
 31
0.0
  0
LINE
  5
D6
100
AcDbEntity
  8
PV
  6
CONTINUOUS
 62
         3
100
AcDbLine
 10
-63.699262
 20
-26.0
 30
0.0
 11
334.518
 21
-26.0
 31
0.0
  0
LINE
  5
D7
100
AcDbEntity
  8
PV
  6
CONTINUOUS
 62
         3
100
AcDbLine
 10
-63.699262
 20
-14.0
 30
0.0
 11
334.518
 21
-14.0
 31
0.0
  0
LINE
  5
D8
100
AcDbEntity
  8
PV
  6
CONTINUOUS
 62
         3
100
AcDbLine
 10
-63.699262
 20
-2.0
 30
0.0
 11
334.518
 21
-2.0
 31
0.0
  0
LINE
  5
D9
100
AcDbEntity
  8
PV
  6
CONTINUOUS
 62
         3
100
AcDbLine
 10
27.455
 20
279.15
 30
0.0
 11
41.19
 21
279.15
 31
0.0
  0
LINE
  5
DA
100
AcDbEntity
  8
PV
  6
CONTINUOUS
 62
         3
100
AcDbLine
 10
-0.843
 20
225.915
 30
0.0
 11
27.455
 21
279.15
 31
0.0
  0
MTEXT
  5
DB
100
AcDbEntity
  8
PV
  6
CONTINUOUS
 62
       110
100
AcDbMText
 10
185.6186662414
 20
-88.7999997995
 30
0.0
 40
6.4000000954
 41
0.0
 71
         1
 72
         1
  1
\W1.200;\A1;130
  0
MTEXT
  5
DC
100
AcDbEntity
  8
PV
  6
CONTINUOUS
 62
       110
100
AcDbMText
 10
185.538666267
 20
-76.7999997995
 30
0.0
 40
6.4000000954
 41
0.0
 71
         1
 72
         1
  1
\W1.125;\A1;218
  0
MTEXT
  5
DD
100
AcDbEntity
  8
PV
  6
CONTINUOUS
 62
       110
100
AcDbMText
 10
185.4053334771
 20
-64.7999997995
 30
0.0
 40
6.4000000954
 41
0.0
 71
         1
 72
         1
  1
\A1;248
  0
MTEXT
  5
DE
100
AcDbEntity
  8
PV
  6
CONTINUOUS
 62
       110
100
AcDbMText
 10
179.360888388
 20
-52.7999997995
 30
0.0
 40
6.4000000954
 41
0.0
 71
         1
 72
         1
  1
\W1.333;\A1;14.9
  0
MTEXT
  5
DF
100
AcDbEntity
  8
PV
  6
CONTINUOUS
 62
       110
100
AcDbMText
 10
179.360888388
 20
-40.7999997995
 30
0.0
 40
6.4000000954
 41
0.0
 71
         1
 72
         1
  1
\W1.333;\A1;81.3
  0
MTEXT
  5
E0
100
AcDbEntity
  8
PV
  6
CONTINUOUS
 62
       110
100
AcDbMText
 10
316.020667238
 20
-88.0000000882
 30
0.0
 40
3.2000000477
 41
0.0
 71
         1
 72
         1
  1
\A1;2
  0
MTEXT
  5
E1
100
AcDbEntity
  8
PV
  6
CONTINUOUS
 62
       110
100
AcDbMText
 10
278.3041778148
 20
-88.7999997995
 30
0.0
 40
6.4000000954
 41
0.0
 71
         1
 72
         1
  1
\T1.070;\W1.143;\A1;kgf/ mm \}
  0
MTEXT
  5
E2
100
AcDbEntity
  8
PV
  6
CONTINUOUS
 62
       110
100
AcDbMText
 10
316.020667238
 20
-76.0000000882
 30
0.0
 40
3.2000000477
 41
0.0
 71
         1
 72
         1
  1
\A1;2
  0
MTEXT
  5
E3
100
AcDbEntity
  8
PV
  6
CONTINUOUS
 62
       110
100
AcDbMText
 10
278.3041778148
 20
-76.7999997995
 30
0.0
 40
6.4000000954
 41
0.0
 71
         1
 72
         1
  1
\T1.070;\W1.143;\A1;kgf/ mm \}
  0
MTEXT
  5
E4
100
AcDbEntity
  8
PV
  6
CONTINUOUS
 62
       110
100
AcDbMText
 10
278.304302649
 20
-64.7999997995
 30
0.0
 40
6.4000000954
 41
0.0
 71
         1
 72
         1
  1
\W1.091;\A1;kgf\}
  0
MTEXT
  5
E5
100
AcDbEntity
  8
PV
  6
CONTINUOUS
 62
       110
100
AcDbMText
 10
278.7406660311
 20
-40.7999997995
 30
0.0
 40
6.4000000954
 41
0.0
 71
         1
 72
         1
  1
\W0.833;\A1;ｋｇｆ・ｍ｝
  0
MTEXT
  5
E6
100
AcDbEntity
  8
PV
  6
CONTINUOUS
 62
       110
100
AcDbMText
 10
278.7406660311
 20
-52.7999997995
 30
0.0
 40
6.4000000954
 41
0.0
 71
         1
 72
         1
  1
\W0.833;\A1;ｋｇｆ・ｍ｝
  0
MTEXT
  5
E7
100
AcDbEntity
  8
PV
  6
CONTINUOUS
 62
       110
100
AcDbMText
 10
208.2053334771
 20
-100.7999996995
 30
0.0
 40
6.4000000954
 41
0.0
 71
         1
 72
         1
  1
\A1;kg
  0
MTEXT
  5
E8
100
AcDbEntity
  8
PV
  6
CONTINUOUS
 62
       110
100
AcDbMText
 10
208.2053334771
 20
-88.7999997995
 30
0.0
 40
6.4000000954
 41
0.0
 71
         1
 72
         1
  1
\A1;MPa
  0
MTEXT
  5
E9
100
AcDbEntity
  8
PV
  6
CONTINUOUS
 62
       110
100
AcDbMText
 10
208.2053334771
 20
-76.7999997995
 30
0.0
 40
6.4000000954
 41
0.0
 71
         1
 72
         1
  1
\A1;MPa
  0
MTEXT
  5
EA
100
AcDbEntity
  8
PV
  6
CONTINUOUS
 62
       110
100
AcDbMText
 10
208.2053334771
 20
-64.7999997995
 30
0.0
 40
6.4000000954
 41
0.0
 71
         1
 72
         1
  1
\A1;kN
  0
MTEXT
  5
EB
100
AcDbEntity
  8
PV
  6
CONTINUOUS
 62
       110
100
AcDbMText
 10
208.7386660311
 20
-52.7999997995
 30
0.0
 40
6.4000000954
 41
0.0
 71
         1
 72
         1
  1
\W0.833;\A1;ｋＮ・ｍ
  0
MTEXT
  5
EC
100
AcDbEntity
  8
PV
  6
CONTINUOUS
 62
       110
100
AcDbMText
 10
208.7386660311
 20
-40.7999997995
 30
0.0
 40
6.4000000954
 41
0.0
 71
         1
 72
         1
  1
\W0.833;\A1;Ｎ・ｍ
  0
MTEXT
  5
ED
100
AcDbEntity
  8
PV
  6
CONTINUOUS
 62
       110
100
AcDbMText
 10
214.7867646542
 20
-16.7999998995
 30
0.0
 40
6.4000000954
 41
0.0
 71
         1
 72
         1
  1
\W1.082;\A1;PL120X165AE
  0
MTEXT
  5
EE
100
AcDbEntity
  8
PV
  6
CONTINUOUS
 62
       110
100
AcDbMText
 10
221.2061764878
 20
-28.7999997995
 30
0.0
 40
6.4000000954
 41
0.0
 71
         1
 72
         1
  1
\W1.102;\A1;18-M10X25
  0
MTEXT
  5
EF
100
AcDbEntity
  8
PV
  6
CONTINUOUS
 62
       110
100
AcDbMText
 10
247.4428892182
 20
-40.7999997995
 30
0.0
 40
6.4000000954
 41
0.0
 71
         1
 72
         1
  1
\W1.333;\A1;\{8.3
  0
MTEXT
  5
F0
100
AcDbEntity
  8
PV
  6
CONTINUOUS
 62
       110
100
AcDbMText
 10
240.8986670655
 20
-52.7999997995
 30
0.0
 40
6.4000000954
 41
0.0
 71
         1
 72
         1
  1
\W1.200;\A1;\{1520
  0
MTEXT
  5
F1
100
AcDbEntity
  8
PV
  6
CONTINUOUS
 62
       110
100
AcDbMText
 10
234.4206671106
 20
-64.7999997995
 30
0.0
 40
6.4000000954
 41
0.0
 71
         1
 72
         1
  1
\W1.125;\A1;\{25300
  0
MTEXT
  5
F2
100
AcDbEntity
  8
PV
  6
CONTINUOUS
 62
       110
100
AcDbMText
 10
240.9520003719
 20
-76.7999997995
 30
0.0
 40
6.4000000954
 41
0.0
 71
         1
 72
         1
  1
\W1.250;\A1;\{22.2
  0
MTEXT
  5
F3
100
AcDbEntity
  8
PV
  6
CONTINUOUS
 62
       110
100
AcDbMText
 10
241.073212431
 20
-88.7999997995
 30
0.0
 40
6.4000000954
 41
0.0
 71
         1
 72
         1
  1
\W1.364;\A1;\{13.3
  0
MTEXT
  5
F4
100
AcDbEntity
  8
PV
  6
CONTINUOUS
 62
       110
100
AcDbMText
 10
179.2186662376
 20
-100.7999996995
 30
0.0
 40
6.4000000954
 41
0.0
 71
         1
 72
         1
  1
\W1.200;\A1;3.59
  0
MTEXT
  5
F5
100
AcDbEntity
  8
PV
  6
CONTINUOUS
 62
       110
100
AcDbMText
 10
32.6733954594
 20
283.2205799421
 30
0.0
 40
3.2000000477
 41
0.0
 71
         1
 72
         1
  1
\W1.200;\A1;M10
 11
0.9998476952
 21
-0.0174524064
 31
0.0
  0
LINE
  5
F6
100
AcDbEntity
  8
PV
  6
CONTINUOUS
 62
         3
100
AcDbLine
 10
196.81
 20
238.5
 30
0.0
 11
196.81
 21
61.5
 31
0.0
  0
LINE
  5
F7
100
AcDbEntity
  8
PV
  6
CONTINUOUS
 62
         3
100
AcDbLine
 10
186.81
 20
228.461
 30
0.0
 11
186.81
 21
214.539
 31
0.0
  0
LINE
  5
F8
100
AcDbEntity
  8
PV
  6
CONTINUOUS
 62
         3
100
AcDbLine
 10
186.81
 20
228.461
 30
0.0
 11
187.41
 21
229.5
 31
0.0
  0
LINE
  5
F9
100
AcDbEntity
  8
PV
  6
CONTINUOUS
 62
         3
100
AcDbLine
 10
186.81
 20
214.539
 30
0.0
 11
187.41
 21
213.5
 31
0.0
  0
LINE
  5
FA
100
AcDbEntity
  8
PV
  6
CONTINUOUS
 62
         3
100
AcDbLine
 10
196.81
 20
213.5
 30
0.0
 11
187.41
 21
213.5
 31
0.0
  0
LINE
  5
FB
100
AcDbEntity
  8
PV
  6
CONTINUOUS
 62
         3
100
AcDbLine
 10
196.81
 20
229.5
 30
0.0
 11
187.41
 21
229.5
 31
0.0
  0
LINE
  5
FC
100
AcDbEntity
  8
PV
  6
CONTINUOUS
 62
         3
100
AcDbLine
 10
246.81
 20
67.5
 30
0.0
 11
212.81
 21
67.5
 31
0.0
  0
LINE
  5
FD
100
AcDbEntity
  8
PV
  6
CONTINUOUS
 62
         3
100
AcDbLine
 10
246.81
 20
150.0
 30
0.0
 11
246.81
 21
67.5
 31
0.0
  0
LINE
  5
FE
100
AcDbEntity
  8
PV
  6
CONTINUOUS
 62
         3
100
AcDbLine
 10
202.81
 20
232.5
 30
0.0
 11
206.81
 21
232.5
 31
0.0
  0
LINE
  5
FF
100
AcDbEntity
  8
PV
  6
CONTINUOUS
 62
         3
100
AcDbLine
 10
246.81
 20
232.5
 30
0.0
 11
246.81
 21
150.0
 31
0.0
  0
LINE
  5
100
100
AcDbEntity
  8
PV
  6
CONTINUOUS
 62
         3
100
AcDbLine
 10
240.81
 20
90.0
 30
0.0
 11
196.81
 21
90.0
 31
0.0
  0
LINE
  5
101
100
AcDbEntity
  8
PV
  6
CONTINUOUS
 62
         3
100
AcDbLine
 10
202.81
 20
61.5
 30
0.0
 11
196.81
 21
61.5
 31
0.0
  0
LINE
  5
102
100
AcDbEntity
  8
PV
  6
CONTINUOUS
 62
         3
100
AcDbLine
 10
202.81
 20
67.5
 30
0.0
 11
202.81
 21
61.5
 31
0.0
  0
LINE
  5
103
100
AcDbEntity
  8
PV
  6
CONTINUOUS
 62
         3
100
AcDbLine
 10
196.81
 20
210.0
 30
0.0
 11
240.81
 21
210.0
 31
0.0
  0
LINE
  5
104
100
AcDbEntity
  8
PV
  6
CONTINUOUS
 62
         3
100
AcDbLine
 10
196.81
 20
238.5
 30
0.0
 11
202.81
 21
238.5
 31
0.0
  0
LINE
  5
105
100
AcDbEntity
  8
PV
  6
CONTINUOUS
 62
         3
100
AcDbLine
 10
202.81
 20
238.5
 30
0.0
 11
202.81
 21
232.5
 31
0.0
  0
CIRCLE
  5
106
100
AcDbEntity
  8
PV
  6
CONTINUOUS
 62
         3
100
AcDbCircle
 10
-3.19
 20
150.0
 30
0.0
 40
88.5
  0
CIRCLE
  5
107
100
AcDbEntity
  8
PV
  6
CONTINUOUS
 62
         3
100
AcDbCircle
 10
-3.19
 20
150.0
 30
0.0
 40
60.0
  0
LINE
  5
108
100
AcDbEntity
  8
PV
  6
CONTINUOUS
 62
         3
100
AcDbLine
 10
334.518
 20
10.0
 30
0.0
 11
334.518
 21
-110.0
 31
0.0
  0
LINE
  5
109
100
AcDbEntity
  8
PV
  6
CONTINUOUS
 62
         3
100
AcDbLine
 10
206.81
 20
85.2
 30
0.0
 11
206.81
 21
67.5
 31
0.0
  0
LINE
  5
10A
100
AcDbEntity
  8
PV
  6
CONTINUOUS
 62
         3
100
AcDbLine
 10
212.81
 20
217.312
 30
0.0
 11
212.81
 21
214.2
 31
0.0
  0
LINE
  5
10B
100
AcDbEntity
  8
PV
  6
CONTINUOUS
 62
         3
100
AcDbLine
 10
206.81
 20
216.5
 30
0.0
 11
206.81
 21
214.8
 31
0.0
  0
LINE
  5
10C
100
AcDbEntity
  8
PV
  6
CONTINUOUS
 62
         3
100
AcDbLine
 10
187.41
 20
229.5
 30
0.0
 11
187.41
 21
213.5
 31
0.0
  0
LINE
  5
10D
100
AcDbEntity
  8
PV
  6
CONTINUOUS
 62
         3
100
AcDbLine
 10
200.56
 20
225.688
 30
0.0
 11
246.81
 21
225.688
 31
0.0
  0
LINE
  5
10E
100
AcDbEntity
  8
PV
  6
CONTINUOUS
 62
         3
100
AcDbLine
 10
200.56
 20
217.312
 30
0.0
 11
246.81
 21
217.312
 31
0.0
  0
LINE
  5
10F
100
AcDbEntity
  8
PV
  6
CONTINUOUS
 62
         3
100
AcDbLine
 10
200.56
 20
217.312
 30
0.0
 11
198.936
 21
216.5
 31
0.0
  0
LINE
  5
110
100
AcDbEntity
  8
PV
  6
CONTINUOUS
 62
         3
100
AcDbLine
 10
200.56
 20
225.688
 30
0.0
 11
198.936
 21
226.5
 31
0.0
  0
LINE
  5
111
100
AcDbEntity
  8
PV
  6
CONTINUOUS
 62
         3
100
AcDbLine
 10
200.56
 20
226.5
 30
0.0
 11
200.56
 21
216.5
 31
0.0
  0
LINE
  5
112
100
AcDbEntity
  8
PV
  6
CONTINUOUS
 62
         3
100
AcDbLine
 10
221.81
 20
225.0
 30
0.0
 11
221.81
 21
218.0
 31
0.0
  0
LINE
  5
113
100
AcDbEntity
  8
PV
  6
CONTINUOUS
 62
         3
100
AcDbLine
 10
220.31
 20
226.5
 30
0.0
 11
220.31
 21
216.5
 31
0.0
  0
LINE
  5
114
100
AcDbEntity
  8
PV
  6
CONTINUOUS
 62
         3
100
AcDbLine
 10
220.31
 20
216.5
 30
0.0
 11
221.81
 21
218.0
 31
0.0
  0
LINE
  5
115
100
AcDbEntity
  8
PV
  6
CONTINUOUS
 62
         3
100
AcDbLine
 10
220.31
 20
226.5
 30
0.0
 11
221.81
 21
225.0
 31
0.0
  0
LINE
  5
116
100
AcDbEntity
  8
PV
  6
CONTINUOUS
 62
         3
100
AcDbLine
 10
246.81
 20
216.5
 30
0.0
 11
196.81
 21
216.5
 31
0.0
  0
LINE
  5
117
100
AcDbEntity
  8
PV
  6
CONTINUOUS
 62
         3
100
AcDbLine
 10
246.81
 20
226.5
 30
0.0
 11
196.81
 21
226.5
 31
0.0
  0
LINE
  5
118
100
AcDbEntity
  8
PV
  6
CONTINUOUS
 62
         3
100
AcDbLine
 10
212.81
 20
85.8
 30
0.0
 11
212.81
 21
67.5
 31
0.0
  0
LINE
  5
119
100
AcDbEntity
  8
PV
  6
CONTINUOUS
 62
         3
100
AcDbLine
 10
212.81
 20
232.5
 30
0.0
 11
212.81
 21
225.688
 31
0.0
  0
LINE
  5
11B
100
AcDbEntity
  8
PV
  6
CENTER
 62
         3
100
AcDbLine
 10
191.156
 20
150.0
 30
0.0
 11
255.43
 21
150.0
 31
0.0
  0
LINE
  5
11C
100
AcDbEntity
  8
PV
  6
CONTINUOUS
 62
         3
100
AcDbLine
 10
206.81
 20
74.312
 30
0.0
 11
196.81
 21
74.312
 31
0.0
  0
LINE
  5
11D
100
AcDbEntity
  8
PV
  6
CONTINUOUS
 62
         3
100
AcDbLine
 10
206.81
 20
73.5
 30
0.0
 11
196.81
 21
73.5
 31
0.0
  0
LINE
  5
11E
100
AcDbEntity
  8
PV
  6
CONTINUOUS
 62
         3
100
AcDbLine
 10
196.81
 20
82.688
 30
0.0
 11
206.81
 21
82.688
 31
0.0
  0
LINE
  5
11F
100
AcDbEntity
  8
PV
  6
CONTINUOUS
 62
         3
100
AcDbLine
 10
196.81
 20
83.5
 30
0.0
 11
206.81
 21
83.5
 31
0.0
  0
LINE
  5
120
100
AcDbEntity
  8
PV
  6
CENTER
 62
         3
100
AcDbLine
 10
208.623
 20
78.5
 30
0.0
 11
191.955
 21
78.5
 31
0.0
  0
LINE
  5
121
100
AcDbEntity
  8
PV
  6
CONTINUOUS
 62
         3
100
AcDbLine
 10
246.81
 20
89.2
 30
0.0
 11
206.81
 21
85.2
 31
0.0
  0
LINE
  5
122
100
AcDbEntity
  8
PV
  6
CENTER
 62
         3
100
AcDbLine
 10
183.724
 20
221.5
 30
0.0
 11
252.322
 21
221.5
 31
0.0
  0
LINE
  5
123
100
AcDbEntity
  8
PV
  6
CONTINUOUS
 62
         3
100
AcDbLine
 10
206.81
 20
214.8
 30
0.0
 11
246.81
 21
210.800105
 31
0.0
  0
LINE
  5
124
100
AcDbEntity
  8
PV
  6
CONTINUOUS
 62
         3
100
AcDbLine
 10
240.81
 20
211.4
 30
0.0
 11
240.81
 21
88.6
 31
0.0
  0
LINE
  5
125
100
AcDbEntity
  8
PV
  6
CONTINUOUS
 62
         3
100
AcDbLine
 10
206.81
 20
232.5
 30
0.0
 11
206.81
 21
226.5
 31
0.0
  0
CIRCLE
  5
126
100
AcDbEntity
  8
PV
  6
CONTINUOUS
 62
         3
100
AcDbCircle
 10
-15.606
 20
220.414
 30
0.0
 40
6.961
  0
CIRCLE
  5
127
100
AcDbEntity
  8
PV
  6
CONTINUOUS
 62
         3
100
AcDbCircle
 10
-15.606
 20
220.414
 30
0.0
 40
8.0
  0
CIRCLE
  5
128
100
AcDbEntity
  8
PV
  6
CONTINUOUS
 62
         3
100
AcDbCircle
 10
-38.94
 20
211.921
 30
0.0
 40
6.961
  0
CIRCLE
  5
129
100
AcDbEntity
  8
PV
  6
CONTINUOUS
 62
         3
100
AcDbCircle
 10
-38.94
 20
211.921
 30
0.0
 40
8.0
  0
CIRCLE
  5
12A
100
AcDbEntity
  8
PV
  6
CONTINUOUS
 62
         3
100
AcDbCircle
 10
-57.962
 20
195.959
 30
0.0
 40
6.961
  0
CIRCLE
  5
12B
100
AcDbEntity
  8
PV
  6
CONTINUOUS
 62
         3
100
AcDbCircle
 10
-57.962
 20
195.959
 30
0.0
 40
8.0
  0
CIRCLE
  5
12C
100
AcDbEntity
  8
PV
  6
CONTINUOUS
 62
         3
100
AcDbCircle
 10
-70.378
 20
174.455
 30
0.0
 40
6.961
  0
CIRCLE
  5
12D
100
AcDbEntity
  8
PV
  6
CONTINUOUS
 62
         3
100
AcDbCircle
 10
-70.378
 20
174.455
 30
0.0
 40
8.0
  0
CIRCLE
  5
12E
100
AcDbEntity
  8
PV
  6
CONTINUOUS
 62
         3
100
AcDbCircle
 10
-74.689
 20
150.0
 30
0.0
 40
6.961
  0
CIRCLE
  5
12F
100
AcDbEntity
  8
PV
  6
CONTINUOUS
 62
         3
100
AcDbCircle
 10
-74.689
 20
150.0
 30
0.0
 40
8.0
  0
CIRCLE
  5
130
100
AcDbEntity
  8
PV
  6
CONTINUOUS
 62
         3
100
AcDbCircle
 10
-70.378
 20
125.546
 30
0.0
 40
6.961
  0
CIRCLE
  5
131
100
AcDbEntity
  8
PV
  6
CONTINUOUS
 62
         3
100
AcDbCircle
 10
-70.378
 20
125.546
 30
0.0
 40
8.0
  0
CIRCLE
  5
132
100
AcDbEntity
  8
PV
  6
CONTINUOUS
 62
         3
100
AcDbCircle
 10
-57.962
 20
104.041
 30
0.0
 40
6.961
  0
CIRCLE
  5
133
100
AcDbEntity
  8
PV
  6
CONTINUOUS
 62
         3
100
AcDbCircle
 10
-57.962
 20
104.041
 30
0.0
 40
8.0
  0
CIRCLE
  5
134
100
AcDbEntity
  8
PV
  6
CONTINUOUS
 62
         3
100
AcDbCircle
 10
-38.94
 20
88.079
 30
0.0
 40
6.961
  0
CIRCLE
  5
135
100
AcDbEntity
  8
PV
  6
CONTINUOUS
 62
         3
100
AcDbCircle
 10
-38.94
 20
88.079
 30
0.0
 40
8.0
  0
CIRCLE
  5
136
100
AcDbEntity
  8
PV
  6
CONTINUOUS
 62
         3
100
AcDbCircle
 10
-15.606
 20
79.586
 30
0.0
 40
6.961
  0
CIRCLE
  5
137
100
AcDbEntity
  8
PV
  6
CONTINUOUS
 62
         3
100
AcDbCircle
 10
-15.606
 20
79.586
 30
0.0
 40
8.0
  0
CIRCLE
  5
138
100
AcDbEntity
  8
PV
  6
CONTINUOUS
 62
         3
100
AcDbCircle
 10
9.226
 20
79.586
 30
0.0
 40
6.961
  0
CIRCLE
  5
139
100
AcDbEntity
  8
PV
  6
CONTINUOUS
 62
         3
100
AcDbCircle
 10
9.226
 20
79.586
 30
0.0
 40
8.0
  0
CIRCLE
  5
13A
100
AcDbEntity
  8
PV
  6
CONTINUOUS
 62
         3
100
AcDbCircle
 10
32.56
 20
88.079
 30
0.0
 40
6.961
  0
CIRCLE
  5
13B
100
AcDbEntity
  8
PV
  6
CONTINUOUS
 62
         3
100
AcDbCircle
 10
32.56
 20
88.079
 30
0.0
 40
8.0
  0
CIRCLE
  5
13C
100
AcDbEntity
  8
PV
  6
CONTINUOUS
 62
         3
100
AcDbCircle
 10
51.582
 20
104.041
 30
0.0
 40
6.961
  0
CIRCLE
  5
13D
100
AcDbEntity
  8
PV
  6
CONTINUOUS
 62
         3
100
AcDbCircle
 10
51.582
 20
104.041
 30
0.0
 40
8.0
  0
CIRCLE
  5
13E
100
AcDbEntity
  8
PV
  6
CONTINUOUS
 62
         3
100
AcDbCircle
 10
63.998
 20
125.546
 30
0.0
 40
6.961
  0
CIRCLE
  5
13F
100
AcDbEntity
  8
PV
  6
CONTINUOUS
 62
         3
100
AcDbCircle
 10
63.998
 20
125.546
 30
0.0
 40
8.0
  0
CIRCLE
  5
140
100
AcDbEntity
  8
PV
  6
CONTINUOUS
 62
         3
100
AcDbCircle
 10
68.31
 20
150.0
 30
0.0
 40
6.961
  0
CIRCLE
  5
141
100
AcDbEntity
  8
PV
  6
CONTINUOUS
 62
         3
100
AcDbCircle
 10
68.31
 20
150.0
 30
0.0
 40
8.0
  0
CIRCLE
  5
142
100
AcDbEntity
  8
PV
  6
CONTINUOUS
 62
         3
100
AcDbCircle
 10
63.998
 20
174.454
 30
0.0
 40
6.961
  0
CIRCLE
  5
143
100
AcDbEntity
  8
PV
  6
CONTINUOUS
 62
         3
100
AcDbCircle
 10
63.998
 20
174.454
 30
0.0
 40
8.0
  0
CIRCLE
  5
144
100
AcDbEntity
  8
PV
  6
CONTINUOUS
 62
         3
100
AcDbCircle
 10
51.582
 20
195.959
 30
0.0
 40
6.961
  0
CIRCLE
  5
145
100
AcDbEntity
  8
PV
  6
CONTINUOUS
 62
         3
100
AcDbCircle
 10
51.582
 20
195.959
 30
0.0
 40
8.0
  0
CIRCLE
  5
146
100
AcDbEntity
  8
PV
  6
CONTINUOUS
 62
         3
100
AcDbCircle
 10
32.56
 20
211.921
 30
0.0
 40
6.961
  0
CIRCLE
  5
147
100
AcDbEntity
  8
PV
  6
CONTINUOUS
 62
         3
100
AcDbCircle
 10
32.56
 20
211.921
 30
0.0
 40
8.0
  0
CIRCLE
  5
148
100
AcDbEntity
  8
PV
  6
CONTINUOUS
 62
         3
100
AcDbCircle
 10
9.226
 20
220.414
 30
0.0
 40
6.961
  0
CIRCLE
  5
149
100
AcDbEntity
  8
PV
  6
CONTINUOUS
 62
         3
100
AcDbCircle
 10
9.226
 20
220.414
 30
0.0
 40
8.0
  0
CIRCLE
  5
14A
100
AcDbEntity
  8
PV
  6
CONTINUOUS
 62
         3
100
AcDbCircle
 10
-3.19
 20
78.5
 30
0.0
 40
4.188
  0
CIRCLE
  5
14B
100
AcDbEntity
  8
PV
  6
CONTINUOUS
 62
         3
100
AcDbCircle
 10
-3.19
 20
78.5
 30
0.0
 40
5.0
  0
CIRCLE
  5
14C
100
AcDbEntity
  8
PV
  6
CONTINUOUS
 62
         3
100
AcDbCircle
 10
-73.604
 20
162.416
 30
0.0
 40
4.188
  0
CIRCLE
  5
14D
100
AcDbEntity
  8
PV
  6
CONTINUOUS
 62
         3
100
AcDbCircle
 10
-73.604
 20
162.416
 30
0.0
 40
5.0
  0
CIRCLE
  5
14E
100
AcDbEntity
  8
PV
  6
CONTINUOUS
 62
         3
100
AcDbCircle
 10
-3.19
 20
221.5
 30
0.0
 40
4.188
  0
CIRCLE
  5
14F
100
AcDbEntity
  8
PV
  6
CONTINUOUS
 62
         3
100
AcDbCircle
 10
-3.19
 20
221.5
 30
0.0
 40
5.0
  0
CIRCLE
  5
150
100
AcDbEntity
  8
PV
  6
CENTER
 62
         3
100
AcDbCircle
 10
-3.19
 20
150.0
 30
0.0
 40
71.5
  0
CIRCLE
  5
151
100
AcDbEntity
  8
PV
  6
CONTINUOUS
 62
         3
100
AcDbCircle
 10
67.224
 20
137.584
 30
0.0
 40
4.188
  0
CIRCLE
  5
152
100
AcDbEntity
  8
PV
  6
CONTINUOUS
 62
         3
100
AcDbCircle
 10
67.224
 20
137.584
 30
0.0
 40
5.0
  0
LINE
  5
153
100
AcDbEntity
  8
PV
  6
CONTINUOUS
 62
         3
100
AcDbLine
 10
-19.606
 20
222.723
 30
0.0
 11
-19.606
 21
218.104
 31
0.0
  0
LINE
  5
154
100
AcDbEntity
  8
PV
  6
CONTINUOUS
 62
         3
100
AcDbLine
 10
-11.606
 20
222.723
 30
0.0
 11
-11.606
 21
218.104
 31
0.0
  0
LINE
  5
155
100
AcDbEntity
  8
PV
  6
CONTINUOUS
 62
         3
100
AcDbLine
 10
-15.605
 20
215.794
 30
0.0
 11
-11.605
 21
218.104
 31
0.0
  0
LINE
  5
156
100
AcDbEntity
  8
PV
  6
CONTINUOUS
 62
         3
100
AcDbLine
 10
-15.605
 20
215.795
 30
0.0
 11
-19.605
 21
218.104
 31
0.0
  0
LINE
  5
157
100
AcDbEntity
  8
PV
  6
CONTINUOUS
 62
         3
100
AcDbLine
 10
-15.605
 20
225.032
 30
0.0
 11
-19.605
 21
222.723
 31
0.0
  0
LINE
  5
158
100
AcDbEntity
  8
PV
  6
CONTINUOUS
 62
         3
100
AcDbLine
 10
-15.605
 20
225.032
 30
0.0
 11
-11.605
 21
222.723
 31
0.0
  0
LINE
  5
159
100
AcDbEntity
  8
PV
  6
CONTINUOUS
 62
         3
100
AcDbLine
 10
-42.94
 20
214.23
 30
0.0
 11
-42.94
 21
209.611
 31
0.0
  0
LINE
  5
15A
100
AcDbEntity
  8
PV
  6
CONTINUOUS
 62
         3
100
AcDbLine
 10
-34.94
 20
214.23
 30
0.0
 11
-34.94
 21
209.611
 31
0.0
  0
LINE
  5
15B
100
AcDbEntity
  8
PV
  6
CONTINUOUS
 62
         3
100
AcDbLine
 10
-38.939
 20
207.301
 30
0.0
 11
-34.939
 21
209.611
 31
0.0
  0
LINE
  5
15C
100
AcDbEntity
  8
PV
  6
CONTINUOUS
 62
         3
100
AcDbLine
 10
-38.939
 20
207.302
 30
0.0
 11
-42.939
 21
209.611
 31
0.0
  0
LINE
  5
15D
100
AcDbEntity
  8
PV
  6
CONTINUOUS
 62
         3
100
AcDbLine
 10
-38.939
 20
216.539
 30
0.0
 11
-42.939
 21
214.229
 31
0.0
  0
LINE
  5
15E
100
AcDbEntity
  8
PV
  6
CONTINUOUS
 62
         3
100
AcDbLine
 10
-38.939
 20
216.539
 30
0.0
 11
-34.939
 21
214.23
 31
0.0
  0
LINE
  5
15F
100
AcDbEntity
  8
PV
  6
CONTINUOUS
 62
         3
100
AcDbLine
 10
-61.962
 20
198.269
 30
0.0
 11
-61.962
 21
193.65
 31
0.0
  0
LINE
  5
160
100
AcDbEntity
  8
PV
  6
CONTINUOUS
 62
         3
100
AcDbLine
 10
-53.962
 20
198.269
 30
0.0
 11
-53.962
 21
193.65
 31
0.0
  0
LINE
  5
161
100
AcDbEntity
  8
PV
  6
CONTINUOUS
 62
         3
100
AcDbLine
 10
-57.962
 20
191.34
 30
0.0
 11
-53.962
 21
193.65
 31
0.0
  0
LINE
  5
162
100
AcDbEntity
  8
PV
  6
CONTINUOUS
 62
         3
100
AcDbLine
 10
-57.962
 20
191.34
 30
0.0
 11
-61.961
 21
193.65
 31
0.0
  0
LINE
  5
163
100
AcDbEntity
  8
PV
  6
CONTINUOUS
 62
         3
100
AcDbLine
 10
-57.962
 20
200.578
 30
0.0
 11
-61.962
 21
198.268
 31
0.0
  0
LINE
  5
164
100
AcDbEntity
  8
PV
  6
CONTINUOUS
 62
         3
100
AcDbLine
 10
-57.961
 20
200.578
 30
0.0
 11
-53.962
 21
198.269
 31
0.0
  0
LINE
  5
165
100
AcDbEntity
  8
PV
  6
CONTINUOUS
 62
         3
100
AcDbLine
 10
-74.378
 20
176.764
 30
0.0
 11
-74.378
 21
172.145
 31
0.0
  0
LINE
  5
166
100
AcDbEntity
  8
PV
  6
CONTINUOUS
 62
         3
100
AcDbLine
 10
-66.378
 20
176.764
 30
0.0
 11
-66.378
 21
172.145
 31
0.0
  0
LINE
  5
167
100
AcDbEntity
  8
PV
  6
CONTINUOUS
 62
         3
100
AcDbLine
 10
-70.377
 20
169.835
 30
0.0
 11
-66.377
 21
172.145
 31
0.0
  0
LINE
  5
168
100
AcDbEntity
  8
PV
  6
CONTINUOUS
 62
         3
100
AcDbLine
 10
-70.377
 20
169.835
 30
0.0
 11
-74.377
 21
172.145
 31
0.0
  0
LINE
  5
169
100
AcDbEntity
  8
PV
  6
CONTINUOUS
 62
         3
100
AcDbLine
 10
-70.377
 20
179.073
 30
0.0
 11
-74.377
 21
176.763
 31
0.0
  0
LINE
  5
16A
100
AcDbEntity
  8
PV
  6
CONTINUOUS
 62
         3
100
AcDbLine
 10
-70.377
 20
179.073
 30
0.0
 11
-66.377
 21
176.764
 31
0.0
  0
LINE
  5
16B
100
AcDbEntity
  8
PV
  6
CONTINUOUS
 62
         3
100
AcDbLine
 10
-78.689
 20
152.31
 30
0.0
 11
-78.689
 21
147.691
 31
0.0
  0
LINE
  5
16C
100
AcDbEntity
  8
PV
  6
CONTINUOUS
 62
         3
100
AcDbLine
 10
-70.689
 20
152.31
 30
0.0
 11
-70.689
 21
147.691
 31
0.0
  0
LINE
  5
16D
100
AcDbEntity
  8
PV
  6
CONTINUOUS
 62
         3
100
AcDbLine
 10
-74.689
 20
145.38
 30
0.0
 11
-70.689
 21
147.69
 31
0.0
  0
LINE
  5
16E
100
AcDbEntity
  8
PV
  6
CONTINUOUS
 62
         3
100
AcDbLine
 10
-74.689
 20
145.381
 30
0.0
 11
-78.689
 21
147.69
 31
0.0
  0
LINE
  5
16F
100
AcDbEntity
  8
PV
  6
CONTINUOUS
 62
         3
100
AcDbLine
 10
-74.689
 20
154.618
 30
0.0
 11
-78.689
 21
152.309
 31
0.0
  0
LINE
  5
170
100
AcDbEntity
  8
PV
  6
CONTINUOUS
 62
         3
100
AcDbLine
 10
-74.689
 20
154.619
 30
0.0
 11
-70.689
 21
152.309
 31
0.0
  0
LINE
  5
171
100
AcDbEntity
  8
PV
  6
CONTINUOUS
 62
         3
100
AcDbLine
 10
-74.378
 20
127.855
 30
0.0
 11
-74.378
 21
123.236
 31
0.0
  0
LINE
  5
172
100
AcDbEntity
  8
PV
  6
CONTINUOUS
 62
         3
100
AcDbLine
 10
-66.378
 20
127.855
 30
0.0
 11
-66.378
 21
123.236
 31
0.0
  0
LINE
  5
173
100
AcDbEntity
  8
PV
  6
CONTINUOUS
 62
         3
100
AcDbLine
 10
-70.378
 20
120.927
 30
0.0
 11
-66.378
 21
123.236
 31
0.0
  0
LINE
  5
174
100
AcDbEntity
  8
PV
  6
CONTINUOUS
 62
         3
100
AcDbLine
 10
-70.378
 20
120.927
 30
0.0
 11
-74.378
 21
123.236
 31
0.0
  0
LINE
  5
175
100
AcDbEntity
  8
PV
  6
CONTINUOUS
 62
         3
100
AcDbLine
 10
-70.378
 20
130.164
 30
0.0
 11
-74.378
 21
127.855
 31
0.0
  0
LINE
  5
176
100
AcDbEntity
  8
PV
  6
CONTINUOUS
 62
         3
100
AcDbLine
 10
-70.378
 20
130.164
 30
0.0
 11
-66.378
 21
127.855
 31
0.0
  0
LINE
  5
177
100
AcDbEntity
  8
PV
  6
CONTINUOUS
 62
         3
100
AcDbLine
 10
-61.962
 20
106.35
 30
0.0
 11
-61.962
 21
101.731
 31
0.0
  0
LINE
  5
178
100
AcDbEntity
  8
PV
  6
CONTINUOUS
 62
         3
100
AcDbLine
 10
-53.962
 20
106.35
 30
0.0
 11
-53.962
 21
101.731
 31
0.0
  0
LINE
  5
179
100
AcDbEntity
  8
PV
  6
CONTINUOUS
 62
         3
100
AcDbLine
 10
-57.962
 20
99.422
 30
0.0
 11
-53.962
 21
101.731
 31
0.0
  0
LINE
  5
17A
100
AcDbEntity
  8
PV
  6
CONTINUOUS
 62
         3
100
AcDbLine
 10
-57.962
 20
99.422
 30
0.0
 11
-61.962
 21
101.731
 31
0.0
  0
LINE
  5
17B
100
AcDbEntity
  8
PV
  6
CONTINUOUS
 62
         3
100
AcDbLine
 10
-57.962
 20
108.66
 30
0.0
 11
-61.962
 21
106.35
 31
0.0
  0
LINE
  5
17C
100
AcDbEntity
  8
PV
  6
CONTINUOUS
 62
         3
100
AcDbLine
 10
-57.962
 20
108.66
 30
0.0
 11
-53.962
 21
106.35
 31
0.0
  0
LINE
  5
17D
100
AcDbEntity
  8
PV
  6
CONTINUOUS
 62
         3
100
AcDbLine
 10
-42.94
 20
90.389
 30
0.0
 11
-42.94
 21
85.77
 31
0.0
  0
LINE
  5
17E
100
AcDbEntity
  8
PV
  6
CONTINUOUS
 62
         3
100
AcDbLine
 10
-34.94
 20
90.389
 30
0.0
 11
-34.94
 21
85.77
 31
0.0
  0
LINE
  5
17F
100
AcDbEntity
  8
PV
  6
CONTINUOUS
 62
         3
100
AcDbLine
 10
-38.94
 20
83.461
 30
0.0
 11
-34.94
 21
85.77
 31
0.0
  0
LINE
  5
180
100
AcDbEntity
  8
PV
  6
CONTINUOUS
 62
         3
100
AcDbLine
 10
-38.94
 20
83.46
 30
0.0
 11
-42.94
 21
85.77
 31
0.0
  0
LINE
  5
181
100
AcDbEntity
  8
PV
  6
CONTINUOUS
 62
         3
100
AcDbLine
 10
-38.94
 20
92.698
 30
0.0
 11
-42.94
 21
90.389
 31
0.0
  0
LINE
  5
182
100
AcDbEntity
  8
PV
  6
CONTINUOUS
 62
         3
100
AcDbLine
 10
-38.94
 20
92.698
 30
0.0
 11
-34.94
 21
90.389
 31
0.0
  0
LINE
  5
183
100
AcDbEntity
  8
PV
  6
CONTINUOUS
 62
         3
100
AcDbLine
 10
-19.606
 20
81.896
 30
0.0
 11
-19.606
 21
77.277
 31
0.0
  0
LINE
  5
184
100
AcDbEntity
  8
PV
  6
CONTINUOUS
 62
         3
100
AcDbLine
 10
-11.606
 20
81.896
 30
0.0
 11
-11.606
 21
77.277
 31
0.0
  0
LINE
  5
185
100
AcDbEntity
  8
PV
  6
CONTINUOUS
 62
         3
100
AcDbLine
 10
-15.606
 20
74.968
 30
0.0
 11
-11.606
 21
77.277
 31
0.0
  0
LINE
  5
186
100
AcDbEntity
  8
PV
  6
CONTINUOUS
 62
         3
100
AcDbLine
 10
-15.606
 20
74.967
 30
0.0
 11
-19.606
 21
77.277
 31
0.0
  0
LINE
  5
187
100
AcDbEntity
  8
PV
  6
CONTINUOUS
 62
         3
100
AcDbLine
 10
-15.605
 20
84.205
 30
0.0
 11
-19.606
 21
81.896
 31
0.0
  0
LINE
  5
188
100
AcDbEntity
  8
PV
  6
CONTINUOUS
 62
         3
100
AcDbLine
 10
-15.606
 20
84.205
 30
0.0
 11
-11.606
 21
81.896
 31
0.0
  0
LINE
  5
189
100
AcDbEntity
  8
PV
  6
CONTINUOUS
 62
         3
100
AcDbLine
 10
5.226
 20
81.896
 30
0.0
 11
5.226
 21
77.277
 31
0.0
  0
LINE
  5
18A
100
AcDbEntity
  8
PV
  6
CONTINUOUS
 62
         3
100
AcDbLine
 10
13.226
 20
81.896
 30
0.0
 11
13.226
 21
77.277
 31
0.0
  0
LINE
  5
18B
100
AcDbEntity
  8
PV
  6
CONTINUOUS
 62
         3
100
AcDbLine
 10
9.226
 20
74.967
 30
0.0
 11
13.226
 21
77.277
 31
0.0
  0
LINE
  5
18C
100
AcDbEntity
  8
PV
  6
CONTINUOUS
 62
         3
100
AcDbLine
 10
9.226
 20
74.967
 30
0.0
 11
5.226
 21
77.277
 31
0.0
  0
LINE
  5
18D
100
AcDbEntity
  8
PV
  6
CONTINUOUS
 62
         3
100
AcDbLine
 10
9.226
 20
84.205
 30
0.0
 11
5.226
 21
81.896
 31
0.0
  0
LINE
  5
18E
100
AcDbEntity
  8
PV
  6
CONTINUOUS
 62
         3
100
AcDbLine
 10
9.226
 20
84.205
 30
0.0
 11
13.226
 21
81.896
 31
0.0
  0
LINE
  5
18F
100
AcDbEntity
  8
PV
  6
CONTINUOUS
 62
         3
100
AcDbLine
 10
28.56
 20
90.389
 30
0.0
 11
28.56
 21
85.77
 31
0.0
  0
LINE
  5
190
100
AcDbEntity
  8
PV
  6
CONTINUOUS
 62
         3
100
AcDbLine
 10
36.56
 20
90.389
 30
0.0
 11
36.56
 21
85.77
 31
0.0
  0
LINE
  5
191
100
AcDbEntity
  8
PV
  6
CONTINUOUS
 62
         3
100
AcDbLine
 10
32.56
 20
83.461
 30
0.0
 11
36.56
 21
85.77
 31
0.0
  0
LINE
  5
192
100
AcDbEntity
  8
PV
  6
CONTINUOUS
 62
         3
100
AcDbLine
 10
32.56
 20
83.46
 30
0.0
 11
28.56
 21
85.77
 31
0.0
  0
LINE
  5
193
100
AcDbEntity
  8
PV
  6
CONTINUOUS
 62
         3
100
AcDbLine
 10
32.56
 20
92.698
 30
0.0
 11
28.56
 21
90.389
 31
0.0
  0
LINE
  5
194
100
AcDbEntity
  8
PV
  6
CONTINUOUS
 62
         3
100
AcDbLine
 10
32.56
 20
92.698
 30
0.0
 11
36.56
 21
90.389
 31
0.0
  0
LINE
  5
195
100
AcDbEntity
  8
PV
  6
CONTINUOUS
 62
         3
100
AcDbLine
 10
47.582
 20
106.35
 30
0.0
 11
47.582
 21
101.731
 31
0.0
  0
LINE
  5
196
100
AcDbEntity
  8
PV
  6
CONTINUOUS
 62
         3
100
AcDbLine
 10
55.582
 20
106.35
 30
0.0
 11
55.582
 21
101.731
 31
0.0
  0
LINE
  5
197
100
AcDbEntity
  8
PV
  6
CONTINUOUS
 62
         3
100
AcDbLine
 10
51.582
 20
99.422
 30
0.0
 11
55.582
 21
101.731
 31
0.0
  0
LINE
  5
198
100
AcDbEntity
  8
PV
  6
CONTINUOUS
 62
         3
100
AcDbLine
 10
51.582
 20
99.422
 30
0.0
 11
47.582
 21
101.731
 31
0.0
  0
LINE
  5
199
100
AcDbEntity
  8
PV
  6
CONTINUOUS
 62
         3
100
AcDbLine
 10
51.582
 20
108.659
 30
0.0
 11
47.582
 21
106.35
 31
0.0
  0
LINE
  5
19A
100
AcDbEntity
  8
PV
  6
CONTINUOUS
 62
         3
100
AcDbLine
 10
51.582
 20
108.66
 30
0.0
 11
55.582
 21
106.35
 31
0.0
  0
LINE
  5
19B
100
AcDbEntity
  8
PV
  6
CONTINUOUS
 62
         3
100
AcDbLine
 10
59.998
 20
127.855
 30
0.0
 11
59.998
 21
123.236
 31
0.0
  0
LINE
  5
19C
100
AcDbEntity
  8
PV
  6
CONTINUOUS
 62
         3
100
AcDbLine
 10
67.998
 20
127.855
 30
0.0
 11
67.998
 21
123.236
 31
0.0
  0
LINE
  5
19D
100
AcDbEntity
  8
PV
  6
CONTINUOUS
 62
         3
100
AcDbLine
 10
63.998
 20
120.927
 30
0.0
 11
67.998
 21
123.236
 31
0.0
  0
LINE
  5
19E
100
AcDbEntity
  8
PV
  6
CONTINUOUS
 62
         3
100
AcDbLine
 10
63.998
 20
120.927
 30
0.0
 11
59.998
 21
123.236
 31
0.0
  0
LINE
  5
19F
100
AcDbEntity
  8
PV
  6
CONTINUOUS
 62
         3
100
AcDbLine
 10
63.998
 20
130.164
 30
0.0
 11
59.998
 21
127.855
 31
0.0
  0
LINE
  5
1A0
100
AcDbEntity
  8
PV
  6
CONTINUOUS
 62
         3
100
AcDbLine
 10
63.998
 20
130.164
 30
0.0
 11
67.998
 21
127.855
 31
0.0
  0
LINE
  5
1A1
100
AcDbEntity
  8
PV
  6
CONTINUOUS
 62
         3
100
AcDbLine
 10
64.31
 20
152.309
 30
0.0
 11
64.31
 21
147.691
 31
0.0
  0
LINE
  5
1A2
100
AcDbEntity
  8
PV
  6
CONTINUOUS
 62
         3
100
AcDbLine
 10
72.31
 20
152.309
 30
0.0
 11
72.31
 21
147.691
 31
0.0
  0
LINE
  5
1A3
100
AcDbEntity
  8
PV
  6
CONTINUOUS
 62
         3
100
AcDbLine
 10
68.31
 20
145.381
 30
0.0
 11
72.31
 21
147.69
 31
0.0
  0
LINE
  5
1A4
100
AcDbEntity
  8
PV
  6
CONTINUOUS
 62
         3
100
AcDbLine
 10
68.31
 20
145.381
 30
0.0
 11
64.31
 21
147.69
 31
0.0
  0
LINE
  5
1A5
100
AcDbEntity
  8
PV
  6
CONTINUOUS
 62
         3
100
AcDbLine
 10
68.31
 20
154.619
 30
0.0
 11
64.31
 21
152.309
 31
0.0
  0
LINE
  5
1A6
100
AcDbEntity
  8
PV
  6
CONTINUOUS
 62
         3
100
AcDbLine
 10
68.31
 20
154.619
 30
0.0
 11
72.31
 21
152.309
 31
0.0
  0
LINE
  5
1A7
100
AcDbEntity
  8
PV
  6
CONTINUOUS
 62
         3
100
AcDbLine
 10
59.998
 20
176.764
 30
0.0
 11
59.998
 21
172.145
 31
0.0
  0
LINE
  5
1A8
100
AcDbEntity
  8
PV
  6
CONTINUOUS
 62
         3
100
AcDbLine
 10
67.998
 20
176.764
 30
0.0
 11
67.998
 21
172.145
 31
0.0
  0
LINE
  5
1A9
100
AcDbEntity
  8
PV
  6
CONTINUOUS
 62
         3
100
AcDbLine
 10
63.998
 20
169.836
 30
0.0
 11
67.998
 21
172.145
 31
0.0
  0
LINE
  5
1AA
100
AcDbEntity
  8
PV
  6
CONTINUOUS
 62
         3
100
AcDbLine
 10
63.998
 20
169.836
 30
0.0
 11
59.998
 21
172.145
 31
0.0
  0
LINE
  5
1AB
100
AcDbEntity
  8
PV
  6
CONTINUOUS
 62
         3
100
AcDbLine
 10
63.998
 20
179.073
 30
0.0
 11
59.998
 21
176.764
 31
0.0
  0
LINE
  5
1AC
100
AcDbEntity
  8
PV
  6
CONTINUOUS
 62
         3
100
AcDbLine
 10
63.998
 20
179.073
 30
0.0
 11
67.998
 21
176.764
 31
0.0
  0
LINE
  5
1AD
100
AcDbEntity
  8
PV
  6
CONTINUOUS
 62
         3
100
AcDbLine
 10
47.582
 20
198.269
 30
0.0
 11
47.582
 21
193.65
 31
0.0
  0
LINE
  5
1AE
100
AcDbEntity
  8
PV
  6
CONTINUOUS
 62
         3
100
AcDbLine
 10
55.582
 20
198.269
 30
0.0
 11
55.582
 21
193.65
 31
0.0
  0
LINE
  5
1AF
100
AcDbEntity
  8
PV
  6
CONTINUOUS
 62
         3
100
AcDbLine
 10
51.582
 20
191.34
 30
0.0
 11
55.582
 21
193.65
 31
0.0
  0
LINE
  5
1B0
100
AcDbEntity
  8
PV
  6
CONTINUOUS
 62
         3
100
AcDbLine
 10
51.582
 20
191.34
 30
0.0
 11
47.582
 21
193.65
 31
0.0
  0
LINE
  5
1B1
100
AcDbEntity
  8
PV
  6
CONTINUOUS
 62
         3
100
AcDbLine
 10
51.582
 20
200.578
 30
0.0
 11
47.582
 21
198.268
 31
0.0
  0
LINE
  5
1B2
100
AcDbEntity
  8
PV
  6
CONTINUOUS
 62
         3
100
AcDbLine
 10
51.582
 20
200.578
 30
0.0
 11
55.582
 21
198.269
 31
0.0
  0
LINE
  5
1B3
100
AcDbEntity
  8
PV
  6
CONTINUOUS
 62
         3
100
AcDbLine
 10
28.56
 20
214.23
 30
0.0
 11
28.56
 21
209.611
 31
0.0
  0
LINE
  5
1B4
100
AcDbEntity
  8
PV
  6
CONTINUOUS
 62
         3
100
AcDbLine
 10
36.56
 20
214.23
 30
0.0
 11
36.56
 21
209.611
 31
0.0
  0
LINE
  5
1B5
100
AcDbEntity
  8
PV
  6
CONTINUOUS
 62
         3
100
AcDbLine
 10
32.56
 20
207.301
 30
0.0
 11
36.56
 21
209.611
 31
0.0
  0
LINE
  5
1B6
100
AcDbEntity
  8
PV
  6
CONTINUOUS
 62
         3
100
AcDbLine
 10
32.56
 20
207.302
 30
0.0
 11
28.56
 21
209.611
 31
0.0
  0
LINE
  5
1B7
100
AcDbEntity
  8
PV
  6
CONTINUOUS
 62
         3
100
AcDbLine
 10
32.56
 20
216.539
 30
0.0
 11
28.56
 21
214.23
 31
0.0
  0
LINE
  5
1B8
100
AcDbEntity
  8
PV
  6
CONTINUOUS
 62
         3
100
AcDbLine
 10
32.56
 20
216.54
 30
0.0
 11
36.56
 21
214.23
 31
0.0
  0
LINE
  5
1B9
100
AcDbEntity
  8
PV
  6
CONTINUOUS
 62
         3
100
AcDbLine
 10
5.226
 20
222.723
 30
0.0
 11
5.226
 21
218.104
 31
0.0
  0
LINE
  5
1BA
100
AcDbEntity
  8
PV
  6
CONTINUOUS
 62
         3
100
AcDbLine
 10
13.226
 20
222.723
 30
0.0
 11
13.226
 21
218.104
 31
0.0
  0
LINE
  5
1BB
100
AcDbEntity
  8
PV
  6
CONTINUOUS
 62
         3
100
AcDbLine
 10
9.226
 20
215.794
 30
0.0
 11
13.226
 21
218.104
 31
0.0
  0
LINE
  5
1BC
100
AcDbEntity
  8
PV
  6
CONTINUOUS
 62
         3
100
AcDbLine
 10
9.226
 20
215.795
 30
0.0
 11
5.226
 21
218.104
 31
0.0
  0
LINE
  5
1BD
100
AcDbEntity
  8
PV
  6
CONTINUOUS
 62
         3
100
AcDbLine
 10
9.226
 20
225.032
 30
0.0
 11
5.226
 21
222.723
 31
0.0
  0
LINE
  5
1BE
100
AcDbEntity
  8
PV
  6
CONTINUOUS
 62
         3
100
AcDbLine
 10
9.226
 20
225.032
 30
0.0
 11
13.226
 21
222.723
 31
0.0
  0
LINE
  5
1BF
100
AcDbEntity
  8
PV
  6
CENTER
 62
         3
100
AcDbLine
 10
-49.319
 20
229.899
 30
0.0
 11
-30.567
 21
197.419
 31
0.0
  0
LINE
  5
1C0
100
AcDbEntity
  8
PV
  6
CENTER
 62
         3
100
AcDbLine
 10
-19.21
 20
240.858
 30
0.0
 11
-12.698
 21
203.923
 31
0.0
  0
LINE
  5
1C1
100
AcDbEntity
  8
PV
  6
CENTER
 62
         3
100
AcDbLine
 10
-3.19
 20
243.5
 30
0.0
 11
-3.19
 21
56.5
 31
0.0
  0
LINE
  5
1C2
100
AcDbEntity
  8
PV
  6
CENTER
 62
         3
100
AcDbLine
 10
83.506
 20
118.445
 30
0.0
 11
48.263
 21
131.273
 31
0.0
  0
LINE
  5
1C3
100
AcDbEntity
  8
PV
  6
CENTER
 62
         3
100
AcDbLine
 10
-89.885
 20
181.555
 30
0.0
 11
-54.642
 21
168.727
 31
0.0
  0
LINE
  5
1C4
100
AcDbEntity
  8
PV
  6
CENTER
 62
         3
100
AcDbLine
 10
-73.864
 20
209.303
 30
0.0
 11
-45.134
 21
185.195
 31
0.0
  0
LINE
  5
1C5
100
AcDbEntity
  8
PV
  6
CENTER
 62
         3
100
AcDbLine
 10
12.831
 20
240.858
 30
0.0
 11
6.318
 21
203.923
 31
0.0
  0
LINE
  5
1C6
100
AcDbEntity
  8
PV
  6
CENTER
 62
         3
100
AcDbLine
 10
42.94
 20
229.899
 30
0.0
 11
24.188
 21
197.419
 31
0.0
  0
LINE
  5
1C7
100
AcDbEntity
  8
PV
  6
CENTER
 62
         3
100
AcDbLine
 10
67.485
 20
209.303
 30
0.0
 11
38.755
 21
185.196
 31
0.0
  0
LINE
  5
1C8
100
AcDbEntity
  8
PV
  6
CENTER
 62
         3
100
AcDbLine
 10
83.506
 20
181.555
 30
0.0
 11
48.263
 21
168.727
 31
0.0
  0
LINE
  5
1C9
100
AcDbEntity
  8
PV
  6
CENTER
 62
         3
100
AcDbLine
 10
87.668
 20
133.979
 30
0.0
 11
50.734
 21
140.492
 31
0.0
  0
LINE
  5
1CA
100
AcDbEntity
  8
PV
  6
CENTER
 62
         3
100
AcDbLine
 10
67.485
 20
90.697
 30
0.0
 11
38.755
 21
114.804
 31
0.0
  0
LINE
  5
1CB
100
AcDbEntity
  8
PV
  6
CENTER
 62
         3
100
AcDbLine
 10
42.94
 20
70.101
 30
0.0
 11
24.188
 21
102.581
 31
0.0
  0
LINE
  5
1CC
100
AcDbEntity
  8
PV
  6
CENTER
 62
         3
100
AcDbLine
 10
12.831
 20
59.142
 30
0.0
 11
6.318
 21
96.077
 31
0.0
  0
LINE
  5
1CD
100
AcDbEntity
  8
PV
  6
CENTER
 62
         3
100
AcDbLine
 10
-19.211
 20
59.142
 30
0.0
 11
-12.698
 21
96.077
 31
0.0
  0
LINE
  5
1CE
100
AcDbEntity
  8
PV
  6
CENTER
 62
         3
100
AcDbLine
 10
-49.32
 20
70.101
 30
0.0
 11
-30.567
 21
102.581
 31
0.0
  0
LINE
  5
1CF
100
AcDbEntity
  8
PV
  6
CENTER
 62
         3
100
AcDbLine
 10
-73.865
 20
90.697
 30
0.0
 11
-45.135
 21
114.804
 31
0.0
  0
LINE
  5
1D0
100
AcDbEntity
  8
PV
  6
CENTER
 62
         3
100
AcDbLine
 10
-89.885
 20
118.445
 30
0.0
 11
-54.643
 21
131.273
 31
0.0
  0
LINE
  5
1D1
100
AcDbEntity
  8
PV
  6
CENTER
 62
         3
100
AcDbLine
 10
-96.81
 20
150.0
 30
0.0
 11
89.807
 21
150.0
 31
0.0
  0
LINE
  5
1D2
100
AcDbEntity
  8
PV
  6
CENTER
 62
         3
100
AcDbLine
 10
-94.047
 20
166.021
 30
0.0
 11
-57.113
 21
159.508
 31
0.0
  0
ENDSEC
  0
SECTION
  2
OBJECTS
  0
DICTIONARY
  5
19
100
AcDbDictionary
  3
ACAD_GROUP
350
1A
  3
ACAD_MLINESTYLE
350
1B
  0
DICTIONARY
  5
1A
102
{ACAD_REACTORS
330
19
102
}
100
AcDbDictionary
  0
DICTIONARY
  5
1B
102
{ACAD_REACTORS
330
19
102
}
100
AcDbDictionary
  3
STANDARD
350
1C
  0
MLINESTYLE
  5
1C
102
{ACAD_REACTORS
330
1B
102
}
100
AcDbMlineStyle
  2
Standard
 70
         0
  3

 62
         0
 51
90.0
 52
90.0
 71
         2
 49
0.5
 62
       256
  6
ByLayer
 49
-0.5
 62
       256
  6
ByLayer
  0
ENDSEC
  0
EOF
