  0
SECTION
  2
HEADER
  9
$ACADVER
  1
AC1014
  9
$ACADMAINTVER
 70
         0
  9
$DWGCODEPAGE
  3
ANSI_932
  9
$INSBASE
 10
0.0
 20
0.0
 30
0.0
  9
$EXTMIN
 10
-210.545
 20
-110.0
 30
0.0
  9
$EXTMAX
 10
220.397801
 20
284.6457604024
 30
0.0
  9
$LIMMIN
 10
-210.545
 20
-110.0
  9
$LIMMAX
 10
220.397801
 20
284.6457604024
  9
$ORTHOMODE
 70
         0
  9
$REGENMODE
 70
         1
  9
$FILLMODE
 70
         1
  9
$QTEXTMODE
 70
         0
  9
$MIRRTEXT
 70
         1
  9
$DRAGMODE
 70
         2
  9
$LTSCALE
 40
1.0
  9
$OSMODE
 70
         0
  9
$ATTMODE
 70
         1
  9
$TEXTSIZE
 40
3.2000000477
  9
$TRACEWID
 40
0.05
  9
$TEXTSTYLE
  7
MX_NOTE_STANDARD
  9
$CLAYER
  8
0
  9
$CELTYPE
  6
CONTINUOUS
  9
$CECOLOR
 62
       256
  9
$CELTSCALE
 40
1.0
  9
$DELOBJ
 70
         1
  9
$DISPSILH
 70
         0
  9
$DIMSCALE
 40
1.0
  9
$DIMASZ
 40
2.5
  9
$DIMEXO
 40
0.0
  9
$DIMDLI
 40
3.75
  9
$DIMRND
 40
0.0
  9
$DIMDLE
 40
0.0
  9
$DIMEXE
 40
2.5
  9
$DIMTP
 40
0.0
  9
$DIMTM
 40
0.0
  9
$DIMTXT
 40
3.2000000477
  9
$DIMCEN
 40
2.5
  9
$DIMTSZ
 40
0.0
  9
$DIMTOL
 70
         0
  9
$DIMLIM
 70
         0
  9
$DIMTIH
 70
         0
  9
$DIMTOH
 70
         0
  9
$DIMSE1
 70
         0
  9
$DIMSE2
 70
         0
  9
$DIMTAD
 70
         1
  9
$DIMZIN
 70
         8
  9
$DIMBLK
  1

  9
$DIMASO
 70
         1
  9
$DIMSHO
 70
         1
  9
$DIMPOST
  1

  9
$DIMAPOST
  1

  9
$DIMALT
 70
         0
  9
$DIMALTD
 70
         4
  9
$DIMALTF
 40
0.0393700787
  9
$DIMLFAC
 40
1.0
  9
$DIMTOFL
 70
         1
  9
$DIMTVP
 40
0.0
  9
$DIMTIX
 70
         0
  9
$DIMSOXD
 70
         0
  9
$DIMSAH
 70
         1
  9
$DIMBLK1
  1
_OPEN30
  9
$DIMBLK2
  1
_OPEN30
  9
$DIMSTYLE
  2
MXDIMSTYLE
  9
$DIMCLRD
 70
         0
  9
$DIMCLRE
 70
         0
  9
$DIMCLRT
 70
         0
  9
$DIMTFAC
 40
1.0
  9
$DIMGAP
 40
1.0
  9
$DIMJUST
 70
         0
  9
$DIMSD1
 70
         0
  9
$DIMSD2
 70
         0
  9
$DIMTOLJ
 70
         0
  9
$DIMTZIN
 70
         0
  9
$DIMALTZ
 70
         0
  9
$DIMALTTZ
 70
         0
  9
$DIMFIT
 70
         3
  9
$DIMUPT
 70
         0
  9
$DIMUNIT
 70
         2
  9
$DIMDEC
 70
         2
  9
$DIMTDEC
 70
         2
  9
$DIMALTU
 70
         2
  9
$DIMALTTD
 70
         4
  9
$DIMTXSTY
  7
MX_NOTE_STANDARD
  9
$DIMAUNIT
 70
         0
  9
$LUNITS
 70
         2
  9
$LUPREC
 70
         4
  9
$SKETCHINC
 40
0.1
  9
$FILLETRAD
 40
0.0
  9
$AUNITS
 70
         0
  9
$AUPREC
 70
         0
  9
$MENU
  1
acad
  9
$ELEVATION
 40
0.0
  9
$PELEVATION
 40
0.0
  9
$THICKNESS
 40
0.0
  9
$LIMCHECK
 70
         0
  9
$BLIPMODE
 70
         1
  9
$CHAMFERA
 40
0.0
  9
$CHAMFERB
 40
0.0
  9
$CHAMFERC
 40
0.0
  9
$CHAMFERD
 40
0.0
  9
$SKPOLY
 70
         0
  9
$TDCREATE
 40
2456603.419282408
  9
$TDUPDATE
 40
2456603.419282408
  9
$TDINDWG
 40
0.0000000000
  9
$TDUSRTIMER
 40
0.0000000000
  9
$USRTIMER
 70
         1
  9
$ANGBASE
 50
0.0
  9
$ANGDIR
 70
         0
  9
$PDMODE
 70
         0
  9
$PDSIZE
 40
0.0
  9
$PLINEWID
 40
0.0
  9
$COORDS
 70
         1
  9
$SPLFRAME
 70
         0
  9
$SPLINETYPE
 70
         6
  9
$SPLINESEGS
 70
         8
  9
$ATTDIA
 70
         0
  9
$ATTREQ
 70
         1
  9
$HANDLING
 70
         1
  9
$HANDSEED
  5
1A0
  9
$SURFTAB1
 70
         6
  9
$SURFTAB2
 70
         6
  9
$SURFTYPE
 70
         6
  9
$SURFU
 70
         6
  9
$SURFV
 70
         6
  9
$UCSNAME
  2

  9
$UCSORG
 10
0.0
 20
0.0
 30
0.0
  9
$UCSXDIR
 10
1.0
 20
0.0
 30
0.0
  9
$UCSYDIR
 10
0.0
 20
1.0
 30
0.0
  9
$PUCSNAME
  2

  9
$PUCSORG
 10
0.0
 20
0.0
 30
0.0
  9
$PUCSXDIR
 10
1.0
 20
0.0
 30
0.0
  9
$PUCSYDIR
 10
0.0
 20
1.0
 30
0.0
  9
$USERI1
 70
         0
  9
$USERI2
 70
         0
  9
$USERI3
 70
         0
  9
$USERI4
 70
         0
  9
$USERI5
 70
         0
  9
$USERR1
 40
0.0
  9
$USERR2
 40
0.0
  9
$USERR3
 40
0.0
  9
$USERR4
 40
0.0
  9
$USERR5
 40
0.0
  9
$WORLDVIEW
 70
         1
  9
$SHADEDGE
 70
         3
  9
$SHADEDIF
 70
        70
  9
$TILEMODE
 70
         1
  9
$MAXACTVP
 70
        16
  9
$PINSBASE
 10
0.0
 20
0.0
 30
0.0
  9
$PLIMCHECK
 70
         0
  9
$PEXTMIN
 10
1.0000000000E+20
 20
1.0000000000E+20
 30
1.0000000000E+20
  9
$PEXTMAX
 10
-1.0000000000E+20
 20
-1.0000000000E+20
 30
-1.0000000000E+20
  9
$PLIMMIN
 10
0.0
 20
0.0
  9
$PLIMMAX
 10
12.0
 20
9.0
  9
$UNITMODE
 70
         0
  9
$VISRETAIN
 70
         0
  9
$PLINEGEN
 70
         1
  9
$PSLTSCALE
 70
         0
  9
$TREEDEPTH
 70
      3020
  9
$PICKSTYLE
 70
         1
  9
$CMLSTYLE
  2
Standard
  9
$CMLJUST
 70
         0
  9
$CMLSCALE
 40
1.0
  9
$PROXYGRAPHICS
 70
         0
  9
$MEASUREMENT
 70
         1
  0
ENDSEC
  0
SECTION
  2
CLASSES
  0
CLASS
  1
LWPOLYLINE
  2
AcDbPolyline
  3
"AutoCAD"
 90
        0
280
         0
281
         1
  0
CLASS
  1
IMAGE
  2
AcDbRasterImage
  3
ISM
 90
      127
280
         0
281
         1
  0
CLASS
  1
OLE2FRAME
  2
AcDbOle2Frame
  3
""
 90
        0
280
         0
281
         1
  0
CLASS
  1
HATCH
  2
AcDbHatch
  3
"ACAD_SEDONA"
 90
        0
280
         0
281
         1
  0
CLASS
  1
DICTIONARYVAR
  2
AcDbDictionaryVar
  3
"AutoCAD"
 90
        0
280
         0
281
         0
  0
CLASS
  1
RASTERVARIABLES
  2
AcDbRasterVariables
  3
ISM
 90
        0
280
         0
281
         0
  0
CLASS
  1
IMAGEDEF
  2
AcDbRasterImageDef
  3
ISM
 90
        0
280
         0
281
         0
  0
CLASS
  1
IMAGEDEF_REACTOR
  2
AcDbRasterImageDefReactor
  3
ISM
 90
        1
280
         0
281
         0
  0
CLASS
  1
IDBUFFER
  2
AcDbIdBuffer
  3
"Acad"
 90
        0
280
         0
281
         0
  0
CLASS
  1
SPATIAL_FILTER
  2
AcDbSpatialFilter
  3
"Acad"
 90
        0
280
         0
281
         0
  0
CLASS
  1
XRECORD
  2
AcDbXrecord
  3
"<Built In>"
 90
        0
280
         0
281
         0
  0
CLASS
  1
SORTENTSTABLE
  2
AcDbSortentsTable
  3
"AutoCAD"
 90
        0
280
         0
281
         0
  0
CLASS
  1
LAYER_INDEX
  2
AcDbLayerIndex
  3
"Acad"
 90
        0
280
         0
281
         0
  0
CLASS
  1
SPATIAL_INDEX
  2
AcDbSpatialIndex
  3
"Acad"
 90
        0
280
         0
281
         0
  0
CLASS
  1
OBJECT_PTR
  2
CAseDLPNTableRecord
  3
"ASE-LPNTableRecord"
 90
        1
280
         0
281
         0
  0
CLASS
  1
LAYOUT
  2
AcDbLayout
  3
"AutoCAD 2000"
 90
        0
280
         0
281
         0
  0
CLASS
  1
PLOTSETTINGS
  2
AcDbPlotSettings
  3
"AutoCAD 2000"
 90
        0
280
         0
281
         0
  0
CLASS
  1
ACDBDICTIONARYWDFLT
  2
AcDbDictionaryWithDefault
  3
"AutoCAD 2000"
 90
        0
280
         0
281
         0
  0
CLASS
  1
ACDBPLACEHOLDER
  2
AcDbPlaceHolder
  3
"AutoCAD 2000"
 90
        0
280
         0
281
         0
  0
ENDSEC
  0
SECTION
  2
TABLES
  0
TABLE
  2
VPORT
  5
7
100
AcDbSymbolTable
 70
         1
  0
VPORT
  5
15
100
AcDbSymbolTableRecord
100
AcDbViewportTableRecord
  2
*ACTIVE
 70
         0
 10
0.0
 20
0.0
 11
1.0
 21
1.0
 12
4.9264005
 22
87.3228802012
 13
0.0
 23
0.0
 14
1.0
 24
1.0
 15
0.0
 25
0.0
 16
0.0
 26
0.0
 36
1.0
 17
0.0
 27
0.0
 37
0.0
 40
398.5922180064
 41
1.7320508076
 42
50.0
 43
0.0
 44
0.0
 50
0.0
 51
0.0
 71
         0
 72
       100
 73
         1
 74
         1
 75
         0
 76
         0
 77
         0
 78
         0
  0
ENDTAB
  0
TABLE
  2
LTYPE
  5
4
100
AcDbSymbolTable
 70
         4
  0
LTYPE
  5
11
100
AcDbSymbolTableRecord
100
AcDbLinetypeTableRecord
  2
BYBLOCK
 70
        64
  3

 72
        65
 73
         0
 40
0.0
  0
LTYPE
  5
12
100
AcDbSymbolTableRecord
100
AcDbLinetypeTableRecord
  2
BYLAYER
 70
        64
  3

 72
        65
 73
         0
 40
0.0
  0
LTYPE
  5
13
100
AcDbSymbolTableRecord
100
AcDbLinetypeTableRecord
  2
CONTINUOUS
 70
        64
  3
Solid line
 72
        65
 73
         0
 40
0.0
  0
LTYPE
  5
2C
100
AcDbSymbolTableRecord
100
AcDbLinetypeTableRecord
  2
CENTER
 70
        64
  3
Center ____ _ ____ _ ____ _ ____ _ ____ _ ____
 72
        65
 73
         4
 40
50.8
 49
31.75
 74
         0
 49
-6.35
 74
         0
 49
6.35
 74
         0
 49
-6.35
 74
         0
  0
ENDTAB
  0
TABLE
  2
LAYER
  5
2
100
AcDbSymbolTable
 70
         3
  0
LAYER
  5
14
100
AcDbSymbolTableRecord
100
AcDbLayerTableRecord
  2
0
 70
         0
 62
         7
  6
CONTINUOUS
  0
LAYER
  5
1D
100
AcDbSymbolTableRecord
100
AcDbLayerTableRecord
  2
PV
 70
         0
 62
         3
  6
CONTINUOUS
  0
LAYER
  5
1E
100
AcDbSymbolTableRecord
100
AcDbLayerTableRecord
  2
DEFPOINTS
 70
         0
 62
         7
  6
CONTINUOUS
  0
ENDTAB
  0
TABLE
  2
STYLE
  5
3
100
AcDbSymbolTable
 70
         3
  0
STYLE
  5
17
100
AcDbSymbolTableRecord
100
AcDbTextStyleTableRecord
  2
MX_NOTE_STANDARD
 70
         0
 40
0.0
 41
1.0
 50
0.0
 71
         0
 42
3.2000000477
  3
txt.shx
  4
extfont.shx
  0
STYLE
  5
13E
100
AcDbSymbolTableRecord
100
AcDbTextStyleTableRecord
  2
MX_DIMTXSTY_2
 70
         0
 40
0.0
 41
1.2
 50
0.0
 71
         0
 42
3.2000000477
  3
txt.shx
  4
extfont.shx
  0
STYLE
  5
15D
100
AcDbSymbolTableRecord
100
AcDbTextStyleTableRecord
  2
MX_DIMTXSTY_3
 70
         0
 40
0.0
 41
1.15
 50
0.0
 71
         0
 42
3.2000000477
  3
txt.shx
  4
extfont.shx
  0
ENDTAB
  0
TABLE
  2
VIEW
  5
5
100
AcDbSymbolTable
 70
         0
  0
ENDTAB
  0
TABLE
  2
UCS
  5
6
100
AcDbSymbolTable
 70
         0
  0
ENDTAB
  0
TABLE
  2
APPID
  5
8
100
AcDbSymbolTable
 70
         1
  0
APPID
  5
16
100
AcDbSymbolTableRecord
100
AcDbRegAppTableRecord
  2
ACAD
 70
         0
  0
ENDTAB
  0
TABLE
  2
DIMSTYLE
  5
9
100
AcDbSymbolTable
 70
         1
  0
DIMSTYLE
105
18
100
AcDbSymbolTableRecord
100
AcDbDimStyleTableRecord
  2
MXDIMSTYLE
 70
         0
  3

  4

  5

  6
_OPEN30
  7
_OPEN30
 40
1.0
 41
2.5
 42
0.0
 43
3.75
 44
2.5
 45
0.0
 46
0.0
 47
0.0
 48
0.0
 71
         0
 72
         0
 73
         0
 74
         0
 75
         0
 76
         0
 77
         1
 78
         8
140
3.2000000477
141
2.5
142
0.0
143
0.0393700787
144
1.0
145
0.0
146
1.0
147
1.0
170
         0
171
         4
172
         1
173
         1
174
         0
175
         0
176
         0
177
         0
178
         0
270
         2
271
         2
272
         2
273
         2
274
         4
275
         0
280
         0
281
         0
282
         0
283
         0
284
         0
285
         0
286
         0
287
         3
288
         0
340
17
  0
ENDTAB
  0
TABLE
  2
BLOCK_RECORD
  5
1
100
AcDbSymbolTable
 70
        12
  0
BLOCK_RECORD
  5
A
100
AcDbSymbolTableRecord
100
AcDbBlockTableRecord
  2
*MODEL_SPACE
  0
BLOCK_RECORD
  5
B
100
AcDbSymbolTableRecord
100
AcDbBlockTableRecord
  2
*PAPER_SPACE
  0
BLOCK_RECORD
  5
1F
100
AcDbSymbolTableRecord
100
AcDbBlockTableRecord
  2
ARROW
  0
BLOCK_RECORD
  5
20
100
AcDbSymbolTableRecord
100
AcDbBlockTableRecord
  2
_OPEN30
  0
BLOCK_RECORD
  5
10A
100
AcDbSymbolTableRecord
100
AcDbBlockTableRecord
  2
*D2
  0
BLOCK_RECORD
  5
117
100
AcDbSymbolTableRecord
100
AcDbBlockTableRecord
  2
*D3
  0
BLOCK_RECORD
  5
126
100
AcDbSymbolTableRecord
100
AcDbBlockTableRecord
  2
*D4
  0
BLOCK_RECORD
  5
135
100
AcDbSymbolTableRecord
100
AcDbBlockTableRecord
  2
*D5
  0
BLOCK_RECORD
  5
145
100
AcDbSymbolTableRecord
100
AcDbBlockTableRecord
  2
*D6
  0
BLOCK_RECORD
  5
154
100
AcDbSymbolTableRecord
100
AcDbBlockTableRecord
  2
*D7
  0
BLOCK_RECORD
  5
164
100
AcDbSymbolTableRecord
100
AcDbBlockTableRecord
  2
*D8
  0
BLOCK_RECORD
  5
173
100
AcDbSymbolTableRecord
100
AcDbBlockTableRecord
  2
*D9
  0
BLOCK_RECORD
  5
182
100
AcDbSymbolTableRecord
100
AcDbBlockTableRecord
  2
*D10
  0
BLOCK_RECORD
  5
191
100
AcDbSymbolTableRecord
100
AcDbBlockTableRecord
  2
*D11
  0
ENDTAB
  0
ENDSEC
  0
SECTION
  2
BLOCKS
  0
BLOCK
  5
D
100
AcDbEntity
  8
0
100
AcDbBlockBegin
  2
*MODEL_SPACE
 70
         0
 10
0.0
 20
0.0
 30
0.0
  3
*MODEL_SPACE
  1

  0
ENDBLK
  5
E
100
AcDbEntity
  8
0
100
AcDbBlockEnd
  0
BLOCK
  5
F
100
AcDbEntity
 67
         1
  8
0
100
AcDbBlockBegin
  2
*PAPER_SPACE
 70
         0
 10
0.0
 20
0.0
 30
0.0
  3
*PAPER_SPACE
  1

  0
ENDBLK
  5
10
100
AcDbEntity
 67
         1
  8
0
100
AcDbBlockEnd
  0
BLOCK
  5
26
100
AcDbEntity
  8
0
100
AcDbBlockBegin
  2
ARROW
 70
         0
 10
0.0
 20
0.0
 30
0.0
  3
ARROW
  1

  0
LWPOLYLINE
  5
27
100
AcDbEntity
  8
0
  6
CONTINUOUS
 62
       254
100
AcDbPolyline
 90
        3
 70
         0
 10
5.21228179
 20
1.3966267
 10
0.0
 20
0.0
 10
5.21228179
 20
-1.3966267
  0
ENDBLK
  5
28
100
AcDbEntity
  8
0
100
AcDbBlockEnd
  0
BLOCK
  5
21
100
AcDbEntity
  8
0
  6
ByBlock
 62
         0
100
AcDbBlockBegin
  2
_OPEN30
 70
         2
 10
0.0
 20
0.0
 30
0.0
  3
_OPEN30
  1

  0
LINE
  5
22
100
AcDbEntity
  8
0
  6
ByBlock
 62
         0
100
AcDbLine
 10
-1.0
 20
0.267949
 30
0.0
 11
0.0
 21
0.0
 31
0.0
  0
LINE
  5
23
100
AcDbEntity
  8
0
  6
ByBlock
 62
         0
100
AcDbLine
 10
0.0
 20
0.0
 30
0.0
 11
-1.0
 21
-0.267949
 31
0.0
  0
LINE
  5
24
100
AcDbEntity
  8
0
  6
ByBlock
 62
         0
100
AcDbLine
 10
0.0
 20
0.0
 30
0.0
 11
-1.0
 21
0.0
 31
0.0
  0
ENDBLK
  5
25
100
AcDbEntity
  8
0
  6
ByBlock
 62
         0
100
AcDbBlockEnd
  0
BLOCK
  5
10B
100
AcDbEntity
  8
0
  6
ByBlock
 62
         0
100
AcDbBlockBegin
  2
*D2
 70
         1
 10
0.0
 20
0.0
 30
0.0
  3
*D2
  1

  0
LINE
  5
10C
100
AcDbEntity
  8
0
  6
CONTINUOUS
 62
       110
100
AcDbLine
 10
118.5
 20
54.9465438
 30
0.0
 11
114.5
 21
54.9465438
 31
0.0
  0
LINE
  5
10D
100
AcDbEntity
  8
0
  6
CONTINUOUS
 62
       110
100
AcDbLine
 10
118.5
 20
93.9374991528
 30
0.0
 11
118.5
 21
52.4465438
 31
0.0
  0
LINE
  5
10E
100
AcDbEntity
  8
0
  6
CONTINUOUS
 62
       110
100
AcDbLine
 10
114.5
 20
93.9374991528
 30
0.0
 11
114.5
 21
52.4465438
 31
0.0
  0
SOLID
  5
10F
100
AcDbEntity
  8
0
  6
CONTINUOUS
 62
       110
100
AcDbTrace
 10
117.4999999702
 20
55.113210805
 30
0.0
 11
117.4999999702
 21
54.779876795
 31
0.0
 12
118.5
 22
54.9465438
 32
0.0
 13
118.5
 23
54.9465438
 33
0.0
  0
SOLID
  5
110
100
AcDbEntity
  8
0
  6
CONTINUOUS
 62
       110
100
AcDbTrace
 10
115.5000000298
 20
54.779876795
 30
0.0
 11
115.5000000298
 21
55.113210805
 31
0.0
 12
114.5
 22
54.9465438
 32
0.0
 13
114.5
 23
54.9465438
 33
0.0
  0
MTEXT
  5
111
100
AcDbEntity
  8
0
  6
CONTINUOUS
 62
       110
100
AcDbMText
 10
116.7999999523
 20
57.5465438238
 30
0.0
 40
3.2000000477
 41
0.0
 71
         5
 72
         1
  1
\A1;4
 11
1.0
 21
0.0
 31
0.0
  0
POINT
  5
112
100
AcDbEntity
  8
DEFPOINTS
  6
CONTINUOUS
 62
         0
100
AcDbPoint
 10
118.5
 20
93.9999991528
 30
0.0
  0
POINT
  5
113
100
AcDbEntity
  8
DEFPOINTS
  6
CONTINUOUS
 62
         0
100
AcDbPoint
 10
114.5
 20
93.9999991528
 30
0.0
  0
POINT
  5
114
100
AcDbEntity
  8
DEFPOINTS
  6
CONTINUOUS
 62
         0
100
AcDbPoint
 10
114.5
 20
54.9465438
 30
0.0
  0
ENDBLK
  5
115
100
AcDbEntity
  8
0
  6
ByBlock
 62
         0
100
AcDbBlockEnd
  0
BLOCK
  5
118
100
AcDbEntity
  8
0
  6
ByBlock
 62
         0
100
AcDbBlockBegin
  2
*D3
 70
         1
 10
0.0
 20
0.0
 30
0.0
  3
*D3
  1

  0
LINE
  5
119
100
AcDbEntity
  8
0
  6
CONTINUOUS
 62
       110
100
AcDbLine
 10
160.5
 20
54.9465438
 30
0.0
 11
118.5
 21
54.9465438
 31
0.0
  0
LINE
  5
11A
100
AcDbEntity
  8
0
  6
CONTINUOUS
 62
       110
100
AcDbLine
 10
160.5
 20
97.9374991528
 30
0.0
 11
160.5
 21
52.4465438
 31
0.0
  0
LINE
  5
11B
100
AcDbEntity
  8
0
  6
CONTINUOUS
 62
       110
100
AcDbLine
 10
118.5
 20
97.9374991528
 30
0.0
 11
118.5
 21
52.4465438
 31
0.0
  0
LINE
  5
11C
100
AcDbEntity
  8
0
  6
CONTINUOUS
 62
       110
100
AcDbLine
 10
160.5
 20
54.9465438
 30
0.0
 11
164.5
 21
54.9465438
 31
0.0
  0
LINE
  5
11D
100
AcDbEntity
  8
0
  6
CONTINUOUS
 62
       110
100
AcDbLine
 10
118.5
 20
54.9465438
 30
0.0
 11
114.5
 21
54.9465438
 31
0.0
  0
SOLID
  5
11E
100
AcDbEntity
  8
0
  6
CONTINUOUS
 62
       110
100
AcDbTrace
 10
161.5000000298
 20
54.779876795
 30
0.0
 11
161.5000000298
 21
55.113210805
 31
0.0
 12
160.5
 22
54.9465438
 32
0.0
 13
160.5
 23
54.9465438
 33
0.0
  0
SOLID
  5
11F
100
AcDbEntity
  8
0
  6
CONTINUOUS
 62
       110
100
AcDbTrace
 10
117.4999999702
 20
55.113210805
 30
0.0
 11
117.4999999702
 21
54.779876795
 31
0.0
 12
118.5
 22
54.9465438
 32
0.0
 13
118.5
 23
54.9465438
 33
0.0
  0
MTEXT
  5
120
100
AcDbEntity
  8
0
  6
CONTINUOUS
 62
       110
100
AcDbMText
 10
139.7999992371
 20
57.5465438238
 30
0.0
 40
3.2000000477
 41
0.0
 71
         5
 72
         1
  1
\A1;42
 11
1.0
 21
0.0
 31
0.0
  0
POINT
  5
121
100
AcDbEntity
  8
DEFPOINTS
  6
CONTINUOUS
 62
         0
100
AcDbPoint
 10
160.5
 20
97.9999991528
 30
0.0
  0
POINT
  5
122
100
AcDbEntity
  8
DEFPOINTS
  6
CONTINUOUS
 62
         0
100
AcDbPoint
 10
118.5
 20
97.9999991528
 30
0.0
  0
POINT
  5
123
100
AcDbEntity
  8
DEFPOINTS
  6
CONTINUOUS
 62
         0
100
AcDbPoint
 10
118.5
 20
54.9465438
 30
0.0
  0
ENDBLK
  5
124
100
AcDbEntity
  8
0
  6
ByBlock
 62
         0
100
AcDbBlockEnd
  0
BLOCK
  5
127
100
AcDbEntity
  8
0
  6
ByBlock
 62
         0
100
AcDbBlockBegin
  2
*D4
 70
         1
 10
0.0
 20
0.0
 30
0.0
  3
*D4
  1

  0
LINE
  5
128
100
AcDbEntity
  8
0
  6
CONTINUOUS
 62
       110
100
AcDbLine
 10
110.0
 20
48.1413023
 30
0.0
 11
90.0
 21
48.1413023
 31
0.0
  0
LINE
  5
129
100
AcDbEntity
  8
0
  6
CONTINUOUS
 62
       110
100
AcDbLine
 10
110.0
 20
77.4375001912
 30
0.0
 11
110.0
 21
45.6413023
 31
0.0
  0
LINE
  5
12A
100
AcDbEntity
  8
0
  6
CONTINUOUS
 62
       110
100
AcDbLine
 10
90.0
 20
77.4375001912
 30
0.0
 11
90.0
 21
45.6413023
 31
0.0
  0
LINE
  5
12B
100
AcDbEntity
  8
0
  6
CONTINUOUS
 62
       110
100
AcDbLine
 10
110.0
 20
48.1413023
 30
0.0
 11
114.0
 21
48.1413023
 31
0.0
  0
LINE
  5
12C
100
AcDbEntity
  8
0
  6
CONTINUOUS
 62
       110
100
AcDbLine
 10
90.0
 20
48.1413023
 30
0.0
 11
86.0
 21
48.1413023
 31
0.0
  0
SOLID
  5
12D
100
AcDbEntity
  8
0
  6
CONTINUOUS
 62
       110
100
AcDbTrace
 10
111.0000000298
 20
47.974635295
 30
0.0
 11
111.0000000298
 21
48.307969305
 31
0.0
 12
110.0
 22
48.1413023
 32
0.0
 13
110.0
 23
48.1413023
 33
0.0
  0
SOLID
  5
12E
100
AcDbEntity
  8
0
  6
CONTINUOUS
 62
       110
100
AcDbTrace
 10
88.9999999702
 20
48.307969305
 30
0.0
 11
88.9999999702
 21
47.974635295
 31
0.0
 12
90.0
 22
48.1413023
 32
0.0
 13
90.0
 23
48.1413023
 33
0.0
  0
MTEXT
  5
12F
100
AcDbEntity
  8
0
  6
CONTINUOUS
 62
       110
100
AcDbMText
 10
100.3000001907
 20
50.7413023238
 30
0.0
 40
3.2000000477
 41
0.0
 71
         5
 72
         1
  1
\A1;20
 11
1.0
 21
0.0
 31
0.0
  0
POINT
  5
130
100
AcDbEntity
  8
DEFPOINTS
  6
CONTINUOUS
 62
         0
100
AcDbPoint
 10
110.0
 20
77.5000001912
 30
0.0
  0
POINT
  5
131
100
AcDbEntity
  8
DEFPOINTS
  6
CONTINUOUS
 62
         0
100
AcDbPoint
 10
90.0
 20
77.5000001912
 30
0.0
  0
POINT
  5
132
100
AcDbEntity
  8
DEFPOINTS
  6
CONTINUOUS
 62
         0
100
AcDbPoint
 10
90.0
 20
48.1413023
 30
0.0
  0
ENDBLK
  5
133
100
AcDbEntity
  8
0
  6
ByBlock
 62
         0
100
AcDbBlockEnd
  0
BLOCK
  5
136
100
AcDbEntity
  8
0
  6
ByBlock
 62
         0
100
AcDbBlockBegin
  2
*D5
 70
         1
 10
0.0
 20
0.0
 30
0.0
  3
*D5
  1

  0
LINE
  5
137
100
AcDbEntity
  8
0
  6
CONTINUOUS
 62
       110
100
AcDbLine
 10
160.5
 20
48.1413023
 30
0.0
 11
110.0
 21
48.1413023
 31
0.0
  0
LINE
  5
138
100
AcDbEntity
  8
0
  6
CONTINUOUS
 62
       110
100
AcDbLine
 10
160.5
 20
97.9374982839
 30
0.0
 11
160.5
 21
45.6413023
 31
0.0
  0
LINE
  5
139
100
AcDbEntity
  8
0
  6
CONTINUOUS
 62
       110
100
AcDbLine
 10
110.0
 20
77.4375001912
 30
0.0
 11
110.0
 21
45.6413023
 31
0.0
  0
LINE
  5
13A
100
AcDbEntity
  8
0
  6
CONTINUOUS
 62
       110
100
AcDbLine
 10
160.5
 20
48.1413023
 30
0.0
 11
164.5
 21
48.1413023
 31
0.0
  0
LINE
  5
13B
100
AcDbEntity
  8
0
  6
CONTINUOUS
 62
       110
100
AcDbLine
 10
110.0
 20
48.1413023
 30
0.0
 11
106.0
 21
48.1413023
 31
0.0
  0
SOLID
  5
13C
100
AcDbEntity
  8
0
  6
CONTINUOUS
 62
       110
100
AcDbTrace
 10
161.5000000298
 20
47.974635295
 30
0.0
 11
161.5000000298
 21
48.307969305
 31
0.0
 12
160.5
 22
48.1413023
 32
0.0
 13
160.5
 23
48.1413023
 33
0.0
  0
SOLID
  5
13D
100
AcDbEntity
  8
0
  6
CONTINUOUS
 62
       110
100
AcDbTrace
 10
108.9999999702
 20
48.307969305
 30
0.0
 11
108.9999999702
 21
47.974635295
 31
0.0
 12
110.0
 22
48.1413023
 32
0.0
 13
110.0
 23
48.1413023
 33
0.0
  0
MTEXT
  5
13F
100
AcDbEntity
  8
0
  6
CONTINUOUS
 62
       110
100
AcDbMText
 10
135.5499992371
 20
50.7413023238
 30
0.0
 40
3.2000000477
 41
0.0
 71
         5
 72
         1
  1
\A1;50.5
  7
MX_DIMTXSTY_2
 11
1.0
 21
0.0
 31
0.0
  0
POINT
  5
140
100
AcDbEntity
  8
DEFPOINTS
  6
CONTINUOUS
 62
         0
100
AcDbPoint
 10
160.5
 20
97.9999982839
 30
0.0
  0
POINT
  5
141
100
AcDbEntity
  8
DEFPOINTS
  6
CONTINUOUS
 62
         0
100
AcDbPoint
 10
110.0
 20
77.5000001912
 30
0.0
  0
POINT
  5
142
100
AcDbEntity
  8
DEFPOINTS
  6
CONTINUOUS
 62
         0
100
AcDbPoint
 10
110.0
 20
48.1413023
 30
0.0
  0
ENDBLK
  5
143
100
AcDbEntity
  8
0
  6
ByBlock
 62
         0
100
AcDbBlockEnd
  0
BLOCK
  5
146
100
AcDbEntity
  8
0
  6
ByBlock
 62
         0
100
AcDbBlockBegin
  2
*D6
 70
         1
 10
0.0
 20
0.0
 30
0.0
  3
*D6
  1

  0
LINE
  5
147
100
AcDbEntity
  8
0
  6
CONTINUOUS
 62
       110
100
AcDbLine
 10
80.0
 20
256.620315
 30
0.0
 11
160.5
 21
256.620315
 31
0.0
  0
LINE
  5
148
100
AcDbEntity
  8
0
  6
CONTINUOUS
 62
       110
100
AcDbLine
 10
80.0
 20
233.0624994482
 30
0.0
 11
80.0
 21
259.120315
 31
0.0
  0
LINE
  5
149
100
AcDbEntity
  8
0
  6
CONTINUOUS
 62
       110
100
AcDbLine
 10
160.5
 20
222.0624994482
 30
0.0
 11
160.5
 21
259.120315
 31
0.0
  0
LINE
  5
14A
100
AcDbEntity
  8
0
  6
CONTINUOUS
 62
       110
100
AcDbLine
 10
80.0
 20
256.620315
 30
0.0
 11
76.0
 21
256.620315
 31
0.0
  0
LINE
  5
14B
100
AcDbEntity
  8
0
  6
CONTINUOUS
 62
       110
100
AcDbLine
 10
160.5
 20
256.620315
 30
0.0
 11
164.5
 21
256.620315
 31
0.0
  0
SOLID
  5
14C
100
AcDbEntity
  8
0
  6
CONTINUOUS
 62
       110
100
AcDbTrace
 10
78.9999999702
 20
256.786982005
 30
0.0
 11
78.9999999702
 21
256.453647995
 31
0.0
 12
80.0
 22
256.620315
 32
0.0
 13
80.0
 23
256.620315
 33
0.0
  0
SOLID
  5
14D
100
AcDbEntity
  8
0
  6
CONTINUOUS
 62
       110
100
AcDbTrace
 10
161.5000000298
 20
256.453647995
 30
0.0
 11
161.5000000298
 21
256.786982005
 31
0.0
 12
160.5
 22
256.620315
 32
0.0
 13
160.5
 23
256.620315
 33
0.0
  0
MTEXT
  5
14E
100
AcDbEntity
  8
0
  6
CONTINUOUS
 62
       110
100
AcDbMText
 10
120.5499992371
 20
259.2203150238
 30
0.0
 40
3.2000000477
 41
0.0
 71
         5
 72
         1
  1
\A1;80.5
  7
MX_DIMTXSTY_2
  0
POINT
  5
14F
100
AcDbEntity
  8
DEFPOINTS
  6
CONTINUOUS
 62
         0
100
AcDbPoint
 10
80.0
 20
232.9999994482
 30
0.0
  0
POINT
  5
150
100
AcDbEntity
  8
DEFPOINTS
  6
CONTINUOUS
 62
         0
100
AcDbPoint
 10
160.5
 20
221.9999994482
 30
0.0
  0
POINT
  5
151
100
AcDbEntity
  8
DEFPOINTS
  6
CONTINUOUS
 62
         0
100
AcDbPoint
 10
160.5
 20
256.620315
 30
0.0
  0
ENDBLK
  5
152
100
AcDbEntity
  8
0
  6
ByBlock
 62
         0
100
AcDbBlockEnd
  0
BLOCK
  5
155
100
AcDbEntity
  8
0
  6
ByBlock
 62
         0
100
AcDbBlockBegin
  2
*D7
 70
         1
 10
0.0
 20
0.0
 30
0.0
  3
*D7
  1

  0
LINE
  5
156
100
AcDbEntity
  8
0
  6
CONTINUOUS
 62
       110
100
AcDbLine
 10
190.154997
 20
215.0
 30
0.0
 11
190.154997
 21
105.0
 31
0.0
  0
LINE
  5
157
100
AcDbEntity
  8
0
  6
CONTINUOUS
 62
       110
100
AcDbLine
 10
160.5625001281
 20
215.0
 30
0.0
 11
192.654997
 21
215.0
 31
0.0
  0
LINE
  5
158
100
AcDbEntity
  8
0
  6
CONTINUOUS
 62
       110
100
AcDbLine
 10
160.5625001281
 20
105.0
 30
0.0
 11
192.654997
 21
105.0
 31
0.0
  0
LINE
  5
159
100
AcDbEntity
  8
0
  6
CONTINUOUS
 62
       110
100
AcDbLine
 10
190.154997
 20
215.0
 30
0.0
 11
190.154997
 21
219.0
 31
0.0
  0
LINE
  5
15A
100
AcDbEntity
  8
0
  6
CONTINUOUS
 62
       110
100
AcDbLine
 10
190.154997
 20
105.0
 30
0.0
 11
190.154997
 21
101.0
 31
0.0
  0
SOLID
  5
15B
100
AcDbEntity
  8
0
  6
CONTINUOUS
 62
       110
100
AcDbTrace
 10
190.321664005
 20
216.0000000298
 30
0.0
 11
189.988329995
 21
216.0000000298
 31
0.0
 12
190.154997
 22
215.0
 32
0.0
 13
190.154997
 23
215.0
 33
0.0
  0
SOLID
  5
15C
100
AcDbEntity
  8
0
  6
CONTINUOUS
 62
       110
100
AcDbTrace
 10
189.988329995
 20
103.9999999702
 30
0.0
 11
190.321664005
 21
103.9999999702
 31
0.0
 12
190.154997
 22
105.0
 32
0.0
 13
190.154997
 23
105.0
 33
0.0
  0
MTEXT
  5
15E
100
AcDbEntity
  8
0
  6
CONTINUOUS
 62
       110
100
AcDbMText
 10
187.5549969762
 20
160.2999992371
 30
0.0
 40
3.2000000477
 41
0.0
 71
         5
 72
         1
  1
\A1;\U+2205110
  7
MX_DIMTXSTY_3
 11
0.0
 21
1.0
 31
0.0
  0
POINT
  5
15F
100
AcDbEntity
  8
DEFPOINTS
  6
CONTINUOUS
 62
         0
100
AcDbPoint
 10
160.5000001281
 20
215.0
 30
0.0
  0
POINT
  5
160
100
AcDbEntity
  8
DEFPOINTS
  6
CONTINUOUS
 62
         0
100
AcDbPoint
 10
160.5000001281
 20
105.0
 30
0.0
  0
POINT
  5
161
100
AcDbEntity
  8
DEFPOINTS
  6
CONTINUOUS
 62
         0
100
AcDbPoint
 10
190.154997
 20
105.0
 30
0.0
  0
ENDBLK
  5
162
100
AcDbEntity
  8
0
  6
ByBlock
 62
         0
100
AcDbBlockEnd
  0
BLOCK
  5
165
100
AcDbEntity
  8
0
  6
ByBlock
 62
         0
100
AcDbBlockBegin
  2
*D8
 70
         1
 10
0.0
 20
0.0
 30
0.0
  3
*D8
  1

  0
LINE
  5
166
100
AcDbEntity
  8
0
  6
CONTINUOUS
 62
       110
100
AcDbLine
 10
204.026399
 20
222.0
 30
0.0
 11
204.026399
 21
98.0
 31
0.0
  0
LINE
  5
167
100
AcDbEntity
  8
0
  6
CONTINUOUS
 62
       110
100
AcDbLine
 10
160.5625012949
 20
222.0
 30
0.0
 11
206.526399
 21
222.0
 31
0.0
  0
LINE
  5
168
100
AcDbEntity
  8
0
  6
CONTINUOUS
 62
       110
100
AcDbLine
 10
160.5625012949
 20
98.0
 30
0.0
 11
206.526399
 21
98.0
 31
0.0
  0
LINE
  5
169
100
AcDbEntity
  8
0
  6
CONTINUOUS
 62
       110
100
AcDbLine
 10
204.026399
 20
222.0
 30
0.0
 11
204.026399
 21
226.0
 31
0.0
  0
LINE
  5
16A
100
AcDbEntity
  8
0
  6
CONTINUOUS
 62
       110
100
AcDbLine
 10
204.026399
 20
98.0
 30
0.0
 11
204.026399
 21
94.0
 31
0.0
  0
SOLID
  5
16B
100
AcDbEntity
  8
0
  6
CONTINUOUS
 62
       110
100
AcDbTrace
 10
204.193066005
 20
223.0000000298
 30
0.0
 11
203.859731995
 21
223.0000000298
 31
0.0
 12
204.026399
 22
222.0
 32
0.0
 13
204.026399
 23
222.0
 33
0.0
  0
SOLID
  5
16C
100
AcDbEntity
  8
0
  6
CONTINUOUS
 62
       110
100
AcDbTrace
 10
203.859731995
 20
96.9999999702
 30
0.0
 11
204.193066005
 21
96.9999999702
 31
0.0
 12
204.026399
 22
98.0
 32
0.0
 13
204.026399
 23
98.0
 33
0.0
  0
MTEXT
  5
16D
100
AcDbEntity
  8
0
  6
CONTINUOUS
 62
       110
100
AcDbMText
 10
201.4263989762
 20
160.2999992371
 30
0.0
 40
3.2000000477
 41
0.0
 71
         5
 72
         1
  1
\A1;\U+2205124
 11
0.0
 21
1.0
 31
0.0
  0
POINT
  5
16E
100
AcDbEntity
  8
DEFPOINTS
  6
CONTINUOUS
 62
         0
100
AcDbPoint
 10
160.5000012949
 20
222.0
 30
0.0
  0
POINT
  5
16F
100
AcDbEntity
  8
DEFPOINTS
  6
CONTINUOUS
 62
         0
100
AcDbPoint
 10
160.5000012949
 20
98.0
 30
0.0
  0
POINT
  5
170
100
AcDbEntity
  8
DEFPOINTS
  6
CONTINUOUS
 62
         0
100
AcDbPoint
 10
204.026399
 20
98.0
 30
0.0
  0
ENDBLK
  5
171
100
AcDbEntity
  8
0
  6
ByBlock
 62
         0
100
AcDbBlockEnd
  0
BLOCK
  5
174
100
AcDbEntity
  8
0
  6
ByBlock
 62
         0
100
AcDbBlockBegin
  2
*D9
 70
         1
 10
0.0
 20
0.0
 30
0.0
  3
*D9
  1

  0
LINE
  5
175
100
AcDbEntity
  8
0
  6
CONTINUOUS
 62
       110
100
AcDbLine
 10
217.897801
 20
226.0
 30
0.0
 11
217.897801
 21
93.9999991
 31
0.0
  0
LINE
  5
176
100
AcDbEntity
  8
0
  6
CONTINUOUS
 62
       110
100
AcDbLine
 10
118.5624967397
 20
226.0
 30
0.0
 11
220.397801
 21
226.0
 31
0.0
  0
LINE
  5
177
100
AcDbEntity
  8
0
  6
CONTINUOUS
 62
       110
100
AcDbLine
 10
118.5624967397
 20
93.9999991
 30
0.0
 11
220.397801
 21
93.9999991
 31
0.0
  0
LINE
  5
178
100
AcDbEntity
  8
0
  6
CONTINUOUS
 62
       110
100
AcDbLine
 10
217.897801
 20
226.0
 30
0.0
 11
217.897801
 21
230.0
 31
0.0
  0
LINE
  5
179
100
AcDbEntity
  8
0
  6
CONTINUOUS
 62
       110
100
AcDbLine
 10
217.897801
 20
93.9999991
 30
0.0
 11
217.897801
 21
89.9999991
 31
0.0
  0
SOLID
  5
17A
100
AcDbEntity
  8
0
  6
CONTINUOUS
 62
       110
100
AcDbTrace
 10
218.064468005
 20
227.0000000298
 30
0.0
 11
217.731133995
 21
227.0000000298
 31
0.0
 12
217.897801
 22
226.0
 32
0.0
 13
217.897801
 23
226.0
 33
0.0
  0
SOLID
  5
17B
100
AcDbEntity
  8
0
  6
CONTINUOUS
 62
       110
100
AcDbTrace
 10
217.731133995
 20
92.9999990702
 30
0.0
 11
218.064468005
 21
92.9999990702
 31
0.0
 12
217.897801
 22
93.9999991
 32
0.0
 13
217.897801
 23
93.9999991
 33
0.0
  0
MTEXT
  5
17C
100
AcDbEntity
  8
0
  6
CONTINUOUS
 62
       110
100
AcDbMText
 10
215.2978009762
 20
160.3000030518
 30
0.0
 40
3.2000000477
 41
0.0
 71
         5
 72
         1
  1
\A1;\U+2205132
 11
0.0
 21
1.0
 31
0.0
  0
POINT
  5
17D
100
AcDbEntity
  8
DEFPOINTS
  6
CONTINUOUS
 62
         0
100
AcDbPoint
 10
118.4999967397
 20
226.0
 30
0.0
  0
POINT
  5
17E
100
AcDbEntity
  8
DEFPOINTS
  6
CONTINUOUS
 62
         0
100
AcDbPoint
 10
118.4999967397
 20
93.9999991
 30
0.0
  0
POINT
  5
17F
100
AcDbEntity
  8
DEFPOINTS
  6
CONTINUOUS
 62
         0
100
AcDbPoint
 10
217.897801
 20
93.9999991
 30
0.0
  0
ENDBLK
  5
180
100
AcDbEntity
  8
0
  6
ByBlock
 62
         0
100
AcDbBlockEnd
  0
BLOCK
  5
183
100
AcDbEntity
  8
0
  6
ByBlock
 62
         0
100
AcDbBlockBegin
  2
*D10
 70
         1
 10
0.0
 20
0.0
 30
0.0
  3
*D10
  1

  0
LINE
  5
184
100
AcDbEntity
  8
0
  6
CONTINUOUS
 62
       110
100
AcDbLine
 10
58.3766782
 20
87.0
 30
0.0
 11
58.3766782
 21
233.0
 31
0.0
  0
LINE
  5
185
100
AcDbEntity
  8
0
  6
CONTINUOUS
 62
       110
100
AcDbLine
 10
89.9374997332
 20
87.0
 30
0.0
 11
55.8766782
 21
87.0
 31
0.0
  0
LINE
  5
186
100
AcDbEntity
  8
0
  6
CONTINUOUS
 62
       110
100
AcDbLine
 10
89.9374997332
 20
233.0
 30
0.0
 11
55.8766782
 21
233.0
 31
0.0
  0
LINE
  5
187
100
AcDbEntity
  8
0
  6
CONTINUOUS
 62
       110
100
AcDbLine
 10
58.3766782
 20
87.0
 30
0.0
 11
58.3766782
 21
83.0
 31
0.0
  0
LINE
  5
188
100
AcDbEntity
  8
0
  6
CONTINUOUS
 62
       110
100
AcDbLine
 10
58.3766782
 20
233.0
 30
0.0
 11
58.3766782
 21
237.0
 31
0.0
  0
SOLID
  5
189
100
AcDbEntity
  8
0
  6
CONTINUOUS
 62
       110
100
AcDbTrace
 10
58.210011195
 20
85.9999999702
 30
0.0
 11
58.543345205
 21
85.9999999702
 31
0.0
 12
58.3766782
 22
87.0
 32
0.0
 13
58.3766782
 23
87.0
 33
0.0
  0
SOLID
  5
18A
100
AcDbEntity
  8
0
  6
CONTINUOUS
 62
       110
100
AcDbTrace
 10
58.543345205
 20
234.0000000298
 30
0.0
 11
58.210011195
 21
234.0000000298
 31
0.0
 12
58.3766782
 22
233.0
 32
0.0
 13
58.3766782
 23
233.0
 33
0.0
  0
MTEXT
  5
18B
100
AcDbEntity
  8
0
  6
CONTINUOUS
 62
       110
100
AcDbMText
 10
55.7766781762
 20
160.3000030518
 30
0.0
 40
3.2000000477
 41
0.0
 71
         5
 72
         1
  1
\A1;\U+2205146
 11
0.0
 21
1.0
 31
0.0
  0
POINT
  5
18C
100
AcDbEntity
  8
DEFPOINTS
  6
CONTINUOUS
 62
         0
100
AcDbPoint
 10
89.9999997332
 20
87.0
 30
0.0
  0
POINT
  5
18D
100
AcDbEntity
  8
DEFPOINTS
  6
CONTINUOUS
 62
         0
100
AcDbPoint
 10
89.9999997332
 20
233.0
 30
0.0
  0
POINT
  5
18E
100
AcDbEntity
  8
DEFPOINTS
  6
CONTINUOUS
 62
         0
100
AcDbPoint
 10
58.3766782
 20
233.0
 30
0.0
  0
ENDBLK
  5
18F
100
AcDbEntity
  8
0
  6
ByBlock
 62
         0
100
AcDbBlockEnd
  0
BLOCK
  5
192
100
AcDbEntity
  8
0
  6
ByBlock
 62
         0
100
AcDbBlockBegin
  2
*D11
 70
         1
 10
0.0
 20
0.0
 30
0.0
  3
*D11
  1

  0
LINE
  5
193
100
AcDbEntity
  8
0
  6
CONTINUOUS
 62
       110
100
AcDbLine
 10
43.2813289
 20
77.5
 30
0.0
 11
43.2813289
 21
242.5
 31
0.0
  0
LINE
  5
194
100
AcDbEntity
  8
0
  6
CONTINUOUS
 62
       110
100
AcDbLine
 10
89.9374987914
 20
77.5
 30
0.0
 11
40.7813289
 21
77.5
 31
0.0
  0
LINE
  5
195
100
AcDbEntity
  8
0
  6
CONTINUOUS
 62
       110
100
AcDbLine
 10
89.9374987914
 20
242.5
 30
0.0
 11
40.7813289
 21
242.5
 31
0.0
  0
LINE
  5
196
100
AcDbEntity
  8
0
  6
CONTINUOUS
 62
       110
100
AcDbLine
 10
43.2813289
 20
77.5
 30
0.0
 11
43.2813289
 21
73.5
 31
0.0
  0
LINE
  5
197
100
AcDbEntity
  8
0
  6
CONTINUOUS
 62
       110
100
AcDbLine
 10
43.2813289
 20
242.5
 30
0.0
 11
43.2813289
 21
246.5
 31
0.0
  0
SOLID
  5
198
100
AcDbEntity
  8
0
  6
CONTINUOUS
 62
       110
100
AcDbTrace
 10
43.114661895
 20
76.4999999702
 30
0.0
 11
43.447995905
 21
76.4999999702
 31
0.0
 12
43.2813289
 22
77.5
 32
0.0
 13
43.2813289
 23
77.5
 33
0.0
  0
SOLID
  5
199
100
AcDbEntity
  8
0
  6
CONTINUOUS
 62
       110
100
AcDbTrace
 10
43.447995905
 20
243.5000000298
 30
0.0
 11
43.114661895
 21
243.5000000298
 31
0.0
 12
43.2813289
 22
242.5
 32
0.0
 13
43.2813289
 23
242.5
 33
0.0
  0
MTEXT
  5
19A
100
AcDbEntity
  8
0
  6
CONTINUOUS
 62
       110
100
AcDbMText
 10
40.6813288762
 20
160.3000030518
 30
0.0
 40
3.2000000477
 41
0.0
 71
         5
 72
         1
  1
\A1;\U+2205165
 11
0.0
 21
1.0
 31
0.0
  0
POINT
  5
19B
100
AcDbEntity
  8
DEFPOINTS
  6
CONTINUOUS
 62
         0
100
AcDbPoint
 10
89.9999987914
 20
77.5
 30
0.0
  0
POINT
  5
19C
100
AcDbEntity
  8
DEFPOINTS
  6
CONTINUOUS
 62
         0
100
AcDbPoint
 10
89.9999987914
 20
242.5
 30
0.0
  0
POINT
  5
19D
100
AcDbEntity
  8
DEFPOINTS
  6
CONTINUOUS
 62
         0
100
AcDbPoint
 10
43.2813289
 20
242.5
 30
0.0
  0
ENDBLK
  5
19E
100
AcDbEntity
  8
0
  6
ByBlock
 62
         0
100
AcDbBlockEnd
  0
ENDSEC
  0
SECTION
  2
ENTITIES
  0
MTEXT
  5
29
100
AcDbEntity
  8
0
  6
CONTINUOUS
 62
       110
100
AcDbMText
 10
-23.1669252171
 20
-51.6849998498
 30
0.0
 40
3.2000000477
 41
0.0
 71
         1
 72
         1
  1
\T1.025;\W1.058;\A1;TSUBAKI
  0
MTEXT
  5
2A
100
AcDbEntity
  8
0
  6
CONTINUOUS
 62
       110
100
AcDbMText
 10
-61.9756614869
 20
21.6054260548
 30
0.0
 40
9.6000003815
 41
0.0
 71
         1
 72
         1
  1
\T1.025;\W1.058;\A1;TSUBAKI
  0
INSERT
  5
2B
100
AcDbEntity
  8
PV
  6
ByBlock
100
AcDbBlockReference
  2
ARROW
 10
-175.195
 20
207.908
 30
0.0
 50
111.173506
  0
LINE
  5
2D
100
AcDbEntity
  8
PV
  6
CENTER
 62
         3
100
AcDbLine
 10
-28.129
 20
160.0
 30
0.0
 11
-210.545
 21
160.0
 31
0.0
  0
LINE
  5
2E
100
AcDbEntity
  8
PV
  6
CENTER
 62
         3
100
AcDbLine
 10
-116.137
 20
253.865
 30
0.0
 11
-116.137
 21
64.724
 31
0.0
  0
LINE
  5
2F
100
AcDbEntity
  8
PV
  6
CENTER
 62
         3
100
AcDbLine
 10
-60.965
 20
235.938
 30
0.0
 11
-89.237
 21
197.024
 31
0.0
  0
LINE
  5
30
100
AcDbEntity
  8
PV
  6
CENTER
 62
         3
100
AcDbLine
 10
-26.866
 20
189.006
 30
0.0
 11
-72.612
 21
174.142
 31
0.0
  0
LINE
  5
31
100
AcDbEntity
  8
PV
  6
CENTER
 62
         3
100
AcDbLine
 10
-26.866
 20
130.994
 30
0.0
 11
-72.612
 21
145.858
 31
0.0
  0
LINE
  5
32
100
AcDbEntity
  8
PV
  6
CENTER
 62
         3
100
AcDbLine
 10
-60.965
 20
84.062
 30
0.0
 11
-89.237
 21
122.976
 31
0.0
  0
LINE
  5
33
100
AcDbEntity
  8
PV
  6
CENTER
 62
         3
100
AcDbLine
 10
-171.309
 20
84.062
 30
0.0
 11
-143.037
 21
122.976
 31
0.0
  0
LINE
  5
34
100
AcDbEntity
  8
PV
  6
CENTER
 62
         3
100
AcDbLine
 10
-205.408
 20
130.994
 30
0.0
 11
-159.662
 21
145.858
 31
0.0
  0
LINE
  5
35
100
AcDbEntity
  8
PV
  6
CENTER
 62
         3
100
AcDbLine
 10
-205.408
 20
189.006
 30
0.0
 11
-159.662
 21
174.142
 31
0.0
  0
LINE
  5
36
100
AcDbEntity
  8
PV
  6
CENTER
 62
         3
100
AcDbLine
 10
-171.309
 20
235.938
 30
0.0
 11
-143.037
 21
197.024
 31
0.0
  0
LINE
  5
37
100
AcDbEntity
  8
PV
  6
CENTER
 62
         3
100
AcDbLine
 10
-151.841
 20
185.941
 30
0.0
 11
-190.757
 21
214.215
 31
0.0
  0
LINE
  5
38
100
AcDbEntity
  8
PV
  6
CONTINUOUS
 62
         3
100
AcDbLine
 10
-116.137
 20
237.619
 30
0.0
 11
-120.137
 21
235.31
 31
0.0
  0
LINE
  5
39
100
AcDbEntity
  8
PV
  6
CONTINUOUS
 62
         3
100
AcDbLine
 10
-116.137
 20
237.619
 30
0.0
 11
-112.137
 21
235.31
 31
0.0
  0
LINE
  5
3A
100
AcDbEntity
  8
PV
  6
CONTINUOUS
 62
         3
100
AcDbLine
 10
-116.137
 20
228.381
 30
0.0
 11
-112.137
 21
230.691
 31
0.0
  0
LINE
  5
3B
100
AcDbEntity
  8
PV
  6
CONTINUOUS
 62
         3
100
AcDbLine
 10
-120.137
 20
235.309
 30
0.0
 11
-120.137
 21
230.691
 31
0.0
  0
LINE
  5
3C
100
AcDbEntity
  8
PV
  6
CONTINUOUS
 62
         3
100
AcDbLine
 10
-112.137
 20
235.309
 30
0.0
 11
-112.137
 21
230.691
 31
0.0
  0
LINE
  5
3D
100
AcDbEntity
  8
PV
  6
CENTER
 62
         3
100
AcDbLine
 10
-102.499
 20
201.973
 30
0.0
 11
-87.634
 21
247.722
 31
0.0
  0
LINE
  5
3E
100
AcDbEntity
  8
PV
  6
CENTER
 62
         3
100
AcDbLine
 10
-102.499
 20
118.027
 30
0.0
 11
-87.635
 21
72.278
 31
0.0
  0
LINE
  5
3F
100
AcDbEntity
  8
PV
  6
CENTER
 62
         3
100
AcDbLine
 10
-151.841
 20
134.059
 30
0.0
 11
-190.758
 21
105.785
 31
0.0
  0
LINE
  5
40
100
AcDbEntity
  8
PV
  6
CONTINUOUS
 62
         3
100
AcDbLine
 10
-116.137
 20
228.381
 30
0.0
 11
-120.137
 21
230.691
 31
0.0
  0
LINE
  5
41
100
AcDbEntity
  8
PV
  6
CONTINUOUS
 62
         3
100
AcDbLine
 10
-70.514
 20
222.795
 30
0.0
 11
-75.107
 21
223.278
 31
0.0
  0
LINE
  5
42
100
AcDbEntity
  8
PV
  6
CONTINUOUS
 62
         3
100
AcDbLine
 10
-70.514
 20
222.795
 30
0.0
 11
-68.635
 21
218.575
 31
0.0
  0
LINE
  5
43
100
AcDbEntity
  8
PV
  6
CONTINUOUS
 62
         3
100
AcDbLine
 10
-75.944
 20
215.321
 30
0.0
 11
-71.35
 21
214.839
 31
0.0
  0
LINE
  5
44
100
AcDbEntity
  8
PV
  6
CONTINUOUS
 62
         3
100
AcDbLine
 10
-75.107
 20
223.278
 30
0.0
 11
-77.822
 21
219.541
 31
0.0
  0
LINE
  5
45
100
AcDbEntity
  8
PV
  6
CONTINUOUS
 62
         3
100
AcDbLine
 10
-68.635
 20
218.575
 30
0.0
 11
-71.35
 21
214.839
 31
0.0
  0
LINE
  5
46
100
AcDbEntity
  8
PV
  6
CONTINUOUS
 62
         3
100
AcDbLine
 10
-75.944
 20
215.321
 30
0.0
 11
-77.822
 21
219.541
 31
0.0
  0
LINE
  5
47
100
AcDbEntity
  8
PV
  6
CONTINUOUS
 62
         3
100
AcDbLine
 10
-42.317
 20
183.986
 30
0.0
 11
-45.75
 21
187.076
 31
0.0
  0
LINE
  5
48
100
AcDbEntity
  8
PV
  6
CONTINUOUS
 62
         3
100
AcDbLine
 10
-42.317
 20
183.986
 30
0.0
 11
-43.277
 21
179.468
 31
0.0
  0
LINE
  5
49
100
AcDbEntity
  8
PV
  6
CONTINUOUS
 62
         3
100
AcDbLine
 10
-51.103
 20
181.131
 30
0.0
 11
-47.67
 21
178.04
 31
0.0
  0
LINE
  5
4A
100
AcDbEntity
  8
PV
  6
CONTINUOUS
 62
         3
100
AcDbLine
 10
-45.75
 20
187.076
 30
0.0
 11
-50.142
 21
185.649
 31
0.0
  0
LINE
  5
4B
100
AcDbEntity
  8
PV
  6
CONTINUOUS
 62
         3
100
AcDbLine
 10
-43.278
 20
179.468
 30
0.0
 11
-47.67
 21
178.041
 31
0.0
  0
LINE
  5
4C
100
AcDbEntity
  8
PV
  6
CONTINUOUS
 62
         3
100
AcDbLine
 10
-51.103
 20
181.131
 30
0.0
 11
-50.142
 21
185.649
 31
0.0
  0
LINE
  5
4D
100
AcDbEntity
  8
PV
  6
CONTINUOUS
 62
         3
100
AcDbLine
 10
-42.317
 20
136.014
 30
0.0
 11
-43.277
 21
140.532
 31
0.0
  0
LINE
  5
4E
100
AcDbEntity
  8
PV
  6
CONTINUOUS
 62
         3
100
AcDbLine
 10
-42.317
 20
136.014
 30
0.0
 11
-45.75
 21
132.924
 31
0.0
  0
LINE
  5
4F
100
AcDbEntity
  8
PV
  6
CONTINUOUS
 62
         3
100
AcDbLine
 10
-51.103
 20
138.869
 30
0.0
 11
-50.142
 21
134.351
 31
0.0
  0
LINE
  5
50
100
AcDbEntity
  8
PV
  6
CONTINUOUS
 62
         3
100
AcDbLine
 10
-43.278
 20
140.532
 30
0.0
 11
-47.67
 21
141.96
 31
0.0
  0
LINE
  5
51
100
AcDbEntity
  8
PV
  6
CONTINUOUS
 62
         3
100
AcDbLine
 10
-45.75
 20
132.924
 30
0.0
 11
-50.142
 21
134.351
 31
0.0
  0
LINE
  5
52
100
AcDbEntity
  8
PV
  6
CONTINUOUS
 62
         3
100
AcDbLine
 10
-51.103
 20
138.869
 30
0.0
 11
-47.67
 21
141.96
 31
0.0
  0
LINE
  5
53
100
AcDbEntity
  8
PV
  6
CONTINUOUS
 62
         3
100
AcDbLine
 10
-70.514
 20
97.205
 30
0.0
 11
-68.635
 21
101.424
 31
0.0
  0
LINE
  5
54
100
AcDbEntity
  8
PV
  6
CONTINUOUS
 62
         3
100
AcDbLine
 10
-70.514
 20
97.205
 30
0.0
 11
-75.107
 21
96.722
 31
0.0
  0
LINE
  5
55
100
AcDbEntity
  8
PV
  6
CONTINUOUS
 62
         3
100
AcDbLine
 10
-75.944
 20
104.679
 30
0.0
 11
-77.822
 21
100.459
 31
0.0
  0
LINE
  5
56
100
AcDbEntity
  8
PV
  6
CONTINUOUS
 62
         3
100
AcDbLine
 10
-68.635
 20
101.424
 30
0.0
 11
-71.35
 21
105.161
 31
0.0
  0
LINE
  5
57
100
AcDbEntity
  8
PV
  6
CONTINUOUS
 62
         3
100
AcDbLine
 10
-75.107
 20
96.722
 30
0.0
 11
-77.822
 21
100.459
 31
0.0
  0
LINE
  5
58
100
AcDbEntity
  8
PV
  6
CONTINUOUS
 62
         3
100
AcDbLine
 10
-75.944
 20
104.679
 30
0.0
 11
-71.35
 21
105.161
 31
0.0
  0
LINE
  5
59
100
AcDbEntity
  8
PV
  6
CONTINUOUS
 62
         3
100
AcDbLine
 10
-161.76
 20
97.205
 30
0.0
 11
-157.167
 21
96.722
 31
0.0
  0
LINE
  5
5A
100
AcDbEntity
  8
PV
  6
CONTINUOUS
 62
         3
100
AcDbLine
 10
-161.76
 20
97.205
 30
0.0
 11
-163.639
 21
101.424
 31
0.0
  0
LINE
  5
5B
100
AcDbEntity
  8
PV
  6
CONTINUOUS
 62
         3
100
AcDbLine
 10
-156.331
 20
104.679
 30
0.0
 11
-160.924
 21
105.161
 31
0.0
  0
LINE
  5
5C
100
AcDbEntity
  8
PV
  6
CONTINUOUS
 62
         3
100
AcDbLine
 10
-157.167
 20
96.722
 30
0.0
 11
-154.452
 21
100.459
 31
0.0
  0
LINE
  5
5D
100
AcDbEntity
  8
PV
  6
CONTINUOUS
 62
         3
100
AcDbLine
 10
-163.639
 20
101.425
 30
0.0
 11
-160.924
 21
105.161
 31
0.0
  0
LINE
  5
5E
100
AcDbEntity
  8
PV
  6
CONTINUOUS
 62
         3
100
AcDbLine
 10
-156.33
 20
104.679
 30
0.0
 11
-154.452
 21
100.459
 31
0.0
  0
LINE
  5
5F
100
AcDbEntity
  8
PV
  6
CONTINUOUS
 62
         3
100
AcDbLine
 10
-189.957
 20
136.014
 30
0.0
 11
-186.524
 21
132.924
 31
0.0
  0
LINE
  5
60
100
AcDbEntity
  8
PV
  6
CONTINUOUS
 62
         3
100
AcDbLine
 10
-189.957
 20
136.014
 30
0.0
 11
-188.997
 21
140.532
 31
0.0
  0
LINE
  5
61
100
AcDbEntity
  8
PV
  6
CONTINUOUS
 62
         3
100
AcDbLine
 10
-181.171
 20
138.869
 30
0.0
 11
-184.604
 21
141.96
 31
0.0
  0
LINE
  5
62
100
AcDbEntity
  8
PV
  6
CONTINUOUS
 62
         3
100
AcDbLine
 10
-186.524
 20
132.924
 30
0.0
 11
-182.132
 21
134.351
 31
0.0
  0
LINE
  5
63
100
AcDbEntity
  8
PV
  6
CONTINUOUS
 62
         3
100
AcDbLine
 10
-188.996
 20
140.532
 30
0.0
 11
-184.604
 21
141.96
 31
0.0
  0
LINE
  5
64
100
AcDbEntity
  8
PV
  6
CONTINUOUS
 62
         3
100
AcDbLine
 10
-181.171
 20
138.869
 30
0.0
 11
-182.132
 21
134.351
 31
0.0
  0
LINE
  5
65
100
AcDbEntity
  8
PV
  6
CONTINUOUS
 62
         3
100
AcDbLine
 10
-189.957
 20
183.986
 30
0.0
 11
-188.997
 21
179.468
 31
0.0
  0
LINE
  5
66
100
AcDbEntity
  8
PV
  6
CONTINUOUS
 62
         3
100
AcDbLine
 10
-189.957
 20
183.986
 30
0.0
 11
-186.525
 21
187.076
 31
0.0
  0
LINE
  5
67
100
AcDbEntity
  8
PV
  6
CONTINUOUS
 62
         3
100
AcDbLine
 10
-181.171
 20
181.131
 30
0.0
 11
-182.132
 21
185.649
 31
0.0
  0
LINE
  5
68
100
AcDbEntity
  8
PV
  6
CONTINUOUS
 62
         3
100
AcDbLine
 10
-188.996
 20
179.468
 30
0.0
 11
-184.604
 21
178.04
 31
0.0
  0
LINE
  5
69
100
AcDbEntity
  8
PV
  6
CONTINUOUS
 62
         3
100
AcDbLine
 10
-186.524
 20
187.076
 30
0.0
 11
-182.132
 21
185.649
 31
0.0
  0
LINE
  5
6A
100
AcDbEntity
  8
PV
  6
CONTINUOUS
 62
         3
100
AcDbLine
 10
-181.171
 20
181.131
 30
0.0
 11
-184.604
 21
178.04
 31
0.0
  0
LINE
  5
6B
100
AcDbEntity
  8
PV
  6
CONTINUOUS
 62
         3
100
AcDbLine
 10
-161.76
 20
222.795
 30
0.0
 11
-163.639
 21
218.576
 31
0.0
  0
LINE
  5
6C
100
AcDbEntity
  8
PV
  6
CONTINUOUS
 62
         3
100
AcDbLine
 10
-161.76
 20
222.795
 30
0.0
 11
-157.167
 21
223.278
 31
0.0
  0
LINE
  5
6D
100
AcDbEntity
  8
PV
  6
CONTINUOUS
 62
         3
100
AcDbLine
 10
-156.33
 20
215.321
 30
0.0
 11
-154.452
 21
219.541
 31
0.0
  0
LINE
  5
6E
100
AcDbEntity
  8
PV
  6
CONTINUOUS
 62
         3
100
AcDbLine
 10
-163.639
 20
218.575
 30
0.0
 11
-160.924
 21
214.839
 31
0.0
  0
LINE
  5
6F
100
AcDbEntity
  8
PV
  6
CONTINUOUS
 62
         3
100
AcDbLine
 10
-157.167
 20
223.278
 30
0.0
 11
-154.452
 21
219.541
 31
0.0
  0
LINE
  5
70
100
AcDbEntity
  8
PV
  6
CONTINUOUS
 62
         3
100
AcDbLine
 10
-156.33
 20
215.321
 30
0.0
 11
-160.924
 21
214.839
 31
0.0
  0
LINE
  5
71
100
AcDbEntity
  8
PV
  6
CONTINUOUS
 62
         3
100
AcDbLine
 10
-116.137
 20
82.381
 30
0.0
 11
-112.137
 21
84.69
 31
0.0
  0
LINE
  5
72
100
AcDbEntity
  8
PV
  6
CONTINUOUS
 62
         3
100
AcDbLine
 10
-116.137
 20
82.381
 30
0.0
 11
-120.137
 21
84.69
 31
0.0
  0
LINE
  5
73
100
AcDbEntity
  8
PV
  6
CONTINUOUS
 62
         3
100
AcDbLine
 10
-116.137
 20
91.619
 30
0.0
 11
-120.137
 21
89.309
 31
0.0
  0
LINE
  5
74
100
AcDbEntity
  8
PV
  6
CONTINUOUS
 62
         3
100
AcDbLine
 10
-112.137
 20
84.691
 30
0.0
 11
-112.137
 21
89.309
 31
0.0
  0
LINE
  5
75
100
AcDbEntity
  8
PV
  6
CONTINUOUS
 62
         3
100
AcDbLine
 10
-120.137
 20
84.691
 30
0.0
 11
-120.137
 21
89.309
 31
0.0
  0
LINE
  5
76
100
AcDbEntity
  8
PV
  6
CONTINUOUS
 62
         3
100
AcDbLine
 10
-116.137
 20
91.619
 30
0.0
 11
-112.137
 21
89.309
 31
0.0
  0
CIRCLE
  5
77
100
AcDbEntity
  8
PV
  6
CONTINUOUS
 62
         3
100
AcDbCircle
 10
-159.045
 20
219.058
 30
0.0
 40
8.0
  0
CIRCLE
  5
78
100
AcDbEntity
  8
PV
  6
CONTINUOUS
 62
         3
100
AcDbCircle
 10
-159.045
 20
219.058
 30
0.0
 40
6.961
  0
CIRCLE
  5
79
100
AcDbEntity
  8
PV
  6
CONTINUOUS
 62
         3
100
AcDbCircle
 10
-116.137
 20
87.0
 30
0.0
 40
6.961
  0
CIRCLE
  5
7A
100
AcDbEntity
  8
PV
  6
CONTINUOUS
 62
         3
100
AcDbCircle
 10
-116.137
 20
87.0
 30
0.0
 40
8.0
  0
CIRCLE
  5
7B
100
AcDbEntity
  8
PV
  6
CONTINUOUS
 62
         3
100
AcDbCircle
 10
-116.137
 20
233.0
 30
0.0
 40
8.0
  0
CIRCLE
  5
7C
100
AcDbEntity
  8
PV
  6
CONTINUOUS
 62
         3
100
AcDbCircle
 10
-116.137
 20
233.0
 30
0.0
 40
6.961
  0
CIRCLE
  5
7D
100
AcDbEntity
  8
PV
  6
CONTINUOUS
 62
         3
100
AcDbCircle
 10
-93.579
 20
229.427
 30
0.0
 40
5.0
  0
CIRCLE
  5
7E
100
AcDbEntity
  8
PV
  6
CONTINUOUS
 62
         3
100
AcDbCircle
 10
-93.579
 20
229.427
 30
0.0
 40
4.0
  0
CIRCLE
  5
7F
100
AcDbEntity
  8
PV
  6
CENTER
 62
         3
100
AcDbCircle
 10
-116.137
 20
160.0
 30
0.0
 40
73.0
  0
CIRCLE
  5
80
100
AcDbEntity
  8
PV
  6
CONTINUOUS
 62
         3
100
AcDbCircle
 10
-43.137
 20
160.0
 30
0.0
 40
5.0
  0
CIRCLE
  5
81
100
AcDbEntity
  8
PV
  6
CONTINUOUS
 62
         3
100
AcDbCircle
 10
-43.137
 20
160.0
 30
0.0
 40
4.0
  0
CIRCLE
  5
82
100
AcDbEntity
  8
PV
  6
CONTINUOUS
 62
         3
100
AcDbCircle
 10
-93.579
 20
90.573
 30
0.0
 40
5.0
  0
CIRCLE
  5
83
100
AcDbEntity
  8
PV
  6
CONTINUOUS
 62
         3
100
AcDbCircle
 10
-93.579
 20
90.573
 30
0.0
 40
4.0
  0
CIRCLE
  5
84
100
AcDbEntity
  8
PV
  6
CONTINUOUS
 62
         3
100
AcDbCircle
 10
-175.195
 20
117.092
 30
0.0
 40
5.0
  0
CIRCLE
  5
85
100
AcDbEntity
  8
PV
  6
CONTINUOUS
 62
         3
100
AcDbCircle
 10
-175.195
 20
117.092
 30
0.0
 40
4.0
  0
CIRCLE
  5
86
100
AcDbEntity
  8
PV
  6
CONTINUOUS
 62
         3
100
AcDbCircle
 10
-175.195
 20
202.908
 30
0.0
 40
5.0
  0
CIRCLE
  5
87
100
AcDbEntity
  8
PV
  6
CONTINUOUS
 62
         3
100
AcDbCircle
 10
-175.195
 20
202.908
 30
0.0
 40
4.0
  0
CIRCLE
  5
88
100
AcDbEntity
  8
PV
  6
CONTINUOUS
 62
         3
100
AcDbCircle
 10
-73.229
 20
219.058
 30
0.0
 40
8.0
  0
CIRCLE
  5
89
100
AcDbEntity
  8
PV
  6
CONTINUOUS
 62
         3
100
AcDbCircle
 10
-73.229
 20
219.058
 30
0.0
 40
6.961
  0
CIRCLE
  5
8A
100
AcDbEntity
  8
PV
  6
CONTINUOUS
 62
         3
100
AcDbCircle
 10
-46.71
 20
182.558
 30
0.0
 40
8.0
  0
CIRCLE
  5
8B
100
AcDbEntity
  8
PV
  6
CONTINUOUS
 62
         3
100
AcDbCircle
 10
-46.71
 20
182.558
 30
0.0
 40
6.961
  0
CIRCLE
  5
8C
100
AcDbEntity
  8
PV
  6
CONTINUOUS
 62
         3
100
AcDbCircle
 10
-46.71
 20
137.442
 30
0.0
 40
8.0
  0
CIRCLE
  5
8D
100
AcDbEntity
  8
PV
  6
CONTINUOUS
 62
         3
100
AcDbCircle
 10
-46.71
 20
137.442
 30
0.0
 40
6.961
  0
CIRCLE
  5
8E
100
AcDbEntity
  8
PV
  6
CONTINUOUS
 62
         3
100
AcDbCircle
 10
-73.229
 20
100.942
 30
0.0
 40
8.0
  0
CIRCLE
  5
8F
100
AcDbEntity
  8
PV
  6
CONTINUOUS
 62
         3
100
AcDbCircle
 10
-73.229
 20
100.942
 30
0.0
 40
6.961
  0
CIRCLE
  5
90
100
AcDbEntity
  8
PV
  6
CONTINUOUS
 62
         3
100
AcDbCircle
 10
-116.137
 20
87.0
 30
0.0
 40
8.0
  0
CIRCLE
  5
91
100
AcDbEntity
  8
PV
  6
CONTINUOUS
 62
         3
100
AcDbCircle
 10
-116.137
 20
87.0
 30
0.0
 40
6.961
  0
CIRCLE
  5
92
100
AcDbEntity
  8
PV
  6
CONTINUOUS
 62
         3
100
AcDbCircle
 10
-159.045
 20
100.942
 30
0.0
 40
8.0
  0
CIRCLE
  5
93
100
AcDbEntity
  8
PV
  6
CONTINUOUS
 62
         3
100
AcDbCircle
 10
-159.045
 20
100.942
 30
0.0
 40
6.961
  0
CIRCLE
  5
94
100
AcDbEntity
  8
PV
  6
CONTINUOUS
 62
         3
100
AcDbCircle
 10
-185.564
 20
137.442
 30
0.0
 40
8.0
  0
CIRCLE
  5
95
100
AcDbEntity
  8
PV
  6
CONTINUOUS
 62
         3
100
AcDbCircle
 10
-185.564
 20
137.442
 30
0.0
 40
6.961
  0
CIRCLE
  5
96
100
AcDbEntity
  8
PV
  6
CONTINUOUS
 62
         3
100
AcDbCircle
 10
-185.564
 20
182.558
 30
0.0
 40
8.0
  0
CIRCLE
  5
97
100
AcDbEntity
  8
PV
  6
CONTINUOUS
 62
         3
100
AcDbCircle
 10
-185.564
 20
182.558
 30
0.0
 40
6.961
  0
LINE
  5
98
100
AcDbEntity
  8
PV
  6
CENTER
 62
         3
100
AcDbLine
 10
170.281
 20
160.0
 30
0.0
 11
70.57
 21
160.0
 31
0.0
  0
LINE
  5
99
100
AcDbEntity
  8
PV
  6
CONTINUOUS
 62
         3
100
AcDbLine
 10
152.5
 20
217.075
 30
0.0
 11
152.5
 21
102.925
 31
0.0
  0
LINE
  5
9A
100
AcDbEntity
  8
PV
  6
CONTINUOUS
 62
         3
100
AcDbLine
 10
122.5
 20
219.7
 30
0.0
 11
114.5
 21
219.7
 31
0.0
  0
LINE
  5
9B
100
AcDbEntity
  8
PV
  6
CONTINUOUS
 62
         3
100
AcDbLine
 10
157.0
 20
216.682
 30
0.0
 11
122.5
 21
219.7
 31
0.0
  0
LINE
  5
9C
100
AcDbEntity
  8
PV
  6
CONTINUOUS
 62
         3
100
AcDbLine
 10
122.5
 20
100.3
 30
0.0
 11
114.5
 21
100.3
 31
0.0
  0
LINE
  5
9D
100
AcDbEntity
  8
PV
  6
CONTINUOUS
 62
         3
100
AcDbLine
 10
157.0
 20
103.318
 30
0.0
 11
122.5
 21
100.3
 31
0.0
  0
LINE
  5
9E
100
AcDbEntity
  8
PV
  6
CONTINUOUS
 62
         3
100
AcDbLine
 10
133.5
 20
238.0
 30
0.0
 11
133.5
 21
228.0
 31
0.0
  0
LINE
  5
9F
100
AcDbEntity
  8
PV
  6
CONTINUOUS
 62
         3
100
AcDbLine
 10
109.0
 20
238.0
 30
0.0
 11
109.0
 21
228.0
 31
0.0
  0
LINE
  5
A0
100
AcDbEntity
  8
PV
  6
CONTINUOUS
 62
         3
100
AcDbLine
 10
109.0
 20
237.188
 30
0.0
 11
107.376
 21
238.0
 31
0.0
  0
LINE
  5
A1
100
AcDbEntity
  8
PV
  6
CONTINUOUS
 62
         3
100
AcDbLine
 10
109.0
 20
228.812
 30
0.0
 11
107.376
 21
228.0
 31
0.0
  0
LINE
  5
A2
100
AcDbEntity
  8
PV
  6
CONTINUOUS
 62
         3
100
AcDbLine
 10
109.0
 20
228.812
 30
0.0
 11
134.312
 21
228.812
 31
0.0
  0
LINE
  5
A3
100
AcDbEntity
  8
PV
  6
CONTINUOUS
 62
         3
100
AcDbLine
 10
109.0
 20
237.188
 30
0.0
 11
134.312
 21
237.188
 31
0.0
  0
LINE
  5
A4
100
AcDbEntity
  8
PV
  6
CONTINUOUS
 62
         3
100
AcDbLine
 10
80.6
 20
241.0
 30
0.0
 11
80.6
 21
225.0
 31
0.0
  0
LINE
  5
A5
100
AcDbEntity
  8
PV
  6
CENTER
 62
         3
100
AcDbLine
 10
75.0
 20
233.0
 30
0.0
 11
140.0
 21
233.0
 31
0.0
  0
LINE
  5
A6
100
AcDbEntity
  8
PV
  6
CONTINUOUS
 62
         3
100
AcDbLine
 10
110.0
 20
82.0
 30
0.0
 11
90.0
 21
82.0
 31
0.0
  0
LINE
  5
A7
100
AcDbEntity
  8
PV
  6
CONTINUOUS
 62
         3
100
AcDbLine
 10
110.0
 20
92.0
 30
0.0
 11
90.0
 21
92.0
 31
0.0
  0
LINE
  5
A8
100
AcDbEntity
  8
PV
  6
CONTINUOUS
 62
         3
100
AcDbLine
 10
90.0
 20
91.188
 30
0.0
 11
110.0
 21
91.188
 31
0.0
  0
LINE
  5
A9
100
AcDbEntity
  8
PV
  6
CONTINUOUS
 62
         3
100
AcDbLine
 10
90.0
 20
82.812
 30
0.0
 11
110.0
 21
82.812
 31
0.0
  0
LINE
  5
AA
100
AcDbEntity
  8
PV
  6
CENTER
 62
         3
100
AcDbLine
 10
74.0
 20
87.0
 30
0.0
 11
125.397
 21
87.0
 31
0.0
  0
LINE
  5
AB
100
AcDbEntity
  8
PV
  6
CONTINUOUS
 62
         3
100
AcDbLine
 10
157.0
 20
216.682
 30
0.0
 11
157.0
 21
103.318
 31
0.0
  0
LINE
  5
AC
100
AcDbEntity
  8
PV
  6
CONTINUOUS
 62
         3
100
AcDbLine
 10
110.0
 20
238.0
 30
0.0
 11
90.4
 21
238.0
 31
0.0
  0
LINE
  5
AD
100
AcDbEntity
  8
PV
  6
CONTINUOUS
 62
         3
100
AcDbLine
 10
110.0
 20
228.0
 30
0.0
 11
90.4
 21
228.0
 31
0.0
  0
ARC
  5
AE
100
AcDbEntity
  8
PV
  6
CONTINUOUS
 62
         3
100
AcDbCircle
 10
90.4
 20
238.4
 30
0.0
 40
0.4
100
AcDbArc
 50
180.0
 51
270.0
  0
ARC
  5
AF
100
AcDbEntity
  8
PV
  6
CONTINUOUS
 62
         3
100
AcDbCircle
 10
90.4
 20
227.6
 30
0.0
 40
0.4
100
AcDbArc
 50
90.0000002
 51
180.0
  0
LINE
  5
B0
100
AcDbEntity
  8
PV
  6
CONTINUOUS
 62
         3
100
AcDbLine
 10
-94.237
 20
-50.0
 30
0.0
 11
-94.237
 21
-110.0
 31
0.0
  0
LINE
  5
B1
100
AcDbEntity
  8
PV
  6
CONTINUOUS
 62
         3
100
AcDbLine
 10
-94.237
 20
-74.0
 30
0.0
 11
94.237
 21
-74.0
 31
0.0
  0
LINE
  5
B2
100
AcDbEntity
  8
PV
  6
CONTINUOUS
 62
         3
100
AcDbLine
 10
-94.237
 20
-80.0
 30
0.0
 11
94.237
 21
-80.0
 31
0.0
  0
LINE
  5
B3
100
AcDbEntity
  8
PV
  6
CONTINUOUS
 62
         3
100
AcDbLine
 10
-94.237
 20
-86.0
 30
0.0
 11
94.237
 21
-86.0
 31
0.0
  0
LINE
  5
B4
100
AcDbEntity
  8
PV
  6
CONTINUOUS
 62
         3
100
AcDbLine
 10
-94.237
 20
-92.0
 30
0.0
 11
94.237
 21
-92.0
 31
0.0
  0
LINE
  5
B5
100
AcDbEntity
  8
PV
  6
CONTINUOUS
 62
         3
100
AcDbLine
 10
-94.237
 20
-98.0
 30
0.0
 11
94.237
 21
-98.0
 31
0.0
  0
LINE
  5
B6
100
AcDbEntity
  8
PV
  6
CONTINUOUS
 62
         3
100
AcDbLine
 10
-94.237
 20
-104.0
 30
0.0
 11
94.237
 21
-104.0
 31
0.0
  0
LINE
  5
B7
100
AcDbEntity
  8
PV
  6
CONTINUOUS
 62
         3
100
AcDbLine
 10
-94.237
 20
-110.0
 30
0.0
 11
94.237
 21
-110.0
 31
0.0
  0
LINE
  5
B8
100
AcDbEntity
  8
PV
  6
CONTINUOUS
 62
         3
100
AcDbLine
 10
17.763
 20
-62.0
 30
0.0
 11
17.763
 21
-110.0
 31
0.0
  0
LINE
  5
B9
100
AcDbEntity
  8
PV
  6
CONTINUOUS
 62
         3
100
AcDbLine
 10
94.237
 20
-50.0
 30
0.0
 11
94.237
 21
-110.0
 31
0.0
  0
LINE
  5
BA
100
AcDbEntity
  8
PV
  6
CONTINUOUS
 62
         3
100
AcDbLine
 10
-94.237
 20
-68.0
 30
0.0
 11
94.237
 21
-68.0
 31
0.0
  0
LINE
  5
BB
100
AcDbEntity
  8
PV
  6
CONTINUOUS
 62
         3
100
AcDbLine
 10
-94.237
 20
-62.0
 30
0.0
 11
94.237
 21
-62.0
 31
0.0
  0
LINE
  5
BC
100
AcDbEntity
  8
PV
  6
CONTINUOUS
 62
         3
100
AcDbLine
 10
-94.237
 20
-56.0
 30
0.0
 11
94.237
 21
-56.0
 31
0.0
  0
LINE
  5
BD
100
AcDbEntity
  8
PV
  6
CONTINUOUS
 62
         3
100
AcDbLine
 10
-94.237
 20
-50.0
 30
0.0
 11
94.237
 21
-50.0
 31
0.0
  0
CIRCLE
  5
BE
100
AcDbEntity
  8
PV
  6
CONTINUOUS
 62
         3
100
AcDbCircle
 10
-116.137
 20
160.0
 30
0.0
 40
82.5
  0
CIRCLE
  5
BF
100
AcDbEntity
  8
PV
  6
CONTINUOUS
 62
         3
100
AcDbCircle
 10
-116.137
 20
160.0
 30
0.0
 40
55.0
  0
LINE
  5
C0
100
AcDbEntity
  8
PV
  6
CONTINUOUS
 62
         3
100
AcDbLine
 10
118.5
 20
226.0
 30
0.0
 11
118.5
 21
222.0
 31
0.0
  0
LINE
  5
C1
100
AcDbEntity
  8
PV
  6
CONTINUOUS
 62
         3
100
AcDbLine
 10
160.5
 20
215.0
 30
0.0
 11
90.0
 21
215.0
 31
0.0
  0
LINE
  5
C2
100
AcDbEntity
  8
PV
  6
CONTINUOUS
 62
         3
100
AcDbLine
 10
160.5
 20
222.0
 30
0.0
 11
118.5
 21
222.0
 31
0.0
  0
LINE
  5
C3
100
AcDbEntity
  8
PV
  6
CONTINUOUS
 62
         3
100
AcDbLine
 10
160.5
 20
222.0
 30
0.0
 11
160.5
 21
98.0
 31
0.0
  0
LINE
  5
C4
100
AcDbEntity
  8
PV
  6
CONTINUOUS
 62
         3
100
AcDbLine
 10
118.5
 20
226.0
 30
0.0
 11
114.5
 21
226.0
 31
0.0
  0
LINE
  5
C5
100
AcDbEntity
  8
PV
  6
CONTINUOUS
 62
         3
100
AcDbLine
 10
114.5
 20
226.0
 30
0.0
 11
114.5
 21
219.7
 31
0.0
  0
LINE
  5
C6
100
AcDbEntity
  8
PV
  6
CONTINUOUS
 62
         3
100
AcDbLine
 10
118.5
 20
94.0
 30
0.0
 11
118.5
 21
98.0
 31
0.0
  0
LINE
  5
C7
100
AcDbEntity
  8
PV
  6
CONTINUOUS
 62
         3
100
AcDbLine
 10
160.5
 20
105.0
 30
0.0
 11
90.0
 21
105.0
 31
0.0
  0
LINE
  5
C8
100
AcDbEntity
  8
PV
  6
CONTINUOUS
 62
         3
100
AcDbLine
 10
160.5
 20
98.0
 30
0.0
 11
118.5
 21
98.0
 31
0.0
  0
LINE
  5
C9
100
AcDbEntity
  8
PV
  6
CONTINUOUS
 62
         3
100
AcDbLine
 10
118.5
 20
94.0
 30
0.0
 11
114.5
 21
94.0
 31
0.0
  0
LINE
  5
CA
100
AcDbEntity
  8
PV
  6
CONTINUOUS
 62
         3
100
AcDbLine
 10
114.5
 20
94.0
 30
0.0
 11
114.5
 21
100.3
 31
0.0
  0
LINE
  5
CB
100
AcDbEntity
  8
PV
  6
CONTINUOUS
 62
         3
100
AcDbLine
 10
133.5
 20
238.0
 30
0.0
 11
110.0
 21
238.0
 31
0.0
  0
LINE
  5
CC
100
AcDbEntity
  8
PV
  6
CONTINUOUS
 62
         3
100
AcDbLine
 10
133.5
 20
228.0
 30
0.0
 11
110.0
 21
228.0
 31
0.0
  0
LINE
  5
CD
100
AcDbEntity
  8
PV
  6
CONTINUOUS
 62
         3
100
AcDbLine
 10
133.5
 20
238.0
 30
0.0
 11
135.0
 21
236.5
 31
0.0
  0
LINE
  5
CE
100
AcDbEntity
  8
PV
  6
CONTINUOUS
 62
         3
100
AcDbLine
 10
133.5
 20
228.0
 30
0.0
 11
135.0
 21
229.5
 31
0.0
  0
LINE
  5
CF
100
AcDbEntity
  8
PV
  6
CONTINUOUS
 62
         3
100
AcDbLine
 10
135.0
 20
236.5
 30
0.0
 11
135.0
 21
229.5
 31
0.0
  0
LINE
  5
D0
100
AcDbEntity
  8
PV
  6
CONTINUOUS
 62
         3
100
AcDbLine
 10
90.0
 20
241.0
 30
0.0
 11
80.6
 21
241.0
 31
0.0
  0
LINE
  5
D1
100
AcDbEntity
  8
PV
  6
CONTINUOUS
 62
         3
100
AcDbLine
 10
90.0
 20
225.0
 30
0.0
 11
80.6
 21
225.0
 31
0.0
  0
LINE
  5
D2
100
AcDbEntity
  8
PV
  6
CONTINUOUS
 62
         3
100
AcDbLine
 10
80.0
 20
226.039
 30
0.0
 11
80.6
 21
225.0
 31
0.0
  0
LINE
  5
D3
100
AcDbEntity
  8
PV
  6
CONTINUOUS
 62
         3
100
AcDbLine
 10
80.0
 20
239.961
 30
0.0
 11
80.6
 21
241.0
 31
0.0
  0
LINE
  5
D4
100
AcDbEntity
  8
PV
  6
CONTINUOUS
 62
         3
100
AcDbLine
 10
80.0
 20
239.961
 30
0.0
 11
80.0
 21
226.039
 31
0.0
  0
LINE
  5
D5
100
AcDbEntity
  8
PV
  6
CONTINUOUS
 62
         3
100
AcDbLine
 10
90.0
 20
242.5
 30
0.0
 11
90.0
 21
77.5
 31
0.0
  0
LINE
  5
D6
100
AcDbEntity
  8
PV
  6
CONTINUOUS
 62
         3
100
AcDbLine
 10
110.0
 20
77.5
 30
0.0
 11
110.0
 21
100.3
 31
0.0
  0
LINE
  5
D7
100
AcDbEntity
  8
PV
  6
CONTINUOUS
 62
         3
100
AcDbLine
 10
110.0
 20
228.0
 30
0.0
 11
110.0
 21
219.7
 31
0.0
  0
LINE
  5
D8
100
AcDbEntity
  8
PV
  6
CONTINUOUS
 62
         3
100
AcDbLine
 10
110.0
 20
242.5
 30
0.0
 11
110.0
 21
238.0
 31
0.0
  0
LINE
  5
D9
100
AcDbEntity
  8
PV
  6
CONTINUOUS
 62
         3
100
AcDbLine
 10
90.0
 20
242.5
 30
0.0
 11
110.0
 21
242.5
 31
0.0
  0
LINE
  5
DA
100
AcDbEntity
  8
PV
  6
CONTINUOUS
 62
         3
100
AcDbLine
 10
90.0
 20
77.5
 30
0.0
 11
110.0
 21
77.5
 31
0.0
  0
LINE
  5
DB
100
AcDbEntity
  8
PV
  6
CONTINUOUS
 62
         3
100
AcDbLine
 10
114.5
 20
219.7
 30
0.0
 11
110.0
 21
219.7
 31
0.0
  0
LINE
  5
DC
100
AcDbEntity
  8
PV
  6
CONTINUOUS
 62
         3
100
AcDbLine
 10
114.5
 20
100.3
 30
0.0
 11
110.0
 21
100.3
 31
0.0
  0
MTEXT
  5
DD
100
AcDbEntity
  8
PV
  6
CONTINUOUS
 62
       110
100
AcDbMText
 10
-61.952056067
 20
-14.3945739452
 30
0.0
 40
9.6000003815
 41
0.0
 71
         1
 72
         1
  1
\W1.119;\A1;PL110X124EF
  0
MTEXT
  5
DE
100
AcDbEntity
  8
PV
  6
CONTINUOUS
 62
       110
100
AcDbMText
 10
-62.1190199022
 20
3.6054260348
 30
0.0
 40
9.6000003815
 41
0.0
 71
         1
 72
         1
  1
\T1.003;\W1.067;\A1;POWER LOCK
  0
MTEXT
  5
DF
100
AcDbEntity
  8
PV
  6
CONTINUOUS
 62
       110
100
AcDbMText
 10
-199.6458137461
 20
281.4127393602
 30
0.0
 40
9.6000003815
 41
0.0
 71
         1
 72
         1
  1
\W1.200;\A1;M10
 11
0.9998476952
 21
-0.0174524064
 31
0.0
  0
MTEXT
  5
E0
100
AcDbEntity
  8
PV
  6
CONTINUOUS
 62
       110
100
AcDbMText
 10
-91.5379566529
 20
-81.1299998498
 30
0.0
 40
3.2000000477
 41
0.0
 71
         1
 72
         1
  1
\T1.028;\W1.060;\A1;TRANSMISSIBLE TORQUE
  0
MTEXT
  5
E1
100
AcDbEntity
  8
PV
  6
CONTINUOUS
 62
       110
100
AcDbMText
 10
-92.0009566529
 20
-87.3899998498
 30
0.0
 40
3.2000000477
 41
0.0
 71
         1
 72
         1
  1
\T1.028;\W1.060;\A1;TRANSMISSIBLE THRUST
  0
MTEXT
  5
E2
100
AcDbEntity
  8
PV
  6
CONTINUOUS
 62
       110
100
AcDbMText
 10
78.2805831887
 20
-76.0309998498
 30
0.0
 40
3.2000000477
 41
0.0
 71
         1
 72
         1
  1
\W0.532;\A1;ｋｇｆ・ｍ
  0
MTEXT
  5
E3
100
AcDbEntity
  8
PV
  6
CONTINUOUS
 62
       110
100
AcDbMText
 10
78.5894165999
 20
-87.3999998498
 30
0.0
 40
3.2000000477
 41
0.0
 71
         1
 72
         1
  1
\W0.639;\A1;kgf
  0
MTEXT
  5
E4
100
AcDbEntity
  8
PV
  6
CONTINUOUS
 62
       110
100
AcDbMText
 10
78.6139167886
 20
-81.3999998498
 30
0.0
 40
3.2000000477
 41
0.0
 71
         1
 72
         1
  1
\W0.512;\A1;ｋｇｆ・ｍ
  0
MTEXT
  5
E5
100
AcDbEntity
  8
PV
  6
CONTINUOUS
 62
       110
100
AcDbMText
 10
-92.177333262
 20
-105.4540000882
 30
0.0
 40
3.2000000477
 41
0.0
 71
         1
 72
         1
  1
\A1;MASS
  0
MTEXT
  5
E6
100
AcDbEntity
  8
PV
  6
CONTINUOUS
 62
       110
100
AcDbMText
 10
-92.119023034
 20
-93.4539998498
 30
0.0
 40
3.2000000477
 41
0.0
 71
         1
 72
         1
  1
\T1.025;\W1.104;\A1;CONTACT PRESSURE OF SHAFT
  0
MTEXT
  5
E7
100
AcDbEntity
  8
PV
  6
CONTINUOUS
 62
       110
100
AcDbMText
 10
-92.1061064519
 20
-99.4539998498
 30
0.0
 40
3.2000000477
 41
0.0
 71
         1
 72
         1
  1
\T1.030;\W1.126;\A1;CONTACT PRESSURE OF HUB BORE
  0
MTEXT
  5
E8
100
AcDbEntity
  8
PV
  6
CONTINUOUS
 62
       110
100
AcDbMText
 10
78.3850818847
 20
-93.8089998498
 30
0.0
 40
3.2000000477
 41
0.0
 71
         1
 72
         1
  1
\W0.772;\A1;kgf/ mm
  0
MTEXT
  5
E9
100
AcDbEntity
  8
PV
  6
CONTINUOUS
 62
       110
100
AcDbMText
 10
91.2195833996
 20
-93.4089999232
 30
0.0
 40
1.6000000238
 41
0.0
 71
         1
 72
         1
  1
\W0.676;\A1;2
  0
MTEXT
  5
EA
100
AcDbEntity
  8
PV
  6
CONTINUOUS
 62
       110
100
AcDbMText
 10
78.3642354831
 20
-99.8089998498
 30
0.0
 40
3.2000000477
 41
0.0
 71
         1
 72
         1
  1
\W0.794;\A1;kgf/ mm
  0
MTEXT
  5
EB
100
AcDbEntity
  8
PV
  6
CONTINUOUS
 62
       110
100
AcDbMText
 10
91.5550833999
 20
-99.4089999232
 30
0.0
 40
1.6000000238
 41
0.0
 71
         1
 72
         1
  1
\W0.694;\A1;2
  0
MTEXT
  5
EC
100
AcDbEntity
  8
PV
  6
CONTINUOUS
 62
       110
100
AcDbMText
 10
-91.7353579173
 20
-75.5669998498
 30
0.0
 40
3.2000000477
 41
0.0
 71
         1
 72
         1
  1
\T1.041;\W1.120;\A1;TIGHTENING TORQUE OF LOCKING BOLTS
  0
MTEXT
  5
ED
100
AcDbEntity
  8
PV
  6
CONTINUOUS
 62
       110
100
AcDbMText
 10
66.6440476897
 20
-75.7460000882
 30
0.0
 40
3.2000000477
 41
0.0
 71
         1
 72
         1
  1
\W1.286;\A1;6.9
  0
MTEXT
  5
EE
100
AcDbEntity
  8
PV
  6
CONTINUOUS
 62
       110
100
AcDbMText
 10
66.491666738
 20
-81.7460000882
 30
0.0
 40
3.2000000477
 41
0.0
 71
         1
 72
         1
  1
\A1;987
  0
MTEXT
  5
EF
100
AcDbEntity
  8
PV
  6
CONTINUOUS
 62
       110
100
AcDbMText
 10
60.1509259982
 20
-87.7460000882
 30
0.0
 40
3.2000000477
 41
0.0
 71
         1
 72
         1
  1
\W1.111;\A1;17950
  0
MTEXT
  5
F0
100
AcDbEntity
  8
PV
  6
CONTINUOUS
 62
       110
100
AcDbMText
 10
63.4694445114
 20
-93.7460000882
 30
0.0
 40
3.2000000477
 41
0.0
 71
         1
 72
         1
  1
\W1.333;\A1;15.3
  0
MTEXT
  5
F1
100
AcDbEntity
  8
PV
  6
CONTINUOUS
 62
       110
100
AcDbMText
 10
63.4694445114
 20
-99.7460000882
 30
0.0
 40
3.2000000477
 41
0.0
 71
         1
 72
         1
  1
\W1.333;\A1;13.6
  0
MTEXT
  5
F2
100
AcDbEntity
  8
PV
  6
CONTINUOUS
 62
       110
100
AcDbMText
 10
56.3453943427
 20
-87.5679998498
 30
0.0
 40
3.2000000477
 41
0.0
 71
         1
 72
         1
  1
\T1.279;\W2.558;\A1;\{          \}
  0
MTEXT
  5
F3
100
AcDbEntity
  8
PV
  6
CONTINUOUS
 62
       110
100
AcDbMText
 10
56.3453943427
 20
-99.5679998498
 30
0.0
 40
3.2000000477
 41
0.0
 71
         1
 72
         1
  1
\T1.279;\W2.558;\A1;\{          \}
  0
MTEXT
  5
F4
100
AcDbEntity
  8
PV
  6
CONTINUOUS
 62
       110
100
AcDbMText
 10
56.3453943427
 20
-93.5679998498
 30
0.0
 40
3.2000000477
 41
0.0
 71
         1
 72
         1
  1
\T1.279;\W2.558;\A1;\{          \}
  0
MTEXT
  5
F5
100
AcDbEntity
  8
PV
  6
CONTINUOUS
 62
       110
100
AcDbMText
 10
56.3453943427
 20
-81.5679998498
 30
0.0
 40
3.2000000477
 41
0.0
 71
         1
 72
         1
  1
\T1.279;\W2.558;\A1;\{          \}
  0
MTEXT
  5
F6
100
AcDbEntity
  8
PV
  6
CONTINUOUS
 62
       110
100
AcDbMText
 10
56.3453943427
 20
-75.5679998498
 30
0.0
 40
3.2000000477
 41
0.0
 71
         1
 72
         1
  1
\T1.279;\W2.558;\A1;\{          \}
  0
MTEXT
  5
F7
100
AcDbEntity
  8
PV
  6
CONTINUOUS
 62
       110
100
AcDbMText
 10
41.9539166997
 20
-87.3999998498
 30
0.0
 40
3.2000000477
 41
0.0
 71
         1
 72
         1
  1
\W0.798;\A1;kN
  0
MTEXT
  5
F8
100
AcDbEntity
  8
PV
  6
CONTINUOUS
 62
       110
100
AcDbMText
 10
42.0275833874
 20
-81.3999998498
 30
0.0
 40
3.2000000477
 41
0.0
 71
         1
 72
         1
  1
\W0.605;\A1;Ｎ・ｍ
  0
MTEXT
  5
F9
100
AcDbEntity
  8
PV
  6
CONTINUOUS
 62
       110
100
AcDbMText
 10
42.0730833875
 20
-75.3999998498
 30
0.0
 40
3.2000000477
 41
0.0
 71
         1
 72
         1
  1
\W0.567;\A1;Ｎ・ｍ
  0
MTEXT
  5
FA
100
AcDbEntity
  8
PV
  6
CONTINUOUS
 62
       110
100
AcDbMText
 10
42.1106666003
 20
-93.3999998498
 30
0.0
 40
3.2000000477
 41
0.0
 71
         1
 72
         1
  1
\W0.644;\A1;MPa
  0
MTEXT
  5
FB
100
AcDbEntity
  8
PV
  6
CONTINUOUS
 62
       110
100
AcDbMText
 10
42.0342501004
 20
-99.3999998498
 30
0.0
 40
3.2000000477
 41
0.0
 71
         1
 72
         1
  1
\W0.719;\A1;MPa
  0
MTEXT
  5
FC
100
AcDbEntity
  8
PV
  6
CONTINUOUS
 62
       110
100
AcDbMText
 10
41.8901665003
 20
-105.3999998498
 30
0.0
 40
3.2000000477
 41
0.0
 71
         1
 72
         1
  1
\W0.861;\A1;kg
  0
MTEXT
  5
FD
100
AcDbEntity
  8
PV
  6
CONTINUOUS
 62
       110
100
AcDbMText
 10
26.2563334044
 20
-75.4000000882
 30
0.0
 40
3.2000000477
 41
0.0
 71
         1
 72
         1
  1
\W1.200;\A1;67.6
  0
MTEXT
  5
FE
100
AcDbEntity
  8
PV
  6
CONTINUOUS
 62
       110
100
AcDbMText
 10
26.172855147
 20
-81.4000000882
 30
0.0
 40
3.2000000477
 41
0.0
 71
         1
 72
         1
  1
\W1.043;\A1;9670
  0
MTEXT
  5
FF
100
AcDbEntity
  8
PV
  6
CONTINUOUS
 62
       110
100
AcDbMText
 10
29.4163334012
 20
-87.4000000882
 30
0.0
 40
3.2000000477
 41
0.0
 71
         1
 72
         1
  1
\W1.125;\A1;176
  0
MTEXT
  5
100
100
AcDbEntity
  8
PV
  6
CONTINUOUS
 62
       110
100
AcDbMText
 10
29.4563334063
 20
-93.4000000882
 30
0.0
 40
3.2000000477
 41
0.0
 71
         1
 72
         1
  1
\W1.200;\A1;150
  0
MTEXT
  5
101
100
AcDbEntity
  8
PV
  6
CONTINUOUS
 62
       110
100
AcDbMText
 10
29.4163334012
 20
-99.4000000882
 30
0.0
 40
3.2000000477
 41
0.0
 71
         1
 72
         1
  1
\W1.125;\A1;133
  0
MTEXT
  5
102
100
AcDbEntity
  8
PV
  6
CONTINUOUS
 62
       110
100
AcDbMText
 10
29.5020476897
 20
-105.4000000882
 30
0.0
 40
3.2000000477
 41
0.0
 71
         1
 72
         1
  1
\W1.286;\A1;3.3
  0
MTEXT
  5
103
100
AcDbEntity
  8
PV
  6
CONTINUOUS
 62
       110
100
AcDbMText
 10
-91.7168110764
 20
-69.5669998498
 30
0.0
 40
3.2000000477
 41
0.0
 71
         1
 72
         1
  1
\T1.047;\W1.149;\A1;QUANTITY AND SIZE OF LOCKING BOLTS
  0
MTEXT
  5
104
100
AcDbEntity
  8
PV
  6
CONTINUOUS
 62
       110
100
AcDbMText
 10
26.8129435727
 20
-63.4000000882
 30
0.0
 40
3.2000000477
 41
0.0
 71
         1
 72
         1
  1
\W1.119;\A1;PL110X124EF
  0
MTEXT
  5
105
100
AcDbEntity
  8
PV
  6
CONTINUOUS
 62
       110
100
AcDbMText
 10
-23.2147113088
 20
-57.6849998498
 30
0.0
 40
3.2000000477
 41
0.0
 71
         1
 72
         1
  1
\T1.003;\W1.067;\A1;POWER LOCK
  0
MTEXT
  5
106
100
AcDbEntity
  8
PV
  6
CONTINUOUS
 62
       110
100
AcDbMText
 10
-91.7924519285
 20
-63.5669998498
 30
0.0
 40
3.2000000477
 41
0.0
 71
         1
 72
         1
  1
\T1.017;\W1.071;\A1;MODEL NUMBER
  0
MTEXT
  5
107
100
AcDbEntity
  8
PV
  6
CONTINUOUS
 62
       110
100
AcDbMText
 10
26.8163334057
 20
-69.4000000882
 30
0.0
 40
3.2000000477
 41
0.0
 71
         1
 72
         1
  1
\W1.125;\A1;10-M10X45
  0
LINE
  5
108
100
AcDbEntity
  8
PV
  6
CONTINUOUS
 62
         3
100
AcDbLine
 10
-198.936
 20
269.2
 30
0.0
 11
-174.097
 21
269.2
 31
0.0
  0
LINE
  5
109
100
AcDbEntity
  8
PV
  6
CONTINUOUS
 62
         7
100
AcDbLine
 10
-175.195
 20
207.908
 30
0.0
 11
-198.936
 21
269.2
 31
0.0
  0
DIMENSION
  5
116
100
AcDbEntity
  8
PV
  6
CONTINUOUS
 62
       110
100
AcDbDimension
  2
*D2
 10
114.5
 20
54.9465438
 30
0.0
 11
116.7999999523
 21
54.9465438
 31
0.0
 70
       128
  1
\A1;<>
  3
MXDIMSTYLE
100
AcDbAlignedDimension
 13
118.5
 23
93.9999991528
 33
0.0
 14
114.5
 24
93.9999991528
 34
0.0
100
AcDbRotatedDimension
1001
ACAD
1000
DSTYLE
1002
{
1070
         6
1000
SOLID
1070
         7
1000
SOLID
1070
        41
1040
1.0000000298
1070
        42
1040
0.0625
1070
       271
1070
         4
1070
       284
1070
         8
1070
       343
1005
0
1070
       344
1005
0
1002
}
  0
DIMENSION
  5
125
100
AcDbEntity
  8
PV
  6
CONTINUOUS
 62
       110
100
AcDbDimension
  2
*D3
 10
118.5
 20
54.9465438
 30
0.0
 11
139.7999992371
 21
54.9465438
 31
0.0
 70
       128
  1
\A1;<>
  3
MXDIMSTYLE
100
AcDbAlignedDimension
 13
160.5
 23
97.9999991528
 33
0.0
 14
118.5
 24
97.9999991528
 34
0.0
100
AcDbRotatedDimension
1001
ACAD
1000
DSTYLE
1002
{
1070
         6
1000
SOLID
1070
         7
1000
SOLID
1070
        41
1040
1.0000000298
1070
        42
1040
0.0625
1070
       271
1070
         4
1070
       284
1070
         8
1070
       343
1005
0
1070
       344
1005
0
1002
}
  0
DIMENSION
  5
134
100
AcDbEntity
  8
PV
  6
CONTINUOUS
 62
       110
100
AcDbDimension
  2
*D4
 10
90.0
 20
48.1413023
 30
0.0
 11
100.3000001907
 21
48.1413023
 31
0.0
 70
       128
  1
\A1;<>
  3
MXDIMSTYLE
100
AcDbAlignedDimension
 13
110.0
 23
77.5000001912
 33
0.0
 14
90.0
 24
77.5000001912
 34
0.0
100
AcDbRotatedDimension
1001
ACAD
1000
DSTYLE
1002
{
1070
         6
1000
SOLID
1070
         7
1000
SOLID
1070
        41
1040
1.0000000298
1070
        42
1040
0.0625
1070
       271
1070
         4
1070
       284
1070
         8
1070
       343
1005
0
1070
       344
1005
0
1002
}
  0
DIMENSION
  5
144
100
AcDbEntity
  8
PV
  6
CONTINUOUS
 62
       110
100
AcDbDimension
  2
*D5
 10
110.0
 20
48.1413023
 30
0.0
 11
135.5499992371
 21
48.1413023
 31
0.0
 70
       128
  1
\A1;<>
  3
MXDIMSTYLE
100
AcDbAlignedDimension
 13
160.5
 23
97.9999982839
 33
0.0
 14
110.0
 24
77.5000001912
 34
0.0
100
AcDbRotatedDimension
1001
ACAD
1000
DSTYLE
1002
{
1070
         6
1000
SOLID
1070
         7
1000
SOLID
1070
        41
1040
1.0000000298
1070
        42
1040
0.0625
1070
       271
1070
         4
1070
       284
1070
         8
1070
       340
1005
13E
1070
       343
1005
0
1070
       344
1005
0
1002
}
  0
DIMENSION
  5
153
100
AcDbEntity
  8
PV
  6
CONTINUOUS
 62
       110
100
AcDbDimension
  2
*D6
 10
160.5
 20
256.620315
 30
0.0
 11
120.5499992371
 21
256.620315
 31
0.0
 70
       128
  1
\A1;<>
  3
MXDIMSTYLE
100
AcDbAlignedDimension
 13
80.0
 23
232.9999994482
 33
0.0
 14
160.5
 24
221.9999994482
 34
0.0
100
AcDbRotatedDimension
1001
ACAD
1000
DSTYLE
1002
{
1070
         6
1000
SOLID
1070
         7
1000
SOLID
1070
        41
1040
1.0000000298
1070
        42
1040
0.0625
1070
       271
1070
         4
1070
       284
1070
         8
1070
       340
1005
13E
1070
       343
1005
0
1070
       344
1005
0
1002
}
  0
DIMENSION
  5
163
100
AcDbEntity
  8
PV
  6
CONTINUOUS
 62
       110
100
AcDbDimension
  2
*D7
 10
190.154997
 20
105.0
 30
0.0
 11
190.154997
 21
160.2999992371
 31
0.0
 70
       128
  1
\A1;\U+2205<>
  3
MXDIMSTYLE
100
AcDbAlignedDimension
 13
160.5000001281
 23
215.0
 33
0.0
 14
160.5000001281
 24
105.0
 34
0.0
 50
90.0
100
AcDbRotatedDimension
1001
ACAD
1000
DSTYLE
1002
{
1070
         6
1000
SOLID
1070
         7
1000
SOLID
1070
        41
1040
1.0000000298
1070
        42
1040
0.0625
1070
       271
1070
         4
1070
       284
1070
         8
1070
       340
1005
15D
1070
       343
1005
0
1070
       344
1005
0
1002
}
  0
DIMENSION
  5
172
100
AcDbEntity
  8
PV
  6
CONTINUOUS
 62
       110
100
AcDbDimension
  2
*D8
 10
204.026399
 20
98.0
 30
0.0
 11
204.026399
 21
160.2999992371
 31
0.0
 70
       128
  1
\A1;\U+2205<>
  3
MXDIMSTYLE
100
AcDbAlignedDimension
 13
160.5000012949
 23
222.0
 33
0.0
 14
160.5000012949
 24
98.0
 34
0.0
 50
90.0
100
AcDbRotatedDimension
1001
ACAD
1000
DSTYLE
1002
{
1070
         6
1000
SOLID
1070
         7
1000
SOLID
1070
        41
1040
1.0000000298
1070
        42
1040
0.0625
1070
       271
1070
         4
1070
       284
1070
         8
1070
       343
1005
0
1070
       344
1005
0
1002
}
  0
DIMENSION
  5
181
100
AcDbEntity
  8
PV
  6
CONTINUOUS
 62
       110
100
AcDbDimension
  2
*D9
 10
217.897801
 20
93.9999991
 30
0.0
 11
217.897801
 21
160.3000030518
 31
0.0
 70
       128
  1
\A1;\U+2205<>
  3
MXDIMSTYLE
100
AcDbAlignedDimension
 13
118.4999967397
 23
226.0
 33
0.0
 14
118.4999967397
 24
93.9999991
 34
0.0
 50
90.0
100
AcDbRotatedDimension
1001
ACAD
1000
DSTYLE
1002
{
1070
         6
1000
SOLID
1070
         7
1000
SOLID
1070
        41
1040
1.0000000298
1070
        42
1040
0.0625
1070
       271
1070
         4
1070
       284
1070
         8
1070
       343
1005
0
1070
       344
1005
0
1002
}
  0
DIMENSION
  5
190
100
AcDbEntity
  8
PV
  6
CONTINUOUS
 62
       110
100
AcDbDimension
  2
*D10
 10
58.3766782
 20
233.0
 30
0.0
 11
58.3766782
 21
160.3000030518
 31
0.0
 70
       128
  1
\A1;\U+2205<>
  3
MXDIMSTYLE
100
AcDbAlignedDimension
 13
89.9999997332
 23
87.0
 33
0.0
 14
89.9999997332
 24
233.0
 34
0.0
 50
90.0
100
AcDbRotatedDimension
1001
ACAD
1000
DSTYLE
1002
{
1070
         6
1000
SOLID
1070
         7
1000
SOLID
1070
        41
1040
1.0000000298
1070
        42
1040
0.0625
1070
       271
1070
         4
1070
       284
1070
         8
1070
       343
1005
0
1070
       344
1005
0
1002
}
  0
DIMENSION
  5
19F
100
AcDbEntity
  8
PV
  6
CONTINUOUS
 62
       110
100
AcDbDimension
  2
*D11
 10
43.2813289
 20
242.5
 30
0.0
 11
43.2813289
 21
160.3000030518
 31
0.0
 70
       128
  1
\A1;\U+2205<>
  3
MXDIMSTYLE
100
AcDbAlignedDimension
 13
89.9999987914
 23
77.5
 33
0.0
 14
89.9999987914
 24
242.5
 34
0.0
 50
90.0
100
AcDbRotatedDimension
1001
ACAD
1000
DSTYLE
1002
{
1070
         6
1000
SOLID
1070
         7
1000
SOLID
1070
        41
1040
1.0000000298
1070
        42
1040
0.0625
1070
       271
1070
         4
1070
       284
1070
         8
1070
       343
1005
0
1070
       344
1005
0
1002
}
  0
ENDSEC
  0
SECTION
  2
OBJECTS
  0
DICTIONARY
  5
19
100
AcDbDictionary
  3
ACAD_GROUP
350
1A
  3
ACAD_MLINESTYLE
350
1B
  0
DICTIONARY
  5
1A
102
{ACAD_REACTORS
330
19
102
}
100
AcDbDictionary
  0
DICTIONARY
  5
1B
102
{ACAD_REACTORS
330
19
102
}
100
AcDbDictionary
  3
STANDARD
350
1C
  0
MLINESTYLE
  5
1C
102
{ACAD_REACTORS
330
1B
102
}
100
AcDbMlineStyle
  2
Standard
 70
         0
  3

 62
         0
 51
90.0
 52
90.0
 71
         2
 49
0.5
 62
       256
  6
ByLayer
 49
-0.5
 62
       256
  6
ByLayer
  0
ENDSEC
  0
EOF
