  0
SECTION
  2
HEADER
  9
$ACADVER
  1
AC1014
  9
$ACADMAINTVER
 70
         0
  9
$DWGCODEPAGE
  3
ANSI_932
  9
$INSBASE
 10
0.0
 20
0.0
 30
0.0
  9
$EXTMIN
 10
-121.6945
 20
-110.0
 30
0.0
  9
$EXTMAX
 10
241.8348159402
 20
251.6507895316
 30
0.0
  9
$LIMMIN
 10
-121.6945
 20
-110.0
  9
$LIMMAX
 10
241.8348159402
 20
251.6507895316
  9
$ORTHOMODE
 70
         0
  9
$REGENMODE
 70
         1
  9
$FILLMODE
 70
         1
  9
$QTEXTMODE
 70
         0
  9
$MIRRTEXT
 70
         1
  9
$DRAGMODE
 70
         2
  9
$LTSCALE
 40
1.0
  9
$OSMODE
 70
         0
  9
$ATTMODE
 70
         1
  9
$TEXTSIZE
 40
3.2000000477
  9
$TRACEWID
 40
0.05
  9
$TEXTSTYLE
  7
MX_NOTE_STANDARD
  9
$CLAYER
  8
0
  9
$CELTYPE
  6
CONTINUOUS
  9
$CECOLOR
 62
       256
  9
$CELTSCALE
 40
1.0
  9
$DELOBJ
 70
         1
  9
$DISPSILH
 70
         0
  9
$DIMSCALE
 40
1.0
  9
$DIMASZ
 40
2.5
  9
$DIMEXO
 40
0.0
  9
$DIMDLI
 40
3.75
  9
$DIMRND
 40
0.0
  9
$DIMDLE
 40
0.0
  9
$DIMEXE
 40
2.5
  9
$DIMTP
 40
0.0
  9
$DIMTM
 40
0.0
  9
$DIMTXT
 40
3.2000000477
  9
$DIMCEN
 40
2.5
  9
$DIMTSZ
 40
0.0
  9
$DIMTOL
 70
         0
  9
$DIMLIM
 70
         0
  9
$DIMTIH
 70
         0
  9
$DIMTOH
 70
         0
  9
$DIMSE1
 70
         0
  9
$DIMSE2
 70
         0
  9
$DIMTAD
 70
         1
  9
$DIMZIN
 70
         8
  9
$DIMBLK
  1

  9
$DIMASO
 70
         1
  9
$DIMSHO
 70
         1
  9
$DIMPOST
  1

  9
$DIMAPOST
  1

  9
$DIMALT
 70
         0
  9
$DIMALTD
 70
         4
  9
$DIMALTF
 40
0.0393700787
  9
$DIMLFAC
 40
1.0
  9
$DIMTOFL
 70
         1
  9
$DIMTVP
 40
0.0
  9
$DIMTIX
 70
         0
  9
$DIMSOXD
 70
         0
  9
$DIMSAH
 70
         1
  9
$DIMBLK1
  1
_OPEN30
  9
$DIMBLK2
  1
_OPEN30
  9
$DIMSTYLE
  2
MXDIMSTYLE
  9
$DIMCLRD
 70
         0
  9
$DIMCLRE
 70
         0
  9
$DIMCLRT
 70
         0
  9
$DIMTFAC
 40
1.0
  9
$DIMGAP
 40
1.0
  9
$DIMJUST
 70
         0
  9
$DIMSD1
 70
         0
  9
$DIMSD2
 70
         0
  9
$DIMTOLJ
 70
         0
  9
$DIMTZIN
 70
         0
  9
$DIMALTZ
 70
         0
  9
$DIMALTTZ
 70
         0
  9
$DIMFIT
 70
         3
  9
$DIMUPT
 70
         0
  9
$DIMUNIT
 70
         2
  9
$DIMDEC
 70
         2
  9
$DIMTDEC
 70
         2
  9
$DIMALTU
 70
         2
  9
$DIMALTTD
 70
         4
  9
$DIMTXSTY
  7
MX_NOTE_STANDARD
  9
$DIMAUNIT
 70
         0
  9
$LUNITS
 70
         2
  9
$LUPREC
 70
         4
  9
$SKETCHINC
 40
0.1
  9
$FILLETRAD
 40
0.0
  9
$AUNITS
 70
         0
  9
$AUPREC
 70
         0
  9
$MENU
  1
acad
  9
$ELEVATION
 40
0.0
  9
$PELEVATION
 40
0.0
  9
$THICKNESS
 40
0.0
  9
$LIMCHECK
 70
         0
  9
$BLIPMODE
 70
         1
  9
$CHAMFERA
 40
0.0
  9
$CHAMFERB
 40
0.0
  9
$CHAMFERC
 40
0.0
  9
$CHAMFERD
 40
0.0
  9
$SKPOLY
 70
         0
  9
$TDCREATE
 40
2456603.419282408
  9
$TDUPDATE
 40
2456603.419282408
  9
$TDINDWG
 40
0.0000000000
  9
$TDUSRTIMER
 40
0.0000000000
  9
$USRTIMER
 70
         1
  9
$ANGBASE
 50
0.0
  9
$ANGDIR
 70
         0
  9
$PDMODE
 70
         0
  9
$PDSIZE
 40
0.0
  9
$PLINEWID
 40
0.0
  9
$COORDS
 70
         1
  9
$SPLFRAME
 70
         0
  9
$SPLINETYPE
 70
         6
  9
$SPLINESEGS
 70
         8
  9
$ATTDIA
 70
         0
  9
$ATTREQ
 70
         1
  9
$HANDLING
 70
         1
  9
$HANDSEED
  5
1B8
  9
$SURFTAB1
 70
         6
  9
$SURFTAB2
 70
         6
  9
$SURFTYPE
 70
         6
  9
$SURFU
 70
         6
  9
$SURFV
 70
         6
  9
$UCSNAME
  2

  9
$UCSORG
 10
0.0
 20
0.0
 30
0.0
  9
$UCSXDIR
 10
1.0
 20
0.0
 30
0.0
  9
$UCSYDIR
 10
0.0
 20
1.0
 30
0.0
  9
$PUCSNAME
  2

  9
$PUCSORG
 10
0.0
 20
0.0
 30
0.0
  9
$PUCSXDIR
 10
1.0
 20
0.0
 30
0.0
  9
$PUCSYDIR
 10
0.0
 20
1.0
 30
0.0
  9
$USERI1
 70
         0
  9
$USERI2
 70
         0
  9
$USERI3
 70
         0
  9
$USERI4
 70
         0
  9
$USERI5
 70
         0
  9
$USERR1
 40
0.0
  9
$USERR2
 40
0.0
  9
$USERR3
 40
0.0
  9
$USERR4
 40
0.0
  9
$USERR5
 40
0.0
  9
$WORLDVIEW
 70
         1
  9
$SHADEDGE
 70
         3
  9
$SHADEDIF
 70
        70
  9
$TILEMODE
 70
         1
  9
$MAXACTVP
 70
        16
  9
$PINSBASE
 10
0.0
 20
0.0
 30
0.0
  9
$PLIMCHECK
 70
         0
  9
$PEXTMIN
 10
1.0000000000E+20
 20
1.0000000000E+20
 30
1.0000000000E+20
  9
$PEXTMAX
 10
-1.0000000000E+20
 20
-1.0000000000E+20
 30
-1.0000000000E+20
  9
$PLIMMIN
 10
0.0
 20
0.0
  9
$PLIMMAX
 10
12.0
 20
9.0
  9
$UNITMODE
 70
         0
  9
$VISRETAIN
 70
         0
  9
$PLINEGEN
 70
         1
  9
$PSLTSCALE
 70
         0
  9
$TREEDEPTH
 70
      3020
  9
$PICKSTYLE
 70
         1
  9
$CMLSTYLE
  2
Standard
  9
$CMLJUST
 70
         0
  9
$CMLSCALE
 40
1.0
  9
$PROXYGRAPHICS
 70
         0
  9
$MEASUREMENT
 70
         1
  0
ENDSEC
  0
SECTION
  2
CLASSES
  0
CLASS
  1
LWPOLYLINE
  2
AcDbPolyline
  3
"AutoCAD"
 90
        0
280
         0
281
         1
  0
CLASS
  1
IMAGE
  2
AcDbRasterImage
  3
ISM
 90
      127
280
         0
281
         1
  0
CLASS
  1
OLE2FRAME
  2
AcDbOle2Frame
  3
""
 90
        0
280
         0
281
         1
  0
CLASS
  1
HATCH
  2
AcDbHatch
  3
"ACAD_SEDONA"
 90
        0
280
         0
281
         1
  0
CLASS
  1
DICTIONARYVAR
  2
AcDbDictionaryVar
  3
"AutoCAD"
 90
        0
280
         0
281
         0
  0
CLASS
  1
RASTERVARIABLES
  2
AcDbRasterVariables
  3
ISM
 90
        0
280
         0
281
         0
  0
CLASS
  1
IMAGEDEF
  2
AcDbRasterImageDef
  3
ISM
 90
        0
280
         0
281
         0
  0
CLASS
  1
IMAGEDEF_REACTOR
  2
AcDbRasterImageDefReactor
  3
ISM
 90
        1
280
         0
281
         0
  0
CLASS
  1
IDBUFFER
  2
AcDbIdBuffer
  3
"Acad"
 90
        0
280
         0
281
         0
  0
CLASS
  1
SPATIAL_FILTER
  2
AcDbSpatialFilter
  3
"Acad"
 90
        0
280
         0
281
         0
  0
CLASS
  1
XRECORD
  2
AcDbXrecord
  3
"<Built In>"
 90
        0
280
         0
281
         0
  0
CLASS
  1
SORTENTSTABLE
  2
AcDbSortentsTable
  3
"AutoCAD"
 90
        0
280
         0
281
         0
  0
CLASS
  1
LAYER_INDEX
  2
AcDbLayerIndex
  3
"Acad"
 90
        0
280
         0
281
         0
  0
CLASS
  1
SPATIAL_INDEX
  2
AcDbSpatialIndex
  3
"Acad"
 90
        0
280
         0
281
         0
  0
CLASS
  1
OBJECT_PTR
  2
CAseDLPNTableRecord
  3
"ASE-LPNTableRecord"
 90
        1
280
         0
281
         0
  0
CLASS
  1
LAYOUT
  2
AcDbLayout
  3
"AutoCAD 2000"
 90
        0
280
         0
281
         0
  0
CLASS
  1
PLOTSETTINGS
  2
AcDbPlotSettings
  3
"AutoCAD 2000"
 90
        0
280
         0
281
         0
  0
CLASS
  1
ACDBDICTIONARYWDFLT
  2
AcDbDictionaryWithDefault
  3
"AutoCAD 2000"
 90
        0
280
         0
281
         0
  0
CLASS
  1
ACDBPLACEHOLDER
  2
AcDbPlaceHolder
  3
"AutoCAD 2000"
 90
        0
280
         0
281
         0
  0
ENDSEC
  0
SECTION
  2
TABLES
  0
TABLE
  2
VPORT
  5
7
100
AcDbSymbolTable
 70
         1
  0
VPORT
  5
15
100
AcDbSymbolTableRecord
100
AcDbViewportTableRecord
  2
*ACTIVE
 70
         0
 10
0.0
 20
0.0
 11
1.0
 21
1.0
 12
60.0701579701
 22
70.8253947658
 13
0.0
 23
0.0
 14
1.0
 24
1.0
 15
0.0
 25
0.0
 16
0.0
 26
0.0
 36
1.0
 17
0.0
 27
0.0
 37
0.0
 40
365.2672974269
 41
1.7320508076
 42
50.0
 43
0.0
 44
0.0
 50
0.0
 51
0.0
 71
         0
 72
       100
 73
         1
 74
         1
 75
         0
 76
         0
 77
         0
 78
         0
  0
ENDTAB
  0
TABLE
  2
LTYPE
  5
4
100
AcDbSymbolTable
 70
         4
  0
LTYPE
  5
11
100
AcDbSymbolTableRecord
100
AcDbLinetypeTableRecord
  2
BYBLOCK
 70
        64
  3

 72
        65
 73
         0
 40
0.0
  0
LTYPE
  5
12
100
AcDbSymbolTableRecord
100
AcDbLinetypeTableRecord
  2
BYLAYER
 70
        64
  3

 72
        65
 73
         0
 40
0.0
  0
LTYPE
  5
13
100
AcDbSymbolTableRecord
100
AcDbLinetypeTableRecord
  2
CONTINUOUS
 70
        64
  3
Solid line
 72
        65
 73
         0
 40
0.0
  0
LTYPE
  5
11A
100
AcDbSymbolTableRecord
100
AcDbLinetypeTableRecord
  2
CENTER
 70
        64
  3
Center ____ _ ____ _ ____ _ ____ _ ____ _ ____
 72
        65
 73
         4
 40
50.8
 49
31.75
 74
         0
 49
-6.35
 74
         0
 49
6.35
 74
         0
 49
-6.35
 74
         0
  0
ENDTAB
  0
TABLE
  2
LAYER
  5
2
100
AcDbSymbolTable
 70
         3
  0
LAYER
  5
14
100
AcDbSymbolTableRecord
100
AcDbLayerTableRecord
  2
0
 70
         0
 62
         7
  6
CONTINUOUS
  0
LAYER
  5
1D
100
AcDbSymbolTableRecord
100
AcDbLayerTableRecord
  2
PV
 70
         0
 62
         3
  6
CONTINUOUS
  0
LAYER
  5
1E
100
AcDbSymbolTableRecord
100
AcDbLayerTableRecord
  2
DEFPOINTS
 70
         0
 62
         7
  6
CONTINUOUS
  0
ENDTAB
  0
TABLE
  2
STYLE
  5
3
100
AcDbSymbolTable
 70
         4
  0
STYLE
  5
17
100
AcDbSymbolTableRecord
100
AcDbTextStyleTableRecord
  2
MX_NOTE_STANDARD
 70
         0
 40
0.0
 41
1.0
 50
0.0
 71
         0
 42
3.2000000477
  3
txt.shx
  4
extfont.shx
  0
STYLE
  5
4C
100
AcDbSymbolTableRecord
100
AcDbTextStyleTableRecord
  2
MX_DIMTXSTY_2
 70
         0
 40
0.0
 41
1.1
 50
0.0
 71
         0
 42
3.2000000477
  3
txt.shx
  4
extfont.shx
  0
STYLE
  5
A3
100
AcDbSymbolTableRecord
100
AcDbTextStyleTableRecord
  2
MX_DIMTXSTY_3
 70
         0
 40
0.0
 41
1.05
 50
0.0
 71
         0
 42
3.2000000477
  3
txt.shx
  4
extfont.shx
  0
STYLE
  5
C2
100
AcDbSymbolTableRecord
100
AcDbTextStyleTableRecord
  2
MX_DIMTXSTY_4
 70
         0
 40
0.0
 41
1.15
 50
0.0
 71
         0
 42
3.2000000477
  3
txt.shx
  4
extfont.shx
  0
ENDTAB
  0
TABLE
  2
VIEW
  5
5
100
AcDbSymbolTable
 70
         0
  0
ENDTAB
  0
TABLE
  2
UCS
  5
6
100
AcDbSymbolTable
 70
         0
  0
ENDTAB
  0
TABLE
  2
APPID
  5
8
100
AcDbSymbolTable
 70
         1
  0
APPID
  5
16
100
AcDbSymbolTableRecord
100
AcDbRegAppTableRecord
  2
ACAD
 70
         0
  0
ENDTAB
  0
TABLE
  2
DIMSTYLE
  5
9
100
AcDbSymbolTable
 70
         1
  0
DIMSTYLE
105
18
100
AcDbSymbolTableRecord
100
AcDbDimStyleTableRecord
  2
MXDIMSTYLE
 70
         0
  3

  4

  5

  6
_OPEN30
  7
_OPEN30
 40
1.0
 41
2.5
 42
0.0
 43
3.75
 44
2.5
 45
0.0
 46
0.0
 47
0.0
 48
0.0
 71
         0
 72
         0
 73
         0
 74
         0
 75
         0
 76
         0
 77
         1
 78
         8
140
3.2000000477
141
2.5
142
0.0
143
0.0393700787
144
1.0
145
0.0
146
1.0
147
1.0
170
         0
171
         4
172
         1
173
         1
174
         0
175
         0
176
         0
177
         0
178
         0
270
         2
271
         2
272
         2
273
         2
274
         4
275
         0
280
         0
281
         0
282
         0
283
         0
284
         0
285
         0
286
         0
287
         3
288
         0
340
17
  0
ENDTAB
  0
TABLE
  2
BLOCK_RECORD
  5
1
100
AcDbSymbolTable
 70
        12
  0
BLOCK_RECORD
  5
A
100
AcDbSymbolTableRecord
100
AcDbBlockTableRecord
  2
*MODEL_SPACE
  0
BLOCK_RECORD
  5
B
100
AcDbSymbolTableRecord
100
AcDbBlockTableRecord
  2
*PAPER_SPACE
  0
BLOCK_RECORD
  5
1F
100
AcDbSymbolTableRecord
100
AcDbBlockTableRecord
  2
ARROW
  0
BLOCK_RECORD
  5
20
100
AcDbSymbolTableRecord
100
AcDbBlockTableRecord
  2
_OPEN30
  0
BLOCK_RECORD
  5
43
100
AcDbSymbolTableRecord
100
AcDbBlockTableRecord
  2
*D2
  0
BLOCK_RECORD
  5
53
100
AcDbSymbolTableRecord
100
AcDbBlockTableRecord
  2
*D3
  0
BLOCK_RECORD
  5
62
100
AcDbSymbolTableRecord
100
AcDbBlockTableRecord
  2
*D4
  0
BLOCK_RECORD
  5
6F
100
AcDbSymbolTableRecord
100
AcDbBlockTableRecord
  2
*D5
  0
BLOCK_RECORD
  5
7E
100
AcDbSymbolTableRecord
100
AcDbBlockTableRecord
  2
*D6
  0
BLOCK_RECORD
  5
8B
100
AcDbSymbolTableRecord
100
AcDbBlockTableRecord
  2
*D7
  0
BLOCK_RECORD
  5
9A
100
AcDbSymbolTableRecord
100
AcDbBlockTableRecord
  2
*D8
  0
BLOCK_RECORD
  5
AA
100
AcDbSymbolTableRecord
100
AcDbBlockTableRecord
  2
*D9
  0
BLOCK_RECORD
  5
B9
100
AcDbSymbolTableRecord
100
AcDbBlockTableRecord
  2
*D10
  0
BLOCK_RECORD
  5
C9
100
AcDbSymbolTableRecord
100
AcDbBlockTableRecord
  2
*D11
  0
ENDTAB
  0
ENDSEC
  0
SECTION
  2
BLOCKS
  0
BLOCK
  5
D
100
AcDbEntity
  8
0
100
AcDbBlockBegin
  2
*MODEL_SPACE
 70
         0
 10
0.0
 20
0.0
 30
0.0
  3
*MODEL_SPACE
  1

  0
ENDBLK
  5
E
100
AcDbEntity
  8
0
100
AcDbBlockEnd
  0
BLOCK
  5
F
100
AcDbEntity
 67
         1
  8
0
100
AcDbBlockBegin
  2
*PAPER_SPACE
 70
         0
 10
0.0
 20
0.0
 30
0.0
  3
*PAPER_SPACE
  1

  0
ENDBLK
  5
10
100
AcDbEntity
 67
         1
  8
0
100
AcDbBlockEnd
  0
BLOCK
  5
26
100
AcDbEntity
  8
0
100
AcDbBlockBegin
  2
ARROW
 70
         0
 10
0.0
 20
0.0
 30
0.0
  3
ARROW
  1

  0
LWPOLYLINE
  5
27
100
AcDbEntity
  8
0
  6
CONTINUOUS
 62
       193
100
AcDbPolyline
 90
        3
 70
         0
 10
3.53823925
 20
0.94806835
 10
0.0
 20
0.0
 10
3.53823925
 20
-0.94806835
  0
ENDBLK
  5
28
100
AcDbEntity
  8
0
100
AcDbBlockEnd
  0
BLOCK
  5
21
100
AcDbEntity
  8
0
  6
ByBlock
 62
         0
100
AcDbBlockBegin
  2
_OPEN30
 70
         2
 10
0.0
 20
0.0
 30
0.0
  3
_OPEN30
  1

  0
LINE
  5
22
100
AcDbEntity
  8
0
  6
ByBlock
 62
         0
100
AcDbLine
 10
-1.0
 20
0.267949
 30
0.0
 11
0.0
 21
0.0
 31
0.0
  0
LINE
  5
23
100
AcDbEntity
  8
0
  6
ByBlock
 62
         0
100
AcDbLine
 10
0.0
 20
0.0
 30
0.0
 11
-1.0
 21
-0.267949
 31
0.0
  0
LINE
  5
24
100
AcDbEntity
  8
0
  6
ByBlock
 62
         0
100
AcDbLine
 10
0.0
 20
0.0
 30
0.0
 11
-1.0
 21
0.0
 31
0.0
  0
ENDBLK
  5
25
100
AcDbEntity
  8
0
  6
ByBlock
 62
         0
100
AcDbBlockEnd
  0
BLOCK
  5
44
100
AcDbEntity
  8
0
  6
ByBlock
 62
         0
100
AcDbBlockBegin
  2
*D2
 70
         1
 10
0.0
 20
0.0
 30
0.0
  3
*D2
  1

  0
LINE
  5
45
100
AcDbEntity
  8
0
  6
CONTINUOUS
 62
       110
100
AcDbLine
 10
100.730526
 20
246.384123
 30
0.0
 11
160.730523
 21
246.384123
 31
0.0
  0
LINE
  5
46
100
AcDbEntity
  8
0
  6
CONTINUOUS
 62
       110
100
AcDbLine
 10
100.730526
 20
171.1715375508
 30
0.0
 11
100.730526
 21
248.384123
 31
0.0
  0
LINE
  5
47
100
AcDbEntity
  8
0
  6
CONTINUOUS
 62
       110
100
AcDbLine
 10
160.730523
 20
175.4605390156
 30
0.0
 11
160.730523
 21
248.384123
 31
0.0
  0
LINE
  5
48
100
AcDbEntity
  8
0
  6
CONTINUOUS
 62
       110
100
AcDbLine
 10
100.730526
 20
246.384123
 30
0.0
 11
96.730526
 21
246.384123
 31
0.0
  0
LINE
  5
49
100
AcDbEntity
  8
0
  6
CONTINUOUS
 62
       110
100
AcDbLine
 10
160.730523
 20
246.384123
 30
0.0
 11
164.730523
 21
246.384123
 31
0.0
  0
SOLID
  5
4A
100
AcDbEntity
  8
0
  6
CONTINUOUS
 62
       110
100
AcDbTrace
 10
99.7305259702
 20
246.550790005
 30
0.0
 11
99.7305259702
 21
246.217455995
 31
0.0
 12
100.730526
 22
246.384123
 32
0.0
 13
100.730526
 23
246.384123
 33
0.0
  0
SOLID
  5
4B
100
AcDbEntity
  8
0
  6
CONTINUOUS
 62
       110
100
AcDbTrace
 10
161.7305230298
 20
246.217455995
 30
0.0
 11
161.7305230298
 21
246.550790005
 31
0.0
 12
160.730523
 22
246.384123
 32
0.0
 13
160.730523
 23
246.384123
 33
0.0
  0
MTEXT
  5
4D
100
AcDbEntity
  8
0
  6
CONTINUOUS
 62
       110
100
AcDbMText
 10
130.7555237112
 20
248.9841230238
 30
0.0
 40
3.2000000477
 41
0.0
 71
         5
 72
         1
  1
\A1;60
  7
MX_DIMTXSTY_2
  0
POINT
  5
4E
100
AcDbEntity
  8
DEFPOINTS
  6
CONTINUOUS
 62
         0
100
AcDbPoint
 10
100.730526
 20
171.1090375508
 30
0.0
  0
POINT
  5
4F
100
AcDbEntity
  8
DEFPOINTS
  6
CONTINUOUS
 62
         0
100
AcDbPoint
 10
160.730523
 20
175.3980390156
 30
0.0
  0
POINT
  5
50
100
AcDbEntity
  8
DEFPOINTS
  6
CONTINUOUS
 62
         0
100
AcDbPoint
 10
160.730523
 20
246.384123
 30
0.0
  0
ENDBLK
  5
51
100
AcDbEntity
  8
0
  6
ByBlock
 62
         0
100
AcDbBlockEnd
  0
BLOCK
  5
54
100
AcDbEntity
  8
0
  6
ByBlock
 62
         0
100
AcDbBlockBegin
  2
*D3
 70
         1
 10
0.0
 20
0.0
 30
0.0
  3
*D3
  1

  0
LINE
  5
55
100
AcDbEntity
  8
0
  6
CONTINUOUS
 62
       110
100
AcDbLine
 10
110.730526
 20
229.81069
 30
0.0
 11
160.730523
 21
229.81069
 31
0.0
  0
LINE
  5
56
100
AcDbEntity
  8
0
  6
CONTINUOUS
 62
       110
100
AcDbLine
 10
110.730526
 20
180.4605351233
 30
0.0
 11
110.730526
 21
231.81069
 31
0.0
  0
LINE
  5
57
100
AcDbEntity
  8
0
  6
CONTINUOUS
 62
       110
100
AcDbLine
 10
160.730523
 20
175.4605351233
 30
0.0
 11
160.730523
 21
231.81069
 31
0.0
  0
LINE
  5
58
100
AcDbEntity
  8
0
  6
CONTINUOUS
 62
       110
100
AcDbLine
 10
110.730526
 20
229.81069
 30
0.0
 11
106.730526
 21
229.81069
 31
0.0
  0
LINE
  5
59
100
AcDbEntity
  8
0
  6
CONTINUOUS
 62
       110
100
AcDbLine
 10
160.730523
 20
229.81069
 30
0.0
 11
164.730523
 21
229.81069
 31
0.0
  0
SOLID
  5
5A
100
AcDbEntity
  8
0
  6
CONTINUOUS
 62
       110
100
AcDbTrace
 10
109.7305259702
 20
229.977357005
 30
0.0
 11
109.7305259702
 21
229.644022995
 31
0.0
 12
110.730526
 22
229.81069
 32
0.0
 13
110.730526
 23
229.81069
 33
0.0
  0
SOLID
  5
5B
100
AcDbEntity
  8
0
  6
CONTINUOUS
 62
       110
100
AcDbTrace
 10
161.7305230298
 20
229.644022995
 30
0.0
 11
161.7305230298
 21
229.977357005
 31
0.0
 12
160.730523
 22
229.81069
 32
0.0
 13
160.730523
 23
229.81069
 33
0.0
  0
MTEXT
  5
5C
100
AcDbEntity
  8
0
  6
CONTINUOUS
 62
       110
100
AcDbMText
 10
135.7555237112
 20
232.4106900238
 30
0.0
 40
3.2000000477
 41
0.0
 71
         5
 72
         1
  1
\A1;50
  7
MX_DIMTXSTY_2
  0
POINT
  5
5D
100
AcDbEntity
  8
DEFPOINTS
  6
CONTINUOUS
 62
         0
100
AcDbPoint
 10
110.730526
 20
180.3980351233
 30
0.0
  0
POINT
  5
5E
100
AcDbEntity
  8
DEFPOINTS
  6
CONTINUOUS
 62
         0
100
AcDbPoint
 10
160.730523
 20
175.3980351233
 30
0.0
  0
POINT
  5
5F
100
AcDbEntity
  8
DEFPOINTS
  6
CONTINUOUS
 62
         0
100
AcDbPoint
 10
160.730523
 20
229.81069
 30
0.0
  0
ENDBLK
  5
60
100
AcDbEntity
  8
0
  6
ByBlock
 62
         0
100
AcDbBlockEnd
  0
BLOCK
  5
63
100
AcDbEntity
  8
0
  6
ByBlock
 62
         0
100
AcDbBlockBegin
  2
*D4
 70
         1
 10
0.0
 20
0.0
 30
0.0
  3
*D4
  1

  0
LINE
  5
64
100
AcDbEntity
  8
0
  6
CONTINUOUS
 62
       110
100
AcDbLine
 10
110.730526
 20
215.341821
 30
0.0
 11
116.730526
 21
215.341821
 31
0.0
  0
LINE
  5
65
100
AcDbEntity
  8
0
  6
CONTINUOUS
 62
       110
100
AcDbLine
 10
110.730526
 20
180.4605381936
 30
0.0
 11
110.730526
 21
217.341821
 31
0.0
  0
LINE
  5
66
100
AcDbEntity
  8
0
  6
CONTINUOUS
 62
       110
100
AcDbLine
 10
116.730526
 20
180.4605381936
 30
0.0
 11
116.730526
 21
217.341821
 31
0.0
  0
SOLID
  5
67
100
AcDbEntity
  8
0
  6
CONTINUOUS
 62
       110
100
AcDbTrace
 10
111.7305260298
 20
215.175153995
 30
0.0
 11
111.7305260298
 21
215.508488005
 31
0.0
 12
110.730526
 22
215.341821
 32
0.0
 13
110.730526
 23
215.341821
 33
0.0
  0
SOLID
  5
68
100
AcDbEntity
  8
0
  6
CONTINUOUS
 62
       110
100
AcDbTrace
 10
115.7305259702
 20
215.508488005
 30
0.0
 11
115.7305259702
 21
215.175153995
 31
0.0
 12
116.730526
 22
215.341821
 32
0.0
 13
116.730526
 23
215.341821
 33
0.0
  0
MTEXT
  5
69
100
AcDbEntity
  8
0
  6
CONTINUOUS
 62
       110
100
AcDbMText
 10
113.7555260954
 20
217.9418210238
 30
0.0
 40
3.2000000477
 41
0.0
 71
         5
 72
         1
  1
\A1;6
  0
POINT
  5
6A
100
AcDbEntity
  8
DEFPOINTS
  6
CONTINUOUS
 62
         0
100
AcDbPoint
 10
110.730526
 20
180.3980381936
 30
0.0
  0
POINT
  5
6B
100
AcDbEntity
  8
DEFPOINTS
  6
CONTINUOUS
 62
         0
100
AcDbPoint
 10
116.730526
 20
180.3980381936
 30
0.0
  0
POINT
  5
6C
100
AcDbEntity
  8
DEFPOINTS
  6
CONTINUOUS
 62
         0
100
AcDbPoint
 10
116.730526
 20
215.341821
 30
0.0
  0
ENDBLK
  5
6D
100
AcDbEntity
  8
0
  6
ByBlock
 62
         0
100
AcDbBlockEnd
  0
BLOCK
  5
70
100
AcDbEntity
  8
0
  6
ByBlock
 62
         0
100
AcDbBlockBegin
  2
*D5
 70
         1
 10
0.0
 20
0.0
 30
0.0
  3
*D5
  1

  0
LINE
  5
71
100
AcDbEntity
  8
0
  6
CONTINUOUS
 62
       110
100
AcDbLine
 10
116.730526
 20
215.341821
 30
0.0
 11
160.730523
 21
215.341821
 31
0.0
  0
LINE
  5
72
100
AcDbEntity
  8
0
  6
CONTINUOUS
 62
       110
100
AcDbLine
 10
116.730526
 20
180.4605381936
 30
0.0
 11
116.730526
 21
217.341821
 31
0.0
  0
LINE
  5
73
100
AcDbEntity
  8
0
  6
CONTINUOUS
 62
       110
100
AcDbLine
 10
160.730523
 20
175.4605381936
 30
0.0
 11
160.730523
 21
217.341821
 31
0.0
  0
LINE
  5
74
100
AcDbEntity
  8
0
  6
CONTINUOUS
 62
       110
100
AcDbLine
 10
116.730526
 20
215.341821
 30
0.0
 11
112.730526
 21
215.341821
 31
0.0
  0
LINE
  5
75
100
AcDbEntity
  8
0
  6
CONTINUOUS
 62
       110
100
AcDbLine
 10
160.730523
 20
215.341821
 30
0.0
 11
164.730523
 21
215.341821
 31
0.0
  0
SOLID
  5
76
100
AcDbEntity
  8
0
  6
CONTINUOUS
 62
       110
100
AcDbTrace
 10
115.7305259702
 20
215.508488005
 30
0.0
 11
115.7305259702
 21
215.175153995
 31
0.0
 12
116.730526
 22
215.341821
 32
0.0
 13
116.730526
 23
215.341821
 33
0.0
  0
SOLID
  5
77
100
AcDbEntity
  8
0
  6
CONTINUOUS
 62
       110
100
AcDbTrace
 10
161.7305230298
 20
215.175153995
 30
0.0
 11
161.7305230298
 21
215.508488005
 31
0.0
 12
160.730523
 22
215.341821
 32
0.0
 13
160.730523
 23
215.341821
 33
0.0
  0
MTEXT
  5
78
100
AcDbEntity
  8
0
  6
CONTINUOUS
 62
       110
100
AcDbMText
 10
138.7555237112
 20
217.9418210238
 30
0.0
 40
3.2000000477
 41
0.0
 71
         5
 72
         1
  1
\A1;44
  0
POINT
  5
79
100
AcDbEntity
  8
DEFPOINTS
  6
CONTINUOUS
 62
         0
100
AcDbPoint
 10
116.730526
 20
180.3980381936
 30
0.0
  0
POINT
  5
7A
100
AcDbEntity
  8
DEFPOINTS
  6
CONTINUOUS
 62
         0
100
AcDbPoint
 10
160.730523
 20
175.3980381936
 30
0.0
  0
POINT
  5
7B
100
AcDbEntity
  8
DEFPOINTS
  6
CONTINUOUS
 62
         0
100
AcDbPoint
 10
160.730523
 20
215.341821
 30
0.0
  0
ENDBLK
  5
7C
100
AcDbEntity
  8
0
  6
ByBlock
 62
         0
100
AcDbBlockEnd
  0
BLOCK
  5
7F
100
AcDbEntity
  8
0
  6
ByBlock
 62
         0
100
AcDbBlockBegin
  2
*D6
 70
         1
 10
0.0
 20
0.0
 30
0.0
  3
*D6
  1

  0
LINE
  5
80
100
AcDbEntity
  8
0
  6
CONTINUOUS
 62
       110
100
AcDbLine
 10
116.730526
 20
202.977514
 30
0.0
 11
120.730525
 21
202.977514
 31
0.0
  0
LINE
  5
81
100
AcDbEntity
  8
0
  6
CONTINUOUS
 62
       110
100
AcDbLine
 10
116.730526
 20
180.4605366898
 30
0.0
 11
116.730526
 21
204.977514
 31
0.0
  0
LINE
  5
82
100
AcDbEntity
  8
0
  6
CONTINUOUS
 62
       110
100
AcDbLine
 10
120.730525
 20
175.4605366898
 30
0.0
 11
120.730525
 21
204.977514
 31
0.0
  0
SOLID
  5
83
100
AcDbEntity
  8
0
  6
CONTINUOUS
 62
       110
100
AcDbTrace
 10
117.7305260298
 20
202.810846995
 30
0.0
 11
117.7305260298
 21
203.144181005
 31
0.0
 12
116.730526
 22
202.977514
 32
0.0
 13
116.730526
 23
202.977514
 33
0.0
  0
SOLID
  5
84
100
AcDbEntity
  8
0
  6
CONTINUOUS
 62
       110
100
AcDbTrace
 10
119.7305249702
 20
203.144181005
 30
0.0
 11
119.7305249702
 21
202.810846995
 31
0.0
 12
120.730525
 22
202.977514
 32
0.0
 13
120.730525
 23
202.977514
 33
0.0
  0
MTEXT
  5
85
100
AcDbEntity
  8
0
  6
CONTINUOUS
 62
       110
100
AcDbMText
 10
118.7555260954
 20
205.5775140238
 30
0.0
 40
3.2000000477
 41
0.0
 71
         5
 72
         1
  1
\A1;4
  0
POINT
  5
86
100
AcDbEntity
  8
DEFPOINTS
  6
CONTINUOUS
 62
         0
100
AcDbPoint
 10
116.730526
 20
180.3980366898
 30
0.0
  0
POINT
  5
87
100
AcDbEntity
  8
DEFPOINTS
  6
CONTINUOUS
 62
         0
100
AcDbPoint
 10
120.730525
 20
175.3980366898
 30
0.0
  0
POINT
  5
88
100
AcDbEntity
  8
DEFPOINTS
  6
CONTINUOUS
 62
         0
100
AcDbPoint
 10
120.730525
 20
202.977514
 30
0.0
  0
ENDBLK
  5
89
100
AcDbEntity
  8
0
  6
ByBlock
 62
         0
100
AcDbBlockEnd
  0
BLOCK
  5
8C
100
AcDbEntity
  8
0
  6
ByBlock
 62
         0
100
AcDbBlockBegin
  2
*D7
 70
         1
 10
0.0
 20
0.0
 30
0.0
  3
*D7
  1

  0
LINE
  5
8D
100
AcDbEntity
  8
0
  6
CONTINUOUS
 62
       110
100
AcDbLine
 10
126.730525
 20
202.977514
 30
0.0
 11
160.730523
 21
202.977514
 31
0.0
  0
LINE
  5
8E
100
AcDbEntity
  8
0
  6
CONTINUOUS
 62
       110
100
AcDbLine
 10
126.730525
 20
175.4605366898
 30
0.0
 11
126.730525
 21
204.977514
 31
0.0
  0
LINE
  5
8F
100
AcDbEntity
  8
0
  6
CONTINUOUS
 62
       110
100
AcDbLine
 10
160.730523
 20
175.4605366898
 30
0.0
 11
160.730523
 21
204.977514
 31
0.0
  0
LINE
  5
90
100
AcDbEntity
  8
0
  6
CONTINUOUS
 62
       110
100
AcDbLine
 10
126.730525
 20
202.977514
 30
0.0
 11
122.730525
 21
202.977514
 31
0.0
  0
LINE
  5
91
100
AcDbEntity
  8
0
  6
CONTINUOUS
 62
       110
100
AcDbLine
 10
160.730523
 20
202.977514
 30
0.0
 11
164.730523
 21
202.977514
 31
0.0
  0
SOLID
  5
92
100
AcDbEntity
  8
0
  6
CONTINUOUS
 62
       110
100
AcDbTrace
 10
125.7305249702
 20
203.144181005
 30
0.0
 11
125.7305249702
 21
202.810846995
 31
0.0
 12
126.730525
 22
202.977514
 32
0.0
 13
126.730525
 23
202.977514
 33
0.0
  0
SOLID
  5
93
100
AcDbEntity
  8
0
  6
CONTINUOUS
 62
       110
100
AcDbTrace
 10
161.7305230298
 20
202.810846995
 30
0.0
 11
161.7305230298
 21
203.144181005
 31
0.0
 12
160.730523
 22
202.977514
 32
0.0
 13
160.730523
 23
202.977514
 33
0.0
  0
MTEXT
  5
94
100
AcDbEntity
  8
0
  6
CONTINUOUS
 62
       110
100
AcDbMText
 10
143.7555227112
 20
205.5775140238
 30
0.0
 40
3.2000000477
 41
0.0
 71
         5
 72
         1
  1
\A1;34
  0
POINT
  5
95
100
AcDbEntity
  8
DEFPOINTS
  6
CONTINUOUS
 62
         0
100
AcDbPoint
 10
126.730525
 20
175.3980366898
 30
0.0
  0
POINT
  5
96
100
AcDbEntity
  8
DEFPOINTS
  6
CONTINUOUS
 62
         0
100
AcDbPoint
 10
160.730523
 20
175.3980366898
 30
0.0
  0
POINT
  5
97
100
AcDbEntity
  8
DEFPOINTS
  6
CONTINUOUS
 62
         0
100
AcDbPoint
 10
160.730523
 20
202.977514
 30
0.0
  0
ENDBLK
  5
98
100
AcDbEntity
  8
0
  6
ByBlock
 62
         0
100
AcDbBlockEnd
  0
BLOCK
  5
9B
100
AcDbEntity
  8
0
  6
ByBlock
 62
         0
100
AcDbBlockBegin
  2
*D8
 70
         1
 10
0.0
 20
0.0
 30
0.0
  3
*D8
  1

  0
LINE
  5
9C
100
AcDbEntity
  8
0
  6
CONTINUOUS
 62
       110
100
AcDbLine
 10
190.68747
 20
175.398037
 30
0.0
 11
190.68747
 21
30.398044
 31
0.0
  0
LINE
  5
9D
100
AcDbEntity
  8
0
  6
CONTINUOUS
 62
       110
100
AcDbLine
 10
160.7930226733
 20
175.398037
 30
0.0
 11
192.68747
 21
175.398037
 31
0.0
  0
LINE
  5
9E
100
AcDbEntity
  8
0
  6
CONTINUOUS
 62
       110
100
AcDbLine
 10
160.7930226733
 20
30.398044
 30
0.0
 11
192.68747
 21
30.398044
 31
0.0
  0
LINE
  5
9F
100
AcDbEntity
  8
0
  6
CONTINUOUS
 62
       110
100
AcDbLine
 10
190.68747
 20
175.398037
 30
0.0
 11
190.68747
 21
179.398037
 31
0.0
  0
LINE
  5
A0
100
AcDbEntity
  8
0
  6
CONTINUOUS
 62
       110
100
AcDbLine
 10
190.68747
 20
30.398044
 30
0.0
 11
190.68747
 21
26.398044
 31
0.0
  0
SOLID
  5
A1
100
AcDbEntity
  8
0
  6
CONTINUOUS
 62
       110
100
AcDbTrace
 10
190.854137005
 20
176.3980370298
 30
0.0
 11
190.520802995
 21
176.3980370298
 31
0.0
 12
190.68747
 22
175.398037
 32
0.0
 13
190.68747
 23
175.398037
 33
0.0
  0
SOLID
  5
A2
100
AcDbEntity
  8
0
  6
CONTINUOUS
 62
       110
100
AcDbTrace
 10
190.520802995
 20
29.3980439702
 30
0.0
 11
190.854137005
 21
29.3980439702
 31
0.0
 12
190.68747
 22
30.398044
 32
0.0
 13
190.68747
 23
30.398044
 33
0.0
  0
MTEXT
  5
A4
100
AcDbEntity
  8
0
  6
CONTINUOUS
 62
       110
100
AcDbMText
 10
188.0874699762
 20
102.9230385259
 30
0.0
 40
3.2000000477
 41
0.0
 71
         5
 72
         1
  1
\A1;\U+2205145
  7
MX_DIMTXSTY_3
 11
0.0
 21
1.0
 31
0.0
  0
POINT
  5
A5
100
AcDbEntity
  8
DEFPOINTS
  6
CONTINUOUS
 62
         0
100
AcDbPoint
 10
160.7305226733
 20
175.398037
 30
0.0
  0
POINT
  5
A6
100
AcDbEntity
  8
DEFPOINTS
  6
CONTINUOUS
 62
         0
100
AcDbPoint
 10
160.7305226733
 20
30.398044
 30
0.0
  0
POINT
  5
A7
100
AcDbEntity
  8
DEFPOINTS
  6
CONTINUOUS
 62
         0
100
AcDbPoint
 10
190.68747
 20
30.398044
 30
0.0
  0
ENDBLK
  5
A8
100
AcDbEntity
  8
0
  6
ByBlock
 62
         0
100
AcDbBlockEnd
  0
BLOCK
  5
AB
100
AcDbEntity
  8
0
  6
ByBlock
 62
         0
100
AcDbBlockBegin
  2
*D9
 70
         1
 10
0.0
 20
0.0
 30
0.0
  3
*D9
  1

  0
LINE
  5
AC
100
AcDbEntity
  8
0
  6
CONTINUOUS
 62
       110
100
AcDbLine
 10
67.3074723
 20
25.398045
 30
0.0
 11
67.3074723
 21
180.398037
 31
0.0
  0
LINE
  5
AD
100
AcDbEntity
  8
0
  6
CONTINUOUS
 62
       110
100
AcDbLine
 10
110.6680260415
 20
25.398045
 30
0.0
 11
65.3074723
 21
25.398045
 31
0.0
  0
LINE
  5
AE
100
AcDbEntity
  8
0
  6
CONTINUOUS
 62
       110
100
AcDbLine
 10
110.6680260415
 20
180.398037
 30
0.0
 11
65.3074723
 21
180.398037
 31
0.0
  0
LINE
  5
AF
100
AcDbEntity
  8
0
  6
CONTINUOUS
 62
       110
100
AcDbLine
 10
67.3074723
 20
25.398045
 30
0.0
 11
67.3074723
 21
21.398045
 31
0.0
  0
LINE
  5
B0
100
AcDbEntity
  8
0
  6
CONTINUOUS
 62
       110
100
AcDbLine
 10
67.3074723
 20
180.398037
 30
0.0
 11
67.3074723
 21
184.398037
 31
0.0
  0
SOLID
  5
B1
100
AcDbEntity
  8
0
  6
CONTINUOUS
 62
       110
100
AcDbTrace
 10
67.140805295
 20
24.3980449702
 30
0.0
 11
67.474139305
 21
24.3980449702
 31
0.0
 12
67.3074723
 22
25.398045
 32
0.0
 13
67.3074723
 23
25.398045
 33
0.0
  0
SOLID
  5
B2
100
AcDbEntity
  8
0
  6
CONTINUOUS
 62
       110
100
AcDbTrace
 10
67.474139305
 20
181.3980370298
 30
0.0
 11
67.140805295
 21
181.3980370298
 31
0.0
 12
67.3074723
 22
180.398037
 32
0.0
 13
67.3074723
 23
180.398037
 33
0.0
  0
MTEXT
  5
B3
100
AcDbEntity
  8
0
  6
CONTINUOUS
 62
       110
100
AcDbMText
 10
64.7074722762
 20
102.9230388965
 30
0.0
 40
3.2000000477
 41
0.0
 71
         5
 72
         1
  1
\A1;\U+2205155
  7
MX_DIMTXSTY_3
 11
0.0
 21
1.0
 31
0.0
  0
POINT
  5
B4
100
AcDbEntity
  8
DEFPOINTS
  6
CONTINUOUS
 62
         0
100
AcDbPoint
 10
110.7305260415
 20
25.398045
 30
0.0
  0
POINT
  5
B5
100
AcDbEntity
  8
DEFPOINTS
  6
CONTINUOUS
 62
         0
100
AcDbPoint
 10
110.7305260415
 20
180.398037
 30
0.0
  0
POINT
  5
B6
100
AcDbEntity
  8
DEFPOINTS
  6
CONTINUOUS
 62
         0
100
AcDbPoint
 10
67.3074723
 20
180.398037
 30
0.0
  0
ENDBLK
  5
B7
100
AcDbEntity
  8
0
  6
ByBlock
 62
         0
100
AcDbBlockEnd
  0
BLOCK
  5
BA
100
AcDbEntity
  8
0
  6
ByBlock
 62
         0
100
AcDbBlockBegin
  2
*D10
 70
         1
 10
0.0
 20
0.0
 30
0.0
  3
*D10
  1

  0
LINE
  5
BB
100
AcDbEntity
  8
0
  6
CONTINUOUS
 62
       110
100
AcDbLine
 10
80.9871309
 20
41.648044
 30
0.0
 11
80.9871309
 21
164.148038
 31
0.0
  0
LINE
  5
BC
100
AcDbEntity
  8
0
  6
CONTINUOUS
 62
       110
100
AcDbLine
 10
107.6110265451
 20
41.648044
 30
0.0
 11
78.9871309
 21
41.648044
 31
0.0
  0
LINE
  5
BD
100
AcDbEntity
  8
0
  6
CONTINUOUS
 62
       110
100
AcDbLine
 10
95.0460269648
 20
164.148038
 30
0.0
 11
78.9871309
 21
164.148038
 31
0.0
  0
LINE
  5
BE
100
AcDbEntity
  8
0
  6
CONTINUOUS
 62
       110
100
AcDbLine
 10
80.9871309
 20
41.648044
 30
0.0
 11
80.9871309
 21
37.648044
 31
0.0
  0
LINE
  5
BF
100
AcDbEntity
  8
0
  6
CONTINUOUS
 62
       110
100
AcDbLine
 10
80.9871309
 20
164.148038
 30
0.0
 11
80.9871309
 21
168.148038
 31
0.0
  0
SOLID
  5
C0
100
AcDbEntity
  8
0
  6
CONTINUOUS
 62
       110
100
AcDbTrace
 10
80.820463895
 20
40.6480439702
 30
0.0
 11
81.153797905
 21
40.6480439702
 31
0.0
 12
80.9871309
 22
41.648044
 32
0.0
 13
80.9871309
 23
41.648044
 33
0.0
  0
SOLID
  5
C1
100
AcDbEntity
  8
0
  6
CONTINUOUS
 62
       110
100
AcDbTrace
 10
81.153797905
 20
165.1480380298
 30
0.0
 11
80.820463895
 21
165.1480380298
 31
0.0
 12
80.9871309
 22
164.148038
 32
0.0
 13
80.9871309
 23
164.148038
 33
0.0
  0
MTEXT
  5
C3
100
AcDbEntity
  8
0
  6
CONTINUOUS
 62
       110
100
AcDbMText
 10
78.3871308762
 20
102.9230378965
 30
0.0
 40
3.2000000477
 41
0.0
 71
         5
 72
         1
  1
\A1;\U+2205122.5
  7
MX_DIMTXSTY_4
 11
0.0
 21
1.0
 31
0.0
  0
POINT
  5
C4
100
AcDbEntity
  8
DEFPOINTS
  6
CONTINUOUS
 62
         0
100
AcDbPoint
 10
107.6735265451
 20
41.648044
 30
0.0
  0
POINT
  5
C5
100
AcDbEntity
  8
DEFPOINTS
  6
CONTINUOUS
 62
         0
100
AcDbPoint
 10
95.1085269648
 20
164.148038
 30
0.0
  0
POINT
  5
C6
100
AcDbEntity
  8
DEFPOINTS
  6
CONTINUOUS
 62
         0
100
AcDbPoint
 10
80.9871309
 20
164.148038
 30
0.0
  0
ENDBLK
  5
C7
100
AcDbEntity
  8
0
  6
ByBlock
 62
         0
100
AcDbBlockEnd
  0
BLOCK
  5
CA
100
AcDbEntity
  8
0
  6
ByBlock
 62
         0
100
AcDbBlockBegin
  2
*D11
 70
         1
 10
0.0
 20
0.0
 30
0.0
  3
*D11
  1

  0
LINE
  5
CB
100
AcDbEntity
  8
0
  6
CONTINUOUS
 62
       110
100
AcDbLine
 10
93.6145081
 20
52.898043
 30
0.0
 11
93.6145081
 21
152.898038
 31
0.0
  0
LINE
  5
CC
100
AcDbEntity
  8
0
  6
CONTINUOUS
 62
       110
100
AcDbLine
 10
110.6680263953
 20
52.898043
 30
0.0
 11
91.6145081
 21
52.898043
 31
0.0
  0
LINE
  5
CD
100
AcDbEntity
  8
0
  6
CONTINUOUS
 62
       110
100
AcDbLine
 10
110.6680263953
 20
152.898038
 30
0.0
 11
91.6145081
 21
152.898038
 31
0.0
  0
LINE
  5
CE
100
AcDbEntity
  8
0
  6
CONTINUOUS
 62
       110
100
AcDbLine
 10
93.6145081
 20
52.898043
 30
0.0
 11
93.6145081
 21
48.898043
 31
0.0
  0
LINE
  5
CF
100
AcDbEntity
  8
0
  6
CONTINUOUS
 62
       110
100
AcDbLine
 10
93.6145081
 20
152.898038
 30
0.0
 11
93.6145081
 21
156.898038
 31
0.0
  0
SOLID
  5
D0
100
AcDbEntity
  8
0
  6
CONTINUOUS
 62
       110
100
AcDbTrace
 10
93.447841095
 20
51.8980429702
 30
0.0
 11
93.781175105
 21
51.8980429702
 31
0.0
 12
93.6145081
 22
52.898043
 32
0.0
 13
93.6145081
 23
52.898043
 33
0.0
  0
SOLID
  5
D1
100
AcDbEntity
  8
0
  6
CONTINUOUS
 62
       110
100
AcDbTrace
 10
93.781175105
 20
153.8980380298
 30
0.0
 11
93.447841095
 21
153.8980380298
 31
0.0
 12
93.6145081
 22
152.898038
 32
0.0
 13
93.6145081
 23
152.898038
 33
0.0
  0
MTEXT
  5
D2
100
AcDbEntity
  8
0
  6
CONTINUOUS
 62
       110
100
AcDbMText
 10
91.0145080762
 20
102.9230368965
 30
0.0
 40
3.2000000477
 41
0.0
 71
         5
 72
         1
  1
\A1;\U+2205100
  7
MX_DIMTXSTY_4
 11
0.0
 21
1.0
 31
0.0
  0
POINT
  5
D3
100
AcDbEntity
  8
DEFPOINTS
  6
CONTINUOUS
 62
         0
100
AcDbPoint
 10
110.7305263953
 20
52.898043
 30
0.0
  0
POINT
  5
D4
100
AcDbEntity
  8
DEFPOINTS
  6
CONTINUOUS
 62
         0
100
AcDbPoint
 10
110.7305263953
 20
152.898038
 30
0.0
  0
POINT
  5
D5
100
AcDbEntity
  8
DEFPOINTS
  6
CONTINUOUS
 62
         0
100
AcDbPoint
 10
93.6145081
 20
152.898038
 30
0.0
  0
ENDBLK
  5
D6
100
AcDbEntity
  8
0
  6
ByBlock
 62
         0
100
AcDbBlockEnd
  0
ENDSEC
  0
SECTION
  2
ENTITIES
  0
MTEXT
  5
29
100
AcDbEntity
  8
0
  6
CONTINUOUS
 62
       110
100
AcDbMText
 10
34.2252345188
 20
15.4423005604
 30
0.0
 40
4.797601223
 41
0.0
 71
         1
 72
         1
  1
\T1.025;\W1.058;\A1;TSUBAKI
  0
MTEXT
  5
2A
100
AcDbEntity
  8
0
  6
CONTINUOUS
 62
       110
100
AcDbMText
 10
13.1112345188
 20
-22.4716994396
 30
0.0
 40
4.797601223
 41
0.0
 71
         1
 72
         1
  1
\T1.025;\W1.058;\A1;TSUBAKI
  0
MTEXT
  5
2B
100
AcDbEntity
  8
PV
  6
CONTINUOUS
 62
       110
100
AcDbMText
 10
-53.0048360829
 20
-103.2991998396
 30
0.0
 40
4.797601223
 41
0.0
 71
         1
 72
         1
  1
\A1;MASS
  0
MTEXT
  5
2C
100
AcDbEntity
  8
PV
  6
CONTINUOUS
 62
       110
100
AcDbMText
 10
13.0395910616
 20
-31.4716994396
 30
0.0
 40
4.797601223
 41
0.0
 71
         1
 72
         1
  1
\T1.003;\W1.067;\A1;POWER LOCK
  0
MTEXT
  5
2D
100
AcDbEntity
  8
PV
  6
CONTINUOUS
 62
       110
100
AcDbMText
 10
-52.8609448986
 20
-58.2991994396
 30
0.0
 40
4.797601223
 41
0.0
 71
         1
 72
         1
  1
\T1.041;\W1.120;\A1;TIGHTENING TORQUE OF LOCKING BOLTS
  0
MTEXT
  5
2E
100
AcDbEntity
  8
PV
  6
CONTINUOUS
 62
       110
100
AcDbMText
 10
-52.8331386609
 20
-49.2991994396
 30
0.0
 40
4.797601223
 41
0.0
 71
         1
 72
         1
  1
\T1.047;\W1.149;\A1;QUANTITY AND SIZE OF LOCKING BOLTS
  0
MTEXT
  5
2F
100
AcDbEntity
  8
PV
  6
CONTINUOUS
 62
       110
100
AcDbMText
 10
-52.9113178981
 20
-67.2991994396
 30
0.0
 40
4.797601223
 41
0.0
 71
         1
 72
         1
  1
\T1.028;\W1.060;\A1;TRANSMISSIBLE TORQUE
  0
MTEXT
  5
30
100
AcDbEntity
  8
PV
  6
CONTINUOUS
 62
       110
100
AcDbMText
 10
-52.9113178981
 20
-76.2991994396
 30
0.0
 40
4.797601223
 41
0.0
 71
         1
 72
         1
  1
\T1.028;\W1.060;\A1;TRANSMISSIBLE THRUST
  0
MTEXT
  5
31
100
AcDbEntity
  8
PV
  6
CONTINUOUS
 62
       110
100
AcDbMText
 10
-52.917414204
 20
-85.2991994396
 30
0.0
 40
4.797601223
 41
0.0
 71
         1
 72
         1
  1
\T1.025;\W1.104;\A1;CONTACT PRESSURE OF SHAFT
  0
MTEXT
  5
32
100
AcDbEntity
  8
PV
  6
CONTINUOUS
 62
       110
100
AcDbMText
 10
-52.8980493619
 20
-94.2991994396
 30
0.0
 40
4.797601223
 41
0.0
 71
         1
 72
         1
  1
\T1.030;\W1.126;\A1;CONTACT PRESSURE OF HUB BORE
  0
MTEXT
  5
33
100
AcDbEntity
  8
PV
  6
CONTINUOUS
 62
       110
100
AcDbMText
 10
-52.9465432381
 20
-40.2991994396
 30
0.0
 40
4.797601223
 41
0.0
 71
         1
 72
         1
  1
\T1.017;\W1.071;\A1;MODEL NUMBER
  0
MTEXT
  5
34
100
AcDbEntity
  8
PV
  6
CONTINUOUS
 62
       110
100
AcDbMText
 10
34.1535910616
 20
6.4423005904
 30
0.0
 40
4.797601223
 41
0.0
 71
         1
 72
         1
  1
\T1.003;\W1.067;\A1;POWER LOCK
  0
MTEXT
  5
35
100
AcDbEntity
  8
PV
  6
CONTINUOUS
 62
       110
100
AcDbMText
 10
34.2221235878
 20
-2.5576994096
 30
0.0
 40
4.797601223
 41
0.0
 71
         1
 72
         1
  1
\W1.100;\A1;PL100X145AE
  0
LINE
  5
36
100
AcDbEntity
  8
PV
  6
CONTINUOUS
 62
         3
100
AcDbLine
 10
112.444465
 20
-38.0
 30
0.0
 11
112.444465
 21
-110.0
 31
0.0
  0
LINE
  5
37
100
AcDbEntity
  8
PV
  6
CONTINUOUS
 62
         3
100
AcDbLine
 10
-59.7150355
 20
-20.0
 30
0.0
 11
-59.7150355
 21
-110.0
 31
0.0
  0
LINE
  5
38
100
AcDbEntity
  8
PV
  6
CONTINUOUS
 62
         3
100
AcDbLine
 10
-59.7150355
 20
-20.0
 30
0.0
 11
238.947911
 21
-20.0
 31
0.0
  0
LINE
  5
39
100
AcDbEntity
  8
PV
  6
CONTINUOUS
 62
         3
100
AcDbLine
 10
-59.7150355
 20
-110.0
 30
0.0
 11
238.947911
 21
-110.0
 31
0.0
  0
LINE
  5
3A
100
AcDbEntity
  8
PV
  6
CONTINUOUS
 62
         3
100
AcDbLine
 10
-59.7150355
 20
-101.0
 30
0.0
 11
238.947911
 21
-101.0
 31
0.0
  0
LINE
  5
3B
100
AcDbEntity
  8
PV
  6
CONTINUOUS
 62
         3
100
AcDbLine
 10
-59.7150355
 20
-92.0
 30
0.0
 11
238.947911
 21
-92.0
 31
0.0
  0
LINE
  5
3C
100
AcDbEntity
  8
PV
  6
CONTINUOUS
 62
         3
100
AcDbLine
 10
-59.7150355
 20
-83.0
 30
0.0
 11
238.947911
 21
-83.0
 31
0.0
  0
LINE
  5
3D
100
AcDbEntity
  8
PV
  6
CONTINUOUS
 62
         3
100
AcDbLine
 10
-59.7150355
 20
-74.0
 30
0.0
 11
238.947911
 21
-74.0
 31
0.0
  0
LINE
  5
3E
100
AcDbEntity
  8
PV
  6
CONTINUOUS
 62
         3
100
AcDbLine
 10
-59.7150355
 20
-65.0
 30
0.0
 11
238.947911
 21
-65.0
 31
0.0
  0
LINE
  5
3F
100
AcDbEntity
  8
PV
  6
CONTINUOUS
 62
         3
100
AcDbLine
 10
-59.7150355
 20
-56.0
 30
0.0
 11
238.947911
 21
-56.0
 31
0.0
  0
LINE
  5
40
100
AcDbEntity
  8
PV
  6
CONTINUOUS
 62
         3
100
AcDbLine
 10
-59.7150355
 20
-47.0
 30
0.0
 11
238.947911
 21
-47.0
 31
0.0
  0
LINE
  5
41
100
AcDbEntity
  8
PV
  6
CONTINUOUS
 62
         3
100
AcDbLine
 10
-59.7150355
 20
-38.0
 30
0.0
 11
238.947911
 21
-38.0
 31
0.0
  0
LINE
  5
42
100
AcDbEntity
  8
PV
  6
CONTINUOUS
 62
         3
100
AcDbLine
 10
-59.7150355
 20
-29.0
 30
0.0
 11
238.947911
 21
-29.0
 31
0.0
  0
DIMENSION
  5
52
100
AcDbEntity
  8
PV
  6
CONTINUOUS
 62
       110
100
AcDbDimension
  2
*D2
 10
160.730523
 20
246.384123
 30
0.0
 11
130.7555237112
 21
246.384123
 31
0.0
 70
       128
  1
\A1;<>
  3
MXDIMSTYLE
100
AcDbAlignedDimension
 13
100.730526
 23
171.1090375508
 33
0.0
 14
160.730523
 24
175.3980390156
 34
0.0
100
AcDbRotatedDimension
1001
ACAD
1000
DSTYLE
1002
{
1070
         6
1000
SOLID
1070
         7
1000
SOLID
1070
        41
1040
1.0000000298
1070
        42
1040
0.0625
1070
        44
1040
2.0
1070
       271
1070
         4
1070
       284
1070
         8
1070
       340
1005
4C
1070
       343
1005
0
1070
       344
1005
0
1002
}
  0
DIMENSION
  5
61
100
AcDbEntity
  8
PV
  6
CONTINUOUS
 62
       110
100
AcDbDimension
  2
*D3
 10
160.730523
 20
229.81069
 30
0.0
 11
135.7555237112
 21
229.81069
 31
0.0
 70
       128
  1
\A1;<>
  3
MXDIMSTYLE
100
AcDbAlignedDimension
 13
110.730526
 23
180.3980351233
 33
0.0
 14
160.730523
 24
175.3980351233
 34
0.0
100
AcDbRotatedDimension
1001
ACAD
1000
DSTYLE
1002
{
1070
         6
1000
SOLID
1070
         7
1000
SOLID
1070
        41
1040
1.0000000298
1070
        42
1040
0.0625
1070
        44
1040
2.0
1070
       271
1070
         4
1070
       284
1070
         8
1070
       340
1005
4C
1070
       343
1005
0
1070
       344
1005
0
1002
}
  0
DIMENSION
  5
6E
100
AcDbEntity
  8
PV
  6
CONTINUOUS
 62
       110
100
AcDbDimension
  2
*D4
 10
116.730526
 20
215.341821
 30
0.0
 11
113.7555260954
 21
215.341821
 31
0.0
 70
       128
  1
\A1;<>
  3
MXDIMSTYLE
100
AcDbAlignedDimension
 13
110.730526
 23
180.3980381936
 33
0.0
 14
116.730526
 24
180.3980381936
 34
0.0
100
AcDbRotatedDimension
1001
ACAD
1000
DSTYLE
1002
{
1070
         6
1000
SOLID
1070
         7
1000
SOLID
1070
        41
1040
1.0000000298
1070
        42
1040
0.0625
1070
        44
1040
2.0
1070
       271
1070
         4
1070
       284
1070
         8
1070
       343
1005
0
1070
       344
1005
0
1002
}
  0
DIMENSION
  5
7D
100
AcDbEntity
  8
PV
  6
CONTINUOUS
 62
       110
100
AcDbDimension
  2
*D5
 10
160.730523
 20
215.341821
 30
0.0
 11
138.7555237112
 21
215.341821
 31
0.0
 70
       128
  1
\A1;<>
  3
MXDIMSTYLE
100
AcDbAlignedDimension
 13
116.730526
 23
180.3980381936
 33
0.0
 14
160.730523
 24
175.3980381936
 34
0.0
100
AcDbRotatedDimension
1001
ACAD
1000
DSTYLE
1002
{
1070
         6
1000
SOLID
1070
         7
1000
SOLID
1070
        41
1040
1.0000000298
1070
        42
1040
0.0625
1070
        44
1040
2.0
1070
       271
1070
         4
1070
       284
1070
         8
1070
       343
1005
0
1070
       344
1005
0
1002
}
  0
DIMENSION
  5
8A
100
AcDbEntity
  8
PV
  6
CONTINUOUS
 62
       110
100
AcDbDimension
  2
*D6
 10
120.730525
 20
202.977514
 30
0.0
 11
118.7555260954
 21
202.977514
 31
0.0
 70
       128
  1
\A1;<>
  3
MXDIMSTYLE
100
AcDbAlignedDimension
 13
116.730526
 23
180.3980366898
 33
0.0
 14
120.730525
 24
175.3980366898
 34
0.0
100
AcDbRotatedDimension
1001
ACAD
1000
DSTYLE
1002
{
1070
         6
1000
SOLID
1070
         7
1000
SOLID
1070
        41
1040
1.0000000298
1070
        42
1040
0.0625
1070
        44
1040
2.0
1070
       271
1070
         4
1070
       284
1070
         8
1070
       343
1005
0
1070
       344
1005
0
1002
}
  0
DIMENSION
  5
99
100
AcDbEntity
  8
PV
  6
CONTINUOUS
 62
       110
100
AcDbDimension
  2
*D7
 10
160.730523
 20
202.977514
 30
0.0
 11
143.7555227112
 21
202.977514
 31
0.0
 70
       128
  1
\A1;<>
  3
MXDIMSTYLE
100
AcDbAlignedDimension
 13
126.730525
 23
175.3980366898
 33
0.0
 14
160.730523
 24
175.3980366898
 34
0.0
100
AcDbRotatedDimension
1001
ACAD
1000
DSTYLE
1002
{
1070
         6
1000
SOLID
1070
         7
1000
SOLID
1070
        41
1040
1.0000000298
1070
        42
1040
0.0625
1070
        44
1040
2.0
1070
       271
1070
         4
1070
       284
1070
         8
1070
       343
1005
0
1070
       344
1005
0
1002
}
  0
DIMENSION
  5
A9
100
AcDbEntity
  8
PV
  6
CONTINUOUS
 62
       110
100
AcDbDimension
  2
*D8
 10
190.68747
 20
30.398044
 30
0.0
 11
190.68747
 21
102.9230385259
 31
0.0
 70
       128
  1
\A1;\U+2205<>
  3
MXDIMSTYLE
100
AcDbAlignedDimension
 13
160.7305226733
 23
175.398037
 33
0.0
 14
160.7305226733
 24
30.398044
 34
0.0
 50
90.0
100
AcDbRotatedDimension
1001
ACAD
1000
DSTYLE
1002
{
1070
         6
1000
SOLID
1070
         7
1000
SOLID
1070
        41
1040
1.0000000298
1070
        42
1040
0.0625
1070
        44
1040
2.0
1070
       271
1070
         4
1070
       284
1070
         8
1070
       340
1005
A3
1070
       343
1005
0
1070
       344
1005
0
1002
}
  0
DIMENSION
  5
B8
100
AcDbEntity
  8
PV
  6
CONTINUOUS
 62
       110
100
AcDbDimension
  2
*D9
 10
67.3074723
 20
180.398037
 30
0.0
 11
67.3074723
 21
102.9230388965
 31
0.0
 70
       128
  1
\A1;\U+2205<>
  3
MXDIMSTYLE
100
AcDbAlignedDimension
 13
110.7305260415
 23
25.398045
 33
0.0
 14
110.7305260415
 24
180.398037
 34
0.0
 50
90.0
100
AcDbRotatedDimension
1001
ACAD
1000
DSTYLE
1002
{
1070
         6
1000
SOLID
1070
         7
1000
SOLID
1070
        41
1040
1.0000000298
1070
        42
1040
0.0625
1070
        44
1040
2.0
1070
       271
1070
         4
1070
       284
1070
         8
1070
       340
1005
A3
1070
       343
1005
0
1070
       344
1005
0
1002
}
  0
DIMENSION
  5
C8
100
AcDbEntity
  8
PV
  6
CONTINUOUS
 62
       110
100
AcDbDimension
  2
*D10
 10
80.9871309
 20
164.148038
 30
0.0
 11
80.9871309
 21
102.9230378965
 31
0.0
 70
       128
  1
\A1;\U+2205<>
  3
MXDIMSTYLE
100
AcDbAlignedDimension
 13
107.6735265451
 23
41.648044
 33
0.0
 14
95.1085269648
 24
164.148038
 34
0.0
 50
90.0
100
AcDbRotatedDimension
1001
ACAD
1000
DSTYLE
1002
{
1070
         6
1000
SOLID
1070
         7
1000
SOLID
1070
        41
1040
1.0000000298
1070
        42
1040
0.0625
1070
        44
1040
2.0
1070
       271
1070
         4
1070
       284
1070
         8
1070
       340
1005
C2
1070
       343
1005
0
1070
       344
1005
0
1002
}
  0
DIMENSION
  5
D7
100
AcDbEntity
  8
PV
  6
CONTINUOUS
 62
       110
100
AcDbDimension
  2
*D11
 10
93.6145081
 20
152.898038
 30
0.0
 11
93.6145081
 21
102.9230368965
 31
0.0
 70
       128
  1
\A1;\U+2205<>
  3
MXDIMSTYLE
100
AcDbAlignedDimension
 13
110.7305263953
 23
52.898043
 33
0.0
 14
110.7305263953
 24
152.898038
 34
0.0
 50
90.0
100
AcDbRotatedDimension
1001
ACAD
1000
DSTYLE
1002
{
1070
         6
1000
SOLID
1070
         7
1000
SOLID
1070
        41
1040
1.0000000298
1070
        42
1040
0.0625
1070
        44
1040
2.0
1070
       271
1070
         4
1070
       284
1070
         8
1070
       340
1005
C2
1070
       343
1005
0
1070
       344
1005
0
1002
}
  0
LINE
  5
D8
100
AcDbEntity
  8
PV
  6
CONTINUOUS
 62
         3
100
AcDbLine
 10
126.730525
 20
30.398044
 30
0.0
 11
160.730523
 21
30.398044
 31
0.0
  0
LINE
  5
D9
100
AcDbEntity
  8
PV
  6
CONTINUOUS
 62
         3
100
AcDbLine
 10
126.730525
 20
175.398037
 30
0.0
 11
160.730523
 21
175.398037
 31
0.0
  0
LINE
  5
DA
100
AcDbEntity
  8
PV
  6
CONTINUOUS
 62
         3
100
AcDbLine
 10
-8.496506
 20
207.898036
 30
0.0
 11
3.960494
 21
207.898036
 31
0.0
  0
LINE
  5
DB
100
AcDbEntity
  8
PV
  6
CONTINUOUS
 62
         3
100
AcDbLine
 10
-36.322504
 20
168.241037
 30
0.0
 11
-8.496506
 21
207.898036
 31
0.0
  0
MTEXT
  5
DC
100
AcDbEntity
  8
PV
  6
CONTINUOUS
 62
       110
100
AcDbMText
 10
127.2692559783
 20
-94.1079469396
 30
0.0
 40
4.797601223
 41
0.0
 71
         1
 72
         1
  1
\W1.125;\A1;123
  0
MTEXT
  5
DD
100
AcDbEntity
  8
PV
  6
CONTINUOUS
 62
       110
100
AcDbMText
 10
127.2692559783
 20
-85.1124449396
 30
0.0
 40
4.797601223
 41
0.0
 71
         1
 72
         1
  1
\W1.125;\A1;218
  0
MTEXT
  5
DE
100
AcDbEntity
  8
PV
  6
CONTINUOUS
 62
       110
100
AcDbMText
 10
127.2163412926
 20
-76.1169429396
 30
0.0
 40
4.797601223
 41
0.0
 71
         1
 72
         1
  1
\W1.059;\A1;207
  0
MTEXT
  5
DF
100
AcDbEntity
  8
PV
  6
CONTINUOUS
 62
       110
100
AcDbMText
 10
122.7009520071
 20
-67.1214409396
 30
0.0
 40
4.797601223
 41
0.0
 71
         1
 72
         1
  1
\W1.412;\A1;10.3
  0
MTEXT
  5
E0
100
AcDbEntity
  8
PV
  6
CONTINUOUS
 62
       110
100
AcDbMText
 10
122.638238284
 20
-58.1259399396
 30
0.0
 40
4.797601223
 41
0.0
 71
         1
 72
         1
  1
\W1.333;\A1;81.3
  0
MTEXT
  5
E1
100
AcDbEntity
  8
PV
  6
CONTINUOUS
 62
       110
100
AcDbMText
 10
225.0818441593
 20
-93.5082470368
 30
0.0
 40
2.3987998962
 41
0.0
 71
         1
 72
         1
  1
\A1;2
  0
MTEXT
  5
E2
100
AcDbEntity
  8
PV
  6
CONTINUOUS
 62
       110
100
AcDbMText
 10
196.8086161608
 20
-94.1079469396
 30
0.0
 40
4.797601223
 41
0.0
 71
         1
 72
         1
  1
\T1.070;\W1.143;\A1;kgf/ mm \}
  0
MTEXT
  5
E3
100
AcDbEntity
  8
PV
  6
CONTINUOUS
 62
       110
100
AcDbMText
 10
225.0818441593
 20
-84.5127452368
 30
0.0
 40
2.3987998962
 41
0.0
 71
         1
 72
         1
  1
\A1;2
  0
MTEXT
  5
E4
100
AcDbEntity
  8
PV
  6
CONTINUOUS
 62
       110
100
AcDbMText
 10
196.8086161608
 20
-85.1124449396
 30
0.0
 40
4.797601223
 41
0.0
 71
         1
 72
         1
  1
\T1.070;\W1.143;\A1;kgf/ mm \}
  0
MTEXT
  5
E5
100
AcDbEntity
  8
PV
  6
CONTINUOUS
 62
       110
100
AcDbMText
 10
196.8087098932
 20
-76.1169429396
 30
0.0
 40
4.797601223
 41
0.0
 71
         1
 72
         1
  1
\W1.091;\A1;kgf\}
  0
MTEXT
  5
E6
100
AcDbEntity
  8
PV
  6
CONTINUOUS
 62
       110
100
AcDbMText
 10
197.1358189732
 20
-58.1259399396
 30
0.0
 40
4.797601223
 41
0.0
 71
         1
 72
         1
  1
\W0.833;\A1;ｋｇｆ・ｍ｝
  0
MTEXT
  5
E7
100
AcDbEntity
  8
PV
  6
CONTINUOUS
 62
       110
100
AcDbMText
 10
197.1358189732
 20
-67.1214409396
 30
0.0
 40
4.797601223
 41
0.0
 71
         1
 72
         1
  1
\W0.833;\A1;ｋｇｆ・ｍ｝
  0
MTEXT
  5
E8
100
AcDbEntity
  8
PV
  6
CONTINUOUS
 62
       110
100
AcDbMText
 10
144.2607593171
 20
-103.1034498396
 30
0.0
 40
4.797601223
 41
0.0
 71
         1
 72
         1
  1
\A1;kg
  0
MTEXT
  5
E9
100
AcDbEntity
  8
PV
  6
CONTINUOUS
 62
       110
100
AcDbMText
 10
144.2607593171
 20
-94.1079469396
 30
0.0
 40
4.797601223
 41
0.0
 71
         1
 72
         1
  1
\A1;MPa
  0
MTEXT
  5
EA
100
AcDbEntity
  8
PV
  6
CONTINUOUS
 62
       110
100
AcDbMText
 10
144.2607593171
 20
-85.1124449396
 30
0.0
 40
4.797601223
 41
0.0
 71
         1
 72
         1
  1
\A1;MPa
  0
MTEXT
  5
EB
100
AcDbEntity
  8
PV
  6
CONTINUOUS
 62
       110
100
AcDbMText
 10
144.2607593171
 20
-76.1169429396
 30
0.0
 40
4.797601223
 41
0.0
 71
         1
 72
         1
  1
\A1;kN
  0
MTEXT
  5
EC
100
AcDbEntity
  8
PV
  6
CONTINUOUS
 62
       110
100
AcDbMText
 10
144.6605589732
 20
-67.1214409396
 30
0.0
 40
4.797601223
 41
0.0
 71
         1
 72
         1
  1
\W0.833;\A1;ｋＮ・ｍ
  0
MTEXT
  5
ED
100
AcDbEntity
  8
PV
  6
CONTINUOUS
 62
       110
100
AcDbMText
 10
144.6605589732
 20
-58.1259399396
 30
0.0
 40
4.797601223
 41
0.0
 71
         1
 72
         1
  1
\W0.833;\A1;Ｎ・ｍ
  0
MTEXT
  5
EE
100
AcDbEntity
  8
PV
  6
CONTINUOUS
 62
       110
100
AcDbMText
 10
149.2087849878
 20
-40.1349359396
 30
0.0
 40
4.797601223
 41
0.0
 71
         1
 72
         1
  1
\W1.100;\A1;PL100X145AE
  0
MTEXT
  5
EF
100
AcDbEntity
  8
PV
  6
CONTINUOUS
 62
       110
100
AcDbMText
 10
154.0065178222
 20
-49.1304379396
 30
0.0
 40
4.797601223
 41
0.0
 71
         1
 72
         1
  1
\W1.102;\A1;15-M10X25
  0
MTEXT
  5
F0
100
AcDbEntity
  8
PV
  6
CONTINUOUS
 62
       110
100
AcDbMText
 10
173.6742174879
 20
-58.1259399396
 30
0.0
 40
4.797601223
 41
0.0
 71
         1
 72
         1
  1
\W1.333;\A1;\{8.3
  0
MTEXT
  5
F1
100
AcDbEntity
  8
PV
  6
CONTINUOUS
 62
       110
100
AcDbMText
 10
168.8084841747
 20
-67.1214409396
 30
0.0
 40
4.797601223
 41
0.0
 71
         1
 72
         1
  1
\W1.250;\A1;\{1050
  0
MTEXT
  5
F2
100
AcDbEntity
  8
PV
  6
CONTINUOUS
 62
       110
100
AcDbMText
 10
164.0409393091
 20
-76.1169429396
 30
0.0
 40
4.797601223
 41
0.0
 71
         1
 72
         1
  1
\W1.286;\A1;\{21100
  0
MTEXT
  5
F3
100
AcDbEntity
  8
PV
  6
CONTINUOUS
 62
       110
100
AcDbMText
 10
168.8084841672
 20
-85.1124449396
 30
0.0
 40
4.797601223
 41
0.0
 71
         1
 72
         1
  1
\W1.250;\A1;\{22.2
  0
MTEXT
  5
F4
100
AcDbEntity
  8
PV
  6
CONTINUOUS
 62
       110
100
AcDbMText
 10
168.8993477833
 20
-94.1079469396
 30
0.0
 40
4.797601223
 41
0.0
 71
         1
 72
         1
  1
\W1.364;\A1;\{12.6
  0
MTEXT
  5
F5
100
AcDbEntity
  8
PV
  6
CONTINUOUS
 62
       110
100
AcDbMText
 10
122.582126025
 20
-103.1034498396
 30
0.0
 40
4.797601223
 41
0.0
 71
         1
 72
         1
  1
\W1.263;\A1;3.07
  0
MTEXT
  5
F6
100
AcDbEntity
  8
PV
  6
CONTINUOUS
 62
       110
100
AcDbMText
 10
-4.5561106806
 20
211.9686149421
 30
0.0
 40
3.2000000477
 41
0.0
 71
         1
 72
         1
  1
\W1.200;\A1;M10
 11
0.9998476952
 21
-0.0174524064
 31
0.0
  0
LINE
  5
F7
100
AcDbEntity
  8
PV
  6
CONTINUOUS
 62
         3
100
AcDbLine
 10
116.730526
 20
30.398044
 30
0.0
 11
120.730525
 21
30.398044
 31
0.0
  0
LINE
  5
F8
100
AcDbEntity
  8
PV
  6
CONTINUOUS
 62
         3
100
AcDbLine
 10
110.730526
 20
25.398045
 30
0.0
 11
116.730526
 21
25.398045
 31
0.0
  0
LINE
  5
F9
100
AcDbEntity
  8
PV
  6
CONTINUOUS
 62
         3
100
AcDbLine
 10
110.730526
 20
180.398037
 30
0.0
 11
110.730526
 21
25.398045
 31
0.0
  0
LINE
  5
FA
100
AcDbEntity
  8
PV
  6
CONTINUOUS
 62
         3
100
AcDbLine
 10
100.730526
 20
171.109037
 30
0.0
 11
100.730526
 21
157.187038
 31
0.0
  0
LINE
  5
FB
100
AcDbEntity
  8
PV
  6
CONTINUOUS
 62
         3
100
AcDbLine
 10
100.730526
 20
171.109037
 30
0.0
 11
101.330526
 21
172.148037
 31
0.0
  0
LINE
  5
FC
100
AcDbEntity
  8
PV
  6
CONTINUOUS
 62
         3
100
AcDbLine
 10
100.730526
 20
157.187038
 30
0.0
 11
101.330526
 21
156.148038
 31
0.0
  0
LINE
  5
FD
100
AcDbEntity
  8
PV
  6
CONTINUOUS
 62
         3
100
AcDbLine
 10
110.730526
 20
156.148038
 30
0.0
 11
101.330526
 21
156.148038
 31
0.0
  0
LINE
  5
FE
100
AcDbEntity
  8
PV
  6
CONTINUOUS
 62
         3
100
AcDbLine
 10
110.730526
 20
172.148037
 30
0.0
 11
101.330526
 21
172.148037
 31
0.0
  0
LINE
  5
FF
100
AcDbEntity
  8
PV
  6
CONTINUOUS
 62
         3
100
AcDbLine
 10
160.730523
 20
102.898041
 30
0.0
 11
160.730523
 21
30.398044
 31
0.0
  0
LINE
  5
100
100
AcDbEntity
  8
PV
  6
CONTINUOUS
 62
         3
100
AcDbLine
 10
116.730526
 20
175.398037
 30
0.0
 11
120.730525
 21
175.398037
 31
0.0
  0
LINE
  5
101
100
AcDbEntity
  8
PV
  6
CONTINUOUS
 62
         3
100
AcDbLine
 10
160.730523
 20
175.398037
 30
0.0
 11
160.730523
 21
102.898041
 31
0.0
  0
LINE
  5
102
100
AcDbEntity
  8
PV
  6
CONTINUOUS
 62
         3
100
AcDbLine
 10
154.730524
 20
52.898043
 30
0.0
 11
110.730526
 21
52.898043
 31
0.0
  0
LINE
  5
103
100
AcDbEntity
  8
PV
  6
CONTINUOUS
 62
         3
100
AcDbLine
 10
116.730526
 20
30.398044
 30
0.0
 11
116.730526
 21
25.398045
 31
0.0
  0
LINE
  5
104
100
AcDbEntity
  8
PV
  6
CONTINUOUS
 62
         3
100
AcDbLine
 10
110.730526
 20
152.898038
 30
0.0
 11
154.730524
 21
152.898038
 31
0.0
  0
LINE
  5
105
100
AcDbEntity
  8
PV
  6
CONTINUOUS
 62
         3
100
AcDbLine
 10
116.730526
 20
180.398037
 30
0.0
 11
116.730526
 21
175.398037
 31
0.0
  0
LINE
  5
106
100
AcDbEntity
  8
PV
  6
CONTINUOUS
 62
         3
100
AcDbLine
 10
110.730526
 20
180.398037
 30
0.0
 11
116.730526
 21
180.398037
 31
0.0
  0
CIRCLE
  5
107
100
AcDbEntity
  8
PV
  6
CONTINUOUS
 62
         3
100
AcDbCircle
 10
-39.194504
 20
102.898041
 30
0.0
 40
49.999998
  0
CIRCLE
  5
108
100
AcDbEntity
  8
PV
  6
CONTINUOUS
 62
         3
100
AcDbCircle
 10
-39.194504
 20
102.898041
 30
0.0
 40
77.499996
  0
LINE
  5
109
100
AcDbEntity
  8
PV
  6
CONTINUOUS
 62
         3
100
AcDbLine
 10
238.947911
 20
-20.044982
 30
0.0
 11
238.947911
 21
-110.0
 31
0.0
  0
LINE
  5
10A
100
AcDbEntity
  8
PV
  6
CONTINUOUS
 62
         3
100
AcDbLine
 10
126.730525
 20
159.960038
 30
0.0
 11
126.730525
 21
157.048038
 31
0.0
  0
LINE
  5
10B
100
AcDbEntity
  8
PV
  6
CONTINUOUS
 62
         3
100
AcDbLine
 10
120.730525
 20
159.148038
 30
0.0
 11
120.730525
 21
157.648038
 31
0.0
  0
LINE
  5
10C
100
AcDbEntity
  8
PV
  6
CONTINUOUS
 62
         3
100
AcDbLine
 10
101.330526
 20
172.148037
 30
0.0
 11
101.330526
 21
156.148038
 31
0.0
  0
LINE
  5
10D
100
AcDbEntity
  8
PV
  6
CONTINUOUS
 62
         3
100
AcDbLine
 10
114.480526
 20
168.336037
 30
0.0
 11
160.730523
 21
168.336037
 31
0.0
  0
LINE
  5
10E
100
AcDbEntity
  8
PV
  6
CONTINUOUS
 62
         3
100
AcDbLine
 10
114.480526
 20
159.960038
 30
0.0
 11
160.730523
 21
159.960038
 31
0.0
  0
LINE
  5
10F
100
AcDbEntity
  8
PV
  6
CONTINUOUS
 62
         3
100
AcDbLine
 10
114.480526
 20
159.960038
 30
0.0
 11
112.856526
 21
159.148038
 31
0.0
  0
LINE
  5
110
100
AcDbEntity
  8
PV
  6
CONTINUOUS
 62
         3
100
AcDbLine
 10
114.480526
 20
168.336037
 30
0.0
 11
112.856526
 21
169.148037
 31
0.0
  0
LINE
  5
111
100
AcDbEntity
  8
PV
  6
CONTINUOUS
 62
         3
100
AcDbLine
 10
114.480526
 20
169.148037
 30
0.0
 11
114.480526
 21
159.148038
 31
0.0
  0
LINE
  5
112
100
AcDbEntity
  8
PV
  6
CONTINUOUS
 62
         3
100
AcDbLine
 10
135.730525
 20
167.648038
 30
0.0
 11
135.730525
 21
160.648038
 31
0.0
  0
LINE
  5
113
100
AcDbEntity
  8
PV
  6
CONTINUOUS
 62
         3
100
AcDbLine
 10
134.230525
 20
169.148037
 30
0.0
 11
134.230525
 21
159.148038
 31
0.0
  0
LINE
  5
114
100
AcDbEntity
  8
PV
  6
CONTINUOUS
 62
         3
100
AcDbLine
 10
134.230525
 20
159.148038
 30
0.0
 11
135.730525
 21
160.648038
 31
0.0
  0
LINE
  5
115
100
AcDbEntity
  8
PV
  6
CONTINUOUS
 62
         3
100
AcDbLine
 10
134.230525
 20
169.148037
 30
0.0
 11
135.730525
 21
167.648038
 31
0.0
  0
LINE
  5
116
100
AcDbEntity
  8
PV
  6
CONTINUOUS
 62
         3
100
AcDbLine
 10
160.730523
 20
159.148038
 30
0.0
 11
110.730526
 21
159.148038
 31
0.0
  0
LINE
  5
117
100
AcDbEntity
  8
PV
  6
CONTINUOUS
 62
         3
100
AcDbLine
 10
160.730523
 20
169.148037
 30
0.0
 11
110.730526
 21
169.148037
 31
0.0
  0
LINE
  5
118
100
AcDbEntity
  8
PV
  6
CONTINUOUS
 62
         3
100
AcDbLine
 10
126.730525
 20
48.748043
 30
0.0
 11
126.730525
 21
30.398044
 31
0.0
  0
LINE
  5
119
100
AcDbEntity
  8
PV
  6
CONTINUOUS
 62
         3
100
AcDbLine
 10
126.730525
 20
175.398037
 30
0.0
 11
126.730525
 21
168.336037
 31
0.0
  0
LINE
  5
11B
100
AcDbEntity
  8
PV
  6
CENTER
 62
         3
100
AcDbLine
 10
108.501526
 20
102.898041
 30
0.0
 11
167.842523
 21
102.898041
 31
0.0
  0
LINE
  5
11C
100
AcDbEntity
  8
PV
  6
CONTINUOUS
 62
         3
100
AcDbLine
 10
160.730523
 20
52.148043
 30
0.0
 11
120.730525
 21
48.148043
 31
0.0
  0
LINE
  5
11D
100
AcDbEntity
  8
PV
  6
CONTINUOUS
 62
         3
100
AcDbLine
 10
120.730525
 20
157.648038
 30
0.0
 11
160.730523
 21
153.648249
 31
0.0
  0
LINE
  5
11E
100
AcDbEntity
  8
PV
  6
CONTINUOUS
 62
         3
100
AcDbLine
 10
120.730525
 20
37.465044
 30
0.0
 11
110.730526
 21
37.465044
 31
0.0
  0
LINE
  5
11F
100
AcDbEntity
  8
PV
  6
CONTINUOUS
 62
         3
100
AcDbLine
 10
120.730525
 20
36.648044
 30
0.0
 11
110.730526
 21
36.648044
 31
0.0
  0
LINE
  5
120
100
AcDbEntity
  8
PV
  6
CONTINUOUS
 62
         3
100
AcDbLine
 10
110.730526
 20
45.832044
 30
0.0
 11
120.730525
 21
45.832044
 31
0.0
  0
LINE
  5
121
100
AcDbEntity
  8
PV
  6
CONTINUOUS
 62
         3
100
AcDbLine
 10
110.730526
 20
46.648044
 30
0.0
 11
120.730525
 21
46.648044
 31
0.0
  0
LINE
  5
122
100
AcDbEntity
  8
PV
  6
CONTINUOUS
 62
         3
100
AcDbLine
 10
154.730524
 20
154.248038
 30
0.0
 11
154.730524
 21
51.548043
 31
0.0
  0
LINE
  5
123
100
AcDbEntity
  8
PV
  6
CONTINUOUS
 62
         3
100
AcDbLine
 10
120.730525
 20
48.148043
 30
0.0
 11
120.730525
 21
30.398044
 31
0.0
  0
LINE
  5
124
100
AcDbEntity
  8
PV
  6
CENTER
 62
         3
100
AcDbLine
 10
124.050525
 20
41.648044
 30
0.0
 11
107.673526
 21
41.648044
 31
0.0
  0
LINE
  5
125
100
AcDbEntity
  8
PV
  6
CONTINUOUS
 62
         3
100
AcDbLine
 10
120.730525
 20
175.398037
 30
0.0
 11
120.730525
 21
169.148037
 31
0.0
  0
LINE
  5
126
100
AcDbEntity
  8
PV
  6
CENTER
 62
         3
100
AcDbLine
 10
95.108527
 20
164.148038
 30
0.0
 11
166.383523
 21
164.148038
 31
0.0
  0
CIRCLE
  5
127
100
AcDbEntity
  8
PV
  6
CONTINUOUS
 62
         3
100
AcDbCircle
 10
-51.928503
 20
162.810038
 30
0.0
 40
6.961
  0
CIRCLE
  5
128
100
AcDbEntity
  8
PV
  6
CONTINUOUS
 62
         3
100
AcDbCircle
 10
-51.928503
 20
162.810038
 30
0.0
 40
8.0
  0
CIRCLE
  5
129
100
AcDbEntity
  8
PV
  6
CONTINUOUS
 62
         3
100
AcDbCircle
 10
-75.196502
 20
152.450038
 30
0.0
 40
6.961
  0
CIRCLE
  5
12A
100
AcDbEntity
  8
PV
  6
CONTINUOUS
 62
         3
100
AcDbCircle
 10
-75.196502
 20
152.450038
 30
0.0
 40
8.0
  0
CIRCLE
  5
12B
100
AcDbEntity
  8
PV
  6
CONTINUOUS
 62
         3
100
AcDbCircle
 10
-92.238501
 20
133.523039
 30
0.0
 40
6.961
  0
CIRCLE
  5
12C
100
AcDbEntity
  8
PV
  6
CONTINUOUS
 62
         3
100
AcDbCircle
 10
-92.238501
 20
133.523039
 30
0.0
 40
8.0
  0
CIRCLE
  5
12D
100
AcDbEntity
  8
PV
  6
CONTINUOUS
 62
         3
100
AcDbCircle
 10
-100.108501
 20
109.30004
 30
0.0
 40
6.961
  0
CIRCLE
  5
12E
100
AcDbEntity
  8
PV
  6
CONTINUOUS
 62
         3
100
AcDbCircle
 10
-100.108501
 20
109.30004
 30
0.0
 40
8.0
  0
CIRCLE
  5
12F
100
AcDbEntity
  8
PV
  6
CONTINUOUS
 62
         3
100
AcDbCircle
 10
-97.446501
 20
83.971042
 30
0.0
 40
6.961
  0
CIRCLE
  5
130
100
AcDbEntity
  8
PV
  6
CONTINUOUS
 62
         3
100
AcDbCircle
 10
-97.446501
 20
83.971042
 30
0.0
 40
8.0
  0
CIRCLE
  5
131
100
AcDbEntity
  8
PV
  6
CONTINUOUS
 62
         3
100
AcDbCircle
 10
-84.712502
 20
61.914043
 30
0.0
 40
6.961
  0
CIRCLE
  5
132
100
AcDbEntity
  8
PV
  6
CONTINUOUS
 62
         3
100
AcDbCircle
 10
-84.712502
 20
61.914043
 30
0.0
 40
8.0
  0
CIRCLE
  5
133
100
AcDbEntity
  8
PV
  6
CONTINUOUS
 62
         3
100
AcDbCircle
 10
-64.107503
 20
46.943044
 30
0.0
 40
6.961
  0
CIRCLE
  5
134
100
AcDbEntity
  8
PV
  6
CONTINUOUS
 62
         3
100
AcDbCircle
 10
-64.107503
 20
46.943044
 30
0.0
 40
8.0
  0
CIRCLE
  5
135
100
AcDbEntity
  8
PV
  6
CONTINUOUS
 62
         3
100
AcDbCircle
 10
-39.194504
 20
41.648044
 30
0.0
 40
6.961
  0
CIRCLE
  5
136
100
AcDbEntity
  8
PV
  6
CONTINUOUS
 62
         3
100
AcDbCircle
 10
-39.194504
 20
41.648044
 30
0.0
 40
8.0
  0
CIRCLE
  5
137
100
AcDbEntity
  8
PV
  6
CONTINUOUS
 62
         3
100
AcDbCircle
 10
-14.281505
 20
46.943044
 30
0.0
 40
6.961
  0
CIRCLE
  5
138
100
AcDbEntity
  8
PV
  6
CONTINUOUS
 62
         3
100
AcDbCircle
 10
-14.281505
 20
46.943044
 30
0.0
 40
8.0
  0
CIRCLE
  5
139
100
AcDbEntity
  8
PV
  6
CONTINUOUS
 62
         3
100
AcDbCircle
 10
6.323494
 20
61.914043
 30
0.0
 40
6.961
  0
CIRCLE
  5
13A
100
AcDbEntity
  8
PV
  6
CONTINUOUS
 62
         3
100
AcDbCircle
 10
6.323494
 20
61.914043
 30
0.0
 40
8.0
  0
CIRCLE
  5
13B
100
AcDbEntity
  8
PV
  6
CONTINUOUS
 62
         3
100
AcDbCircle
 10
19.057493
 20
83.971042
 30
0.0
 40
6.961
  0
CIRCLE
  5
13C
100
AcDbEntity
  8
PV
  6
CONTINUOUS
 62
         3
100
AcDbCircle
 10
19.057493
 20
83.971042
 30
0.0
 40
8.0
  0
CIRCLE
  5
13D
100
AcDbEntity
  8
PV
  6
CONTINUOUS
 62
         3
100
AcDbCircle
 10
21.720493
 20
109.30004
 30
0.0
 40
6.961
  0
CIRCLE
  5
13E
100
AcDbEntity
  8
PV
  6
CONTINUOUS
 62
         3
100
AcDbCircle
 10
21.720493
 20
109.30004
 30
0.0
 40
8.0
  0
CIRCLE
  5
13F
100
AcDbEntity
  8
PV
  6
CONTINUOUS
 62
         3
100
AcDbCircle
 10
13.849493
 20
133.523039
 30
0.0
 40
6.961
  0
CIRCLE
  5
140
100
AcDbEntity
  8
PV
  6
CONTINUOUS
 62
         3
100
AcDbCircle
 10
13.849493
 20
133.523039
 30
0.0
 40
8.0
  0
CIRCLE
  5
141
100
AcDbEntity
  8
PV
  6
CONTINUOUS
 62
         3
100
AcDbCircle
 10
-3.192506
 20
152.450038
 30
0.0
 40
6.961
  0
CIRCLE
  5
142
100
AcDbEntity
  8
PV
  6
CONTINUOUS
 62
         3
100
AcDbCircle
 10
-3.192506
 20
152.450038
 30
0.0
 40
8.0
  0
CIRCLE
  5
143
100
AcDbEntity
  8
PV
  6
CONTINUOUS
 62
         3
100
AcDbCircle
 10
-26.459505
 20
162.810038
 30
0.0
 40
6.961
  0
CIRCLE
  5
144
100
AcDbEntity
  8
PV
  6
CONTINUOUS
 62
         3
100
AcDbCircle
 10
-26.459505
 20
162.810038
 30
0.0
 40
8.0
  0
CIRCLE
  5
145
100
AcDbEntity
  8
PV
  6
CENTER
 62
         3
100
AcDbCircle
 10
-39.194504
 20
102.898041
 30
0.0
 40
61.249997
  0
CIRCLE
  5
146
100
AcDbEntity
  8
PV
  6
CONTINUOUS
 62
         3
100
AcDbCircle
 10
-92.238501
 20
72.273042
 30
0.0
 40
4.188
  0
CIRCLE
  5
147
100
AcDbEntity
  8
PV
  6
CONTINUOUS
 62
         3
100
AcDbCircle
 10
-92.238501
 20
72.273042
 30
0.0
 40
5.0
  0
CIRCLE
  5
148
100
AcDbEntity
  8
PV
  6
CONTINUOUS
 62
         3
100
AcDbCircle
 10
-39.194504
 20
164.148038
 30
0.0
 40
4.188
  0
CIRCLE
  5
149
100
AcDbEntity
  8
PV
  6
CONTINUOUS
 62
         3
100
AcDbCircle
 10
-39.194504
 20
164.148038
 30
0.0
 40
5.0
  0
CIRCLE
  5
14A
100
AcDbEntity
  8
PV
  6
CONTINUOUS
 62
         3
100
AcDbCircle
 10
13.849493
 20
72.273042
 30
0.0
 40
4.188
  0
CIRCLE
  5
14B
100
AcDbEntity
  8
PV
  6
CONTINUOUS
 62
         3
100
AcDbCircle
 10
13.849493
 20
72.273042
 30
0.0
 40
5.0
  0
LINE
  5
14C
100
AcDbEntity
  8
PV
  6
CONTINUOUS
 62
         3
100
AcDbLine
 10
-55.928503
 20
165.119038
 30
0.0
 11
-55.928503
 21
160.500038
 31
0.0
  0
LINE
  5
14D
100
AcDbEntity
  8
PV
  6
CONTINUOUS
 62
         3
100
AcDbLine
 10
-47.928504
 20
165.119038
 30
0.0
 11
-47.928504
 21
160.500038
 31
0.0
  0
LINE
  5
14E
100
AcDbEntity
  8
PV
  6
CONTINUOUS
 62
         3
100
AcDbLine
 10
-51.928503
 20
158.190038
 30
0.0
 11
-47.928504
 21
160.499038
 31
0.0
  0
LINE
  5
14F
100
AcDbEntity
  8
PV
  6
CONTINUOUS
 62
         3
100
AcDbLine
 10
-51.928503
 20
158.191038
 30
0.0
 11
-55.929503
 21
160.500038
 31
0.0
  0
LINE
  5
150
100
AcDbEntity
  8
PV
  6
CONTINUOUS
 62
         3
100
AcDbLine
 10
-51.928503
 20
167.428038
 30
0.0
 11
-55.928503
 21
165.118038
 31
0.0
  0
LINE
  5
151
100
AcDbEntity
  8
PV
  6
CONTINUOUS
 62
         3
100
AcDbLine
 10
-51.928503
 20
167.428038
 30
0.0
 11
-47.928504
 21
165.119038
 31
0.0
  0
LINE
  5
152
100
AcDbEntity
  8
PV
  6
CONTINUOUS
 62
         3
100
AcDbLine
 10
-79.196502
 20
154.760038
 30
0.0
 11
-79.196502
 21
150.141038
 31
0.0
  0
LINE
  5
153
100
AcDbEntity
  8
PV
  6
CONTINUOUS
 62
         3
100
AcDbLine
 10
-71.196503
 20
154.760038
 30
0.0
 11
-71.196503
 21
150.141038
 31
0.0
  0
LINE
  5
154
100
AcDbEntity
  8
PV
  6
CONTINUOUS
 62
         3
100
AcDbLine
 10
-75.195502
 20
147.831039
 30
0.0
 11
-71.195503
 21
150.140038
 31
0.0
  0
LINE
  5
155
100
AcDbEntity
  8
PV
  6
CONTINUOUS
 62
         3
100
AcDbLine
 10
-75.196502
 20
147.831039
 30
0.0
 11
-79.196502
 21
150.141038
 31
0.0
  0
LINE
  5
156
100
AcDbEntity
  8
PV
  6
CONTINUOUS
 62
         3
100
AcDbLine
 10
-75.195502
 20
157.068038
 30
0.0
 11
-79.195502
 21
154.759038
 31
0.0
  0
LINE
  5
157
100
AcDbEntity
  8
PV
  6
CONTINUOUS
 62
         3
100
AcDbLine
 10
-75.196502
 20
157.069038
 30
0.0
 11
-71.196503
 21
154.760038
 31
0.0
  0
LINE
  5
158
100
AcDbEntity
  8
PV
  6
CONTINUOUS
 62
         3
100
AcDbLine
 10
-96.238501
 20
135.832039
 30
0.0
 11
-96.238501
 21
131.214039
 31
0.0
  0
LINE
  5
159
100
AcDbEntity
  8
PV
  6
CONTINUOUS
 62
         3
100
AcDbLine
 10
-88.238502
 20
135.832039
 30
0.0
 11
-88.238502
 21
131.214039
 31
0.0
  0
LINE
  5
15A
100
AcDbEntity
  8
PV
  6
CONTINUOUS
 62
         3
100
AcDbLine
 10
-92.237501
 20
128.904039
 30
0.0
 11
-88.237502
 21
131.213039
 31
0.0
  0
LINE
  5
15B
100
AcDbEntity
  8
PV
  6
CONTINUOUS
 62
         3
100
AcDbLine
 10
-92.238501
 20
128.904039
 30
0.0
 11
-96.238501
 21
131.214039
 31
0.0
  0
LINE
  5
15C
100
AcDbEntity
  8
PV
  6
CONTINUOUS
 62
         3
100
AcDbLine
 10
-92.237501
 20
138.141039
 30
0.0
 11
-96.237501
 21
135.832039
 31
0.0
  0
LINE
  5
15D
100
AcDbEntity
  8
PV
  6
CONTINUOUS
 62
         3
100
AcDbLine
 10
-92.238501
 20
138.142039
 30
0.0
 11
-88.238502
 21
135.832039
 31
0.0
  0
LINE
  5
15E
100
AcDbEntity
  8
PV
  6
CONTINUOUS
 62
         3
100
AcDbLine
 10
-104.108501
 20
111.61004
 30
0.0
 11
-104.108501
 21
106.991041
 31
0.0
  0
LINE
  5
15F
100
AcDbEntity
  8
PV
  6
CONTINUOUS
 62
         3
100
AcDbLine
 10
-96.108501
 20
111.61004
 30
0.0
 11
-96.108501
 21
106.991041
 31
0.0
  0
LINE
  5
160
100
AcDbEntity
  8
PV
  6
CONTINUOUS
 62
         3
100
AcDbLine
 10
-100.108501
 20
104.681041
 30
0.0
 11
-96.108501
 21
106.991041
 31
0.0
  0
LINE
  5
161
100
AcDbEntity
  8
PV
  6
CONTINUOUS
 62
         3
100
AcDbLine
 10
-100.108501
 20
104.682041
 30
0.0
 11
-104.108501
 21
106.991041
 31
0.0
  0
LINE
  5
162
100
AcDbEntity
  8
PV
  6
CONTINUOUS
 62
         3
100
AcDbLine
 10
-100.108501
 20
113.91804
 30
0.0
 11
-104.108501
 21
111.60904
 31
0.0
  0
LINE
  5
163
100
AcDbEntity
  8
PV
  6
CONTINUOUS
 62
         3
100
AcDbLine
 10
-100.108501
 20
113.91904
 30
0.0
 11
-96.108501
 21
111.61004
 31
0.0
  0
LINE
  5
164
100
AcDbEntity
  8
PV
  6
CONTINUOUS
 62
         3
100
AcDbLine
 10
-101.446501
 20
86.280042
 30
0.0
 11
-101.446501
 21
81.661042
 31
0.0
  0
LINE
  5
165
100
AcDbEntity
  8
PV
  6
CONTINUOUS
 62
         3
100
AcDbLine
 10
-93.446501
 20
86.280042
 30
0.0
 11
-93.446501
 21
81.661042
 31
0.0
  0
LINE
  5
166
100
AcDbEntity
  8
PV
  6
CONTINUOUS
 62
         3
100
AcDbLine
 10
-97.446501
 20
79.352042
 30
0.0
 11
-93.446501
 21
81.661042
 31
0.0
  0
LINE
  5
167
100
AcDbEntity
  8
PV
  6
CONTINUOUS
 62
         3
100
AcDbLine
 10
-97.446501
 20
79.352042
 30
0.0
 11
-101.446501
 21
81.661042
 31
0.0
  0
LINE
  5
168
100
AcDbEntity
  8
PV
  6
CONTINUOUS
 62
         3
100
AcDbLine
 10
-97.446501
 20
88.589041
 30
0.0
 11
-101.446501
 21
86.280042
 31
0.0
  0
LINE
  5
169
100
AcDbEntity
  8
PV
  6
CONTINUOUS
 62
         3
100
AcDbLine
 10
-97.446501
 20
88.589041
 30
0.0
 11
-93.446501
 21
86.280042
 31
0.0
  0
LINE
  5
16A
100
AcDbEntity
  8
PV
  6
CONTINUOUS
 62
         3
100
AcDbLine
 10
-88.712502
 20
64.223043
 30
0.0
 11
-88.712502
 21
59.604043
 31
0.0
  0
LINE
  5
16B
100
AcDbEntity
  8
PV
  6
CONTINUOUS
 62
         3
100
AcDbLine
 10
-80.712502
 20
64.223043
 30
0.0
 11
-80.712502
 21
59.604043
 31
0.0
  0
LINE
  5
16C
100
AcDbEntity
  8
PV
  6
CONTINUOUS
 62
         3
100
AcDbLine
 10
-84.712502
 20
57.295043
 30
0.0
 11
-80.712502
 21
59.605043
 31
0.0
  0
LINE
  5
16D
100
AcDbEntity
  8
PV
  6
CONTINUOUS
 62
         3
100
AcDbLine
 10
-84.712502
 20
57.295043
 30
0.0
 11
-88.712502
 21
59.604043
 31
0.0
  0
LINE
  5
16E
100
AcDbEntity
  8
PV
  6
CONTINUOUS
 62
         3
100
AcDbLine
 10
-84.712502
 20
66.533043
 30
0.0
 11
-88.712502
 21
64.223043
 31
0.0
  0
LINE
  5
16F
100
AcDbEntity
  8
PV
  6
CONTINUOUS
 62
         3
100
AcDbLine
 10
-84.712502
 20
66.533043
 30
0.0
 11
-80.712502
 21
64.223043
 31
0.0
  0
LINE
  5
170
100
AcDbEntity
  8
PV
  6
CONTINUOUS
 62
         3
100
AcDbLine
 10
-68.107503
 20
49.253043
 30
0.0
 11
-68.107503
 21
44.634044
 31
0.0
  0
LINE
  5
171
100
AcDbEntity
  8
PV
  6
CONTINUOUS
 62
         3
100
AcDbLine
 10
-60.107503
 20
49.253043
 30
0.0
 11
-60.107503
 21
44.634044
 31
0.0
  0
LINE
  5
172
100
AcDbEntity
  8
PV
  6
CONTINUOUS
 62
         3
100
AcDbLine
 10
-64.106503
 20
42.325044
 30
0.0
 11
-60.106503
 21
44.634044
 31
0.0
  0
LINE
  5
173
100
AcDbEntity
  8
PV
  6
CONTINUOUS
 62
         3
100
AcDbLine
 10
-64.107503
 20
42.325044
 30
0.0
 11
-68.107503
 21
44.634044
 31
0.0
  0
LINE
  5
174
100
AcDbEntity
  8
PV
  6
CONTINUOUS
 62
         3
100
AcDbLine
 10
-64.106503
 20
51.562043
 30
0.0
 11
-68.106503
 21
49.253043
 31
0.0
  0
LINE
  5
175
100
AcDbEntity
  8
PV
  6
CONTINUOUS
 62
         3
100
AcDbLine
 10
-64.107503
 20
51.562043
 30
0.0
 11
-60.107503
 21
49.253043
 31
0.0
  0
LINE
  5
176
100
AcDbEntity
  8
PV
  6
CONTINUOUS
 62
         3
100
AcDbLine
 10
-43.194504
 20
43.958044
 30
0.0
 11
-43.194504
 21
39.339044
 31
0.0
  0
LINE
  5
177
100
AcDbEntity
  8
PV
  6
CONTINUOUS
 62
         3
100
AcDbLine
 10
-35.194504
 20
43.958044
 30
0.0
 11
-35.194504
 21
39.339044
 31
0.0
  0
LINE
  5
178
100
AcDbEntity
  8
PV
  6
CONTINUOUS
 62
         3
100
AcDbLine
 10
-39.194504
 20
37.029044
 30
0.0
 11
-35.194504
 21
39.339044
 31
0.0
  0
LINE
  5
179
100
AcDbEntity
  8
PV
  6
CONTINUOUS
 62
         3
100
AcDbLine
 10
-39.194504
 20
37.029044
 30
0.0
 11
-43.194504
 21
39.339044
 31
0.0
  0
LINE
  5
17A
100
AcDbEntity
  8
PV
  6
CONTINUOUS
 62
         3
100
AcDbLine
 10
-39.194504
 20
46.267044
 30
0.0
 11
-43.194504
 21
43.957044
 31
0.0
  0
LINE
  5
17B
100
AcDbEntity
  8
PV
  6
CONTINUOUS
 62
         3
100
AcDbLine
 10
-39.194504
 20
46.267044
 30
0.0
 11
-35.194504
 21
43.957044
 31
0.0
  0
LINE
  5
17C
100
AcDbEntity
  8
PV
  6
CONTINUOUS
 62
         3
100
AcDbLine
 10
-18.281505
 20
49.253043
 30
0.0
 11
-18.281505
 21
44.634044
 31
0.0
  0
LINE
  5
17D
100
AcDbEntity
  8
PV
  6
CONTINUOUS
 62
         3
100
AcDbLine
 10
-10.281506
 20
49.253043
 30
0.0
 11
-10.281506
 21
44.634044
 31
0.0
  0
LINE
  5
17E
100
AcDbEntity
  8
PV
  6
CONTINUOUS
 62
         3
100
AcDbLine
 10
-14.281505
 20
42.325044
 30
0.0
 11
-10.281506
 21
44.634044
 31
0.0
  0
LINE
  5
17F
100
AcDbEntity
  8
PV
  6
CONTINUOUS
 62
         3
100
AcDbLine
 10
-14.281505
 20
42.325044
 30
0.0
 11
-18.281505
 21
44.634044
 31
0.0
  0
LINE
  5
180
100
AcDbEntity
  8
PV
  6
CONTINUOUS
 62
         3
100
AcDbLine
 10
-14.281505
 20
51.562043
 30
0.0
 11
-18.281505
 21
49.253043
 31
0.0
  0
LINE
  5
181
100
AcDbEntity
  8
PV
  6
CONTINUOUS
 62
         3
100
AcDbLine
 10
-14.281505
 20
51.562043
 30
0.0
 11
-10.281506
 21
49.253043
 31
0.0
  0
LINE
  5
182
100
AcDbEntity
  8
PV
  6
CONTINUOUS
 62
         3
100
AcDbLine
 10
2.323494
 20
64.223043
 30
0.0
 11
2.323494
 21
59.604043
 31
0.0
  0
LINE
  5
183
100
AcDbEntity
  8
PV
  6
CONTINUOUS
 62
         3
100
AcDbLine
 10
10.323493
 20
64.223043
 30
0.0
 11
10.323493
 21
59.604043
 31
0.0
  0
LINE
  5
184
100
AcDbEntity
  8
PV
  6
CONTINUOUS
 62
         3
100
AcDbLine
 10
6.323494
 20
57.295043
 30
0.0
 11
10.323493
 21
59.605043
 31
0.0
  0
LINE
  5
185
100
AcDbEntity
  8
PV
  6
CONTINUOUS
 62
         3
100
AcDbLine
 10
6.323494
 20
57.295043
 30
0.0
 11
2.323494
 21
59.604043
 31
0.0
  0
LINE
  5
186
100
AcDbEntity
  8
PV
  6
CONTINUOUS
 62
         3
100
AcDbLine
 10
6.323494
 20
66.532043
 30
0.0
 11
2.323494
 21
64.223043
 31
0.0
  0
LINE
  5
187
100
AcDbEntity
  8
PV
  6
CONTINUOUS
 62
         3
100
AcDbLine
 10
6.323494
 20
66.532043
 30
0.0
 11
10.323493
 21
64.223043
 31
0.0
  0
LINE
  5
188
100
AcDbEntity
  8
PV
  6
CONTINUOUS
 62
         3
100
AcDbLine
 10
15.057493
 20
86.280042
 30
0.0
 11
15.057493
 21
81.661042
 31
0.0
  0
LINE
  5
189
100
AcDbEntity
  8
PV
  6
CONTINUOUS
 62
         3
100
AcDbLine
 10
23.057493
 20
86.280042
 30
0.0
 11
23.057493
 21
81.661042
 31
0.0
  0
LINE
  5
18A
100
AcDbEntity
  8
PV
  6
CONTINUOUS
 62
         3
100
AcDbLine
 10
19.057493
 20
79.352042
 30
0.0
 11
23.057493
 21
81.661042
 31
0.0
  0
LINE
  5
18B
100
AcDbEntity
  8
PV
  6
CONTINUOUS
 62
         3
100
AcDbLine
 10
19.057493
 20
79.352042
 30
0.0
 11
15.057493
 21
81.661042
 31
0.0
  0
LINE
  5
18C
100
AcDbEntity
  8
PV
  6
CONTINUOUS
 62
         3
100
AcDbLine
 10
19.057493
 20
88.589041
 30
0.0
 11
15.057493
 21
86.280042
 31
0.0
  0
LINE
  5
18D
100
AcDbEntity
  8
PV
  6
CONTINUOUS
 62
         3
100
AcDbLine
 10
19.057493
 20
88.589041
 30
0.0
 11
23.057493
 21
86.280042
 31
0.0
  0
LINE
  5
18E
100
AcDbEntity
  8
PV
  6
CONTINUOUS
 62
         3
100
AcDbLine
 10
17.720493
 20
111.61004
 30
0.0
 11
17.720493
 21
106.991041
 31
0.0
  0
LINE
  5
18F
100
AcDbEntity
  8
PV
  6
CONTINUOUS
 62
         3
100
AcDbLine
 10
25.719493
 20
111.61004
 30
0.0
 11
25.719493
 21
106.991041
 31
0.0
  0
LINE
  5
190
100
AcDbEntity
  8
PV
  6
CONTINUOUS
 62
         3
100
AcDbLine
 10
21.720493
 20
104.681041
 30
0.0
 11
25.720493
 21
106.991041
 31
0.0
  0
LINE
  5
191
100
AcDbEntity
  8
PV
  6
CONTINUOUS
 62
         3
100
AcDbLine
 10
21.720493
 20
104.682041
 30
0.0
 11
17.719493
 21
106.991041
 31
0.0
  0
LINE
  5
192
100
AcDbEntity
  8
PV
  6
CONTINUOUS
 62
         3
100
AcDbLine
 10
21.720493
 20
113.91904
 30
0.0
 11
17.720493
 21
111.61004
 31
0.0
  0
LINE
  5
193
100
AcDbEntity
  8
PV
  6
CONTINUOUS
 62
         3
100
AcDbLine
 10
21.719493
 20
113.91904
 30
0.0
 11
25.719493
 21
111.61004
 31
0.0
  0
LINE
  5
194
100
AcDbEntity
  8
PV
  6
CONTINUOUS
 62
         3
100
AcDbLine
 10
9.849493
 20
135.832039
 30
0.0
 11
9.849493
 21
131.214039
 31
0.0
  0
LINE
  5
195
100
AcDbEntity
  8
PV
  6
CONTINUOUS
 62
         3
100
AcDbLine
 10
17.849493
 20
135.832039
 30
0.0
 11
17.849493
 21
131.214039
 31
0.0
  0
LINE
  5
196
100
AcDbEntity
  8
PV
  6
CONTINUOUS
 62
         3
100
AcDbLine
 10
13.849493
 20
128.904039
 30
0.0
 11
17.849493
 21
131.213039
 31
0.0
  0
LINE
  5
197
100
AcDbEntity
  8
PV
  6
CONTINUOUS
 62
         3
100
AcDbLine
 10
13.849493
 20
128.904039
 30
0.0
 11
9.849493
 21
131.214039
 31
0.0
  0
LINE
  5
198
100
AcDbEntity
  8
PV
  6
CONTINUOUS
 62
         3
100
AcDbLine
 10
13.849493
 20
138.142039
 30
0.0
 11
9.849493
 21
135.832039
 31
0.0
  0
LINE
  5
199
100
AcDbEntity
  8
PV
  6
CONTINUOUS
 62
         3
100
AcDbLine
 10
13.849493
 20
138.142039
 30
0.0
 11
17.849493
 21
135.833039
 31
0.0
  0
LINE
  5
19A
100
AcDbEntity
  8
PV
  6
CONTINUOUS
 62
         3
100
AcDbLine
 10
-7.192506
 20
154.760038
 30
0.0
 11
-7.192506
 21
150.141038
 31
0.0
  0
LINE
  5
19B
100
AcDbEntity
  8
PV
  6
CONTINUOUS
 62
         3
100
AcDbLine
 10
0.807494
 20
154.760038
 30
0.0
 11
0.807494
 21
150.141038
 31
0.0
  0
LINE
  5
19C
100
AcDbEntity
  8
PV
  6
CONTINUOUS
 62
         3
100
AcDbLine
 10
-3.192506
 20
147.831039
 30
0.0
 11
0.807494
 21
150.141038
 31
0.0
  0
LINE
  5
19D
100
AcDbEntity
  8
PV
  6
CONTINUOUS
 62
         3
100
AcDbLine
 10
-3.192506
 20
147.831039
 30
0.0
 11
-7.192506
 21
150.141038
 31
0.0
  0
LINE
  5
19E
100
AcDbEntity
  8
PV
  6
CONTINUOUS
 62
         3
100
AcDbLine
 10
-3.192506
 20
157.069038
 30
0.0
 11
-7.192506
 21
154.759038
 31
0.0
  0
LINE
  5
19F
100
AcDbEntity
  8
PV
  6
CONTINUOUS
 62
         3
100
AcDbLine
 10
-3.192506
 20
157.069038
 30
0.0
 11
0.807494
 21
154.760038
 31
0.0
  0
LINE
  5
1A0
100
AcDbEntity
  8
PV
  6
CONTINUOUS
 62
         3
100
AcDbLine
 10
-30.459505
 20
165.119038
 30
0.0
 11
-30.459505
 21
160.500038
 31
0.0
  0
LINE
  5
1A1
100
AcDbEntity
  8
PV
  6
CONTINUOUS
 62
         3
100
AcDbLine
 10
-22.459505
 20
165.119038
 30
0.0
 11
-22.459505
 21
160.500038
 31
0.0
  0
LINE
  5
1A2
100
AcDbEntity
  8
PV
  6
CONTINUOUS
 62
         3
100
AcDbLine
 10
-26.459505
 20
158.190038
 30
0.0
 11
-22.459505
 21
160.500038
 31
0.0
  0
LINE
  5
1A3
100
AcDbEntity
  8
PV
  6
CONTINUOUS
 62
         3
100
AcDbLine
 10
-26.459505
 20
158.191038
 30
0.0
 11
-30.459505
 21
160.500038
 31
0.0
  0
LINE
  5
1A4
100
AcDbEntity
  8
PV
  6
CONTINUOUS
 62
         3
100
AcDbLine
 10
-26.459505
 20
167.428038
 30
0.0
 11
-30.459505
 21
165.118038
 31
0.0
  0
LINE
  5
1A5
100
AcDbEntity
  8
PV
  6
CONTINUOUS
 62
         3
100
AcDbLine
 10
-26.459505
 20
167.428038
 30
0.0
 11
-22.459505
 21
165.119038
 31
0.0
  0
LINE
  5
1A6
100
AcDbEntity
  8
PV
  6
CENTER
 62
         3
100
AcDbLine
 10
-49.168504
 20
149.824038
 30
0.0
 11
-56.204503
 21
182.925037
 31
0.0
  0
LINE
  5
1A7
100
AcDbEntity
  8
PV
  6
CENTER
 62
         3
100
AcDbLine
 10
-39.194504
 20
185.398037
 30
0.0
 11
-39.194504
 21
20.398045
 31
0.0
  0
LINE
  5
1A8
100
AcDbEntity
  8
PV
  6
CENTER
 62
         3
100
AcDbLine
 10
-121.6945
 20
102.898041
 30
0.0
 11
43.305492
 21
102.898041
 31
0.0
  0
LINE
  5
1A9
100
AcDbEntity
  8
PV
  6
CENTER
 62
         3
100
AcDbLine
 10
-80.741502
 20
78.911042
 30
0.0
 11
-110.048501
 21
61.991043
 31
0.0
  0
LINE
  5
1AA
100
AcDbEntity
  8
PV
  6
CENTER
 62
         3
100
AcDbLine
 10
-29.219505
 20
149.824038
 30
0.0
 11
-22.184505
 21
182.925037
 31
0.0
  0
LINE
  5
1AB
100
AcDbEntity
  8
PV
  6
CENTER
 62
         3
100
AcDbLine
 10
-74.846502
 20
70.797042
 30
0.0
 11
-99.994501
 21
48.153043
 31
0.0
  0
LINE
  5
1AC
100
AcDbEntity
  8
PV
  6
CENTER
 62
         3
100
AcDbLine
 10
-84.820502
 20
88.073041
 30
0.0
 11
-117.0045
 21
77.616042
 31
0.0
  0
LINE
  5
1AD
100
AcDbEntity
  8
PV
  6
CENTER
 62
         3
100
AcDbLine
 10
-86.905502
 20
107.91304
 30
0.0
 11
-120.5615
 21
111.45004
 31
0.0
  0
LINE
  5
1AE
100
AcDbEntity
  8
PV
  6
CENTER
 62
         3
100
AcDbLine
 10
-80.741502
 20
126.88504
 30
0.0
 11
-110.048501
 21
143.805039
 31
0.0
  0
LINE
  5
1AF
100
AcDbEntity
  8
PV
  6
CENTER
 62
         3
100
AcDbLine
 10
-67.392503
 20
141.710039
 30
0.0
 11
-87.283502
 21
169.088037
 31
0.0
  0
LINE
  5
1B0
100
AcDbEntity
  8
PV
  6
CENTER
 62
         3
100
AcDbLine
 10
2.353494
 20
78.911042
 30
0.0
 11
31.659492
 21
61.990043
 31
0.0
  0
LINE
  5
1B1
100
AcDbEntity
  8
PV
  6
CENTER
 62
         3
100
AcDbLine
 10
-10.995506
 20
141.710039
 30
0.0
 11
8.895493
 21
169.088037
 31
0.0
  0
LINE
  5
1B2
100
AcDbEntity
  8
PV
  6
CENTER
 62
         3
100
AcDbLine
 10
2.353494
 20
126.88504
 30
0.0
 11
31.659492
 21
143.806039
 31
0.0
  0
LINE
  5
1B3
100
AcDbEntity
  8
PV
  6
CENTER
 62
         3
100
AcDbLine
 10
8.517494
 20
107.91304
 30
0.0
 11
42.172492
 21
111.45004
 31
0.0
  0
LINE
  5
1B4
100
AcDbEntity
  8
PV
  6
CENTER
 62
         3
100
AcDbLine
 10
6.432494
 20
88.073041
 30
0.0
 11
38.616492
 21
77.616042
 31
0.0
  0
LINE
  5
1B5
100
AcDbEntity
  8
PV
  6
CENTER
 62
         3
100
AcDbLine
 10
-3.542506
 20
70.797042
 30
0.0
 11
21.606493
 21
48.153043
 31
0.0
  0
LINE
  5
1B6
100
AcDbEntity
  8
PV
  6
CENTER
 62
         3
100
AcDbLine
 10
-19.681505
 20
59.071043
 30
0.0
 11
-5.917506
 21
28.156044
 31
0.0
  0
LINE
  5
1B7
100
AcDbEntity
  8
PV
  6
CENTER
 62
         3
100
AcDbLine
 10
-58.707503
 20
59.071043
 30
0.0
 11
-72.471502
 21
28.156044
 31
0.0
  0
ENDSEC
  0
SECTION
  2
OBJECTS
  0
DICTIONARY
  5
19
100
AcDbDictionary
  3
ACAD_GROUP
350
1A
  3
ACAD_MLINESTYLE
350
1B
  0
DICTIONARY
  5
1A
102
{ACAD_REACTORS
330
19
102
}
100
AcDbDictionary
  0
DICTIONARY
  5
1B
102
{ACAD_REACTORS
330
19
102
}
100
AcDbDictionary
  3
STANDARD
350
1C
  0
MLINESTYLE
  5
1C
102
{ACAD_REACTORS
330
1B
102
}
100
AcDbMlineStyle
  2
Standard
 70
         0
  3

 62
         0
 51
90.0
 52
90.0
 71
         2
 49
0.5
 62
       256
  6
ByLayer
 49
-0.5
 62
       256
  6
ByLayer
  0
ENDSEC
  0
EOF
