  0
SECTION
  2
HEADER
  9
$ACADVER
  1
AC1014
  9
$ACADMAINTVER
 70
         0
  9
$DWGCODEPAGE
  3
ANSI_932
  9
$INSBASE
 10
0.0
 20
0.0
 30
0.0
  9
$EXTMIN
 10
-146.256612
 20
-165.0
 30
0.0
  9
$EXTMAX
 10
175.236564
 20
146.3048615316
 30
0.0
  9
$LIMMIN
 10
-146.256612
 20
-165.0
  9
$LIMMAX
 10
175.236564
 20
146.3048615316
  9
$ORTHOMODE
 70
         0
  9
$REGENMODE
 70
         1
  9
$FILLMODE
 70
         1
  9
$QTEXTMODE
 70
         0
  9
$MIRRTEXT
 70
         1
  9
$DRAGMODE
 70
         2
  9
$LTSCALE
 40
1.0
  9
$OSMODE
 70
         0
  9
$ATTMODE
 70
         1
  9
$TEXTSIZE
 40
3.2000000477
  9
$TRACEWID
 40
0.05
  9
$TEXTSTYLE
  7
MX_NOTE_STANDARD
  9
$CLAYER
  8
0
  9
$CELTYPE
  6
CONTINUOUS
  9
$CECOLOR
 62
       256
  9
$CELTSCALE
 40
1.0
  9
$DELOBJ
 70
         1
  9
$DISPSILH
 70
         0
  9
$DIMSCALE
 40
1.0
  9
$DIMASZ
 40
2.5
  9
$DIMEXO
 40
0.0
  9
$DIMDLI
 40
3.75
  9
$DIMRND
 40
0.0
  9
$DIMDLE
 40
0.0
  9
$DIMEXE
 40
2.5
  9
$DIMTP
 40
0.0
  9
$DIMTM
 40
0.0
  9
$DIMTXT
 40
3.2000000477
  9
$DIMCEN
 40
2.5
  9
$DIMTSZ
 40
0.0
  9
$DIMTOL
 70
         0
  9
$DIMLIM
 70
         0
  9
$DIMTIH
 70
         0
  9
$DIMTOH
 70
         0
  9
$DIMSE1
 70
         0
  9
$DIMSE2
 70
         0
  9
$DIMTAD
 70
         1
  9
$DIMZIN
 70
         8
  9
$DIMBLK
  1

  9
$DIMASO
 70
         1
  9
$DIMSHO
 70
         1
  9
$DIMPOST
  1

  9
$DIMAPOST
  1

  9
$DIMALT
 70
         0
  9
$DIMALTD
 70
         4
  9
$DIMALTF
 40
0.0393700787
  9
$DIMLFAC
 40
1.0
  9
$DIMTOFL
 70
         1
  9
$DIMTVP
 40
0.0
  9
$DIMTIX
 70
         0
  9
$DIMSOXD
 70
         0
  9
$DIMSAH
 70
         1
  9
$DIMBLK1
  1
_OPEN30
  9
$DIMBLK2
  1
_OPEN30
  9
$DIMSTYLE
  2
MXDIMSTYLE
  9
$DIMCLRD
 70
         0
  9
$DIMCLRE
 70
         0
  9
$DIMCLRT
 70
         0
  9
$DIMTFAC
 40
1.0
  9
$DIMGAP
 40
1.0
  9
$DIMJUST
 70
         0
  9
$DIMSD1
 70
         0
  9
$DIMSD2
 70
         0
  9
$DIMTOLJ
 70
         0
  9
$DIMTZIN
 70
         0
  9
$DIMALTZ
 70
         0
  9
$DIMALTTZ
 70
         0
  9
$DIMFIT
 70
         3
  9
$DIMUPT
 70
         0
  9
$DIMUNIT
 70
         2
  9
$DIMDEC
 70
         2
  9
$DIMTDEC
 70
         2
  9
$DIMALTU
 70
         2
  9
$DIMALTTD
 70
         4
  9
$DIMTXSTY
  7
MX_NOTE_STANDARD
  9
$DIMAUNIT
 70
         0
  9
$LUNITS
 70
         2
  9
$LUPREC
 70
         4
  9
$SKETCHINC
 40
0.1
  9
$FILLETRAD
 40
0.0
  9
$AUNITS
 70
         0
  9
$AUPREC
 70
         0
  9
$MENU
  1
acad
  9
$ELEVATION
 40
0.0
  9
$PELEVATION
 40
0.0
  9
$THICKNESS
 40
0.0
  9
$LIMCHECK
 70
         0
  9
$BLIPMODE
 70
         1
  9
$CHAMFERA
 40
0.0
  9
$CHAMFERB
 40
0.0
  9
$CHAMFERC
 40
0.0
  9
$CHAMFERD
 40
0.0
  9
$SKPOLY
 70
         0
  9
$TDCREATE
 40
2456603.419270834
  9
$TDUPDATE
 40
2456603.419270834
  9
$TDINDWG
 40
0.0000000000
  9
$TDUSRTIMER
 40
0.0000000000
  9
$USRTIMER
 70
         1
  9
$ANGBASE
 50
0.0
  9
$ANGDIR
 70
         0
  9
$PDMODE
 70
         0
  9
$PDSIZE
 40
0.0
  9
$PLINEWID
 40
0.0
  9
$COORDS
 70
         1
  9
$SPLFRAME
 70
         0
  9
$SPLINETYPE
 70
         6
  9
$SPLINESEGS
 70
         8
  9
$ATTDIA
 70
         0
  9
$ATTREQ
 70
         1
  9
$HANDLING
 70
         1
  9
$HANDSEED
  5
197
  9
$SURFTAB1
 70
         6
  9
$SURFTAB2
 70
         6
  9
$SURFTYPE
 70
         6
  9
$SURFU
 70
         6
  9
$SURFV
 70
         6
  9
$UCSNAME
  2

  9
$UCSORG
 10
0.0
 20
0.0
 30
0.0
  9
$UCSXDIR
 10
1.0
 20
0.0
 30
0.0
  9
$UCSYDIR
 10
0.0
 20
1.0
 30
0.0
  9
$PUCSNAME
  2

  9
$PUCSORG
 10
0.0
 20
0.0
 30
0.0
  9
$PUCSXDIR
 10
1.0
 20
0.0
 30
0.0
  9
$PUCSYDIR
 10
0.0
 20
1.0
 30
0.0
  9
$USERI1
 70
         0
  9
$USERI2
 70
         0
  9
$USERI3
 70
         0
  9
$USERI4
 70
         0
  9
$USERI5
 70
         0
  9
$USERR1
 40
0.0
  9
$USERR2
 40
0.0
  9
$USERR3
 40
0.0
  9
$USERR4
 40
0.0
  9
$USERR5
 40
0.0
  9
$WORLDVIEW
 70
         1
  9
$SHADEDGE
 70
         3
  9
$SHADEDIF
 70
        70
  9
$TILEMODE
 70
         1
  9
$MAXACTVP
 70
        16
  9
$PINSBASE
 10
0.0
 20
0.0
 30
0.0
  9
$PLIMCHECK
 70
         0
  9
$PEXTMIN
 10
1.0000000000E+20
 20
1.0000000000E+20
 30
1.0000000000E+20
  9
$PEXTMAX
 10
-1.0000000000E+20
 20
-1.0000000000E+20
 30
-1.0000000000E+20
  9
$PLIMMIN
 10
0.0
 20
0.0
  9
$PLIMMAX
 10
12.0
 20
9.0
  9
$UNITMODE
 70
         0
  9
$VISRETAIN
 70
         0
  9
$PLINEGEN
 70
         1
  9
$PSLTSCALE
 70
         0
  9
$TREEDEPTH
 70
      3020
  9
$PICKSTYLE
 70
         1
  9
$CMLSTYLE
  2
Standard
  9
$CMLJUST
 70
         0
  9
$CMLSCALE
 40
1.0
  9
$PROXYGRAPHICS
 70
         0
  9
$MEASUREMENT
 70
         1
  0
ENDSEC
  0
SECTION
  2
CLASSES
  0
CLASS
  1
LWPOLYLINE
  2
AcDbPolyline
  3
"AutoCAD"
 90
        0
280
         0
281
         1
  0
CLASS
  1
IMAGE
  2
AcDbRasterImage
  3
ISM
 90
      127
280
         0
281
         1
  0
CLASS
  1
OLE2FRAME
  2
AcDbOle2Frame
  3
""
 90
        0
280
         0
281
         1
  0
CLASS
  1
HATCH
  2
AcDbHatch
  3
"ACAD_SEDONA"
 90
        0
280
         0
281
         1
  0
CLASS
  1
DICTIONARYVAR
  2
AcDbDictionaryVar
  3
"AutoCAD"
 90
        0
280
         0
281
         0
  0
CLASS
  1
RASTERVARIABLES
  2
AcDbRasterVariables
  3
ISM
 90
        0
280
         0
281
         0
  0
CLASS
  1
IMAGEDEF
  2
AcDbRasterImageDef
  3
ISM
 90
        0
280
         0
281
         0
  0
CLASS
  1
IMAGEDEF_REACTOR
  2
AcDbRasterImageDefReactor
  3
ISM
 90
        1
280
         0
281
         0
  0
CLASS
  1
IDBUFFER
  2
AcDbIdBuffer
  3
"Acad"
 90
        0
280
         0
281
         0
  0
CLASS
  1
SPATIAL_FILTER
  2
AcDbSpatialFilter
  3
"Acad"
 90
        0
280
         0
281
         0
  0
CLASS
  1
XRECORD
  2
AcDbXrecord
  3
"<Built In>"
 90
        0
280
         0
281
         0
  0
CLASS
  1
SORTENTSTABLE
  2
AcDbSortentsTable
  3
"AutoCAD"
 90
        0
280
         0
281
         0
  0
CLASS
  1
LAYER_INDEX
  2
AcDbLayerIndex
  3
"Acad"
 90
        0
280
         0
281
         0
  0
CLASS
  1
SPATIAL_INDEX
  2
AcDbSpatialIndex
  3
"Acad"
 90
        0
280
         0
281
         0
  0
CLASS
  1
OBJECT_PTR
  2
CAseDLPNTableRecord
  3
"ASE-LPNTableRecord"
 90
        1
280
         0
281
         0
  0
CLASS
  1
LAYOUT
  2
AcDbLayout
  3
"AutoCAD 2000"
 90
        0
280
         0
281
         0
  0
CLASS
  1
PLOTSETTINGS
  2
AcDbPlotSettings
  3
"AutoCAD 2000"
 90
        0
280
         0
281
         0
  0
CLASS
  1
ACDBDICTIONARYWDFLT
  2
AcDbDictionaryWithDefault
  3
"AutoCAD 2000"
 90
        0
280
         0
281
         0
  0
CLASS
  1
ACDBPLACEHOLDER
  2
AcDbPlaceHolder
  3
"AutoCAD 2000"
 90
        0
280
         0
281
         0
  0
ENDSEC
  0
SECTION
  2
TABLES
  0
TABLE
  2
VPORT
  5
7
100
AcDbSymbolTable
 70
         1
  0
VPORT
  5
15
100
AcDbSymbolTableRecord
100
AcDbViewportTableRecord
  2
*ACTIVE
 70
         0
 10
0.0
 20
0.0
 11
1.0
 21
1.0
 12
14.489976
 22
-9.3475692342
 13
0.0
 23
0.0
 14
1.0
 24
1.0
 15
0.0
 25
0.0
 16
0.0
 26
0.0
 36
1.0
 17
0.0
 27
0.0
 37
0.0
 40
314.4179101469
 41
1.7320508076
 42
50.0
 43
0.0
 44
0.0
 50
0.0
 51
0.0
 71
         0
 72
       100
 73
         1
 74
         1
 75
         0
 76
         0
 77
         0
 78
         0
  0
ENDTAB
  0
TABLE
  2
LTYPE
  5
4
100
AcDbSymbolTable
 70
         4
  0
LTYPE
  5
11
100
AcDbSymbolTableRecord
100
AcDbLinetypeTableRecord
  2
BYBLOCK
 70
        64
  3

 72
        65
 73
         0
 40
0.0
  0
LTYPE
  5
12
100
AcDbSymbolTableRecord
100
AcDbLinetypeTableRecord
  2
BYLAYER
 70
        64
  3

 72
        65
 73
         0
 40
0.0
  0
LTYPE
  5
13
100
AcDbSymbolTableRecord
100
AcDbLinetypeTableRecord
  2
CONTINUOUS
 70
        64
  3
Solid line
 72
        65
 73
         0
 40
0.0
  0
LTYPE
  5
F8
100
AcDbSymbolTableRecord
100
AcDbLinetypeTableRecord
  2
CENTER
 70
        64
  3
Center ____ _ ____ _ ____ _ ____ _ ____ _ ____
 72
        65
 73
         4
 40
50.8
 49
31.75
 74
         0
 49
-6.35
 74
         0
 49
6.35
 74
         0
 49
-6.35
 74
         0
  0
ENDTAB
  0
TABLE
  2
LAYER
  5
2
100
AcDbSymbolTable
 70
         3
  0
LAYER
  5
14
100
AcDbSymbolTableRecord
100
AcDbLayerTableRecord
  2
0
 70
         0
 62
         7
  6
CONTINUOUS
  0
LAYER
  5
1D
100
AcDbSymbolTableRecord
100
AcDbLayerTableRecord
  2
DEFPOINTS
 70
         0
 62
         7
  6
CONTINUOUS
  0
LAYER
  5
1E
100
AcDbSymbolTableRecord
100
AcDbLayerTableRecord
  2
PV
 70
         0
 62
         3
  6
CONTINUOUS
  0
ENDTAB
  0
TABLE
  2
STYLE
  5
3
100
AcDbSymbolTable
 70
         3
  0
STYLE
  5
17
100
AcDbSymbolTableRecord
100
AcDbTextStyleTableRecord
  2
MX_NOTE_STANDARD
 70
         0
 40
0.0
 41
1.0
 50
0.0
 71
         0
 42
3.2000000477
  3
txt.shx
  4
extfont.shx
  0
STYLE
  5
5B
100
AcDbSymbolTableRecord
100
AcDbTextStyleTableRecord
  2
MX_DIMTXSTY_2
 70
         0
 40
0.0
 41
1.25
 50
0.0
 71
         0
 42
3.2000000477
  3
txt.shx
  4
extfont.shx
  0
STYLE
  5
98
100
AcDbSymbolTableRecord
100
AcDbTextStyleTableRecord
  2
MX_DIMTXSTY_3
 70
         0
 40
0.0
 41
0.9
 50
0.0
 71
         0
 42
3.2000000477
  3
txt.shx
  4
extfont.shx
  0
ENDTAB
  0
TABLE
  2
VIEW
  5
5
100
AcDbSymbolTable
 70
         0
  0
ENDTAB
  0
TABLE
  2
UCS
  5
6
100
AcDbSymbolTable
 70
         0
  0
ENDTAB
  0
TABLE
  2
APPID
  5
8
100
AcDbSymbolTable
 70
         1
  0
APPID
  5
16
100
AcDbSymbolTableRecord
100
AcDbRegAppTableRecord
  2
ACAD
 70
         0
  0
ENDTAB
  0
TABLE
  2
DIMSTYLE
  5
9
100
AcDbSymbolTable
 70
         1
  0
DIMSTYLE
105
18
100
AcDbSymbolTableRecord
100
AcDbDimStyleTableRecord
  2
MXDIMSTYLE
 70
         0
  3

  4

  5

  6
_OPEN30
  7
_OPEN30
 40
1.0
 41
2.5
 42
0.0
 43
3.75
 44
2.5
 45
0.0
 46
0.0
 47
0.0
 48
0.0
 71
         0
 72
         0
 73
         0
 74
         0
 75
         0
 76
         0
 77
         1
 78
         8
140
3.2000000477
141
2.5
142
0.0
143
0.0393700787
144
1.0
145
0.0
146
1.0
147
1.0
170
         0
171
         4
172
         1
173
         1
174
         0
175
         0
176
         0
177
         0
178
         0
270
         2
271
         2
272
         2
273
         2
274
         4
275
         0
280
         0
281
         0
282
         0
283
         0
284
         0
285
         0
286
         0
287
         3
288
         0
340
17
  0
ENDTAB
  0
TABLE
  2
BLOCK_RECORD
  5
1
100
AcDbSymbolTable
 70
         9
  0
BLOCK_RECORD
  5
A
100
AcDbSymbolTableRecord
100
AcDbBlockTableRecord
  2
*MODEL_SPACE
  0
BLOCK_RECORD
  5
B
100
AcDbSymbolTableRecord
100
AcDbBlockTableRecord
  2
*PAPER_SPACE
  0
BLOCK_RECORD
  5
1F
100
AcDbSymbolTableRecord
100
AcDbBlockTableRecord
  2
ARROW
  0
BLOCK_RECORD
  5
20
100
AcDbSymbolTableRecord
100
AcDbBlockTableRecord
  2
_OPEN30
  0
BLOCK_RECORD
  5
43
100
AcDbSymbolTableRecord
100
AcDbBlockTableRecord
  2
*D2
  0
BLOCK_RECORD
  5
52
100
AcDbSymbolTableRecord
100
AcDbBlockTableRecord
  2
*D3
  0
BLOCK_RECORD
  5
62
100
AcDbSymbolTableRecord
100
AcDbBlockTableRecord
  2
*D4
  0
BLOCK_RECORD
  5
71
100
AcDbSymbolTableRecord
100
AcDbBlockTableRecord
  2
*D5
  0
BLOCK_RECORD
  5
80
100
AcDbSymbolTableRecord
100
AcDbBlockTableRecord
  2
*D6
  0
BLOCK_RECORD
  5
8F
100
AcDbSymbolTableRecord
100
AcDbBlockTableRecord
  2
*D7
  0
BLOCK_RECORD
  5
9F
100
AcDbSymbolTableRecord
100
AcDbBlockTableRecord
  2
*D8
  0
ENDTAB
  0
ENDSEC
  0
SECTION
  2
BLOCKS
  0
BLOCK
  5
D
100
AcDbEntity
  8
0
100
AcDbBlockBegin
  2
*MODEL_SPACE
 70
         0
 10
0.0
 20
0.0
 30
0.0
  3
*MODEL_SPACE
  1

  0
ENDBLK
  5
E
100
AcDbEntity
  8
0
100
AcDbBlockEnd
  0
BLOCK
  5
F
100
AcDbEntity
 67
         1
  8
0
100
AcDbBlockBegin
  2
*PAPER_SPACE
 70
         0
 10
0.0
 20
0.0
 30
0.0
  3
*PAPER_SPACE
  1

  0
ENDBLK
  5
10
100
AcDbEntity
 67
         1
  8
0
100
AcDbBlockEnd
  0
BLOCK
  5
26
100
AcDbEntity
  8
0
100
AcDbBlockBegin
  2
ARROW
 70
         0
 10
0.0
 20
0.0
 30
0.0
  3
ARROW
  1

  0
LWPOLYLINE
  5
27
100
AcDbEntity
  8
0
  6
CONTINUOUS
 62
       161
100
AcDbPolyline
 90
        3
 70
         0
 10
3.444741
 20
0.923016
 10
0.0
 20
0.0
 10
3.444741
 20
-0.923016
  0
ENDBLK
  5
28
100
AcDbEntity
  8
0
100
AcDbBlockEnd
  0
BLOCK
  5
21
100
AcDbEntity
  8
0
  6
ByBlock
 62
         0
100
AcDbBlockBegin
  2
_OPEN30
 70
         2
 10
0.0
 20
0.0
 30
0.0
  3
_OPEN30
  1

  0
LINE
  5
22
100
AcDbEntity
  8
0
  6
ByBlock
 62
         0
100
AcDbLine
 10
-1.0
 20
0.267949
 30
0.0
 11
0.0
 21
0.0
 31
0.0
  0
LINE
  5
23
100
AcDbEntity
  8
0
  6
ByBlock
 62
         0
100
AcDbLine
 10
0.0
 20
0.0
 30
0.0
 11
-1.0
 21
-0.267949
 31
0.0
  0
LINE
  5
24
100
AcDbEntity
  8
0
  6
ByBlock
 62
         0
100
AcDbLine
 10
0.0
 20
0.0
 30
0.0
 11
-1.0
 21
0.0
 31
0.0
  0
ENDBLK
  5
25
100
AcDbEntity
  8
0
  6
ByBlock
 62
         0
100
AcDbBlockEnd
  0
BLOCK
  5
44
100
AcDbEntity
  8
0
  6
ByBlock
 62
         0
100
AcDbBlockBegin
  2
*D2
 70
         1
 10
0.0
 20
0.0
 30
0.0
  3
*D2
  1

  0
LINE
  5
45
100
AcDbEntity
  8
0
  6
CONTINUOUS
 62
        80
100
AcDbLine
 10
69.9945
 20
141.038195
 30
0.0
 11
108.0135
 21
141.038195
 31
0.0
  0
LINE
  5
46
100
AcDbEntity
  8
0
  6
CONTINUOUS
 62
        80
100
AcDbLine
 10
69.9945
 20
99.491228
 30
0.0
 11
69.9945
 21
143.038195
 31
0.0
  0
LINE
  5
47
100
AcDbEntity
  8
0
  6
CONTINUOUS
 62
        80
100
AcDbLine
 10
108.0135
 20
101.081026
 30
0.0
 11
108.0135
 21
143.038195
 31
0.0
  0
LINE
  5
48
100
AcDbEntity
  8
0
  6
CONTINUOUS
 62
        80
100
AcDbLine
 10
69.9945
 20
141.038195
 30
0.0
 11
65.9945
 21
141.038195
 31
0.0
  0
LINE
  5
49
100
AcDbEntity
  8
0
  6
CONTINUOUS
 62
        80
100
AcDbLine
 10
108.0135
 20
141.038195
 30
0.0
 11
112.0135
 21
141.038195
 31
0.0
  0
SOLID
  5
4A
100
AcDbEntity
  8
0
  6
CONTINUOUS
 62
        80
100
AcDbTrace
 10
68.9944999702
 20
141.204862005
 30
0.0
 11
68.9944999702
 21
140.871527995
 31
0.0
 12
69.9945
 22
141.038195
 32
0.0
 13
69.9945
 23
141.038195
 33
0.0
  0
SOLID
  5
4B
100
AcDbEntity
  8
0
  6
CONTINUOUS
 62
        80
100
AcDbTrace
 10
109.0135000298
 20
140.871527995
 30
0.0
 11
109.0135000298
 21
141.204862005
 31
0.0
 12
108.0135
 22
141.038195
 32
0.0
 13
108.0135
 23
141.038195
 33
0.0
  0
MTEXT
  5
4C
100
AcDbEntity
  8
0
  6
CONTINUOUS
 62
        80
100
AcDbMText
 10
88.5206669159
 20
143.6381950238
 30
0.0
 40
3.2000000477
 41
0.0
 71
         5
 72
         1
  1
\A1;38
  0
POINT
  5
4D
100
AcDbEntity
  8
DEFPOINTS
  6
CONTINUOUS
 62
         0
100
AcDbPoint
 10
69.9945
 20
99.491228
 30
0.0
  0
POINT
  5
4E
100
AcDbEntity
  8
DEFPOINTS
  6
CONTINUOUS
 62
         0
100
AcDbPoint
 10
108.0135
 20
101.081026
 30
0.0
  0
POINT
  5
4F
100
AcDbEntity
  8
DEFPOINTS
  6
CONTINUOUS
 62
         0
100
AcDbPoint
 10
108.0135
 20
141.038195
 30
0.0
  0
ENDBLK
  5
50
100
AcDbEntity
  8
0
  6
ByBlock
 62
         0
100
AcDbBlockEnd
  0
BLOCK
  5
53
100
AcDbEntity
  8
0
  6
ByBlock
 62
         0
100
AcDbBlockBegin
  2
*D3
 70
         1
 10
0.0
 20
0.0
 30
0.0
  3
*D3
  1

  0
LINE
  5
54
100
AcDbEntity
  8
0
  6
CONTINUOUS
 62
        80
100
AcDbLine
 10
69.9945
 20
131.547913
 30
0.0
 11
79.9995
 21
131.547913
 31
0.0
  0
LINE
  5
55
100
AcDbEntity
  8
0
  6
CONTINUOUS
 62
        80
100
AcDbLine
 10
69.9945
 20
99.49123
 30
0.0
 11
69.9945
 21
133.547913
 31
0.0
  0
LINE
  5
56
100
AcDbEntity
  8
0
  6
CONTINUOUS
 62
        80
100
AcDbLine
 10
79.9995
 20
101.081025
 30
0.0
 11
79.9995
 21
133.547913
 31
0.0
  0
LINE
  5
57
100
AcDbEntity
  8
0
  6
CONTINUOUS
 62
        80
100
AcDbLine
 10
69.9945
 20
131.547913
 30
0.0
 11
65.9945
 21
131.547913
 31
0.0
  0
LINE
  5
58
100
AcDbEntity
  8
0
  6
CONTINUOUS
 62
        80
100
AcDbLine
 10
79.9995
 20
131.547913
 30
0.0
 11
83.9995
 21
131.547913
 31
0.0
  0
SOLID
  5
59
100
AcDbEntity
  8
0
  6
CONTINUOUS
 62
        80
100
AcDbTrace
 10
68.9944999702
 20
131.714580005
 30
0.0
 11
68.9944999702
 21
131.381245995
 31
0.0
 12
69.9945
 22
131.547913
 32
0.0
 13
69.9945
 23
131.547913
 33
0.0
  0
SOLID
  5
5A
100
AcDbEntity
  8
0
  6
CONTINUOUS
 62
        80
100
AcDbTrace
 10
80.9995000298
 20
131.381245995
 30
0.0
 11
80.9995000298
 21
131.714580005
 31
0.0
 12
79.9995
 22
131.547913
 32
0.0
 13
79.9995
 23
131.547913
 33
0.0
  0
MTEXT
  5
5C
100
AcDbEntity
  8
0
  6
CONTINUOUS
 62
        80
100
AcDbMText
 10
74.5136669464
 20
134.1479130238
 30
0.0
 40
3.2000000477
 41
0.0
 71
         5
 72
         1
  1
\A1;10
  7
MX_DIMTXSTY_2
  0
POINT
  5
5D
100
AcDbEntity
  8
DEFPOINTS
  6
CONTINUOUS
 62
         0
100
AcDbPoint
 10
69.9945
 20
99.49123
 30
0.0
  0
POINT
  5
5E
100
AcDbEntity
  8
DEFPOINTS
  6
CONTINUOUS
 62
         0
100
AcDbPoint
 10
79.9995
 20
101.081025
 30
0.0
  0
POINT
  5
5F
100
AcDbEntity
  8
DEFPOINTS
  6
CONTINUOUS
 62
         0
100
AcDbPoint
 10
79.9995
 20
131.547913
 30
0.0
  0
ENDBLK
  5
60
100
AcDbEntity
  8
0
  6
ByBlock
 62
         0
100
AcDbBlockEnd
  0
BLOCK
  5
63
100
AcDbEntity
  8
0
  6
ByBlock
 62
         0
100
AcDbBlockBegin
  2
*D4
 70
         1
 10
0.0
 20
0.0
 30
0.0
  3
*D4
  1

  0
LINE
  5
64
100
AcDbEntity
  8
0
  6
CONTINUOUS
 62
        80
100
AcDbLine
 10
79.9995
 20
131.547913
 30
0.0
 11
108.0135
 21
131.547913
 31
0.0
  0
LINE
  5
65
100
AcDbEntity
  8
0
  6
CONTINUOUS
 62
        80
100
AcDbLine
 10
79.9995
 20
101.081025
 30
0.0
 11
79.9995
 21
133.547913
 31
0.0
  0
LINE
  5
66
100
AcDbEntity
  8
0
  6
CONTINUOUS
 62
        80
100
AcDbLine
 10
108.0135
 20
101.081025
 30
0.0
 11
108.0135
 21
133.547913
 31
0.0
  0
LINE
  5
67
100
AcDbEntity
  8
0
  6
CONTINUOUS
 62
        80
100
AcDbLine
 10
79.9995
 20
131.547913
 30
0.0
 11
75.9995
 21
131.547913
 31
0.0
  0
LINE
  5
68
100
AcDbEntity
  8
0
  6
CONTINUOUS
 62
        80
100
AcDbLine
 10
108.0135
 20
131.547913
 30
0.0
 11
112.0135
 21
131.547913
 31
0.0
  0
SOLID
  5
69
100
AcDbEntity
  8
0
  6
CONTINUOUS
 62
        80
100
AcDbTrace
 10
78.9994999702
 20
131.714580005
 30
0.0
 11
78.9994999702
 21
131.381245995
 31
0.0
 12
79.9995
 22
131.547913
 32
0.0
 13
79.9995
 23
131.547913
 33
0.0
  0
SOLID
  5
6A
100
AcDbEntity
  8
0
  6
CONTINUOUS
 62
        80
100
AcDbTrace
 10
109.0135000298
 20
131.381245995
 30
0.0
 11
109.0135000298
 21
131.714580005
 31
0.0
 12
108.0135
 22
131.547913
 32
0.0
 13
108.0135
 23
131.547913
 33
0.0
  0
MTEXT
  5
6B
100
AcDbEntity
  8
0
  6
CONTINUOUS
 62
        80
100
AcDbMText
 10
93.5231663818
 20
134.1479130238
 30
0.0
 40
3.2000000477
 41
0.0
 71
         5
 72
         1
  1
\A1;28
  0
POINT
  5
6C
100
AcDbEntity
  8
DEFPOINTS
  6
CONTINUOUS
 62
         0
100
AcDbPoint
 10
79.9995
 20
101.081025
 30
0.0
  0
POINT
  5
6D
100
AcDbEntity
  8
DEFPOINTS
  6
CONTINUOUS
 62
         0
100
AcDbPoint
 10
108.0135
 20
101.081025
 30
0.0
  0
POINT
  5
6E
100
AcDbEntity
  8
DEFPOINTS
  6
CONTINUOUS
 62
         0
100
AcDbPoint
 10
108.0135
 20
131.547913
 30
0.0
  0
ENDBLK
  5
6F
100
AcDbEntity
  8
0
  6
ByBlock
 62
         0
100
AcDbBlockEnd
  0
BLOCK
  5
72
100
AcDbEntity
  8
0
  6
ByBlock
 62
         0
100
AcDbBlockBegin
  2
*D5
 70
         1
 10
0.0
 20
0.0
 30
0.0
  3
*D5
  1

  0
LINE
  5
73
100
AcDbEntity
  8
0
  6
CONTINUOUS
 62
        80
100
AcDbLine
 10
81.50025
 20
122.05763
 30
0.0
 11
106.51275
 21
122.05763
 31
0.0
  0
LINE
  5
74
100
AcDbEntity
  8
0
  6
CONTINUOUS
 62
        80
100
AcDbLine
 10
81.50025
 20
102.531751
 30
0.0
 11
81.50025
 21
124.05763
 31
0.0
  0
LINE
  5
75
100
AcDbEntity
  8
0
  6
CONTINUOUS
 62
        80
100
AcDbLine
 10
106.51275
 20
102.531751
 30
0.0
 11
106.51275
 21
124.05763
 31
0.0
  0
LINE
  5
76
100
AcDbEntity
  8
0
  6
CONTINUOUS
 62
        80
100
AcDbLine
 10
81.50025
 20
122.05763
 30
0.0
 11
77.50025
 21
122.05763
 31
0.0
  0
LINE
  5
77
100
AcDbEntity
  8
0
  6
CONTINUOUS
 62
        80
100
AcDbLine
 10
106.51275
 20
122.05763
 30
0.0
 11
110.51275
 21
122.05763
 31
0.0
  0
SOLID
  5
78
100
AcDbEntity
  8
0
  6
CONTINUOUS
 62
        80
100
AcDbTrace
 10
80.5002499702
 20
122.224297005
 30
0.0
 11
80.5002499702
 21
121.890962995
 31
0.0
 12
81.50025
 22
122.05763
 32
0.0
 13
81.50025
 23
122.05763
 33
0.0
  0
SOLID
  5
79
100
AcDbEntity
  8
0
  6
CONTINUOUS
 62
        80
100
AcDbTrace
 10
107.5127500298
 20
121.890962995
 30
0.0
 11
107.5127500298
 21
122.224297005
 31
0.0
 12
106.51275
 22
122.05763
 32
0.0
 13
106.51275
 23
122.05763
 33
0.0
  0
MTEXT
  5
7A
100
AcDbEntity
  8
0
  6
CONTINUOUS
 62
        80
100
AcDbMText
 10
93.5231667938
 20
124.6576300238
 30
0.0
 40
3.2000000477
 41
0.0
 71
         5
 72
         1
  1
\A1;25
  0
POINT
  5
7B
100
AcDbEntity
  8
DEFPOINTS
  6
CONTINUOUS
 62
         0
100
AcDbPoint
 10
81.50025
 20
102.531751
 30
0.0
  0
POINT
  5
7C
100
AcDbEntity
  8
DEFPOINTS
  6
CONTINUOUS
 62
         0
100
AcDbPoint
 10
106.51275
 20
102.531751
 30
0.0
  0
POINT
  5
7D
100
AcDbEntity
  8
DEFPOINTS
  6
CONTINUOUS
 62
         0
100
AcDbPoint
 10
106.51275
 20
122.05763
 30
0.0
  0
ENDBLK
  5
7E
100
AcDbEntity
  8
0
  6
ByBlock
 62
         0
100
AcDbBlockEnd
  0
BLOCK
  5
81
100
AcDbEntity
  8
0
  6
ByBlock
 62
         0
100
AcDbBlockBegin
  2
*D6
 70
         1
 10
0.0
 20
0.0
 30
0.0
  3
*D6
  1

  0
LINE
  5
82
100
AcDbEntity
  8
0
  6
CONTINUOUS
 62
        80
100
AcDbLine
 10
145.640411
 20
102.53175
 30
0.0
 11
145.640411
 21
-22.53075
 31
0.0
  0
LINE
  5
83
100
AcDbEntity
  8
0
  6
CONTINUOUS
 62
        80
100
AcDbLine
 10
106.512748
 20
102.53175
 30
0.0
 11
147.640411
 21
102.53175
 31
0.0
  0
LINE
  5
84
100
AcDbEntity
  8
0
  6
CONTINUOUS
 62
        80
100
AcDbLine
 10
106.512748
 20
-22.53075
 30
0.0
 11
147.640411
 21
-22.53075
 31
0.0
  0
LINE
  5
85
100
AcDbEntity
  8
0
  6
CONTINUOUS
 62
        80
100
AcDbLine
 10
145.640411
 20
102.53175
 30
0.0
 11
145.640411
 21
106.53175
 31
0.0
  0
LINE
  5
86
100
AcDbEntity
  8
0
  6
CONTINUOUS
 62
        80
100
AcDbLine
 10
145.640411
 20
-22.53075
 30
0.0
 11
145.640411
 21
-26.53075
 31
0.0
  0
SOLID
  5
87
100
AcDbEntity
  8
0
  6
CONTINUOUS
 62
        80
100
AcDbTrace
 10
145.807078005
 20
103.5317500298
 30
0.0
 11
145.473743995
 21
103.5317500298
 31
0.0
 12
145.640411
 22
102.53175
 32
0.0
 13
145.640411
 23
102.53175
 33
0.0
  0
SOLID
  5
88
100
AcDbEntity
  8
0
  6
CONTINUOUS
 62
        80
100
AcDbTrace
 10
145.473743995
 20
-23.5307500298
 30
0.0
 11
145.807078005
 21
-23.5307500298
 31
0.0
 12
145.640411
 22
-22.53075
 32
0.0
 13
145.640411
 23
-22.53075
 33
0.0
  0
MTEXT
  5
89
100
AcDbEntity
  8
0
  6
CONTINUOUS
 62
        80
100
AcDbMText
 10
143.0404109762
 20
39.3171656494
 30
0.0
 40
3.2000000477
 41
0.0
 71
         5
 72
         1
  1
\A1;\U+2205125
 11
0.0
 21
1.0
 31
0.0
  0
POINT
  5
8A
100
AcDbEntity
  8
DEFPOINTS
  6
CONTINUOUS
 62
         0
100
AcDbPoint
 10
106.512748
 20
102.53175
 30
0.0
  0
POINT
  5
8B
100
AcDbEntity
  8
DEFPOINTS
  6
CONTINUOUS
 62
         0
100
AcDbPoint
 10
106.512748
 20
-22.53075
 30
0.0
  0
POINT
  5
8C
100
AcDbEntity
  8
DEFPOINTS
  6
CONTINUOUS
 62
         0
100
AcDbPoint
 10
145.640411
 20
-22.53075
 30
0.0
  0
ENDBLK
  5
8D
100
AcDbEntity
  8
0
  6
ByBlock
 62
         0
100
AcDbBlockEnd
  0
BLOCK
  5
90
100
AcDbEntity
  8
0
  6
ByBlock
 62
         0
100
AcDbBlockBegin
  2
*D7
 70
         1
 10
0.0
 20
0.0
 30
0.0
  3
*D7
  1

  0
LINE
  5
91
100
AcDbEntity
  8
0
  6
CONTINUOUS
 62
        80
100
AcDbLine
 10
128.153686
 20
82.52175
 30
0.0
 11
128.153686
 21
-2.52075
 31
0.0
  0
LINE
  5
92
100
AcDbEntity
  8
0
  6
CONTINUOUS
 62
        80
100
AcDbLine
 10
106.51275
 20
82.52175
 30
0.0
 11
130.153686
 21
82.52175
 31
0.0
  0
LINE
  5
93
100
AcDbEntity
  8
0
  6
CONTINUOUS
 62
        80
100
AcDbLine
 10
106.51275
 20
-2.52075
 30
0.0
 11
130.153686
 21
-2.52075
 31
0.0
  0
LINE
  5
94
100
AcDbEntity
  8
0
  6
CONTINUOUS
 62
        80
100
AcDbLine
 10
128.153686
 20
82.52175
 30
0.0
 11
128.153686
 21
86.52175
 31
0.0
  0
LINE
  5
95
100
AcDbEntity
  8
0
  6
CONTINUOUS
 62
        80
100
AcDbLine
 10
128.153686
 20
-2.52075
 30
0.0
 11
128.153686
 21
-6.52075
 31
0.0
  0
SOLID
  5
96
100
AcDbEntity
  8
0
  6
CONTINUOUS
 62
        80
100
AcDbTrace
 10
128.320353005
 20
83.5217500298
 30
0.0
 11
127.987018995
 21
83.5217500298
 31
0.0
 12
128.153686
 22
82.52175
 32
0.0
 13
128.153686
 23
82.52175
 33
0.0
  0
SOLID
  5
97
100
AcDbEntity
  8
0
  6
CONTINUOUS
 62
        80
100
AcDbTrace
 10
127.987018995
 20
-3.5207500298
 30
0.0
 11
128.320353005
 21
-3.5207500298
 31
0.0
 12
128.153686
 22
-2.52075
 32
0.0
 13
128.153686
 23
-2.52075
 33
0.0
  0
MTEXT
  5
99
100
AcDbEntity
  8
0
  6
CONTINUOUS
 62
        80
100
AcDbMText
 10
125.5536859762
 20
39.4171624451
 30
0.0
 40
3.2000000477
 41
0.0
 71
         5
 72
         1
  1
\A1;\U+220585
  7
MX_DIMTXSTY_3
 11
0.0
 21
1.0
 31
0.0
  0
POINT
  5
9A
100
AcDbEntity
  8
DEFPOINTS
  6
CONTINUOUS
 62
         0
100
AcDbPoint
 10
106.51275
 20
82.52175
 30
0.0
  0
POINT
  5
9B
100
AcDbEntity
  8
DEFPOINTS
  6
CONTINUOUS
 62
         0
100
AcDbPoint
 10
106.51275
 20
-2.52075
 30
0.0
  0
POINT
  5
9C
100
AcDbEntity
  8
DEFPOINTS
  6
CONTINUOUS
 62
         0
100
AcDbPoint
 10
128.153686
 20
-2.52075
 30
0.0
  0
ENDBLK
  5
9D
100
AcDbEntity
  8
0
  6
ByBlock
 62
         0
100
AcDbBlockEnd
  0
BLOCK
  5
A0
100
AcDbEntity
  8
0
  6
ByBlock
 62
         0
100
AcDbBlockBegin
  2
*D8
 70
         1
 10
0.0
 20
0.0
 30
0.0
  3
*D8
  1

  0
LINE
  5
A1
100
AcDbEntity
  8
0
  6
CONTINUOUS
 62
        80
100
AcDbLine
 10
56.500766
 20
-12.52575
 30
0.0
 11
56.500766
 21
92.52675
 31
0.0
  0
LINE
  5
A2
100
AcDbEntity
  8
0
  6
CONTINUOUS
 62
        80
100
AcDbLine
 10
75.152078
 20
-12.52575
 30
0.0
 11
54.500766
 21
-12.52575
 31
0.0
  0
LINE
  5
A3
100
AcDbEntity
  8
0
  6
CONTINUOUS
 62
        80
100
AcDbLine
 10
64.992
 20
92.52675
 30
0.0
 11
54.500766
 21
92.52675
 31
0.0
  0
LINE
  5
A4
100
AcDbEntity
  8
0
  6
CONTINUOUS
 62
        80
100
AcDbLine
 10
56.500766
 20
-12.52575
 30
0.0
 11
56.500766
 21
-16.52575
 31
0.0
  0
LINE
  5
A5
100
AcDbEntity
  8
0
  6
CONTINUOUS
 62
        80
100
AcDbLine
 10
56.500766
 20
92.52675
 30
0.0
 11
56.500766
 21
96.52675
 31
0.0
  0
SOLID
  5
A6
100
AcDbEntity
  8
0
  6
CONTINUOUS
 62
        80
100
AcDbTrace
 10
56.334098995
 20
-13.5257500298
 30
0.0
 11
56.667433005
 21
-13.5257500298
 31
0.0
 12
56.500766
 22
-12.52575
 32
0.0
 13
56.500766
 23
-12.52575
 33
0.0
  0
SOLID
  5
A7
100
AcDbEntity
  8
0
  6
CONTINUOUS
 62
        80
100
AcDbTrace
 10
56.667433005
 20
93.5267500298
 30
0.0
 11
56.334098995
 21
93.5267500298
 31
0.0
 12
56.500766
 22
92.52675
 32
0.0
 13
56.500766
 23
92.52675
 33
0.0
  0
MTEXT
  5
A8
100
AcDbEntity
  8
0
  6
CONTINUOUS
 62
        80
100
AcDbMText
 10
53.9007659762
 20
39.3171645813
 30
0.0
 40
3.2000000477
 41
0.0
 71
         5
 72
         1
  1
\A1;\U+2205105
 11
0.0
 21
1.0
 31
0.0
  0
POINT
  5
A9
100
AcDbEntity
  8
DEFPOINTS
  6
CONTINUOUS
 62
         0
100
AcDbPoint
 10
75.152078
 20
-12.52575
 30
0.0
  0
POINT
  5
AA
100
AcDbEntity
  8
DEFPOINTS
  6
CONTINUOUS
 62
         0
100
AcDbPoint
 10
64.992
 20
92.52675
 30
0.0
  0
POINT
  5
AB
100
AcDbEntity
  8
DEFPOINTS
  6
CONTINUOUS
 62
         0
100
AcDbPoint
 10
56.500766
 20
92.52675
 30
0.0
  0
ENDBLK
  5
AC
100
AcDbEntity
  8
0
  6
ByBlock
 62
         0
100
AcDbBlockEnd
  0
ENDSEC
  0
SECTION
  2
ENTITIES
  0
MTEXT
  5
29
100
AcDbEntity
  8
0
  6
CONTINUOUS
 62
       110
100
AcDbMText
 10
-31.5183894811
 20
-39.753211
 30
0.0
 40
4.8000001907
 41
0.0
 71
         1
 72
         1
  1
\T1.065;\W1.018;\A1;TSUBAKI
  0
MTEXT
  5
2A
100
AcDbEntity
  8
0
  6
CONTINUOUS
 62
       110
100
AcDbMText
 10
-75.5850344811
 20
-75.847
 30
0.0
 40
4.8000001907
 41
0.0
 71
         1
 72
         1
  1
\T1.065;\W1.018;\A1;TSUBAKI
  0
MTEXT
  5
2B
100
AcDbEntity
  8
PV
  6
CONTINUOUS
 62
       110
100
AcDbMText
 10
-116.7173829682
 20
-158.298
 30
0.0
 40
4.8000001907
 41
0.0
 71
         1
 72
         1
  1
\A1;MASS
  0
MTEXT
  5
2C
100
AcDbEntity
  8
PV
  6
CONTINUOUS
 62
       110
100
AcDbMText
 10
-50.6672497571
 20
-86.4705
 30
0.0
 40
4.8000001907
 41
0.0
 71
         1
 72
         1
  1
\T1.006;\W1.063;\A1;POWER LOCK
  0
MTEXT
  5
2D
100
AcDbEntity
  8
PV
  6
CONTINUOUS
 62
       110
100
AcDbMText
 10
-116.5035399625
 20
-113.298
 30
0.0
 40
4.8000001907
 41
0.0
 71
         1
 72
         1
  1
\T1.083;\W1.076;\A1;TIGHTENING TORQUE OF LOCKING BOLTS
  0
MTEXT
  5
2E
100
AcDbEntity
  8
PV
  6
CONTINUOUS
 62
       110
100
AcDbMText
 10
-116.4626203999
 20
-104.298
 30
0.0
 40
4.8000001907
 41
0.0
 71
         1
 72
         1
  1
\T1.096;\W1.097;\A1;QUANTITY AND SIZE OF LOCKING BOLTS
  0
MTEXT
  5
2F
100
AcDbEntity
  8
PV
  6
CONTINUOUS
 62
       110
100
AcDbMText
 10
-116.5779716821
 20
-122.298
 30
0.0
 40
4.8000001907
 41
0.0
 71
         1
 72
         1
  1
\T1.057;\W1.031;\A1;TRANSMISSIBLE TORQUE
  0
MTEXT
  5
30
100
AcDbEntity
  8
PV
  6
CONTINUOUS
 62
       110
100
AcDbMText
 10
-116.5779716821
 20
-131.298
 30
0.0
 40
4.8000001907
 41
0.0
 71
         1
 72
         1
  1
\T1.057;\W1.031;\A1;TRANSMISSIBLE THRUST
  0
MTEXT
  5
31
100
AcDbEntity
  8
PV
  6
CONTINUOUS
 62
       110
100
AcDbMText
 10
-116.5870021053
 20
-140.298
 30
0.0
 40
4.8000001907
 41
0.0
 71
         1
 72
         1
  1
\T1.051;\W1.077;\A1;CONTACT PRESSURE OF SHAFT
  0
MTEXT
  5
32
100
AcDbEntity
  8
PV
  6
CONTINUOUS
 62
       110
100
AcDbMText
 10
-116.5583104551
 20
-149.298
 30
0.0
 40
4.8000001907
 41
0.0
 71
         1
 72
         1
  1
\T1.061;\W1.093;\A1;CONTACT PRESSURE OF HUB BORE
  0
MTEXT
  5
33
100
AcDbEntity
  8
PV
  6
CONTINUOUS
 62
       110
100
AcDbMText
 10
-116.6302589445
 20
-95.298
 30
0.0
 40
4.8000001907
 41
0.0
 71
         1
 72
         1
  1
\T1.034;\W1.053;\A1;MODEL NUMBER
  0
MTEXT
  5
34
100
AcDbEntity
  8
PV
  6
CONTINUOUS
 62
       110
100
AcDbMText
 10
-29.5532497571
 20
-48.5565
 30
0.0
 40
4.8000001907
 41
0.0
 71
         1
 72
         1
  1
\T1.006;\W1.063;\A1;POWER LOCK
  0
MTEXT
  5
35
100
AcDbEntity
  8
PV
  6
CONTINUOUS
 62
       110
100
AcDbMText
 10
-29.5322879894
 20
-57.5565
 30
0.0
 40
4.8000001907
 41
0.0
 71
         1
 72
         1
  1
\W1.048;\A1;PL085X125AS
  0
LINE
  5
36
100
AcDbEntity
  8
PV
  6
CONTINUOUS
 62
         3
100
AcDbLine
 10
48.733117
 20
-93.0
 30
0.0
 11
48.733117
 21
-165.0
 31
0.0
  0
LINE
  5
37
100
AcDbEntity
  8
PV
  6
CONTINUOUS
 62
         3
100
AcDbLine
 10
-123.426382
 20
-75.0
 30
0.0
 11
-123.426382
 21
-165.0
 31
0.0
  0
LINE
  5
38
100
AcDbEntity
  8
PV
  6
CONTINUOUS
 62
         3
100
AcDbLine
 10
-123.426382
 20
-75.0
 30
0.0
 11
175.236564
 21
-75.0
 31
0.0
  0
LINE
  5
39
100
AcDbEntity
  8
PV
  6
CONTINUOUS
 62
         3
100
AcDbLine
 10
-123.426382
 20
-165.0
 30
0.0
 11
175.236564
 21
-165.0
 31
0.0
  0
LINE
  5
3A
100
AcDbEntity
  8
PV
  6
CONTINUOUS
 62
         3
100
AcDbLine
 10
-123.426382
 20
-156.0
 30
0.0
 11
175.236564
 21
-156.0
 31
0.0
  0
LINE
  5
3B
100
AcDbEntity
  8
PV
  6
CONTINUOUS
 62
         3
100
AcDbLine
 10
-123.426382
 20
-147.0
 30
0.0
 11
175.236564
 21
-147.0
 31
0.0
  0
LINE
  5
3C
100
AcDbEntity
  8
PV
  6
CONTINUOUS
 62
         3
100
AcDbLine
 10
-123.426382
 20
-138.0
 30
0.0
 11
175.236564
 21
-138.0
 31
0.0
  0
LINE
  5
3D
100
AcDbEntity
  8
PV
  6
CONTINUOUS
 62
         3
100
AcDbLine
 10
-123.426382
 20
-129.0
 30
0.0
 11
175.236564
 21
-129.0
 31
0.0
  0
LINE
  5
3E
100
AcDbEntity
  8
PV
  6
CONTINUOUS
 62
         3
100
AcDbLine
 10
-123.426382
 20
-120.0
 30
0.0
 11
175.236564
 21
-120.0
 31
0.0
  0
LINE
  5
3F
100
AcDbEntity
  8
PV
  6
CONTINUOUS
 62
         3
100
AcDbLine
 10
-123.426382
 20
-111.0
 30
0.0
 11
175.236564
 21
-111.0
 31
0.0
  0
LINE
  5
40
100
AcDbEntity
  8
PV
  6
CONTINUOUS
 62
         3
100
AcDbLine
 10
-123.426382
 20
-102.0
 30
0.0
 11
175.236564
 21
-102.0
 31
0.0
  0
LINE
  5
41
100
AcDbEntity
  8
PV
  6
CONTINUOUS
 62
         3
100
AcDbLine
 10
-123.426382
 20
-93.0
 30
0.0
 11
175.236564
 21
-93.0
 31
0.0
  0
LINE
  5
42
100
AcDbEntity
  8
PV
  6
CONTINUOUS
 62
         3
100
AcDbLine
 10
-123.426382
 20
-84.0
 30
0.0
 11
175.236564
 21
-84.0
 31
0.0
  0
DIMENSION
  5
51
100
AcDbEntity
  8
PV
  6
CONTINUOUS
 62
        80
100
AcDbDimension
  2
*D2
 10
108.0135
 20
141.038195
 30
0.0
 11
88.5206669159
 21
141.038195
 31
0.0
 70
       128
  1
\A1;<>
  3
MXDIMSTYLE
100
AcDbAlignedDimension
 13
69.9945
 23
99.491228
 33
0.0
 14
108.0135
 24
101.081026
 34
0.0
100
AcDbRotatedDimension
1001
ACAD
1000
DSTYLE
1002
{
1070
         6
1000
SOLID
1070
         7
1000
SOLID
1070
        41
1040
1.0000000298
1070
        44
1040
2.0
1070
       271
1070
         4
1070
       284
1070
         8
1070
       343
1005
0
1070
       344
1005
0
1002
}
  0
DIMENSION
  5
61
100
AcDbEntity
  8
PV
  6
CONTINUOUS
 62
        80
100
AcDbDimension
  2
*D3
 10
79.9995
 20
131.547913
 30
0.0
 11
74.5136669464
 21
131.547913
 31
0.0
 70
       128
  1
\A1;<>
  3
MXDIMSTYLE
100
AcDbAlignedDimension
 13
69.9945
 23
99.49123
 33
0.0
 14
79.9995
 24
101.081025
 34
0.0
100
AcDbRotatedDimension
1001
ACAD
1000
DSTYLE
1002
{
1070
         6
1000
SOLID
1070
         7
1000
SOLID
1070
        41
1040
1.0000000298
1070
        44
1040
2.0
1070
       271
1070
         4
1070
       284
1070
         8
1070
       340
1005
5B
1070
       343
1005
0
1070
       344
1005
0
1002
}
  0
DIMENSION
  5
70
100
AcDbEntity
  8
PV
  6
CONTINUOUS
 62
        80
100
AcDbDimension
  2
*D4
 10
108.0135
 20
131.547913
 30
0.0
 11
93.5231663818
 21
131.547913
 31
0.0
 70
       128
  1
\A1;<>
  3
MXDIMSTYLE
100
AcDbAlignedDimension
 13
79.9995
 23
101.081025
 33
0.0
 14
108.0135
 24
101.081025
 34
0.0
100
AcDbRotatedDimension
1001
ACAD
1000
DSTYLE
1002
{
1070
         6
1000
SOLID
1070
         7
1000
SOLID
1070
        41
1040
1.0000000298
1070
        44
1040
2.0
1070
       271
1070
         4
1070
       284
1070
         8
1070
       343
1005
0
1070
       344
1005
0
1002
}
  0
DIMENSION
  5
7F
100
AcDbEntity
  8
PV
  6
CONTINUOUS
 62
        80
100
AcDbDimension
  2
*D5
 10
106.51275
 20
122.05763
 30
0.0
 11
93.5231667938
 21
122.05763
 31
0.0
 70
       128
  1
\A1;<>
  3
MXDIMSTYLE
100
AcDbAlignedDimension
 13
81.50025
 23
102.531751
 33
0.0
 14
106.51275
 24
102.531751
 34
0.0
100
AcDbRotatedDimension
1001
ACAD
1000
DSTYLE
1002
{
1070
         6
1000
SOLID
1070
         7
1000
SOLID
1070
        41
1040
1.0000000298
1070
        44
1040
2.0
1070
       271
1070
         4
1070
       284
1070
         8
1070
       343
1005
0
1070
       344
1005
0
1002
}
  0
DIMENSION
  5
8E
100
AcDbEntity
  8
PV
  6
CONTINUOUS
 62
        80
100
AcDbDimension
  2
*D6
 10
145.640411
 20
-22.53075
 30
0.0
 11
145.640411
 21
39.3171656494
 31
0.0
 70
       128
  1
\A1;\U+2205<>
  3
MXDIMSTYLE
100
AcDbAlignedDimension
 13
106.512748
 23
102.53175
 33
0.0
 14
106.512748
 24
-22.53075
 34
0.0
 50
90.0
100
AcDbRotatedDimension
1001
ACAD
1000
DSTYLE
1002
{
1070
         6
1000
SOLID
1070
         7
1000
SOLID
1070
        41
1040
1.0000000298
1070
        44
1040
2.0
1070
       271
1070
         4
1070
       284
1070
         8
1070
       343
1005
0
1070
       344
1005
0
1002
}
  0
DIMENSION
  5
9E
100
AcDbEntity
  8
PV
  6
CONTINUOUS
 62
        80
100
AcDbDimension
  2
*D7
 10
128.153686
 20
-2.52075
 30
0.0
 11
128.153686
 21
39.4171624451
 31
0.0
 70
       128
  1
\A1;\U+2205<>
  3
MXDIMSTYLE
100
AcDbAlignedDimension
 13
106.51275
 23
82.52175
 33
0.0
 14
106.51275
 24
-2.52075
 34
0.0
 50
90.0
100
AcDbRotatedDimension
1001
ACAD
1000
DSTYLE
1002
{
1070
         6
1000
SOLID
1070
         7
1000
SOLID
1070
        41
1040
1.0000000298
1070
        44
1040
2.0
1070
       271
1070
         4
1070
       284
1070
         8
1070
       340
1005
98
1070
       343
1005
0
1070
       344
1005
0
1002
}
  0
DIMENSION
  5
AD
100
AcDbEntity
  8
PV
  6
CONTINUOUS
 62
        80
100
AcDbDimension
  2
*D8
 10
56.500766
 20
92.52675
 30
0.0
 11
56.500766
 21
39.3171645813
 31
0.0
 70
       128
  1
\A1;\U+2205<>
  3
MXDIMSTYLE
100
AcDbAlignedDimension
 13
75.152078
 23
-12.52575
 33
0.0
 14
64.992
 24
92.52675
 34
0.0
 50
90.0
100
AcDbRotatedDimension
1001
ACAD
1000
DSTYLE
1002
{
1070
         6
1000
SOLID
1070
         7
1000
SOLID
1070
        41
1040
1.0000000298
1070
        44
1040
2.0
1070
       271
1070
         4
1070
       284
1070
         8
1070
       343
1005
0
1070
       344
1005
0
1002
}
  0
LINE
  5
AE
100
AcDbEntity
  8
PV
  6
CONTINUOUS
 62
         3
100
AcDbLine
 10
-82.50075
 20
96.858915
 30
0.0
 11
-103.613301
 21
133.426189
 31
0.0
  0
LINE
  5
AF
100
AcDbEntity
  8
PV
  6
CONTINUOUS
 62
         3
100
AcDbLine
 10
-124.043511
 20
133.426189
 30
0.0
 11
-103.6123
 21
133.426189
 31
0.0
  0
MTEXT
  5
B0
100
AcDbEntity
  8
PV
  6
CONTINUOUS
 62
       110
100
AcDbMText
 10
101.7444670119
 20
-148.965707
 30
0.0
 40
4.8000001907
 41
0.0
 71
         1
 72
         1
  1
\W1.500;\A1;\{
  0
MTEXT
  5
B1
100
AcDbEntity
  8
PV
  6
CONTINUOUS
 62
       110
100
AcDbMText
 10
101.6282590119
 20
-140.1
 30
0.0
 40
4.8000001907
 41
0.0
 71
         1
 72
         1
  1
\W1.500;\A1;\{
  0
MTEXT
  5
B2
100
AcDbEntity
  8
PV
  6
CONTINUOUS
 62
       110
100
AcDbMText
 10
97.1107750119
 20
-131.1
 30
0.0
 40
4.8000001907
 41
0.0
 71
         1
 72
         1
  1
\W1.500;\A1;\{
  0
MTEXT
  5
B3
100
AcDbEntity
  8
PV
  6
CONTINUOUS
 62
       110
100
AcDbMText
 10
106.5398390119
 20
-122.1
 30
0.0
 40
4.8000001907
 41
0.0
 71
         1
 72
         1
  1
\W1.500;\A1;\{
  0
MTEXT
  5
B4
100
AcDbEntity
  8
PV
  6
CONTINUOUS
 62
       110
100
AcDbMText
 10
162.835847
 20
-140.0991700447
 30
0.0
 40
2.25
 41
0.0
 71
         1
 72
         1
  1
\A1;2
  0
MTEXT
  5
B5
100
AcDbEntity
  8
PV
  6
CONTINUOUS
 62
       110
100
AcDbMText
 10
162.835847
 20
-149.0991700447
 30
0.0
 40
2.25
 41
0.0
 71
         1
 72
         1
  1
\A1;2
  0
MTEXT
  5
B6
100
AcDbEntity
  8
PV
  6
CONTINUOUS
 62
       110
100
AcDbMText
 10
133.9350984587
 20
-149.1
 30
0.0
 40
4.8000001907
 41
0.0
 71
         1
 72
         1
  1
\T1.101;\W1.081;\A1;kgf/mm \}
  0
MTEXT
  5
B7
100
AcDbEntity
  8
PV
  6
CONTINUOUS
 62
       110
100
AcDbMText
 10
133.9350984587
 20
-140.1
 30
0.0
 40
4.8000001907
 41
0.0
 71
         1
 72
         1
  1
\T1.101;\W1.081;\A1;kgf/mm \}
  0
MTEXT
  5
B8
100
AcDbEntity
  8
PV
  6
CONTINUOUS
 62
       110
100
AcDbMText
 10
133.7460099866
 20
-131.1
 30
0.0
 40
4.8000001907
 41
0.0
 71
         1
 72
         1
  1
\W1.091;\A1;kgf\}
  0
MTEXT
  5
B9
100
AcDbEntity
  8
PV
  6
CONTINUOUS
 62
       110
100
AcDbMText
 10
134.4732830318
 20
-122.1
 30
0.0
 40
4.8000001907
 41
0.0
 71
         1
 72
         1
  1
\W0.833;\A1;ｋｇｆ・ｍ｝
  0
MTEXT
  5
BA
100
AcDbEntity
  8
PV
  6
CONTINUOUS
 62
       110
100
AcDbMText
 10
134.4732830318
 20
-113.1
 30
0.0
 40
4.8000001907
 41
0.0
 71
         1
 72
         1
  1
\W0.833;\A1;ｋｇｆ・ｍ｝
  0
MTEXT
  5
BB
100
AcDbEntity
  8
PV
  6
CONTINUOUS
 62
       110
100
AcDbMText
 10
106.4282590119
 20
-113.1
 30
0.0
 40
4.8000001907
 41
0.0
 71
         1
 72
         1
  1
\W1.500;\A1;\{
  0
MTEXT
  5
BC
100
AcDbEntity
  8
PV
  6
CONTINUOUS
 62
       110
100
AcDbMText
 10
83.7520000318
 20
-149.1
 30
0.0
 40
4.8000001907
 41
0.0
 71
         1
 72
         1
  1
\A1;MPa
  0
MTEXT
  5
BD
100
AcDbEntity
  8
PV
  6
CONTINUOUS
 62
       110
100
AcDbMText
 10
66.7777626714
 20
-148.965707
 30
0.0
 40
4.8000001907
 41
0.0
 71
         1
 72
         1
  1
\W1.125;\A1;128
  0
MTEXT
  5
BE
100
AcDbEntity
  8
PV
  6
CONTINUOUS
 62
       110
100
AcDbMText
 10
83.7520000318
 20
-140.1
 30
0.0
 40
4.8000001907
 41
0.0
 71
         1
 72
         1
  1
\A1;MPa
  0
MTEXT
  5
BF
100
AcDbEntity
  8
PV
  6
CONTINUOUS
 62
       110
100
AcDbMText
 10
66.6615546714
 20
-140.1
 30
0.0
 40
4.8000001907
 41
0.0
 71
         1
 72
         1
  1
\W1.125;\A1;189
  0
MTEXT
  5
C0
100
AcDbEntity
  8
PV
  6
CONTINUOUS
 62
       110
100
AcDbMText
 10
83.7520000318
 20
-131.1
 30
0.0
 40
4.8000001907
 41
0.0
 71
         1
 72
         1
  1
\A1;kN
  0
MTEXT
  5
C1
100
AcDbEntity
  8
PV
  6
CONTINUOUS
 62
       110
100
AcDbMText
 10
66.7004196185
 20
-131.1
 30
0.0
 40
4.8000001907
 41
0.0
 71
         1
 72
         1
  1
\W1.200;\A1;150
  0
MTEXT
  5
C2
100
AcDbEntity
  8
PV
  6
CONTINUOUS
 62
       110
100
AcDbMText
 10
84.5520000318
 20
-122.1
 30
0.0
 40
4.8000001907
 41
0.0
 71
         1
 72
         1
  1
\W0.833;\A1;ｋＮ・ｍ
  0
MTEXT
  5
C3
100
AcDbEntity
  8
PV
  6
CONTINUOUS
 62
       110
100
AcDbMText
 10
61.8378096157
 20
-122.1
 30
0.0
 40
4.8000001907
 41
0.0
 71
         1
 72
         1
  1
\W1.200;\A1;6.37
  0
MTEXT
  5
C4
100
AcDbEntity
  8
PV
  6
CONTINUOUS
 62
       110
100
AcDbMText
 10
84.5520000318
 20
-113.1
 30
0.0
 40
4.8000001907
 41
0.0
 71
         1
 72
         1
  1
\W0.833;\A1;Ｎ・ｍ
  0
MTEXT
  5
C5
100
AcDbEntity
  8
PV
  6
CONTINUOUS
 62
       110
100
AcDbMText
 10
62.2216710318
 20
-113.1
 30
0.0
 40
4.8000001907
 41
0.0
 71
         1
 72
         1
  1
\W1.333;\A1;81.3
  0
MTEXT
  5
C6
100
AcDbEntity
  8
PV
  6
CONTINUOUS
 62
       110
100
AcDbMText
 10
83.7520000318
 20
-158.1
 30
0.0
 40
4.8000001907
 41
0.0
 71
         1
 72
         1
  1
\A1;kg
  0
MTEXT
  5
C7
100
AcDbEntity
  8
PV
  6
CONTINUOUS
 62
       110
100
AcDbMText
 10
60.9525950106
 20
-94.977
 30
0.0
 40
4.8000001907
 41
0.0
 71
         1
 72
         1
  1
\W1.048;\A1;PL085X125AS
  0
MTEXT
  5
C8
100
AcDbEntity
  8
PV
  6
CONTINUOUS
 62
       110
100
AcDbMText
 10
58.1911341578
 20
-104.3145
 30
0.0
 40
4.8000001907
 41
0.0
 71
         1
 72
         1
  1
\W1.102;\A1;12-M10X25
  0
MTEXT
  5
C9
100
AcDbEntity
  8
PV
  6
CONTINUOUS
 62
       110
100
AcDbMText
 10
114.9631760297
 20
-113.1
 30
0.0
 40
4.8000001907
 41
0.0
 71
         1
 72
         1
  1
\W1.286;\A1;8.3
  0
MTEXT
  5
CA
100
AcDbEntity
  8
PV
  6
CONTINUOUS
 62
       110
100
AcDbMText
 10
114.7816639667
 20
-122.1
 30
0.0
 40
4.8000001907
 41
0.0
 71
         1
 72
         1
  1
\W1.059;\A1;650
  0
MTEXT
  5
CB
100
AcDbEntity
  8
PV
  6
CONTINUOUS
 62
       110
100
AcDbMText
 10
105.2576819896
 20
-131.1
 30
0.0
 40
4.8000001907
 41
0.0
 71
         1
 72
         1
  1
\W1.154;\A1;15300
  0
MTEXT
  5
CC
100
AcDbEntity
  8
PV
  6
CONTINUOUS
 62
       110
100
AcDbMText
 10
110.2012720318
 20
-140.1
 30
0.0
 40
4.8000001907
 41
0.0
 71
         1
 72
         1
  1
\W1.333;\A1;19.3
  0
MTEXT
  5
CD
100
AcDbEntity
  8
PV
  6
CONTINUOUS
 62
       110
100
AcDbMText
 10
110.3346050253
 20
-149.1
 30
0.0
 40
4.8000001907
 41
0.0
 71
         1
 72
         1
  1
\W1.500;\A1;13.1
  0
MTEXT
  5
CE
100
AcDbEntity
  8
PV
  6
CONTINUOUS
 62
       110
100
AcDbMText
 10
62.2520000253
 20
-158.1
 30
0.0
 40
4.8000001907
 41
0.0
 71
         1
 72
         1
  1
\W1.500;\A1;1.41
  0
MTEXT
  5
CF
100
AcDbEntity
  8
PV
  6
CONTINUOUS
 62
       110
100
AcDbMText
 10
-120.4853990105
 20
138.1235369909
 30
0.0
 40
3.2016000748
 41
0.0
 71
         1
 72
         1
  1
\W1.200;\A1;M10
  0
LINE
  5
D0
100
AcDbEntity
  8
PV
  6
CONTINUOUS
 62
         3
100
AcDbLine
 10
81.50025
 20
-4.093536
 30
0.0
 11
80.89995
 21
-3.971475
 31
0.0
  0
LINE
  5
D1
100
AcDbEntity
  8
PV
  6
CONTINUOUS
 62
         3
100
AcDbLine
 10
81.50025
 20
-20.957964
 30
0.0
 11
80.89995
 21
-21.080025
 31
0.0
  0
LINE
  5
D2
100
AcDbEntity
  8
PV
  6
CONTINUOUS
 62
         3
100
AcDbLine
 10
106.51275
 20
84.094536
 30
0.0
 11
107.11305
 21
83.972475
 31
0.0
  0
LINE
  5
D3
100
AcDbEntity
  8
PV
  6
CONTINUOUS
 62
         3
100
AcDbLine
 10
106.51275
 20
100.958964
 30
0.0
 11
107.11305
 21
101.081025
 31
0.0
  0
LINE
  5
D4
100
AcDbEntity
  8
PV
  6
CONTINUOUS
 62
         3
100
AcDbLine
 10
80.89995
 20
-3.971475
 30
0.0
 11
79.9995
 21
-3.971475
 31
0.0
  0
LINE
  5
D5
100
AcDbEntity
  8
PV
  6
CONTINUOUS
 62
         3
100
AcDbLine
 10
69.9945
 20
99.49123
 30
0.0
 11
69.9945
 21
85.562269
 31
0.0
  0
LINE
  5
D6
100
AcDbEntity
  8
PV
  6
CONTINUOUS
 62
         3
100
AcDbLine
 10
69.9945
 20
99.49123
 30
0.0
 11
70.5948
 21
100.53075
 31
0.0
  0
LINE
  5
D7
100
AcDbEntity
  8
PV
  6
CONTINUOUS
 62
         3
100
AcDbLine
 10
69.9945
 20
85.562269
 30
0.0
 11
70.5948
 21
84.52275
 31
0.0
  0
LINE
  5
D8
100
AcDbEntity
  8
PV
  6
CONTINUOUS
 62
         3
100
AcDbLine
 10
79.9995
 20
84.52275
 30
0.0
 11
70.5948
 21
84.52275
 31
0.0
  0
LINE
  5
D9
100
AcDbEntity
  8
PV
  6
CONTINUOUS
 62
         3
100
AcDbLine
 10
79.9995
 20
100.53075
 30
0.0
 11
70.5948
 21
100.53075
 31
0.0
  0
LINE
  5
DA
100
AcDbEntity
  8
PV
  6
CONTINUOUS
 62
         3
100
AcDbLine
 10
81.50025
 20
84.094536
 30
0.0
 11
81.50025
 21
-4.093536
 31
0.0
  0
LINE
  5
DB
100
AcDbEntity
  8
PV
  6
CONTINUOUS
 62
         3
100
AcDbLine
 10
106.51275
 20
84.094536
 30
0.0
 11
106.51275
 21
-4.093536
 31
0.0
  0
LINE
  5
DC
100
AcDbEntity
  8
PV
  6
CONTINUOUS
 62
         3
100
AcDbLine
 10
81.50025
 20
-20.957964
 30
0.0
 11
81.50025
 21
-22.53075
 31
0.0
  0
LINE
  5
DD
100
AcDbEntity
  8
PV
  6
CONTINUOUS
 62
         3
100
AcDbLine
 10
106.51275
 20
-20.957964
 30
0.0
 11
106.51275
 21
-22.53075
 31
0.0
  0
LINE
  5
DE
100
AcDbEntity
  8
PV
  6
CONTINUOUS
 62
         3
100
AcDbLine
 10
80.89995
 20
-21.080025
 30
0.0
 11
79.9995
 21
-21.080025
 31
0.0
  0
LINE
  5
DF
100
AcDbEntity
  8
PV
  6
CONTINUOUS
 62
         3
100
AcDbLine
 10
107.11305
 20
-3.971475
 30
0.0
 11
106.51275
 21
-4.093536
 31
0.0
  0
LINE
  5
E0
100
AcDbEntity
  8
PV
  6
CONTINUOUS
 62
         3
100
AcDbLine
 10
107.11305
 20
-21.080025
 30
0.0
 11
106.51275
 21
-20.957964
 31
0.0
  0
LINE
  5
E1
100
AcDbEntity
  8
PV
  6
CONTINUOUS
 62
         3
100
AcDbLine
 10
108.0135
 20
-3.971475
 30
0.0
 11
107.11305
 21
-3.971475
 31
0.0
  0
LINE
  5
E2
100
AcDbEntity
  8
PV
  6
CONTINUOUS
 62
         3
100
AcDbLine
 10
108.0135
 20
-21.080025
 30
0.0
 11
107.11305
 21
-21.080025
 31
0.0
  0
LINE
  5
E3
100
AcDbEntity
  8
PV
  6
CONTINUOUS
 62
         3
100
AcDbLine
 10
106.51275
 20
-2.52075
 30
0.0
 11
81.50025
 21
-2.52075
 31
0.0
  0
LINE
  5
E4
100
AcDbEntity
  8
PV
  6
CONTINUOUS
 62
         3
100
AcDbLine
 10
106.51275
 20
-22.53075
 30
0.0
 11
81.50025
 21
-22.53075
 31
0.0
  0
LINE
  5
E5
100
AcDbEntity
  8
PV
  6
CONTINUOUS
 62
         3
100
AcDbLine
 10
81.50025
 20
102.53175
 30
0.0
 11
81.50025
 21
100.958964
 31
0.0
  0
LINE
  5
E6
100
AcDbEntity
  8
PV
  6
CONTINUOUS
 62
         3
100
AcDbLine
 10
106.51275
 20
102.53175
 30
0.0
 11
106.51275
 21
100.958964
 31
0.0
  0
LINE
  5
E7
100
AcDbEntity
  8
PV
  6
CONTINUOUS
 62
         3
100
AcDbLine
 10
80.89995
 20
83.972475
 30
0.0
 11
81.50025
 21
84.094536
 31
0.0
  0
LINE
  5
E8
100
AcDbEntity
  8
PV
  6
CONTINUOUS
 62
         3
100
AcDbLine
 10
80.89995
 20
101.081025
 30
0.0
 11
81.50025
 21
100.958964
 31
0.0
  0
LINE
  5
E9
100
AcDbEntity
  8
PV
  6
CONTINUOUS
 62
         3
100
AcDbLine
 10
79.9995
 20
83.972475
 30
0.0
 11
80.89995
 21
83.972475
 31
0.0
  0
LINE
  5
EA
100
AcDbEntity
  8
PV
  6
CONTINUOUS
 62
         3
100
AcDbLine
 10
79.9995
 20
101.081025
 30
0.0
 11
80.89995
 21
101.081025
 31
0.0
  0
LINE
  5
EB
100
AcDbEntity
  8
PV
  6
CONTINUOUS
 62
         3
100
AcDbLine
 10
79.9995
 20
-21.080025
 30
0.0
 11
79.9995
 21
101.081025
 31
0.0
  0
LINE
  5
EC
100
AcDbEntity
  8
PV
  6
CONTINUOUS
 62
         3
100
AcDbLine
 10
107.11305
 20
83.972475
 30
0.0
 11
108.0135
 21
83.972475
 31
0.0
  0
LINE
  5
ED
100
AcDbEntity
  8
PV
  6
CONTINUOUS
 62
         3
100
AcDbLine
 10
107.11305
 20
101.081025
 30
0.0
 11
108.0135
 21
101.081025
 31
0.0
  0
LINE
  5
EE
100
AcDbEntity
  8
PV
  6
CONTINUOUS
 62
         3
100
AcDbLine
 10
81.50025
 20
82.52175
 30
0.0
 11
106.51275
 21
82.52175
 31
0.0
  0
LINE
  5
EF
100
AcDbEntity
  8
PV
  6
CONTINUOUS
 62
         3
100
AcDbLine
 10
81.50025
 20
102.53175
 30
0.0
 11
106.51275
 21
102.53175
 31
0.0
  0
LINE
  5
F0
100
AcDbEntity
  8
PV
  6
CONTINUOUS
 62
         3
100
AcDbLine
 10
108.0135
 20
101.081025
 30
0.0
 11
108.0135
 21
-21.080025
 31
0.0
  0
ARC
  5
F1
100
AcDbEntity
  8
PV
  6
CONTINUOUS
 62
         3
100
AcDbCircle
 10
-79.9995
 20
40.0005
 30
0.0
 40
42.52125
100
AcDbArc
 50
94.048
 51
85.952227
  0
ARC
  5
F2
100
AcDbEntity
  8
PV
  6
CONTINUOUS
 62
         3
100
AcDbCircle
 10
-79.9995
 20
40.0005
 30
0.0
 40
62.53125
100
AcDbArc
 50
0.916772
 51
359.083228
  0
LINE
  5
F3
100
AcDbEntity
  8
PV
  6
CONTINUOUS
 62
         3
100
AcDbLine
 10
175.236564
 20
-75.0
 30
0.0
 11
175.236564
 21
-165.0
 31
0.0
  0
LINE
  5
F4
100
AcDbEntity
  8
PV
  6
CONTINUOUS
 62
         3
100
AcDbLine
 10
106.51275
 20
-20.957964
 30
0.0
 11
96.0075
 21
-18.818895
 31
0.0
  0
LINE
  5
F5
100
AcDbEntity
  8
PV
  6
CONTINUOUS
 62
         3
100
AcDbLine
 10
106.51275
 20
-4.093536
 30
0.0
 11
96.10755
 21
-6.212595
 31
0.0
  0
LINE
  5
F6
100
AcDbEntity
  8
PV
  6
CONTINUOUS
 62
         3
100
AcDbLine
 10
81.50025
 20
100.958964
 30
0.0
 11
92.0055
 21
98.819895
 31
0.0
  0
LINE
  5
F7
100
AcDbEntity
  8
PV
  6
CONTINUOUS
 62
         3
100
AcDbLine
 10
81.50025
 20
84.094536
 30
0.0
 11
92.0055
 21
86.233605
 31
0.0
  0
LINE
  5
F9
100
AcDbEntity
  8
PV
  6
CENTER
 62
         3
100
AcDbLine
 10
110.0145
 20
-12.52575
 30
0.0
 11
75.152077
 21
-12.52575
 31
0.0
  0
LINE
  5
FA
100
AcDbEntity
  8
PV
  6
CONTINUOUS
 62
         3
100
AcDbLine
 10
91.90545
 20
-16.715844
 30
0.0
 11
79.9995
 21
-16.715844
 31
0.0
  0
LINE
  5
FB
100
AcDbEntity
  8
PV
  6
CONTINUOUS
 62
         3
100
AcDbLine
 10
91.90545
 20
-8.335656
 30
0.0
 11
79.9995
 21
-8.335656
 31
0.0
  0
LINE
  5
FC
100
AcDbEntity
  8
PV
  6
CONTINUOUS
 62
         3
100
AcDbLine
 10
79.9995
 20
-7.52325
 30
0.0
 11
91.90545
 21
-7.52325
 31
0.0
  0
LINE
  5
FD
100
AcDbEntity
  8
PV
  6
CONTINUOUS
 62
         3
100
AcDbLine
 10
79.9995
 20
-17.52825
 30
0.0
 11
91.90545
 21
-17.52825
 31
0.0
  0
LINE
  5
FE
100
AcDbEntity
  8
PV
  6
CONTINUOUS
 62
         3
100
AcDbLine
 10
96.10755
 20
88.336656
 30
0.0
 11
96.10755
 21
86.213595
 31
0.0
  0
LINE
  5
FF
100
AcDbEntity
  8
PV
  6
CONTINUOUS
 62
         3
100
AcDbLine
 10
91.90545
 20
97.52925
 30
0.0
 11
91.90545
 21
98.839905
 31
0.0
  0
LINE
  5
100
100
AcDbEntity
  8
PV
  6
CENTER
 62
         3
100
AcDbLine
 10
64.992
 20
92.52675
 30
0.0
 11
110.0145
 21
92.52675
 31
0.0
  0
LINE
  5
101
100
AcDbEntity
  8
PV
  6
CONTINUOUS
 62
         3
100
AcDbLine
 10
70.5948
 20
100.53075
 30
0.0
 11
70.5948
 21
84.52275
 31
0.0
  0
LINE
  5
102
100
AcDbEntity
  8
PV
  6
CONTINUOUS
 62
         3
100
AcDbLine
 10
83.751375
 20
96.716844
 30
0.0
 11
108.0135
 21
96.716844
 31
0.0
  0
LINE
  5
103
100
AcDbEntity
  8
PV
  6
CONTINUOUS
 62
         3
100
AcDbLine
 10
83.751375
 20
88.336656
 30
0.0
 11
108.0135
 21
88.336656
 31
0.0
  0
LINE
  5
104
100
AcDbEntity
  8
PV
  6
CONTINUOUS
 62
         3
100
AcDbLine
 10
83.751375
 20
88.336656
 30
0.0
 11
82.126563
 21
87.52425
 31
0.0
  0
LINE
  5
105
100
AcDbEntity
  8
PV
  6
CONTINUOUS
 62
         3
100
AcDbLine
 10
83.751375
 20
96.716844
 30
0.0
 11
82.126563
 21
97.52925
 31
0.0
  0
LINE
  5
106
100
AcDbEntity
  8
PV
  6
CONTINUOUS
 62
         3
100
AcDbLine
 10
83.751375
 20
97.52925
 30
0.0
 11
83.751375
 21
87.52425
 31
0.0
  0
LINE
  5
107
100
AcDbEntity
  8
PV
  6
CONTINUOUS
 62
         3
100
AcDbLine
 10
105.012
 20
96.0285
 30
0.0
 11
105.012
 21
89.025
 31
0.0
  0
LINE
  5
108
100
AcDbEntity
  8
PV
  6
CONTINUOUS
 62
         3
100
AcDbLine
 10
103.51125
 20
97.52925
 30
0.0
 11
103.51125
 21
87.52425
 31
0.0
  0
LINE
  5
109
100
AcDbEntity
  8
PV
  6
CONTINUOUS
 62
         3
100
AcDbLine
 10
103.51125
 20
87.52425
 30
0.0
 11
105.012
 21
89.025
 31
0.0
  0
LINE
  5
10A
100
AcDbEntity
  8
PV
  6
CONTINUOUS
 62
         3
100
AcDbLine
 10
103.51125
 20
97.52925
 30
0.0
 11
105.012
 21
96.0285
 31
0.0
  0
LINE
  5
10B
100
AcDbEntity
  8
PV
  6
CONTINUOUS
 62
         3
100
AcDbLine
 10
108.0135
 20
87.52425
 30
0.0
 11
79.9995
 21
87.52425
 31
0.0
  0
LINE
  5
10C
100
AcDbEntity
  8
PV
  6
CONTINUOUS
 62
         3
100
AcDbLine
 10
108.0135
 20
97.52925
 30
0.0
 11
79.9995
 21
97.52925
 31
0.0
  0
LINE
  5
10D
100
AcDbEntity
  8
PV
  6
CONTINUOUS
 62
         3
100
AcDbLine
 10
96.0075
 20
-6.232605
 30
0.0
 11
92.0055
 21
-6.232605
 31
0.0
  0
LINE
  5
10E
100
AcDbEntity
  8
PV
  6
CONTINUOUS
 62
         3
100
AcDbLine
 10
96.0075
 20
-18.818895
 30
0.0
 11
92.0055
 21
-18.818895
 31
0.0
  0
LINE
  5
10F
100
AcDbEntity
  8
PV
  6
CONTINUOUS
 62
         3
100
AcDbLine
 10
92.0055
 20
-6.232605
 30
0.0
 11
81.50025
 21
-4.093536
 31
0.0
  0
LINE
  5
110
100
AcDbEntity
  8
PV
  6
CONTINUOUS
 62
         3
100
AcDbLine
 10
92.0055
 20
-18.818895
 30
0.0
 11
81.50025
 21
-20.957964
 31
0.0
  0
LINE
  5
111
100
AcDbEntity
  8
PV
  6
CONTINUOUS
 62
         3
100
AcDbLine
 10
91.90545
 20
-18.838905
 30
0.0
 11
91.90545
 21
-6.212595
 31
0.0
  0
LINE
  5
112
100
AcDbEntity
  8
PV
  6
CONTINUOUS
 62
         3
100
AcDbLine
 10
96.10755
 20
-6.212595
 30
0.0
 11
96.10755
 21
-18.838905
 31
0.0
  0
LINE
  5
113
100
AcDbEntity
  8
PV
  6
CONTINUOUS
 62
         3
100
AcDbLine
 10
92.0055
 20
86.233605
 30
0.0
 11
96.0075
 21
86.233605
 31
0.0
  0
LINE
  5
114
100
AcDbEntity
  8
PV
  6
CONTINUOUS
 62
         3
100
AcDbLine
 10
92.0055
 20
98.819895
 30
0.0
 11
96.0075
 21
98.819895
 31
0.0
  0
LINE
  5
115
100
AcDbEntity
  8
PV
  6
CONTINUOUS
 62
         3
100
AcDbLine
 10
91.90545
 20
86.213595
 30
0.0
 11
91.90545
 21
87.52425
 31
0.0
  0
LINE
  5
116
100
AcDbEntity
  8
PV
  6
CONTINUOUS
 62
         3
100
AcDbLine
 10
96.0075
 20
86.233605
 30
0.0
 11
106.51275
 21
84.094536
 31
0.0
  0
LINE
  5
117
100
AcDbEntity
  8
PV
  6
CONTINUOUS
 62
         3
100
AcDbLine
 10
96.0075
 20
98.819895
 30
0.0
 11
106.51275
 21
100.958964
 31
0.0
  0
LINE
  5
118
100
AcDbEntity
  8
PV
  6
CONTINUOUS
 62
         3
100
AcDbLine
 10
96.10755
 20
98.431701
 30
0.0
 11
96.10755
 21
96.716844
 31
0.0
  0
LINE
  5
119
100
AcDbEntity
  8
PV
  6
CENTER
 62
         3
100
AcDbLine
 10
78.202602
 20
40.0005
 30
0.0
 11
114.060522
 21
40.0005
 31
0.0
  0
CIRCLE
  5
11A
100
AcDbEntity
  8
PV
  6
CONTINUOUS
 62
         3
100
AcDbCircle
 10
-125.488233
 20
13.737375
 30
0.0
 40
4.192095
  0
CIRCLE
  5
11B
100
AcDbEntity
  8
PV
  6
CONTINUOUS
 62
         3
100
AcDbCircle
 10
-34.510767
 20
13.737375
 30
0.0
 40
4.192095
  0
CIRCLE
  5
11C
100
AcDbEntity
  8
PV
  6
CONTINUOUS
 62
         3
100
AcDbCircle
 10
-79.9995
 20
92.52675
 30
0.0
 40
4.192095
  0
CIRCLE
  5
11D
100
AcDbEntity
  8
PV
  6
CONTINUOUS
 62
         3
100
AcDbCircle
 10
-101.364177
 20
87.98548
 30
0.0
 40
6.964481
  0
CIRCLE
  5
11E
100
AcDbEntity
  8
PV
  6
CONTINUOUS
 62
         3
100
AcDbCircle
 10
-101.364177
 20
87.98548
 30
0.0
 40
8.004
  0
CIRCLE
  5
11F
100
AcDbEntity
  8
PV
  6
CONTINUOUS
 62
         3
100
AcDbCircle
 10
-119.034007
 20
75.147064
 30
0.0
 40
6.964481
  0
CIRCLE
  5
120
100
AcDbEntity
  8
PV
  6
CONTINUOUS
 62
         3
100
AcDbCircle
 10
-119.034007
 20
75.147064
 30
0.0
 40
8.004
  0
CIRCLE
  5
121
100
AcDbEntity
  8
PV
  6
CONTINUOUS
 62
         3
100
AcDbCircle
 10
-129.954465
 20
56.231611
 30
0.0
 40
6.964481
  0
CIRCLE
  5
122
100
AcDbEntity
  8
PV
  6
CONTINUOUS
 62
         3
100
AcDbCircle
 10
-129.954465
 20
56.231611
 30
0.0
 40
8.004
  0
CIRCLE
  5
123
100
AcDbEntity
  8
PV
  6
CONTINUOUS
 62
         3
100
AcDbCircle
 10
-132.237606
 20
34.509756
 30
0.0
 40
6.964481
  0
CIRCLE
  5
124
100
AcDbEntity
  8
PV
  6
CONTINUOUS
 62
         3
100
AcDbCircle
 10
-132.237606
 20
34.509756
 30
0.0
 40
8.004
  0
CIRCLE
  5
125
100
AcDbEntity
  8
PV
  6
CONTINUOUS
 62
         3
100
AcDbCircle
 10
-110.873929
 20
-2.493737
 30
0.0
 40
6.964481
  0
CIRCLE
  5
126
100
AcDbEntity
  8
PV
  6
CONTINUOUS
 62
         3
100
AcDbCircle
 10
-110.873929
 20
-2.493737
 30
0.0
 40
8.004
  0
CIRCLE
  5
127
100
AcDbEntity
  8
PV
  6
CONTINUOUS
 62
         3
100
AcDbCircle
 10
-90.919957
 20
-11.378177
 30
0.0
 40
6.964481
  0
CIRCLE
  5
128
100
AcDbEntity
  8
PV
  6
CONTINUOUS
 62
         3
100
AcDbCircle
 10
-90.919957
 20
-11.378177
 30
0.0
 40
8.004
  0
CIRCLE
  5
129
100
AcDbEntity
  8
PV
  6
CONTINUOUS
 62
         3
100
AcDbCircle
 10
-69.079042
 20
-11.378177
 30
0.0
 40
6.964481
  0
CIRCLE
  5
12A
100
AcDbEntity
  8
PV
  6
CONTINUOUS
 62
         3
100
AcDbCircle
 10
-69.079042
 20
-11.378177
 30
0.0
 40
8.004
  0
CIRCLE
  5
12B
100
AcDbEntity
  8
PV
  6
CONTINUOUS
 62
         3
100
AcDbCircle
 10
-49.12507
 20
-2.493737
 30
0.0
 40
6.964481
  0
CIRCLE
  5
12C
100
AcDbEntity
  8
PV
  6
CONTINUOUS
 62
         3
100
AcDbCircle
 10
-49.12507
 20
-2.493737
 30
0.0
 40
8.004
  0
CIRCLE
  5
12D
100
AcDbEntity
  8
PV
  6
CONTINUOUS
 62
         3
100
AcDbCircle
 10
-27.761394
 20
34.509756
 30
0.0
 40
6.964481
  0
CIRCLE
  5
12E
100
AcDbEntity
  8
PV
  6
CONTINUOUS
 62
         3
100
AcDbCircle
 10
-27.761394
 20
34.509756
 30
0.0
 40
8.004
  0
CIRCLE
  5
12F
100
AcDbEntity
  8
PV
  6
CONTINUOUS
 62
         3
100
AcDbCircle
 10
-30.043534
 20
56.231611
 30
0.0
 40
6.964481
  0
CIRCLE
  5
130
100
AcDbEntity
  8
PV
  6
CONTINUOUS
 62
         3
100
AcDbCircle
 10
-30.043534
 20
56.231611
 30
0.0
 40
8.004
  0
CIRCLE
  5
131
100
AcDbEntity
  8
PV
  6
CONTINUOUS
 62
         3
100
AcDbCircle
 10
-40.964992
 20
75.147064
 30
0.0
 40
6.964481
  0
CIRCLE
  5
132
100
AcDbEntity
  8
PV
  6
CONTINUOUS
 62
         3
100
AcDbCircle
 10
-40.964992
 20
75.147064
 30
0.0
 40
8.004
  0
CIRCLE
  5
133
100
AcDbEntity
  8
PV
  6
CONTINUOUS
 62
         3
100
AcDbCircle
 10
-58.634823
 20
87.98548
 30
0.0
 40
6.964481
  0
CIRCLE
  5
134
100
AcDbEntity
  8
PV
  6
CONTINUOUS
 62
         3
100
AcDbCircle
 10
-58.634823
 20
87.98548
 30
0.0
 40
8.004
  0
CIRCLE
  5
135
100
AcDbEntity
  8
PV
  6
CONTINUOUS
 62
         3
100
AcDbCircle
 10
-34.510767
 20
13.737375
 30
0.0
 40
5.0025
  0
CIRCLE
  5
136
100
AcDbEntity
  8
PV
  6
CONTINUOUS
 62
         3
100
AcDbCircle
 10
-125.488233
 20
13.737375
 30
0.0
 40
5.0025
  0
CIRCLE
  5
137
100
AcDbEntity
  8
PV
  6
CONTINUOUS
 62
         3
100
AcDbCircle
 10
-79.9995
 20
92.52675
 30
0.0
 40
5.0025
  0
CIRCLE
  5
138
100
AcDbEntity
  8
PV
  6
CONTINUOUS
 62
         3
100
AcDbCircle
 10
-79.9995
 20
40.0005
 30
0.0
 40
43.971975
  0
CIRCLE
  5
139
100
AcDbEntity
  8
PV
  6
CONTINUOUS
 62
         3
100
AcDbCircle
 10
-79.9995
 20
40.0005
 30
0.0
 40
61.080525
  0
CIRCLE
  5
13A
100
AcDbEntity
  8
PV
  6
CENTER
 62
         3
100
AcDbCircle
 10
-79.9995
 20
40.0005
 30
0.0
 40
52.52625
  0
LINE
  5
13B
100
AcDbEntity
  8
PV
  6
CONTINUOUS
 62
         3
100
AcDbLine
 10
-83.001
 20
83.869423
 30
0.0
 11
-83.001
 21
82.415697
 31
0.0
  0
LINE
  5
13C
100
AcDbEntity
  8
PV
  6
CONTINUOUS
 62
         3
100
AcDbLine
 10
-76.998
 20
83.869423
 30
0.0
 11
-76.998
 21
82.415697
 31
0.0
  0
LINE
  5
13D
100
AcDbEntity
  8
PV
  6
CONTINUOUS
 62
         3
100
AcDbLine
 10
-105.366177
 20
90.296636
 30
0.0
 11
-105.366177
 21
85.675326
 31
0.0
  0
LINE
  5
13E
100
AcDbEntity
  8
PV
  6
CONTINUOUS
 62
         3
100
AcDbLine
 10
-97.362177
 20
90.296636
 30
0.0
 11
-97.362177
 21
85.675326
 31
0.0
  0
LINE
  5
13F
100
AcDbEntity
  8
PV
  6
CONTINUOUS
 62
         3
100
AcDbLine
 10
-101.364177
 20
83.364171
 30
0.0
 11
-97.362177
 21
85.675326
 31
0.0
  0
LINE
  5
140
100
AcDbEntity
  8
PV
  6
CONTINUOUS
 62
         3
100
AcDbLine
 10
-101.364177
 20
83.364171
 30
0.0
 11
-105.366177
 21
85.675326
 31
0.0
  0
LINE
  5
141
100
AcDbEntity
  8
PV
  6
CONTINUOUS
 62
         3
100
AcDbLine
 10
-101.364177
 20
92.60679
 30
0.0
 11
-105.366177
 21
90.295635
 31
0.0
  0
LINE
  5
142
100
AcDbEntity
  8
PV
  6
CONTINUOUS
 62
         3
100
AcDbLine
 10
-101.364177
 20
92.60679
 30
0.0
 11
-97.362177
 21
90.295635
 31
0.0
  0
LINE
  5
143
100
AcDbEntity
  8
PV
  6
CONTINUOUS
 62
         3
100
AcDbLine
 10
-123.036007
 20
77.458219
 30
0.0
 11
-123.036007
 21
72.83691
 31
0.0
  0
LINE
  5
144
100
AcDbEntity
  8
PV
  6
CONTINUOUS
 62
         3
100
AcDbLine
 10
-115.032007
 20
77.458219
 30
0.0
 11
-115.032007
 21
72.83691
 31
0.0
  0
LINE
  5
145
100
AcDbEntity
  8
PV
  6
CONTINUOUS
 62
         3
100
AcDbLine
 10
-119.034007
 20
70.525755
 30
0.0
 11
-115.032007
 21
72.83691
 31
0.0
  0
LINE
  5
146
100
AcDbEntity
  8
PV
  6
CONTINUOUS
 62
         3
100
AcDbLine
 10
-119.034007
 20
70.525755
 30
0.0
 11
-123.036007
 21
72.83691
 31
0.0
  0
LINE
  5
147
100
AcDbEntity
  8
PV
  6
CONTINUOUS
 62
         3
100
AcDbLine
 10
-119.034007
 20
79.768374
 30
0.0
 11
-123.036007
 21
77.458219
 31
0.0
  0
LINE
  5
148
100
AcDbEntity
  8
PV
  6
CONTINUOUS
 62
         3
100
AcDbLine
 10
-119.034007
 20
79.768374
 30
0.0
 11
-115.032007
 21
77.458219
 31
0.0
  0
LINE
  5
149
100
AcDbEntity
  8
PV
  6
CONTINUOUS
 62
         3
100
AcDbLine
 10
-133.956465
 20
58.542766
 30
0.0
 11
-133.956465
 21
53.921457
 31
0.0
  0
LINE
  5
14A
100
AcDbEntity
  8
PV
  6
CONTINUOUS
 62
         3
100
AcDbLine
 10
-125.952465
 20
58.542766
 30
0.0
 11
-125.952465
 21
53.921457
 31
0.0
  0
LINE
  5
14B
100
AcDbEntity
  8
PV
  6
CONTINUOUS
 62
         3
100
AcDbLine
 10
-129.954465
 20
51.611302
 30
0.0
 11
-125.952465
 21
53.921457
 31
0.0
  0
LINE
  5
14C
100
AcDbEntity
  8
PV
  6
CONTINUOUS
 62
         3
100
AcDbLine
 10
-129.954465
 20
51.610302
 30
0.0
 11
-133.957465
 21
53.921457
 31
0.0
  0
LINE
  5
14D
100
AcDbEntity
  8
PV
  6
CONTINUOUS
 62
         3
100
AcDbLine
 10
-129.954465
 20
60.852921
 30
0.0
 11
-133.956465
 21
58.542766
 31
0.0
  0
LINE
  5
14E
100
AcDbEntity
  8
PV
  6
CONTINUOUS
 62
         3
100
AcDbLine
 10
-129.955465
 20
60.852921
 30
0.0
 11
-125.952465
 21
58.542766
 31
0.0
  0
LINE
  5
14F
100
AcDbEntity
  8
PV
  6
CONTINUOUS
 62
         3
100
AcDbLine
 10
-136.239606
 20
36.820911
 30
0.0
 11
-136.239606
 21
32.199602
 31
0.0
  0
LINE
  5
150
100
AcDbEntity
  8
PV
  6
CONTINUOUS
 62
         3
100
AcDbLine
 10
-128.235606
 20
36.820911
 30
0.0
 11
-128.235606
 21
32.199602
 31
0.0
  0
LINE
  5
151
100
AcDbEntity
  8
PV
  6
CONTINUOUS
 62
         3
100
AcDbLine
 10
-132.237606
 20
29.888446
 30
0.0
 11
-128.235606
 21
32.199602
 31
0.0
  0
LINE
  5
152
100
AcDbEntity
  8
PV
  6
CONTINUOUS
 62
         3
100
AcDbLine
 10
-132.237606
 20
29.888446
 30
0.0
 11
-136.239606
 21
32.199602
 31
0.0
  0
LINE
  5
153
100
AcDbEntity
  8
PV
  6
CONTINUOUS
 62
         3
100
AcDbLine
 10
-132.237606
 20
39.131065
 30
0.0
 11
-136.239606
 21
36.820911
 31
0.0
  0
LINE
  5
154
100
AcDbEntity
  8
PV
  6
CONTINUOUS
 62
         3
100
AcDbLine
 10
-132.237606
 20
39.131065
 30
0.0
 11
-128.235606
 21
36.820911
 31
0.0
  0
LINE
  5
155
100
AcDbEntity
  8
PV
  6
CONTINUOUS
 62
         3
100
AcDbLine
 10
-114.875929
 20
-0.183582
 30
0.0
 11
-114.875929
 21
-4.804892
 31
0.0
  0
LINE
  5
156
100
AcDbEntity
  8
PV
  6
CONTINUOUS
 62
         3
100
AcDbLine
 10
-106.871929
 20
-0.183582
 30
0.0
 11
-106.871929
 21
-4.804892
 31
0.0
  0
LINE
  5
157
100
AcDbEntity
  8
PV
  6
CONTINUOUS
 62
         3
100
AcDbLine
 10
-110.873929
 20
-7.115046
 30
0.0
 11
-106.871929
 21
-4.804892
 31
0.0
  0
LINE
  5
158
100
AcDbEntity
  8
PV
  6
CONTINUOUS
 62
         3
100
AcDbLine
 10
-110.873929
 20
-7.115046
 30
0.0
 11
-114.875929
 21
-4.804892
 31
0.0
  0
LINE
  5
159
100
AcDbEntity
  8
PV
  6
CONTINUOUS
 62
         3
100
AcDbLine
 10
-110.873929
 20
2.126572
 30
0.0
 11
-114.875929
 21
-0.183582
 31
0.0
  0
LINE
  5
15A
100
AcDbEntity
  8
PV
  6
CONTINUOUS
 62
         3
100
AcDbLine
 10
-110.873929
 20
2.127573
 30
0.0
 11
-106.871929
 21
-0.183582
 31
0.0
  0
LINE
  5
15B
100
AcDbEntity
  8
PV
  6
CONTINUOUS
 62
         3
100
AcDbLine
 10
-94.921957
 20
-9.067022
 30
0.0
 11
-94.921957
 21
-13.688331
 31
0.0
  0
LINE
  5
15C
100
AcDbEntity
  8
PV
  6
CONTINUOUS
 62
         3
100
AcDbLine
 10
-86.917957
 20
-9.067022
 30
0.0
 11
-86.917957
 21
-13.688331
 31
0.0
  0
LINE
  5
15D
100
AcDbEntity
  8
PV
  6
CONTINUOUS
 62
         3
100
AcDbLine
 10
-90.919957
 20
-15.999486
 30
0.0
 11
-86.917957
 21
-13.688331
 31
0.0
  0
LINE
  5
15E
100
AcDbEntity
  8
PV
  6
CONTINUOUS
 62
         3
100
AcDbLine
 10
-90.919957
 20
-15.999486
 30
0.0
 11
-94.921957
 21
-13.688331
 31
0.0
  0
LINE
  5
15F
100
AcDbEntity
  8
PV
  6
CONTINUOUS
 62
         3
100
AcDbLine
 10
-90.919957
 20
-6.756867
 30
0.0
 11
-94.921957
 21
-9.067022
 31
0.0
  0
LINE
  5
160
100
AcDbEntity
  8
PV
  6
CONTINUOUS
 62
         3
100
AcDbLine
 10
-90.919957
 20
-6.756867
 30
0.0
 11
-86.917957
 21
-9.067022
 31
0.0
  0
LINE
  5
161
100
AcDbEntity
  8
PV
  6
CONTINUOUS
 62
         3
100
AcDbLine
 10
-73.081042
 20
-9.067022
 30
0.0
 11
-73.081042
 21
-13.688331
 31
0.0
  0
LINE
  5
162
100
AcDbEntity
  8
PV
  6
CONTINUOUS
 62
         3
100
AcDbLine
 10
-65.077042
 20
-9.067022
 30
0.0
 11
-65.077042
 21
-13.688331
 31
0.0
  0
LINE
  5
163
100
AcDbEntity
  8
PV
  6
CONTINUOUS
 62
         3
100
AcDbLine
 10
-69.079042
 20
-15.999486
 30
0.0
 11
-65.077042
 21
-13.688331
 31
0.0
  0
LINE
  5
164
100
AcDbEntity
  8
PV
  6
CONTINUOUS
 62
         3
100
AcDbLine
 10
-69.079042
 20
-15.999486
 30
0.0
 11
-73.081042
 21
-13.688331
 31
0.0
  0
LINE
  5
165
100
AcDbEntity
  8
PV
  6
CONTINUOUS
 62
         3
100
AcDbLine
 10
-69.079042
 20
-6.756867
 30
0.0
 11
-73.081042
 21
-9.067022
 31
0.0
  0
LINE
  5
166
100
AcDbEntity
  8
PV
  6
CONTINUOUS
 62
         3
100
AcDbLine
 10
-69.079042
 20
-6.756867
 30
0.0
 11
-65.077042
 21
-9.067022
 31
0.0
  0
LINE
  5
167
100
AcDbEntity
  8
PV
  6
CONTINUOUS
 62
         3
100
AcDbLine
 10
-53.12707
 20
-0.183582
 30
0.0
 11
-53.12707
 21
-4.804892
 31
0.0
  0
LINE
  5
168
100
AcDbEntity
  8
PV
  6
CONTINUOUS
 62
         3
100
AcDbLine
 10
-45.12307
 20
-0.183582
 30
0.0
 11
-45.12307
 21
-4.804892
 31
0.0
  0
LINE
  5
169
100
AcDbEntity
  8
PV
  6
CONTINUOUS
 62
         3
100
AcDbLine
 10
-49.12507
 20
-7.115046
 30
0.0
 11
-45.12307
 21
-4.804892
 31
0.0
  0
LINE
  5
16A
100
AcDbEntity
  8
PV
  6
CONTINUOUS
 62
         3
100
AcDbLine
 10
-49.12507
 20
-7.115046
 30
0.0
 11
-53.12707
 21
-4.804892
 31
0.0
  0
LINE
  5
16B
100
AcDbEntity
  8
PV
  6
CONTINUOUS
 62
         3
100
AcDbLine
 10
-49.12507
 20
2.126572
 30
0.0
 11
-53.12707
 21
-0.183582
 31
0.0
  0
LINE
  5
16C
100
AcDbEntity
  8
PV
  6
CONTINUOUS
 62
         3
100
AcDbLine
 10
-49.12507
 20
2.126572
 30
0.0
 11
-45.12307
 21
-0.183582
 31
0.0
  0
LINE
  5
16D
100
AcDbEntity
  8
PV
  6
CONTINUOUS
 62
         3
100
AcDbLine
 10
-31.763394
 20
36.820911
 30
0.0
 11
-31.763394
 21
32.199602
 31
0.0
  0
LINE
  5
16E
100
AcDbEntity
  8
PV
  6
CONTINUOUS
 62
         3
100
AcDbLine
 10
-23.759394
 20
36.820911
 30
0.0
 11
-23.759394
 21
32.199602
 31
0.0
  0
LINE
  5
16F
100
AcDbEntity
  8
PV
  6
CONTINUOUS
 62
         3
100
AcDbLine
 10
-27.761394
 20
29.889447
 30
0.0
 11
-23.759394
 21
32.199602
 31
0.0
  0
LINE
  5
170
100
AcDbEntity
  8
PV
  6
CONTINUOUS
 62
         3
100
AcDbLine
 10
-27.761394
 20
29.889447
 30
0.0
 11
-31.763394
 21
32.199602
 31
0.0
  0
LINE
  5
171
100
AcDbEntity
  8
PV
  6
CONTINUOUS
 62
         3
100
AcDbLine
 10
-27.761394
 20
39.131065
 30
0.0
 11
-31.763394
 21
36.820911
 31
0.0
  0
LINE
  5
172
100
AcDbEntity
  8
PV
  6
CONTINUOUS
 62
         3
100
AcDbLine
 10
-27.760393
 20
39.131065
 30
0.0
 11
-23.759394
 21
36.820911
 31
0.0
  0
LINE
  5
173
100
AcDbEntity
  8
PV
  6
CONTINUOUS
 62
         3
100
AcDbLine
 10
-34.045534
 20
58.542766
 30
0.0
 11
-34.045534
 21
53.921457
 31
0.0
  0
LINE
  5
174
100
AcDbEntity
  8
PV
  6
CONTINUOUS
 62
         3
100
AcDbLine
 10
-26.041534
 20
58.542766
 30
0.0
 11
-26.041534
 21
53.921457
 31
0.0
  0
LINE
  5
175
100
AcDbEntity
  8
PV
  6
CONTINUOUS
 62
         3
100
AcDbLine
 10
-30.044535
 20
51.611302
 30
0.0
 11
-26.042535
 21
53.921457
 31
0.0
  0
LINE
  5
176
100
AcDbEntity
  8
PV
  6
CONTINUOUS
 62
         3
100
AcDbLine
 10
-30.044535
 20
51.611302
 30
0.0
 11
-34.045534
 21
53.921457
 31
0.0
  0
LINE
  5
177
100
AcDbEntity
  8
PV
  6
CONTINUOUS
 62
         3
100
AcDbLine
 10
-30.044535
 20
60.852921
 30
0.0
 11
-34.046535
 21
58.542766
 31
0.0
  0
LINE
  5
178
100
AcDbEntity
  8
PV
  6
CONTINUOUS
 62
         3
100
AcDbLine
 10
-30.043534
 20
60.852921
 30
0.0
 11
-26.042535
 21
58.542766
 31
0.0
  0
LINE
  5
179
100
AcDbEntity
  8
PV
  6
CONTINUOUS
 62
         3
100
AcDbLine
 10
-44.966992
 20
77.458219
 30
0.0
 11
-44.966992
 21
72.83691
 31
0.0
  0
LINE
  5
17A
100
AcDbEntity
  8
PV
  6
CONTINUOUS
 62
         3
100
AcDbLine
 10
-36.962992
 20
77.458219
 30
0.0
 11
-36.962992
 21
72.83691
 31
0.0
  0
LINE
  5
17B
100
AcDbEntity
  8
PV
  6
CONTINUOUS
 62
         3
100
AcDbLine
 10
-40.964992
 20
70.525755
 30
0.0
 11
-36.962992
 21
72.83691
 31
0.0
  0
LINE
  5
17C
100
AcDbEntity
  8
PV
  6
CONTINUOUS
 62
         3
100
AcDbLine
 10
-40.964992
 20
70.525755
 30
0.0
 11
-44.966992
 21
72.83691
 31
0.0
  0
LINE
  5
17D
100
AcDbEntity
  8
PV
  6
CONTINUOUS
 62
         3
100
AcDbLine
 10
-40.964992
 20
79.768374
 30
0.0
 11
-44.966992
 21
77.458219
 31
0.0
  0
LINE
  5
17E
100
AcDbEntity
  8
PV
  6
CONTINUOUS
 62
         3
100
AcDbLine
 10
-40.964992
 20
79.768374
 30
0.0
 11
-36.962992
 21
77.458219
 31
0.0
  0
LINE
  5
17F
100
AcDbEntity
  8
PV
  6
CONTINUOUS
 62
         3
100
AcDbLine
 10
-62.636823
 20
90.296636
 30
0.0
 11
-62.636823
 21
85.675326
 31
0.0
  0
LINE
  5
180
100
AcDbEntity
  8
PV
  6
CONTINUOUS
 62
         3
100
AcDbLine
 10
-54.632823
 20
90.296636
 30
0.0
 11
-54.632823
 21
85.675326
 31
0.0
  0
LINE
  5
181
100
AcDbEntity
  8
PV
  6
CONTINUOUS
 62
         3
100
AcDbLine
 10
-58.634823
 20
83.364171
 30
0.0
 11
-54.632823
 21
85.675326
 31
0.0
  0
LINE
  5
182
100
AcDbEntity
  8
PV
  6
CONTINUOUS
 62
         3
100
AcDbLine
 10
-58.634823
 20
83.364171
 30
0.0
 11
-62.636823
 21
85.675326
 31
0.0
  0
LINE
  5
183
100
AcDbEntity
  8
PV
  6
CONTINUOUS
 62
         3
100
AcDbLine
 10
-58.634823
 20
92.60679
 30
0.0
 11
-62.636823
 21
90.295635
 31
0.0
  0
LINE
  5
184
100
AcDbEntity
  8
PV
  6
CONTINUOUS
 62
         3
100
AcDbLine
 10
-58.634823
 20
92.60679
 30
0.0
 11
-54.632823
 21
90.295635
 31
0.0
  0
LINE
  5
185
100
AcDbEntity
  8
PV
  6
CENTER
 62
         3
100
AcDbLine
 10
-46.371694
 20
20.585797
 30
0.0
 11
-22.302666
 21
6.689853
 31
0.0
  0
LINE
  5
186
100
AcDbEntity
  8
PV
  6
CENTER
 62
         3
100
AcDbLine
 10
-57.176094
 20
8.586801
 30
0.0
 11
-40.83993
 21
-13.898436
 31
0.0
  0
LINE
  5
187
100
AcDbEntity
  8
PV
  6
CENTER
 62
         3
100
AcDbLine
 10
-71.926465
 20
2.019519
 30
0.0
 11
-66.147577
 21
-25.166067
 31
0.0
  0
LINE
  5
188
100
AcDbEntity
  8
PV
  6
CENTER
 62
         3
100
AcDbLine
 10
-88.072534
 20
2.019519
 30
0.0
 11
-93.851423
 21
-25.166067
 31
0.0
  0
LINE
  5
189
100
AcDbEntity
  8
PV
  6
CENTER
 62
         3
100
AcDbLine
 10
-102.822906
 20
8.586801
 30
0.0
 11
-119.15907
 21
-13.898436
 31
0.0
  0
LINE
  5
18A
100
AcDbEntity
  8
PV
  6
CENTER
 62
         3
100
AcDbLine
 10
-113.626305
 20
20.585797
 30
0.0
 11
-137.696334
 21
6.688852
 31
0.0
  0
LINE
  5
18B
100
AcDbEntity
  8
PV
  6
CENTER
 62
         3
100
AcDbLine
 10
-118.615798
 20
35.941471
 30
0.0
 11
-146.256612
 21
33.036019
 31
0.0
  0
LINE
  5
18C
100
AcDbEntity
  8
PV
  6
CENTER
 62
         3
100
AcDbLine
 10
-116.927955
 20
51.999496
 30
0.0
 11
-143.361165
 21
60.587788
 31
0.0
  0
LINE
  5
18D
100
AcDbEntity
  8
PV
  6
CENTER
 62
         3
100
AcDbLine
 10
-108.85492
 20
65.982484
 30
0.0
 11
-129.509242
 21
84.579778
 31
0.0
  0
LINE
  5
18E
100
AcDbEntity
  8
PV
  6
CENTER
 62
         3
100
AcDbLine
 10
-95.792393
 20
75.473227
 30
0.0
 11
-107.097042
 21
100.862916
 31
0.0
  0
LINE
  5
18F
100
AcDbEntity
  8
PV
  6
CENTER
 62
         3
100
AcDbLine
 10
-79.9995
 20
-28.175571
 30
0.0
 11
-79.9995
 21
106.623795
 31
0.0
  0
LINE
  5
190
100
AcDbEntity
  8
PV
  6
CENTER
 62
         3
100
AcDbLine
 10
-64.206607
 20
75.473227
 30
0.0
 11
-52.901958
 21
100.863916
 31
0.0
  0
LINE
  5
191
100
AcDbEntity
  8
PV
  6
CENTER
 62
         3
100
AcDbLine
 10
-51.144079
 20
65.982484
 30
0.0
 11
-30.488757
 21
84.579778
 31
0.0
  0
LINE
  5
192
100
AcDbEntity
  8
PV
  6
CENTER
 62
         3
100
AcDbLine
 10
-43.071045
 20
51.999496
 30
0.0
 11
-16.637835
 21
60.587788
 31
0.0
  0
LINE
  5
193
100
AcDbEntity
  8
PV
  6
CENTER
 62
         3
100
AcDbLine
 10
-41.383201
 20
35.941471
 30
0.0
 11
-13.742388
 21
33.036019
 31
0.0
  0
LINE
  5
194
100
AcDbEntity
  8
PV
  6
CONTINUOUS
 62
         3
100
AcDbLine
 10
-18.926979
 20
39.0
 30
0.0
 11
-17.476254
 21
39.0
 31
0.0
  0
LINE
  5
195
100
AcDbEntity
  8
PV
  6
CONTINUOUS
 62
         3
100
AcDbLine
 10
-18.926979
 20
41.001
 30
0.0
 11
-17.476254
 21
41.001
 31
0.0
  0
LINE
  5
196
100
AcDbEntity
  8
PV
  6
CENTER
 62
         3
100
AcDbLine
 10
-146.066517
 20
40.0005
 30
0.0
 11
-9.621328
 21
40.0005
 31
0.0
  0
ENDSEC
  0
SECTION
  2
OBJECTS
  0
DICTIONARY
  5
19
100
AcDbDictionary
  3
ACAD_GROUP
350
1A
  3
ACAD_MLINESTYLE
350
1B
  0
DICTIONARY
  5
1A
102
{ACAD_REACTORS
330
19
102
}
100
AcDbDictionary
  0
DICTIONARY
  5
1B
102
{ACAD_REACTORS
330
19
102
}
100
AcDbDictionary
  3
STANDARD
350
1C
  0
MLINESTYLE
  5
1C
102
{ACAD_REACTORS
330
1B
102
}
100
AcDbMlineStyle
  2
Standard
 70
         0
  3

 62
         0
 51
90.0
 52
90.0
 71
         2
 49
0.5
 62
       256
  6
ByLayer
 49
-0.5
 62
       256
  6
ByLayer
  0
ENDSEC
  0
EOF
