  0
SECTION
  2
HEADER
  9
$ACADVER
  1
AC1014
  9
$ACADMAINTVER
 70
         0
  9
$DWGCODEPAGE
  3
ANSI_932
  9
$INSBASE
 10
0.0
 20
0.0
 30
0.0
  9
$EXTMIN
 10
-146.066517
 20
-165.0
 30
0.0
  9
$EXTMAX
 10
174.847642
 20
142.2572385316
 30
0.0
  9
$LIMMIN
 10
-146.066517
 20
-165.0
  9
$LIMMAX
 10
174.847642
 20
142.2572385316
  9
$ORTHOMODE
 70
         0
  9
$REGENMODE
 70
         1
  9
$FILLMODE
 70
         1
  9
$QTEXTMODE
 70
         0
  9
$MIRRTEXT
 70
         1
  9
$DRAGMODE
 70
         2
  9
$LTSCALE
 40
1.0
  9
$OSMODE
 70
         0
  9
$ATTMODE
 70
         1
  9
$TEXTSIZE
 40
3.2000000477
  9
$TRACEWID
 40
0.05
  9
$TEXTSTYLE
  7
MX_NOTE_STANDARD
  9
$CLAYER
  8
0
  9
$CELTYPE
  6
CONTINUOUS
  9
$CECOLOR
 62
       256
  9
$CELTSCALE
 40
1.0
  9
$DELOBJ
 70
         1
  9
$DISPSILH
 70
         0
  9
$DIMSCALE
 40
1.0
  9
$DIMASZ
 40
2.5
  9
$DIMEXO
 40
0.0
  9
$DIMDLI
 40
3.75
  9
$DIMRND
 40
0.0
  9
$DIMDLE
 40
0.0
  9
$DIMEXE
 40
2.5
  9
$DIMTP
 40
0.0
  9
$DIMTM
 40
0.0
  9
$DIMTXT
 40
3.2000000477
  9
$DIMCEN
 40
2.5
  9
$DIMTSZ
 40
0.0
  9
$DIMTOL
 70
         0
  9
$DIMLIM
 70
         0
  9
$DIMTIH
 70
         0
  9
$DIMTOH
 70
         0
  9
$DIMSE1
 70
         0
  9
$DIMSE2
 70
         0
  9
$DIMTAD
 70
         1
  9
$DIMZIN
 70
         8
  9
$DIMBLK
  1

  9
$DIMASO
 70
         1
  9
$DIMSHO
 70
         1
  9
$DIMPOST
  1

  9
$DIMAPOST
  1

  9
$DIMALT
 70
         0
  9
$DIMALTD
 70
         4
  9
$DIMALTF
 40
0.0393700787
  9
$DIMLFAC
 40
1.0
  9
$DIMTOFL
 70
         1
  9
$DIMTVP
 40
0.0
  9
$DIMTIX
 70
         0
  9
$DIMSOXD
 70
         0
  9
$DIMSAH
 70
         1
  9
$DIMBLK1
  1
_OPEN30
  9
$DIMBLK2
  1
_OPEN30
  9
$DIMSTYLE
  2
MXDIMSTYLE
  9
$DIMCLRD
 70
         0
  9
$DIMCLRE
 70
         0
  9
$DIMCLRT
 70
         0
  9
$DIMTFAC
 40
1.0
  9
$DIMGAP
 40
1.0
  9
$DIMJUST
 70
         0
  9
$DIMSD1
 70
         0
  9
$DIMSD2
 70
         0
  9
$DIMTOLJ
 70
         0
  9
$DIMTZIN
 70
         0
  9
$DIMALTZ
 70
         0
  9
$DIMALTTZ
 70
         0
  9
$DIMFIT
 70
         3
  9
$DIMUPT
 70
         0
  9
$DIMUNIT
 70
         2
  9
$DIMDEC
 70
         2
  9
$DIMTDEC
 70
         2
  9
$DIMALTU
 70
         2
  9
$DIMALTTD
 70
         4
  9
$DIMTXSTY
  7
MX_NOTE_STANDARD
  9
$DIMAUNIT
 70
         0
  9
$LUNITS
 70
         2
  9
$LUPREC
 70
         4
  9
$SKETCHINC
 40
0.1
  9
$FILLETRAD
 40
0.0
  9
$AUNITS
 70
         0
  9
$AUPREC
 70
         0
  9
$MENU
  1
acad
  9
$ELEVATION
 40
0.0
  9
$PELEVATION
 40
0.0
  9
$THICKNESS
 40
0.0
  9
$LIMCHECK
 70
         0
  9
$BLIPMODE
 70
         1
  9
$CHAMFERA
 40
0.0
  9
$CHAMFERB
 40
0.0
  9
$CHAMFERC
 40
0.0
  9
$CHAMFERD
 40
0.0
  9
$SKPOLY
 70
         0
  9
$TDCREATE
 40
2456603.419270834
  9
$TDUPDATE
 40
2456603.419270834
  9
$TDINDWG
 40
0.0000000000
  9
$TDUSRTIMER
 40
0.0000000000
  9
$USRTIMER
 70
         1
  9
$ANGBASE
 50
0.0
  9
$ANGDIR
 70
         0
  9
$PDMODE
 70
         0
  9
$PDSIZE
 40
0.0
  9
$PLINEWID
 40
0.0
  9
$COORDS
 70
         1
  9
$SPLFRAME
 70
         0
  9
$SPLINETYPE
 70
         6
  9
$SPLINESEGS
 70
         8
  9
$ATTDIA
 70
         0
  9
$ATTREQ
 70
         1
  9
$HANDLING
 70
         1
  9
$HANDSEED
  5
18D
  9
$SURFTAB1
 70
         6
  9
$SURFTAB2
 70
         6
  9
$SURFTYPE
 70
         6
  9
$SURFU
 70
         6
  9
$SURFV
 70
         6
  9
$UCSNAME
  2

  9
$UCSORG
 10
0.0
 20
0.0
 30
0.0
  9
$UCSXDIR
 10
1.0
 20
0.0
 30
0.0
  9
$UCSYDIR
 10
0.0
 20
1.0
 30
0.0
  9
$PUCSNAME
  2

  9
$PUCSORG
 10
0.0
 20
0.0
 30
0.0
  9
$PUCSXDIR
 10
1.0
 20
0.0
 30
0.0
  9
$PUCSYDIR
 10
0.0
 20
1.0
 30
0.0
  9
$USERI1
 70
         0
  9
$USERI2
 70
         0
  9
$USERI3
 70
         0
  9
$USERI4
 70
         0
  9
$USERI5
 70
         0
  9
$USERR1
 40
0.0
  9
$USERR2
 40
0.0
  9
$USERR3
 40
0.0
  9
$USERR4
 40
0.0
  9
$USERR5
 40
0.0
  9
$WORLDVIEW
 70
         1
  9
$SHADEDGE
 70
         3
  9
$SHADEDIF
 70
        70
  9
$TILEMODE
 70
         1
  9
$MAXACTVP
 70
        16
  9
$PINSBASE
 10
0.0
 20
0.0
 30
0.0
  9
$PLIMCHECK
 70
         0
  9
$PEXTMIN
 10
1.0000000000E+20
 20
1.0000000000E+20
 30
1.0000000000E+20
  9
$PEXTMAX
 10
-1.0000000000E+20
 20
-1.0000000000E+20
 30
-1.0000000000E+20
  9
$PLIMMIN
 10
0.0
 20
0.0
  9
$PLIMMAX
 10
12.0
 20
9.0
  9
$UNITMODE
 70
         0
  9
$VISRETAIN
 70
         0
  9
$PLINEGEN
 70
         1
  9
$PSLTSCALE
 70
         0
  9
$TREEDEPTH
 70
      3020
  9
$PICKSTYLE
 70
         1
  9
$CMLSTYLE
  2
Standard
  9
$CMLJUST
 70
         0
  9
$CMLSCALE
 40
1.0
  9
$PROXYGRAPHICS
 70
         0
  9
$MEASUREMENT
 70
         1
  0
ENDSEC
  0
SECTION
  2
CLASSES
  0
CLASS
  1
LWPOLYLINE
  2
AcDbPolyline
  3
"AutoCAD"
 90
        0
280
         0
281
         1
  0
CLASS
  1
IMAGE
  2
AcDbRasterImage
  3
ISM
 90
      127
280
         0
281
         1
  0
CLASS
  1
OLE2FRAME
  2
AcDbOle2Frame
  3
""
 90
        0
280
         0
281
         1
  0
CLASS
  1
HATCH
  2
AcDbHatch
  3
"ACAD_SEDONA"
 90
        0
280
         0
281
         1
  0
CLASS
  1
DICTIONARYVAR
  2
AcDbDictionaryVar
  3
"AutoCAD"
 90
        0
280
         0
281
         0
  0
CLASS
  1
RASTERVARIABLES
  2
AcDbRasterVariables
  3
ISM
 90
        0
280
         0
281
         0
  0
CLASS
  1
IMAGEDEF
  2
AcDbRasterImageDef
  3
ISM
 90
        0
280
         0
281
         0
  0
CLASS
  1
IMAGEDEF_REACTOR
  2
AcDbRasterImageDefReactor
  3
ISM
 90
        1
280
         0
281
         0
  0
CLASS
  1
IDBUFFER
  2
AcDbIdBuffer
  3
"Acad"
 90
        0
280
         0
281
         0
  0
CLASS
  1
SPATIAL_FILTER
  2
AcDbSpatialFilter
  3
"Acad"
 90
        0
280
         0
281
         0
  0
CLASS
  1
XRECORD
  2
AcDbXrecord
  3
"<Built In>"
 90
        0
280
         0
281
         0
  0
CLASS
  1
SORTENTSTABLE
  2
AcDbSortentsTable
  3
"AutoCAD"
 90
        0
280
         0
281
         0
  0
CLASS
  1
LAYER_INDEX
  2
AcDbLayerIndex
  3
"Acad"
 90
        0
280
         0
281
         0
  0
CLASS
  1
SPATIAL_INDEX
  2
AcDbSpatialIndex
  3
"Acad"
 90
        0
280
         0
281
         0
  0
CLASS
  1
OBJECT_PTR
  2
CAseDLPNTableRecord
  3
"ASE-LPNTableRecord"
 90
        1
280
         0
281
         0
  0
CLASS
  1
LAYOUT
  2
AcDbLayout
  3
"AutoCAD 2000"
 90
        0
280
         0
281
         0
  0
CLASS
  1
PLOTSETTINGS
  2
AcDbPlotSettings
  3
"AutoCAD 2000"
 90
        0
280
         0
281
         0
  0
CLASS
  1
ACDBDICTIONARYWDFLT
  2
AcDbDictionaryWithDefault
  3
"AutoCAD 2000"
 90
        0
280
         0
281
         0
  0
CLASS
  1
ACDBPLACEHOLDER
  2
AcDbPlaceHolder
  3
"AutoCAD 2000"
 90
        0
280
         0
281
         0
  0
ENDSEC
  0
SECTION
  2
TABLES
  0
TABLE
  2
VPORT
  5
7
100
AcDbSymbolTable
 70
         1
  0
VPORT
  5
15
100
AcDbSymbolTableRecord
100
AcDbViewportTableRecord
  2
*ACTIVE
 70
         0
 10
0.0
 20
0.0
 11
1.0
 21
1.0
 12
14.3905625
 22
-11.3713807342
 13
0.0
 23
0.0
 14
1.0
 24
1.0
 15
0.0
 25
0.0
 16
0.0
 26
0.0
 36
1.0
 17
0.0
 27
0.0
 37
0.0
 40
310.3298109169
 41
1.7320508076
 42
50.0
 43
0.0
 44
0.0
 50
0.0
 51
0.0
 71
         0
 72
       100
 73
         1
 74
         1
 75
         0
 76
         0
 77
         0
 78
         0
  0
ENDTAB
  0
TABLE
  2
LTYPE
  5
4
100
AcDbSymbolTable
 70
         4
  0
LTYPE
  5
11
100
AcDbSymbolTableRecord
100
AcDbLinetypeTableRecord
  2
BYBLOCK
 70
        64
  3

 72
        65
 73
         0
 40
0.0
  0
LTYPE
  5
12
100
AcDbSymbolTableRecord
100
AcDbLinetypeTableRecord
  2
BYLAYER
 70
        64
  3

 72
        65
 73
         0
 40
0.0
  0
LTYPE
  5
13
100
AcDbSymbolTableRecord
100
AcDbLinetypeTableRecord
  2
CONTINUOUS
 70
        64
  3
Solid line
 72
        65
 73
         0
 40
0.0
  0
LTYPE
  5
F6
100
AcDbSymbolTableRecord
100
AcDbLinetypeTableRecord
  2
CENTER
 70
        64
  3
Center ____ _ ____ _ ____ _ ____ _ ____ _ ____
 72
        65
 73
         4
 40
50.8
 49
31.75
 74
         0
 49
-6.35
 74
         0
 49
6.35
 74
         0
 49
-6.35
 74
         0
  0
ENDTAB
  0
TABLE
  2
LAYER
  5
2
100
AcDbSymbolTable
 70
         3
  0
LAYER
  5
14
100
AcDbSymbolTableRecord
100
AcDbLayerTableRecord
  2
0
 70
         0
 62
         7
  6
CONTINUOUS
  0
LAYER
  5
1D
100
AcDbSymbolTableRecord
100
AcDbLayerTableRecord
  2
DEFPOINTS
 70
         0
 62
         7
  6
CONTINUOUS
  0
LAYER
  5
1E
100
AcDbSymbolTableRecord
100
AcDbLayerTableRecord
  2
PV
 70
         0
 62
         3
  6
CONTINUOUS
  0
ENDTAB
  0
TABLE
  2
STYLE
  5
3
100
AcDbSymbolTable
 70
         3
  0
STYLE
  5
17
100
AcDbSymbolTableRecord
100
AcDbTextStyleTableRecord
  2
MX_NOTE_STANDARD
 70
         0
 40
0.0
 41
1.0
 50
0.0
 71
         0
 42
3.2000000477
  3
txt.shx
  4
extfont.shx
  0
STYLE
  5
41
100
AcDbSymbolTableRecord
100
AcDbTextStyleTableRecord
  2
MX_DIMTXSTY_2
 70
         0
 40
0.0
 41
1.25
 50
0.0
 71
         0
 42
3.2000000477
  3
txt.shx
  4
extfont.shx
  0
STYLE
  5
8D
100
AcDbSymbolTableRecord
100
AcDbTextStyleTableRecord
  2
MX_DIMTXSTY_3
 70
         0
 40
0.0
 41
1.05
 50
0.0
 71
         0
 42
3.2000000477
  3
txt.shx
  4
extfont.shx
  0
ENDTAB
  0
TABLE
  2
VIEW
  5
5
100
AcDbSymbolTable
 70
         0
  0
ENDTAB
  0
TABLE
  2
UCS
  5
6
100
AcDbSymbolTable
 70
         0
  0
ENDTAB
  0
TABLE
  2
APPID
  5
8
100
AcDbSymbolTable
 70
         1
  0
APPID
  5
16
100
AcDbSymbolTableRecord
100
AcDbRegAppTableRecord
  2
ACAD
 70
         0
  0
ENDTAB
  0
TABLE
  2
DIMSTYLE
  5
9
100
AcDbSymbolTable
 70
         1
  0
DIMSTYLE
105
18
100
AcDbSymbolTableRecord
100
AcDbDimStyleTableRecord
  2
MXDIMSTYLE
 70
         0
  3

  4

  5

  6
_OPEN30
  7
_OPEN30
 40
1.0
 41
2.5
 42
0.0
 43
3.75
 44
2.5
 45
0.0
 46
0.0
 47
0.0
 48
0.0
 71
         0
 72
         0
 73
         0
 74
         0
 75
         0
 76
         0
 77
         1
 78
         8
140
3.2000000477
141
2.5
142
0.0
143
0.0393700787
144
1.0
145
0.0
146
1.0
147
1.0
170
         0
171
         4
172
         1
173
         1
174
         0
175
         0
176
         0
177
         0
178
         0
270
         2
271
         2
272
         2
273
         2
274
         4
275
         0
280
         0
281
         0
282
         0
283
         0
284
         0
285
         0
286
         0
287
         3
288
         0
340
17
  0
ENDTAB
  0
TABLE
  2
BLOCK_RECORD
  5
1
100
AcDbSymbolTable
 70
         9
  0
BLOCK_RECORD
  5
A
100
AcDbSymbolTableRecord
100
AcDbBlockTableRecord
  2
*MODEL_SPACE
  0
BLOCK_RECORD
  5
B
100
AcDbSymbolTableRecord
100
AcDbBlockTableRecord
  2
*PAPER_SPACE
  0
BLOCK_RECORD
  5
1F
100
AcDbSymbolTableRecord
100
AcDbBlockTableRecord
  2
ARROW
  0
BLOCK_RECORD
  5
20
100
AcDbSymbolTableRecord
100
AcDbBlockTableRecord
  2
_OPEN30
  0
BLOCK_RECORD
  5
2B
100
AcDbSymbolTableRecord
100
AcDbBlockTableRecord
  2
*D2
  0
BLOCK_RECORD
  5
3A
100
AcDbSymbolTableRecord
100
AcDbBlockTableRecord
  2
*D3
  0
BLOCK_RECORD
  5
48
100
AcDbSymbolTableRecord
100
AcDbBlockTableRecord
  2
*D4
  0
BLOCK_RECORD
  5
57
100
AcDbSymbolTableRecord
100
AcDbBlockTableRecord
  2
*D5
  0
BLOCK_RECORD
  5
66
100
AcDbSymbolTableRecord
100
AcDbBlockTableRecord
  2
*D6
  0
BLOCK_RECORD
  5
75
100
AcDbSymbolTableRecord
100
AcDbBlockTableRecord
  2
*D7
  0
BLOCK_RECORD
  5
84
100
AcDbSymbolTableRecord
100
AcDbBlockTableRecord
  2
*D8
  0
ENDTAB
  0
ENDSEC
  0
SECTION
  2
BLOCKS
  0
BLOCK
  5
D
100
AcDbEntity
  8
0
100
AcDbBlockBegin
  2
*MODEL_SPACE
 70
         0
 10
0.0
 20
0.0
 30
0.0
  3
*MODEL_SPACE
  1

  0
ENDBLK
  5
E
100
AcDbEntity
  8
0
100
AcDbBlockEnd
  0
BLOCK
  5
F
100
AcDbEntity
 67
         1
  8
0
100
AcDbBlockBegin
  2
*PAPER_SPACE
 70
         0
 10
0.0
 20
0.0
 30
0.0
  3
*PAPER_SPACE
  1

  0
ENDBLK
  5
10
100
AcDbEntity
 67
         1
  8
0
100
AcDbBlockEnd
  0
BLOCK
  5
26
100
AcDbEntity
  8
0
100
AcDbBlockBegin
  2
ARROW
 70
         0
 10
0.0
 20
0.0
 30
0.0
  3
ARROW
  1

  0
LWPOLYLINE
  5
27
100
AcDbEntity
  8
0
  6
CONTINUOUS
 62
       161
100
AcDbPolyline
 90
        3
 70
         0
 10
3.44517
 20
0.92313
 10
0.0
 20
0.0
 10
3.44517
 20
-0.92313
  0
ENDBLK
  5
28
100
AcDbEntity
  8
0
100
AcDbBlockEnd
  0
BLOCK
  5
21
100
AcDbEntity
  8
0
  6
ByBlock
 62
         0
100
AcDbBlockBegin
  2
_OPEN30
 70
         2
 10
0.0
 20
0.0
 30
0.0
  3
_OPEN30
  1

  0
LINE
  5
22
100
AcDbEntity
  8
0
  6
ByBlock
 62
         0
100
AcDbLine
 10
-1.0
 20
0.267949
 30
0.0
 11
0.0
 21
0.0
 31
0.0
  0
LINE
  5
23
100
AcDbEntity
  8
0
  6
ByBlock
 62
         0
100
AcDbLine
 10
0.0
 20
0.0
 30
0.0
 11
-1.0
 21
-0.267949
 31
0.0
  0
LINE
  5
24
100
AcDbEntity
  8
0
  6
ByBlock
 62
         0
100
AcDbLine
 10
0.0
 20
0.0
 30
0.0
 11
-1.0
 21
0.0
 31
0.0
  0
ENDBLK
  5
25
100
AcDbEntity
  8
0
  6
ByBlock
 62
         0
100
AcDbBlockEnd
  0
BLOCK
  5
2C
100
AcDbEntity
  8
0
  6
ByBlock
 62
         0
100
AcDbBlockBegin
  2
*D2
 70
         1
 10
0.0
 20
0.0
 30
0.0
  3
*D2
  1

  0
LINE
  5
2D
100
AcDbEntity
  8
0
  6
CONTINUOUS
 62
        80
100
AcDbLine
 10
59.9955
 20
136.990572
 30
0.0
 11
98.0145
 21
136.990572
 31
0.0
  0
LINE
  5
2E
100
AcDbEntity
  8
0
  6
CONTINUOUS
 62
        80
100
AcDbLine
 10
59.9955
 20
96.989981
 30
0.0
 11
59.9955
 21
138.990572
 31
0.0
  0
LINE
  5
2F
100
AcDbEntity
  8
0
  6
CONTINUOUS
 62
        80
100
AcDbLine
 10
98.0145
 20
98.579775
 30
0.0
 11
98.0145
 21
138.990572
 31
0.0
  0
LINE
  5
30
100
AcDbEntity
  8
0
  6
CONTINUOUS
 62
        80
100
AcDbLine
 10
59.9955
 20
136.990572
 30
0.0
 11
55.9955
 21
136.990572
 31
0.0
  0
LINE
  5
31
100
AcDbEntity
  8
0
  6
CONTINUOUS
 62
        80
100
AcDbLine
 10
98.0145
 20
136.990572
 30
0.0
 11
102.0145
 21
136.990572
 31
0.0
  0
SOLID
  5
32
100
AcDbEntity
  8
0
  6
CONTINUOUS
 62
        80
100
AcDbTrace
 10
58.9954999702
 20
137.157239005
 30
0.0
 11
58.9954999702
 21
136.823904995
 31
0.0
 12
59.9955
 22
136.990572
 32
0.0
 13
59.9955
 23
136.990572
 33
0.0
  0
SOLID
  5
33
100
AcDbEntity
  8
0
  6
CONTINUOUS
 62
        80
100
AcDbTrace
 10
99.0145000298
 20
136.823904995
 30
0.0
 11
99.0145000298
 21
137.157239005
 31
0.0
 12
98.0145
 22
136.990572
 32
0.0
 13
98.0145
 23
136.990572
 33
0.0
  0
MTEXT
  5
34
100
AcDbEntity
  8
0
  6
CONTINUOUS
 62
        80
100
AcDbMText
 10
78.5216669159
 20
139.5905720238
 30
0.0
 40
3.2000000477
 41
0.0
 71
         5
 72
         1
  1
\A1;38
  0
POINT
  5
35
100
AcDbEntity
  8
DEFPOINTS
  6
CONTINUOUS
 62
         0
100
AcDbPoint
 10
59.9955
 20
96.989981
 30
0.0
  0
POINT
  5
36
100
AcDbEntity
  8
DEFPOINTS
  6
CONTINUOUS
 62
         0
100
AcDbPoint
 10
98.0145
 20
98.579775
 30
0.0
  0
POINT
  5
37
100
AcDbEntity
  8
DEFPOINTS
  6
CONTINUOUS
 62
         0
100
AcDbPoint
 10
98.0145
 20
136.990572
 30
0.0
  0
ENDBLK
  5
38
100
AcDbEntity
  8
0
  6
ByBlock
 62
         0
100
AcDbBlockEnd
  0
BLOCK
  5
3B
100
AcDbEntity
  8
0
  6
ByBlock
 62
         0
100
AcDbBlockBegin
  2
*D3
 70
         1
 10
0.0
 20
0.0
 30
0.0
  3
*D3
  1

  0
LINE
  5
3C
100
AcDbEntity
  8
0
  6
CONTINUOUS
 62
        80
100
AcDbLine
 10
59.9955
 20
125.196251
 30
0.0
 11
70.0005
 21
125.196251
 31
0.0
  0
LINE
  5
3D
100
AcDbEntity
  8
0
  6
CONTINUOUS
 62
        80
100
AcDbLine
 10
59.9955
 20
96.989981
 30
0.0
 11
59.9955
 21
127.196251
 31
0.0
  0
LINE
  5
3E
100
AcDbEntity
  8
0
  6
CONTINUOUS
 62
        80
100
AcDbLine
 10
70.0005
 20
98.579775
 30
0.0
 11
70.0005
 21
127.196251
 31
0.0
  0
SOLID
  5
3F
100
AcDbEntity
  8
0
  6
CONTINUOUS
 62
        80
100
AcDbTrace
 10
60.9955000298
 20
125.029583995
 30
0.0
 11
60.9955000298
 21
125.362918005
 31
0.0
 12
59.9955
 22
125.196251
 32
0.0
 13
59.9955
 23
125.196251
 33
0.0
  0
SOLID
  5
40
100
AcDbEntity
  8
0
  6
CONTINUOUS
 62
        80
100
AcDbTrace
 10
69.0004999702
 20
125.362918005
 30
0.0
 11
69.0004999702
 21
125.029583995
 31
0.0
 12
70.0005
 22
125.196251
 32
0.0
 13
70.0005
 23
125.196251
 33
0.0
  0
MTEXT
  5
42
100
AcDbEntity
  8
0
  6
CONTINUOUS
 62
        80
100
AcDbMText
 10
64.5146669464
 20
127.7962510238
 30
0.0
 40
3.2000000477
 41
0.0
 71
         5
 72
         1
  1
\A1;10
  7
MX_DIMTXSTY_2
  0
POINT
  5
43
100
AcDbEntity
  8
DEFPOINTS
  6
CONTINUOUS
 62
         0
100
AcDbPoint
 10
59.9955
 20
96.989981
 30
0.0
  0
POINT
  5
44
100
AcDbEntity
  8
DEFPOINTS
  6
CONTINUOUS
 62
         0
100
AcDbPoint
 10
70.0005
 20
98.579775
 30
0.0
  0
POINT
  5
45
100
AcDbEntity
  8
DEFPOINTS
  6
CONTINUOUS
 62
         0
100
AcDbPoint
 10
70.0005
 20
125.196251
 30
0.0
  0
ENDBLK
  5
46
100
AcDbEntity
  8
0
  6
ByBlock
 62
         0
100
AcDbBlockEnd
  0
BLOCK
  5
49
100
AcDbEntity
  8
0
  6
ByBlock
 62
         0
100
AcDbBlockBegin
  2
*D4
 70
         1
 10
0.0
 20
0.0
 30
0.0
  3
*D4
  1

  0
LINE
  5
4A
100
AcDbEntity
  8
0
  6
CONTINUOUS
 62
        80
100
AcDbLine
 10
70.0005
 20
125.196251
 30
0.0
 11
98.0145
 21
125.196251
 31
0.0
  0
LINE
  5
4B
100
AcDbEntity
  8
0
  6
CONTINUOUS
 62
        80
100
AcDbLine
 10
70.0005
 20
98.579775
 30
0.0
 11
70.0005
 21
127.196251
 31
0.0
  0
LINE
  5
4C
100
AcDbEntity
  8
0
  6
CONTINUOUS
 62
        80
100
AcDbLine
 10
98.0145
 20
98.579775
 30
0.0
 11
98.0145
 21
127.196251
 31
0.0
  0
LINE
  5
4D
100
AcDbEntity
  8
0
  6
CONTINUOUS
 62
        80
100
AcDbLine
 10
70.0005
 20
125.196251
 30
0.0
 11
66.0005
 21
125.196251
 31
0.0
  0
LINE
  5
4E
100
AcDbEntity
  8
0
  6
CONTINUOUS
 62
        80
100
AcDbLine
 10
98.0145
 20
125.196251
 30
0.0
 11
102.0145
 21
125.196251
 31
0.0
  0
SOLID
  5
4F
100
AcDbEntity
  8
0
  6
CONTINUOUS
 62
        80
100
AcDbTrace
 10
69.0004999702
 20
125.362918005
 30
0.0
 11
69.0004999702
 21
125.029583995
 31
0.0
 12
70.0005
 22
125.196251
 32
0.0
 13
70.0005
 23
125.196251
 33
0.0
  0
SOLID
  5
50
100
AcDbEntity
  8
0
  6
CONTINUOUS
 62
        80
100
AcDbTrace
 10
99.0145000298
 20
125.029583995
 30
0.0
 11
99.0145000298
 21
125.362918005
 31
0.0
 12
98.0145
 22
125.196251
 32
0.0
 13
98.0145
 23
125.196251
 33
0.0
  0
MTEXT
  5
51
100
AcDbEntity
  8
0
  6
CONTINUOUS
 62
        80
100
AcDbMText
 10
83.5241663818
 20
127.7962510238
 30
0.0
 40
3.2000000477
 41
0.0
 71
         5
 72
         1
  1
\A1;28
  0
POINT
  5
52
100
AcDbEntity
  8
DEFPOINTS
  6
CONTINUOUS
 62
         0
100
AcDbPoint
 10
70.0005
 20
98.579775
 30
0.0
  0
POINT
  5
53
100
AcDbEntity
  8
DEFPOINTS
  6
CONTINUOUS
 62
         0
100
AcDbPoint
 10
98.0145
 20
98.579775
 30
0.0
  0
POINT
  5
54
100
AcDbEntity
  8
DEFPOINTS
  6
CONTINUOUS
 62
         0
100
AcDbPoint
 10
98.0145
 20
125.196251
 30
0.0
  0
ENDBLK
  5
55
100
AcDbEntity
  8
0
  6
ByBlock
 62
         0
100
AcDbBlockEnd
  0
BLOCK
  5
58
100
AcDbEntity
  8
0
  6
ByBlock
 62
         0
100
AcDbBlockBegin
  2
*D5
 70
         1
 10
0.0
 20
0.0
 30
0.0
  3
*D5
  1

  0
LINE
  5
59
100
AcDbEntity
  8
0
  6
CONTINUOUS
 62
        80
100
AcDbLine
 10
71.50125
 20
116.023454
 30
0.0
 11
96.51375
 21
116.023454
 31
0.0
  0
LINE
  5
5A
100
AcDbEntity
  8
0
  6
CONTINUOUS
 62
        80
100
AcDbLine
 10
71.50125
 20
100.0305
 30
0.0
 11
71.50125
 21
118.023454
 31
0.0
  0
LINE
  5
5B
100
AcDbEntity
  8
0
  6
CONTINUOUS
 62
        80
100
AcDbLine
 10
96.51375
 20
100.0305
 30
0.0
 11
96.51375
 21
118.023454
 31
0.0
  0
LINE
  5
5C
100
AcDbEntity
  8
0
  6
CONTINUOUS
 62
        80
100
AcDbLine
 10
71.50125
 20
116.023454
 30
0.0
 11
67.50125
 21
116.023454
 31
0.0
  0
LINE
  5
5D
100
AcDbEntity
  8
0
  6
CONTINUOUS
 62
        80
100
AcDbLine
 10
96.51375
 20
116.023454
 30
0.0
 11
100.51375
 21
116.023454
 31
0.0
  0
SOLID
  5
5E
100
AcDbEntity
  8
0
  6
CONTINUOUS
 62
        80
100
AcDbTrace
 10
70.5012499702
 20
116.190121005
 30
0.0
 11
70.5012499702
 21
115.856786995
 31
0.0
 12
71.50125
 22
116.023454
 32
0.0
 13
71.50125
 23
116.023454
 33
0.0
  0
SOLID
  5
5F
100
AcDbEntity
  8
0
  6
CONTINUOUS
 62
        80
100
AcDbTrace
 10
97.5137500298
 20
115.856786995
 30
0.0
 11
97.5137500298
 21
116.190121005
 31
0.0
 12
96.51375
 22
116.023454
 32
0.0
 13
96.51375
 23
116.023454
 33
0.0
  0
MTEXT
  5
60
100
AcDbEntity
  8
0
  6
CONTINUOUS
 62
        80
100
AcDbMText
 10
83.5241667938
 20
118.6234540238
 30
0.0
 40
3.2000000477
 41
0.0
 71
         5
 72
         1
  1
\A1;25
  0
POINT
  5
61
100
AcDbEntity
  8
DEFPOINTS
  6
CONTINUOUS
 62
         0
100
AcDbPoint
 10
71.50125
 20
100.0305
 30
0.0
  0
POINT
  5
62
100
AcDbEntity
  8
DEFPOINTS
  6
CONTINUOUS
 62
         0
100
AcDbPoint
 10
96.51375
 20
100.0305
 30
0.0
  0
POINT
  5
63
100
AcDbEntity
  8
DEFPOINTS
  6
CONTINUOUS
 62
         0
100
AcDbPoint
 10
96.51375
 20
116.023454
 30
0.0
  0
ENDBLK
  5
64
100
AcDbEntity
  8
0
  6
ByBlock
 62
         0
100
AcDbBlockEnd
  0
BLOCK
  5
67
100
AcDbEntity
  8
0
  6
ByBlock
 62
         0
100
AcDbBlockBegin
  2
*D6
 70
         1
 10
0.0
 20
0.0
 30
0.0
  3
*D6
  1

  0
LINE
  5
68
100
AcDbEntity
  8
0
  6
CONTINUOUS
 62
        80
100
AcDbLine
 10
133.959328
 20
100.0305
 30
0.0
 11
133.959328
 21
-20.0295
 31
0.0
  0
LINE
  5
69
100
AcDbEntity
  8
0
  6
CONTINUOUS
 62
        80
100
AcDbLine
 10
96.513748
 20
100.0305
 30
0.0
 11
135.959328
 21
100.0305
 31
0.0
  0
LINE
  5
6A
100
AcDbEntity
  8
0
  6
CONTINUOUS
 62
        80
100
AcDbLine
 10
96.513748
 20
-20.0295
 30
0.0
 11
135.959328
 21
-20.0295
 31
0.0
  0
LINE
  5
6B
100
AcDbEntity
  8
0
  6
CONTINUOUS
 62
        80
100
AcDbLine
 10
133.959328
 20
100.0305
 30
0.0
 11
133.959328
 21
104.0305
 31
0.0
  0
LINE
  5
6C
100
AcDbEntity
  8
0
  6
CONTINUOUS
 62
        80
100
AcDbLine
 10
133.959328
 20
-20.0295
 30
0.0
 11
133.959328
 21
-24.0295
 31
0.0
  0
SOLID
  5
6D
100
AcDbEntity
  8
0
  6
CONTINUOUS
 62
        80
100
AcDbTrace
 10
134.125995005
 20
101.0305000298
 30
0.0
 11
133.792660995
 21
101.0305000298
 31
0.0
 12
133.959328
 22
100.0305
 32
0.0
 13
133.959328
 23
100.0305
 33
0.0
  0
SOLID
  5
6E
100
AcDbEntity
  8
0
  6
CONTINUOUS
 62
        80
100
AcDbTrace
 10
133.792660995
 20
-21.0295000298
 30
0.0
 11
134.125995005
 21
-21.0295000298
 31
0.0
 12
133.959328
 22
-20.0295
 32
0.0
 13
133.959328
 23
-20.0295
 33
0.0
  0
MTEXT
  5
6F
100
AcDbEntity
  8
0
  6
CONTINUOUS
 62
        80
100
AcDbMText
 10
131.3593279762
 20
39.3171668701
 30
0.0
 40
3.2000000477
 41
0.0
 71
         5
 72
         1
  1
\A1;\U+2205120
 11
0.0
 21
1.0
 31
0.0
  0
POINT
  5
70
100
AcDbEntity
  8
DEFPOINTS
  6
CONTINUOUS
 62
         0
100
AcDbPoint
 10
96.513748
 20
100.0305
 30
0.0
  0
POINT
  5
71
100
AcDbEntity
  8
DEFPOINTS
  6
CONTINUOUS
 62
         0
100
AcDbPoint
 10
96.513748
 20
-20.0295
 30
0.0
  0
POINT
  5
72
100
AcDbEntity
  8
DEFPOINTS
  6
CONTINUOUS
 62
         0
100
AcDbPoint
 10
133.959328
 20
-20.0295
 30
0.0
  0
ENDBLK
  5
73
100
AcDbEntity
  8
0
  6
ByBlock
 62
         0
100
AcDbBlockEnd
  0
BLOCK
  5
76
100
AcDbEntity
  8
0
  6
ByBlock
 62
         0
100
AcDbBlockBegin
  2
*D7
 70
         1
 10
0.0
 20
0.0
 30
0.0
  3
*D7
  1

  0
LINE
  5
77
100
AcDbEntity
  8
0
  6
CONTINUOUS
 62
        80
100
AcDbLine
 10
116.012797
 20
80.0205
 30
0.0
 11
116.012797
 21
-0.0195
 31
0.0
  0
LINE
  5
78
100
AcDbEntity
  8
0
  6
CONTINUOUS
 62
        80
100
AcDbLine
 10
96.513751
 20
80.0205
 30
0.0
 11
118.012797
 21
80.0205
 31
0.0
  0
LINE
  5
79
100
AcDbEntity
  8
0
  6
CONTINUOUS
 62
        80
100
AcDbLine
 10
96.513751
 20
-0.0195
 30
0.0
 11
118.012797
 21
-0.0195
 31
0.0
  0
LINE
  5
7A
100
AcDbEntity
  8
0
  6
CONTINUOUS
 62
        80
100
AcDbLine
 10
116.012797
 20
80.0205
 30
0.0
 11
116.012797
 21
84.0205
 31
0.0
  0
LINE
  5
7B
100
AcDbEntity
  8
0
  6
CONTINUOUS
 62
        80
100
AcDbLine
 10
116.012797
 20
-0.0195
 30
0.0
 11
116.012797
 21
-4.0195
 31
0.0
  0
SOLID
  5
7C
100
AcDbEntity
  8
0
  6
CONTINUOUS
 62
        80
100
AcDbTrace
 10
116.179464005
 20
81.0205000298
 30
0.0
 11
115.846129995
 21
81.0205000298
 31
0.0
 12
116.012797
 22
80.0205
 32
0.0
 13
116.012797
 23
80.0205
 33
0.0
  0
SOLID
  5
7D
100
AcDbEntity
  8
0
  6
CONTINUOUS
 62
        80
100
AcDbTrace
 10
115.846129995
 20
-1.0195000298
 30
0.0
 11
116.179464005
 21
-1.0195000298
 31
0.0
 12
116.012797
 22
-0.0195
 32
0.0
 13
116.012797
 23
-0.0195
 33
0.0
  0
MTEXT
  5
7E
100
AcDbEntity
  8
0
  6
CONTINUOUS
 62
        80
100
AcDbMText
 10
113.4127969762
 20
39.4171636658
 30
0.0
 40
3.2000000477
 41
0.0
 71
         5
 72
         1
  1
\A1;\U+220580
 11
0.0
 21
1.0
 31
0.0
  0
POINT
  5
7F
100
AcDbEntity
  8
DEFPOINTS
  6
CONTINUOUS
 62
         0
100
AcDbPoint
 10
96.513751
 20
80.0205
 30
0.0
  0
POINT
  5
80
100
AcDbEntity
  8
DEFPOINTS
  6
CONTINUOUS
 62
         0
100
AcDbPoint
 10
96.513751
 20
-0.0195
 30
0.0
  0
POINT
  5
81
100
AcDbEntity
  8
DEFPOINTS
  6
CONTINUOUS
 62
         0
100
AcDbPoint
 10
116.012797
 20
-0.0195
 30
0.0
  0
ENDBLK
  5
82
100
AcDbEntity
  8
0
  6
ByBlock
 62
         0
100
AcDbBlockEnd
  0
BLOCK
  5
85
100
AcDbEntity
  8
0
  6
ByBlock
 62
         0
100
AcDbBlockBegin
  2
*D8
 70
         1
 10
0.0
 20
0.0
 30
0.0
  3
*D8
  1

  0
LINE
  5
86
100
AcDbEntity
  8
0
  6
CONTINUOUS
 62
        80
100
AcDbLine
 10
46.469988
 20
-10.0245
 30
0.0
 11
46.469988
 21
90.0255
 31
0.0
  0
LINE
  5
87
100
AcDbEntity
  8
0
  6
CONTINUOUS
 62
        80
100
AcDbLine
 10
54.993
 20
-10.0245
 30
0.0
 11
44.469988
 21
-10.0245
 31
0.0
  0
LINE
  5
88
100
AcDbEntity
  8
0
  6
CONTINUOUS
 62
        80
100
AcDbLine
 10
54.993
 20
90.0255
 30
0.0
 11
44.469988
 21
90.0255
 31
0.0
  0
LINE
  5
89
100
AcDbEntity
  8
0
  6
CONTINUOUS
 62
        80
100
AcDbLine
 10
46.469988
 20
-10.0245
 30
0.0
 11
46.469988
 21
-14.0245
 31
0.0
  0
LINE
  5
8A
100
AcDbEntity
  8
0
  6
CONTINUOUS
 62
        80
100
AcDbLine
 10
46.469988
 20
90.0255
 30
0.0
 11
46.469988
 21
94.0255
 31
0.0
  0
SOLID
  5
8B
100
AcDbEntity
  8
0
  6
CONTINUOUS
 62
        80
100
AcDbTrace
 10
46.303320995
 20
-11.0245000298
 30
0.0
 11
46.636655005
 21
-11.0245000298
 31
0.0
 12
46.469988
 22
-10.0245
 32
0.0
 13
46.469988
 23
-10.0245
 33
0.0
  0
SOLID
  5
8C
100
AcDbEntity
  8
0
  6
CONTINUOUS
 62
        80
100
AcDbTrace
 10
46.636655005
 20
91.0255000298
 30
0.0
 11
46.303320995
 21
91.0255000298
 31
0.0
 12
46.469988
 22
90.0255
 32
0.0
 13
46.469988
 23
90.0255
 33
0.0
  0
MTEXT
  5
8E
100
AcDbEntity
  8
0
  6
CONTINUOUS
 62
        80
100
AcDbMText
 10
43.8699879762
 20
39.3171671753
 30
0.0
 40
3.2000000477
 41
0.0
 71
         5
 72
         1
  1
\A1;\U+2205100
  7
MX_DIMTXSTY_3
 11
0.0
 21
1.0
 31
0.0
  0
POINT
  5
8F
100
AcDbEntity
  8
DEFPOINTS
  6
CONTINUOUS
 62
         0
100
AcDbPoint
 10
54.993
 20
-10.0245
 30
0.0
  0
POINT
  5
90
100
AcDbEntity
  8
DEFPOINTS
  6
CONTINUOUS
 62
         0
100
AcDbPoint
 10
54.993
 20
90.0255
 30
0.0
  0
POINT
  5
91
100
AcDbEntity
  8
DEFPOINTS
  6
CONTINUOUS
 62
         0
100
AcDbPoint
 10
46.469988
 20
90.0255
 30
0.0
  0
ENDBLK
  5
92
100
AcDbEntity
  8
0
  6
ByBlock
 62
         0
100
AcDbBlockEnd
  0
ENDSEC
  0
SECTION
  2
ENTITIES
  0
MTEXT
  5
29
100
AcDbEntity
  8
0
  6
CONTINUOUS
 62
       110
100
AcDbMText
 10
-31.9073114811
 20
-39.753211
 30
0.0
 40
4.8000001907
 41
0.0
 71
         1
 72
         1
  1
\T1.065;\W1.018;\A1;TSUBAKI
  0
MTEXT
  5
2A
100
AcDbEntity
  8
0
  6
CONTINUOUS
 62
       110
100
AcDbMText
 10
-75.9739564811
 20
-75.847
 30
0.0
 40
4.8000001907
 41
0.0
 71
         1
 72
         1
  1
\T1.065;\W1.018;\A1;TSUBAKI
  0
DIMENSION
  5
39
100
AcDbEntity
  8
PV
  6
CONTINUOUS
 62
        80
100
AcDbDimension
  2
*D2
 10
98.0145
 20
136.990572
 30
0.0
 11
78.5216669159
 21
136.990572
 31
0.0
 70
       128
  1
\A1;<>
  3
MXDIMSTYLE
100
AcDbAlignedDimension
 13
59.9955
 23
96.989981
 33
0.0
 14
98.0145
 24
98.579775
 34
0.0
100
AcDbRotatedDimension
1001
ACAD
1000
DSTYLE
1002
{
1070
         6
1000
SOLID
1070
         7
1000
SOLID
1070
        41
1040
1.0000000298
1070
        44
1040
2.0
1070
       271
1070
         4
1070
       284
1070
         8
1070
       343
1005
0
1070
       344
1005
0
1002
}
  0
DIMENSION
  5
47
100
AcDbEntity
  8
PV
  6
CONTINUOUS
 62
        80
100
AcDbDimension
  2
*D3
 10
70.0005
 20
125.196251
 30
0.0
 11
64.5146669464
 21
125.196251
 31
0.0
 70
       128
  1
\A1;<>
  3
MXDIMSTYLE
100
AcDbAlignedDimension
 13
59.9955
 23
96.989981
 33
0.0
 14
70.0005
 24
98.579775
 34
0.0
100
AcDbRotatedDimension
1001
ACAD
1000
DSTYLE
1002
{
1070
         6
1000
SOLID
1070
         7
1000
SOLID
1070
        41
1040
1.0000000298
1070
        44
1040
2.0
1070
       271
1070
         4
1070
       284
1070
         8
1070
       340
1005
41
1070
       343
1005
0
1070
       344
1005
0
1002
}
  0
DIMENSION
  5
56
100
AcDbEntity
  8
PV
  6
CONTINUOUS
 62
        80
100
AcDbDimension
  2
*D4
 10
98.0145
 20
125.196251
 30
0.0
 11
83.5241663818
 21
125.196251
 31
0.0
 70
       128
  1
\A1;<>
  3
MXDIMSTYLE
100
AcDbAlignedDimension
 13
70.0005
 23
98.579775
 33
0.0
 14
98.0145
 24
98.579775
 34
0.0
100
AcDbRotatedDimension
1001
ACAD
1000
DSTYLE
1002
{
1070
         6
1000
SOLID
1070
         7
1000
SOLID
1070
        41
1040
1.0000000298
1070
        44
1040
2.0
1070
       271
1070
         4
1070
       284
1070
         8
1070
       343
1005
0
1070
       344
1005
0
1002
}
  0
DIMENSION
  5
65
100
AcDbEntity
  8
PV
  6
CONTINUOUS
 62
        80
100
AcDbDimension
  2
*D5
 10
96.51375
 20
116.023454
 30
0.0
 11
83.5241667938
 21
116.023454
 31
0.0
 70
       128
  1
\A1;<>
  3
MXDIMSTYLE
100
AcDbAlignedDimension
 13
71.50125
 23
100.0305
 33
0.0
 14
96.51375
 24
100.0305
 34
0.0
100
AcDbRotatedDimension
1001
ACAD
1000
DSTYLE
1002
{
1070
         6
1000
SOLID
1070
         7
1000
SOLID
1070
        41
1040
1.0000000298
1070
        44
1040
2.0
1070
       271
1070
         4
1070
       284
1070
         8
1070
       343
1005
0
1070
       344
1005
0
1002
}
  0
DIMENSION
  5
74
100
AcDbEntity
  8
PV
  6
CONTINUOUS
 62
        80
100
AcDbDimension
  2
*D6
 10
133.959328
 20
-20.0295
 30
0.0
 11
133.959328
 21
39.3171668701
 31
0.0
 70
       128
  1
\A1;\U+2205<>
  3
MXDIMSTYLE
100
AcDbAlignedDimension
 13
96.513748
 23
100.0305
 33
0.0
 14
96.513748
 24
-20.0295
 34
0.0
 50
90.0
100
AcDbRotatedDimension
1001
ACAD
1000
DSTYLE
1002
{
1070
         6
1000
SOLID
1070
         7
1000
SOLID
1070
        41
1040
1.0000000298
1070
        44
1040
2.0
1070
       271
1070
         4
1070
       284
1070
         8
1070
       343
1005
0
1070
       344
1005
0
1002
}
  0
DIMENSION
  5
83
100
AcDbEntity
  8
PV
  6
CONTINUOUS
 62
        80
100
AcDbDimension
  2
*D7
 10
116.012797
 20
-0.0195
 30
0.0
 11
116.012797
 21
39.4171636658
 31
0.0
 70
       128
  1
\A1;\U+2205<>
  3
MXDIMSTYLE
100
AcDbAlignedDimension
 13
96.513751
 23
80.0205
 33
0.0
 14
96.513751
 24
-0.0195
 34
0.0
 50
90.0
100
AcDbRotatedDimension
1001
ACAD
1000
DSTYLE
1002
{
1070
         6
1000
SOLID
1070
         7
1000
SOLID
1070
        41
1040
1.0000000298
1070
        44
1040
2.0
1070
       271
1070
         4
1070
       284
1070
         8
1070
       343
1005
0
1070
       344
1005
0
1002
}
  0
DIMENSION
  5
93
100
AcDbEntity
  8
PV
  6
CONTINUOUS
 62
        80
100
AcDbDimension
  2
*D8
 10
46.469988
 20
90.0255
 30
0.0
 11
46.469988
 21
39.3171671753
 31
0.0
 70
       128
  1
\A1;\U+2205<>
  3
MXDIMSTYLE
100
AcDbAlignedDimension
 13
54.993
 23
-10.0245
 33
0.0
 14
54.993
 24
90.0255
 34
0.0
 50
90.0
100
AcDbRotatedDimension
1001
ACAD
1000
DSTYLE
1002
{
1070
         6
1000
SOLID
1070
         7
1000
SOLID
1070
        41
1040
1.0000000298
1070
        44
1040
2.0
1070
       271
1070
         4
1070
       284
1070
         8
1070
       340
1005
8D
1070
       343
1005
0
1070
       344
1005
0
1002
}
  0
MTEXT
  5
94
100
AcDbEntity
  8
PV
  6
CONTINUOUS
 62
       110
100
AcDbMText
 10
-117.1063049682
 20
-158.298
 30
0.0
 40
4.8000001907
 41
0.0
 71
         1
 72
         1
  1
\A1;MASS
  0
MTEXT
  5
95
100
AcDbEntity
  8
PV
  6
CONTINUOUS
 62
       110
100
AcDbMText
 10
-51.0561717571
 20
-86.4705
 30
0.0
 40
4.8000001907
 41
0.0
 71
         1
 72
         1
  1
\T1.006;\W1.063;\A1;POWER LOCK
  0
MTEXT
  5
96
100
AcDbEntity
  8
PV
  6
CONTINUOUS
 62
       110
100
AcDbMText
 10
-116.8924619625
 20
-113.298
 30
0.0
 40
4.8000001907
 41
0.0
 71
         1
 72
         1
  1
\T1.083;\W1.076;\A1;TIGHTENING TORQUE OF LOCKING BOLTS
  0
MTEXT
  5
97
100
AcDbEntity
  8
PV
  6
CONTINUOUS
 62
       110
100
AcDbMText
 10
-116.8515423999
 20
-104.298
 30
0.0
 40
4.8000001907
 41
0.0
 71
         1
 72
         1
  1
\T1.096;\W1.097;\A1;QUANTITY AND SIZE OF LOCKING BOLTS
  0
MTEXT
  5
98
100
AcDbEntity
  8
PV
  6
CONTINUOUS
 62
       110
100
AcDbMText
 10
-116.9668936821
 20
-122.298
 30
0.0
 40
4.8000001907
 41
0.0
 71
         1
 72
         1
  1
\T1.057;\W1.031;\A1;TRANSMISSIBLE TORQUE
  0
MTEXT
  5
99
100
AcDbEntity
  8
PV
  6
CONTINUOUS
 62
       110
100
AcDbMText
 10
-116.9668936821
 20
-131.298
 30
0.0
 40
4.8000001907
 41
0.0
 71
         1
 72
         1
  1
\T1.057;\W1.031;\A1;TRANSMISSIBLE THRUST
  0
MTEXT
  5
9A
100
AcDbEntity
  8
PV
  6
CONTINUOUS
 62
       110
100
AcDbMText
 10
-116.9759241053
 20
-140.298
 30
0.0
 40
4.8000001907
 41
0.0
 71
         1
 72
         1
  1
\T1.051;\W1.077;\A1;CONTACT PRESSURE OF SHAFT
  0
MTEXT
  5
9B
100
AcDbEntity
  8
PV
  6
CONTINUOUS
 62
       110
100
AcDbMText
 10
-116.9472324551
 20
-149.298
 30
0.0
 40
4.8000001907
 41
0.0
 71
         1
 72
         1
  1
\T1.061;\W1.093;\A1;CONTACT PRESSURE OF HUB BORE
  0
MTEXT
  5
9C
100
AcDbEntity
  8
PV
  6
CONTINUOUS
 62
       110
100
AcDbMText
 10
-117.0191809445
 20
-95.298
 30
0.0
 40
4.8000001907
 41
0.0
 71
         1
 72
         1
  1
\T1.034;\W1.053;\A1;MODEL NUMBER
  0
MTEXT
  5
9D
100
AcDbEntity
  8
PV
  6
CONTINUOUS
 62
       110
100
AcDbMText
 10
-29.9421717571
 20
-48.5565
 30
0.0
 40
4.8000001907
 41
0.0
 71
         1
 72
         1
  1
\T1.006;\W1.063;\A1;POWER LOCK
  0
MTEXT
  5
9E
100
AcDbEntity
  8
PV
  6
CONTINUOUS
 62
       110
100
AcDbMText
 10
-29.8937309794
 20
-57.5565
 30
0.0
 40
4.8000001907
 41
0.0
 71
         1
 72
         1
  1
\W1.082;\A1;PL080X120AS
  0
LINE
  5
9F
100
AcDbEntity
  8
PV
  6
CONTINUOUS
 62
         3
100
AcDbLine
 10
48.344195
 20
-93.0
 30
0.0
 11
48.344195
 21
-165.0
 31
0.0
  0
LINE
  5
A0
100
AcDbEntity
  8
PV
  6
CONTINUOUS
 62
         3
100
AcDbLine
 10
-123.815304
 20
-75.0
 30
0.0
 11
-123.815304
 21
-165.0
 31
0.0
  0
LINE
  5
A1
100
AcDbEntity
  8
PV
  6
CONTINUOUS
 62
         3
100
AcDbLine
 10
-123.815304
 20
-75.0
 30
0.0
 11
174.847642
 21
-75.0
 31
0.0
  0
LINE
  5
A2
100
AcDbEntity
  8
PV
  6
CONTINUOUS
 62
         3
100
AcDbLine
 10
-123.815304
 20
-165.0
 30
0.0
 11
174.847642
 21
-165.0
 31
0.0
  0
LINE
  5
A3
100
AcDbEntity
  8
PV
  6
CONTINUOUS
 62
         3
100
AcDbLine
 10
-123.815304
 20
-156.0
 30
0.0
 11
174.847642
 21
-156.0
 31
0.0
  0
LINE
  5
A4
100
AcDbEntity
  8
PV
  6
CONTINUOUS
 62
         3
100
AcDbLine
 10
-123.815304
 20
-147.0
 30
0.0
 11
174.847642
 21
-147.0
 31
0.0
  0
LINE
  5
A5
100
AcDbEntity
  8
PV
  6
CONTINUOUS
 62
         3
100
AcDbLine
 10
-123.815304
 20
-138.0
 30
0.0
 11
174.847642
 21
-138.0
 31
0.0
  0
LINE
  5
A6
100
AcDbEntity
  8
PV
  6
CONTINUOUS
 62
         3
100
AcDbLine
 10
-123.815304
 20
-129.0
 30
0.0
 11
174.847642
 21
-129.0
 31
0.0
  0
LINE
  5
A7
100
AcDbEntity
  8
PV
  6
CONTINUOUS
 62
         3
100
AcDbLine
 10
-123.815304
 20
-120.0
 30
0.0
 11
174.847642
 21
-120.0
 31
0.0
  0
LINE
  5
A8
100
AcDbEntity
  8
PV
  6
CONTINUOUS
 62
         3
100
AcDbLine
 10
-123.815304
 20
-111.0
 30
0.0
 11
174.847642
 21
-111.0
 31
0.0
  0
LINE
  5
A9
100
AcDbEntity
  8
PV
  6
CONTINUOUS
 62
         3
100
AcDbLine
 10
-123.815304
 20
-102.0
 30
0.0
 11
174.847642
 21
-102.0
 31
0.0
  0
LINE
  5
AA
100
AcDbEntity
  8
PV
  6
CONTINUOUS
 62
         3
100
AcDbLine
 10
-123.815304
 20
-93.0
 30
0.0
 11
174.847642
 21
-93.0
 31
0.0
  0
LINE
  5
AB
100
AcDbEntity
  8
PV
  6
CONTINUOUS
 62
         3
100
AcDbLine
 10
-123.815304
 20
-84.0
 30
0.0
 11
174.847642
 21
-84.0
 31
0.0
  0
LINE
  5
AC
100
AcDbEntity
  8
PV
  6
CONTINUOUS
 62
         3
100
AcDbLine
 10
-82.50075
 20
94.357665
 30
0.0
 11
-105.057022
 21
133.426189
 31
0.0
  0
LINE
  5
AD
100
AcDbEntity
  8
PV
  6
CONTINUOUS
 62
         3
100
AcDbLine
 10
-124.043511
 20
133.426189
 30
0.0
 11
-105.057022
 21
133.426189
 31
0.0
  0
MTEXT
  5
AE
100
AcDbEntity
  8
PV
  6
CONTINUOUS
 62
       110
100
AcDbMText
 10
101.7444670119
 20
-148.965707
 30
0.0
 40
4.8000001907
 41
0.0
 71
         1
 72
         1
  1
\W1.500;\A1;\{
  0
MTEXT
  5
AF
100
AcDbEntity
  8
PV
  6
CONTINUOUS
 62
       110
100
AcDbMText
 10
101.6282590119
 20
-140.1
 30
0.0
 40
4.8000001907
 41
0.0
 71
         1
 72
         1
  1
\W1.500;\A1;\{
  0
MTEXT
  5
B0
100
AcDbEntity
  8
PV
  6
CONTINUOUS
 62
       110
100
AcDbMText
 10
96.9030210119
 20
-131.1
 30
0.0
 40
4.8000001907
 41
0.0
 71
         1
 72
         1
  1
\W1.500;\A1;\{
  0
MTEXT
  5
B1
100
AcDbEntity
  8
PV
  6
CONTINUOUS
 62
       110
100
AcDbMText
 10
106.5398390119
 20
-122.1
 30
0.0
 40
4.8000001907
 41
0.0
 71
         1
 72
         1
  1
\W1.500;\A1;\{
  0
MTEXT
  5
B2
100
AcDbEntity
  8
PV
  6
CONTINUOUS
 62
       110
100
AcDbMText
 10
162.835847
 20
-140.0991700447
 30
0.0
 40
2.25
 41
0.0
 71
         1
 72
         1
  1
\A1;2
  0
MTEXT
  5
B3
100
AcDbEntity
  8
PV
  6
CONTINUOUS
 62
       110
100
AcDbMText
 10
162.835847
 20
-149.0991700447
 30
0.0
 40
2.25
 41
0.0
 71
         1
 72
         1
  1
\A1;2
  0
MTEXT
  5
B4
100
AcDbEntity
  8
PV
  6
CONTINUOUS
 62
       110
100
AcDbMText
 10
133.9350984587
 20
-149.1
 30
0.0
 40
4.8000001907
 41
0.0
 71
         1
 72
         1
  1
\T1.101;\W1.081;\A1;kgf/mm \}
  0
MTEXT
  5
B5
100
AcDbEntity
  8
PV
  6
CONTINUOUS
 62
       110
100
AcDbMText
 10
133.9350984587
 20
-140.1
 30
0.0
 40
4.8000001907
 41
0.0
 71
         1
 72
         1
  1
\T1.101;\W1.081;\A1;kgf/mm \}
  0
MTEXT
  5
B6
100
AcDbEntity
  8
PV
  6
CONTINUOUS
 62
       110
100
AcDbMText
 10
133.7460099866
 20
-131.1
 30
0.0
 40
4.8000001907
 41
0.0
 71
         1
 72
         1
  1
\W1.091;\A1;kgf\}
  0
MTEXT
  5
B7
100
AcDbEntity
  8
PV
  6
CONTINUOUS
 62
       110
100
AcDbMText
 10
134.4732830318
 20
-122.1
 30
0.0
 40
4.8000001907
 41
0.0
 71
         1
 72
         1
  1
\W0.833;\A1;ｋｇｆ・ｍ｝
  0
MTEXT
  5
B8
100
AcDbEntity
  8
PV
  6
CONTINUOUS
 62
       110
100
AcDbMText
 10
134.4732830318
 20
-113.1
 30
0.0
 40
4.8000001907
 41
0.0
 71
         1
 72
         1
  1
\W0.833;\A1;ｋｇｆ・ｍ｝
  0
MTEXT
  5
B9
100
AcDbEntity
  8
PV
  6
CONTINUOUS
 62
       110
100
AcDbMText
 10
106.4282590119
 20
-113.1
 30
0.0
 40
4.8000001907
 41
0.0
 71
         1
 72
         1
  1
\W1.500;\A1;\{
  0
MTEXT
  5
BA
100
AcDbEntity
  8
PV
  6
CONTINUOUS
 62
       110
100
AcDbMText
 10
83.7520000318
 20
-149.1
 30
0.0
 40
4.8000001907
 41
0.0
 71
         1
 72
         1
  1
\A1;MPa
  0
MTEXT
  5
BB
100
AcDbEntity
  8
PV
  6
CONTINUOUS
 62
       110
100
AcDbMText
 10
66.7777626714
 20
-148.965707
 30
0.0
 40
4.8000001907
 41
0.0
 71
         1
 72
         1
  1
\W1.125;\A1;123
  0
MTEXT
  5
BC
100
AcDbEntity
  8
PV
  6
CONTINUOUS
 62
       110
100
AcDbMText
 10
83.7520000318
 20
-140.1
 30
0.0
 40
4.8000001907
 41
0.0
 71
         1
 72
         1
  1
\A1;MPa
  0
MTEXT
  5
BD
100
AcDbEntity
  8
PV
  6
CONTINUOUS
 62
       110
100
AcDbMText
 10
66.6615546714
 20
-140.1
 30
0.0
 40
4.8000001907
 41
0.0
 71
         1
 72
         1
  1
\W1.125;\A1;184
  0
MTEXT
  5
BE
100
AcDbEntity
  8
PV
  6
CONTINUOUS
 62
       110
100
AcDbMText
 10
83.7520000318
 20
-131.1
 30
0.0
 40
4.8000001907
 41
0.0
 71
         1
 72
         1
  1
\A1;kN
  0
MTEXT
  5
BF
100
AcDbEntity
  8
PV
  6
CONTINUOUS
 62
       110
100
AcDbMText
 10
66.6404196714
 20
-131.1
 30
0.0
 40
4.8000001907
 41
0.0
 71
         1
 72
         1
  1
\W1.125;\A1;138
  0
MTEXT
  5
C0
100
AcDbEntity
  8
PV
  6
CONTINUOUS
 62
       110
100
AcDbMText
 10
84.5520000318
 20
-122.1
 30
0.0
 40
4.8000001907
 41
0.0
 71
         1
 72
         1
  1
\W0.833;\A1;ｋＮ・ｍ
  0
MTEXT
  5
C1
100
AcDbEntity
  8
PV
  6
CONTINUOUS
 62
       110
100
AcDbMText
 10
61.8378096157
 20
-122.1
 30
0.0
 40
4.8000001907
 41
0.0
 71
         1
 72
         1
  1
\W1.200;\A1;5.49
  0
MTEXT
  5
C2
100
AcDbEntity
  8
PV
  6
CONTINUOUS
 62
       110
100
AcDbMText
 10
84.5520000318
 20
-113.1
 30
0.0
 40
4.8000001907
 41
0.0
 71
         1
 72
         1
  1
\W0.833;\A1;Ｎ・ｍ
  0
MTEXT
  5
C3
100
AcDbEntity
  8
PV
  6
CONTINUOUS
 62
       110
100
AcDbMText
 10
62.2216710318
 20
-113.1
 30
0.0
 40
4.8000001907
 41
0.0
 71
         1
 72
         1
  1
\W1.333;\A1;81.3
  0
MTEXT
  5
C4
100
AcDbEntity
  8
PV
  6
CONTINUOUS
 62
       110
100
AcDbMText
 10
83.7520000318
 20
-158.1
 30
0.0
 40
4.8000001907
 41
0.0
 71
         1
 72
         1
  1
\A1;kg
  0
MTEXT
  5
C5
100
AcDbEntity
  8
PV
  6
CONTINUOUS
 62
       110
100
AcDbMText
 10
60.9800740206
 20
-94.977
 30
0.0
 40
4.8000001907
 41
0.0
 71
         1
 72
         1
  1
\W1.082;\A1;PL080X120AS
  0
MTEXT
  5
C6
100
AcDbEntity
  8
PV
  6
CONTINUOUS
 62
       110
100
AcDbMText
 10
58.228648971
 20
-104.3145
 30
0.0
 40
4.8000001907
 41
0.0
 71
         1
 72
         1
  1
\W1.149;\A1;11-M10X25
  0
MTEXT
  5
C7
100
AcDbEntity
  8
PV
  6
CONTINUOUS
 62
       110
100
AcDbMText
 10
115.6114040297
 20
-113.1
 30
0.0
 40
4.8000001907
 41
0.0
 71
         1
 72
         1
  1
\W1.286;\A1;8.3
  0
MTEXT
  5
C8
100
AcDbEntity
  8
PV
  6
CONTINUOUS
 62
       110
100
AcDbMText
 10
115.4298919667
 20
-122.1
 30
0.0
 40
4.8000001907
 41
0.0
 71
         1
 72
         1
  1
\W1.059;\A1;560
  0
MTEXT
  5
C9
100
AcDbEntity
  8
PV
  6
CONTINUOUS
 62
       110
100
AcDbMText
 10
105.9828326424
 20
-131.1
 30
0.0
 40
4.8000001907
 41
0.0
 71
         1
 72
         1
  1
\W1.250;\A1;14100
  0
MTEXT
  5
CA
100
AcDbEntity
  8
PV
  6
CONTINUOUS
 62
       110
100
AcDbMText
 10
110.8495000318
 20
-140.1
 30
0.0
 40
4.8000001907
 41
0.0
 71
         1
 72
         1
  1
\W1.333;\A1;18.8
  0
MTEXT
  5
CB
100
AcDbEntity
  8
PV
  6
CONTINUOUS
 62
       110
100
AcDbMText
 10
110.8495000318
 20
-149.1
 30
0.0
 40
4.8000001907
 41
0.0
 71
         1
 72
         1
  1
\W1.333;\A1;12.5
  0
MTEXT
  5
CC
100
AcDbEntity
  8
PV
  6
CONTINUOUS
 62
       110
100
AcDbMText
 10
62.1186670318
 20
-158.1
 30
0.0
 40
4.8000001907
 41
0.0
 71
         1
 72
         1
  1
\W1.333;\A1;1.33
  0
MTEXT
  5
CD
100
AcDbEntity
  8
PV
  6
CONTINUOUS
 62
       110
100
AcDbMText
 10
-120.4853990105
 20
138.1235369909
 30
0.0
 40
3.2016000748
 41
0.0
 71
         1
 72
         1
  1
\W1.200;\A1;M10
  0
LINE
  5
CE
100
AcDbEntity
  8
PV
  6
CONTINUOUS
 62
         3
100
AcDbLine
 10
71.50125
 20
-18.456714
 30
0.0
 11
70.90095
 21
-18.578775
 31
0.0
  0
LINE
  5
CF
100
AcDbEntity
  8
PV
  6
CONTINUOUS
 62
         3
100
AcDbLine
 10
96.51375
 20
81.593286
 30
0.0
 11
97.11405
 21
81.471225
 31
0.0
  0
LINE
  5
D0
100
AcDbEntity
  8
PV
  6
CONTINUOUS
 62
         3
100
AcDbLine
 10
96.51375
 20
98.457714
 30
0.0
 11
97.11405
 21
98.579775
 31
0.0
  0
LINE
  5
D1
100
AcDbEntity
  8
PV
  6
CONTINUOUS
 62
         3
100
AcDbLine
 10
71.50125
 20
81.593286
 30
0.0
 11
70.90095
 21
81.471225
 31
0.0
  0
LINE
  5
D2
100
AcDbEntity
  8
PV
  6
CONTINUOUS
 62
         3
100
AcDbLine
 10
59.9955
 20
96.989981
 30
0.0
 11
59.9955
 21
83.061019
 31
0.0
  0
LINE
  5
D3
100
AcDbEntity
  8
PV
  6
CONTINUOUS
 62
         3
100
AcDbLine
 10
59.9955
 20
96.989981
 30
0.0
 11
60.5958
 21
98.0295
 31
0.0
  0
LINE
  5
D4
100
AcDbEntity
  8
PV
  6
CONTINUOUS
 62
         3
100
AcDbLine
 10
59.9955
 20
83.061019
 30
0.0
 11
60.5958
 21
82.0215
 31
0.0
  0
LINE
  5
D5
100
AcDbEntity
  8
PV
  6
CONTINUOUS
 62
         3
100
AcDbLine
 10
70.0005
 20
82.0215
 30
0.0
 11
60.5958
 21
82.0215
 31
0.0
  0
LINE
  5
D6
100
AcDbEntity
  8
PV
  6
CONTINUOUS
 62
         3
100
AcDbLine
 10
70.0005
 20
98.0295
 30
0.0
 11
60.5958
 21
98.0295
 31
0.0
  0
LINE
  5
D7
100
AcDbEntity
  8
PV
  6
CONTINUOUS
 62
         3
100
AcDbLine
 10
98.0145
 20
-1.470225
 30
0.0
 11
97.11405
 21
-1.470225
 31
0.0
  0
LINE
  5
D8
100
AcDbEntity
  8
PV
  6
CONTINUOUS
 62
         3
100
AcDbLine
 10
70.90095
 20
-1.470225
 30
0.0
 11
71.50125
 21
-1.592286
 31
0.0
  0
LINE
  5
D9
100
AcDbEntity
  8
PV
  6
CONTINUOUS
 62
         3
100
AcDbLine
 10
97.11405
 20
-1.470225
 30
0.0
 11
96.51375
 21
-1.592286
 31
0.0
  0
LINE
  5
DA
100
AcDbEntity
  8
PV
  6
CONTINUOUS
 62
         3
100
AcDbLine
 10
70.90095
 20
-1.470225
 30
0.0
 11
70.0005
 21
-1.470225
 31
0.0
  0
LINE
  5
DB
100
AcDbEntity
  8
PV
  6
CONTINUOUS
 62
         3
100
AcDbLine
 10
96.51375
 20
-0.0195
 30
0.0
 11
71.50125
 21
-0.0195
 31
0.0
  0
LINE
  5
DC
100
AcDbEntity
  8
PV
  6
CONTINUOUS
 62
         3
100
AcDbLine
 10
71.50125
 20
-18.456714
 30
0.0
 11
71.50125
 21
-20.0295
 31
0.0
  0
LINE
  5
DD
100
AcDbEntity
  8
PV
  6
CONTINUOUS
 62
         3
100
AcDbLine
 10
96.51375
 20
-18.456714
 30
0.0
 11
96.51375
 21
-20.0295
 31
0.0
  0
LINE
  5
DE
100
AcDbEntity
  8
PV
  6
CONTINUOUS
 62
         3
100
AcDbLine
 10
70.90095
 20
-18.578775
 30
0.0
 11
70.0005
 21
-18.578775
 31
0.0
  0
LINE
  5
DF
100
AcDbEntity
  8
PV
  6
CONTINUOUS
 62
         3
100
AcDbLine
 10
97.11405
 20
-18.578775
 30
0.0
 11
96.51375
 21
-18.456714
 31
0.0
  0
LINE
  5
E0
100
AcDbEntity
  8
PV
  6
CONTINUOUS
 62
         3
100
AcDbLine
 10
98.0145
 20
-18.578775
 30
0.0
 11
97.11405
 21
-18.578775
 31
0.0
  0
LINE
  5
E1
100
AcDbEntity
  8
PV
  6
CONTINUOUS
 62
         3
100
AcDbLine
 10
96.51375
 20
-20.0295
 30
0.0
 11
71.50125
 21
-20.0295
 31
0.0
  0
LINE
  5
E2
100
AcDbEntity
  8
PV
  6
CONTINUOUS
 62
         3
100
AcDbLine
 10
98.0145
 20
98.579775
 30
0.0
 11
98.0145
 21
-18.578775
 31
0.0
  0
LINE
  5
E3
100
AcDbEntity
  8
PV
  6
CONTINUOUS
 62
         3
100
AcDbLine
 10
96.51375
 20
81.593286
 30
0.0
 11
96.51375
 21
-1.592286
 31
0.0
  0
LINE
  5
E4
100
AcDbEntity
  8
PV
  6
CONTINUOUS
 62
         3
100
AcDbLine
 10
71.50125
 20
81.593286
 30
0.0
 11
71.50125
 21
-1.592286
 31
0.0
  0
LINE
  5
E5
100
AcDbEntity
  8
PV
  6
CONTINUOUS
 62
         3
100
AcDbLine
 10
96.51375
 20
80.92095
 30
0.0
 11
96.51375
 21
80.857919
 31
0.0
  0
LINE
  5
E6
100
AcDbEntity
  8
PV
  6
CONTINUOUS
 62
         3
100
AcDbLine
 10
97.11405
 20
81.471225
 30
0.0
 11
98.0145
 21
81.471225
 31
0.0
  0
LINE
  5
E7
100
AcDbEntity
  8
PV
  6
CONTINUOUS
 62
         3
100
AcDbLine
 10
70.0005
 20
81.471225
 30
0.0
 11
70.90095
 21
81.471225
 31
0.0
  0
LINE
  5
E8
100
AcDbEntity
  8
PV
  6
CONTINUOUS
 62
         3
100
AcDbLine
 10
71.50125
 20
80.0205
 30
0.0
 11
96.51375
 21
80.0205
 31
0.0
  0
LINE
  5
E9
100
AcDbEntity
  8
PV
  6
CONTINUOUS
 62
         3
100
AcDbLine
 10
96.51375
 20
100.0305
 30
0.0
 11
96.51375
 21
98.457714
 31
0.0
  0
LINE
  5
EA
100
AcDbEntity
  8
PV
  6
CONTINUOUS
 62
         3
100
AcDbLine
 10
70.90095
 20
98.579775
 30
0.0
 11
71.50125
 21
98.457714
 31
0.0
  0
LINE
  5
EB
100
AcDbEntity
  8
PV
  6
CONTINUOUS
 62
         3
100
AcDbLine
 10
70.0005
 20
98.579775
 30
0.0
 11
70.90095
 21
98.579775
 31
0.0
  0
LINE
  5
EC
100
AcDbEntity
  8
PV
  6
CONTINUOUS
 62
         3
100
AcDbLine
 10
97.11405
 20
98.579775
 30
0.0
 11
98.0145
 21
98.579775
 31
0.0
  0
LINE
  5
ED
100
AcDbEntity
  8
PV
  6
CONTINUOUS
 62
         3
100
AcDbLine
 10
71.50125
 20
100.0305
 30
0.0
 11
96.51375
 21
100.0305
 31
0.0
  0
LINE
  5
EE
100
AcDbEntity
  8
PV
  6
CONTINUOUS
 62
         3
100
AcDbLine
 10
70.0005
 20
98.579775
 30
0.0
 11
70.0005
 21
-18.578775
 31
0.0
  0
ARC
  5
EF
100
AcDbEntity
  8
PV
  6
CONTINUOUS
 62
         3
100
AcDbCircle
 10
-79.9995
 20
40.0005
 30
0.0
 40
40.02
100
AcDbArc
 50
94.301
 51
85.698778
  0
ARC
  5
F0
100
AcDbEntity
  8
PV
  6
CONTINUOUS
 62
         3
100
AcDbCircle
 10
-79.9995
 20
40.0005
 30
0.0
 40
60.03
100
AcDbArc
 50
0.954974
 51
359.045026
  0
LINE
  5
F1
100
AcDbEntity
  8
PV
  6
CONTINUOUS
 62
         3
100
AcDbLine
 10
174.847642
 20
-75.0
 30
0.0
 11
174.847642
 21
-165.0
 31
0.0
  0
LINE
  5
F2
100
AcDbEntity
  8
PV
  6
CONTINUOUS
 62
         3
100
AcDbLine
 10
71.50125
 20
-1.592286
 30
0.0
 11
82.0065
 21
-3.731355
 31
0.0
  0
LINE
  5
F3
100
AcDbEntity
  8
PV
  6
CONTINUOUS
 62
         3
100
AcDbLine
 10
96.51375
 20
-1.592286
 30
0.0
 11
86.0085
 21
-3.731355
 31
0.0
  0
LINE
  5
F4
100
AcDbEntity
  8
PV
  6
CONTINUOUS
 62
         3
100
AcDbLine
 10
96.51375
 20
-18.456714
 30
0.0
 11
86.0085
 21
-16.317645
 31
0.0
  0
LINE
  5
F5
100
AcDbEntity
  8
PV
  6
CONTINUOUS
 62
         3
100
AcDbLine
 10
71.50125
 20
98.457714
 30
0.0
 11
82.0065
 21
96.318645
 31
0.0
  0
LINE
  5
F7
100
AcDbEntity
  8
PV
  6
CENTER
 62
         3
100
AcDbLine
 10
100.0155
 20
-10.0245
 30
0.0
 11
54.993
 21
-10.0245
 31
0.0
  0
LINE
  5
F8
100
AcDbEntity
  8
PV
  6
CONTINUOUS
 62
         3
100
AcDbLine
 10
81.90645
 20
-14.214594
 30
0.0
 11
70.0005
 21
-14.214594
 31
0.0
  0
LINE
  5
F9
100
AcDbEntity
  8
PV
  6
CONTINUOUS
 62
         3
100
AcDbLine
 10
81.90645
 20
-5.834406
 30
0.0
 11
70.0005
 21
-5.834406
 31
0.0
  0
LINE
  5
FA
100
AcDbEntity
  8
PV
  6
CONTINUOUS
 62
         3
100
AcDbLine
 10
70.0005
 20
-5.022
 30
0.0
 11
81.90645
 21
-5.022
 31
0.0
  0
LINE
  5
FB
100
AcDbEntity
  8
PV
  6
CONTINUOUS
 62
         3
100
AcDbLine
 10
70.0005
 20
-15.027
 30
0.0
 11
81.90645
 21
-15.027
 31
0.0
  0
LINE
  5
FC
100
AcDbEntity
  8
PV
  6
CONTINUOUS
 62
         3
100
AcDbLine
 10
81.90645
 20
95.028
 30
0.0
 11
81.90645
 21
96.338655
 31
0.0
  0
LINE
  5
FD
100
AcDbEntity
  8
PV
  6
CONTINUOUS
 62
         3
100
AcDbLine
 10
86.10855
 20
85.835406
 30
0.0
 11
86.10855
 21
83.712345
 31
0.0
  0
LINE
  5
FE
100
AcDbEntity
  8
PV
  6
CENTER
 62
         3
100
AcDbLine
 10
54.993
 20
90.0255
 30
0.0
 11
100.0155
 21
90.0255
 31
0.0
  0
LINE
  5
FF
100
AcDbEntity
  8
PV
  6
CONTINUOUS
 62
         3
100
AcDbLine
 10
60.5958
 20
98.0295
 30
0.0
 11
60.5958
 21
82.0215
 31
0.0
  0
LINE
  5
100
100
AcDbEntity
  8
PV
  6
CONTINUOUS
 62
         3
100
AcDbLine
 10
73.752375
 20
94.215594
 30
0.0
 11
98.0145
 21
94.215594
 31
0.0
  0
LINE
  5
101
100
AcDbEntity
  8
PV
  6
CONTINUOUS
 62
         3
100
AcDbLine
 10
73.752375
 20
85.835406
 30
0.0
 11
98.0145
 21
85.835406
 31
0.0
  0
LINE
  5
102
100
AcDbEntity
  8
PV
  6
CONTINUOUS
 62
         3
100
AcDbLine
 10
73.752375
 20
85.835406
 30
0.0
 11
72.127563
 21
85.023
 31
0.0
  0
LINE
  5
103
100
AcDbEntity
  8
PV
  6
CONTINUOUS
 62
         3
100
AcDbLine
 10
73.752375
 20
94.215594
 30
0.0
 11
72.127563
 21
95.028
 31
0.0
  0
LINE
  5
104
100
AcDbEntity
  8
PV
  6
CONTINUOUS
 62
         3
100
AcDbLine
 10
73.752375
 20
95.028
 30
0.0
 11
73.752375
 21
85.023
 31
0.0
  0
LINE
  5
105
100
AcDbEntity
  8
PV
  6
CONTINUOUS
 62
         3
100
AcDbLine
 10
95.013
 20
93.52725
 30
0.0
 11
95.013
 21
86.52375
 31
0.0
  0
LINE
  5
106
100
AcDbEntity
  8
PV
  6
CONTINUOUS
 62
         3
100
AcDbLine
 10
93.51225
 20
95.028
 30
0.0
 11
93.51225
 21
85.023
 31
0.0
  0
LINE
  5
107
100
AcDbEntity
  8
PV
  6
CONTINUOUS
 62
         3
100
AcDbLine
 10
93.51225
 20
85.023
 30
0.0
 11
95.013
 21
86.52375
 31
0.0
  0
LINE
  5
108
100
AcDbEntity
  8
PV
  6
CONTINUOUS
 62
         3
100
AcDbLine
 10
93.51225
 20
95.028
 30
0.0
 11
95.013
 21
93.52725
 31
0.0
  0
LINE
  5
109
100
AcDbEntity
  8
PV
  6
CONTINUOUS
 62
         3
100
AcDbLine
 10
98.0145
 20
85.023
 30
0.0
 11
70.0005
 21
85.023
 31
0.0
  0
LINE
  5
10A
100
AcDbEntity
  8
PV
  6
CONTINUOUS
 62
         3
100
AcDbLine
 10
98.0145
 20
95.028
 30
0.0
 11
70.0005
 21
95.028
 31
0.0
  0
LINE
  5
10B
100
AcDbEntity
  8
PV
  6
CONTINUOUS
 62
         3
100
AcDbLine
 10
86.0085
 20
-3.731355
 30
0.0
 11
82.0065
 21
-3.731355
 31
0.0
  0
LINE
  5
10C
100
AcDbEntity
  8
PV
  6
CONTINUOUS
 62
         3
100
AcDbLine
 10
96.51375
 20
-0.856919
 30
0.0
 11
96.51375
 21
-0.91995
 31
0.0
  0
LINE
  5
10D
100
AcDbEntity
  8
PV
  6
CONTINUOUS
 62
         3
100
AcDbLine
 10
86.0085
 20
-16.317645
 30
0.0
 11
82.0065
 21
-16.317645
 31
0.0
  0
LINE
  5
10E
100
AcDbEntity
  8
PV
  6
CONTINUOUS
 62
         3
100
AcDbLine
 10
82.0065
 20
-16.317645
 30
0.0
 11
71.50125
 21
-18.456714
 31
0.0
  0
LINE
  5
10F
100
AcDbEntity
  8
PV
  6
CONTINUOUS
 62
         3
100
AcDbLine
 10
81.90645
 20
-16.337655
 30
0.0
 11
81.90645
 21
-3.711345
 31
0.0
  0
LINE
  5
110
100
AcDbEntity
  8
PV
  6
CONTINUOUS
 62
         3
100
AcDbLine
 10
86.10855
 20
-3.711345
 30
0.0
 11
86.10855
 21
-16.337655
 31
0.0
  0
LINE
  5
111
100
AcDbEntity
  8
PV
  6
CONTINUOUS
 62
         3
100
AcDbLine
 10
82.0065
 20
83.732355
 30
0.0
 11
86.0085
 21
83.732355
 31
0.0
  0
LINE
  5
112
100
AcDbEntity
  8
PV
  6
CONTINUOUS
 62
         3
100
AcDbLine
 10
82.0065
 20
83.732355
 30
0.0
 11
71.50125
 21
81.593286
 31
0.0
  0
LINE
  5
113
100
AcDbEntity
  8
PV
  6
CONTINUOUS
 62
         3
100
AcDbLine
 10
86.0085
 20
83.732355
 30
0.0
 11
96.51375
 21
81.593286
 31
0.0
  0
LINE
  5
114
100
AcDbEntity
  8
PV
  6
CONTINUOUS
 62
         3
100
AcDbLine
 10
82.0065
 20
96.318645
 30
0.0
 11
86.0085
 21
96.318645
 31
0.0
  0
LINE
  5
115
100
AcDbEntity
  8
PV
  6
CONTINUOUS
 62
         3
100
AcDbLine
 10
71.50125
 20
100.0305
 30
0.0
 11
71.50125
 21
98.457714
 31
0.0
  0
LINE
  5
116
100
AcDbEntity
  8
PV
  6
CONTINUOUS
 62
         3
100
AcDbLine
 10
81.90645
 20
83.712345
 30
0.0
 11
81.90645
 21
85.023
 31
0.0
  0
LINE
  5
117
100
AcDbEntity
  8
PV
  6
CONTINUOUS
 62
         3
100
AcDbLine
 10
86.0085
 20
96.318645
 30
0.0
 11
96.51375
 21
98.457714
 31
0.0
  0
LINE
  5
118
100
AcDbEntity
  8
PV
  6
CONTINUOUS
 62
         3
100
AcDbLine
 10
86.10855
 20
96.338655
 30
0.0
 11
86.10855
 21
94.215594
 31
0.0
  0
LINE
  5
119
100
AcDbEntity
  8
PV
  6
CENTER
 62
         3
100
AcDbLine
 10
68.203602
 20
40.0005
 30
0.0
 11
104.061522
 21
40.0005
 31
0.0
  0
CIRCLE
  5
11A
100
AcDbEntity
  8
PV
  6
CONTINUOUS
 62
         3
100
AcDbCircle
 10
-101.704347
 20
85.071024
 30
0.0
 40
6.964481
  0
CIRCLE
  5
11B
100
AcDbEntity
  8
PV
  6
CONTINUOUS
 62
         3
100
AcDbCircle
 10
-101.704347
 20
85.071024
 30
0.0
 40
8.004
  0
CIRCLE
  5
11C
100
AcDbEntity
  8
PV
  6
CONTINUOUS
 62
         3
100
AcDbCircle
 10
-119.111046
 20
71.191087
 30
0.0
 40
6.964481
  0
CIRCLE
  5
11D
100
AcDbEntity
  8
PV
  6
CONTINUOUS
 62
         3
100
AcDbCircle
 10
-119.111046
 20
71.191087
 30
0.0
 40
8.004
  0
CIRCLE
  5
11E
100
AcDbEntity
  8
PV
  6
CONTINUOUS
 62
         3
100
AcDbCircle
 10
-128.769873
 20
51.132063
 30
0.0
 40
6.964481
  0
CIRCLE
  5
11F
100
AcDbEntity
  8
PV
  6
CONTINUOUS
 62
         3
100
AcDbCircle
 10
-128.769873
 20
51.132063
 30
0.0
 40
8.004
  0
CIRCLE
  5
120
100
AcDbEntity
  8
PV
  6
CONTINUOUS
 62
         3
100
AcDbCircle
 10
-128.769873
 20
28.868937
 30
0.0
 40
6.964481
  0
CIRCLE
  5
121
100
AcDbEntity
  8
PV
  6
CONTINUOUS
 62
         3
100
AcDbCircle
 10
-128.769873
 20
28.868937
 30
0.0
 40
8.004
  0
CIRCLE
  5
122
100
AcDbEntity
  8
PV
  6
CONTINUOUS
 62
         3
100
AcDbCircle
 10
-101.704347
 20
-5.070024
 30
0.0
 40
6.964481
  0
CIRCLE
  5
123
100
AcDbEntity
  8
PV
  6
CONTINUOUS
 62
         3
100
AcDbCircle
 10
-101.704347
 20
-5.070024
 30
0.0
 40
8.004
  0
CIRCLE
  5
124
100
AcDbEntity
  8
PV
  6
CONTINUOUS
 62
         3
100
AcDbCircle
 10
-79.9995
 20
-10.0245
 30
0.0
 40
6.964481
  0
CIRCLE
  5
125
100
AcDbEntity
  8
PV
  6
CONTINUOUS
 62
         3
100
AcDbCircle
 10
-79.9995
 20
-10.0245
 30
0.0
 40
8.004
  0
CIRCLE
  5
126
100
AcDbEntity
  8
PV
  6
CONTINUOUS
 62
         3
100
AcDbCircle
 10
-58.294653
 20
-5.070024
 30
0.0
 40
6.964481
  0
CIRCLE
  5
127
100
AcDbEntity
  8
PV
  6
CONTINUOUS
 62
         3
100
AcDbCircle
 10
-58.294653
 20
-5.070024
 30
0.0
 40
8.004
  0
CIRCLE
  5
128
100
AcDbEntity
  8
PV
  6
CONTINUOUS
 62
         3
100
AcDbCircle
 10
-31.229127
 20
28.868937
 30
0.0
 40
6.964481
  0
CIRCLE
  5
129
100
AcDbEntity
  8
PV
  6
CONTINUOUS
 62
         3
100
AcDbCircle
 10
-31.229127
 20
28.868937
 30
0.0
 40
8.004
  0
CIRCLE
  5
12A
100
AcDbEntity
  8
PV
  6
CONTINUOUS
 62
         3
100
AcDbCircle
 10
-31.229127
 20
51.132063
 30
0.0
 40
6.964481
  0
CIRCLE
  5
12B
100
AcDbEntity
  8
PV
  6
CONTINUOUS
 62
         3
100
AcDbCircle
 10
-31.229127
 20
51.132063
 30
0.0
 40
8.004
  0
CIRCLE
  5
12C
100
AcDbEntity
  8
PV
  6
CONTINUOUS
 62
         3
100
AcDbCircle
 10
-40.887954
 20
71.191087
 30
0.0
 40
6.964481
  0
CIRCLE
  5
12D
100
AcDbEntity
  8
PV
  6
CONTINUOUS
 62
         3
100
AcDbCircle
 10
-40.887954
 20
71.191087
 30
0.0
 40
8.004
  0
CIRCLE
  5
12E
100
AcDbEntity
  8
PV
  6
CONTINUOUS
 62
         3
100
AcDbCircle
 10
-58.294653
 20
85.071024
 30
0.0
 40
6.964481
  0
CIRCLE
  5
12F
100
AcDbEntity
  8
PV
  6
CONTINUOUS
 62
         3
100
AcDbCircle
 10
-58.294653
 20
85.071024
 30
0.0
 40
8.004
  0
CIRCLE
  5
130
100
AcDbEntity
  8
PV
  6
CONTINUOUS
 62
         3
100
AcDbCircle
 10
-79.9995
 20
90.0255
 30
0.0
 40
4.14207
  0
CIRCLE
  5
131
100
AcDbEntity
  8
PV
  6
CONTINUOUS
 62
         3
100
AcDbCircle
 10
-119.111046
 20
8.810913
 30
0.0
 40
4.14207
  0
CIRCLE
  5
132
100
AcDbEntity
  8
PV
  6
CONTINUOUS
 62
         3
100
AcDbCircle
 10
-40.888954
 20
8.810913
 30
0.0
 40
4.14207
  0
CIRCLE
  5
133
100
AcDbEntity
  8
PV
  6
CONTINUOUS
 62
         3
100
AcDbCircle
 10
-40.888954
 20
8.810913
 30
0.0
 40
5.0025
  0
CIRCLE
  5
134
100
AcDbEntity
  8
PV
  6
CONTINUOUS
 62
         3
100
AcDbCircle
 10
-119.111046
 20
8.810913
 30
0.0
 40
5.0025
  0
CIRCLE
  5
135
100
AcDbEntity
  8
PV
  6
CONTINUOUS
 62
         3
100
AcDbCircle
 10
-79.9995
 20
90.0255
 30
0.0
 40
5.0025
  0
CIRCLE
  5
136
100
AcDbEntity
  8
PV
  6
CONTINUOUS
 62
         3
100
AcDbCircle
 10
-79.9995
 20
40.0005
 30
0.0
 40
41.470725
  0
CIRCLE
  5
137
100
AcDbEntity
  8
PV
  6
CONTINUOUS
 62
         3
100
AcDbCircle
 10
-79.9995
 20
40.0005
 30
0.0
 40
58.579275
  0
CIRCLE
  5
138
100
AcDbEntity
  8
PV
  6
CENTER
 62
         3
100
AcDbCircle
 10
-79.9995
 20
40.0005
 30
0.0
 40
50.025
  0
LINE
  5
139
100
AcDbEntity
  8
PV
  6
CONTINUOUS
 62
         3
100
AcDbLine
 10
-83.001
 20
79.907443
 30
0.0
 11
-83.001
 21
81.36217
 31
0.0
  0
LINE
  5
13A
100
AcDbEntity
  8
PV
  6
CONTINUOUS
 62
         3
100
AcDbLine
 10
-76.998
 20
80.007494
 30
0.0
 11
-76.998
 21
81.36217
 31
0.0
  0
LINE
  5
13B
100
AcDbEntity
  8
PV
  6
CONTINUOUS
 62
         3
100
AcDbLine
 10
-105.706347
 20
87.382179
 30
0.0
 11
-105.706347
 21
82.76087
 31
0.0
  0
LINE
  5
13C
100
AcDbEntity
  8
PV
  6
CONTINUOUS
 62
         3
100
AcDbLine
 10
-97.702347
 20
87.382179
 30
0.0
 11
-97.702347
 21
82.76087
 31
0.0
  0
LINE
  5
13D
100
AcDbEntity
  8
PV
  6
CONTINUOUS
 62
         3
100
AcDbLine
 10
-101.704347
 20
80.450715
 30
0.0
 11
-97.702347
 21
82.76087
 31
0.0
  0
LINE
  5
13E
100
AcDbEntity
  8
PV
  6
CONTINUOUS
 62
         3
100
AcDbLine
 10
-101.704347
 20
80.450715
 30
0.0
 11
-105.706347
 21
82.76087
 31
0.0
  0
LINE
  5
13F
100
AcDbEntity
  8
PV
  6
CONTINUOUS
 62
         3
100
AcDbLine
 10
-101.704347
 20
89.692333
 30
0.0
 11
-105.706347
 21
87.382179
 31
0.0
  0
LINE
  5
140
100
AcDbEntity
  8
PV
  6
CONTINUOUS
 62
         3
100
AcDbLine
 10
-101.704347
 20
89.692333
 30
0.0
 11
-97.702347
 21
87.382179
 31
0.0
  0
LINE
  5
141
100
AcDbEntity
  8
PV
  6
CONTINUOUS
 62
         3
100
AcDbLine
 10
-123.112045
 20
73.501242
 30
0.0
 11
-123.112045
 21
68.879932
 31
0.0
  0
LINE
  5
142
100
AcDbEntity
  8
PV
  6
CONTINUOUS
 62
         3
100
AcDbLine
 10
-115.108045
 20
73.501242
 30
0.0
 11
-115.108045
 21
68.879932
 31
0.0
  0
LINE
  5
143
100
AcDbEntity
  8
PV
  6
CONTINUOUS
 62
         3
100
AcDbLine
 10
-119.110045
 20
66.569778
 30
0.0
 11
-115.108045
 21
68.879932
 31
0.0
  0
LINE
  5
144
100
AcDbEntity
  8
PV
  6
CONTINUOUS
 62
         3
100
AcDbLine
 10
-119.111046
 20
66.569778
 30
0.0
 11
-123.113046
 21
68.879932
 31
0.0
  0
LINE
  5
145
100
AcDbEntity
  8
PV
  6
CONTINUOUS
 62
         3
100
AcDbLine
 10
-119.110045
 20
75.811396
 30
0.0
 11
-123.112045
 21
73.501242
 31
0.0
  0
LINE
  5
146
100
AcDbEntity
  8
PV
  6
CONTINUOUS
 62
         3
100
AcDbLine
 10
-119.111046
 20
75.811396
 30
0.0
 11
-115.109046
 21
73.501242
 31
0.0
  0
LINE
  5
147
100
AcDbEntity
  8
PV
  6
CONTINUOUS
 62
         3
100
AcDbLine
 10
-132.771873
 20
53.443218
 30
0.0
 11
-132.771873
 21
48.821908
 31
0.0
  0
LINE
  5
148
100
AcDbEntity
  8
PV
  6
CONTINUOUS
 62
         3
100
AcDbLine
 10
-124.767873
 20
53.443218
 30
0.0
 11
-124.767873
 21
48.821908
 31
0.0
  0
LINE
  5
149
100
AcDbEntity
  8
PV
  6
CONTINUOUS
 62
         3
100
AcDbLine
 10
-128.769873
 20
46.510753
 30
0.0
 11
-124.767873
 21
48.821908
 31
0.0
  0
LINE
  5
14A
100
AcDbEntity
  8
PV
  6
CONTINUOUS
 62
         3
100
AcDbLine
 10
-128.769873
 20
46.510753
 30
0.0
 11
-132.771873
 21
48.821908
 31
0.0
  0
LINE
  5
14B
100
AcDbEntity
  8
PV
  6
CONTINUOUS
 62
         3
100
AcDbLine
 10
-128.769873
 20
55.753372
 30
0.0
 11
-132.771873
 21
53.442217
 31
0.0
  0
LINE
  5
14C
100
AcDbEntity
  8
PV
  6
CONTINUOUS
 62
         3
100
AcDbLine
 10
-128.769873
 20
55.753372
 30
0.0
 11
-124.767873
 21
53.443218
 31
0.0
  0
LINE
  5
14D
100
AcDbEntity
  8
PV
  6
CONTINUOUS
 62
         3
100
AcDbLine
 10
-132.771873
 20
31.179091
 30
0.0
 11
-132.771873
 21
26.557782
 31
0.0
  0
LINE
  5
14E
100
AcDbEntity
  8
PV
  6
CONTINUOUS
 62
         3
100
AcDbLine
 10
-124.767873
 20
31.179091
 30
0.0
 11
-124.767873
 21
26.557782
 31
0.0
  0
LINE
  5
14F
100
AcDbEntity
  8
PV
  6
CONTINUOUS
 62
         3
100
AcDbLine
 10
-128.769873
 20
24.247627
 30
0.0
 11
-124.767873
 21
26.558782
 31
0.0
  0
LINE
  5
150
100
AcDbEntity
  8
PV
  6
CONTINUOUS
 62
         3
100
AcDbLine
 10
-128.769873
 20
24.247627
 30
0.0
 11
-132.771873
 21
26.557782
 31
0.0
  0
LINE
  5
151
100
AcDbEntity
  8
PV
  6
CONTINUOUS
 62
         3
100
AcDbLine
 10
-128.769873
 20
33.490246
 30
0.0
 11
-132.771873
 21
31.179091
 31
0.0
  0
LINE
  5
152
100
AcDbEntity
  8
PV
  6
CONTINUOUS
 62
         3
100
AcDbLine
 10
-128.769873
 20
33.490246
 30
0.0
 11
-124.767873
 21
31.179091
 31
0.0
  0
LINE
  5
153
100
AcDbEntity
  8
PV
  6
CONTINUOUS
 62
         3
100
AcDbLine
 10
-105.706347
 20
-2.75987
 30
0.0
 11
-105.706347
 21
-7.381179
 31
0.0
  0
LINE
  5
154
100
AcDbEntity
  8
PV
  6
CONTINUOUS
 62
         3
100
AcDbLine
 10
-97.702347
 20
-2.75987
 30
0.0
 11
-97.702347
 21
-7.381179
 31
0.0
  0
LINE
  5
155
100
AcDbEntity
  8
PV
  6
CONTINUOUS
 62
         3
100
AcDbLine
 10
-101.704347
 20
-9.691334
 30
0.0
 11
-97.702347
 21
-7.381179
 31
0.0
  0
LINE
  5
156
100
AcDbEntity
  8
PV
  6
CONTINUOUS
 62
         3
100
AcDbLine
 10
-101.704347
 20
-9.691334
 30
0.0
 11
-105.706347
 21
-7.381179
 31
0.0
  0
LINE
  5
157
100
AcDbEntity
  8
PV
  6
CONTINUOUS
 62
         3
100
AcDbLine
 10
-101.704347
 20
-0.449715
 30
0.0
 11
-105.706347
 21
-2.75987
 31
0.0
  0
LINE
  5
158
100
AcDbEntity
  8
PV
  6
CONTINUOUS
 62
         3
100
AcDbLine
 10
-101.704347
 20
-0.449715
 30
0.0
 11
-97.702347
 21
-2.75987
 31
0.0
  0
LINE
  5
159
100
AcDbEntity
  8
PV
  6
CONTINUOUS
 62
         3
100
AcDbLine
 10
-84.0015
 20
-7.714346
 30
0.0
 11
-84.0015
 21
-12.334655
 31
0.0
  0
LINE
  5
15A
100
AcDbEntity
  8
PV
  6
CONTINUOUS
 62
         3
100
AcDbLine
 10
-75.9975
 20
-7.714346
 30
0.0
 11
-75.9975
 21
-12.334655
 31
0.0
  0
LINE
  5
15B
100
AcDbEntity
  8
PV
  6
CONTINUOUS
 62
         3
100
AcDbLine
 10
-79.9995
 20
-14.64581
 30
0.0
 11
-75.9975
 21
-12.334655
 31
0.0
  0
LINE
  5
15C
100
AcDbEntity
  8
PV
  6
CONTINUOUS
 62
         3
100
AcDbLine
 10
-79.9995
 20
-14.64581
 30
0.0
 11
-84.0015
 21
-12.334655
 31
0.0
  0
LINE
  5
15D
100
AcDbEntity
  8
PV
  6
CONTINUOUS
 62
         3
100
AcDbLine
 10
-79.9995
 20
-5.403191
 30
0.0
 11
-84.0015
 21
-7.714346
 31
0.0
  0
LINE
  5
15E
100
AcDbEntity
  8
PV
  6
CONTINUOUS
 62
         3
100
AcDbLine
 10
-79.9995
 20
-5.403191
 30
0.0
 11
-75.9975
 21
-7.713345
 31
0.0
  0
LINE
  5
15F
100
AcDbEntity
  8
PV
  6
CONTINUOUS
 62
         3
100
AcDbLine
 10
-62.296653
 20
-2.75987
 30
0.0
 11
-62.296653
 21
-7.381179
 31
0.0
  0
LINE
  5
160
100
AcDbEntity
  8
PV
  6
CONTINUOUS
 62
         3
100
AcDbLine
 10
-54.292653
 20
-2.75987
 30
0.0
 11
-54.292653
 21
-7.381179
 31
0.0
  0
LINE
  5
161
100
AcDbEntity
  8
PV
  6
CONTINUOUS
 62
         3
100
AcDbLine
 10
-58.294653
 20
-9.691334
 30
0.0
 11
-54.292653
 21
-7.381179
 31
0.0
  0
LINE
  5
162
100
AcDbEntity
  8
PV
  6
CONTINUOUS
 62
         3
100
AcDbLine
 10
-58.294653
 20
-9.691334
 30
0.0
 11
-62.296653
 21
-7.381179
 31
0.0
  0
LINE
  5
163
100
AcDbEntity
  8
PV
  6
CONTINUOUS
 62
         3
100
AcDbLine
 10
-58.294653
 20
-0.449715
 30
0.0
 11
-62.296653
 21
-2.75987
 31
0.0
  0
LINE
  5
164
100
AcDbEntity
  8
PV
  6
CONTINUOUS
 62
         3
100
AcDbLine
 10
-58.294653
 20
-0.449715
 30
0.0
 11
-54.292653
 21
-2.75987
 31
0.0
  0
LINE
  5
165
100
AcDbEntity
  8
PV
  6
CONTINUOUS
 62
         3
100
AcDbLine
 10
-35.231127
 20
31.179091
 30
0.0
 11
-35.231127
 21
26.557782
 31
0.0
  0
LINE
  5
166
100
AcDbEntity
  8
PV
  6
CONTINUOUS
 62
         3
100
AcDbLine
 10
-27.227127
 20
31.179091
 30
0.0
 11
-27.227127
 21
26.557782
 31
0.0
  0
LINE
  5
167
100
AcDbEntity
  8
PV
  6
CONTINUOUS
 62
         3
100
AcDbLine
 10
-31.229127
 20
24.247627
 30
0.0
 11
-27.227127
 21
26.558782
 31
0.0
  0
LINE
  5
168
100
AcDbEntity
  8
PV
  6
CONTINUOUS
 62
         3
100
AcDbLine
 10
-31.229127
 20
24.247627
 30
0.0
 11
-35.231127
 21
26.557782
 31
0.0
  0
LINE
  5
169
100
AcDbEntity
  8
PV
  6
CONTINUOUS
 62
         3
100
AcDbLine
 10
-31.229127
 20
33.490246
 30
0.0
 11
-35.231127
 21
31.179091
 31
0.0
  0
LINE
  5
16A
100
AcDbEntity
  8
PV
  6
CONTINUOUS
 62
         3
100
AcDbLine
 10
-31.229127
 20
33.490246
 30
0.0
 11
-27.227127
 21
31.179091
 31
0.0
  0
LINE
  5
16B
100
AcDbEntity
  8
PV
  6
CONTINUOUS
 62
         3
100
AcDbLine
 10
-35.231127
 20
53.442217
 30
0.0
 11
-35.231127
 21
48.821908
 31
0.0
  0
LINE
  5
16C
100
AcDbEntity
  8
PV
  6
CONTINUOUS
 62
         3
100
AcDbLine
 10
-27.227127
 20
53.442217
 30
0.0
 11
-27.227127
 21
48.821908
 31
0.0
  0
LINE
  5
16D
100
AcDbEntity
  8
PV
  6
CONTINUOUS
 62
         3
100
AcDbLine
 10
-31.229127
 20
46.510753
 30
0.0
 11
-27.227127
 21
48.821908
 31
0.0
  0
LINE
  5
16E
100
AcDbEntity
  8
PV
  6
CONTINUOUS
 62
         3
100
AcDbLine
 10
-31.229127
 20
46.510753
 30
0.0
 11
-35.231127
 21
48.821908
 31
0.0
  0
LINE
  5
16F
100
AcDbEntity
  8
PV
  6
CONTINUOUS
 62
         3
100
AcDbLine
 10
-31.229127
 20
55.753372
 30
0.0
 11
-35.231127
 21
53.442217
 31
0.0
  0
LINE
  5
170
100
AcDbEntity
  8
PV
  6
CONTINUOUS
 62
         3
100
AcDbLine
 10
-31.229127
 20
55.753372
 30
0.0
 11
-27.227127
 21
53.443218
 31
0.0
  0
LINE
  5
171
100
AcDbEntity
  8
PV
  6
CONTINUOUS
 62
         3
100
AcDbLine
 10
-44.889954
 20
73.501242
 30
0.0
 11
-44.889954
 21
68.879932
 31
0.0
  0
LINE
  5
172
100
AcDbEntity
  8
PV
  6
CONTINUOUS
 62
         3
100
AcDbLine
 10
-36.885954
 20
73.501242
 30
0.0
 11
-36.885954
 21
68.879932
 31
0.0
  0
LINE
  5
173
100
AcDbEntity
  8
PV
  6
CONTINUOUS
 62
         3
100
AcDbLine
 10
-40.887954
 20
66.569778
 30
0.0
 11
-36.886954
 21
68.879932
 31
0.0
  0
LINE
  5
174
100
AcDbEntity
  8
PV
  6
CONTINUOUS
 62
         3
100
AcDbLine
 10
-40.888954
 20
66.569778
 30
0.0
 11
-44.889954
 21
68.879932
 31
0.0
  0
LINE
  5
175
100
AcDbEntity
  8
PV
  6
CONTINUOUS
 62
         3
100
AcDbLine
 10
-40.888954
 20
75.811396
 30
0.0
 11
-44.889954
 21
73.501242
 31
0.0
  0
LINE
  5
176
100
AcDbEntity
  8
PV
  6
CONTINUOUS
 62
         3
100
AcDbLine
 10
-40.887954
 20
75.811396
 30
0.0
 11
-36.886954
 21
73.501242
 31
0.0
  0
LINE
  5
177
100
AcDbEntity
  8
PV
  6
CONTINUOUS
 62
         3
100
AcDbLine
 10
-62.296653
 20
87.382179
 30
0.0
 11
-62.296653
 21
82.76087
 31
0.0
  0
LINE
  5
178
100
AcDbEntity
  8
PV
  6
CONTINUOUS
 62
         3
100
AcDbLine
 10
-54.292653
 20
87.382179
 30
0.0
 11
-54.292653
 21
82.76087
 31
0.0
  0
LINE
  5
179
100
AcDbEntity
  8
PV
  6
CONTINUOUS
 62
         3
100
AcDbLine
 10
-58.294653
 20
80.450715
 30
0.0
 11
-54.292653
 21
82.76087
 31
0.0
  0
LINE
  5
17A
100
AcDbEntity
  8
PV
  6
CONTINUOUS
 62
         3
100
AcDbLine
 10
-58.294653
 20
80.450715
 30
0.0
 11
-62.296653
 21
82.76087
 31
0.0
  0
LINE
  5
17B
100
AcDbEntity
  8
PV
  6
CONTINUOUS
 62
         3
100
AcDbLine
 10
-58.294653
 20
89.692333
 30
0.0
 11
-62.296653
 21
87.382179
 31
0.0
  0
LINE
  5
17C
100
AcDbEntity
  8
PV
  6
CONTINUOUS
 62
         3
100
AcDbLine
 10
-58.294653
 20
89.692333
 30
0.0
 11
-54.292653
 21
87.382179
 31
0.0
  0
LINE
  5
17D
100
AcDbEntity
  8
PV
  6
CENTER
 62
         3
100
AcDbLine
 10
-51.381198
 20
17.178094
 30
0.0
 11
-30.191608
 21
0.279649
 31
0.0
  0
LINE
  5
17E
100
AcDbEntity
  8
PV
  6
CENTER
 62
         3
100
AcDbLine
 10
-64.117563
 20
7.022019
 30
0.0
 11
-52.358687
 21
-17.397185
 31
0.0
  0
LINE
  5
17F
100
AcDbEntity
  8
PV
  6
CENTER
 62
         3
100
AcDbLine
 10
-79.9995
 20
102.949959
 30
0.0
 11
-79.9995
 21
-23.706338
 31
0.0
  0
LINE
  5
180
100
AcDbEntity
  8
PV
  6
CENTER
 62
         3
100
AcDbLine
 10
-95.881437
 20
7.021018
 30
0.0
 11
-107.640313
 21
-17.397185
 31
0.0
  0
LINE
  5
181
100
AcDbEntity
  8
PV
  6
CENTER
 62
         3
100
AcDbLine
 10
-108.617802
 20
17.178094
 30
0.0
 11
-129.807391
 21
0.28065
 31
0.0
  0
LINE
  5
182
100
AcDbEntity
  8
PV
  6
CENTER
 62
         3
100
AcDbLine
 10
-115.685334
 20
31.855429
 30
0.0
 11
-142.108539
 21
25.824415
 31
0.0
  0
LINE
  5
183
100
AcDbEntity
  8
PV
  6
CENTER
 62
         3
100
AcDbLine
 10
-115.685334
 20
48.14557
 30
0.0
 11
-142.108539
 21
54.176584
 31
0.0
  0
LINE
  5
184
100
AcDbEntity
  8
PV
  6
CENTER
 62
         3
100
AcDbLine
 10
-108.617802
 20
62.822905
 30
0.0
 11
-129.807391
 21
79.72135
 31
0.0
  0
LINE
  5
185
100
AcDbEntity
  8
PV
  6
CENTER
 62
         3
100
AcDbLine
 10
-95.881437
 20
72.979981
 30
0.0
 11
-107.640313
 21
97.398185
 31
0.0
  0
LINE
  5
186
100
AcDbEntity
  8
PV
  6
CENTER
 62
         3
100
AcDbLine
 10
-64.117563
 20
72.979981
 30
0.0
 11
-52.358687
 21
97.398185
 31
0.0
  0
LINE
  5
187
100
AcDbEntity
  8
PV
  6
CENTER
 62
         3
100
AcDbLine
 10
-51.381198
 20
62.822905
 30
0.0
 11
-30.191608
 21
79.72135
 31
0.0
  0
LINE
  5
188
100
AcDbEntity
  8
PV
  6
CENTER
 62
         3
100
AcDbLine
 10
-44.313666
 20
48.14557
 30
0.0
 11
-17.890461
 21
54.176584
 31
0.0
  0
LINE
  5
189
100
AcDbEntity
  8
PV
  6
CENTER
 62
         3
100
AcDbLine
 10
-44.313666
 20
31.855429
 30
0.0
 11
-17.890461
 21
25.824415
 31
0.0
  0
LINE
  5
18A
100
AcDbEntity
  8
PV
  6
CONTINUOUS
 62
         3
100
AcDbLine
 10
-21.429229
 20
39.0
 30
0.0
 11
-19.977504
 21
39.0
 31
0.0
  0
LINE
  5
18B
100
AcDbEntity
  8
PV
  6
CONTINUOUS
 62
         3
100
AcDbLine
 10
-21.429229
 20
41.001
 30
0.0
 11
-19.977504
 21
41.001
 31
0.0
  0
LINE
  5
18C
100
AcDbEntity
  8
PV
  6
CENTER
 62
         3
100
AcDbLine
 10
-146.066517
 20
40.0005
 30
0.0
 11
-15.253143
 21
40.0005
 31
0.0
  0
ENDSEC
  0
SECTION
  2
OBJECTS
  0
DICTIONARY
  5
19
100
AcDbDictionary
  3
ACAD_GROUP
350
1A
  3
ACAD_MLINESTYLE
350
1B
  0
DICTIONARY
  5
1A
102
{ACAD_REACTORS
330
19
102
}
100
AcDbDictionary
  0
DICTIONARY
  5
1B
102
{ACAD_REACTORS
330
19
102
}
100
AcDbDictionary
  3
STANDARD
350
1C
  0
MLINESTYLE
  5
1C
102
{ACAD_REACTORS
330
1B
102
}
100
AcDbMlineStyle
  2
Standard
 70
         0
  3

 62
         0
 51
90.0
 52
90.0
 71
         2
 49
0.5
 62
       256
  6
ByLayer
 49
-0.5
 62
       256
  6
ByLayer
  0
ENDSEC
  0
EOF
