  0
SECTION
  2
HEADER
  9
$ACADVER
  1
AC1014
  9
$ACADMAINTVER
 70
         0
  9
$DWGCODEPAGE
  3
ANSI_932
  9
$INSBASE
 10
0.0
 20
0.0
 30
0.0
  9
$EXTMIN
 10
-148.916372
 20
-129.614802
 30
0.0
  9
$EXTMAX
 10
118.748328
 20
140.5569855316
 30
0.0
  9
$LIMMIN
 10
-148.916372
 20
-129.614802
  9
$LIMMAX
 10
118.748328
 20
140.5569855316
  9
$ORTHOMODE
 70
         0
  9
$REGENMODE
 70
         1
  9
$FILLMODE
 70
         1
  9
$QTEXTMODE
 70
         0
  9
$MIRRTEXT
 70
         1
  9
$DRAGMODE
 70
         2
  9
$LTSCALE
 40
1.0
  9
$OSMODE
 70
         0
  9
$ATTMODE
 70
         1
  9
$TEXTSIZE
 40
3.2000000477
  9
$TRACEWID
 40
0.05
  9
$TEXTSTYLE
  7
MX_NOTE_STANDARD
  9
$CLAYER
  8
0
  9
$CELTYPE
  6
CONTINUOUS
  9
$CECOLOR
 62
       256
  9
$CELTSCALE
 40
1.0
  9
$DELOBJ
 70
         1
  9
$DISPSILH
 70
         0
  9
$DIMSCALE
 40
1.0
  9
$DIMASZ
 40
2.5
  9
$DIMEXO
 40
0.0
  9
$DIMDLI
 40
3.75
  9
$DIMRND
 40
0.0
  9
$DIMDLE
 40
0.0
  9
$DIMEXE
 40
2.5
  9
$DIMTP
 40
0.0
  9
$DIMTM
 40
0.0
  9
$DIMTXT
 40
3.2000000477
  9
$DIMCEN
 40
2.5
  9
$DIMTSZ
 40
0.0
  9
$DIMTOL
 70
         0
  9
$DIMLIM
 70
         0
  9
$DIMTIH
 70
         0
  9
$DIMTOH
 70
         0
  9
$DIMSE1
 70
         0
  9
$DIMSE2
 70
         0
  9
$DIMTAD
 70
         1
  9
$DIMZIN
 70
         8
  9
$DIMBLK
  1

  9
$DIMASO
 70
         1
  9
$DIMSHO
 70
         1
  9
$DIMPOST
  1

  9
$DIMAPOST
  1

  9
$DIMALT
 70
         0
  9
$DIMALTD
 70
         4
  9
$DIMALTF
 40
0.0393700787
  9
$DIMLFAC
 40
1.0
  9
$DIMTOFL
 70
         1
  9
$DIMTVP
 40
0.0
  9
$DIMTIX
 70
         0
  9
$DIMSOXD
 70
         0
  9
$DIMSAH
 70
         1
  9
$DIMBLK1
  1
_OPEN30
  9
$DIMBLK2
  1
_OPEN30
  9
$DIMSTYLE
  2
MXDIMSTYLE
  9
$DIMCLRD
 70
         0
  9
$DIMCLRE
 70
         0
  9
$DIMCLRT
 70
         0
  9
$DIMTFAC
 40
1.0
  9
$DIMGAP
 40
1.0
  9
$DIMJUST
 70
         0
  9
$DIMSD1
 70
         0
  9
$DIMSD2
 70
         0
  9
$DIMTOLJ
 70
         0
  9
$DIMTZIN
 70
         0
  9
$DIMALTZ
 70
         0
  9
$DIMALTTZ
 70
         0
  9
$DIMFIT
 70
         3
  9
$DIMUPT
 70
         0
  9
$DIMUNIT
 70
         2
  9
$DIMDEC
 70
         2
  9
$DIMTDEC
 70
         2
  9
$DIMALTU
 70
         2
  9
$DIMALTTD
 70
         4
  9
$DIMTXSTY
  7
MX_NOTE_STANDARD
  9
$DIMAUNIT
 70
         0
  9
$LUNITS
 70
         2
  9
$LUPREC
 70
         4
  9
$SKETCHINC
 40
0.1
  9
$FILLETRAD
 40
0.0
  9
$AUNITS
 70
         0
  9
$AUPREC
 70
         0
  9
$MENU
  1
acad
  9
$ELEVATION
 40
0.0
  9
$PELEVATION
 40
0.0
  9
$THICKNESS
 40
0.0
  9
$LIMCHECK
 70
         0
  9
$BLIPMODE
 70
         1
  9
$CHAMFERA
 40
0.0
  9
$CHAMFERB
 40
0.0
  9
$CHAMFERC
 40
0.0
  9
$CHAMFERD
 40
0.0
  9
$SKPOLY
 70
         0
  9
$TDCREATE
 40
2456603.419259260
  9
$TDUPDATE
 40
2456603.419259260
  9
$TDINDWG
 40
0.0000000000
  9
$TDUSRTIMER
 40
0.0000000000
  9
$USRTIMER
 70
         1
  9
$ANGBASE
 50
0.0
  9
$ANGDIR
 70
         0
  9
$PDMODE
 70
         0
  9
$PDSIZE
 40
0.0
  9
$PLINEWID
 40
0.0
  9
$COORDS
 70
         1
  9
$SPLFRAME
 70
         0
  9
$SPLINETYPE
 70
         6
  9
$SPLINESEGS
 70
         8
  9
$ATTDIA
 70
         0
  9
$ATTREQ
 70
         1
  9
$HANDLING
 70
         1
  9
$HANDSEED
  5
18C
  9
$SURFTAB1
 70
         6
  9
$SURFTAB2
 70
         6
  9
$SURFTYPE
 70
         6
  9
$SURFU
 70
         6
  9
$SURFV
 70
         6
  9
$UCSNAME
  2

  9
$UCSORG
 10
0.0
 20
0.0
 30
0.0
  9
$UCSXDIR
 10
1.0
 20
0.0
 30
0.0
  9
$UCSYDIR
 10
0.0
 20
1.0
 30
0.0
  9
$PUCSNAME
  2

  9
$PUCSORG
 10
0.0
 20
0.0
 30
0.0
  9
$PUCSXDIR
 10
1.0
 20
0.0
 30
0.0
  9
$PUCSYDIR
 10
0.0
 20
1.0
 30
0.0
  9
$USERI1
 70
         0
  9
$USERI2
 70
         0
  9
$USERI3
 70
         0
  9
$USERI4
 70
         0
  9
$USERI5
 70
         0
  9
$USERR1
 40
0.0
  9
$USERR2
 40
0.0
  9
$USERR3
 40
0.0
  9
$USERR4
 40
0.0
  9
$USERR5
 40
0.0
  9
$WORLDVIEW
 70
         1
  9
$SHADEDGE
 70
         3
  9
$SHADEDIF
 70
        70
  9
$TILEMODE
 70
         1
  9
$MAXACTVP
 70
        16
  9
$PINSBASE
 10
0.0
 20
0.0
 30
0.0
  9
$PLIMCHECK
 70
         0
  9
$PEXTMIN
 10
1.0000000000E+20
 20
1.0000000000E+20
 30
1.0000000000E+20
  9
$PEXTMAX
 10
-1.0000000000E+20
 20
-1.0000000000E+20
 30
-1.0000000000E+20
  9
$PLIMMIN
 10
0.0
 20
0.0
  9
$PLIMMAX
 10
12.0
 20
9.0
  9
$UNITMODE
 70
         0
  9
$VISRETAIN
 70
         0
  9
$PLINEGEN
 70
         1
  9
$PSLTSCALE
 70
         0
  9
$TREEDEPTH
 70
      3020
  9
$PICKSTYLE
 70
         1
  9
$CMLSTYLE
  2
Standard
  9
$CMLJUST
 70
         0
  9
$CMLSCALE
 40
1.0
  9
$PROXYGRAPHICS
 70
         0
  9
$MEASUREMENT
 70
         1
  0
ENDSEC
  0
SECTION
  2
CLASSES
  0
CLASS
  1
LWPOLYLINE
  2
AcDbPolyline
  3
"AutoCAD"
 90
        0
280
         0
281
         1
  0
CLASS
  1
IMAGE
  2
AcDbRasterImage
  3
ISM
 90
      127
280
         0
281
         1
  0
CLASS
  1
OLE2FRAME
  2
AcDbOle2Frame
  3
""
 90
        0
280
         0
281
         1
  0
CLASS
  1
HATCH
  2
AcDbHatch
  3
"ACAD_SEDONA"
 90
        0
280
         0
281
         1
  0
CLASS
  1
DICTIONARYVAR
  2
AcDbDictionaryVar
  3
"AutoCAD"
 90
        0
280
         0
281
         0
  0
CLASS
  1
RASTERVARIABLES
  2
AcDbRasterVariables
  3
ISM
 90
        0
280
         0
281
         0
  0
CLASS
  1
IMAGEDEF
  2
AcDbRasterImageDef
  3
ISM
 90
        0
280
         0
281
         0
  0
CLASS
  1
IMAGEDEF_REACTOR
  2
AcDbRasterImageDefReactor
  3
ISM
 90
        1
280
         0
281
         0
  0
CLASS
  1
IDBUFFER
  2
AcDbIdBuffer
  3
"Acad"
 90
        0
280
         0
281
         0
  0
CLASS
  1
SPATIAL_FILTER
  2
AcDbSpatialFilter
  3
"Acad"
 90
        0
280
         0
281
         0
  0
CLASS
  1
XRECORD
  2
AcDbXrecord
  3
"<Built In>"
 90
        0
280
         0
281
         0
  0
CLASS
  1
SORTENTSTABLE
  2
AcDbSortentsTable
  3
"AutoCAD"
 90
        0
280
         0
281
         0
  0
CLASS
  1
LAYER_INDEX
  2
AcDbLayerIndex
  3
"Acad"
 90
        0
280
         0
281
         0
  0
CLASS
  1
SPATIAL_INDEX
  2
AcDbSpatialIndex
  3
"Acad"
 90
        0
280
         0
281
         0
  0
CLASS
  1
OBJECT_PTR
  2
CAseDLPNTableRecord
  3
"ASE-LPNTableRecord"
 90
        1
280
         0
281
         0
  0
CLASS
  1
LAYOUT
  2
AcDbLayout
  3
"AutoCAD 2000"
 90
        0
280
         0
281
         0
  0
CLASS
  1
PLOTSETTINGS
  2
AcDbPlotSettings
  3
"AutoCAD 2000"
 90
        0
280
         0
281
         0
  0
CLASS
  1
ACDBDICTIONARYWDFLT
  2
AcDbDictionaryWithDefault
  3
"AutoCAD 2000"
 90
        0
280
         0
281
         0
  0
CLASS
  1
ACDBPLACEHOLDER
  2
AcDbPlaceHolder
  3
"AutoCAD 2000"
 90
        0
280
         0
281
         0
  0
ENDSEC
  0
SECTION
  2
TABLES
  0
TABLE
  2
VPORT
  5
7
100
AcDbSymbolTable
 70
         1
  0
VPORT
  5
15
100
AcDbSymbolTableRecord
100
AcDbViewportTableRecord
  2
*ACTIVE
 70
         0
 10
0.0
 20
0.0
 11
1.0
 21
1.0
 12
-15.084022
 22
5.4710917658
 13
0.0
 23
0.0
 14
1.0
 24
1.0
 15
0.0
 25
0.0
 16
0.0
 26
0.0
 36
1.0
 17
0.0
 27
0.0
 37
0.0
 40
272.8735054069
 41
1.7320508076
 42
50.0
 43
0.0
 44
0.0
 50
0.0
 51
0.0
 71
         0
 72
       100
 73
         1
 74
         1
 75
         0
 76
         0
 77
         0
 78
         0
  0
ENDTAB
  0
TABLE
  2
LTYPE
  5
4
100
AcDbSymbolTable
 70
         4
  0
LTYPE
  5
11
100
AcDbSymbolTableRecord
100
AcDbLinetypeTableRecord
  2
BYBLOCK
 70
        64
  3

 72
        65
 73
         0
 40
0.0
  0
LTYPE
  5
12
100
AcDbSymbolTableRecord
100
AcDbLinetypeTableRecord
  2
BYLAYER
 70
        64
  3

 72
        65
 73
         0
 40
0.0
  0
LTYPE
  5
13
100
AcDbSymbolTableRecord
100
AcDbLinetypeTableRecord
  2
CONTINUOUS
 70
        64
  3
Solid line
 72
        65
 73
         0
 40
0.0
  0
LTYPE
  5
49
100
AcDbSymbolTableRecord
100
AcDbLinetypeTableRecord
  2
CENTER
 70
        64
  3
Center ____ _ ____ _ ____ _ ____ _ ____ _ ____
 72
        65
 73
         4
 40
50.8
 49
31.75
 74
         0
 49
-6.35
 74
         0
 49
6.35
 74
         0
 49
-6.35
 74
         0
  0
ENDTAB
  0
TABLE
  2
LAYER
  5
2
100
AcDbSymbolTable
 70
         3
  0
LAYER
  5
14
100
AcDbSymbolTableRecord
100
AcDbLayerTableRecord
  2
0
 70
         0
 62
         7
  6
CONTINUOUS
  0
LAYER
  5
1D
100
AcDbSymbolTableRecord
100
AcDbLayerTableRecord
  2
DEFPOINTS
 70
         0
 62
         7
  6
CONTINUOUS
  0
LAYER
  5
1E
100
AcDbSymbolTableRecord
100
AcDbLayerTableRecord
  2
PV
 70
         0
 62
         3
  6
CONTINUOUS
  0
ENDTAB
  0
TABLE
  2
STYLE
  5
3
100
AcDbSymbolTable
 70
         4
  0
STYLE
  5
17
100
AcDbSymbolTableRecord
100
AcDbTextStyleTableRecord
  2
MX_NOTE_STANDARD
 70
         0
 40
0.0
 41
1.0
 50
0.0
 71
         0
 42
3.2000000477
  3
txt.shx
  4
extfont.shx
  0
STYLE
  5
12B
100
AcDbSymbolTableRecord
100
AcDbTextStyleTableRecord
  2
MX_DIMTXSTY_2
 70
         0
 40
0.0
 41
0.9
 50
0.0
 71
         0
 42
3.2000000477
  3
txt.shx
  4
extfont.shx
  0
STYLE
  5
14A
100
AcDbSymbolTableRecord
100
AcDbTextStyleTableRecord
  2
MX_DIMTXSTY_3
 70
         0
 40
0.0
 41
1.05
 50
0.0
 71
         0
 42
3.2000000477
  3
txt.shx
  4
extfont.shx
  0
STYLE
  5
176
100
AcDbSymbolTableRecord
100
AcDbTextStyleTableRecord
  2
MX_DIMTXSTY_4
 70
         0
 40
0.0
 41
1.25
 50
0.0
 71
         0
 42
3.2000000477
  3
txt.shx
  4
extfont.shx
  0
ENDTAB
  0
TABLE
  2
VIEW
  5
5
100
AcDbSymbolTable
 70
         0
  0
ENDTAB
  0
TABLE
  2
UCS
  5
6
100
AcDbSymbolTable
 70
         0
  0
ENDTAB
  0
TABLE
  2
APPID
  5
8
100
AcDbSymbolTable
 70
         1
  0
APPID
  5
16
100
AcDbSymbolTableRecord
100
AcDbRegAppTableRecord
  2
ACAD
 70
         0
  0
ENDTAB
  0
TABLE
  2
DIMSTYLE
  5
9
100
AcDbSymbolTable
 70
         1
  0
DIMSTYLE
105
18
100
AcDbSymbolTableRecord
100
AcDbDimStyleTableRecord
  2
MXDIMSTYLE
 70
         0
  3

  4

  5

  6
_OPEN30
  7
_OPEN30
 40
1.0
 41
2.5
 42
0.0
 43
3.75
 44
2.5
 45
0.0
 46
0.0
 47
0.0
 48
0.0
 71
         0
 72
         0
 73
         0
 74
         0
 75
         0
 76
         0
 77
         1
 78
         8
140
3.2000000477
141
2.5
142
0.0
143
0.0393700787
144
1.0
145
0.0
146
1.0
147
1.0
170
         0
171
         4
172
         1
173
         1
174
         0
175
         0
176
         0
177
         0
178
         0
270
         2
271
         2
272
         2
273
         2
274
         4
275
         0
280
         0
281
         0
282
         0
283
         0
284
         0
285
         0
286
         0
287
         3
288
         0
340
17
  0
ENDTAB
  0
TABLE
  2
BLOCK_RECORD
  5
1
100
AcDbSymbolTable
 70
         9
  0
BLOCK_RECORD
  5
A
100
AcDbSymbolTableRecord
100
AcDbBlockTableRecord
  2
*MODEL_SPACE
  0
BLOCK_RECORD
  5
B
100
AcDbSymbolTableRecord
100
AcDbBlockTableRecord
  2
*PAPER_SPACE
  0
BLOCK_RECORD
  5
1F
100
AcDbSymbolTableRecord
100
AcDbBlockTableRecord
  2
ARROW
  0
BLOCK_RECORD
  5
20
100
AcDbSymbolTableRecord
100
AcDbBlockTableRecord
  2
_OPEN30
  0
BLOCK_RECORD
  5
122
100
AcDbSymbolTableRecord
100
AcDbBlockTableRecord
  2
*D2
  0
BLOCK_RECORD
  5
132
100
AcDbSymbolTableRecord
100
AcDbBlockTableRecord
  2
*D3
  0
BLOCK_RECORD
  5
141
100
AcDbSymbolTableRecord
100
AcDbBlockTableRecord
  2
*D4
  0
BLOCK_RECORD
  5
151
100
AcDbSymbolTableRecord
100
AcDbBlockTableRecord
  2
*D5
  0
BLOCK_RECORD
  5
160
100
AcDbSymbolTableRecord
100
AcDbBlockTableRecord
  2
*D6
  0
BLOCK_RECORD
  5
16F
100
AcDbSymbolTableRecord
100
AcDbBlockTableRecord
  2
*D7
  0
BLOCK_RECORD
  5
17D
100
AcDbSymbolTableRecord
100
AcDbBlockTableRecord
  2
*D8
  0
ENDTAB
  0
ENDSEC
  0
SECTION
  2
BLOCKS
  0
BLOCK
  5
D
100
AcDbEntity
  8
0
100
AcDbBlockBegin
  2
*MODEL_SPACE
 70
         0
 10
0.0
 20
0.0
 30
0.0
  3
*MODEL_SPACE
  1

  0
ENDBLK
  5
E
100
AcDbEntity
  8
0
100
AcDbBlockEnd
  0
BLOCK
  5
F
100
AcDbEntity
 67
         1
  8
0
100
AcDbBlockBegin
  2
*PAPER_SPACE
 70
         0
 10
0.0
 20
0.0
 30
0.0
  3
*PAPER_SPACE
  1

  0
ENDBLK
  5
10
100
AcDbEntity
 67
         1
  8
0
100
AcDbBlockEnd
  0
BLOCK
  5
26
100
AcDbEntity
  8
0
100
AcDbBlockBegin
  2
ARROW
 70
         0
 10
0.0
 20
0.0
 30
0.0
  3
ARROW
  1

  0
LWPOLYLINE
  5
27
100
AcDbEntity
  8
0
  6
CONTINUOUS
 62
       161
100
AcDbPolyline
 90
        3
 70
         0
 10
2.4
 20
0.643078
 10
0.0
 20
0.0
 10
2.4
 20
-0.643078
  0
ENDBLK
  5
28
100
AcDbEntity
  8
0
100
AcDbBlockEnd
  0
BLOCK
  5
21
100
AcDbEntity
  8
0
  6
ByBlock
 62
         0
100
AcDbBlockBegin
  2
_OPEN30
 70
         2
 10
0.0
 20
0.0
 30
0.0
  3
_OPEN30
  1

  0
LINE
  5
22
100
AcDbEntity
  8
0
  6
ByBlock
 62
         0
100
AcDbLine
 10
-1.0
 20
0.267949
 30
0.0
 11
0.0
 21
0.0
 31
0.0
  0
LINE
  5
23
100
AcDbEntity
  8
0
  6
ByBlock
 62
         0
100
AcDbLine
 10
0.0
 20
0.0
 30
0.0
 11
-1.0
 21
-0.267949
 31
0.0
  0
LINE
  5
24
100
AcDbEntity
  8
0
  6
ByBlock
 62
         0
100
AcDbLine
 10
0.0
 20
0.0
 30
0.0
 11
-1.0
 21
0.0
 31
0.0
  0
ENDBLK
  5
25
100
AcDbEntity
  8
0
  6
ByBlock
 62
         0
100
AcDbBlockEnd
  0
BLOCK
  5
123
100
AcDbEntity
  8
0
  6
ByBlock
 62
         0
100
AcDbBlockBegin
  2
*D2
 70
         1
 10
0.0
 20
0.0
 30
0.0
  3
*D2
  1

  0
LINE
  5
124
100
AcDbEntity
  8
0
  6
CONTINUOUS
 62
        80
100
AcDbLine
 10
36.937866
 20
-12.52425
 30
0.0
 11
36.937866
 21
82.52325
 31
0.0
  0
LINE
  5
125
100
AcDbEntity
  8
0
  6
CONTINUOUS
 62
        80
100
AcDbLine
 10
44.9925
 20
-12.52425
 30
0.0
 11
34.937866
 21
-12.52425
 31
0.0
  0
LINE
  5
126
100
AcDbEntity
  8
0
  6
CONTINUOUS
 62
        80
100
AcDbLine
 10
44.9925
 20
82.52325
 30
0.0
 11
34.937866
 21
82.52325
 31
0.0
  0
LINE
  5
127
100
AcDbEntity
  8
0
  6
CONTINUOUS
 62
        80
100
AcDbLine
 10
36.937866
 20
-12.52425
 30
0.0
 11
36.937866
 21
-16.52425
 31
0.0
  0
LINE
  5
128
100
AcDbEntity
  8
0
  6
CONTINUOUS
 62
        80
100
AcDbLine
 10
36.937866
 20
82.52325
 30
0.0
 11
36.937866
 21
86.52325
 31
0.0
  0
SOLID
  5
129
100
AcDbEntity
  8
0
  6
CONTINUOUS
 62
        80
100
AcDbTrace
 10
36.771198995
 20
-13.5242500298
 30
0.0
 11
37.104533005
 21
-13.5242500298
 31
0.0
 12
36.937866
 22
-12.52425
 32
0.0
 13
36.937866
 23
-12.52425
 33
0.0
  0
SOLID
  5
12A
100
AcDbEntity
  8
0
  6
CONTINUOUS
 62
        80
100
AcDbTrace
 10
37.104533005
 20
83.5232500298
 30
0.0
 11
36.771198995
 21
83.5232500298
 31
0.0
 12
36.937866
 22
82.52325
 32
0.0
 13
36.937866
 23
82.52325
 33
0.0
  0
MTEXT
  5
12C
100
AcDbEntity
  8
0
  6
CONTINUOUS
 62
        80
100
AcDbMText
 10
34.3378659762
 20
34.1078300781
 30
0.0
 40
3.2000000477
 41
0.0
 71
         5
 72
         1
  1
\A1;\U+220595
  7
MX_DIMTXSTY_2
 11
0.0
 21
1.0
 31
0.0
  0
POINT
  5
12D
100
AcDbEntity
  8
DEFPOINTS
  6
CONTINUOUS
 62
         0
100
AcDbPoint
 10
44.9925
 20
-12.52425
 30
0.0
  0
POINT
  5
12E
100
AcDbEntity
  8
DEFPOINTS
  6
CONTINUOUS
 62
         0
100
AcDbPoint
 10
44.9925
 20
82.52325
 30
0.0
  0
POINT
  5
12F
100
AcDbEntity
  8
DEFPOINTS
  6
CONTINUOUS
 62
         0
100
AcDbPoint
 10
36.937866
 20
82.52325
 30
0.0
  0
ENDBLK
  5
130
100
AcDbEntity
  8
0
  6
ByBlock
 62
         0
100
AcDbBlockEnd
  0
BLOCK
  5
133
100
AcDbEntity
  8
0
  6
ByBlock
 62
         0
100
AcDbBlockBegin
  2
*D3
 70
         1
 10
0.0
 20
0.0
 30
0.0
  3
*D3
  1

  0
LINE
  5
134
100
AcDbEntity
  8
0
  6
CONTINUOUS
 62
        80
100
AcDbLine
 10
102.210362
 20
72.51825
 30
0.0
 11
102.210362
 21
-2.51925
 31
0.0
  0
LINE
  5
135
100
AcDbEntity
  8
0
  6
CONTINUOUS
 62
        80
100
AcDbLine
 10
86.513251
 20
72.51825
 30
0.0
 11
104.210362
 21
72.51825
 31
0.0
  0
LINE
  5
136
100
AcDbEntity
  8
0
  6
CONTINUOUS
 62
        80
100
AcDbLine
 10
86.513251
 20
-2.51925
 30
0.0
 11
104.210362
 21
-2.51925
 31
0.0
  0
LINE
  5
137
100
AcDbEntity
  8
0
  6
CONTINUOUS
 62
        80
100
AcDbLine
 10
102.210362
 20
72.51825
 30
0.0
 11
102.210362
 21
76.51825
 31
0.0
  0
LINE
  5
138
100
AcDbEntity
  8
0
  6
CONTINUOUS
 62
        80
100
AcDbLine
 10
102.210362
 20
-2.51925
 30
0.0
 11
102.210362
 21
-6.51925
 31
0.0
  0
SOLID
  5
139
100
AcDbEntity
  8
0
  6
CONTINUOUS
 62
        80
100
AcDbTrace
 10
102.377029005
 20
73.5182500298
 30
0.0
 11
102.043694995
 21
73.5182500298
 31
0.0
 12
102.210362
 22
72.51825
 32
0.0
 13
102.210362
 23
72.51825
 33
0.0
  0
SOLID
  5
13A
100
AcDbEntity
  8
0
  6
CONTINUOUS
 62
        80
100
AcDbTrace
 10
102.043694995
 20
-3.5192500298
 30
0.0
 11
102.377029005
 21
-3.5192500298
 31
0.0
 12
102.210362
 22
-2.51925
 32
0.0
 13
102.210362
 23
-2.51925
 33
0.0
  0
MTEXT
  5
13B
100
AcDbEntity
  8
0
  6
CONTINUOUS
 62
        80
100
AcDbMText
 10
99.6103619762
 20
34.1078305359
 30
0.0
 40
3.2000000477
 41
0.0
 71
         5
 72
         1
  1
\A1;\U+220575
  7
MX_DIMTXSTY_2
 11
0.0
 21
1.0
 31
0.0
  0
POINT
  5
13C
100
AcDbEntity
  8
DEFPOINTS
  6
CONTINUOUS
 62
         0
100
AcDbPoint
 10
86.513251
 20
72.51825
 30
0.0
  0
POINT
  5
13D
100
AcDbEntity
  8
DEFPOINTS
  6
CONTINUOUS
 62
         0
100
AcDbPoint
 10
86.513251
 20
-2.51925
 30
0.0
  0
POINT
  5
13E
100
AcDbEntity
  8
DEFPOINTS
  6
CONTINUOUS
 62
         0
100
AcDbPoint
 10
102.210362
 20
-2.51925
 30
0.0
  0
ENDBLK
  5
13F
100
AcDbEntity
  8
0
  6
ByBlock
 62
         0
100
AcDbBlockEnd
  0
BLOCK
  5
142
100
AcDbEntity
  8
0
  6
ByBlock
 62
         0
100
AcDbBlockBegin
  2
*D4
 70
         1
 10
0.0
 20
0.0
 30
0.0
  3
*D4
  1

  0
LINE
  5
143
100
AcDbEntity
  8
0
  6
CONTINUOUS
 62
        80
100
AcDbLine
 10
116.748328
 20
92.52825
 30
0.0
 11
116.748328
 21
-22.52925
 31
0.0
  0
LINE
  5
144
100
AcDbEntity
  8
0
  6
CONTINUOUS
 62
        80
100
AcDbLine
 10
86.513251
 20
92.52825
 30
0.0
 11
118.748328
 21
92.52825
 31
0.0
  0
LINE
  5
145
100
AcDbEntity
  8
0
  6
CONTINUOUS
 62
        80
100
AcDbLine
 10
86.513251
 20
-22.52925
 30
0.0
 11
118.748328
 21
-22.52925
 31
0.0
  0
LINE
  5
146
100
AcDbEntity
  8
0
  6
CONTINUOUS
 62
        80
100
AcDbLine
 10
116.748328
 20
92.52825
 30
0.0
 11
116.748328
 21
96.52825
 31
0.0
  0
LINE
  5
147
100
AcDbEntity
  8
0
  6
CONTINUOUS
 62
        80
100
AcDbLine
 10
116.748328
 20
-22.52925
 30
0.0
 11
116.748328
 21
-26.52925
 31
0.0
  0
SOLID
  5
148
100
AcDbEntity
  8
0
  6
CONTINUOUS
 62
        80
100
AcDbTrace
 10
116.914995005
 20
93.5282500298
 30
0.0
 11
116.581660995
 21
93.5282500298
 31
0.0
 12
116.748328
 22
92.52825
 32
0.0
 13
116.748328
 23
92.52825
 33
0.0
  0
SOLID
  5
149
100
AcDbEntity
  8
0
  6
CONTINUOUS
 62
        80
100
AcDbTrace
 10
116.581660995
 20
-23.5292500298
 30
0.0
 11
116.914995005
 21
-23.5292500298
 31
0.0
 12
116.748328
 22
-22.52925
 32
0.0
 13
116.748328
 23
-22.52925
 33
0.0
  0
MTEXT
  5
14B
100
AcDbEntity
  8
0
  6
CONTINUOUS
 62
        80
100
AcDbMText
 10
114.1483279762
 20
34.0078299255
 30
0.0
 40
3.2000000477
 41
0.0
 71
         5
 72
         1
  1
\A1;\U+2205115
  7
MX_DIMTXSTY_3
 11
0.0
 21
1.0
 31
0.0
  0
POINT
  5
14C
100
AcDbEntity
  8
DEFPOINTS
  6
CONTINUOUS
 62
         0
100
AcDbPoint
 10
86.513251
 20
92.52825
 30
0.0
  0
POINT
  5
14D
100
AcDbEntity
  8
DEFPOINTS
  6
CONTINUOUS
 62
         0
100
AcDbPoint
 10
86.513251
 20
-22.52925
 30
0.0
  0
POINT
  5
14E
100
AcDbEntity
  8
DEFPOINTS
  6
CONTINUOUS
 62
         0
100
AcDbPoint
 10
116.748328
 20
-22.52925
 30
0.0
  0
ENDBLK
  5
14F
100
AcDbEntity
  8
0
  6
ByBlock
 62
         0
100
AcDbBlockEnd
  0
BLOCK
  5
152
100
AcDbEntity
  8
0
  6
ByBlock
 62
         0
100
AcDbBlockBegin
  2
*D5
 70
         1
 10
0.0
 20
0.0
 30
0.0
  3
*D5
  1

  0
LINE
  5
153
100
AcDbEntity
  8
0
  6
CONTINUOUS
 62
        80
100
AcDbLine
 10
61.50075
 20
111.35707
 30
0.0
 11
86.51325
 21
111.35707
 31
0.0
  0
LINE
  5
154
100
AcDbEntity
  8
0
  6
CONTINUOUS
 62
        80
100
AcDbLine
 10
61.50075
 20
92.528249
 30
0.0
 11
61.50075
 21
113.35707
 31
0.0
  0
LINE
  5
155
100
AcDbEntity
  8
0
  6
CONTINUOUS
 62
        80
100
AcDbLine
 10
86.51325
 20
92.528249
 30
0.0
 11
86.51325
 21
113.35707
 31
0.0
  0
LINE
  5
156
100
AcDbEntity
  8
0
  6
CONTINUOUS
 62
        80
100
AcDbLine
 10
61.50075
 20
111.35707
 30
0.0
 11
57.50075
 21
111.35707
 31
0.0
  0
LINE
  5
157
100
AcDbEntity
  8
0
  6
CONTINUOUS
 62
        80
100
AcDbLine
 10
86.51325
 20
111.35707
 30
0.0
 11
90.51325
 21
111.35707
 31
0.0
  0
SOLID
  5
158
100
AcDbEntity
  8
0
  6
CONTINUOUS
 62
        80
100
AcDbTrace
 10
60.5007499702
 20
111.523737005
 30
0.0
 11
60.5007499702
 21
111.190402995
 31
0.0
 12
61.50075
 22
111.35707
 32
0.0
 13
61.50075
 23
111.35707
 33
0.0
  0
SOLID
  5
159
100
AcDbEntity
  8
0
  6
CONTINUOUS
 62
        80
100
AcDbTrace
 10
87.5132500298
 20
111.190402995
 30
0.0
 11
87.5132500298
 21
111.523737005
 31
0.0
 12
86.51325
 22
111.35707
 32
0.0
 13
86.51325
 23
111.35707
 33
0.0
  0
MTEXT
  5
15A
100
AcDbEntity
  8
0
  6
CONTINUOUS
 62
        80
100
AcDbMText
 10
73.2153333969
 20
113.9570700238
 30
0.0
 40
3.2000000477
 41
0.0
 71
         5
 72
         1
  1
\A1;25
  0
POINT
  5
15B
100
AcDbEntity
  8
DEFPOINTS
  6
CONTINUOUS
 62
         0
100
AcDbPoint
 10
61.50075
 20
92.528249
 30
0.0
  0
POINT
  5
15C
100
AcDbEntity
  8
DEFPOINTS
  6
CONTINUOUS
 62
         0
100
AcDbPoint
 10
86.51325
 20
92.528249
 30
0.0
  0
POINT
  5
15D
100
AcDbEntity
  8
DEFPOINTS
  6
CONTINUOUS
 62
         0
100
AcDbPoint
 10
86.51325
 20
111.35707
 30
0.0
  0
ENDBLK
  5
15E
100
AcDbEntity
  8
0
  6
ByBlock
 62
         0
100
AcDbBlockEnd
  0
BLOCK
  5
161
100
AcDbEntity
  8
0
  6
ByBlock
 62
         0
100
AcDbBlockBegin
  2
*D6
 70
         1
 10
0.0
 20
0.0
 30
0.0
  3
*D6
  1

  0
LINE
  5
162
100
AcDbEntity
  8
0
  6
CONTINUOUS
 62
        80
100
AcDbLine
 10
60.0
 20
122.631411
 30
0.0
 11
88.014
 21
122.631411
 31
0.0
  0
LINE
  5
163
100
AcDbEntity
  8
0
  6
CONTINUOUS
 62
        80
100
AcDbLine
 10
60.0
 20
91.077525
 30
0.0
 11
60.0
 21
124.631411
 31
0.0
  0
LINE
  5
164
100
AcDbEntity
  8
0
  6
CONTINUOUS
 62
        80
100
AcDbLine
 10
88.014
 20
91.077525
 30
0.0
 11
88.014
 21
124.631411
 31
0.0
  0
LINE
  5
165
100
AcDbEntity
  8
0
  6
CONTINUOUS
 62
        80
100
AcDbLine
 10
60.0
 20
122.631411
 30
0.0
 11
56.0
 21
122.631411
 31
0.0
  0
LINE
  5
166
100
AcDbEntity
  8
0
  6
CONTINUOUS
 62
        80
100
AcDbLine
 10
88.014
 20
122.631411
 30
0.0
 11
92.014
 21
122.631411
 31
0.0
  0
SOLID
  5
167
100
AcDbEntity
  8
0
  6
CONTINUOUS
 62
        80
100
AcDbTrace
 10
58.9999999702
 20
122.798078005
 30
0.0
 11
58.9999999702
 21
122.464743995
 31
0.0
 12
60.0
 22
122.631411
 32
0.0
 13
60.0
 23
122.631411
 33
0.0
  0
SOLID
  5
168
100
AcDbEntity
  8
0
  6
CONTINUOUS
 62
        80
100
AcDbTrace
 10
89.0140000298
 20
122.464743995
 30
0.0
 11
89.0140000298
 21
122.798078005
 31
0.0
 12
88.014
 22
122.631411
 32
0.0
 13
88.014
 23
122.631411
 33
0.0
  0
MTEXT
  5
169
100
AcDbEntity
  8
0
  6
CONTINUOUS
 62
        80
100
AcDbMText
 10
73.2153329849
 20
125.2314110238
 30
0.0
 40
3.2000000477
 41
0.0
 71
         5
 72
         1
  1
\A1;28
  0
POINT
  5
16A
100
AcDbEntity
  8
DEFPOINTS
  6
CONTINUOUS
 62
         0
100
AcDbPoint
 10
60.0
 20
91.077525
 30
0.0
  0
POINT
  5
16B
100
AcDbEntity
  8
DEFPOINTS
  6
CONTINUOUS
 62
         0
100
AcDbPoint
 10
88.014
 20
91.077525
 30
0.0
  0
POINT
  5
16C
100
AcDbEntity
  8
DEFPOINTS
  6
CONTINUOUS
 62
         0
100
AcDbPoint
 10
88.014
 20
122.631411
 30
0.0
  0
ENDBLK
  5
16D
100
AcDbEntity
  8
0
  6
ByBlock
 62
         0
100
AcDbBlockEnd
  0
BLOCK
  5
170
100
AcDbEntity
  8
0
  6
ByBlock
 62
         0
100
AcDbBlockBegin
  2
*D7
 70
         1
 10
0.0
 20
0.0
 30
0.0
  3
*D7
  1

  0
LINE
  5
171
100
AcDbEntity
  8
0
  6
CONTINUOUS
 62
        80
100
AcDbLine
 10
49.995
 20
122.631411
 30
0.0
 11
60.0
 21
122.631411
 31
0.0
  0
LINE
  5
172
100
AcDbEntity
  8
0
  6
CONTINUOUS
 62
        80
100
AcDbLine
 10
49.995
 20
89.48773
 30
0.0
 11
49.995
 21
124.631411
 31
0.0
  0
LINE
  5
173
100
AcDbEntity
  8
0
  6
CONTINUOUS
 62
        80
100
AcDbLine
 10
60.0
 20
91.077525
 30
0.0
 11
60.0
 21
124.631411
 31
0.0
  0
SOLID
  5
174
100
AcDbEntity
  8
0
  6
CONTINUOUS
 62
        80
100
AcDbTrace
 10
50.9950000298
 20
122.464743995
 30
0.0
 11
50.9950000298
 21
122.798078005
 31
0.0
 12
49.995
 22
122.631411
 32
0.0
 13
49.995
 23
122.631411
 33
0.0
  0
SOLID
  5
175
100
AcDbEntity
  8
0
  6
CONTINUOUS
 62
        80
100
AcDbTrace
 10
58.9999999702
 20
122.798078005
 30
0.0
 11
58.9999999702
 21
122.464743995
 31
0.0
 12
60.0
 22
122.631411
 32
0.0
 13
60.0
 23
122.631411
 33
0.0
  0
MTEXT
  5
177
100
AcDbEntity
  8
0
  6
CONTINUOUS
 62
        80
100
AcDbMText
 10
54.2058340263
 20
125.2314110238
 30
0.0
 40
3.2000000477
 41
0.0
 71
         5
 72
         1
  1
\A1;10
  7
MX_DIMTXSTY_4
  0
POINT
  5
178
100
AcDbEntity
  8
DEFPOINTS
  6
CONTINUOUS
 62
         0
100
AcDbPoint
 10
49.995
 20
89.48773
 30
0.0
  0
POINT
  5
179
100
AcDbEntity
  8
DEFPOINTS
  6
CONTINUOUS
 62
         0
100
AcDbPoint
 10
60.0
 20
91.077525
 30
0.0
  0
POINT
  5
17A
100
AcDbEntity
  8
DEFPOINTS
  6
CONTINUOUS
 62
         0
100
AcDbPoint
 10
60.0
 20
122.631411
 30
0.0
  0
ENDBLK
  5
17B
100
AcDbEntity
  8
0
  6
ByBlock
 62
         0
100
AcDbBlockEnd
  0
BLOCK
  5
17E
100
AcDbEntity
  8
0
  6
ByBlock
 62
         0
100
AcDbBlockBegin
  2
*D8
 70
         1
 10
0.0
 20
0.0
 30
0.0
  3
*D8
  1

  0
LINE
  5
17F
100
AcDbEntity
  8
0
  6
CONTINUOUS
 62
        80
100
AcDbLine
 10
49.995
 20
135.290319
 30
0.0
 11
88.014
 21
135.290319
 31
0.0
  0
LINE
  5
180
100
AcDbEntity
  8
0
  6
CONTINUOUS
 62
        80
100
AcDbLine
 10
49.995
 20
89.48773
 30
0.0
 11
49.995
 21
137.290319
 31
0.0
  0
LINE
  5
181
100
AcDbEntity
  8
0
  6
CONTINUOUS
 62
        80
100
AcDbLine
 10
88.014
 20
91.077524
 30
0.0
 11
88.014
 21
137.290319
 31
0.0
  0
LINE
  5
182
100
AcDbEntity
  8
0
  6
CONTINUOUS
 62
        80
100
AcDbLine
 10
49.995
 20
135.290319
 30
0.0
 11
45.995
 21
135.290319
 31
0.0
  0
LINE
  5
183
100
AcDbEntity
  8
0
  6
CONTINUOUS
 62
        80
100
AcDbLine
 10
88.014
 20
135.290319
 30
0.0
 11
92.014
 21
135.290319
 31
0.0
  0
SOLID
  5
184
100
AcDbEntity
  8
0
  6
CONTINUOUS
 62
        80
100
AcDbTrace
 10
48.9949999702
 20
135.456986005
 30
0.0
 11
48.9949999702
 21
135.123651995
 31
0.0
 12
49.995
 22
135.290319
 32
0.0
 13
49.995
 23
135.290319
 33
0.0
  0
SOLID
  5
185
100
AcDbEntity
  8
0
  6
CONTINUOUS
 62
        80
100
AcDbTrace
 10
89.0140000298
 20
135.123651995
 30
0.0
 11
89.0140000298
 21
135.456986005
 31
0.0
 12
88.014
 22
135.290319
 32
0.0
 13
88.014
 23
135.290319
 33
0.0
  0
MTEXT
  5
186
100
AcDbEntity
  8
0
  6
CONTINUOUS
 62
        80
100
AcDbMText
 10
68.2128344727
 20
137.8903190238
 30
0.0
 40
3.2000000477
 41
0.0
 71
         5
 72
         1
  1
\A1;38
  0
POINT
  5
187
100
AcDbEntity
  8
DEFPOINTS
  6
CONTINUOUS
 62
         0
100
AcDbPoint
 10
49.995
 20
89.48773
 30
0.0
  0
POINT
  5
188
100
AcDbEntity
  8
DEFPOINTS
  6
CONTINUOUS
 62
         0
100
AcDbPoint
 10
88.014
 20
91.077524
 30
0.0
  0
POINT
  5
189
100
AcDbEntity
  8
DEFPOINTS
  6
CONTINUOUS
 62
         0
100
AcDbPoint
 10
88.014
 20
135.290319
 30
0.0
  0
ENDBLK
  5
18A
100
AcDbEntity
  8
0
  6
ByBlock
 62
         0
100
AcDbBlockEnd
  0
ENDSEC
  0
SECTION
  2
ENTITIES
  0
MTEXT
  5
29
100
AcDbEntity
  8
0
  6
CONTINUOUS
 62
       110
100
AcDbMText
 10
-50.1970752373
 20
-45.9858018808
 30
0.0
 40
3.2000000477
 41
0.0
 71
         1
 72
         1
  1
\T1.065;\W1.018;\A1;TSUBAKI
  0
MTEXT
  5
2A
100
AcDbEntity
  8
0
  6
CONTINUOUS
 62
       110
100
AcDbMText
 10
-64.2730752373
 20
-71.2618018808
 30
0.0
 40
3.2000000477
 41
0.0
 71
         1
 72
         1
  1
\T1.065;\W1.018;\A1;TSUBAKI
  0
CIRCLE
  5
2B
100
AcDbEntity
  8
PV
  6
CONTINUOUS
 62
         3
100
AcDbCircle
 10
-103.468659
 20
77.816898
 30
0.0
 40
6.964481
  0
CIRCLE
  5
2C
100
AcDbEntity
  8
PV
  6
CONTINUOUS
 62
         3
100
AcDbCircle
 10
-103.468659
 20
77.816898
 30
0.0
 40
8.004
  0
CIRCLE
  5
2D
100
AcDbEntity
  8
PV
  6
CONTINUOUS
 62
         3
100
AcDbCircle
 10
-120.004923
 20
64.630308
 30
0.0
 40
6.964481
  0
CIRCLE
  5
2E
100
AcDbEntity
  8
PV
  6
CONTINUOUS
 62
         3
100
AcDbCircle
 10
-120.004923
 20
64.630308
 30
0.0
 40
8.004
  0
CIRCLE
  5
2F
100
AcDbEntity
  8
PV
  6
CONTINUOUS
 62
         3
100
AcDbCircle
 10
-129.181509
 20
45.574785
 30
0.0
 40
6.964481
  0
CIRCLE
  5
30
100
AcDbEntity
  8
PV
  6
CONTINUOUS
 62
         3
100
AcDbCircle
 10
-129.181509
 20
45.574785
 30
0.0
 40
8.004
  0
CIRCLE
  5
31
100
AcDbEntity
  8
PV
  6
CONTINUOUS
 62
         3
100
AcDbCircle
 10
-129.181509
 20
24.424215
 30
0.0
 40
6.964481
  0
CIRCLE
  5
32
100
AcDbEntity
  8
PV
  6
CONTINUOUS
 62
         3
100
AcDbCircle
 10
-129.181509
 20
24.424215
 30
0.0
 40
8.004
  0
CIRCLE
  5
33
100
AcDbEntity
  8
PV
  6
CONTINUOUS
 62
         3
100
AcDbCircle
 10
-103.46966
 20
-7.817898
 30
0.0
 40
6.964481
  0
CIRCLE
  5
34
100
AcDbEntity
  8
PV
  6
CONTINUOUS
 62
         3
100
AcDbCircle
 10
-103.46966
 20
-7.817898
 30
0.0
 40
8.004
  0
CIRCLE
  5
35
100
AcDbEntity
  8
PV
  6
CONTINUOUS
 62
         3
100
AcDbCircle
 10
-82.849355
 20
-12.52425
 30
0.0
 40
6.964481
  0
CIRCLE
  5
36
100
AcDbEntity
  8
PV
  6
CONTINUOUS
 62
         3
100
AcDbCircle
 10
-82.849355
 20
-12.52425
 30
0.0
 40
8.004
  0
CIRCLE
  5
37
100
AcDbEntity
  8
PV
  6
CONTINUOUS
 62
         3
100
AcDbCircle
 10
-62.23005
 20
-7.817898
 30
0.0
 40
6.964481
  0
CIRCLE
  5
38
100
AcDbEntity
  8
PV
  6
CONTINUOUS
 62
         3
100
AcDbCircle
 10
-62.23005
 20
-7.817898
 30
0.0
 40
8.004
  0
CIRCLE
  5
39
100
AcDbEntity
  8
PV
  6
CONTINUOUS
 62
         3
100
AcDbCircle
 10
-36.5172
 20
24.424215
 30
0.0
 40
6.964481
  0
CIRCLE
  5
3A
100
AcDbEntity
  8
PV
  6
CONTINUOUS
 62
         3
100
AcDbCircle
 10
-36.5172
 20
24.424215
 30
0.0
 40
8.004
  0
CIRCLE
  5
3B
100
AcDbEntity
  8
PV
  6
CONTINUOUS
 62
         3
100
AcDbCircle
 10
-36.5172
 20
45.574785
 30
0.0
 40
6.964481
  0
CIRCLE
  5
3C
100
AcDbEntity
  8
PV
  6
CONTINUOUS
 62
         3
100
AcDbCircle
 10
-36.5172
 20
45.574785
 30
0.0
 40
8.004
  0
CIRCLE
  5
3D
100
AcDbEntity
  8
PV
  6
CONTINUOUS
 62
         3
100
AcDbCircle
 10
-45.693786
 20
64.630308
 30
0.0
 40
6.964481
  0
CIRCLE
  5
3E
100
AcDbEntity
  8
PV
  6
CONTINUOUS
 62
         3
100
AcDbCircle
 10
-45.693786
 20
64.630308
 30
0.0
 40
8.004
  0
CIRCLE
  5
3F
100
AcDbEntity
  8
PV
  6
CONTINUOUS
 62
         3
100
AcDbCircle
 10
-62.22905
 20
77.816898
 30
0.0
 40
6.964481
  0
CIRCLE
  5
40
100
AcDbEntity
  8
PV
  6
CONTINUOUS
 62
         3
100
AcDbCircle
 10
-62.22905
 20
77.816898
 30
0.0
 40
8.004
  0
CIRCLE
  5
41
100
AcDbEntity
  8
PV
  6
CONTINUOUS
 62
         3
100
AcDbCircle
 10
-120.004923
 20
5.368692
 30
0.0
 40
4.192095
  0
CIRCLE
  5
42
100
AcDbEntity
  8
PV
  6
CONTINUOUS
 62
         3
100
AcDbCircle
 10
-45.693786
 20
5.368692
 30
0.0
 40
4.192095
  0
CIRCLE
  5
43
100
AcDbEntity
  8
PV
  6
CONTINUOUS
 62
         3
100
AcDbCircle
 10
-82.849355
 20
82.52325
 30
0.0
 40
4.192095
  0
CIRCLE
  5
44
100
AcDbEntity
  8
PV
  6
CONTINUOUS
 62
         3
100
AcDbCircle
 10
-45.693786
 20
5.368692
 30
0.0
 40
5.0025
  0
CIRCLE
  5
45
100
AcDbEntity
  8
PV
  6
CONTINUOUS
 62
         3
100
AcDbCircle
 10
-120.004923
 20
5.368692
 30
0.0
 40
5.0025
  0
CIRCLE
  5
46
100
AcDbEntity
  8
PV
  6
CONTINUOUS
 62
         3
100
AcDbCircle
 10
-82.849355
 20
82.52325
 30
0.0
 40
5.0025
  0
CIRCLE
  5
47
100
AcDbEntity
  8
PV
  6
CONTINUOUS
 62
         3
100
AcDbCircle
 10
-82.849355
 20
34.9995
 30
0.0
 40
38.969475
  0
CIRCLE
  5
48
100
AcDbEntity
  8
PV
  6
CONTINUOUS
 62
         3
100
AcDbCircle
 10
-82.849355
 20
34.9995
 30
0.0
 40
56.078025
  0
CIRCLE
  5
4A
100
AcDbEntity
  8
PV
  6
CENTER
 62
         3
100
AcDbCircle
 10
-82.849355
 20
34.9995
 30
0.0
 40
47.52375
  0
LINE
  5
4B
100
AcDbEntity
  8
PV
  6
CONTINUOUS
 62
         3
100
AcDbLine
 10
-85.850855
 20
72.39819
 30
0.0
 11
-85.850855
 21
73.852917
 31
0.0
  0
LINE
  5
4C
100
AcDbEntity
  8
PV
  6
CONTINUOUS
 62
         3
100
AcDbLine
 10
-79.847855
 20
72.39819
 30
0.0
 11
-79.847855
 21
73.852917
 31
0.0
  0
LINE
  5
4D
100
AcDbEntity
  8
PV
  6
CONTINUOUS
 62
         3
100
AcDbLine
 10
-26.780334
 20
33.999
 30
0.0
 11
-25.329609
 21
33.999
 31
0.0
  0
LINE
  5
4E
100
AcDbEntity
  8
PV
  6
CONTINUOUS
 62
         3
100
AcDbLine
 10
-26.780334
 20
36.0
 30
0.0
 11
-25.329609
 21
36.0
 31
0.0
  0
LINE
  5
4F
100
AcDbEntity
  8
PV
  6
CONTINUOUS
 62
         3
100
AcDbLine
 10
-107.470659
 20
80.127053
 30
0.0
 11
-107.470659
 21
75.506743
 31
0.0
  0
LINE
  5
50
100
AcDbEntity
  8
PV
  6
CONTINUOUS
 62
         3
100
AcDbLine
 10
-99.466659
 20
80.127053
 30
0.0
 11
-99.466659
 21
75.506743
 31
0.0
  0
LINE
  5
51
100
AcDbEntity
  8
PV
  6
CONTINUOUS
 62
         3
100
AcDbLine
 10
-103.468659
 20
73.195589
 30
0.0
 11
-99.466659
 21
75.505743
 31
0.0
  0
LINE
  5
52
100
AcDbEntity
  8
PV
  6
CONTINUOUS
 62
         3
100
AcDbLine
 10
-103.468659
 20
73.195589
 30
0.0
 11
-107.470659
 21
75.506743
 31
0.0
  0
LINE
  5
53
100
AcDbEntity
  8
PV
  6
CONTINUOUS
 62
         3
100
AcDbLine
 10
-103.468659
 20
82.438207
 30
0.0
 11
-107.470659
 21
80.127053
 31
0.0
  0
LINE
  5
54
100
AcDbEntity
  8
PV
  6
CONTINUOUS
 62
         3
100
AcDbLine
 10
-103.468659
 20
82.438207
 30
0.0
 11
-99.466659
 21
80.127053
 31
0.0
  0
LINE
  5
55
100
AcDbEntity
  8
PV
  6
CONTINUOUS
 62
         3
100
AcDbLine
 10
-124.006923
 20
66.940462
 30
0.0
 11
-124.006923
 21
62.319153
 31
0.0
  0
LINE
  5
56
100
AcDbEntity
  8
PV
  6
CONTINUOUS
 62
         3
100
AcDbLine
 10
-116.002923
 20
66.940462
 30
0.0
 11
-116.002923
 21
62.319153
 31
0.0
  0
LINE
  5
57
100
AcDbEntity
  8
PV
  6
CONTINUOUS
 62
         3
100
AcDbLine
 10
-120.004923
 20
60.008998
 30
0.0
 11
-116.002923
 21
62.319153
 31
0.0
  0
LINE
  5
58
100
AcDbEntity
  8
PV
  6
CONTINUOUS
 62
         3
100
AcDbLine
 10
-120.004923
 20
60.008998
 30
0.0
 11
-124.006923
 21
62.319153
 31
0.0
  0
LINE
  5
59
100
AcDbEntity
  8
PV
  6
CONTINUOUS
 62
         3
100
AcDbLine
 10
-120.004923
 20
69.250617
 30
0.0
 11
-124.006923
 21
66.940462
 31
0.0
  0
LINE
  5
5A
100
AcDbEntity
  8
PV
  6
CONTINUOUS
 62
         3
100
AcDbLine
 10
-120.004923
 20
69.251617
 30
0.0
 11
-116.002923
 21
66.940462
 31
0.0
  0
LINE
  5
5B
100
AcDbEntity
  8
PV
  6
CONTINUOUS
 62
         3
100
AcDbLine
 10
-133.183509
 20
47.88494
 30
0.0
 11
-133.183509
 21
43.26363
 31
0.0
  0
LINE
  5
5C
100
AcDbEntity
  8
PV
  6
CONTINUOUS
 62
         3
100
AcDbLine
 10
-125.179509
 20
47.88494
 30
0.0
 11
-125.179509
 21
43.26363
 31
0.0
  0
LINE
  5
5D
100
AcDbEntity
  8
PV
  6
CONTINUOUS
 62
         3
100
AcDbLine
 10
-129.181509
 20
40.953475
 30
0.0
 11
-125.179509
 21
43.26363
 31
0.0
  0
LINE
  5
5E
100
AcDbEntity
  8
PV
  6
CONTINUOUS
 62
         3
100
AcDbLine
 10
-129.181509
 20
40.953475
 30
0.0
 11
-133.183509
 21
43.26363
 31
0.0
  0
LINE
  5
5F
100
AcDbEntity
  8
PV
  6
CONTINUOUS
 62
         3
100
AcDbLine
 10
-129.181509
 20
50.196094
 30
0.0
 11
-133.183509
 21
47.88494
 31
0.0
  0
LINE
  5
60
100
AcDbEntity
  8
PV
  6
CONTINUOUS
 62
         3
100
AcDbLine
 10
-129.181509
 20
50.196094
 30
0.0
 11
-125.179509
 21
47.88494
 31
0.0
  0
LINE
  5
61
100
AcDbEntity
  8
PV
  6
CONTINUOUS
 62
         3
100
AcDbLine
 10
-133.183509
 20
26.73537
 30
0.0
 11
-133.183509
 21
22.114061
 31
0.0
  0
LINE
  5
62
100
AcDbEntity
  8
PV
  6
CONTINUOUS
 62
         3
100
AcDbLine
 10
-125.179509
 20
26.73537
 30
0.0
 11
-125.179509
 21
22.114061
 31
0.0
  0
LINE
  5
63
100
AcDbEntity
  8
PV
  6
CONTINUOUS
 62
         3
100
AcDbLine
 10
-129.181509
 20
19.802905
 30
0.0
 11
-125.179509
 21
22.114061
 31
0.0
  0
LINE
  5
64
100
AcDbEntity
  8
PV
  6
CONTINUOUS
 62
         3
100
AcDbLine
 10
-129.181509
 20
19.802905
 30
0.0
 11
-133.183509
 21
22.114061
 31
0.0
  0
LINE
  5
65
100
AcDbEntity
  8
PV
  6
CONTINUOUS
 62
         3
100
AcDbLine
 10
-129.181509
 20
29.045525
 30
0.0
 11
-133.183509
 21
26.73537
 31
0.0
  0
LINE
  5
66
100
AcDbEntity
  8
PV
  6
CONTINUOUS
 62
         3
100
AcDbLine
 10
-129.181509
 20
29.045525
 30
0.0
 11
-125.179509
 21
26.73537
 31
0.0
  0
LINE
  5
67
100
AcDbEntity
  8
PV
  6
CONTINUOUS
 62
         3
100
AcDbLine
 10
-107.47166
 20
-5.507743
 30
0.0
 11
-107.47166
 21
-10.128052
 31
0.0
  0
LINE
  5
68
100
AcDbEntity
  8
PV
  6
CONTINUOUS
 62
         3
100
AcDbLine
 10
-99.46766
 20
-5.507743
 30
0.0
 11
-99.46766
 21
-10.128052
 31
0.0
  0
LINE
  5
69
100
AcDbEntity
  8
PV
  6
CONTINUOUS
 62
         3
100
AcDbLine
 10
-103.46966
 20
-12.439207
 30
0.0
 11
-99.46766
 21
-10.128052
 31
0.0
  0
LINE
  5
6A
100
AcDbEntity
  8
PV
  6
CONTINUOUS
 62
         3
100
AcDbLine
 10
-103.468659
 20
-12.439207
 30
0.0
 11
-107.47166
 21
-10.128052
 31
0.0
  0
LINE
  5
6B
100
AcDbEntity
  8
PV
  6
CONTINUOUS
 62
         3
100
AcDbLine
 10
-103.46966
 20
-3.196588
 30
0.0
 11
-107.47166
 21
-5.506743
 31
0.0
  0
LINE
  5
6C
100
AcDbEntity
  8
PV
  6
CONTINUOUS
 62
         3
100
AcDbLine
 10
-103.46966
 20
-3.196588
 30
0.0
 11
-99.466659
 21
-5.507743
 31
0.0
  0
LINE
  5
6D
100
AcDbEntity
  8
PV
  6
CONTINUOUS
 62
         3
100
AcDbLine
 10
-86.851355
 20
-10.214096
 30
0.0
 11
-86.851355
 21
-14.834404
 31
0.0
  0
LINE
  5
6E
100
AcDbEntity
  8
PV
  6
CONTINUOUS
 62
         3
100
AcDbLine
 10
-78.847355
 20
-10.214096
 30
0.0
 11
-78.847355
 21
-14.834404
 31
0.0
  0
LINE
  5
6F
100
AcDbEntity
  8
PV
  6
CONTINUOUS
 62
         3
100
AcDbLine
 10
-82.849355
 20
-17.145559
 30
0.0
 11
-78.847355
 21
-14.835405
 31
0.0
  0
LINE
  5
70
100
AcDbEntity
  8
PV
  6
CONTINUOUS
 62
         3
100
AcDbLine
 10
-82.849355
 20
-17.145559
 30
0.0
 11
-86.851355
 21
-14.835405
 31
0.0
  0
LINE
  5
71
100
AcDbEntity
  8
PV
  6
CONTINUOUS
 62
         3
100
AcDbLine
 10
-82.849355
 20
-7.90294
 30
0.0
 11
-86.851355
 21
-10.214096
 31
0.0
  0
LINE
  5
72
100
AcDbEntity
  8
PV
  6
CONTINUOUS
 62
         3
100
AcDbLine
 10
-82.849355
 20
-7.90294
 30
0.0
 11
-78.847355
 21
-10.214096
 31
0.0
  0
LINE
  5
73
100
AcDbEntity
  8
PV
  6
CONTINUOUS
 62
         3
100
AcDbLine
 10
-66.23105
 20
-5.507743
 30
0.0
 11
-66.23105
 21
-10.128052
 31
0.0
  0
LINE
  5
74
100
AcDbEntity
  8
PV
  6
CONTINUOUS
 62
         3
100
AcDbLine
 10
-58.22705
 20
-5.507743
 30
0.0
 11
-58.22705
 21
-10.128052
 31
0.0
  0
LINE
  5
75
100
AcDbEntity
  8
PV
  6
CONTINUOUS
 62
         3
100
AcDbLine
 10
-62.22905
 20
-12.439207
 30
0.0
 11
-58.22705
 21
-10.128052
 31
0.0
  0
LINE
  5
76
100
AcDbEntity
  8
PV
  6
CONTINUOUS
 62
         3
100
AcDbLine
 10
-62.23005
 20
-12.439207
 30
0.0
 11
-66.23105
 21
-10.128052
 31
0.0
  0
LINE
  5
77
100
AcDbEntity
  8
PV
  6
CONTINUOUS
 62
         3
100
AcDbLine
 10
-62.22905
 20
-3.196588
 30
0.0
 11
-66.23105
 21
-5.507743
 31
0.0
  0
LINE
  5
78
100
AcDbEntity
  8
PV
  6
CONTINUOUS
 62
         3
100
AcDbLine
 10
-62.22905
 20
-3.196588
 30
0.0
 11
-58.22805
 21
-5.507743
 31
0.0
  0
LINE
  5
79
100
AcDbEntity
  8
PV
  6
CONTINUOUS
 62
         3
100
AcDbLine
 10
-40.5192
 20
26.73537
 30
0.0
 11
-40.5192
 21
22.114061
 31
0.0
  0
LINE
  5
7A
100
AcDbEntity
  8
PV
  6
CONTINUOUS
 62
         3
100
AcDbLine
 10
-32.5152
 20
26.73537
 30
0.0
 11
-32.5152
 21
22.114061
 31
0.0
  0
LINE
  5
7B
100
AcDbEntity
  8
PV
  6
CONTINUOUS
 62
         3
100
AcDbLine
 10
-36.5172
 20
19.802905
 30
0.0
 11
-32.5152
 21
22.114061
 31
0.0
  0
LINE
  5
7C
100
AcDbEntity
  8
PV
  6
CONTINUOUS
 62
         3
100
AcDbLine
 10
-36.5172
 20
19.802905
 30
0.0
 11
-40.5192
 21
22.114061
 31
0.0
  0
LINE
  5
7D
100
AcDbEntity
  8
PV
  6
CONTINUOUS
 62
         3
100
AcDbLine
 10
-36.5172
 20
29.045525
 30
0.0
 11
-40.5192
 21
26.73537
 31
0.0
  0
LINE
  5
7E
100
AcDbEntity
  8
PV
  6
CONTINUOUS
 62
         3
100
AcDbLine
 10
-36.5172
 20
29.045525
 30
0.0
 11
-32.5152
 21
26.73537
 31
0.0
  0
LINE
  5
7F
100
AcDbEntity
  8
PV
  6
CONTINUOUS
 62
         3
100
AcDbLine
 10
-40.5192
 20
47.88494
 30
0.0
 11
-40.5192
 21
43.26363
 31
0.0
  0
LINE
  5
80
100
AcDbEntity
  8
PV
  6
CONTINUOUS
 62
         3
100
AcDbLine
 10
-32.5152
 20
47.88494
 30
0.0
 11
-32.5152
 21
43.26363
 31
0.0
  0
LINE
  5
81
100
AcDbEntity
  8
PV
  6
CONTINUOUS
 62
         3
100
AcDbLine
 10
-36.5172
 20
40.953475
 30
0.0
 11
-32.5152
 21
43.26363
 31
0.0
  0
LINE
  5
82
100
AcDbEntity
  8
PV
  6
CONTINUOUS
 62
         3
100
AcDbLine
 10
-36.5172
 20
40.953475
 30
0.0
 11
-40.5192
 21
43.26363
 31
0.0
  0
LINE
  5
83
100
AcDbEntity
  8
PV
  6
CONTINUOUS
 62
         3
100
AcDbLine
 10
-36.5172
 20
50.195094
 30
0.0
 11
-40.5192
 21
47.88494
 31
0.0
  0
LINE
  5
84
100
AcDbEntity
  8
PV
  6
CONTINUOUS
 62
         3
100
AcDbLine
 10
-36.5172
 20
50.196094
 30
0.0
 11
-32.5152
 21
47.88494
 31
0.0
  0
LINE
  5
85
100
AcDbEntity
  8
PV
  6
CONTINUOUS
 62
         3
100
AcDbLine
 10
-49.695786
 20
66.940462
 30
0.0
 11
-49.695786
 21
62.319153
 31
0.0
  0
LINE
  5
86
100
AcDbEntity
  8
PV
  6
CONTINUOUS
 62
         3
100
AcDbLine
 10
-41.691786
 20
66.940462
 30
0.0
 11
-41.691786
 21
62.319153
 31
0.0
  0
LINE
  5
87
100
AcDbEntity
  8
PV
  6
CONTINUOUS
 62
         3
100
AcDbLine
 10
-45.693786
 20
60.008998
 30
0.0
 11
-41.691786
 21
62.319153
 31
0.0
  0
LINE
  5
88
100
AcDbEntity
  8
PV
  6
CONTINUOUS
 62
         3
100
AcDbLine
 10
-45.693786
 20
60.008998
 30
0.0
 11
-49.695786
 21
62.319153
 31
0.0
  0
LINE
  5
89
100
AcDbEntity
  8
PV
  6
CONTINUOUS
 62
         3
100
AcDbLine
 10
-45.693786
 20
69.251617
 30
0.0
 11
-49.695786
 21
66.940462
 31
0.0
  0
LINE
  5
8A
100
AcDbEntity
  8
PV
  6
CONTINUOUS
 62
         3
100
AcDbLine
 10
-45.693786
 20
69.250617
 30
0.0
 11
-41.691786
 21
66.940462
 31
0.0
  0
LINE
  5
8B
100
AcDbEntity
  8
PV
  6
CONTINUOUS
 62
         3
100
AcDbLine
 10
-66.23105
 20
80.127053
 30
0.0
 11
-66.23105
 21
75.506743
 31
0.0
  0
LINE
  5
8C
100
AcDbEntity
  8
PV
  6
CONTINUOUS
 62
         3
100
AcDbLine
 10
-58.22705
 20
80.127053
 30
0.0
 11
-58.22705
 21
75.506743
 31
0.0
  0
LINE
  5
8D
100
AcDbEntity
  8
PV
  6
CONTINUOUS
 62
         3
100
AcDbLine
 10
-62.22905
 20
73.195589
 30
0.0
 11
-58.22705
 21
75.505743
 31
0.0
  0
LINE
  5
8E
100
AcDbEntity
  8
PV
  6
CONTINUOUS
 62
         3
100
AcDbLine
 10
-62.22905
 20
73.195589
 30
0.0
 11
-66.23105
 21
75.505743
 31
0.0
  0
LINE
  5
8F
100
AcDbEntity
  8
PV
  6
CONTINUOUS
 62
         3
100
AcDbLine
 10
-62.22905
 20
82.438207
 30
0.0
 11
-66.23105
 21
80.127053
 31
0.0
  0
LINE
  5
90
100
AcDbEntity
  8
PV
  6
CONTINUOUS
 62
         3
100
AcDbLine
 10
-62.22905
 20
82.438207
 30
0.0
 11
-58.22705
 21
80.127053
 31
0.0
  0
LINE
  5
91
100
AcDbEntity
  8
PV
  6
CENTER
 62
         3
100
AcDbLine
 10
-57.291582
 20
14.617314
 30
0.0
 11
-34.634259
 21
-3.450715
 31
0.0
  0
LINE
  5
92
100
AcDbEntity
  8
PV
  6
CENTER
 62
         3
100
AcDbLine
 10
-68.665266
 20
5.546781
 30
0.0
 11
-56.091983
 21
-20.563267
 31
0.0
  0
LINE
  5
93
100
AcDbEntity
  8
PV
  6
CENTER
 62
         3
100
AcDbLine
 10
-97.032443
 20
5.546781
 30
0.0
 11
-109.606727
 21
-20.563267
 31
0.0
  0
LINE
  5
94
100
AcDbEntity
  8
PV
  6
CENTER
 62
         3
100
AcDbLine
 10
-108.407127
 20
14.617314
 30
0.0
 11
-131.06445
 21
-3.450715
 31
0.0
  0
LINE
  5
95
100
AcDbEntity
  8
PV
  6
CENTER
 62
         3
100
AcDbLine
 10
-114.719282
 20
27.725865
 30
0.0
 11
-142.973402
 21
21.276642
 31
0.0
  0
LINE
  5
96
100
AcDbEntity
  8
PV
  6
CENTER
 62
         3
100
AcDbLine
 10
-114.719282
 20
42.273135
 30
0.0
 11
-142.973402
 21
48.722358
 31
0.0
  0
LINE
  5
97
100
AcDbEntity
  8
PV
  6
CENTER
 62
         3
100
AcDbLine
 10
-108.407127
 20
55.381686
 30
0.0
 11
-131.065451
 21
73.449716
 31
0.0
  0
LINE
  5
98
100
AcDbEntity
  8
PV
  6
CENTER
 62
         3
100
AcDbLine
 10
-97.033443
 20
64.452219
 30
0.0
 11
-109.606727
 21
90.562268
 31
0.0
  0
LINE
  5
99
100
AcDbEntity
  8
PV
  6
CENTER
 62
         3
100
AcDbLine
 10
-82.849355
 20
-30.289128
 30
0.0
 11
-82.849355
 21
96.669319
 31
0.0
  0
LINE
  5
9A
100
AcDbEntity
  8
PV
  6
CENTER
 62
         3
100
AcDbLine
 10
-68.665266
 20
64.452219
 30
0.0
 11
-56.091983
 21
90.562268
 31
0.0
  0
LINE
  5
9B
100
AcDbEntity
  8
PV
  6
CENTER
 62
         3
100
AcDbLine
 10
-57.291582
 20
55.381686
 30
0.0
 11
-34.633259
 21
73.449716
 31
0.0
  0
LINE
  5
9C
100
AcDbEntity
  8
PV
  6
CENTER
 62
         3
100
AcDbLine
 10
-50.979428
 20
42.274135
 30
0.0
 11
-22.725308
 21
48.722358
 31
0.0
  0
LINE
  5
9D
100
AcDbEntity
  8
PV
  6
CENTER
 62
         3
100
AcDbLine
 10
-50.979428
 20
27.724865
 30
0.0
 11
-22.725308
 21
21.276642
 31
0.0
  0
LINE
  5
9E
100
AcDbEntity
  8
PV
  6
CENTER
 62
         3
100
AcDbLine
 10
-148.916372
 20
34.9995
 30
0.0
 11
-18.102998
 21
34.9995
 31
0.0
  0
LINE
  5
9F
100
AcDbEntity
  8
PV
  6
CENTER
 62
         3
100
AcDbLine
 10
58.203102
 20
34.9995
 30
0.0
 11
94.061022
 21
34.9995
 31
0.0
  0
LINE
  5
A0
100
AcDbEntity
  8
PV
  6
CONTINUOUS
 62
         3
100
AcDbLine
 10
76.10805
 20
88.836405
 30
0.0
 11
76.10805
 21
86.713344
 31
0.0
  0
LINE
  5
A1
100
AcDbEntity
  8
PV
  6
CONTINUOUS
 62
         3
100
AcDbLine
 10
76.008
 20
88.816395
 30
0.0
 11
86.51325
 21
90.955464
 31
0.0
  0
LINE
  5
A2
100
AcDbEntity
  8
PV
  6
CONTINUOUS
 62
         3
100
AcDbLine
 10
76.008
 20
76.230105
 30
0.0
 11
86.51325
 21
74.091036
 31
0.0
  0
LINE
  5
A3
100
AcDbEntity
  8
PV
  6
CONTINUOUS
 62
         3
100
AcDbLine
 10
71.90595
 20
76.210095
 30
0.0
 11
71.90595
 21
77.52075
 31
0.0
  0
LINE
  5
A4
100
AcDbEntity
  8
PV
  6
CONTINUOUS
 62
         3
100
AcDbLine
 10
72.006
 20
88.816395
 30
0.0
 11
76.008
 21
88.816395
 31
0.0
  0
LINE
  5
A5
100
AcDbEntity
  8
PV
  6
CONTINUOUS
 62
         3
100
AcDbLine
 10
72.006
 20
76.230105
 30
0.0
 11
76.008
 21
76.230105
 31
0.0
  0
LINE
  5
A6
100
AcDbEntity
  8
PV
  6
CONTINUOUS
 62
         3
100
AcDbLine
 10
76.10805
 20
-6.211095
 30
0.0
 11
76.10805
 21
-18.837405
 31
0.0
  0
LINE
  5
A7
100
AcDbEntity
  8
PV
  6
CONTINUOUS
 62
         3
100
AcDbLine
 10
71.90595
 20
-18.837405
 30
0.0
 11
71.90595
 21
-6.211095
 31
0.0
  0
LINE
  5
A8
100
AcDbEntity
  8
PV
  6
CONTINUOUS
 62
         3
100
AcDbLine
 10
72.006
 20
-18.817395
 30
0.0
 11
61.50075
 21
-20.956464
 31
0.0
  0
LINE
  5
A9
100
AcDbEntity
  8
PV
  6
CONTINUOUS
 62
         3
100
AcDbLine
 10
72.006
 20
-6.231105
 30
0.0
 11
61.50075
 21
-4.092036
 31
0.0
  0
LINE
  5
AA
100
AcDbEntity
  8
PV
  6
CONTINUOUS
 62
         3
100
AcDbLine
 10
76.008
 20
-18.817395
 30
0.0
 11
72.006
 21
-18.817395
 31
0.0
  0
LINE
  5
AB
100
AcDbEntity
  8
PV
  6
CONTINUOUS
 62
         3
100
AcDbLine
 10
76.008
 20
-6.231105
 30
0.0
 11
72.006
 21
-6.231105
 31
0.0
  0
LINE
  5
AC
100
AcDbEntity
  8
PV
  6
CONTINUOUS
 62
         3
100
AcDbLine
 10
88.014
 20
87.52575
 30
0.0
 11
60.0
 21
87.52575
 31
0.0
  0
LINE
  5
AD
100
AcDbEntity
  8
PV
  6
CONTINUOUS
 62
         3
100
AcDbLine
 10
88.014
 20
77.52075
 30
0.0
 11
60.0
 21
77.52075
 31
0.0
  0
LINE
  5
AE
100
AcDbEntity
  8
PV
  6
CONTINUOUS
 62
         3
100
AcDbLine
 10
83.51175
 20
87.52575
 30
0.0
 11
85.0125
 21
86.025
 31
0.0
  0
LINE
  5
AF
100
AcDbEntity
  8
PV
  6
CONTINUOUS
 62
         3
100
AcDbLine
 10
83.51175
 20
77.52075
 30
0.0
 11
85.0125
 21
79.0215
 31
0.0
  0
LINE
  5
B0
100
AcDbEntity
  8
PV
  6
CONTINUOUS
 62
         3
100
AcDbLine
 10
83.51175
 20
87.52575
 30
0.0
 11
83.51175
 21
77.52075
 31
0.0
  0
LINE
  5
B1
100
AcDbEntity
  8
PV
  6
CONTINUOUS
 62
         3
100
AcDbLine
 10
85.0125
 20
86.025
 30
0.0
 11
85.0125
 21
79.0215
 31
0.0
  0
LINE
  5
B2
100
AcDbEntity
  8
PV
  6
CONTINUOUS
 62
         3
100
AcDbLine
 10
63.751875
 20
87.52575
 30
0.0
 11
63.751875
 21
77.52075
 31
0.0
  0
LINE
  5
B3
100
AcDbEntity
  8
PV
  6
CONTINUOUS
 62
         3
100
AcDbLine
 10
63.751875
 20
86.713344
 30
0.0
 11
62.127063
 21
87.52575
 31
0.0
  0
LINE
  5
B4
100
AcDbEntity
  8
PV
  6
CONTINUOUS
 62
         3
100
AcDbLine
 10
63.751875
 20
78.333156
 30
0.0
 11
62.127063
 21
77.52075
 31
0.0
  0
LINE
  5
B5
100
AcDbEntity
  8
PV
  6
CONTINUOUS
 62
         3
100
AcDbLine
 10
63.751875
 20
78.333156
 30
0.0
 11
88.014
 21
78.333156
 31
0.0
  0
LINE
  5
B6
100
AcDbEntity
  8
PV
  6
CONTINUOUS
 62
         3
100
AcDbLine
 10
63.751875
 20
86.713344
 30
0.0
 11
88.014
 21
86.713344
 31
0.0
  0
LINE
  5
B7
100
AcDbEntity
  8
PV
  6
CONTINUOUS
 62
         3
100
AcDbLine
 10
50.5953
 20
90.52725
 30
0.0
 11
50.5953
 21
74.51925
 31
0.0
  0
LINE
  5
B8
100
AcDbEntity
  8
PV
  6
CENTER
 62
         3
100
AcDbLine
 10
44.9925
 20
82.52325
 30
0.0
 11
90.015
 21
82.52325
 31
0.0
  0
LINE
  5
B9
100
AcDbEntity
  8
PV
  6
CONTINUOUS
 62
         3
100
AcDbLine
 10
71.90595
 20
87.52575
 30
0.0
 11
71.90595
 21
88.836405
 31
0.0
  0
LINE
  5
BA
100
AcDbEntity
  8
PV
  6
CONTINUOUS
 62
         3
100
AcDbLine
 10
76.10805
 20
78.333156
 30
0.0
 11
76.10805
 21
76.210095
 31
0.0
  0
LINE
  5
BB
100
AcDbEntity
  8
PV
  6
CONTINUOUS
 62
         3
100
AcDbLine
 10
60.0
 20
-17.52675
 30
0.0
 11
71.90595
 21
-17.52675
 31
0.0
  0
LINE
  5
BC
100
AcDbEntity
  8
PV
  6
CONTINUOUS
 62
         3
100
AcDbLine
 10
60.0
 20
-7.52175
 30
0.0
 11
71.90595
 21
-7.52175
 31
0.0
  0
LINE
  5
BD
100
AcDbEntity
  8
PV
  6
CONTINUOUS
 62
         3
100
AcDbLine
 10
71.90595
 20
-8.334156
 30
0.0
 11
60.0
 21
-8.334156
 31
0.0
  0
LINE
  5
BE
100
AcDbEntity
  8
PV
  6
CONTINUOUS
 62
         3
100
AcDbLine
 10
71.90595
 20
-16.714344
 30
0.0
 11
60.0
 21
-16.714344
 31
0.0
  0
LINE
  5
BF
100
AcDbEntity
  8
PV
  6
CENTER
 62
         3
100
AcDbLine
 10
90.015
 20
-12.52425
 30
0.0
 11
44.9925
 21
-12.52425
 31
0.0
  0
LINE
  5
C0
100
AcDbEntity
  8
PV
  6
CONTINUOUS
 62
         3
100
AcDbLine
 10
61.50075
 20
74.091036
 30
0.0
 11
72.006
 21
76.230105
 31
0.0
  0
LINE
  5
C1
100
AcDbEntity
  8
PV
  6
CONTINUOUS
 62
         3
100
AcDbLine
 10
61.50075
 20
90.955464
 30
0.0
 11
72.006
 21
88.816395
 31
0.0
  0
LINE
  5
C2
100
AcDbEntity
  8
PV
  6
CONTINUOUS
 62
         3
100
AcDbLine
 10
86.51325
 20
-4.092036
 30
0.0
 11
76.008
 21
-6.231105
 31
0.0
  0
LINE
  5
C3
100
AcDbEntity
  8
PV
  6
CONTINUOUS
 62
         3
100
AcDbLine
 10
86.51325
 20
-20.956464
 30
0.0
 11
76.008
 21
-18.817395
 31
0.0
  0
LINE
  5
C4
100
AcDbEntity
  8
PV
  6
CONTINUOUS
 62
         3
100
AcDbLine
 10
86.243103
 20
-69.614802
 30
0.0
 11
86.243103
 21
-129.614802
 31
0.0
  0
ARC
  5
C5
100
AcDbEntity
  8
PV
  6
CONTINUOUS
 62
         3
100
AcDbCircle
 10
-82.849355
 20
34.9995
 30
0.0
 40
37.51875
100
AcDbArc
 50
94.589
 51
85.411458
  0
ARC
  5
C6
100
AcDbEntity
  8
PV
  6
CONTINUOUS
 62
         3
100
AcDbCircle
 10
-82.849355
 20
34.9995
 30
0.0
 40
57.52875
100
AcDbArc
 50
0.996499
 51
359.003502
  0
LINE
  5
C7
100
AcDbEntity
  8
PV
  6
CONTINUOUS
 62
         3
100
AcDbLine
 10
88.014
 20
91.077525
 30
0.0
 11
88.014
 21
-21.078525
 31
0.0
  0
LINE
  5
C8
100
AcDbEntity
  8
PV
  6
CONTINUOUS
 62
         3
100
AcDbLine
 10
61.50075
 20
72.51825
 30
0.0
 11
86.51325
 21
72.51825
 31
0.0
  0
LINE
  5
C9
100
AcDbEntity
  8
PV
  6
CONTINUOUS
 62
         3
100
AcDbLine
 10
61.50075
 20
92.52825
 30
0.0
 11
86.51325
 21
92.52825
 31
0.0
  0
LINE
  5
CA
100
AcDbEntity
  8
PV
  6
CONTINUOUS
 62
         3
100
AcDbLine
 10
60.0
 20
73.968975
 30
0.0
 11
60.90045
 21
73.968975
 31
0.0
  0
LINE
  5
CB
100
AcDbEntity
  8
PV
  6
CONTINUOUS
 62
         3
100
AcDbLine
 10
60.0
 20
91.077525
 30
0.0
 11
60.90045
 21
91.077525
 31
0.0
  0
LINE
  5
CC
100
AcDbEntity
  8
PV
  6
CONTINUOUS
 62
         3
100
AcDbLine
 10
87.11355
 20
73.968975
 30
0.0
 11
88.014
 21
73.968975
 31
0.0
  0
LINE
  5
CD
100
AcDbEntity
  8
PV
  6
CONTINUOUS
 62
         3
100
AcDbLine
 10
60.90045
 20
91.077525
 30
0.0
 11
61.50075
 21
90.955464
 31
0.0
  0
LINE
  5
CE
100
AcDbEntity
  8
PV
  6
CONTINUOUS
 62
         3
100
AcDbLine
 10
60.90045
 20
73.968975
 30
0.0
 11
61.50075
 21
74.091036
 31
0.0
  0
LINE
  5
CF
100
AcDbEntity
  8
PV
  6
CONTINUOUS
 62
         3
100
AcDbLine
 10
87.11355
 20
91.077525
 30
0.0
 11
88.014
 21
91.077525
 31
0.0
  0
LINE
  5
D0
100
AcDbEntity
  8
PV
  6
CONTINUOUS
 62
         3
100
AcDbLine
 10
86.51325
 20
92.52825
 30
0.0
 11
86.51325
 21
90.955464
 31
0.0
  0
LINE
  5
D1
100
AcDbEntity
  8
PV
  6
CONTINUOUS
 62
         3
100
AcDbLine
 10
61.50075
 20
92.52825
 30
0.0
 11
61.50075
 21
90.955464
 31
0.0
  0
LINE
  5
D2
100
AcDbEntity
  8
PV
  6
CONTINUOUS
 62
         3
100
AcDbLine
 10
86.51325
 20
-2.51925
 30
0.0
 11
61.50075
 21
-2.51925
 31
0.0
  0
LINE
  5
D3
100
AcDbEntity
  8
PV
  6
CONTINUOUS
 62
         3
100
AcDbLine
 10
86.51325
 20
-22.52925
 30
0.0
 11
61.50075
 21
-22.52925
 31
0.0
  0
LINE
  5
D4
100
AcDbEntity
  8
PV
  6
CONTINUOUS
 62
         3
100
AcDbLine
 10
60.90045
 20
-3.969975
 30
0.0
 11
60.0
 21
-3.969975
 31
0.0
  0
LINE
  5
D5
100
AcDbEntity
  8
PV
  6
CONTINUOUS
 62
         3
100
AcDbLine
 10
87.11355
 20
-21.078525
 30
0.0
 11
86.51325
 21
-20.956464
 31
0.0
  0
LINE
  5
D6
100
AcDbEntity
  8
PV
  6
CONTINUOUS
 62
         3
100
AcDbLine
 10
87.11355
 20
-3.969975
 30
0.0
 11
86.51325
 21
-4.092036
 31
0.0
  0
LINE
  5
D7
100
AcDbEntity
  8
PV
  6
CONTINUOUS
 62
         3
100
AcDbLine
 10
60.90045
 20
-21.078525
 30
0.0
 11
60.0
 21
-21.078525
 31
0.0
  0
LINE
  5
D8
100
AcDbEntity
  8
PV
  6
CONTINUOUS
 62
         3
100
AcDbLine
 10
88.014
 20
-3.969975
 30
0.0
 11
87.11355
 21
-3.969975
 31
0.0
  0
LINE
  5
D9
100
AcDbEntity
  8
PV
  6
CONTINUOUS
 62
         3
100
AcDbLine
 10
88.014
 20
-21.078525
 30
0.0
 11
87.11355
 21
-21.078525
 31
0.0
  0
LINE
  5
DA
100
AcDbEntity
  8
PV
  6
CONTINUOUS
 62
         3
100
AcDbLine
 10
86.51325
 20
-20.956464
 30
0.0
 11
86.51325
 21
-22.52925
 31
0.0
  0
LINE
  5
DB
100
AcDbEntity
  8
PV
  6
CONTINUOUS
 62
         3
100
AcDbLine
 10
61.50075
 20
-20.956464
 30
0.0
 11
61.50075
 21
-22.52925
 31
0.0
  0
LINE
  5
DC
100
AcDbEntity
  8
PV
  6
CONTINUOUS
 62
         3
100
AcDbLine
 10
86.51325
 20
74.091036
 30
0.0
 11
86.51325
 21
-4.092036
 31
0.0
  0
LINE
  5
DD
100
AcDbEntity
  8
PV
  6
CONTINUOUS
 62
         3
100
AcDbLine
 10
61.50075
 20
74.091036
 30
0.0
 11
61.50075
 21
-4.092036
 31
0.0
  0
LINE
  5
DE
100
AcDbEntity
  8
PV
  6
CONTINUOUS
 62
         3
100
AcDbLine
 10
60.0
 20
90.52725
 30
0.0
 11
50.5953
 21
90.52725
 31
0.0
  0
LINE
  5
DF
100
AcDbEntity
  8
PV
  6
CONTINUOUS
 62
         3
100
AcDbLine
 10
60.0
 20
74.51925
 30
0.0
 11
50.5953
 21
74.51925
 31
0.0
  0
LINE
  5
E0
100
AcDbEntity
  8
PV
  6
CONTINUOUS
 62
         3
100
AcDbLine
 10
49.995
 20
75.558769
 30
0.0
 11
50.5953
 21
74.51925
 31
0.0
  0
LINE
  5
E1
100
AcDbEntity
  8
PV
  6
CONTINUOUS
 62
         3
100
AcDbLine
 10
49.995
 20
89.487731
 30
0.0
 11
50.5953
 21
90.52725
 31
0.0
  0
LINE
  5
E2
100
AcDbEntity
  8
PV
  6
CONTINUOUS
 62
         3
100
AcDbLine
 10
49.995
 20
89.487731
 30
0.0
 11
49.995
 21
75.558769
 31
0.0
  0
LINE
  5
E3
100
AcDbEntity
  8
PV
  6
CONTINUOUS
 62
         3
100
AcDbLine
 10
60.0
 20
91.077525
 30
0.0
 11
60.0
 21
-21.078525
 31
0.0
  0
LINE
  5
E4
100
AcDbEntity
  8
PV
  6
CONTINUOUS
 62
         3
100
AcDbLine
 10
86.51325
 20
90.955464
 30
0.0
 11
87.11355
 21
91.077525
 31
0.0
  0
LINE
  5
E5
100
AcDbEntity
  8
PV
  6
CONTINUOUS
 62
         3
100
AcDbLine
 10
86.51325
 20
74.091036
 30
0.0
 11
87.11355
 21
73.968975
 31
0.0
  0
LINE
  5
E6
100
AcDbEntity
  8
PV
  6
CONTINUOUS
 62
         3
100
AcDbLine
 10
61.50075
 20
-4.092036
 30
0.0
 11
60.90045
 21
-3.969975
 31
0.0
  0
LINE
  5
E7
100
AcDbEntity
  8
PV
  6
CONTINUOUS
 62
         3
100
AcDbLine
 10
61.50075
 20
-20.956464
 30
0.0
 11
60.90045
 21
-21.078525
 31
0.0
  0
MTEXT
  5
E8
100
AcDbEntity
  8
PV
  6
CONTINUOUS
 62
       110
100
AcDbMText
 10
-123.3352540105
 20
133.1225369909
 30
0.0
 40
3.2016000748
 41
0.0
 71
         1
 72
         1
  1
\W1.200;\A1;M10
  0
MTEXT
  5
E9
100
AcDbEntity
  8
PV
  6
CONTINUOUS
 62
       110
100
AcDbMText
 10
10.4243000035
 20
-125.0148018808
 30
0.0
 40
3.2000000477
 41
0.0
 71
         1
 72
         1
  1
\W1.333;\A1;1.27
  0
MTEXT
  5
EA
100
AcDbEntity
  8
PV
  6
CONTINUOUS
 62
       110
100
AcDbMText
 10
43.6697679861
 20
-119.0148018808
 30
0.0
 40
3.2000000477
 41
0.0
 71
         1
 72
         1
  1
\W1.412;\A1;13.0
  0
MTEXT
  5
EB
100
AcDbEntity
  8
PV
  6
CONTINUOUS
 62
       110
100
AcDbMText
 10
43.6279380177
 20
-113.0148018808
 30
0.0
 40
3.2000000477
 41
0.0
 71
         1
 72
         1
  1
\W1.333;\A1;20.0
  0
MTEXT
  5
EC
100
AcDbEntity
  8
PV
  6
CONTINUOUS
 62
       110
100
AcDbMText
 10
40.3834930099
 20
-107.0148018808
 30
0.0
 40
3.2000000477
 41
0.0
 71
         1
 72
         1
  1
\W1.250;\A1;14100
  0
MTEXT
  5
ED
100
AcDbEntity
  8
PV
  6
CONTINUOUS
 62
       110
100
AcDbMText
 10
46.6815329638
 20
-101.0148018808
 30
0.0
 40
3.2000000477
 41
0.0
 71
         1
 72
         1
  1
\W1.059;\A1;530
  0
MTEXT
  5
EE
100
AcDbEntity
  8
PV
  6
CONTINUOUS
 62
       110
100
AcDbMText
 10
46.8025410198
 20
-95.0148018808
 30
0.0
 40
3.2000000477
 41
0.0
 71
         1
 72
         1
  1
\W1.286;\A1;8.3
  0
MTEXT
  5
EF
100
AcDbEntity
  8
PV
  6
CONTINUOUS
 62
       110
100
AcDbMText
 10
7.8309549959
 20
-89.1578018808
 30
0.0
 40
3.2000000477
 41
0.0
 71
         1
 72
         1
  1
\W1.149;\A1;11-M10X25
  0
MTEXT
  5
F0
100
AcDbEntity
  8
PV
  6
CONTINUOUS
 62
       110
100
AcDbMText
 10
9.6652380103
 20
-82.9328018808
 30
0.0
 40
3.2000000477
 41
0.0
 71
         1
 72
         1
  1
\W1.082;\A1;PL075X115AS
  0
MTEXT
  5
F1
100
AcDbEntity
  8
PV
  6
CONTINUOUS
 62
       110
100
AcDbMText
 10
24.8465220079
 20
-125.0148018808
 30
0.0
 40
3.2000000477
 41
0.0
 71
         1
 72
         1
  1
\A1;kg
  0
MTEXT
  5
F2
100
AcDbEntity
  8
PV
  6
CONTINUOUS
 62
       110
100
AcDbMText
 10
10.4929690035
 20
-95.0148018808
 30
0.0
 40
3.2000000477
 41
0.0
 71
         1
 72
         1
  1
\W1.333;\A1;81.3
  0
MTEXT
  5
F3
100
AcDbEntity
  8
PV
  6
CONTINUOUS
 62
       110
100
AcDbMText
 10
25.6465220102
 20
-95.0148018808
 30
0.0
 40
3.2000000477
 41
0.0
 71
         1
 72
         1
  1
\W0.833;\A1;Ｎ・ｍ
  0
MTEXT
  5
F4
100
AcDbEntity
  8
PV
  6
CONTINUOUS
 62
       110
100
AcDbMText
 10
10.3081730035
 20
-101.0148018808
 30
0.0
 40
3.2000000477
 41
0.0
 71
         1
 72
         1
  1
\W1.333;\A1;5.19
  0
MTEXT
  5
F5
100
AcDbEntity
  8
PV
  6
CONTINUOUS
 62
       110
100
AcDbMText
 10
25.6465220102
 20
-101.0148018808
 30
0.0
 40
3.2000000477
 41
0.0
 71
         1
 72
         1
  1
\W0.833;\A1;ｋＮ・ｍ
  0
MTEXT
  5
F6
100
AcDbEntity
  8
PV
  6
CONTINUOUS
 62
       110
100
AcDbMText
 10
13.4388020045
 20
-107.0148018808
 30
0.0
 40
3.2000000477
 41
0.0
 71
         1
 72
         1
  1
\W1.125;\A1;138
  0
MTEXT
  5
F7
100
AcDbEntity
  8
PV
  6
CONTINUOUS
 62
       110
100
AcDbMText
 10
24.8465220079
 20
-107.0148018808
 30
0.0
 40
3.2000000477
 41
0.0
 71
         1
 72
         1
  1
\A1;kN
  0
MTEXT
  5
F8
100
AcDbEntity
  8
PV
  6
CONTINUOUS
 62
       110
100
AcDbMText
 10
13.4528920045
 20
-113.0148018808
 30
0.0
 40
3.2000000477
 41
0.0
 71
         1
 72
         1
  1
\W1.125;\A1;196
  0
MTEXT
  5
F9
100
AcDbEntity
  8
PV
  6
CONTINUOUS
 62
       110
100
AcDbMText
 10
24.8465220079
 20
-113.0148018808
 30
0.0
 40
3.2000000477
 41
0.0
 71
         1
 72
         1
  1
\A1;MPa
  0
MTEXT
  5
FA
100
AcDbEntity
  8
PV
  6
CONTINUOUS
 62
       110
100
AcDbMText
 10
13.5303640045
 20
-118.9252738808
 30
0.0
 40
3.2000000477
 41
0.0
 71
         1
 72
         1
  1
\W1.125;\A1;127
  0
MTEXT
  5
FB
100
AcDbEntity
  8
PV
  6
CONTINUOUS
 62
       110
100
AcDbMText
 10
24.8465220079
 20
-119.0148018808
 30
0.0
 40
3.2000000477
 41
0.0
 71
         1
 72
         1
  1
\A1;MPa
  0
MTEXT
  5
FC
100
AcDbEntity
  8
PV
  6
CONTINUOUS
 62
       110
100
AcDbMText
 10
39.9640279881
 20
-95.0148018808
 30
0.0
 40
3.2000000477
 41
0.0
 71
         1
 72
         1
  1
\W1.500;\A1;\{
  0
MTEXT
  5
FD
100
AcDbEntity
  8
PV
  6
CONTINUOUS
 62
       110
100
AcDbMText
 10
58.9273770102
 20
-95.0148018808
 30
0.0
 40
3.2000000477
 41
0.0
 71
         1
 72
         1
  1
\W0.833;\A1;ｋｇｆ・ｍ｝
  0
MTEXT
  5
FE
100
AcDbEntity
  8
PV
  6
CONTINUOUS
 62
       110
100
AcDbMText
 10
58.9273770102
 20
-101.0148018808
 30
0.0
 40
3.2000000477
 41
0.0
 71
         1
 72
         1
  1
\W0.833;\A1;ｋｇｆ・ｍ｝
  0
MTEXT
  5
FF
100
AcDbEntity
  8
PV
  6
CONTINUOUS
 62
       110
100
AcDbMText
 10
58.1758620055
 20
-107.0148018808
 30
0.0
 40
3.2000000477
 41
0.0
 71
         1
 72
         1
  1
\W1.091;\A1;kgf\}
  0
MTEXT
  5
100
100
AcDbEntity
  8
PV
  6
CONTINUOUS
 62
       110
100
AcDbMText
 10
58.3019211812
 20
-113.0148018808
 30
0.0
 40
3.2000000477
 41
0.0
 71
         1
 72
         1
  1
\T1.101;\W1.081;\A1;kgf/mm \}
  0
MTEXT
  5
101
100
AcDbEntity
  8
PV
  6
CONTINUOUS
 62
       110
100
AcDbMText
 10
58.3019211812
 20
-119.0148018808
 30
0.0
 40
3.2000000477
 41
0.0
 71
         1
 72
         1
  1
\T1.101;\W1.081;\A1;kgf/mm \}
  0
MTEXT
  5
102
100
AcDbEntity
  8
PV
  6
CONTINUOUS
 62
       110
100
AcDbMText
 10
77.0024210079
 20
-118.1642488808
 30
0.0
 40
3.2000000477
 41
0.0
 71
         1
 72
         1
  1
\A1;2
  0
MTEXT
  5
103
100
AcDbEntity
  8
PV
  6
CONTINUOUS
 62
       110
100
AcDbMText
 10
77.0024210079
 20
-112.1642488808
 30
0.0
 40
3.2000000477
 41
0.0
 71
         1
 72
         1
  1
\A1;2
  0
MTEXT
  5
104
100
AcDbEntity
  8
PV
  6
CONTINUOUS
 62
       110
100
AcDbMText
 10
40.0384149881
 20
-101.0148018808
 30
0.0
 40
3.2000000477
 41
0.0
 71
         1
 72
         1
  1
\W1.500;\A1;\{
  0
MTEXT
  5
105
100
AcDbEntity
  8
PV
  6
CONTINUOUS
 62
       110
100
AcDbMText
 10
34.0954359881
 20
-107.0148018808
 30
0.0
 40
3.2000000477
 41
0.0
 71
         1
 72
         1
  1
\W1.500;\A1;\{
  0
MTEXT
  5
106
100
AcDbEntity
  8
PV
  6
CONTINUOUS
 62
       110
100
AcDbMText
 10
36.7640279881
 20
-113.0148018808
 30
0.0
 40
3.2000000477
 41
0.0
 71
         1
 72
         1
  1
\W1.500;\A1;\{
  0
MTEXT
  5
107
100
AcDbEntity
  8
PV
  6
CONTINUOUS
 62
       110
100
AcDbMText
 10
36.8414999881
 20
-118.9252738808
 30
0.0
 40
3.2000000477
 41
0.0
 71
         1
 72
         1
  1
\W1.500;\A1;\{
  0
LINE
  5
108
100
AcDbEntity
  8
PV
  6
CONTINUOUS
 62
         3
100
AcDbLine
 10
-85.350605
 20
86.855415
 30
0.0
 11
-109.350599
 21
128.425189
 31
0.0
  0
LINE
  5
109
100
AcDbEntity
  8
PV
  6
CONTINUOUS
 62
         3
100
AcDbLine
 10
-126.893366
 20
128.425189
 30
0.0
 11
-109.350599
 21
128.425189
 31
0.0
  0
LINE
  5
10A
100
AcDbEntity
  8
PV
  6
CONTINUOUS
 62
         3
100
AcDbLine
 10
-112.865529
 20
-75.614802
 30
0.0
 11
86.243103
 21
-75.614802
 31
0.0
  0
LINE
  5
10B
100
AcDbEntity
  8
PV
  6
CONTINUOUS
 62
         3
100
AcDbLine
 10
-112.865529
 20
-81.614802
 30
0.0
 11
86.243103
 21
-81.614802
 31
0.0
  0
LINE
  5
10C
100
AcDbEntity
  8
PV
  6
CONTINUOUS
 62
         3
100
AcDbLine
 10
-112.865529
 20
-87.614802
 30
0.0
 11
86.243103
 21
-87.614802
 31
0.0
  0
LINE
  5
10D
100
AcDbEntity
  8
PV
  6
CONTINUOUS
 62
         3
100
AcDbLine
 10
-112.865529
 20
-93.614802
 30
0.0
 11
86.243103
 21
-93.614802
 31
0.0
  0
LINE
  5
10E
100
AcDbEntity
  8
PV
  6
CONTINUOUS
 62
         3
100
AcDbLine
 10
-112.865529
 20
-99.614802
 30
0.0
 11
86.243103
 21
-99.614802
 31
0.0
  0
LINE
  5
10F
100
AcDbEntity
  8
PV
  6
CONTINUOUS
 62
         3
100
AcDbLine
 10
-112.865529
 20
-105.614802
 30
0.0
 11
86.243103
 21
-105.614802
 31
0.0
  0
LINE
  5
110
100
AcDbEntity
  8
PV
  6
CONTINUOUS
 62
         3
100
AcDbLine
 10
-112.865529
 20
-111.614802
 30
0.0
 11
86.243103
 21
-111.614802
 31
0.0
  0
LINE
  5
111
100
AcDbEntity
  8
PV
  6
CONTINUOUS
 62
         3
100
AcDbLine
 10
-112.865529
 20
-117.614802
 30
0.0
 11
86.243103
 21
-117.614802
 31
0.0
  0
LINE
  5
112
100
AcDbEntity
  8
PV
  6
CONTINUOUS
 62
         3
100
AcDbLine
 10
-112.865529
 20
-123.614802
 30
0.0
 11
86.243103
 21
-123.614802
 31
0.0
  0
LINE
  5
113
100
AcDbEntity
  8
PV
  6
CONTINUOUS
 62
         3
100
AcDbLine
 10
-112.865529
 20
-129.614802
 30
0.0
 11
86.243103
 21
-129.614802
 31
0.0
  0
LINE
  5
114
100
AcDbEntity
  8
PV
  6
CONTINUOUS
 62
         3
100
AcDbLine
 10
-112.865529
 20
-69.614802
 30
0.0
 11
86.243103
 21
-69.614802
 31
0.0
  0
LINE
  5
115
100
AcDbEntity
  8
PV
  6
CONTINUOUS
 62
         3
100
AcDbLine
 10
-112.865529
 20
-69.614802
 30
0.0
 11
-112.865529
 21
-129.614802
 31
0.0
  0
MTEXT
  5
116
100
AcDbEntity
  8
PV
  6
CONTINUOUS
 62
       110
100
AcDbMText
 10
-50.2511469897
 20
-57.9858018808
 30
0.0
 40
3.2000000477
 41
0.0
 71
         1
 72
         1
  1
\W1.082;\A1;PL075X115AS
  0
MTEXT
  5
117
100
AcDbEntity
  8
PV
  6
CONTINUOUS
 62
       110
100
AcDbMText
 10
-50.2834409227
 20
-51.9858018808
 30
0.0
 40
3.2000000477
 41
0.0
 71
         1
 72
         1
  1
\T1.006;\W1.063;\A1;POWER LOCK
  0
MTEXT
  5
118
100
AcDbEntity
  8
PV
  6
CONTINUOUS
 62
       110
100
AcDbMText
 10
-108.3347796348
 20
-83.1468018808
 30
0.0
 40
3.2000000477
 41
0.0
 71
         1
 72
         1
  1
\T1.034;\W1.053;\A1;MODEL NUMBER
  0
MTEXT
  5
119
100
AcDbEntity
  8
PV
  6
CONTINUOUS
 62
       110
100
AcDbMText
 10
-108.2868149758
 20
-119.1468018808
 30
0.0
 40
3.2000000477
 41
0.0
 71
         1
 72
         1
  1
\T1.061;\W1.093;\A1;CONTACT PRESSURE OF HUB BORE
  0
MTEXT
  5
11A
100
AcDbEntity
  8
PV
  6
CONTINUOUS
 62
       110
100
AcDbMText
 10
-108.3059430229
 20
-113.1468018808
 30
0.0
 40
3.2000000477
 41
0.0
 71
         1
 72
         1
  1
\T1.051;\W1.077;\A1;CONTACT PRESSURE OF SHAFT
  0
MTEXT
  5
11B
100
AcDbEntity
  8
PV
  6
CONTINUOUS
 62
       110
100
AcDbMText
 10
-108.2999218301
 20
-107.1468018808
 30
0.0
 40
3.2000000477
 41
0.0
 71
         1
 72
         1
  1
\T1.057;\W1.031;\A1;TRANSMISSIBLE THRUST
  0
MTEXT
  5
11C
100
AcDbEntity
  8
PV
  6
CONTINUOUS
 62
       110
100
AcDbMText
 10
-108.2999218301
 20
-101.1468018808
 30
0.0
 40
3.2000000477
 41
0.0
 71
         1
 72
         1
  1
\T1.057;\W1.031;\A1;TRANSMISSIBLE TORQUE
  0
MTEXT
  5
11D
100
AcDbEntity
  8
PV
  6
CONTINUOUS
 62
       110
100
AcDbMText
 10
-108.2230219399
 20
-89.1468018808
 30
0.0
 40
3.2000000477
 41
0.0
 71
         1
 72
         1
  1
\T1.096;\W1.097;\A1;QUANTITY AND SIZE OF LOCKING BOLTS
  0
MTEXT
  5
11E
100
AcDbEntity
  8
PV
  6
CONTINUOUS
 62
       110
100
AcDbMText
 10
-108.2503002653
 20
-95.1468018808
 30
0.0
 40
3.2000000477
 41
0.0
 71
         1
 72
         1
  1
\T1.083;\W1.076;\A1;TIGHTENING TORQUE OF LOCKING BOLTS
  0
MTEXT
  5
11F
100
AcDbEntity
  8
PV
  6
CONTINUOUS
 62
       110
100
AcDbMText
 10
-64.3594409227
 20
-77.2618018808
 30
0.0
 40
3.2000000477
 41
0.0
 71
         1
 72
         1
  1
\T1.006;\W1.063;\A1;POWER LOCK
  0
MTEXT
  5
120
100
AcDbEntity
  8
PV
  6
CONTINUOUS
 62
       110
100
AcDbMText
 10
-108.3928629921
 20
-125.1468018808
 30
0.0
 40
3.2000000477
 41
0.0
 71
         1
 72
         1
  1
\A1;MASS
  0
LINE
  5
121
100
AcDbEntity
  8
PV
  6
CONTINUOUS
 62
         3
100
AcDbLine
 10
1.907471
 20
-81.614802
 30
0.0
 11
1.907471
 21
-129.614802
 31
0.0
  0
DIMENSION
  5
131
100
AcDbEntity
  8
PV
  6
CONTINUOUS
 62
        80
100
AcDbDimension
  2
*D2
 10
36.937866
 20
82.52325
 30
0.0
 11
36.937866
 21
34.1078300781
 31
0.0
 70
       128
  1
\A1;\U+2205<>
  3
MXDIMSTYLE
100
AcDbAlignedDimension
 13
44.9925
 23
-12.52425
 33
0.0
 14
44.9925
 24
82.52325
 34
0.0
 50
90.0
100
AcDbRotatedDimension
1001
ACAD
1000
DSTYLE
1002
{
1070
         6
1000
SOLID
1070
         7
1000
SOLID
1070
        41
1040
1.0000000298
1070
        44
1040
2.0
1070
       271
1070
         4
1070
       284
1070
         8
1070
       340
1005
12B
1070
       343
1005
0
1070
       344
1005
0
1002
}
  0
DIMENSION
  5
140
100
AcDbEntity
  8
PV
  6
CONTINUOUS
 62
        80
100
AcDbDimension
  2
*D3
 10
102.210362
 20
-2.51925
 30
0.0
 11
102.210362
 21
34.1078305359
 31
0.0
 70
       128
  1
\A1;\U+2205<>
  3
MXDIMSTYLE
100
AcDbAlignedDimension
 13
86.513251
 23
72.51825
 33
0.0
 14
86.513251
 24
-2.51925
 34
0.0
 50
90.0
100
AcDbRotatedDimension
1001
ACAD
1000
DSTYLE
1002
{
1070
         6
1000
SOLID
1070
         7
1000
SOLID
1070
        41
1040
1.0000000298
1070
        44
1040
2.0
1070
       271
1070
         4
1070
       284
1070
         8
1070
       340
1005
12B
1070
       343
1005
0
1070
       344
1005
0
1002
}
  0
DIMENSION
  5
150
100
AcDbEntity
  8
PV
  6
CONTINUOUS
 62
        80
100
AcDbDimension
  2
*D4
 10
116.748328
 20
-22.52925
 30
0.0
 11
116.748328
 21
34.0078299255
 31
0.0
 70
       128
  1
\A1;\U+2205<>
  3
MXDIMSTYLE
100
AcDbAlignedDimension
 13
86.513251
 23
92.52825
 33
0.0
 14
86.513251
 24
-22.52925
 34
0.0
 50
90.0
100
AcDbRotatedDimension
1001
ACAD
1000
DSTYLE
1002
{
1070
         6
1000
SOLID
1070
         7
1000
SOLID
1070
        41
1040
1.0000000298
1070
        44
1040
2.0
1070
       271
1070
         4
1070
       284
1070
         8
1070
       340
1005
14A
1070
       343
1005
0
1070
       344
1005
0
1002
}
  0
DIMENSION
  5
15F
100
AcDbEntity
  8
PV
  6
CONTINUOUS
 62
        80
100
AcDbDimension
  2
*D5
 10
86.51325
 20
111.35707
 30
0.0
 11
73.2153333969
 21
111.35707
 31
0.0
 70
       128
  1
\A1;<>
  3
MXDIMSTYLE
100
AcDbAlignedDimension
 13
61.50075
 23
92.528249
 33
0.0
 14
86.51325
 24
92.528249
 34
0.0
100
AcDbRotatedDimension
1001
ACAD
1000
DSTYLE
1002
{
1070
         6
1000
SOLID
1070
         7
1000
SOLID
1070
        41
1040
1.0000000298
1070
        44
1040
2.0
1070
       271
1070
         4
1070
       284
1070
         8
1070
       343
1005
0
1070
       344
1005
0
1002
}
  0
DIMENSION
  5
16E
100
AcDbEntity
  8
PV
  6
CONTINUOUS
 62
        80
100
AcDbDimension
  2
*D6
 10
88.014
 20
122.631411
 30
0.0
 11
73.2153329849
 21
122.631411
 31
0.0
 70
       128
  1
\A1;<>
  3
MXDIMSTYLE
100
AcDbAlignedDimension
 13
60.0
 23
91.077525
 33
0.0
 14
88.014
 24
91.077525
 34
0.0
100
AcDbRotatedDimension
1001
ACAD
1000
DSTYLE
1002
{
1070
         6
1000
SOLID
1070
         7
1000
SOLID
1070
        41
1040
1.0000000298
1070
        44
1040
2.0
1070
       271
1070
         4
1070
       284
1070
         8
1070
       343
1005
0
1070
       344
1005
0
1002
}
  0
DIMENSION
  5
17C
100
AcDbEntity
  8
PV
  6
CONTINUOUS
 62
        80
100
AcDbDimension
  2
*D7
 10
60.0
 20
122.631411
 30
0.0
 11
54.2058340263
 21
122.631411
 31
0.0
 70
       128
  1
\A1;<>
  3
MXDIMSTYLE
100
AcDbAlignedDimension
 13
49.995
 23
89.48773
 33
0.0
 14
60.0
 24
91.077525
 34
0.0
100
AcDbRotatedDimension
1001
ACAD
1000
DSTYLE
1002
{
1070
         6
1000
SOLID
1070
         7
1000
SOLID
1070
        41
1040
1.0000000298
1070
        44
1040
2.0
1070
       271
1070
         4
1070
       284
1070
         8
1070
       340
1005
176
1070
       343
1005
0
1070
       344
1005
0
1002
}
  0
DIMENSION
  5
18B
100
AcDbEntity
  8
PV
  6
CONTINUOUS
 62
        80
100
AcDbDimension
  2
*D8
 10
88.014
 20
135.290319
 30
0.0
 11
68.2128344727
 21
135.290319
 31
0.0
 70
       128
  1
\A1;<>
  3
MXDIMSTYLE
100
AcDbAlignedDimension
 13
49.995
 23
89.48773
 33
0.0
 14
88.014
 24
91.077524
 34
0.0
100
AcDbRotatedDimension
1001
ACAD
1000
DSTYLE
1002
{
1070
         6
1000
SOLID
1070
         7
1000
SOLID
1070
        41
1040
1.0000000298
1070
        44
1040
2.0
1070
       271
1070
         4
1070
       284
1070
         8
1070
       343
1005
0
1070
       344
1005
0
1002
}
  0
ENDSEC
  0
SECTION
  2
OBJECTS
  0
DICTIONARY
  5
19
100
AcDbDictionary
  3
ACAD_GROUP
350
1A
  3
ACAD_MLINESTYLE
350
1B
  0
DICTIONARY
  5
1A
102
{ACAD_REACTORS
330
19
102
}
100
AcDbDictionary
  0
DICTIONARY
  5
1B
102
{ACAD_REACTORS
330
19
102
}
100
AcDbDictionary
  3
STANDARD
350
1C
  0
MLINESTYLE
  5
1C
102
{ACAD_REACTORS
330
1B
102
}
100
AcDbMlineStyle
  2
Standard
 70
         0
  3

 62
         0
 51
90.0
 52
90.0
 71
         2
 49
0.5
 62
       256
  6
ByLayer
 49
-0.5
 62
       256
  6
ByLayer
  0
ENDSEC
  0
EOF
