  0
SECTION
  2
HEADER
  9
$ACADVER
  1
AC1014
  9
$ACADMAINTVER
 70
         0
  9
$DWGCODEPAGE
  3
ANSI_932
  9
$INSBASE
 10
0.0
 20
0.0
 30
0.0
  9
$EXTMIN
 10
-8.351745
 20
-110.0
 30
0.0
  9
$EXTMAX
 10
259.312955
 20
160.1717875316
 30
0.0
  9
$LIMMIN
 10
-8.351745
 20
-110.0
  9
$LIMMAX
 10
259.312955
 20
160.1717875316
  9
$ORTHOMODE
 70
         0
  9
$REGENMODE
 70
         1
  9
$FILLMODE
 70
         1
  9
$QTEXTMODE
 70
         0
  9
$MIRRTEXT
 70
         1
  9
$DRAGMODE
 70
         2
  9
$LTSCALE
 40
1.0
  9
$OSMODE
 70
         0
  9
$ATTMODE
 70
         1
  9
$TEXTSIZE
 40
3.2000000477
  9
$TRACEWID
 40
0.05
  9
$TEXTSTYLE
  7
MX_NOTE_STANDARD
  9
$CLAYER
  8
0
  9
$CELTYPE
  6
CONTINUOUS
  9
$CECOLOR
 62
       256
  9
$CELTSCALE
 40
1.0
  9
$DELOBJ
 70
         1
  9
$DISPSILH
 70
         0
  9
$DIMSCALE
 40
1.0
  9
$DIMASZ
 40
2.5
  9
$DIMEXO
 40
0.0
  9
$DIMDLI
 40
3.75
  9
$DIMRND
 40
0.0
  9
$DIMDLE
 40
0.0
  9
$DIMEXE
 40
2.5
  9
$DIMTP
 40
0.0
  9
$DIMTM
 40
0.0
  9
$DIMTXT
 40
3.2000000477
  9
$DIMCEN
 40
2.5
  9
$DIMTSZ
 40
0.0
  9
$DIMTOL
 70
         0
  9
$DIMLIM
 70
         0
  9
$DIMTIH
 70
         0
  9
$DIMTOH
 70
         0
  9
$DIMSE1
 70
         0
  9
$DIMSE2
 70
         0
  9
$DIMTAD
 70
         1
  9
$DIMZIN
 70
         8
  9
$DIMBLK
  1

  9
$DIMASO
 70
         1
  9
$DIMSHO
 70
         1
  9
$DIMPOST
  1

  9
$DIMAPOST
  1

  9
$DIMALT
 70
         0
  9
$DIMALTD
 70
         4
  9
$DIMALTF
 40
0.0393700787
  9
$DIMLFAC
 40
1.0
  9
$DIMTOFL
 70
         1
  9
$DIMTVP
 40
0.0
  9
$DIMTIX
 70
         0
  9
$DIMSOXD
 70
         0
  9
$DIMSAH
 70
         1
  9
$DIMBLK1
  1
_OPEN30
  9
$DIMBLK2
  1
_OPEN30
  9
$DIMSTYLE
  2
MXDIMSTYLE
  9
$DIMCLRD
 70
         0
  9
$DIMCLRE
 70
         0
  9
$DIMCLRT
 70
         0
  9
$DIMTFAC
 40
1.0
  9
$DIMGAP
 40
1.0
  9
$DIMJUST
 70
         0
  9
$DIMSD1
 70
         0
  9
$DIMSD2
 70
         0
  9
$DIMTOLJ
 70
         0
  9
$DIMTZIN
 70
         0
  9
$DIMALTZ
 70
         0
  9
$DIMALTTZ
 70
         0
  9
$DIMFIT
 70
         3
  9
$DIMUPT
 70
         0
  9
$DIMUNIT
 70
         2
  9
$DIMDEC
 70
         2
  9
$DIMTDEC
 70
         2
  9
$DIMALTU
 70
         2
  9
$DIMALTTD
 70
         4
  9
$DIMTXSTY
  7
MX_NOTE_STANDARD
  9
$DIMAUNIT
 70
         0
  9
$LUNITS
 70
         2
  9
$LUPREC
 70
         4
  9
$SKETCHINC
 40
0.1
  9
$FILLETRAD
 40
0.0
  9
$AUNITS
 70
         0
  9
$AUPREC
 70
         0
  9
$MENU
  1
acad
  9
$ELEVATION
 40
0.0
  9
$PELEVATION
 40
0.0
  9
$THICKNESS
 40
0.0
  9
$LIMCHECK
 70
         0
  9
$BLIPMODE
 70
         1
  9
$CHAMFERA
 40
0.0
  9
$CHAMFERB
 40
0.0
  9
$CHAMFERC
 40
0.0
  9
$CHAMFERD
 40
0.0
  9
$SKPOLY
 70
         0
  9
$TDCREATE
 40
2456603.419259260
  9
$TDUPDATE
 40
2456603.419259260
  9
$TDINDWG
 40
0.0000000000
  9
$TDUSRTIMER
 40
0.0000000000
  9
$USRTIMER
 70
         1
  9
$ANGBASE
 50
0.0
  9
$ANGDIR
 70
         0
  9
$PDMODE
 70
         0
  9
$PDSIZE
 40
0.0
  9
$PLINEWID
 40
0.0
  9
$COORDS
 70
         1
  9
$SPLFRAME
 70
         0
  9
$SPLINETYPE
 70
         6
  9
$SPLINESEGS
 70
         8
  9
$ATTDIA
 70
         0
  9
$ATTREQ
 70
         1
  9
$HANDLING
 70
         1
  9
$HANDSEED
  5
187
  9
$SURFTAB1
 70
         6
  9
$SURFTAB2
 70
         6
  9
$SURFTYPE
 70
         6
  9
$SURFU
 70
         6
  9
$SURFV
 70
         6
  9
$UCSNAME
  2

  9
$UCSORG
 10
0.0
 20
0.0
 30
0.0
  9
$UCSXDIR
 10
1.0
 20
0.0
 30
0.0
  9
$UCSYDIR
 10
0.0
 20
1.0
 30
0.0
  9
$PUCSNAME
  2

  9
$PUCSORG
 10
0.0
 20
0.0
 30
0.0
  9
$PUCSXDIR
 10
1.0
 20
0.0
 30
0.0
  9
$PUCSYDIR
 10
0.0
 20
1.0
 30
0.0
  9
$USERI1
 70
         0
  9
$USERI2
 70
         0
  9
$USERI3
 70
         0
  9
$USERI4
 70
         0
  9
$USERI5
 70
         0
  9
$USERR1
 40
0.0
  9
$USERR2
 40
0.0
  9
$USERR3
 40
0.0
  9
$USERR4
 40
0.0
  9
$USERR5
 40
0.0
  9
$WORLDVIEW
 70
         1
  9
$SHADEDGE
 70
         3
  9
$SHADEDIF
 70
        70
  9
$TILEMODE
 70
         1
  9
$MAXACTVP
 70
        16
  9
$PINSBASE
 10
0.0
 20
0.0
 30
0.0
  9
$PLIMCHECK
 70
         0
  9
$PEXTMIN
 10
1.0000000000E+20
 20
1.0000000000E+20
 30
1.0000000000E+20
  9
$PEXTMAX
 10
-1.0000000000E+20
 20
-1.0000000000E+20
 30
-1.0000000000E+20
  9
$PLIMMIN
 10
0.0
 20
0.0
  9
$PLIMMAX
 10
12.0
 20
9.0
  9
$UNITMODE
 70
         0
  9
$VISRETAIN
 70
         0
  9
$PLINEGEN
 70
         1
  9
$PSLTSCALE
 70
         0
  9
$TREEDEPTH
 70
      3020
  9
$PICKSTYLE
 70
         1
  9
$CMLSTYLE
  2
Standard
  9
$CMLJUST
 70
         0
  9
$CMLSCALE
 40
1.0
  9
$PROXYGRAPHICS
 70
         0
  9
$MEASUREMENT
 70
         1
  0
ENDSEC
  0
SECTION
  2
CLASSES
  0
CLASS
  1
LWPOLYLINE
  2
AcDbPolyline
  3
"AutoCAD"
 90
        0
280
         0
281
         1
  0
CLASS
  1
IMAGE
  2
AcDbRasterImage
  3
ISM
 90
      127
280
         0
281
         1
  0
CLASS
  1
OLE2FRAME
  2
AcDbOle2Frame
  3
""
 90
        0
280
         0
281
         1
  0
CLASS
  1
HATCH
  2
AcDbHatch
  3
"ACAD_SEDONA"
 90
        0
280
         0
281
         1
  0
CLASS
  1
DICTIONARYVAR
  2
AcDbDictionaryVar
  3
"AutoCAD"
 90
        0
280
         0
281
         0
  0
CLASS
  1
RASTERVARIABLES
  2
AcDbRasterVariables
  3
ISM
 90
        0
280
         0
281
         0
  0
CLASS
  1
IMAGEDEF
  2
AcDbRasterImageDef
  3
ISM
 90
        0
280
         0
281
         0
  0
CLASS
  1
IMAGEDEF_REACTOR
  2
AcDbRasterImageDefReactor
  3
ISM
 90
        1
280
         0
281
         0
  0
CLASS
  1
IDBUFFER
  2
AcDbIdBuffer
  3
"Acad"
 90
        0
280
         0
281
         0
  0
CLASS
  1
SPATIAL_FILTER
  2
AcDbSpatialFilter
  3
"Acad"
 90
        0
280
         0
281
         0
  0
CLASS
  1
XRECORD
  2
AcDbXrecord
  3
"<Built In>"
 90
        0
280
         0
281
         0
  0
CLASS
  1
SORTENTSTABLE
  2
AcDbSortentsTable
  3
"AutoCAD"
 90
        0
280
         0
281
         0
  0
CLASS
  1
LAYER_INDEX
  2
AcDbLayerIndex
  3
"Acad"
 90
        0
280
         0
281
         0
  0
CLASS
  1
SPATIAL_INDEX
  2
AcDbSpatialIndex
  3
"Acad"
 90
        0
280
         0
281
         0
  0
CLASS
  1
OBJECT_PTR
  2
CAseDLPNTableRecord
  3
"ASE-LPNTableRecord"
 90
        1
280
         0
281
         0
  0
CLASS
  1
LAYOUT
  2
AcDbLayout
  3
"AutoCAD 2000"
 90
        0
280
         0
281
         0
  0
CLASS
  1
PLOTSETTINGS
  2
AcDbPlotSettings
  3
"AutoCAD 2000"
 90
        0
280
         0
281
         0
  0
CLASS
  1
ACDBDICTIONARYWDFLT
  2
AcDbDictionaryWithDefault
  3
"AutoCAD 2000"
 90
        0
280
         0
281
         0
  0
CLASS
  1
ACDBPLACEHOLDER
  2
AcDbPlaceHolder
  3
"AutoCAD 2000"
 90
        0
280
         0
281
         0
  0
ENDSEC
  0
SECTION
  2
TABLES
  0
TABLE
  2
VPORT
  5
7
100
AcDbSymbolTable
 70
         1
  0
VPORT
  5
15
100
AcDbSymbolTableRecord
100
AcDbViewportTableRecord
  2
*ACTIVE
 70
         0
 10
0.0
 20
0.0
 11
1.0
 21
1.0
 12
125.480605
 22
25.0858937658
 13
0.0
 23
0.0
 14
1.0
 24
1.0
 15
0.0
 25
0.0
 16
0.0
 26
0.0
 36
1.0
 17
0.0
 27
0.0
 37
0.0
 40
272.8735054069
 41
1.7320508076
 42
50.0
 43
0.0
 44
0.0
 50
0.0
 51
0.0
 71
         0
 72
       100
 73
         1
 74
         1
 75
         0
 76
         0
 77
         0
 78
         0
  0
ENDTAB
  0
TABLE
  2
LTYPE
  5
4
100
AcDbSymbolTable
 70
         4
  0
LTYPE
  5
11
100
AcDbSymbolTableRecord
100
AcDbLinetypeTableRecord
  2
BYBLOCK
 70
        64
  3

 72
        65
 73
         0
 40
0.0
  0
LTYPE
  5
12
100
AcDbSymbolTableRecord
100
AcDbLinetypeTableRecord
  2
BYLAYER
 70
        64
  3

 72
        65
 73
         0
 40
0.0
  0
LTYPE
  5
13
100
AcDbSymbolTableRecord
100
AcDbLinetypeTableRecord
  2
CONTINUOUS
 70
        64
  3
Solid line
 72
        65
 73
         0
 40
0.0
  0
LTYPE
  5
2B
100
AcDbSymbolTableRecord
100
AcDbLinetypeTableRecord
  2
CENTER
 70
        64
  3
Center ____ _ ____ _ ____ _ ____ _ ____ _ ____
 72
        65
 73
         4
 40
50.8
 49
31.75
 74
         0
 49
-6.35
 74
         0
 49
6.35
 74
         0
 49
-6.35
 74
         0
  0
ENDTAB
  0
TABLE
  2
LAYER
  5
2
100
AcDbSymbolTable
 70
         3
  0
LAYER
  5
14
100
AcDbSymbolTableRecord
100
AcDbLayerTableRecord
  2
0
 70
         0
 62
         7
  6
CONTINUOUS
  0
LAYER
  5
1D
100
AcDbSymbolTableRecord
100
AcDbLayerTableRecord
  2
DEFPOINTS
 70
         0
 62
         7
  6
CONTINUOUS
  0
LAYER
  5
1E
100
AcDbSymbolTableRecord
100
AcDbLayerTableRecord
  2
PV
 70
         0
 62
         3
  6
CONTINUOUS
  0
ENDTAB
  0
TABLE
  2
STYLE
  5
3
100
AcDbSymbolTable
 70
         4
  0
STYLE
  5
17
100
AcDbSymbolTableRecord
100
AcDbTextStyleTableRecord
  2
MX_NOTE_STANDARD
 70
         0
 40
0.0
 41
1.0
 50
0.0
 71
         0
 42
3.2000000477
  3
txt.shx
  4
extfont.shx
  0
STYLE
  5
7B
100
AcDbSymbolTableRecord
100
AcDbTextStyleTableRecord
  2
MX_DIMTXSTY_2
 70
         0
 40
0.0
 41
0.9
 50
0.0
 71
         0
 42
3.2000000477
  3
txt.shx
  4
extfont.shx
  0
STYLE
  5
9A
100
AcDbSymbolTableRecord
100
AcDbTextStyleTableRecord
  2
MX_DIMTXSTY_3
 70
         0
 40
0.0
 41
1.05
 50
0.0
 71
         0
 42
3.2000000477
  3
txt.shx
  4
extfont.shx
  0
STYLE
  5
C6
100
AcDbSymbolTableRecord
100
AcDbTextStyleTableRecord
  2
MX_DIMTXSTY_4
 70
         0
 40
0.0
 41
1.25
 50
0.0
 71
         0
 42
3.2000000477
  3
txt.shx
  4
extfont.shx
  0
ENDTAB
  0
TABLE
  2
VIEW
  5
5
100
AcDbSymbolTable
 70
         0
  0
ENDTAB
  0
TABLE
  2
UCS
  5
6
100
AcDbSymbolTable
 70
         0
  0
ENDTAB
  0
TABLE
  2
APPID
  5
8
100
AcDbSymbolTable
 70
         1
  0
APPID
  5
16
100
AcDbSymbolTableRecord
100
AcDbRegAppTableRecord
  2
ACAD
 70
         0
  0
ENDTAB
  0
TABLE
  2
DIMSTYLE
  5
9
100
AcDbSymbolTable
 70
         1
  0
DIMSTYLE
105
18
100
AcDbSymbolTableRecord
100
AcDbDimStyleTableRecord
  2
MXDIMSTYLE
 70
         0
  3

  4

  5

  6
_OPEN30
  7
_OPEN30
 40
1.0
 41
2.5
 42
0.0
 43
3.75
 44
2.5
 45
0.0
 46
0.0
 47
0.0
 48
0.0
 71
         0
 72
         0
 73
         0
 74
         0
 75
         0
 76
         0
 77
         1
 78
         8
140
3.2000000477
141
2.5
142
0.0
143
0.0393700787
144
1.0
145
0.0
146
1.0
147
1.0
170
         0
171
         4
172
         1
173
         1
174
         0
175
         0
176
         0
177
         0
178
         0
270
         2
271
         2
272
         2
273
         2
274
         4
275
         0
280
         0
281
         0
282
         0
283
         0
284
         0
285
         0
286
         0
287
         3
288
         0
340
17
  0
ENDTAB
  0
TABLE
  2
BLOCK_RECORD
  5
1
100
AcDbSymbolTable
 70
         9
  0
BLOCK_RECORD
  5
A
100
AcDbSymbolTableRecord
100
AcDbBlockTableRecord
  2
*MODEL_SPACE
  0
BLOCK_RECORD
  5
B
100
AcDbSymbolTableRecord
100
AcDbBlockTableRecord
  2
*PAPER_SPACE
  0
BLOCK_RECORD
  5
1F
100
AcDbSymbolTableRecord
100
AcDbBlockTableRecord
  2
ARROW
  0
BLOCK_RECORD
  5
20
100
AcDbSymbolTableRecord
100
AcDbBlockTableRecord
  2
_OPEN30
  0
BLOCK_RECORD
  5
72
100
AcDbSymbolTableRecord
100
AcDbBlockTableRecord
  2
*D2
  0
BLOCK_RECORD
  5
82
100
AcDbSymbolTableRecord
100
AcDbBlockTableRecord
  2
*D3
  0
BLOCK_RECORD
  5
91
100
AcDbSymbolTableRecord
100
AcDbBlockTableRecord
  2
*D4
  0
BLOCK_RECORD
  5
A1
100
AcDbSymbolTableRecord
100
AcDbBlockTableRecord
  2
*D5
  0
BLOCK_RECORD
  5
B0
100
AcDbSymbolTableRecord
100
AcDbBlockTableRecord
  2
*D6
  0
BLOCK_RECORD
  5
BF
100
AcDbSymbolTableRecord
100
AcDbBlockTableRecord
  2
*D7
  0
BLOCK_RECORD
  5
CD
100
AcDbSymbolTableRecord
100
AcDbBlockTableRecord
  2
*D8
  0
ENDTAB
  0
ENDSEC
  0
SECTION
  2
BLOCKS
  0
BLOCK
  5
D
100
AcDbEntity
  8
0
100
AcDbBlockBegin
  2
*MODEL_SPACE
 70
         0
 10
0.0
 20
0.0
 30
0.0
  3
*MODEL_SPACE
  1

  0
ENDBLK
  5
E
100
AcDbEntity
  8
0
100
AcDbBlockEnd
  0
BLOCK
  5
F
100
AcDbEntity
 67
         1
  8
0
100
AcDbBlockBegin
  2
*PAPER_SPACE
 70
         0
 10
0.0
 20
0.0
 30
0.0
  3
*PAPER_SPACE
  1

  0
ENDBLK
  5
10
100
AcDbEntity
 67
         1
  8
0
100
AcDbBlockEnd
  0
BLOCK
  5
26
100
AcDbEntity
  8
0
100
AcDbBlockBegin
  2
ARROW
 70
         0
 10
0.0
 20
0.0
 30
0.0
  3
ARROW
  1

  0
LWPOLYLINE
  5
27
100
AcDbEntity
  8
0
  6
CONTINUOUS
 62
       161
100
AcDbPolyline
 90
        3
 70
         0
 10
2.4
 20
0.643078
 10
0.0
 20
0.0
 10
2.4
 20
-0.643078
  0
ENDBLK
  5
28
100
AcDbEntity
  8
0
100
AcDbBlockEnd
  0
BLOCK
  5
21
100
AcDbEntity
  8
0
  6
ByBlock
 62
         0
100
AcDbBlockBegin
  2
_OPEN30
 70
         2
 10
0.0
 20
0.0
 30
0.0
  3
_OPEN30
  1

  0
LINE
  5
22
100
AcDbEntity
  8
0
  6
ByBlock
 62
         0
100
AcDbLine
 10
-1.0
 20
0.267949
 30
0.0
 11
0.0
 21
0.0
 31
0.0
  0
LINE
  5
23
100
AcDbEntity
  8
0
  6
ByBlock
 62
         0
100
AcDbLine
 10
0.0
 20
0.0
 30
0.0
 11
-1.0
 21
-0.267949
 31
0.0
  0
LINE
  5
24
100
AcDbEntity
  8
0
  6
ByBlock
 62
         0
100
AcDbLine
 10
0.0
 20
0.0
 30
0.0
 11
-1.0
 21
0.0
 31
0.0
  0
ENDBLK
  5
25
100
AcDbEntity
  8
0
  6
ByBlock
 62
         0
100
AcDbBlockEnd
  0
BLOCK
  5
73
100
AcDbEntity
  8
0
  6
ByBlock
 62
         0
100
AcDbBlockBegin
  2
*D2
 70
         1
 10
0.0
 20
0.0
 30
0.0
  3
*D2
  1

  0
LINE
  5
74
100
AcDbEntity
  8
0
  6
CONTINUOUS
 62
        80
100
AcDbLine
 10
177.502493
 20
7.090552
 30
0.0
 11
177.502493
 21
102.138052
 31
0.0
  0
LINE
  5
75
100
AcDbEntity
  8
0
  6
CONTINUOUS
 62
        80
100
AcDbLine
 10
185.557128
 20
7.090552
 30
0.0
 11
175.502493
 21
7.090552
 31
0.0
  0
LINE
  5
76
100
AcDbEntity
  8
0
  6
CONTINUOUS
 62
        80
100
AcDbLine
 10
185.557128
 20
102.138052
 30
0.0
 11
175.502493
 21
102.138052
 31
0.0
  0
LINE
  5
77
100
AcDbEntity
  8
0
  6
CONTINUOUS
 62
        80
100
AcDbLine
 10
177.502493
 20
7.090552
 30
0.0
 11
177.502493
 21
3.090552
 31
0.0
  0
LINE
  5
78
100
AcDbEntity
  8
0
  6
CONTINUOUS
 62
        80
100
AcDbLine
 10
177.502493
 20
102.138052
 30
0.0
 11
177.502493
 21
106.138052
 31
0.0
  0
SOLID
  5
79
100
AcDbEntity
  8
0
  6
CONTINUOUS
 62
        80
100
AcDbTrace
 10
177.335825995
 20
6.0905519702
 30
0.0
 11
177.669160005
 21
6.0905519702
 31
0.0
 12
177.502493
 22
7.090552
 32
0.0
 13
177.502493
 23
7.090552
 33
0.0
  0
SOLID
  5
7A
100
AcDbEntity
  8
0
  6
CONTINUOUS
 62
        80
100
AcDbTrace
 10
177.669160005
 20
103.1380520298
 30
0.0
 11
177.335825995
 21
103.1380520298
 31
0.0
 12
177.502493
 22
102.138052
 32
0.0
 13
177.502493
 23
102.138052
 33
0.0
  0
MTEXT
  5
7C
100
AcDbEntity
  8
0
  6
CONTINUOUS
 62
        80
100
AcDbMText
 10
174.9024929762
 20
53.4142977275
 30
0.0
 40
3.2000000477
 41
0.0
 71
         5
 72
         1
  1
\A1;\U+220595
  7
MX_DIMTXSTY_2
 11
0.0
 21
1.0
 31
0.0
  0
POINT
  5
7D
100
AcDbEntity
  8
DEFPOINTS
  6
CONTINUOUS
 62
         0
100
AcDbPoint
 10
185.557128
 20
7.090552
 30
0.0
  0
POINT
  5
7E
100
AcDbEntity
  8
DEFPOINTS
  6
CONTINUOUS
 62
         0
100
AcDbPoint
 10
185.557128
 20
102.138052
 30
0.0
  0
POINT
  5
7F
100
AcDbEntity
  8
DEFPOINTS
  6
CONTINUOUS
 62
         0
100
AcDbPoint
 10
177.502493
 20
102.138052
 30
0.0
  0
ENDBLK
  5
80
100
AcDbEntity
  8
0
  6
ByBlock
 62
         0
100
AcDbBlockEnd
  0
BLOCK
  5
83
100
AcDbEntity
  8
0
  6
ByBlock
 62
         0
100
AcDbBlockBegin
  2
*D3
 70
         1
 10
0.0
 20
0.0
 30
0.0
  3
*D3
  1

  0
LINE
  5
84
100
AcDbEntity
  8
0
  6
CONTINUOUS
 62
        80
100
AcDbLine
 10
242.77499
 20
92.133052
 30
0.0
 11
242.77499
 21
17.095552
 31
0.0
  0
LINE
  5
85
100
AcDbEntity
  8
0
  6
CONTINUOUS
 62
        80
100
AcDbLine
 10
227.077878
 20
92.133052
 30
0.0
 11
244.77499
 21
92.133052
 31
0.0
  0
LINE
  5
86
100
AcDbEntity
  8
0
  6
CONTINUOUS
 62
        80
100
AcDbLine
 10
227.077878
 20
17.095552
 30
0.0
 11
244.77499
 21
17.095552
 31
0.0
  0
LINE
  5
87
100
AcDbEntity
  8
0
  6
CONTINUOUS
 62
        80
100
AcDbLine
 10
242.77499
 20
92.133052
 30
0.0
 11
242.77499
 21
96.133052
 31
0.0
  0
LINE
  5
88
100
AcDbEntity
  8
0
  6
CONTINUOUS
 62
        80
100
AcDbLine
 10
242.77499
 20
17.095552
 30
0.0
 11
242.77499
 21
13.095552
 31
0.0
  0
SOLID
  5
89
100
AcDbEntity
  8
0
  6
CONTINUOUS
 62
        80
100
AcDbTrace
 10
242.941657005
 20
93.1330520298
 30
0.0
 11
242.608322995
 21
93.1330520298
 31
0.0
 12
242.77499
 22
92.133052
 32
0.0
 13
242.77499
 23
92.133052
 33
0.0
  0
SOLID
  5
8A
100
AcDbEntity
  8
0
  6
CONTINUOUS
 62
        80
100
AcDbTrace
 10
242.608322995
 20
16.0955519702
 30
0.0
 11
242.941657005
 21
16.0955519702
 31
0.0
 12
242.77499
 22
17.095552
 32
0.0
 13
242.77499
 23
17.095552
 33
0.0
  0
MTEXT
  5
8B
100
AcDbEntity
  8
0
  6
CONTINUOUS
 62
        80
100
AcDbMText
 10
240.1749899762
 20
53.4142981853
 30
0.0
 40
3.2000000477
 41
0.0
 71
         5
 72
         1
  1
\A1;\U+220575
  7
MX_DIMTXSTY_2
 11
0.0
 21
1.0
 31
0.0
  0
POINT
  5
8C
100
AcDbEntity
  8
DEFPOINTS
  6
CONTINUOUS
 62
         0
100
AcDbPoint
 10
227.077878
 20
92.133052
 30
0.0
  0
POINT
  5
8D
100
AcDbEntity
  8
DEFPOINTS
  6
CONTINUOUS
 62
         0
100
AcDbPoint
 10
227.077878
 20
17.095552
 30
0.0
  0
POINT
  5
8E
100
AcDbEntity
  8
DEFPOINTS
  6
CONTINUOUS
 62
         0
100
AcDbPoint
 10
242.77499
 20
17.095552
 30
0.0
  0
ENDBLK
  5
8F
100
AcDbEntity
  8
0
  6
ByBlock
 62
         0
100
AcDbBlockEnd
  0
BLOCK
  5
92
100
AcDbEntity
  8
0
  6
ByBlock
 62
         0
100
AcDbBlockBegin
  2
*D4
 70
         1
 10
0.0
 20
0.0
 30
0.0
  3
*D4
  1

  0
LINE
  5
93
100
AcDbEntity
  8
0
  6
CONTINUOUS
 62
        80
100
AcDbLine
 10
257.312955
 20
112.143052
 30
0.0
 11
257.312955
 21
-2.914448
 31
0.0
  0
LINE
  5
94
100
AcDbEntity
  8
0
  6
CONTINUOUS
 62
        80
100
AcDbLine
 10
227.077878
 20
112.143052
 30
0.0
 11
259.312955
 21
112.143052
 31
0.0
  0
LINE
  5
95
100
AcDbEntity
  8
0
  6
CONTINUOUS
 62
        80
100
AcDbLine
 10
227.077878
 20
-2.914448
 30
0.0
 11
259.312955
 21
-2.914448
 31
0.0
  0
LINE
  5
96
100
AcDbEntity
  8
0
  6
CONTINUOUS
 62
        80
100
AcDbLine
 10
257.312955
 20
112.143052
 30
0.0
 11
257.312955
 21
116.143052
 31
0.0
  0
LINE
  5
97
100
AcDbEntity
  8
0
  6
CONTINUOUS
 62
        80
100
AcDbLine
 10
257.312955
 20
-2.914448
 30
0.0
 11
257.312955
 21
-6.914448
 31
0.0
  0
SOLID
  5
98
100
AcDbEntity
  8
0
  6
CONTINUOUS
 62
        80
100
AcDbTrace
 10
257.479622005
 20
113.1430520298
 30
0.0
 11
257.146287995
 21
113.1430520298
 31
0.0
 12
257.312955
 22
112.143052
 32
0.0
 13
257.312955
 23
112.143052
 33
0.0
  0
SOLID
  5
99
100
AcDbEntity
  8
0
  6
CONTINUOUS
 62
        80
100
AcDbTrace
 10
257.146287995
 20
-3.9144480298
 30
0.0
 11
257.479622005
 21
-3.9144480298
 31
0.0
 12
257.312955
 22
-2.914448
 32
0.0
 13
257.312955
 23
-2.914448
 33
0.0
  0
MTEXT
  5
9B
100
AcDbEntity
  8
0
  6
CONTINUOUS
 62
        80
100
AcDbMText
 10
254.7129549762
 20
53.314297575
 30
0.0
 40
3.2000000477
 41
0.0
 71
         5
 72
         1
  1
\A1;\U+2205115
  7
MX_DIMTXSTY_3
 11
0.0
 21
1.0
 31
0.0
  0
POINT
  5
9C
100
AcDbEntity
  8
DEFPOINTS
  6
CONTINUOUS
 62
         0
100
AcDbPoint
 10
227.077878
 20
112.143052
 30
0.0
  0
POINT
  5
9D
100
AcDbEntity
  8
DEFPOINTS
  6
CONTINUOUS
 62
         0
100
AcDbPoint
 10
227.077878
 20
-2.914448
 30
0.0
  0
POINT
  5
9E
100
AcDbEntity
  8
DEFPOINTS
  6
CONTINUOUS
 62
         0
100
AcDbPoint
 10
257.312955
 20
-2.914448
 30
0.0
  0
ENDBLK
  5
9F
100
AcDbEntity
  8
0
  6
ByBlock
 62
         0
100
AcDbBlockEnd
  0
BLOCK
  5
A2
100
AcDbEntity
  8
0
  6
ByBlock
 62
         0
100
AcDbBlockBegin
  2
*D5
 70
         1
 10
0.0
 20
0.0
 30
0.0
  3
*D5
  1

  0
LINE
  5
A3
100
AcDbEntity
  8
0
  6
CONTINUOUS
 62
        80
100
AcDbLine
 10
202.065377
 20
130.971872
 30
0.0
 11
227.077877
 21
130.971872
 31
0.0
  0
LINE
  5
A4
100
AcDbEntity
  8
0
  6
CONTINUOUS
 62
        80
100
AcDbLine
 10
202.065377
 20
112.143051
 30
0.0
 11
202.065377
 21
132.971872
 31
0.0
  0
LINE
  5
A5
100
AcDbEntity
  8
0
  6
CONTINUOUS
 62
        80
100
AcDbLine
 10
227.077877
 20
112.143051
 30
0.0
 11
227.077877
 21
132.971872
 31
0.0
  0
LINE
  5
A6
100
AcDbEntity
  8
0
  6
CONTINUOUS
 62
        80
100
AcDbLine
 10
202.065377
 20
130.971872
 30
0.0
 11
198.065377
 21
130.971872
 31
0.0
  0
LINE
  5
A7
100
AcDbEntity
  8
0
  6
CONTINUOUS
 62
        80
100
AcDbLine
 10
227.077877
 20
130.971872
 30
0.0
 11
231.077877
 21
130.971872
 31
0.0
  0
SOLID
  5
A8
100
AcDbEntity
  8
0
  6
CONTINUOUS
 62
        80
100
AcDbTrace
 10
201.0653769702
 20
131.138539005
 30
0.0
 11
201.0653769702
 21
130.805204995
 31
0.0
 12
202.065377
 22
130.971872
 32
0.0
 13
202.065377
 23
130.971872
 33
0.0
  0
SOLID
  5
A9
100
AcDbEntity
  8
0
  6
CONTINUOUS
 62
        80
100
AcDbTrace
 10
228.0778770298
 20
130.805204995
 30
0.0
 11
228.0778770298
 21
131.138539005
 31
0.0
 12
227.077877
 22
130.971872
 32
0.0
 13
227.077877
 23
130.971872
 33
0.0
  0
MTEXT
  5
AA
100
AcDbEntity
  8
0
  6
CONTINUOUS
 62
        80
100
AcDbMText
 10
213.4716279537
 20
133.5718720238
 30
0.0
 40
3.2000000477
 41
0.0
 71
         5
 72
         1
  1
\A1;25
  0
POINT
  5
AB
100
AcDbEntity
  8
DEFPOINTS
  6
CONTINUOUS
 62
         0
100
AcDbPoint
 10
202.065377
 20
112.143051
 30
0.0
  0
POINT
  5
AC
100
AcDbEntity
  8
DEFPOINTS
  6
CONTINUOUS
 62
         0
100
AcDbPoint
 10
227.077877
 20
112.143051
 30
0.0
  0
POINT
  5
AD
100
AcDbEntity
  8
DEFPOINTS
  6
CONTINUOUS
 62
         0
100
AcDbPoint
 10
227.077877
 20
130.971872
 30
0.0
  0
ENDBLK
  5
AE
100
AcDbEntity
  8
0
  6
ByBlock
 62
         0
100
AcDbBlockEnd
  0
BLOCK
  5
B1
100
AcDbEntity
  8
0
  6
ByBlock
 62
         0
100
AcDbBlockBegin
  2
*D6
 70
         1
 10
0.0
 20
0.0
 30
0.0
  3
*D6
  1

  0
LINE
  5
B2
100
AcDbEntity
  8
0
  6
CONTINUOUS
 62
        80
100
AcDbLine
 10
200.564627
 20
142.246213
 30
0.0
 11
228.578627
 21
142.246213
 31
0.0
  0
LINE
  5
B3
100
AcDbEntity
  8
0
  6
CONTINUOUS
 62
        80
100
AcDbLine
 10
200.564627
 20
110.692327
 30
0.0
 11
200.564627
 21
144.246213
 31
0.0
  0
LINE
  5
B4
100
AcDbEntity
  8
0
  6
CONTINUOUS
 62
        80
100
AcDbLine
 10
228.578627
 20
110.692327
 30
0.0
 11
228.578627
 21
144.246213
 31
0.0
  0
LINE
  5
B5
100
AcDbEntity
  8
0
  6
CONTINUOUS
 62
        80
100
AcDbLine
 10
200.564627
 20
142.246213
 30
0.0
 11
196.564627
 21
142.246213
 31
0.0
  0
LINE
  5
B6
100
AcDbEntity
  8
0
  6
CONTINUOUS
 62
        80
100
AcDbLine
 10
228.578627
 20
142.246213
 30
0.0
 11
232.578627
 21
142.246213
 31
0.0
  0
SOLID
  5
B7
100
AcDbEntity
  8
0
  6
CONTINUOUS
 62
        80
100
AcDbTrace
 10
199.5646269702
 20
142.412880005
 30
0.0
 11
199.5646269702
 21
142.079545995
 31
0.0
 12
200.564627
 22
142.246213
 32
0.0
 13
200.564627
 23
142.246213
 33
0.0
  0
SOLID
  5
B8
100
AcDbEntity
  8
0
  6
CONTINUOUS
 62
        80
100
AcDbTrace
 10
229.5786270298
 20
142.079545995
 30
0.0
 11
229.5786270298
 21
142.412880005
 31
0.0
 12
228.578627
 22
142.246213
 32
0.0
 13
228.578627
 23
142.246213
 33
0.0
  0
MTEXT
  5
B9
100
AcDbEntity
  8
0
  6
CONTINUOUS
 62
        80
100
AcDbMText
 10
213.471626588
 20
144.8462130238
 30
0.0
 40
3.2000000477
 41
0.0
 71
         5
 72
         1
  1
\A1;28
  0
POINT
  5
BA
100
AcDbEntity
  8
DEFPOINTS
  6
CONTINUOUS
 62
         0
100
AcDbPoint
 10
200.564627
 20
110.692327
 30
0.0
  0
POINT
  5
BB
100
AcDbEntity
  8
DEFPOINTS
  6
CONTINUOUS
 62
         0
100
AcDbPoint
 10
228.578627
 20
110.692327
 30
0.0
  0
POINT
  5
BC
100
AcDbEntity
  8
DEFPOINTS
  6
CONTINUOUS
 62
         0
100
AcDbPoint
 10
228.578627
 20
142.246213
 30
0.0
  0
ENDBLK
  5
BD
100
AcDbEntity
  8
0
  6
ByBlock
 62
         0
100
AcDbBlockEnd
  0
BLOCK
  5
C0
100
AcDbEntity
  8
0
  6
ByBlock
 62
         0
100
AcDbBlockBegin
  2
*D7
 70
         1
 10
0.0
 20
0.0
 30
0.0
  3
*D7
  1

  0
LINE
  5
C1
100
AcDbEntity
  8
0
  6
CONTINUOUS
 62
        80
100
AcDbLine
 10
190.559627
 20
142.246213
 30
0.0
 11
200.564627
 21
142.246213
 31
0.0
  0
LINE
  5
C2
100
AcDbEntity
  8
0
  6
CONTINUOUS
 62
        80
100
AcDbLine
 10
190.559627
 20
109.102532
 30
0.0
 11
190.559627
 21
144.246213
 31
0.0
  0
LINE
  5
C3
100
AcDbEntity
  8
0
  6
CONTINUOUS
 62
        80
100
AcDbLine
 10
200.564627
 20
110.692327
 30
0.0
 11
200.564627
 21
144.246213
 31
0.0
  0
SOLID
  5
C4
100
AcDbEntity
  8
0
  6
CONTINUOUS
 62
        80
100
AcDbTrace
 10
191.5596270298
 20
142.079545995
 30
0.0
 11
191.5596270298
 21
142.412880005
 31
0.0
 12
190.559627
 22
142.246213
 32
0.0
 13
190.559627
 23
142.246213
 33
0.0
  0
SOLID
  5
C5
100
AcDbEntity
  8
0
  6
CONTINUOUS
 62
        80
100
AcDbTrace
 10
199.5646269702
 20
142.412880005
 30
0.0
 11
199.5646269702
 21
142.079545995
 31
0.0
 12
200.564627
 22
142.246213
 32
0.0
 13
200.564627
 23
142.246213
 33
0.0
  0
MTEXT
  5
C7
100
AcDbEntity
  8
0
  6
CONTINUOUS
 62
        80
100
AcDbMText
 10
194.4621281063
 20
144.8462130238
 30
0.0
 40
3.2000000477
 41
0.0
 71
         5
 72
         1
  1
\A1;10
  7
MX_DIMTXSTY_4
  0
POINT
  5
C8
100
AcDbEntity
  8
DEFPOINTS
  6
CONTINUOUS
 62
         0
100
AcDbPoint
 10
190.559627
 20
109.102532
 30
0.0
  0
POINT
  5
C9
100
AcDbEntity
  8
DEFPOINTS
  6
CONTINUOUS
 62
         0
100
AcDbPoint
 10
200.564627
 20
110.692327
 30
0.0
  0
POINT
  5
CA
100
AcDbEntity
  8
DEFPOINTS
  6
CONTINUOUS
 62
         0
100
AcDbPoint
 10
200.564627
 20
142.246213
 30
0.0
  0
ENDBLK
  5
CB
100
AcDbEntity
  8
0
  6
ByBlock
 62
         0
100
AcDbBlockEnd
  0
BLOCK
  5
CE
100
AcDbEntity
  8
0
  6
ByBlock
 62
         0
100
AcDbBlockBegin
  2
*D8
 70
         1
 10
0.0
 20
0.0
 30
0.0
  3
*D8
  1

  0
LINE
  5
CF
100
AcDbEntity
  8
0
  6
CONTINUOUS
 62
        80
100
AcDbLine
 10
190.559627
 20
154.905121
 30
0.0
 11
228.578627
 21
154.905121
 31
0.0
  0
LINE
  5
D0
100
AcDbEntity
  8
0
  6
CONTINUOUS
 62
        80
100
AcDbLine
 10
190.559627
 20
109.102532
 30
0.0
 11
190.559627
 21
156.905121
 31
0.0
  0
LINE
  5
D1
100
AcDbEntity
  8
0
  6
CONTINUOUS
 62
        80
100
AcDbLine
 10
228.578627
 20
110.692326
 30
0.0
 11
228.578627
 21
156.905121
 31
0.0
  0
LINE
  5
D2
100
AcDbEntity
  8
0
  6
CONTINUOUS
 62
        80
100
AcDbLine
 10
190.559627
 20
154.905121
 30
0.0
 11
186.559627
 21
154.905121
 31
0.0
  0
LINE
  5
D3
100
AcDbEntity
  8
0
  6
CONTINUOUS
 62
        80
100
AcDbLine
 10
228.578627
 20
154.905121
 30
0.0
 11
232.578627
 21
154.905121
 31
0.0
  0
SOLID
  5
D4
100
AcDbEntity
  8
0
  6
CONTINUOUS
 62
        80
100
AcDbTrace
 10
189.5596269702
 20
155.071788005
 30
0.0
 11
189.5596269702
 21
154.738453995
 31
0.0
 12
190.559627
 22
154.905121
 32
0.0
 13
190.559627
 23
154.905121
 33
0.0
  0
SOLID
  5
D5
100
AcDbEntity
  8
0
  6
CONTINUOUS
 62
        80
100
AcDbTrace
 10
229.5786270298
 20
154.738453995
 30
0.0
 11
229.5786270298
 21
155.071788005
 31
0.0
 12
228.578627
 22
154.905121
 32
0.0
 13
228.578627
 23
154.905121
 33
0.0
  0
MTEXT
  5
D6
100
AcDbEntity
  8
0
  6
CONTINUOUS
 62
        80
100
AcDbMText
 10
208.4691290294
 20
157.5051210238
 30
0.0
 40
3.2000000477
 41
0.0
 71
         5
 72
         1
  1
\A1;38
  0
POINT
  5
D7
100
AcDbEntity
  8
DEFPOINTS
  6
CONTINUOUS
 62
         0
100
AcDbPoint
 10
190.559627
 20
109.102532
 30
0.0
  0
POINT
  5
D8
100
AcDbEntity
  8
DEFPOINTS
  6
CONTINUOUS
 62
         0
100
AcDbPoint
 10
228.578627
 20
110.692326
 30
0.0
  0
POINT
  5
D9
100
AcDbEntity
  8
DEFPOINTS
  6
CONTINUOUS
 62
         0
100
AcDbPoint
 10
228.578627
 20
154.905121
 30
0.0
  0
ENDBLK
  5
DA
100
AcDbEntity
  8
0
  6
ByBlock
 62
         0
100
AcDbBlockEnd
  0
ENDSEC
  0
SECTION
  2
ENTITIES
  0
MTEXT
  5
29
100
AcDbEntity
  8
0
  6
CONTINUOUS
 62
       110
100
AcDbMText
 10
76.2915517627
 20
-51.6469998808
 30
0.0
 40
3.2000000477
 41
0.0
 71
         1
 72
         1
  1
\T1.065;\W1.018;\A1;TSUBAKI
  0
MTEXT
  5
2A
100
AcDbEntity
  8
0
  6
CONTINUOUS
 62
       110
100
AcDbMText
 10
90.3675517627
 20
-26.3709998808
 30
0.0
 40
3.2000000477
 41
0.0
 71
         1
 72
         1
  1
\T1.065;\W1.018;\A1;TSUBAKI
  0
LINE
  5
2C
100
AcDbEntity
  8
PV
  6
CENTER
 62
         3
100
AcDbLine
 10
198.767729
 20
54.614302
 30
0.0
 11
234.625649
 21
54.614302
 31
0.0
  0
LINE
  5
2D
100
AcDbEntity
  8
PV
  6
CONTINUOUS
 62
         3
100
AcDbLine
 10
216.672677
 20
108.451207
 30
0.0
 11
216.672677
 21
106.328146
 31
0.0
  0
LINE
  5
2E
100
AcDbEntity
  8
PV
  6
CONTINUOUS
 62
         3
100
AcDbLine
 10
216.572627
 20
108.431197
 30
0.0
 11
227.077877
 21
110.570266
 31
0.0
  0
LINE
  5
2F
100
AcDbEntity
  8
PV
  6
CONTINUOUS
 62
         3
100
AcDbLine
 10
216.572627
 20
95.844907
 30
0.0
 11
227.077877
 21
93.705838
 31
0.0
  0
LINE
  5
30
100
AcDbEntity
  8
PV
  6
CONTINUOUS
 62
         3
100
AcDbLine
 10
212.470577
 20
95.824897
 30
0.0
 11
212.470577
 21
97.135552
 31
0.0
  0
LINE
  5
31
100
AcDbEntity
  8
PV
  6
CONTINUOUS
 62
         3
100
AcDbLine
 10
212.570627
 20
108.431197
 30
0.0
 11
216.572627
 21
108.431197
 31
0.0
  0
LINE
  5
32
100
AcDbEntity
  8
PV
  6
CONTINUOUS
 62
         3
100
AcDbLine
 10
212.570627
 20
95.844907
 30
0.0
 11
216.572627
 21
95.844907
 31
0.0
  0
LINE
  5
33
100
AcDbEntity
  8
PV
  6
CONTINUOUS
 62
         3
100
AcDbLine
 10
216.672677
 20
13.403707
 30
0.0
 11
216.672677
 21
0.777397
 31
0.0
  0
LINE
  5
34
100
AcDbEntity
  8
PV
  6
CONTINUOUS
 62
         3
100
AcDbLine
 10
212.470577
 20
0.777397
 30
0.0
 11
212.470577
 21
13.403707
 31
0.0
  0
LINE
  5
35
100
AcDbEntity
  8
PV
  6
CONTINUOUS
 62
         3
100
AcDbLine
 10
212.570627
 20
0.797407
 30
0.0
 11
202.065377
 21
-1.341662
 31
0.0
  0
LINE
  5
36
100
AcDbEntity
  8
PV
  6
CONTINUOUS
 62
         3
100
AcDbLine
 10
212.570627
 20
13.383697
 30
0.0
 11
202.065377
 21
15.522766
 31
0.0
  0
LINE
  5
37
100
AcDbEntity
  8
PV
  6
CONTINUOUS
 62
         3
100
AcDbLine
 10
216.572627
 20
0.797407
 30
0.0
 11
212.570627
 21
0.797407
 31
0.0
  0
LINE
  5
38
100
AcDbEntity
  8
PV
  6
CONTINUOUS
 62
         3
100
AcDbLine
 10
216.572627
 20
13.383697
 30
0.0
 11
212.570627
 21
13.383697
 31
0.0
  0
LINE
  5
39
100
AcDbEntity
  8
PV
  6
CONTINUOUS
 62
         3
100
AcDbLine
 10
228.578627
 20
107.140552
 30
0.0
 11
200.564627
 21
107.140552
 31
0.0
  0
LINE
  5
3A
100
AcDbEntity
  8
PV
  6
CONTINUOUS
 62
         3
100
AcDbLine
 10
228.578627
 20
97.135552
 30
0.0
 11
200.564627
 21
97.135552
 31
0.0
  0
LINE
  5
3B
100
AcDbEntity
  8
PV
  6
CONTINUOUS
 62
         3
100
AcDbLine
 10
224.076377
 20
107.140552
 30
0.0
 11
225.577127
 21
105.639802
 31
0.0
  0
LINE
  5
3C
100
AcDbEntity
  8
PV
  6
CONTINUOUS
 62
         3
100
AcDbLine
 10
224.076377
 20
97.135552
 30
0.0
 11
225.577127
 21
98.636302
 31
0.0
  0
LINE
  5
3D
100
AcDbEntity
  8
PV
  6
CONTINUOUS
 62
         3
100
AcDbLine
 10
224.076377
 20
107.140552
 30
0.0
 11
224.076377
 21
97.135552
 31
0.0
  0
LINE
  5
3E
100
AcDbEntity
  8
PV
  6
CONTINUOUS
 62
         3
100
AcDbLine
 10
225.577127
 20
105.639802
 30
0.0
 11
225.577127
 21
98.636302
 31
0.0
  0
LINE
  5
3F
100
AcDbEntity
  8
PV
  6
CONTINUOUS
 62
         3
100
AcDbLine
 10
204.316502
 20
107.140552
 30
0.0
 11
204.316502
 21
97.135552
 31
0.0
  0
LINE
  5
40
100
AcDbEntity
  8
PV
  6
CONTINUOUS
 62
         3
100
AcDbLine
 10
204.316502
 20
106.328146
 30
0.0
 11
202.69169
 21
107.140552
 31
0.0
  0
LINE
  5
41
100
AcDbEntity
  8
PV
  6
CONTINUOUS
 62
         3
100
AcDbLine
 10
204.316502
 20
97.947958
 30
0.0
 11
202.69169
 21
97.135552
 31
0.0
  0
LINE
  5
42
100
AcDbEntity
  8
PV
  6
CONTINUOUS
 62
         3
100
AcDbLine
 10
204.316502
 20
97.947958
 30
0.0
 11
228.578627
 21
97.947958
 31
0.0
  0
LINE
  5
43
100
AcDbEntity
  8
PV
  6
CONTINUOUS
 62
         3
100
AcDbLine
 10
204.316502
 20
106.328146
 30
0.0
 11
228.578627
 21
106.328146
 31
0.0
  0
LINE
  5
44
100
AcDbEntity
  8
PV
  6
CONTINUOUS
 62
         3
100
AcDbLine
 10
191.159927
 20
110.142052
 30
0.0
 11
191.159927
 21
94.134052
 31
0.0
  0
LINE
  5
45
100
AcDbEntity
  8
PV
  6
CENTER
 62
         3
100
AcDbLine
 10
185.557127
 20
102.138052
 30
0.0
 11
230.579627
 21
102.138052
 31
0.0
  0
LINE
  5
46
100
AcDbEntity
  8
PV
  6
CONTINUOUS
 62
         3
100
AcDbLine
 10
212.470577
 20
107.140552
 30
0.0
 11
212.470577
 21
108.451207
 31
0.0
  0
LINE
  5
47
100
AcDbEntity
  8
PV
  6
CONTINUOUS
 62
         3
100
AcDbLine
 10
216.672677
 20
97.947958
 30
0.0
 11
216.672677
 21
95.824897
 31
0.0
  0
LINE
  5
48
100
AcDbEntity
  8
PV
  6
CONTINUOUS
 62
         3
100
AcDbLine
 10
200.564627
 20
2.088052
 30
0.0
 11
212.470577
 21
2.088052
 31
0.0
  0
LINE
  5
49
100
AcDbEntity
  8
PV
  6
CONTINUOUS
 62
         3
100
AcDbLine
 10
200.564627
 20
12.093052
 30
0.0
 11
212.470577
 21
12.093052
 31
0.0
  0
LINE
  5
4A
100
AcDbEntity
  8
PV
  6
CONTINUOUS
 62
         3
100
AcDbLine
 10
212.470577
 20
11.280646
 30
0.0
 11
200.564627
 21
11.280646
 31
0.0
  0
LINE
  5
4B
100
AcDbEntity
  8
PV
  6
CONTINUOUS
 62
         3
100
AcDbLine
 10
212.470577
 20
2.900458
 30
0.0
 11
200.564627
 21
2.900458
 31
0.0
  0
LINE
  5
4C
100
AcDbEntity
  8
PV
  6
CENTER
 62
         3
100
AcDbLine
 10
230.579627
 20
7.090552
 30
0.0
 11
185.557127
 21
7.090552
 31
0.0
  0
LINE
  5
4D
100
AcDbEntity
  8
PV
  6
CONTINUOUS
 62
         3
100
AcDbLine
 10
202.065377
 20
93.705838
 30
0.0
 11
212.570627
 21
95.844907
 31
0.0
  0
LINE
  5
4E
100
AcDbEntity
  8
PV
  6
CONTINUOUS
 62
         3
100
AcDbLine
 10
202.065377
 20
110.570266
 30
0.0
 11
212.570627
 21
108.431197
 31
0.0
  0
LINE
  5
4F
100
AcDbEntity
  8
PV
  6
CONTINUOUS
 62
         3
100
AcDbLine
 10
227.077877
 20
15.522766
 30
0.0
 11
216.572627
 21
13.383697
 31
0.0
  0
LINE
  5
50
100
AcDbEntity
  8
PV
  6
CONTINUOUS
 62
         3
100
AcDbLine
 10
227.077877
 20
-1.341662
 30
0.0
 11
216.572627
 21
0.797407
 31
0.0
  0
LINE
  5
51
100
AcDbEntity
  8
PV
  6
CONTINUOUS
 62
         3
100
AcDbLine
 10
228.578627
 20
110.692327
 30
0.0
 11
228.578627
 21
-1.463723
 31
0.0
  0
LINE
  5
52
100
AcDbEntity
  8
PV
  6
CONTINUOUS
 62
         3
100
AcDbLine
 10
202.065377
 20
92.133052
 30
0.0
 11
227.077877
 21
92.133052
 31
0.0
  0
LINE
  5
53
100
AcDbEntity
  8
PV
  6
CONTINUOUS
 62
         3
100
AcDbLine
 10
202.065377
 20
112.143052
 30
0.0
 11
227.077877
 21
112.143052
 31
0.0
  0
LINE
  5
54
100
AcDbEntity
  8
PV
  6
CONTINUOUS
 62
         3
100
AcDbLine
 10
200.564627
 20
93.583777
 30
0.0
 11
201.465077
 21
93.583777
 31
0.0
  0
LINE
  5
55
100
AcDbEntity
  8
PV
  6
CONTINUOUS
 62
         3
100
AcDbLine
 10
200.564627
 20
110.692327
 30
0.0
 11
201.465077
 21
110.692327
 31
0.0
  0
LINE
  5
56
100
AcDbEntity
  8
PV
  6
CONTINUOUS
 62
         3
100
AcDbLine
 10
227.678177
 20
93.583777
 30
0.0
 11
228.578627
 21
93.583777
 31
0.0
  0
LINE
  5
57
100
AcDbEntity
  8
PV
  6
CONTINUOUS
 62
         3
100
AcDbLine
 10
201.465077
 20
110.692327
 30
0.0
 11
202.065377
 21
110.570266
 31
0.0
  0
LINE
  5
58
100
AcDbEntity
  8
PV
  6
CONTINUOUS
 62
         3
100
AcDbLine
 10
201.465077
 20
93.583777
 30
0.0
 11
202.065377
 21
93.705838
 31
0.0
  0
LINE
  5
59
100
AcDbEntity
  8
PV
  6
CONTINUOUS
 62
         3
100
AcDbLine
 10
227.678177
 20
110.692327
 30
0.0
 11
228.578627
 21
110.692327
 31
0.0
  0
LINE
  5
5A
100
AcDbEntity
  8
PV
  6
CONTINUOUS
 62
         3
100
AcDbLine
 10
227.077877
 20
112.143052
 30
0.0
 11
227.077877
 21
110.570266
 31
0.0
  0
LINE
  5
5B
100
AcDbEntity
  8
PV
  6
CONTINUOUS
 62
         3
100
AcDbLine
 10
202.065377
 20
112.143052
 30
0.0
 11
202.065377
 21
110.570266
 31
0.0
  0
LINE
  5
5C
100
AcDbEntity
  8
PV
  6
CONTINUOUS
 62
         3
100
AcDbLine
 10
227.077877
 20
17.095552
 30
0.0
 11
202.065377
 21
17.095552
 31
0.0
  0
LINE
  5
5D
100
AcDbEntity
  8
PV
  6
CONTINUOUS
 62
         3
100
AcDbLine
 10
227.077877
 20
-2.914448
 30
0.0
 11
202.065377
 21
-2.914448
 31
0.0
  0
LINE
  5
5E
100
AcDbEntity
  8
PV
  6
CONTINUOUS
 62
         3
100
AcDbLine
 10
201.465077
 20
15.644827
 30
0.0
 11
200.564627
 21
15.644827
 31
0.0
  0
LINE
  5
5F
100
AcDbEntity
  8
PV
  6
CONTINUOUS
 62
         3
100
AcDbLine
 10
227.678177
 20
-1.463723
 30
0.0
 11
227.077877
 21
-1.341662
 31
0.0
  0
LINE
  5
60
100
AcDbEntity
  8
PV
  6
CONTINUOUS
 62
         3
100
AcDbLine
 10
227.678177
 20
15.644827
 30
0.0
 11
227.077877
 21
15.522766
 31
0.0
  0
LINE
  5
61
100
AcDbEntity
  8
PV
  6
CONTINUOUS
 62
         3
100
AcDbLine
 10
201.465077
 20
-1.463723
 30
0.0
 11
200.564627
 21
-1.463723
 31
0.0
  0
LINE
  5
62
100
AcDbEntity
  8
PV
  6
CONTINUOUS
 62
         3
100
AcDbLine
 10
228.578627
 20
15.644827
 30
0.0
 11
227.678177
 21
15.644827
 31
0.0
  0
LINE
  5
63
100
AcDbEntity
  8
PV
  6
CONTINUOUS
 62
         3
100
AcDbLine
 10
228.578627
 20
-1.463723
 30
0.0
 11
227.678177
 21
-1.463723
 31
0.0
  0
LINE
  5
64
100
AcDbEntity
  8
PV
  6
CONTINUOUS
 62
         3
100
AcDbLine
 10
227.077877
 20
-1.341662
 30
0.0
 11
227.077877
 21
-2.914448
 31
0.0
  0
LINE
  5
65
100
AcDbEntity
  8
PV
  6
CONTINUOUS
 62
         3
100
AcDbLine
 10
202.065377
 20
-1.341662
 30
0.0
 11
202.065377
 21
-2.914448
 31
0.0
  0
LINE
  5
66
100
AcDbEntity
  8
PV
  6
CONTINUOUS
 62
         3
100
AcDbLine
 10
227.077877
 20
93.705838
 30
0.0
 11
227.077877
 21
15.522766
 31
0.0
  0
LINE
  5
67
100
AcDbEntity
  8
PV
  6
CONTINUOUS
 62
         3
100
AcDbLine
 10
202.065377
 20
93.705838
 30
0.0
 11
202.065377
 21
15.522766
 31
0.0
  0
LINE
  5
68
100
AcDbEntity
  8
PV
  6
CONTINUOUS
 62
         3
100
AcDbLine
 10
200.564627
 20
110.142052
 30
0.0
 11
191.159927
 21
110.142052
 31
0.0
  0
LINE
  5
69
100
AcDbEntity
  8
PV
  6
CONTINUOUS
 62
         3
100
AcDbLine
 10
200.564627
 20
94.134052
 30
0.0
 11
191.159927
 21
94.134052
 31
0.0
  0
LINE
  5
6A
100
AcDbEntity
  8
PV
  6
CONTINUOUS
 62
         3
100
AcDbLine
 10
190.559627
 20
95.173571
 30
0.0
 11
191.159927
 21
94.134052
 31
0.0
  0
LINE
  5
6B
100
AcDbEntity
  8
PV
  6
CONTINUOUS
 62
         3
100
AcDbLine
 10
190.559627
 20
109.102533
 30
0.0
 11
191.159927
 21
110.142052
 31
0.0
  0
LINE
  5
6C
100
AcDbEntity
  8
PV
  6
CONTINUOUS
 62
         3
100
AcDbLine
 10
190.559627
 20
109.102533
 30
0.0
 11
190.559627
 21
95.173571
 31
0.0
  0
LINE
  5
6D
100
AcDbEntity
  8
PV
  6
CONTINUOUS
 62
         3
100
AcDbLine
 10
200.564627
 20
110.692327
 30
0.0
 11
200.564627
 21
-1.463723
 31
0.0
  0
LINE
  5
6E
100
AcDbEntity
  8
PV
  6
CONTINUOUS
 62
         3
100
AcDbLine
 10
227.077877
 20
110.570266
 30
0.0
 11
227.678177
 21
110.692327
 31
0.0
  0
LINE
  5
6F
100
AcDbEntity
  8
PV
  6
CONTINUOUS
 62
         3
100
AcDbLine
 10
227.077877
 20
93.705838
 30
0.0
 11
227.678177
 21
93.583777
 31
0.0
  0
LINE
  5
70
100
AcDbEntity
  8
PV
  6
CONTINUOUS
 62
         3
100
AcDbLine
 10
202.065377
 20
15.522766
 30
0.0
 11
201.465077
 21
15.644827
 31
0.0
  0
LINE
  5
71
100
AcDbEntity
  8
PV
  6
CONTINUOUS
 62
         3
100
AcDbLine
 10
202.065377
 20
-1.341662
 30
0.0
 11
201.465077
 21
-1.463723
 31
0.0
  0
DIMENSION
  5
81
100
AcDbEntity
  8
PV
  6
CONTINUOUS
 62
        80
100
AcDbDimension
  2
*D2
 10
177.502493
 20
102.138052
 30
0.0
 11
177.502493
 21
53.4142977275
 31
0.0
 70
       128
  1
\A1;\U+2205<>
  3
MXDIMSTYLE
100
AcDbAlignedDimension
 13
185.557128
 23
7.090552
 33
0.0
 14
185.557128
 24
102.138052
 34
0.0
 50
90.0
100
AcDbRotatedDimension
1001
ACAD
1000
DSTYLE
1002
{
1070
         6
1000
SOLID
1070
         7
1000
SOLID
1070
        41
1040
1.0000000298
1070
        44
1040
2.0
1070
       271
1070
         4
1070
       284
1070
         8
1070
       340
1005
7B
1070
       343
1005
0
1070
       344
1005
0
1002
}
  0
DIMENSION
  5
90
100
AcDbEntity
  8
PV
  6
CONTINUOUS
 62
        80
100
AcDbDimension
  2
*D3
 10
242.77499
 20
17.095552
 30
0.0
 11
242.77499
 21
53.4142981853
 31
0.0
 70
       128
  1
\A1;\U+2205<>
  3
MXDIMSTYLE
100
AcDbAlignedDimension
 13
227.077878
 23
92.133052
 33
0.0
 14
227.077878
 24
17.095552
 34
0.0
 50
90.0
100
AcDbRotatedDimension
1001
ACAD
1000
DSTYLE
1002
{
1070
         6
1000
SOLID
1070
         7
1000
SOLID
1070
        41
1040
1.0000000298
1070
        44
1040
2.0
1070
       271
1070
         4
1070
       284
1070
         8
1070
       340
1005
7B
1070
       343
1005
0
1070
       344
1005
0
1002
}
  0
DIMENSION
  5
A0
100
AcDbEntity
  8
PV
  6
CONTINUOUS
 62
        80
100
AcDbDimension
  2
*D4
 10
257.312955
 20
-2.914448
 30
0.0
 11
257.312955
 21
53.314297575
 31
0.0
 70
       128
  1
\A1;\U+2205<>
  3
MXDIMSTYLE
100
AcDbAlignedDimension
 13
227.077878
 23
112.143052
 33
0.0
 14
227.077878
 24
-2.914448
 34
0.0
 50
90.0
100
AcDbRotatedDimension
1001
ACAD
1000
DSTYLE
1002
{
1070
         6
1000
SOLID
1070
         7
1000
SOLID
1070
        41
1040
1.0000000298
1070
        44
1040
2.0
1070
       271
1070
         4
1070
       284
1070
         8
1070
       340
1005
9A
1070
       343
1005
0
1070
       344
1005
0
1002
}
  0
DIMENSION
  5
AF
100
AcDbEntity
  8
PV
  6
CONTINUOUS
 62
        80
100
AcDbDimension
  2
*D5
 10
227.077877
 20
130.971872
 30
0.0
 11
213.4716279537
 21
130.971872
 31
0.0
 70
       128
  1
\A1;<>
  3
MXDIMSTYLE
100
AcDbAlignedDimension
 13
202.065377
 23
112.143051
 33
0.0
 14
227.077877
 24
112.143051
 34
0.0
100
AcDbRotatedDimension
1001
ACAD
1000
DSTYLE
1002
{
1070
         6
1000
SOLID
1070
         7
1000
SOLID
1070
        41
1040
1.0000000298
1070
        44
1040
2.0
1070
       271
1070
         4
1070
       284
1070
         8
1070
       343
1005
0
1070
       344
1005
0
1002
}
  0
DIMENSION
  5
BE
100
AcDbEntity
  8
PV
  6
CONTINUOUS
 62
        80
100
AcDbDimension
  2
*D6
 10
228.578627
 20
142.246213
 30
0.0
 11
213.471626588
 21
142.246213
 31
0.0
 70
       128
  1
\A1;<>
  3
MXDIMSTYLE
100
AcDbAlignedDimension
 13
200.564627
 23
110.692327
 33
0.0
 14
228.578627
 24
110.692327
 34
0.0
100
AcDbRotatedDimension
1001
ACAD
1000
DSTYLE
1002
{
1070
         6
1000
SOLID
1070
         7
1000
SOLID
1070
        41
1040
1.0000000298
1070
        44
1040
2.0
1070
       271
1070
         4
1070
       284
1070
         8
1070
       343
1005
0
1070
       344
1005
0
1002
}
  0
DIMENSION
  5
CC
100
AcDbEntity
  8
PV
  6
CONTINUOUS
 62
        80
100
AcDbDimension
  2
*D7
 10
200.564627
 20
142.246213
 30
0.0
 11
194.4621281063
 21
142.246213
 31
0.0
 70
       128
  1
\A1;<>
  3
MXDIMSTYLE
100
AcDbAlignedDimension
 13
190.559627
 23
109.102532
 33
0.0
 14
200.564627
 24
110.692327
 34
0.0
100
AcDbRotatedDimension
1001
ACAD
1000
DSTYLE
1002
{
1070
         6
1000
SOLID
1070
         7
1000
SOLID
1070
        41
1040
1.0000000298
1070
        44
1040
2.0
1070
       271
1070
         4
1070
       284
1070
         8
1070
       340
1005
C6
1070
       343
1005
0
1070
       344
1005
0
1002
}
  0
DIMENSION
  5
DB
100
AcDbEntity
  8
PV
  6
CONTINUOUS
 62
        80
100
AcDbDimension
  2
*D8
 10
228.578627
 20
154.905121
 30
0.0
 11
208.4691290294
 21
154.905121
 31
0.0
 70
       128
  1
\A1;<>
  3
MXDIMSTYLE
100
AcDbAlignedDimension
 13
190.559627
 23
109.102532
 33
0.0
 14
228.578627
 24
110.692326
 34
0.0
100
AcDbRotatedDimension
1001
ACAD
1000
DSTYLE
1002
{
1070
         6
1000
SOLID
1070
         7
1000
SOLID
1070
        41
1040
1.0000000298
1070
        44
1040
2.0
1070
       271
1070
         4
1070
       284
1070
         8
1070
       343
1005
0
1070
       344
1005
0
1002
}
  0
CIRCLE
  5
DC
100
AcDbEntity
  8
PV
  6
CONTINUOUS
 62
         3
100
AcDbCircle
 10
37.095968
 20
97.4317
 30
0.0
 40
6.964481
  0
CIRCLE
  5
DD
100
AcDbEntity
  8
PV
  6
CONTINUOUS
 62
         3
100
AcDbCircle
 10
37.095968
 20
97.4317
 30
0.0
 40
8.004
  0
CIRCLE
  5
DE
100
AcDbEntity
  8
PV
  6
CONTINUOUS
 62
         3
100
AcDbCircle
 10
20.559704
 20
84.24511
 30
0.0
 40
6.964481
  0
CIRCLE
  5
DF
100
AcDbEntity
  8
PV
  6
CONTINUOUS
 62
         3
100
AcDbCircle
 10
20.559704
 20
84.24511
 30
0.0
 40
8.004
  0
CIRCLE
  5
E0
100
AcDbEntity
  8
PV
  6
CONTINUOUS
 62
         3
100
AcDbCircle
 10
11.383119
 20
65.189587
 30
0.0
 40
6.964481
  0
CIRCLE
  5
E1
100
AcDbEntity
  8
PV
  6
CONTINUOUS
 62
         3
100
AcDbCircle
 10
11.383119
 20
65.189587
 30
0.0
 40
8.004
  0
CIRCLE
  5
E2
100
AcDbEntity
  8
PV
  6
CONTINUOUS
 62
         3
100
AcDbCircle
 10
11.383119
 20
44.039017
 30
0.0
 40
6.964481
  0
CIRCLE
  5
E3
100
AcDbEntity
  8
PV
  6
CONTINUOUS
 62
         3
100
AcDbCircle
 10
11.383119
 20
44.039017
 30
0.0
 40
8.004
  0
CIRCLE
  5
E4
100
AcDbEntity
  8
PV
  6
CONTINUOUS
 62
         3
100
AcDbCircle
 10
37.094968
 20
11.796904
 30
0.0
 40
6.964481
  0
CIRCLE
  5
E5
100
AcDbEntity
  8
PV
  6
CONTINUOUS
 62
         3
100
AcDbCircle
 10
37.094968
 20
11.796904
 30
0.0
 40
8.004
  0
CIRCLE
  5
E6
100
AcDbEntity
  8
PV
  6
CONTINUOUS
 62
         3
100
AcDbCircle
 10
57.715272
 20
7.090552
 30
0.0
 40
6.964481
  0
CIRCLE
  5
E7
100
AcDbEntity
  8
PV
  6
CONTINUOUS
 62
         3
100
AcDbCircle
 10
57.715272
 20
7.090552
 30
0.0
 40
8.004
  0
CIRCLE
  5
E8
100
AcDbEntity
  8
PV
  6
CONTINUOUS
 62
         3
100
AcDbCircle
 10
78.334577
 20
11.796904
 30
0.0
 40
6.964481
  0
CIRCLE
  5
E9
100
AcDbEntity
  8
PV
  6
CONTINUOUS
 62
         3
100
AcDbCircle
 10
78.334577
 20
11.796904
 30
0.0
 40
8.004
  0
CIRCLE
  5
EA
100
AcDbEntity
  8
PV
  6
CONTINUOUS
 62
         3
100
AcDbCircle
 10
104.047427
 20
44.039017
 30
0.0
 40
6.964481
  0
CIRCLE
  5
EB
100
AcDbEntity
  8
PV
  6
CONTINUOUS
 62
         3
100
AcDbCircle
 10
104.047427
 20
44.039017
 30
0.0
 40
8.004
  0
CIRCLE
  5
EC
100
AcDbEntity
  8
PV
  6
CONTINUOUS
 62
         3
100
AcDbCircle
 10
104.047427
 20
65.189587
 30
0.0
 40
6.964481
  0
CIRCLE
  5
ED
100
AcDbEntity
  8
PV
  6
CONTINUOUS
 62
         3
100
AcDbCircle
 10
104.047427
 20
65.189587
 30
0.0
 40
8.004
  0
CIRCLE
  5
EE
100
AcDbEntity
  8
PV
  6
CONTINUOUS
 62
         3
100
AcDbCircle
 10
94.870841
 20
84.24511
 30
0.0
 40
6.964481
  0
CIRCLE
  5
EF
100
AcDbEntity
  8
PV
  6
CONTINUOUS
 62
         3
100
AcDbCircle
 10
94.870841
 20
84.24511
 30
0.0
 40
8.004
  0
CIRCLE
  5
F0
100
AcDbEntity
  8
PV
  6
CONTINUOUS
 62
         3
100
AcDbCircle
 10
78.335577
 20
97.4317
 30
0.0
 40
6.964481
  0
CIRCLE
  5
F1
100
AcDbEntity
  8
PV
  6
CONTINUOUS
 62
         3
100
AcDbCircle
 10
78.335577
 20
97.4317
 30
0.0
 40
8.004
  0
CIRCLE
  5
F2
100
AcDbEntity
  8
PV
  6
CONTINUOUS
 62
         3
100
AcDbCircle
 10
20.559704
 20
24.983494
 30
0.0
 40
4.192095
  0
CIRCLE
  5
F3
100
AcDbEntity
  8
PV
  6
CONTINUOUS
 62
         3
100
AcDbCircle
 10
94.870841
 20
24.983494
 30
0.0
 40
4.192095
  0
CIRCLE
  5
F4
100
AcDbEntity
  8
PV
  6
CONTINUOUS
 62
         3
100
AcDbCircle
 10
57.715272
 20
102.138052
 30
0.0
 40
4.192095
  0
CIRCLE
  5
F5
100
AcDbEntity
  8
PV
  6
CONTINUOUS
 62
         3
100
AcDbCircle
 10
94.870841
 20
24.983494
 30
0.0
 40
5.0025
  0
CIRCLE
  5
F6
100
AcDbEntity
  8
PV
  6
CONTINUOUS
 62
         3
100
AcDbCircle
 10
20.559704
 20
24.983494
 30
0.0
 40
5.0025
  0
CIRCLE
  5
F7
100
AcDbEntity
  8
PV
  6
CONTINUOUS
 62
         3
100
AcDbCircle
 10
57.715272
 20
102.138052
 30
0.0
 40
5.0025
  0
CIRCLE
  5
F8
100
AcDbEntity
  8
PV
  6
CONTINUOUS
 62
         3
100
AcDbCircle
 10
57.715272
 20
54.614302
 30
0.0
 40
38.969475
  0
CIRCLE
  5
F9
100
AcDbEntity
  8
PV
  6
CONTINUOUS
 62
         3
100
AcDbCircle
 10
57.715272
 20
54.614302
 30
0.0
 40
56.078025
  0
CIRCLE
  5
FA
100
AcDbEntity
  8
PV
  6
CENTER
 62
         3
100
AcDbCircle
 10
57.715272
 20
54.614302
 30
0.0
 40
47.52375
  0
LINE
  5
FB
100
AcDbEntity
  8
PV
  6
CONTINUOUS
 62
         3
100
AcDbLine
 10
54.713772
 20
92.012992
 30
0.0
 11
54.713772
 21
93.467719
 31
0.0
  0
LINE
  5
FC
100
AcDbEntity
  8
PV
  6
CONTINUOUS
 62
         3
100
AcDbLine
 10
60.716772
 20
92.012992
 30
0.0
 11
60.716772
 21
93.467719
 31
0.0
  0
LINE
  5
FD
100
AcDbEntity
  8
PV
  6
CONTINUOUS
 62
         3
100
AcDbLine
 10
113.784293
 20
53.613802
 30
0.0
 11
115.235018
 21
53.613802
 31
0.0
  0
LINE
  5
FE
100
AcDbEntity
  8
PV
  6
CONTINUOUS
 62
         3
100
AcDbLine
 10
113.784293
 20
55.614802
 30
0.0
 11
115.235018
 21
55.614802
 31
0.0
  0
LINE
  5
FF
100
AcDbEntity
  8
PV
  6
CONTINUOUS
 62
         3
100
AcDbLine
 10
33.093969
 20
99.741855
 30
0.0
 11
33.093969
 21
95.121545
 31
0.0
  0
LINE
  5
100
100
AcDbEntity
  8
PV
  6
CONTINUOUS
 62
         3
100
AcDbLine
 10
41.097969
 20
99.741855
 30
0.0
 11
41.097969
 21
95.121545
 31
0.0
  0
LINE
  5
101
100
AcDbEntity
  8
PV
  6
CONTINUOUS
 62
         3
100
AcDbLine
 10
37.095968
 20
92.810391
 30
0.0
 11
41.097969
 21
95.120545
 31
0.0
  0
LINE
  5
102
100
AcDbEntity
  8
PV
  6
CONTINUOUS
 62
         3
100
AcDbLine
 10
37.095968
 20
92.810391
 30
0.0
 11
33.093969
 21
95.121545
 31
0.0
  0
LINE
  5
103
100
AcDbEntity
  8
PV
  6
CONTINUOUS
 62
         3
100
AcDbLine
 10
37.095968
 20
102.053009
 30
0.0
 11
33.093969
 21
99.741855
 31
0.0
  0
LINE
  5
104
100
AcDbEntity
  8
PV
  6
CONTINUOUS
 62
         3
100
AcDbLine
 10
37.095968
 20
102.053009
 30
0.0
 11
41.097969
 21
99.741855
 31
0.0
  0
LINE
  5
105
100
AcDbEntity
  8
PV
  6
CONTINUOUS
 62
         3
100
AcDbLine
 10
16.557705
 20
86.555264
 30
0.0
 11
16.557705
 21
81.933955
 31
0.0
  0
LINE
  5
106
100
AcDbEntity
  8
PV
  6
CONTINUOUS
 62
         3
100
AcDbLine
 10
24.561705
 20
86.555264
 30
0.0
 11
24.561705
 21
81.933955
 31
0.0
  0
LINE
  5
107
100
AcDbEntity
  8
PV
  6
CONTINUOUS
 62
         3
100
AcDbLine
 10
20.559704
 20
79.6238
 30
0.0
 11
24.561705
 21
81.933955
 31
0.0
  0
LINE
  5
108
100
AcDbEntity
  8
PV
  6
CONTINUOUS
 62
         3
100
AcDbLine
 10
20.559704
 20
79.6238
 30
0.0
 11
16.557705
 21
81.933955
 31
0.0
  0
LINE
  5
109
100
AcDbEntity
  8
PV
  6
CONTINUOUS
 62
         3
100
AcDbLine
 10
20.559704
 20
88.865419
 30
0.0
 11
16.557705
 21
86.555264
 31
0.0
  0
LINE
  5
10A
100
AcDbEntity
  8
PV
  6
CONTINUOUS
 62
         3
100
AcDbLine
 10
20.559704
 20
88.866419
 30
0.0
 11
24.561705
 21
86.555264
 31
0.0
  0
LINE
  5
10B
100
AcDbEntity
  8
PV
  6
CONTINUOUS
 62
         3
100
AcDbLine
 10
7.381119
 20
67.499742
 30
0.0
 11
7.381119
 21
62.878432
 31
0.0
  0
LINE
  5
10C
100
AcDbEntity
  8
PV
  6
CONTINUOUS
 62
         3
100
AcDbLine
 10
15.385119
 20
67.499742
 30
0.0
 11
15.385119
 21
62.878432
 31
0.0
  0
LINE
  5
10D
100
AcDbEntity
  8
PV
  6
CONTINUOUS
 62
         3
100
AcDbLine
 10
11.383119
 20
60.568277
 30
0.0
 11
15.385119
 21
62.878432
 31
0.0
  0
LINE
  5
10E
100
AcDbEntity
  8
PV
  6
CONTINUOUS
 62
         3
100
AcDbLine
 10
11.383119
 20
60.568277
 30
0.0
 11
7.381119
 21
62.878432
 31
0.0
  0
LINE
  5
10F
100
AcDbEntity
  8
PV
  6
CONTINUOUS
 62
         3
100
AcDbLine
 10
11.383119
 20
69.810896
 30
0.0
 11
7.381119
 21
67.499742
 31
0.0
  0
LINE
  5
110
100
AcDbEntity
  8
PV
  6
CONTINUOUS
 62
         3
100
AcDbLine
 10
11.383119
 20
69.810896
 30
0.0
 11
15.385119
 21
67.499742
 31
0.0
  0
LINE
  5
111
100
AcDbEntity
  8
PV
  6
CONTINUOUS
 62
         3
100
AcDbLine
 10
7.381119
 20
46.350172
 30
0.0
 11
7.381119
 21
41.728863
 31
0.0
  0
LINE
  5
112
100
AcDbEntity
  8
PV
  6
CONTINUOUS
 62
         3
100
AcDbLine
 10
15.385119
 20
46.350172
 30
0.0
 11
15.385119
 21
41.728863
 31
0.0
  0
LINE
  5
113
100
AcDbEntity
  8
PV
  6
CONTINUOUS
 62
         3
100
AcDbLine
 10
11.383119
 20
39.417707
 30
0.0
 11
15.385119
 21
41.728863
 31
0.0
  0
LINE
  5
114
100
AcDbEntity
  8
PV
  6
CONTINUOUS
 62
         3
100
AcDbLine
 10
11.383119
 20
39.417707
 30
0.0
 11
7.381119
 21
41.728863
 31
0.0
  0
LINE
  5
115
100
AcDbEntity
  8
PV
  6
CONTINUOUS
 62
         3
100
AcDbLine
 10
11.383119
 20
48.660327
 30
0.0
 11
7.381119
 21
46.350172
 31
0.0
  0
LINE
  5
116
100
AcDbEntity
  8
PV
  6
CONTINUOUS
 62
         3
100
AcDbLine
 10
11.383119
 20
48.660327
 30
0.0
 11
15.385119
 21
46.350172
 31
0.0
  0
LINE
  5
117
100
AcDbEntity
  8
PV
  6
CONTINUOUS
 62
         3
100
AcDbLine
 10
33.092968
 20
14.107059
 30
0.0
 11
33.092968
 21
9.48675
 31
0.0
  0
LINE
  5
118
100
AcDbEntity
  8
PV
  6
CONTINUOUS
 62
         3
100
AcDbLine
 10
41.096967
 20
14.107059
 30
0.0
 11
41.096967
 21
9.48675
 31
0.0
  0
LINE
  5
119
100
AcDbEntity
  8
PV
  6
CONTINUOUS
 62
         3
100
AcDbLine
 10
37.094968
 20
7.175595
 30
0.0
 11
41.096967
 21
9.48675
 31
0.0
  0
LINE
  5
11A
100
AcDbEntity
  8
PV
  6
CONTINUOUS
 62
         3
100
AcDbLine
 10
37.095968
 20
7.175595
 30
0.0
 11
33.092968
 21
9.48675
 31
0.0
  0
LINE
  5
11B
100
AcDbEntity
  8
PV
  6
CONTINUOUS
 62
         3
100
AcDbLine
 10
37.094968
 20
16.418214
 30
0.0
 11
33.092968
 21
14.108059
 31
0.0
  0
LINE
  5
11C
100
AcDbEntity
  8
PV
  6
CONTINUOUS
 62
         3
100
AcDbLine
 10
37.094968
 20
16.418214
 30
0.0
 11
41.097969
 21
14.107059
 31
0.0
  0
LINE
  5
11D
100
AcDbEntity
  8
PV
  6
CONTINUOUS
 62
         3
100
AcDbLine
 10
53.713273
 20
9.400706
 30
0.0
 11
53.713273
 21
4.780398
 31
0.0
  0
LINE
  5
11E
100
AcDbEntity
  8
PV
  6
CONTINUOUS
 62
         3
100
AcDbLine
 10
61.717273
 20
9.400706
 30
0.0
 11
61.717273
 21
4.780398
 31
0.0
  0
LINE
  5
11F
100
AcDbEntity
  8
PV
  6
CONTINUOUS
 62
         3
100
AcDbLine
 10
57.715272
 20
2.469243
 30
0.0
 11
61.717273
 21
4.779397
 31
0.0
  0
LINE
  5
120
100
AcDbEntity
  8
PV
  6
CONTINUOUS
 62
         3
100
AcDbLine
 10
57.715272
 20
2.469243
 30
0.0
 11
53.713273
 21
4.779397
 31
0.0
  0
LINE
  5
121
100
AcDbEntity
  8
PV
  6
CONTINUOUS
 62
         3
100
AcDbLine
 10
57.715272
 20
11.711862
 30
0.0
 11
53.713273
 21
9.400706
 31
0.0
  0
LINE
  5
122
100
AcDbEntity
  8
PV
  6
CONTINUOUS
 62
         3
100
AcDbLine
 10
57.715272
 20
11.711862
 30
0.0
 11
61.717273
 21
9.400706
 31
0.0
  0
LINE
  5
123
100
AcDbEntity
  8
PV
  6
CONTINUOUS
 62
         3
100
AcDbLine
 10
74.333578
 20
14.107059
 30
0.0
 11
74.333578
 21
9.48675
 31
0.0
  0
LINE
  5
124
100
AcDbEntity
  8
PV
  6
CONTINUOUS
 62
         3
100
AcDbLine
 10
82.337577
 20
14.107059
 30
0.0
 11
82.337577
 21
9.48675
 31
0.0
  0
LINE
  5
125
100
AcDbEntity
  8
PV
  6
CONTINUOUS
 62
         3
100
AcDbLine
 10
78.335577
 20
7.175595
 30
0.0
 11
82.337577
 21
9.48675
 31
0.0
  0
LINE
  5
126
100
AcDbEntity
  8
PV
  6
CONTINUOUS
 62
         3
100
AcDbLine
 10
78.334577
 20
7.175595
 30
0.0
 11
74.333578
 21
9.48675
 31
0.0
  0
LINE
  5
127
100
AcDbEntity
  8
PV
  6
CONTINUOUS
 62
         3
100
AcDbLine
 10
78.335577
 20
16.418214
 30
0.0
 11
74.333578
 21
14.107059
 31
0.0
  0
LINE
  5
128
100
AcDbEntity
  8
PV
  6
CONTINUOUS
 62
         3
100
AcDbLine
 10
78.335577
 20
16.418214
 30
0.0
 11
82.336578
 21
14.107059
 31
0.0
  0
LINE
  5
129
100
AcDbEntity
  8
PV
  6
CONTINUOUS
 62
         3
100
AcDbLine
 10
100.045427
 20
46.350172
 30
0.0
 11
100.045427
 21
41.728863
 31
0.0
  0
LINE
  5
12A
100
AcDbEntity
  8
PV
  6
CONTINUOUS
 62
         3
100
AcDbLine
 10
108.049427
 20
46.350172
 30
0.0
 11
108.049427
 21
41.728863
 31
0.0
  0
LINE
  5
12B
100
AcDbEntity
  8
PV
  6
CONTINUOUS
 62
         3
100
AcDbLine
 10
104.047427
 20
39.417707
 30
0.0
 11
108.049427
 21
41.728863
 31
0.0
  0
LINE
  5
12C
100
AcDbEntity
  8
PV
  6
CONTINUOUS
 62
         3
100
AcDbLine
 10
104.047427
 20
39.417707
 30
0.0
 11
100.045427
 21
41.728863
 31
0.0
  0
LINE
  5
12D
100
AcDbEntity
  8
PV
  6
CONTINUOUS
 62
         3
100
AcDbLine
 10
104.047427
 20
48.660327
 30
0.0
 11
100.045427
 21
46.350172
 31
0.0
  0
LINE
  5
12E
100
AcDbEntity
  8
PV
  6
CONTINUOUS
 62
         3
100
AcDbLine
 10
104.047427
 20
48.660327
 30
0.0
 11
108.049427
 21
46.350172
 31
0.0
  0
LINE
  5
12F
100
AcDbEntity
  8
PV
  6
CONTINUOUS
 62
         3
100
AcDbLine
 10
100.045427
 20
67.499742
 30
0.0
 11
100.045427
 21
62.878432
 31
0.0
  0
LINE
  5
130
100
AcDbEntity
  8
PV
  6
CONTINUOUS
 62
         3
100
AcDbLine
 10
108.049427
 20
67.499742
 30
0.0
 11
108.049427
 21
62.878432
 31
0.0
  0
LINE
  5
131
100
AcDbEntity
  8
PV
  6
CONTINUOUS
 62
         3
100
AcDbLine
 10
104.047427
 20
60.568277
 30
0.0
 11
108.049427
 21
62.878432
 31
0.0
  0
LINE
  5
132
100
AcDbEntity
  8
PV
  6
CONTINUOUS
 62
         3
100
AcDbLine
 10
104.047427
 20
60.568277
 30
0.0
 11
100.045427
 21
62.878432
 31
0.0
  0
LINE
  5
133
100
AcDbEntity
  8
PV
  6
CONTINUOUS
 62
         3
100
AcDbLine
 10
104.047427
 20
69.809896
 30
0.0
 11
100.045427
 21
67.499742
 31
0.0
  0
LINE
  5
134
100
AcDbEntity
  8
PV
  6
CONTINUOUS
 62
         3
100
AcDbLine
 10
104.047427
 20
69.810896
 30
0.0
 11
108.049427
 21
67.499742
 31
0.0
  0
LINE
  5
135
100
AcDbEntity
  8
PV
  6
CONTINUOUS
 62
         3
100
AcDbLine
 10
90.868842
 20
86.555264
 30
0.0
 11
90.868842
 21
81.933955
 31
0.0
  0
LINE
  5
136
100
AcDbEntity
  8
PV
  6
CONTINUOUS
 62
         3
100
AcDbLine
 10
98.872842
 20
86.555264
 30
0.0
 11
98.872842
 21
81.933955
 31
0.0
  0
LINE
  5
137
100
AcDbEntity
  8
PV
  6
CONTINUOUS
 62
         3
100
AcDbLine
 10
94.870841
 20
79.6238
 30
0.0
 11
98.872842
 21
81.933955
 31
0.0
  0
LINE
  5
138
100
AcDbEntity
  8
PV
  6
CONTINUOUS
 62
         3
100
AcDbLine
 10
94.870841
 20
79.6238
 30
0.0
 11
90.868842
 21
81.933955
 31
0.0
  0
LINE
  5
139
100
AcDbEntity
  8
PV
  6
CONTINUOUS
 62
         3
100
AcDbLine
 10
94.870841
 20
88.866419
 30
0.0
 11
90.868842
 21
86.555264
 31
0.0
  0
LINE
  5
13A
100
AcDbEntity
  8
PV
  6
CONTINUOUS
 62
         3
100
AcDbLine
 10
94.870841
 20
88.865419
 30
0.0
 11
98.872842
 21
86.555264
 31
0.0
  0
LINE
  5
13B
100
AcDbEntity
  8
PV
  6
CONTINUOUS
 62
         3
100
AcDbLine
 10
74.333578
 20
99.741855
 30
0.0
 11
74.333578
 21
95.121545
 31
0.0
  0
LINE
  5
13C
100
AcDbEntity
  8
PV
  6
CONTINUOUS
 62
         3
100
AcDbLine
 10
82.337577
 20
99.741855
 30
0.0
 11
82.337577
 21
95.121545
 31
0.0
  0
LINE
  5
13D
100
AcDbEntity
  8
PV
  6
CONTINUOUS
 62
         3
100
AcDbLine
 10
78.335577
 20
92.810391
 30
0.0
 11
82.337577
 21
95.120545
 31
0.0
  0
LINE
  5
13E
100
AcDbEntity
  8
PV
  6
CONTINUOUS
 62
         3
100
AcDbLine
 10
78.335577
 20
92.810391
 30
0.0
 11
74.333578
 21
95.120545
 31
0.0
  0
LINE
  5
13F
100
AcDbEntity
  8
PV
  6
CONTINUOUS
 62
         3
100
AcDbLine
 10
78.335577
 20
102.053009
 30
0.0
 11
74.333578
 21
99.741855
 31
0.0
  0
LINE
  5
140
100
AcDbEntity
  8
PV
  6
CONTINUOUS
 62
         3
100
AcDbLine
 10
78.335577
 20
102.053009
 30
0.0
 11
82.337577
 21
99.741855
 31
0.0
  0
LINE
  5
141
100
AcDbEntity
  8
PV
  6
CENTER
 62
         3
100
AcDbLine
 10
83.273045
 20
34.232116
 30
0.0
 11
105.930368
 21
16.164087
 31
0.0
  0
LINE
  5
142
100
AcDbEntity
  8
PV
  6
CENTER
 62
         3
100
AcDbLine
 10
71.899361
 20
25.161583
 30
0.0
 11
84.472645
 21
-0.948465
 31
0.0
  0
LINE
  5
143
100
AcDbEntity
  8
PV
  6
CENTER
 62
         3
100
AcDbLine
 10
43.532185
 20
25.161583
 30
0.0
 11
30.957901
 21
-0.948465
 31
0.0
  0
LINE
  5
144
100
AcDbEntity
  8
PV
  6
CENTER
 62
         3
100
AcDbLine
 10
32.1575
 20
34.232116
 30
0.0
 11
9.500177
 21
16.164087
 31
0.0
  0
LINE
  5
145
100
AcDbEntity
  8
PV
  6
CENTER
 62
         3
100
AcDbLine
 10
25.845346
 20
47.340667
 30
0.0
 11
-2.408774
 21
40.891444
 31
0.0
  0
LINE
  5
146
100
AcDbEntity
  8
PV
  6
CENTER
 62
         3
100
AcDbLine
 10
25.845346
 20
61.887937
 30
0.0
 11
-2.408774
 21
68.33716
 31
0.0
  0
LINE
  5
147
100
AcDbEntity
  8
PV
  6
CENTER
 62
         3
100
AcDbLine
 10
32.1575
 20
74.996488
 30
0.0
 11
9.499177
 21
93.064518
 31
0.0
  0
LINE
  5
148
100
AcDbEntity
  8
PV
  6
CENTER
 62
         3
100
AcDbLine
 10
43.531185
 20
84.067021
 30
0.0
 11
30.957901
 21
110.17707
 31
0.0
  0
LINE
  5
149
100
AcDbEntity
  8
PV
  6
CENTER
 62
         3
100
AcDbLine
 10
57.715272
 20
-10.674326
 30
0.0
 11
57.715272
 21
116.284121
 31
0.0
  0
LINE
  5
14A
100
AcDbEntity
  8
PV
  6
CENTER
 62
         3
100
AcDbLine
 10
71.899361
 20
84.067021
 30
0.0
 11
84.472645
 21
110.17707
 31
0.0
  0
LINE
  5
14B
100
AcDbEntity
  8
PV
  6
CENTER
 62
         3
100
AcDbLine
 10
83.273045
 20
74.996488
 30
0.0
 11
105.931368
 21
93.064518
 31
0.0
  0
LINE
  5
14C
100
AcDbEntity
  8
PV
  6
CENTER
 62
         3
100
AcDbLine
 10
89.5852
 20
61.888937
 30
0.0
 11
117.839319
 21
68.33716
 31
0.0
  0
LINE
  5
14D
100
AcDbEntity
  8
PV
  6
CENTER
 62
         3
100
AcDbLine
 10
89.5852
 20
47.339667
 30
0.0
 11
117.839319
 21
40.891444
 31
0.0
  0
LINE
  5
14E
100
AcDbEntity
  8
PV
  6
CENTER
 62
         3
100
AcDbLine
 10
-8.351745
 20
54.614302
 30
0.0
 11
122.461629
 21
54.614302
 31
0.0
  0
ARC
  5
14F
100
AcDbEntity
  8
PV
  6
CONTINUOUS
 62
         3
100
AcDbCircle
 10
57.715272
 20
54.614302
 30
0.0
 40
37.51875
100
AcDbArc
 50
94.589
 51
85.411458
  0
ARC
  5
150
100
AcDbEntity
  8
PV
  6
CONTINUOUS
 62
         3
100
AcDbCircle
 10
57.715272
 20
54.614302
 30
0.0
 40
57.52875
100
AcDbArc
 50
0.996499
 51
359.003502
  0
MTEXT
  5
151
100
AcDbEntity
  8
PV
  6
CONTINUOUS
 62
       110
100
AcDbMText
 10
17.2293729895
 20
152.7373389909
 30
0.0
 40
3.2016000748
 41
0.0
 71
         1
 72
         1
  1
\W1.200;\A1;M10
  0
LINE
  5
152
100
AcDbEntity
  8
PV
  6
CONTINUOUS
 62
         3
100
AcDbLine
 10
55.214022
 20
106.470217
 30
0.0
 11
31.214029
 21
148.039991
 31
0.0
  0
LINE
  5
153
100
AcDbEntity
  8
PV
  6
CONTINUOUS
 62
         3
100
AcDbLine
 10
13.671262
 20
148.039991
 30
0.0
 11
31.214029
 21
148.039991
 31
0.0
  0
LINE
  5
154
100
AcDbEntity
  8
PV
  6
CONTINUOUS
 62
         3
100
AcDbLine
 10
27.699099
 20
-50.0
 30
0.0
 11
27.699099
 21
-110.0
 31
0.0
  0
MTEXT
  5
155
100
AcDbEntity
  8
PV
  6
CONTINUOUS
 62
       110
100
AcDbMText
 10
90.8368529851
 20
-38.3709998808
 30
0.0
 40
3.2000000477
 41
0.0
 71
         1
 72
         1
  1
\W1.063;\A1;PL075X115AS-SS
  0
MTEXT
  5
156
100
AcDbEntity
  8
PV
  6
CONTINUOUS
 62
       110
100
AcDbMText
 10
90.2811870773
 20
-32.3709998808
 30
0.0
 40
3.2000000477
 41
0.0
 71
         1
 72
         1
  1
\T1.006;\W1.063;\A1;POWER LOCK
  0
MTEXT
  5
157
100
AcDbEntity
  8
PV
  6
CONTINUOUS
 62
       110
100
AcDbMText
 10
32.2298473652
 20
-63.5319998808
 30
0.0
 40
3.2000000477
 41
0.0
 71
         1
 72
         1
  1
\T1.034;\W1.053;\A1;MODEL NUMBER
  0
MTEXT
  5
158
100
AcDbEntity
  8
PV
  6
CONTINUOUS
 62
       110
100
AcDbMText
 10
32.2778130242
 20
-99.5319998808
 30
0.0
 40
3.2000000477
 41
0.0
 71
         1
 72
         1
  1
\T1.061;\W1.093;\A1;CONTACT PRESSURE OF HUB BORE
  0
MTEXT
  5
159
100
AcDbEntity
  8
PV
  6
CONTINUOUS
 62
       110
100
AcDbMText
 10
32.2586849771
 20
-93.5319998808
 30
0.0
 40
3.2000000477
 41
0.0
 71
         1
 72
         1
  1
\T1.051;\W1.077;\A1;CONTACT PRESSURE OF SHAFT
  0
MTEXT
  5
15A
100
AcDbEntity
  8
PV
  6
CONTINUOUS
 62
       110
100
AcDbMText
 10
32.2647051699
 20
-87.5319998808
 30
0.0
 40
3.2000000477
 41
0.0
 71
         1
 72
         1
  1
\T1.057;\W1.031;\A1;TRANSMISSIBLE THRUST
  0
MTEXT
  5
15B
100
AcDbEntity
  8
PV
  6
CONTINUOUS
 62
       110
100
AcDbMText
 10
32.2647051699
 20
-81.5319998808
 30
0.0
 40
3.2000000477
 41
0.0
 71
         1
 72
         1
  1
\T1.057;\W1.031;\A1;TRANSMISSIBLE TORQUE
  0
MTEXT
  5
15C
100
AcDbEntity
  8
PV
  6
CONTINUOUS
 62
       110
100
AcDbMText
 10
32.3416060601
 20
-69.5319998808
 30
0.0
 40
3.2000000477
 41
0.0
 71
         1
 72
         1
  1
\T1.096;\W1.097;\A1;QUANTITY AND SIZE OF LOCKING BOLTS
  0
MTEXT
  5
15D
100
AcDbEntity
  8
PV
  6
CONTINUOUS
 62
       110
100
AcDbMText
 10
32.3143267347
 20
-75.5319998808
 30
0.0
 40
3.2000000477
 41
0.0
 71
         1
 72
         1
  1
\T1.083;\W1.076;\A1;TIGHTENING TORQUE OF LOCKING BOLTS
  0
MTEXT
  5
15E
100
AcDbEntity
  8
PV
  6
CONTINUOUS
 62
       110
100
AcDbMText
 10
76.2051870773
 20
-57.6469998808
 30
0.0
 40
3.2000000477
 41
0.0
 71
         1
 72
         1
  1
\T1.006;\W1.063;\A1;POWER LOCK
  0
MTEXT
  5
15F
100
AcDbEntity
  8
PV
  6
CONTINUOUS
 62
       110
100
AcDbMText
 10
32.1717650079
 20
-105.5319998808
 30
0.0
 40
3.2000000477
 41
0.0
 71
         1
 72
         1
  1
\A1;MASS
  0
LINE
  5
160
100
AcDbEntity
  8
PV
  6
CONTINUOUS
 62
         3
100
AcDbLine
 10
142.472099
 20
-62.0
 30
0.0
 11
142.472099
 21
-110.0
 31
0.0
  0
LINE
  5
161
100
AcDbEntity
  8
PV
  6
CONTINUOUS
 62
         3
100
AcDbLine
 10
27.699099
 20
-50.0
 30
0.0
 11
226.80773
 21
-50.0
 31
0.0
  0
LINE
  5
162
100
AcDbEntity
  8
PV
  6
CONTINUOUS
 62
         3
100
AcDbLine
 10
27.699099
 20
-110.0
 30
0.0
 11
226.80773
 21
-110.0
 31
0.0
  0
LINE
  5
163
100
AcDbEntity
  8
PV
  6
CONTINUOUS
 62
         3
100
AcDbLine
 10
27.699099
 20
-104.0
 30
0.0
 11
226.80773
 21
-104.0
 31
0.0
  0
LINE
  5
164
100
AcDbEntity
  8
PV
  6
CONTINUOUS
 62
         3
100
AcDbLine
 10
27.699099
 20
-98.0
 30
0.0
 11
226.80773
 21
-98.0
 31
0.0
  0
LINE
  5
165
100
AcDbEntity
  8
PV
  6
CONTINUOUS
 62
         3
100
AcDbLine
 10
27.699099
 20
-92.0
 30
0.0
 11
226.80773
 21
-92.0
 31
0.0
  0
LINE
  5
166
100
AcDbEntity
  8
PV
  6
CONTINUOUS
 62
         3
100
AcDbLine
 10
27.699099
 20
-86.0
 30
0.0
 11
226.80773
 21
-86.0
 31
0.0
  0
LINE
  5
167
100
AcDbEntity
  8
PV
  6
CONTINUOUS
 62
         3
100
AcDbLine
 10
27.699099
 20
-80.0
 30
0.0
 11
226.80773
 21
-80.0
 31
0.0
  0
LINE
  5
168
100
AcDbEntity
  8
PV
  6
CONTINUOUS
 62
         3
100
AcDbLine
 10
27.699099
 20
-74.0
 30
0.0
 11
226.80773
 21
-74.0
 31
0.0
  0
LINE
  5
169
100
AcDbEntity
  8
PV
  6
CONTINUOUS
 62
         3
100
AcDbLine
 10
27.699099
 20
-68.0
 30
0.0
 11
226.80773
 21
-68.0
 31
0.0
  0
LINE
  5
16A
100
AcDbEntity
  8
PV
  6
CONTINUOUS
 62
         3
100
AcDbLine
 10
27.699099
 20
-62.0
 30
0.0
 11
226.80773
 21
-62.0
 31
0.0
  0
LINE
  5
16B
100
AcDbEntity
  8
PV
  6
CONTINUOUS
 62
         3
100
AcDbLine
 10
27.699099
 20
-56.0
 30
0.0
 11
226.80773
 21
-56.0
 31
0.0
  0
MTEXT
  5
16C
100
AcDbEntity
  8
PV
  6
CONTINUOUS
 62
       110
100
AcDbMText
 10
152.440508011
 20
-99.4044978808
 30
0.0
 40
3.2000000477
 41
0.0
 71
         1
 72
         1
  1
\W1.286;\A1;113
  0
MTEXT
  5
16D
100
AcDbEntity
  8
PV
  6
CONTINUOUS
 62
       110
100
AcDbMText
 10
152.3547940045
 20
-93.4074968808
 30
0.0
 40
3.2000000477
 41
0.0
 71
         1
 72
         1
  1
\W1.125;\A1;173
  0
MTEXT
  5
16E
100
AcDbEntity
  8
PV
  6
CONTINUOUS
 62
       110
100
AcDbMText
 10
152.440508011
 20
-87.4104948808
 30
0.0
 40
3.2000000477
 41
0.0
 71
         1
 72
         1
  1
\W1.286;\A1;117
  0
MTEXT
  5
16F
100
AcDbEntity
  8
PV
  6
CONTINUOUS
 62
       110
100
AcDbMText
 10
149.2675040035
 20
-81.4134938808
 30
0.0
 40
3.2000000477
 41
0.0
 71
         1
 72
         1
  1
\W1.333;\A1;4.31
  0
MTEXT
  5
170
100
AcDbEntity
  8
PV
  6
CONTINUOUS
 62
       110
100
AcDbMText
 10
149.1963929822
 20
-75.4164928808
 30
0.0
 40
3.2000000477
 41
0.0
 71
         1
 72
         1
  1
\W1.200;\A1;67.6
  0
MTEXT
  5
171
100
AcDbEntity
  8
PV
  6
CONTINUOUS
 62
       110
100
AcDbMText
 10
217.0300870079
 20
-98.2050978808
 30
0.0
 40
3.2000000477
 41
0.0
 71
         1
 72
         1
  1
\A1;2
  0
MTEXT
  5
172
100
AcDbEntity
  8
PV
  6
CONTINUOUS
 62
       110
100
AcDbMText
 10
198.7926395606
 20
-99.4044978808
 30
0.0
 40
3.2000000477
 41
0.0
 71
         1
 72
         1
  1
\T1.143;\W1.070;\A1;kgf/ mm \}
  0
MTEXT
  5
173
100
AcDbEntity
  8
PV
  6
CONTINUOUS
 62
       110
100
AcDbMText
 10
217.0300870079
 20
-92.2080958808
 30
0.0
 40
3.2000000477
 41
0.0
 71
         1
 72
         1
  1
\A1;2
  0
MTEXT
  5
174
100
AcDbEntity
  8
PV
  6
CONTINUOUS
 62
       110
100
AcDbMText
 10
198.7926395606
 20
-93.4074968808
 30
0.0
 40
3.2000000477
 41
0.0
 71
         1
 72
         1
  1
\T1.143;\W1.070;\A1;kgf/ mm \}
  0
MTEXT
  5
175
100
AcDbEntity
  8
PV
  6
CONTINUOUS
 62
       110
100
AcDbMText
 10
198.7144210055
 20
-87.4104948808
 30
0.0
 40
3.2000000477
 41
0.0
 71
         1
 72
         1
  1
\W1.091;\A1;kgf\}
  0
MTEXT
  5
176
100
AcDbEntity
  8
PV
  6
CONTINUOUS
 62
       110
100
AcDbMText
 10
199.1992700102
 20
-75.4164928808
 30
0.0
 40
3.2000000477
 41
0.0
 71
         1
 72
         1
  1
\W0.833;\A1;ｋｇｆ・ｍ｝
  0
MTEXT
  5
177
100
AcDbEntity
  8
PV
  6
CONTINUOUS
 62
       110
100
AcDbMText
 10
199.1992700102
 20
-81.4134938808
 30
0.0
 40
3.2000000477
 41
0.0
 71
         1
 72
         1
  1
\W0.833;\A1;ｋｇｆ・ｍ｝
  0
MTEXT
  5
178
100
AcDbEntity
  8
PV
  6
CONTINUOUS
 62
       110
100
AcDbMText
 10
163.6824290079
 20
-105.4014998808
 30
0.0
 40
3.2000000477
 41
0.0
 71
         1
 72
         1
  1
\A1;kg
  0
MTEXT
  5
179
100
AcDbEntity
  8
PV
  6
CONTINUOUS
 62
       110
100
AcDbMText
 10
163.6824290079
 20
-99.4044978808
 30
0.0
 40
3.2000000477
 41
0.0
 71
         1
 72
         1
  1
\A1;MPa
  0
MTEXT
  5
17A
100
AcDbEntity
  8
PV
  6
CONTINUOUS
 62
       110
100
AcDbMText
 10
163.6824290079
 20
-93.4074968808
 30
0.0
 40
3.2000000477
 41
0.0
 71
         1
 72
         1
  1
\A1;MPa
  0
MTEXT
  5
17B
100
AcDbEntity
  8
PV
  6
CONTINUOUS
 62
       110
100
AcDbMText
 10
163.6824290079
 20
-87.4104948808
 30
0.0
 40
3.2000000477
 41
0.0
 71
         1
 72
         1
  1
\A1;kN
  0
MTEXT
  5
17C
100
AcDbEntity
  8
PV
  6
CONTINUOUS
 62
       110
100
AcDbMText
 10
164.2157630102
 20
-81.4134938808
 30
0.0
 40
3.2000000477
 41
0.0
 71
         1
 72
         1
  1
\W0.833;\A1;ｋＮ・ｍ
  0
MTEXT
  5
17D
100
AcDbEntity
  8
PV
  6
CONTINUOUS
 62
       110
100
AcDbMText
 10
164.2157630102
 20
-75.4164928808
 30
0.0
 40
3.2000000477
 41
0.0
 71
         1
 72
         1
  1
\W0.833;\A1;Ｎ・ｍ
  0
MTEXT
  5
17E
100
AcDbEntity
  8
PV
  6
CONTINUOUS
 62
       110
100
AcDbMText
 10
166.9615609851
 20
-63.4224908808
 30
0.0
 40
3.2000000477
 41
0.0
 71
         1
 72
         1
  1
\W1.063;\A1;PL075X115AS-SS
  0
MTEXT
  5
17F
100
AcDbEntity
  8
PV
  6
CONTINUOUS
 62
       110
100
AcDbMText
 10
170.2046409959
 20
-69.4194918808
 30
0.0
 40
3.2000000477
 41
0.0
 71
         1
 72
         1
  1
\W1.149;\A1;11-M10X25
  0
MTEXT
  5
180
100
AcDbEntity
  8
PV
  6
CONTINUOUS
 62
       110
100
AcDbMText
 10
182.0113310566
 20
-75.4164928808
 30
0.0
 40
3.2000000477
 41
0.0
 71
         1
 72
         1
  1
\W1.333;\A1;\{6.9
  0
MTEXT
  5
181
100
AcDbEntity
  8
PV
  6
CONTINUOUS
 62
       110
100
AcDbMText
 10
182.0921440118
 20
-81.4134938808
 30
0.0
 40
3.2000000477
 41
0.0
 71
         1
 72
         1
  1
\W1.143;\A1;\{440
  0
MTEXT
  5
182
100
AcDbEntity
  8
PV
  6
CONTINUOUS
 62
       110
100
AcDbMText
 10
175.634253007
 20
-87.4104948808
 30
0.0
 40
3.2000000477
 41
0.0
 71
         1
 72
         1
  1
\W1.286;\A1;\{11900
  0
MTEXT
  5
183
100
AcDbEntity
  8
PV
  6
CONTINUOUS
 62
       110
100
AcDbMText
 10
178.798332049
 20
-93.4074968808
 30
0.0
 40
3.2000000477
 41
0.0
 71
         1
 72
         1
  1
\W1.364;\A1;\{17.7
  0
MTEXT
  5
184
100
AcDbEntity
  8
PV
  6
CONTINUOUS
 62
       110
100
AcDbMText
 10
178.7404989952
 20
-99.4044978808
 30
0.0
 40
3.2000000477
 41
0.0
 71
         1
 72
         1
  1
\W1.500;\A1;\{11.5
  0
MTEXT
  5
185
100
AcDbEntity
  8
PV
  6
CONTINUOUS
 62
       110
100
AcDbMText
 10
149.2675040035
 20
-105.4014998808
 30
0.0
 40
3.2000000477
 41
0.0
 71
         1
 72
         1
  1
\W1.333;\A1;1.27
  0
LINE
  5
186
100
AcDbEntity
  8
PV
  6
CONTINUOUS
 62
         3
100
AcDbLine
 10
226.80773
 20
-50.029988
 30
0.0
 11
226.80773
 21
-110.0
 31
0.0
  0
ENDSEC
  0
SECTION
  2
OBJECTS
  0
DICTIONARY
  5
19
100
AcDbDictionary
  3
ACAD_GROUP
350
1A
  3
ACAD_MLINESTYLE
350
1B
  0
DICTIONARY
  5
1A
102
{ACAD_REACTORS
330
19
102
}
100
AcDbDictionary
  0
DICTIONARY
  5
1B
102
{ACAD_REACTORS
330
19
102
}
100
AcDbDictionary
  3
STANDARD
350
1C
  0
MLINESTYLE
  5
1C
102
{ACAD_REACTORS
330
1B
102
}
100
AcDbMlineStyle
  2
Standard
 70
         0
  3

 62
         0
 51
90.0
 52
90.0
 71
         2
 49
0.5
 62
       256
  6
ByLayer
 49
-0.5
 62
       256
  6
ByLayer
  0
ENDSEC
  0
EOF
