  0
SECTION
  2
HEADER
  9
$ACADVER
  1
AC1014
  9
$ACADMAINTVER
 70
         0
  9
$DWGCODEPAGE
  3
ANSI_932
  9
$INSBASE
 10
0.0
 20
0.0
 30
0.0
  9
$EXTMIN
 10
-100.31
 20
-110.0
 30
0.0
  9
$EXTMAX
 10
118.202503
 20
123.8543875316
 30
0.0
  9
$LIMMIN
 10
-100.31
 20
-110.0
  9
$LIMMAX
 10
118.202503
 20
123.8543875316
  9
$ORTHOMODE
 70
         0
  9
$REGENMODE
 70
         1
  9
$FILLMODE
 70
         1
  9
$QTEXTMODE
 70
         0
  9
$MIRRTEXT
 70
         1
  9
$DRAGMODE
 70
         2
  9
$LTSCALE
 40
1.0
  9
$OSMODE
 70
         0
  9
$ATTMODE
 70
         1
  9
$TEXTSIZE
 40
3.2000000477
  9
$TRACEWID
 40
0.05
  9
$TEXTSTYLE
  7
MX_NOTE_STANDARD
  9
$CLAYER
  8
0
  9
$CELTYPE
  6
CONTINUOUS
  9
$CECOLOR
 62
       256
  9
$CELTSCALE
 40
1.0
  9
$DELOBJ
 70
         1
  9
$DISPSILH
 70
         0
  9
$DIMSCALE
 40
1.0
  9
$DIMASZ
 40
2.5
  9
$DIMEXO
 40
0.0
  9
$DIMDLI
 40
3.75
  9
$DIMRND
 40
0.0
  9
$DIMDLE
 40
0.0
  9
$DIMEXE
 40
2.5
  9
$DIMTP
 40
0.0
  9
$DIMTM
 40
0.0
  9
$DIMTXT
 40
3.2000000477
  9
$DIMCEN
 40
2.5
  9
$DIMTSZ
 40
0.0
  9
$DIMTOL
 70
         0
  9
$DIMLIM
 70
         0
  9
$DIMTIH
 70
         0
  9
$DIMTOH
 70
         0
  9
$DIMSE1
 70
         0
  9
$DIMSE2
 70
         0
  9
$DIMTAD
 70
         1
  9
$DIMZIN
 70
         8
  9
$DIMBLK
  1

  9
$DIMASO
 70
         1
  9
$DIMSHO
 70
         1
  9
$DIMPOST
  1

  9
$DIMAPOST
  1

  9
$DIMALT
 70
         0
  9
$DIMALTD
 70
         4
  9
$DIMALTF
 40
0.0393700787
  9
$DIMLFAC
 40
1.0
  9
$DIMTOFL
 70
         1
  9
$DIMTVP
 40
0.0
  9
$DIMTIX
 70
         0
  9
$DIMSOXD
 70
         0
  9
$DIMSAH
 70
         1
  9
$DIMBLK1
  1
_OPEN30
  9
$DIMBLK2
  1
_OPEN30
  9
$DIMSTYLE
  2
MXDIMSTYLE
  9
$DIMCLRD
 70
         0
  9
$DIMCLRE
 70
         0
  9
$DIMCLRT
 70
         0
  9
$DIMTFAC
 40
1.0
  9
$DIMGAP
 40
1.0
  9
$DIMJUST
 70
         0
  9
$DIMSD1
 70
         0
  9
$DIMSD2
 70
         0
  9
$DIMTOLJ
 70
         0
  9
$DIMTZIN
 70
         0
  9
$DIMALTZ
 70
         0
  9
$DIMALTTZ
 70
         0
  9
$DIMFIT
 70
         3
  9
$DIMUPT
 70
         0
  9
$DIMUNIT
 70
         2
  9
$DIMDEC
 70
         2
  9
$DIMTDEC
 70
         2
  9
$DIMALTU
 70
         2
  9
$DIMALTTD
 70
         4
  9
$DIMTXSTY
  7
MX_NOTE_STANDARD
  9
$DIMAUNIT
 70
         0
  9
$LUNITS
 70
         2
  9
$LUPREC
 70
         4
  9
$SKETCHINC
 40
0.1
  9
$FILLETRAD
 40
0.0
  9
$AUNITS
 70
         0
  9
$AUPREC
 70
         0
  9
$MENU
  1
acad
  9
$ELEVATION
 40
0.0
  9
$PELEVATION
 40
0.0
  9
$THICKNESS
 40
0.0
  9
$LIMCHECK
 70
         0
  9
$BLIPMODE
 70
         1
  9
$CHAMFERA
 40
0.0
  9
$CHAMFERB
 40
0.0
  9
$CHAMFERC
 40
0.0
  9
$CHAMFERD
 40
0.0
  9
$SKPOLY
 70
         0
  9
$TDCREATE
 40
2456603.419247685
  9
$TDUPDATE
 40
2456603.419247685
  9
$TDINDWG
 40
0.0000000000
  9
$TDUSRTIMER
 40
0.0000000000
  9
$USRTIMER
 70
         1
  9
$ANGBASE
 50
0.0
  9
$ANGDIR
 70
         0
  9
$PDMODE
 70
         0
  9
$PDSIZE
 40
0.0
  9
$PLINEWID
 40
0.0
  9
$COORDS
 70
         1
  9
$SPLFRAME
 70
         0
  9
$SPLINETYPE
 70
         6
  9
$SPLINESEGS
 70
         8
  9
$ATTDIA
 70
         0
  9
$ATTREQ
 70
         1
  9
$HANDLING
 70
         1
  9
$HANDSEED
  5
197
  9
$SURFTAB1
 70
         6
  9
$SURFTAB2
 70
         6
  9
$SURFTYPE
 70
         6
  9
$SURFU
 70
         6
  9
$SURFV
 70
         6
  9
$UCSNAME
  2

  9
$UCSORG
 10
0.0
 20
0.0
 30
0.0
  9
$UCSXDIR
 10
1.0
 20
0.0
 30
0.0
  9
$UCSYDIR
 10
0.0
 20
1.0
 30
0.0
  9
$PUCSNAME
  2

  9
$PUCSORG
 10
0.0
 20
0.0
 30
0.0
  9
$PUCSXDIR
 10
1.0
 20
0.0
 30
0.0
  9
$PUCSYDIR
 10
0.0
 20
1.0
 30
0.0
  9
$USERI1
 70
         0
  9
$USERI2
 70
         0
  9
$USERI3
 70
         0
  9
$USERI4
 70
         0
  9
$USERI5
 70
         0
  9
$USERR1
 40
0.0
  9
$USERR2
 40
0.0
  9
$USERR3
 40
0.0
  9
$USERR4
 40
0.0
  9
$USERR5
 40
0.0
  9
$WORLDVIEW
 70
         1
  9
$SHADEDGE
 70
         3
  9
$SHADEDIF
 70
        70
  9
$TILEMODE
 70
         1
  9
$MAXACTVP
 70
        16
  9
$PINSBASE
 10
0.0
 20
0.0
 30
0.0
  9
$PLIMCHECK
 70
         0
  9
$PEXTMIN
 10
1.0000000000E+20
 20
1.0000000000E+20
 30
1.0000000000E+20
  9
$PEXTMAX
 10
-1.0000000000E+20
 20
-1.0000000000E+20
 30
-1.0000000000E+20
  9
$PLIMMIN
 10
0.0
 20
0.0
  9
$PLIMMAX
 10
12.0
 20
9.0
  9
$UNITMODE
 70
         0
  9
$VISRETAIN
 70
         0
  9
$PLINEGEN
 70
         1
  9
$PSLTSCALE
 70
         0
  9
$TREEDEPTH
 70
      3020
  9
$PICKSTYLE
 70
         1
  9
$CMLSTYLE
  2
Standard
  9
$CMLJUST
 70
         0
  9
$CMLSCALE
 40
1.0
  9
$PROXYGRAPHICS
 70
         0
  9
$MEASUREMENT
 70
         1
  0
ENDSEC
  0
SECTION
  2
CLASSES
  0
CLASS
  1
LWPOLYLINE
  2
AcDbPolyline
  3
"AutoCAD"
 90
        0
280
         0
281
         1
  0
CLASS
  1
IMAGE
  2
AcDbRasterImage
  3
ISM
 90
      127
280
         0
281
         1
  0
CLASS
  1
OLE2FRAME
  2
AcDbOle2Frame
  3
""
 90
        0
280
         0
281
         1
  0
CLASS
  1
HATCH
  2
AcDbHatch
  3
"ACAD_SEDONA"
 90
        0
280
         0
281
         1
  0
CLASS
  1
DICTIONARYVAR
  2
AcDbDictionaryVar
  3
"AutoCAD"
 90
        0
280
         0
281
         0
  0
CLASS
  1
RASTERVARIABLES
  2
AcDbRasterVariables
  3
ISM
 90
        0
280
         0
281
         0
  0
CLASS
  1
IMAGEDEF
  2
AcDbRasterImageDef
  3
ISM
 90
        0
280
         0
281
         0
  0
CLASS
  1
IMAGEDEF_REACTOR
  2
AcDbRasterImageDefReactor
  3
ISM
 90
        1
280
         0
281
         0
  0
CLASS
  1
IDBUFFER
  2
AcDbIdBuffer
  3
"Acad"
 90
        0
280
         0
281
         0
  0
CLASS
  1
SPATIAL_FILTER
  2
AcDbSpatialFilter
  3
"Acad"
 90
        0
280
         0
281
         0
  0
CLASS
  1
XRECORD
  2
AcDbXrecord
  3
"<Built In>"
 90
        0
280
         0
281
         0
  0
CLASS
  1
SORTENTSTABLE
  2
AcDbSortentsTable
  3
"AutoCAD"
 90
        0
280
         0
281
         0
  0
CLASS
  1
LAYER_INDEX
  2
AcDbLayerIndex
  3
"Acad"
 90
        0
280
         0
281
         0
  0
CLASS
  1
SPATIAL_INDEX
  2
AcDbSpatialIndex
  3
"Acad"
 90
        0
280
         0
281
         0
  0
CLASS
  1
OBJECT_PTR
  2
CAseDLPNTableRecord
  3
"ASE-LPNTableRecord"
 90
        1
280
         0
281
         0
  0
CLASS
  1
LAYOUT
  2
AcDbLayout
  3
"AutoCAD 2000"
 90
        0
280
         0
281
         0
  0
CLASS
  1
PLOTSETTINGS
  2
AcDbPlotSettings
  3
"AutoCAD 2000"
 90
        0
280
         0
281
         0
  0
CLASS
  1
ACDBDICTIONARYWDFLT
  2
AcDbDictionaryWithDefault
  3
"AutoCAD 2000"
 90
        0
280
         0
281
         0
  0
CLASS
  1
ACDBPLACEHOLDER
  2
AcDbPlaceHolder
  3
"AutoCAD 2000"
 90
        0
280
         0
281
         0
  0
ENDSEC
  0
SECTION
  2
TABLES
  0
TABLE
  2
VPORT
  5
7
100
AcDbSymbolTable
 70
         1
  0
VPORT
  5
15
100
AcDbSymbolTableRecord
100
AcDbViewportTableRecord
  2
*ACTIVE
 70
         0
 10
0.0
 20
0.0
 11
1.0
 21
1.0
 12
8.9462515
 22
6.9271937658
 13
0.0
 23
0.0
 14
1.0
 24
1.0
 15
0.0
 25
0.0
 16
0.0
 26
0.0
 36
1.0
 17
0.0
 27
0.0
 37
0.0
 40
236.1929314069
 41
1.7320508076
 42
50.0
 43
0.0
 44
0.0
 50
0.0
 51
0.0
 71
         0
 72
       100
 73
         1
 74
         1
 75
         0
 76
         0
 77
         0
 78
         0
  0
ENDTAB
  0
TABLE
  2
LTYPE
  5
4
100
AcDbSymbolTable
 70
         4
  0
LTYPE
  5
11
100
AcDbSymbolTableRecord
100
AcDbLinetypeTableRecord
  2
BYBLOCK
 70
        64
  3

 72
        65
 73
         0
 40
0.0
  0
LTYPE
  5
12
100
AcDbSymbolTableRecord
100
AcDbLinetypeTableRecord
  2
BYLAYER
 70
        64
  3

 72
        65
 73
         0
 40
0.0
  0
LTYPE
  5
13
100
AcDbSymbolTableRecord
100
AcDbLinetypeTableRecord
  2
CONTINUOUS
 70
        64
  3
Solid line
 72
        65
 73
         0
 40
0.0
  0
LTYPE
  5
F3
100
AcDbSymbolTableRecord
100
AcDbLinetypeTableRecord
  2
CENTER
 70
        64
  3
Center ____ _ ____ _ ____ _ ____ _ ____ _ ____
 72
        65
 73
         4
 40
50.8
 49
31.75
 74
         0
 49
-6.35
 74
         0
 49
6.35
 74
         0
 49
-6.35
 74
         0
  0
ENDTAB
  0
TABLE
  2
LAYER
  5
2
100
AcDbSymbolTable
 70
         3
  0
LAYER
  5
14
100
AcDbSymbolTableRecord
100
AcDbLayerTableRecord
  2
0
 70
         0
 62
         7
  6
CONTINUOUS
  0
LAYER
  5
1D
100
AcDbSymbolTableRecord
100
AcDbLayerTableRecord
  2
DEFPOINTS
 70
         0
 62
         7
  6
CONTINUOUS
  0
LAYER
  5
1E
100
AcDbSymbolTableRecord
100
AcDbLayerTableRecord
  2
PV
 70
         0
 62
         3
  6
CONTINUOUS
  0
ENDTAB
  0
TABLE
  2
STYLE
  5
3
100
AcDbSymbolTable
 70
         3
  0
STYLE
  5
17
100
AcDbSymbolTableRecord
100
AcDbTextStyleTableRecord
  2
MX_NOTE_STANDARD
 70
         0
 40
0.0
 41
1.0
 50
0.0
 71
         0
 42
3.2000000477
  3
txt.shx
  4
extfont.shx
  0
STYLE
  5
5F
100
AcDbSymbolTableRecord
100
AcDbTextStyleTableRecord
  2
MX_DIMTXSTY_2
 70
         0
 40
0.0
 41
1.1
 50
0.0
 71
         0
 42
3.2000000477
  3
txt.shx
  4
extfont.shx
  0
STYLE
  5
6F
100
AcDbSymbolTableRecord
100
AcDbTextStyleTableRecord
  2
MX_DIMTXSTY_3
 70
         0
 40
0.0
 41
0.9
 50
0.0
 71
         0
 42
3.2000000477
  3
txt.shx
  4
extfont.shx
  0
ENDTAB
  0
TABLE
  2
VIEW
  5
5
100
AcDbSymbolTable
 70
         0
  0
ENDTAB
  0
TABLE
  2
UCS
  5
6
100
AcDbSymbolTable
 70
         0
  0
ENDTAB
  0
TABLE
  2
APPID
  5
8
100
AcDbSymbolTable
 70
         1
  0
APPID
  5
16
100
AcDbSymbolTableRecord
100
AcDbRegAppTableRecord
  2
ACAD
 70
         0
  0
ENDTAB
  0
TABLE
  2
DIMSTYLE
  5
9
100
AcDbSymbolTable
 70
         1
  0
DIMSTYLE
105
18
100
AcDbSymbolTableRecord
100
AcDbDimStyleTableRecord
  2
MXDIMSTYLE
 70
         0
  3

  4

  5

  6
_OPEN30
  7
_OPEN30
 40
1.0
 41
2.5
 42
0.0
 43
3.75
 44
2.5
 45
0.0
 46
0.0
 47
0.0
 48
0.0
 71
         0
 72
         0
 73
         0
 74
         0
 75
         0
 76
         0
 77
         1
 78
         8
140
3.2000000477
141
2.5
142
0.0
143
0.0393700787
144
1.0
145
0.0
146
1.0
147
1.0
170
         0
171
         4
172
         1
173
         1
174
         0
175
         0
176
         0
177
         0
178
         0
270
         2
271
         2
272
         2
273
         2
274
         4
275
         0
280
         0
281
         0
282
         0
283
         0
284
         0
285
         0
286
         0
287
         3
288
         0
340
17
  0
ENDTAB
  0
TABLE
  2
BLOCK_RECORD
  5
1
100
AcDbSymbolTable
 70
         9
  0
BLOCK_RECORD
  5
A
100
AcDbSymbolTableRecord
100
AcDbBlockTableRecord
  2
*MODEL_SPACE
  0
BLOCK_RECORD
  5
B
100
AcDbSymbolTableRecord
100
AcDbBlockTableRecord
  2
*PAPER_SPACE
  0
BLOCK_RECORD
  5
1F
100
AcDbSymbolTableRecord
100
AcDbBlockTableRecord
  2
ARROW
  0
BLOCK_RECORD
  5
20
100
AcDbSymbolTableRecord
100
AcDbBlockTableRecord
  2
_OPEN30
  0
BLOCK_RECORD
  5
2B
100
AcDbSymbolTableRecord
100
AcDbBlockTableRecord
  2
*D2
  0
BLOCK_RECORD
  5
3A
100
AcDbSymbolTableRecord
100
AcDbBlockTableRecord
  2
*D3
  0
BLOCK_RECORD
  5
47
100
AcDbSymbolTableRecord
100
AcDbBlockTableRecord
  2
*D4
  0
BLOCK_RECORD
  5
56
100
AcDbSymbolTableRecord
100
AcDbBlockTableRecord
  2
*D5
  0
BLOCK_RECORD
  5
66
100
AcDbSymbolTableRecord
100
AcDbBlockTableRecord
  2
*D6
  0
BLOCK_RECORD
  5
76
100
AcDbSymbolTableRecord
100
AcDbBlockTableRecord
  2
*D7
  0
BLOCK_RECORD
  5
85
100
AcDbSymbolTableRecord
100
AcDbBlockTableRecord
  2
*D8
  0
ENDTAB
  0
ENDSEC
  0
SECTION
  2
BLOCKS
  0
BLOCK
  5
D
100
AcDbEntity
  8
0
100
AcDbBlockBegin
  2
*MODEL_SPACE
 70
         0
 10
0.0
 20
0.0
 30
0.0
  3
*MODEL_SPACE
  1

  0
ENDBLK
  5
E
100
AcDbEntity
  8
0
100
AcDbBlockEnd
  0
BLOCK
  5
F
100
AcDbEntity
 67
         1
  8
0
100
AcDbBlockBegin
  2
*PAPER_SPACE
 70
         0
 10
0.0
 20
0.0
 30
0.0
  3
*PAPER_SPACE
  1

  0
ENDBLK
  5
10
100
AcDbEntity
 67
         1
  8
0
100
AcDbBlockEnd
  0
BLOCK
  5
26
100
AcDbEntity
  8
0
100
AcDbBlockBegin
  2
ARROW
 70
         0
 10
0.0
 20
0.0
 30
0.0
  3
ARROW
  1

  0
LWPOLYLINE
  5
27
100
AcDbEntity
  8
0
  6
CONTINUOUS
 62
       161
100
AcDbPolyline
 90
        3
 70
         0
 10
2.39929
 20
0.642888
 10
0.0
 20
0.0
 10
2.39929
 20
-0.642888
  0
ENDBLK
  5
28
100
AcDbEntity
  8
0
100
AcDbBlockEnd
  0
BLOCK
  5
21
100
AcDbEntity
  8
0
  6
ByBlock
 62
         0
100
AcDbBlockBegin
  2
_OPEN30
 70
         2
 10
0.0
 20
0.0
 30
0.0
  3
_OPEN30
  1

  0
LINE
  5
22
100
AcDbEntity
  8
0
  6
ByBlock
 62
         0
100
AcDbLine
 10
-1.0
 20
0.267949
 30
0.0
 11
0.0
 21
0.0
 31
0.0
  0
LINE
  5
23
100
AcDbEntity
  8
0
  6
ByBlock
 62
         0
100
AcDbLine
 10
0.0
 20
0.0
 30
0.0
 11
-1.0
 21
-0.267949
 31
0.0
  0
LINE
  5
24
100
AcDbEntity
  8
0
  6
ByBlock
 62
         0
100
AcDbLine
 10
0.0
 20
0.0
 30
0.0
 11
-1.0
 21
0.0
 31
0.0
  0
ENDBLK
  5
25
100
AcDbEntity
  8
0
  6
ByBlock
 62
         0
100
AcDbBlockEnd
  0
BLOCK
  5
2C
100
AcDbEntity
  8
0
  6
ByBlock
 62
         0
100
AcDbBlockBegin
  2
*D2
 70
         1
 10
0.0
 20
0.0
 30
0.0
  3
*D2
  1

  0
LINE
  5
2D
100
AcDbEntity
  8
0
  6
CONTINUOUS
 62
        80
100
AcDbLine
 10
42.0
 20
118.587721
 30
0.0
 11
74.0
 21
118.587721
 31
0.0
  0
LINE
  5
2E
100
AcDbEntity
  8
0
  6
CONTINUOUS
 62
        80
100
AcDbLine
 10
42.0
 20
80.634001
 30
0.0
 11
42.0
 21
120.587721
 31
0.0
  0
LINE
  5
2F
100
AcDbEntity
  8
0
  6
CONTINUOUS
 62
        80
100
AcDbLine
 10
74.0
 20
81.550001
 30
0.0
 11
74.0
 21
120.587721
 31
0.0
  0
LINE
  5
30
100
AcDbEntity
  8
0
  6
CONTINUOUS
 62
        80
100
AcDbLine
 10
42.0
 20
118.587721
 30
0.0
 11
38.0
 21
118.587721
 31
0.0
  0
LINE
  5
31
100
AcDbEntity
  8
0
  6
CONTINUOUS
 62
        80
100
AcDbLine
 10
74.0
 20
118.587721
 30
0.0
 11
78.0
 21
118.587721
 31
0.0
  0
SOLID
  5
32
100
AcDbEntity
  8
0
  6
CONTINUOUS
 62
        80
100
AcDbTrace
 10
40.9999999702
 20
118.754388005
 30
0.0
 11
40.9999999702
 21
118.421053995
 31
0.0
 12
42.0
 22
118.587721
 32
0.0
 13
42.0
 23
118.587721
 33
0.0
  0
SOLID
  5
33
100
AcDbEntity
  8
0
  6
CONTINUOUS
 62
        80
100
AcDbTrace
 10
75.0000000298
 20
118.421053995
 30
0.0
 11
75.0000000298
 21
118.754388005
 31
0.0
 12
74.0
 22
118.587721
 32
0.0
 13
74.0
 23
118.587721
 33
0.0
  0
MTEXT
  5
34
100
AcDbEntity
  8
0
  6
CONTINUOUS
 62
        80
100
AcDbMText
 10
57.5166664124
 20
121.1877210238
 30
0.0
 40
3.2000000477
 41
0.0
 71
         5
 72
         1
  1
\A1;32
  0
POINT
  5
35
100
AcDbEntity
  8
DEFPOINTS
  6
CONTINUOUS
 62
         0
100
AcDbPoint
 10
42.0
 20
80.634001
 30
0.0
  0
POINT
  5
36
100
AcDbEntity
  8
DEFPOINTS
  6
CONTINUOUS
 62
         0
100
AcDbPoint
 10
74.0
 20
81.550001
 30
0.0
  0
POINT
  5
37
100
AcDbEntity
  8
DEFPOINTS
  6
CONTINUOUS
 62
         0
100
AcDbPoint
 10
74.0
 20
118.587721
 30
0.0
  0
ENDBLK
  5
38
100
AcDbEntity
  8
0
  6
ByBlock
 62
         0
100
AcDbBlockEnd
  0
BLOCK
  5
3B
100
AcDbEntity
  8
0
  6
ByBlock
 62
         0
100
AcDbBlockBegin
  2
*D3
 70
         1
 10
0.0
 20
0.0
 30
0.0
  3
*D3
  1

  0
LINE
  5
3C
100
AcDbEntity
  8
0
  6
CONTINUOUS
 62
        80
100
AcDbLine
 10
42.0
 20
106.30053
 30
0.0
 11
50.0
 21
106.30053
 31
0.0
  0
LINE
  5
3D
100
AcDbEntity
  8
0
  6
CONTINUOUS
 62
        80
100
AcDbLine
 10
42.0
 20
80.633999
 30
0.0
 11
42.0
 21
108.30053
 31
0.0
  0
LINE
  5
3E
100
AcDbEntity
  8
0
  6
CONTINUOUS
 62
        80
100
AcDbLine
 10
50.0
 20
81.55
 30
0.0
 11
50.0
 21
108.30053
 31
0.0
  0
SOLID
  5
3F
100
AcDbEntity
  8
0
  6
CONTINUOUS
 62
        80
100
AcDbTrace
 10
43.0000000298
 20
106.133862995
 30
0.0
 11
43.0000000298
 21
106.467197005
 31
0.0
 12
42.0
 22
106.30053
 32
0.0
 13
42.0
 23
106.30053
 33
0.0
  0
SOLID
  5
40
100
AcDbEntity
  8
0
  6
CONTINUOUS
 62
        80
100
AcDbTrace
 10
48.9999999702
 20
106.467197005
 30
0.0
 11
48.9999999702
 21
106.133862995
 31
0.0
 12
50.0
 22
106.30053
 32
0.0
 13
50.0
 23
106.30053
 33
0.0
  0
MTEXT
  5
41
100
AcDbEntity
  8
0
  6
CONTINUOUS
 62
        80
100
AcDbMText
 10
45.6166670322
 20
108.9005300238
 30
0.0
 40
3.2000000477
 41
0.0
 71
         5
 72
         1
  1
\A1;8
  0
POINT
  5
42
100
AcDbEntity
  8
DEFPOINTS
  6
CONTINUOUS
 62
         0
100
AcDbPoint
 10
42.0
 20
80.633999
 30
0.0
  0
POINT
  5
43
100
AcDbEntity
  8
DEFPOINTS
  6
CONTINUOUS
 62
         0
100
AcDbPoint
 10
50.0
 20
81.55
 30
0.0
  0
POINT
  5
44
100
AcDbEntity
  8
DEFPOINTS
  6
CONTINUOUS
 62
         0
100
AcDbPoint
 10
50.0
 20
106.30053
 30
0.0
  0
ENDBLK
  5
45
100
AcDbEntity
  8
0
  6
ByBlock
 62
         0
100
AcDbBlockEnd
  0
BLOCK
  5
48
100
AcDbEntity
  8
0
  6
ByBlock
 62
         0
100
AcDbBlockBegin
  2
*D4
 70
         1
 10
0.0
 20
0.0
 30
0.0
  3
*D4
  1

  0
LINE
  5
49
100
AcDbEntity
  8
0
  6
CONTINUOUS
 62
        80
100
AcDbLine
 10
50.0
 20
106.30053
 30
0.0
 11
74.0
 21
106.30053
 31
0.0
  0
LINE
  5
4A
100
AcDbEntity
  8
0
  6
CONTINUOUS
 62
        80
100
AcDbLine
 10
50.0
 20
81.55
 30
0.0
 11
50.0
 21
108.30053
 31
0.0
  0
LINE
  5
4B
100
AcDbEntity
  8
0
  6
CONTINUOUS
 62
        80
100
AcDbLine
 10
74.0
 20
81.55
 30
0.0
 11
74.0
 21
108.30053
 31
0.0
  0
LINE
  5
4C
100
AcDbEntity
  8
0
  6
CONTINUOUS
 62
        80
100
AcDbLine
 10
50.0
 20
106.30053
 30
0.0
 11
46.0
 21
106.30053
 31
0.0
  0
LINE
  5
4D
100
AcDbEntity
  8
0
  6
CONTINUOUS
 62
        80
100
AcDbLine
 10
74.0
 20
106.30053
 30
0.0
 11
78.0
 21
106.30053
 31
0.0
  0
SOLID
  5
4E
100
AcDbEntity
  8
0
  6
CONTINUOUS
 62
        80
100
AcDbTrace
 10
48.9999999702
 20
106.467197005
 30
0.0
 11
48.9999999702
 21
106.133862995
 31
0.0
 12
50.0
 22
106.30053
 32
0.0
 13
50.0
 23
106.30053
 33
0.0
  0
SOLID
  5
4F
100
AcDbEntity
  8
0
  6
CONTINUOUS
 62
        80
100
AcDbTrace
 10
75.0000000298
 20
106.133862995
 30
0.0
 11
75.0000000298
 21
106.467197005
 31
0.0
 12
74.0
 22
106.30053
 32
0.0
 13
74.0
 23
106.30053
 33
0.0
  0
MTEXT
  5
50
100
AcDbEntity
  8
0
  6
CONTINUOUS
 62
        80
100
AcDbMText
 10
61.5166664124
 20
108.9005300238
 30
0.0
 40
3.2000000477
 41
0.0
 71
         5
 72
         1
  1
\A1;24
  0
POINT
  5
51
100
AcDbEntity
  8
DEFPOINTS
  6
CONTINUOUS
 62
         0
100
AcDbPoint
 10
50.0
 20
81.55
 30
0.0
  0
POINT
  5
52
100
AcDbEntity
  8
DEFPOINTS
  6
CONTINUOUS
 62
         0
100
AcDbPoint
 10
74.0
 20
81.55
 30
0.0
  0
POINT
  5
53
100
AcDbEntity
  8
DEFPOINTS
  6
CONTINUOUS
 62
         0
100
AcDbPoint
 10
74.0
 20
106.30053
 30
0.0
  0
ENDBLK
  5
54
100
AcDbEntity
  8
0
  6
ByBlock
 62
         0
100
AcDbBlockEnd
  0
BLOCK
  5
57
100
AcDbEntity
  8
0
  6
ByBlock
 62
         0
100
AcDbBlockBegin
  2
*D5
 70
         1
 10
0.0
 20
0.0
 30
0.0
  3
*D5
  1

  0
LINE
  5
58
100
AcDbEntity
  8
0
  6
CONTINUOUS
 62
        80
100
AcDbLine
 10
51.5
 20
96.646309
 30
0.0
 11
72.5
 21
96.646309
 31
0.0
  0
LINE
  5
59
100
AcDbEntity
  8
0
  6
CONTINUOUS
 62
        80
100
AcDbLine
 10
51.5
 20
82.5
 30
0.0
 11
51.5
 21
98.646309
 31
0.0
  0
LINE
  5
5A
100
AcDbEntity
  8
0
  6
CONTINUOUS
 62
        80
100
AcDbLine
 10
72.5
 20
82.5
 30
0.0
 11
72.5
 21
98.646309
 31
0.0
  0
LINE
  5
5B
100
AcDbEntity
  8
0
  6
CONTINUOUS
 62
        80
100
AcDbLine
 10
51.5
 20
96.646309
 30
0.0
 11
47.5
 21
96.646309
 31
0.0
  0
LINE
  5
5C
100
AcDbEntity
  8
0
  6
CONTINUOUS
 62
        80
100
AcDbLine
 10
72.5
 20
96.646309
 30
0.0
 11
76.5
 21
96.646309
 31
0.0
  0
SOLID
  5
5D
100
AcDbEntity
  8
0
  6
CONTINUOUS
 62
        80
100
AcDbTrace
 10
50.4999999702
 20
96.812976005
 30
0.0
 11
50.4999999702
 21
96.479641995
 31
0.0
 12
51.5
 22
96.646309
 32
0.0
 13
51.5
 23
96.646309
 33
0.0
  0
SOLID
  5
5E
100
AcDbEntity
  8
0
  6
CONTINUOUS
 62
        80
100
AcDbTrace
 10
73.5000000298
 20
96.479641995
 30
0.0
 11
73.5000000298
 21
96.812976005
 31
0.0
 12
72.5
 22
96.646309
 32
0.0
 13
72.5
 23
96.646309
 33
0.0
  0
MTEXT
  5
60
100
AcDbEntity
  8
0
  6
CONTINUOUS
 62
        80
100
AcDbMText
 10
61.5166664124
 20
99.2463090238
 30
0.0
 40
3.2000000477
 41
0.0
 71
         5
 72
         1
  1
\A1;21
  7
MX_DIMTXSTY_2
  0
POINT
  5
61
100
AcDbEntity
  8
DEFPOINTS
  6
CONTINUOUS
 62
         0
100
AcDbPoint
 10
51.5
 20
82.5
 30
0.0
  0
POINT
  5
62
100
AcDbEntity
  8
DEFPOINTS
  6
CONTINUOUS
 62
         0
100
AcDbPoint
 10
72.5
 20
82.5
 30
0.0
  0
POINT
  5
63
100
AcDbEntity
  8
DEFPOINTS
  6
CONTINUOUS
 62
         0
100
AcDbPoint
 10
72.5
 20
96.646309
 30
0.0
  0
ENDBLK
  5
64
100
AcDbEntity
  8
0
  6
ByBlock
 62
         0
100
AcDbBlockEnd
  0
BLOCK
  5
67
100
AcDbEntity
  8
0
  6
ByBlock
 62
         0
100
AcDbBlockBegin
  2
*D6
 70
         1
 10
0.0
 20
0.0
 30
0.0
  3
*D6
  1

  0
LINE
  5
68
100
AcDbEntity
  8
0
  6
CONTINUOUS
 62
        80
100
AcDbLine
 10
106.219845
 20
82.5
 30
0.0
 11
106.219845
 21
-12.5
 31
0.0
  0
LINE
  5
69
100
AcDbEntity
  8
0
  6
CONTINUOUS
 62
        80
100
AcDbLine
 10
72.5
 20
82.5
 30
0.0
 11
108.219845
 21
82.5
 31
0.0
  0
LINE
  5
6A
100
AcDbEntity
  8
0
  6
CONTINUOUS
 62
        80
100
AcDbLine
 10
72.5
 20
-12.5
 30
0.0
 11
108.219845
 21
-12.5
 31
0.0
  0
LINE
  5
6B
100
AcDbEntity
  8
0
  6
CONTINUOUS
 62
        80
100
AcDbLine
 10
106.219845
 20
82.5
 30
0.0
 11
106.219845
 21
86.5
 31
0.0
  0
LINE
  5
6C
100
AcDbEntity
  8
0
  6
CONTINUOUS
 62
        80
100
AcDbLine
 10
106.219845
 20
-12.5
 30
0.0
 11
106.219845
 21
-16.5
 31
0.0
  0
SOLID
  5
6D
100
AcDbEntity
  8
0
  6
CONTINUOUS
 62
        80
100
AcDbTrace
 10
106.386512005
 20
83.5000000298
 30
0.0
 11
106.053177995
 21
83.5000000298
 31
0.0
 12
106.219845
 22
82.5
 32
0.0
 13
106.219845
 23
82.5
 33
0.0
  0
SOLID
  5
6E
100
AcDbEntity
  8
0
  6
CONTINUOUS
 62
        80
100
AcDbTrace
 10
106.053177995
 20
-13.5000000298
 30
0.0
 11
106.386512005
 21
-13.5000000298
 31
0.0
 12
106.219845
 22
-12.5
 32
0.0
 13
106.219845
 23
-12.5
 33
0.0
  0
MTEXT
  5
70
100
AcDbEntity
  8
0
  6
CONTINUOUS
 62
        80
100
AcDbMText
 10
103.6198449762
 20
34.4166641235
 30
0.0
 40
3.2000000477
 41
0.0
 71
         5
 72
         1
  1
\A1;\U+220595
  7
MX_DIMTXSTY_3
 11
0.0
 21
1.0
 31
0.0
  0
POINT
  5
71
100
AcDbEntity
  8
DEFPOINTS
  6
CONTINUOUS
 62
         0
100
AcDbPoint
 10
72.5
 20
82.5
 30
0.0
  0
POINT
  5
72
100
AcDbEntity
  8
DEFPOINTS
  6
CONTINUOUS
 62
         0
100
AcDbPoint
 10
72.5
 20
-12.5
 30
0.0
  0
POINT
  5
73
100
AcDbEntity
  8
DEFPOINTS
  6
CONTINUOUS
 62
         0
100
AcDbPoint
 10
106.219845
 20
-12.5
 30
0.0
  0
ENDBLK
  5
74
100
AcDbEntity
  8
0
  6
ByBlock
 62
         0
100
AcDbBlockEnd
  0
BLOCK
  5
77
100
AcDbEntity
  8
0
  6
ByBlock
 62
         0
100
AcDbBlockBegin
  2
*D7
 70
         1
 10
0.0
 20
0.0
 30
0.0
  3
*D7
  1

  0
LINE
  5
78
100
AcDbEntity
  8
0
  6
CONTINUOUS
 62
        80
100
AcDbLine
 10
91.007133
 20
67.5
 30
0.0
 11
91.007133
 21
2.5
 31
0.0
  0
LINE
  5
79
100
AcDbEntity
  8
0
  6
CONTINUOUS
 62
        80
100
AcDbLine
 10
72.499999
 20
67.5
 30
0.0
 11
93.007133
 21
67.5
 31
0.0
  0
LINE
  5
7A
100
AcDbEntity
  8
0
  6
CONTINUOUS
 62
        80
100
AcDbLine
 10
72.499999
 20
2.5
 30
0.0
 11
93.007133
 21
2.5
 31
0.0
  0
LINE
  5
7B
100
AcDbEntity
  8
0
  6
CONTINUOUS
 62
        80
100
AcDbLine
 10
91.007133
 20
67.5
 30
0.0
 11
91.007133
 21
71.5
 31
0.0
  0
LINE
  5
7C
100
AcDbEntity
  8
0
  6
CONTINUOUS
 62
        80
100
AcDbLine
 10
91.007133
 20
2.5
 30
0.0
 11
91.007133
 21
-1.5
 31
0.0
  0
SOLID
  5
7D
100
AcDbEntity
  8
0
  6
CONTINUOUS
 62
        80
100
AcDbTrace
 10
91.173800005
 20
68.5000000298
 30
0.0
 11
90.840465995
 21
68.5000000298
 31
0.0
 12
91.007133
 22
67.5
 32
0.0
 13
91.007133
 23
67.5
 33
0.0
  0
SOLID
  5
7E
100
AcDbEntity
  8
0
  6
CONTINUOUS
 62
        80
100
AcDbTrace
 10
90.840465995
 20
1.4999999702
 30
0.0
 11
91.173800005
 21
1.4999999702
 31
0.0
 12
91.007133
 22
2.5
 32
0.0
 13
91.007133
 23
2.5
 33
0.0
  0
MTEXT
  5
7F
100
AcDbEntity
  8
0
  6
CONTINUOUS
 62
        80
100
AcDbMText
 10
88.4071329762
 20
34.4166641235
 30
0.0
 40
3.2000000477
 41
0.0
 71
         5
 72
         1
  1
\A1;\U+220565
  7
MX_DIMTXSTY_3
 11
0.0
 21
1.0
 31
0.0
  0
POINT
  5
80
100
AcDbEntity
  8
DEFPOINTS
  6
CONTINUOUS
 62
         0
100
AcDbPoint
 10
72.499999
 20
67.5
 30
0.0
  0
POINT
  5
81
100
AcDbEntity
  8
DEFPOINTS
  6
CONTINUOUS
 62
         0
100
AcDbPoint
 10
72.499999
 20
2.5
 30
0.0
  0
POINT
  5
82
100
AcDbEntity
  8
DEFPOINTS
  6
CONTINUOUS
 62
         0
100
AcDbPoint
 10
91.007133
 20
2.5
 30
0.0
  0
ENDBLK
  5
83
100
AcDbEntity
  8
0
  6
ByBlock
 62
         0
100
AcDbBlockEnd
  0
BLOCK
  5
86
100
AcDbEntity
  8
0
  6
ByBlock
 62
         0
100
AcDbBlockBegin
  2
*D8
 70
         1
 10
0.0
 20
0.0
 30
0.0
  3
*D8
  1

  0
LINE
  5
87
100
AcDbEntity
  8
0
  6
CONTINUOUS
 62
        80
100
AcDbLine
 10
29.571179
 20
-5.0
 30
0.0
 11
29.571179
 21
75.0
 31
0.0
  0
LINE
  5
88
100
AcDbEntity
  8
0
  6
CONTINUOUS
 62
        80
100
AcDbLine
 10
37.0
 20
-5.0
 30
0.0
 11
27.571179
 21
-5.0
 31
0.0
  0
LINE
  5
89
100
AcDbEntity
  8
0
  6
CONTINUOUS
 62
        80
100
AcDbLine
 10
37.0
 20
75.0
 30
0.0
 11
27.571179
 21
75.0
 31
0.0
  0
LINE
  5
8A
100
AcDbEntity
  8
0
  6
CONTINUOUS
 62
        80
100
AcDbLine
 10
29.571179
 20
-5.0
 30
0.0
 11
29.571179
 21
-9.0
 31
0.0
  0
LINE
  5
8B
100
AcDbEntity
  8
0
  6
CONTINUOUS
 62
        80
100
AcDbLine
 10
29.571179
 20
75.0
 30
0.0
 11
29.571179
 21
79.0
 31
0.0
  0
SOLID
  5
8C
100
AcDbEntity
  8
0
  6
CONTINUOUS
 62
        80
100
AcDbTrace
 10
29.404511995
 20
-6.0000000298
 30
0.0
 11
29.737846005
 21
-6.0000000298
 31
0.0
 12
29.571179
 22
-5.0
 32
0.0
 13
29.571179
 23
-5.0
 33
0.0
  0
SOLID
  5
8D
100
AcDbEntity
  8
0
  6
CONTINUOUS
 62
        80
100
AcDbTrace
 10
29.737846005
 20
76.0000000298
 30
0.0
 11
29.404511995
 21
76.0000000298
 31
0.0
 12
29.571179
 22
75.0
 32
0.0
 13
29.571179
 23
75.0
 33
0.0
  0
MTEXT
  5
8E
100
AcDbEntity
  8
0
  6
CONTINUOUS
 62
        80
100
AcDbMText
 10
26.9711789762
 20
34.4166641235
 30
0.0
 40
3.2000000477
 41
0.0
 71
         5
 72
         1
  1
\A1;\U+220580
 11
0.0
 21
1.0
 31
0.0
  0
POINT
  5
8F
100
AcDbEntity
  8
DEFPOINTS
  6
CONTINUOUS
 62
         0
100
AcDbPoint
 10
37.0
 20
-5.0
 30
0.0
  0
POINT
  5
90
100
AcDbEntity
  8
DEFPOINTS
  6
CONTINUOUS
 62
         0
100
AcDbPoint
 10
37.0
 20
75.0
 30
0.0
  0
POINT
  5
91
100
AcDbEntity
  8
DEFPOINTS
  6
CONTINUOUS
 62
         0
100
AcDbPoint
 10
29.571179
 20
75.0
 30
0.0
  0
ENDBLK
  5
92
100
AcDbEntity
  8
0
  6
ByBlock
 62
         0
100
AcDbBlockEnd
  0
ENDSEC
  0
SECTION
  2
ENTITIES
  0
MTEXT
  5
29
100
AcDbEntity
  8
0
  6
CONTINUOUS
 62
       110
100
AcDbMText
 10
-32.3136742373
 20
-51.6469998808
 30
0.0
 40
3.2000000477
 41
0.0
 71
         1
 72
         1
  1
\T1.065;\W1.018;\A1;TSUBAKI
  0
MTEXT
  5
2A
100
AcDbEntity
  8
0
  6
CONTINUOUS
 62
       110
100
AcDbMText
 10
-18.2376742373
 20
-26.3709998808
 30
0.0
 40
3.2000000477
 41
0.0
 71
         1
 72
         1
  1
\T1.065;\W1.018;\A1;TSUBAKI
  0
DIMENSION
  5
39
100
AcDbEntity
  8
PV
  6
CONTINUOUS
 62
        80
100
AcDbDimension
  2
*D2
 10
74.0
 20
118.587721
 30
0.0
 11
57.5166664124
 21
118.587721
 31
0.0
 70
       128
  1
\A1;<>
  3
MXDIMSTYLE
100
AcDbAlignedDimension
 13
42.0
 23
80.634001
 33
0.0
 14
74.0
 24
81.550001
 34
0.0
100
AcDbRotatedDimension
1001
ACAD
1000
DSTYLE
1002
{
1070
         6
1000
SOLID
1070
         7
1000
SOLID
1070
        41
1040
1.0000000298
1070
        44
1040
2.0
1070
       271
1070
         4
1070
       284
1070
         8
1070
       343
1005
0
1070
       344
1005
0
1002
}
  0
DIMENSION
  5
46
100
AcDbEntity
  8
PV
  6
CONTINUOUS
 62
        80
100
AcDbDimension
  2
*D3
 10
50.0
 20
106.30053
 30
0.0
 11
45.6166670322
 21
106.30053
 31
0.0
 70
       128
  1
\A1;<>
  3
MXDIMSTYLE
100
AcDbAlignedDimension
 13
42.0
 23
80.633999
 33
0.0
 14
50.0
 24
81.55
 34
0.0
100
AcDbRotatedDimension
1001
ACAD
1000
DSTYLE
1002
{
1070
         6
1000
SOLID
1070
         7
1000
SOLID
1070
        41
1040
1.0000000298
1070
        44
1040
2.0
1070
       271
1070
         4
1070
       284
1070
         8
1070
       343
1005
0
1070
       344
1005
0
1002
}
  0
DIMENSION
  5
55
100
AcDbEntity
  8
PV
  6
CONTINUOUS
 62
        80
100
AcDbDimension
  2
*D4
 10
74.0
 20
106.30053
 30
0.0
 11
61.5166664124
 21
106.30053
 31
0.0
 70
       128
  1
\A1;<>
  3
MXDIMSTYLE
100
AcDbAlignedDimension
 13
50.0
 23
81.55
 33
0.0
 14
74.0
 24
81.55
 34
0.0
100
AcDbRotatedDimension
1001
ACAD
1000
DSTYLE
1002
{
1070
         6
1000
SOLID
1070
         7
1000
SOLID
1070
        41
1040
1.0000000298
1070
        44
1040
2.0
1070
       271
1070
         4
1070
       284
1070
         8
1070
       343
1005
0
1070
       344
1005
0
1002
}
  0
DIMENSION
  5
65
100
AcDbEntity
  8
PV
  6
CONTINUOUS
 62
        80
100
AcDbDimension
  2
*D5
 10
72.5
 20
96.646309
 30
0.0
 11
61.5166664124
 21
96.646309
 31
0.0
 70
       128
  1
\A1;<>
  3
MXDIMSTYLE
100
AcDbAlignedDimension
 13
51.5
 23
82.5
 33
0.0
 14
72.5
 24
82.5
 34
0.0
100
AcDbRotatedDimension
1001
ACAD
1000
DSTYLE
1002
{
1070
         6
1000
SOLID
1070
         7
1000
SOLID
1070
        41
1040
1.0000000298
1070
        44
1040
2.0
1070
       271
1070
         4
1070
       284
1070
         8
1070
       340
1005
5F
1070
       343
1005
0
1070
       344
1005
0
1002
}
  0
DIMENSION
  5
75
100
AcDbEntity
  8
PV
  6
CONTINUOUS
 62
        80
100
AcDbDimension
  2
*D6
 10
106.219845
 20
-12.5
 30
0.0
 11
106.219845
 21
34.4166641235
 31
0.0
 70
       128
  1
\A1;\U+2205<>
  3
MXDIMSTYLE
100
AcDbAlignedDimension
 13
72.5
 23
82.5
 33
0.0
 14
72.5
 24
-12.5
 34
0.0
 50
90.0
100
AcDbRotatedDimension
1001
ACAD
1000
DSTYLE
1002
{
1070
         6
1000
SOLID
1070
         7
1000
SOLID
1070
        41
1040
1.0000000298
1070
        44
1040
2.0
1070
       271
1070
         4
1070
       284
1070
         8
1070
       340
1005
6F
1070
       343
1005
0
1070
       344
1005
0
1002
}
  0
DIMENSION
  5
84
100
AcDbEntity
  8
PV
  6
CONTINUOUS
 62
        80
100
AcDbDimension
  2
*D7
 10
91.007133
 20
2.5
 30
0.0
 11
91.007133
 21
34.4166641235
 31
0.0
 70
       128
  1
\A1;\U+2205<>
  3
MXDIMSTYLE
100
AcDbAlignedDimension
 13
72.499999
 23
67.5
 33
0.0
 14
72.499999
 24
2.5
 34
0.0
 50
90.0
100
AcDbRotatedDimension
1001
ACAD
1000
DSTYLE
1002
{
1070
         6
1000
SOLID
1070
         7
1000
SOLID
1070
        41
1040
1.0000000298
1070
        44
1040
2.0
1070
       271
1070
         4
1070
       284
1070
         8
1070
       340
1005
6F
1070
       343
1005
0
1070
       344
1005
0
1002
}
  0
DIMENSION
  5
93
100
AcDbEntity
  8
PV
  6
CONTINUOUS
 62
        80
100
AcDbDimension
  2
*D8
 10
29.571179
 20
75.0
 30
0.0
 11
29.571179
 21
34.4166641235
 31
0.0
 70
       128
  1
\A1;\U+2205<>
  3
MXDIMSTYLE
100
AcDbAlignedDimension
 13
37.0
 23
-5.0
 33
0.0
 14
37.0
 24
75.0
 34
0.0
 50
90.0
100
AcDbRotatedDimension
1001
ACAD
1000
DSTYLE
1002
{
1070
         6
1000
SOLID
1070
         7
1000
SOLID
1070
        41
1040
1.0000000298
1070
        44
1040
2.0
1070
       271
1070
         4
1070
       284
1070
         8
1070
       343
1005
0
1070
       344
1005
0
1002
}
  0
MTEXT
  5
94
100
AcDbEntity
  8
PV
  6
CONTINUOUS
 62
       110
100
AcDbMText
 10
-76.4334609921
 20
-105.5319998808
 30
0.0
 40
3.2000000477
 41
0.0
 71
         1
 72
         1
  1
\A1;MASS
  0
MTEXT
  5
95
100
AcDbEntity
  8
PV
  6
CONTINUOUS
 62
       110
100
AcDbMText
 10
-32.4000389227
 20
-57.6469998808
 30
0.0
 40
3.2000000477
 41
0.0
 71
         1
 72
         1
  1
\T1.006;\W1.063;\A1;POWER LOCK
  0
MTEXT
  5
96
100
AcDbEntity
  8
PV
  6
CONTINUOUS
 62
       110
100
AcDbMText
 10
-76.2908992653
 20
-75.5319998808
 30
0.0
 40
3.2000000477
 41
0.0
 71
         1
 72
         1
  1
\T1.083;\W1.076;\A1;TIGHTENING TORQUE OF LOCKING BOLTS
  0
MTEXT
  5
97
100
AcDbEntity
  8
PV
  6
CONTINUOUS
 62
       110
100
AcDbMText
 10
-76.2636199399
 20
-69.5319998808
 30
0.0
 40
3.2000000477
 41
0.0
 71
         1
 72
         1
  1
\T1.096;\W1.097;\A1;QUANTITY AND SIZE OF LOCKING BOLTS
  0
MTEXT
  5
98
100
AcDbEntity
  8
PV
  6
CONTINUOUS
 62
       110
100
AcDbMText
 10
-76.3405208301
 20
-81.5319998808
 30
0.0
 40
3.2000000477
 41
0.0
 71
         1
 72
         1
  1
\T1.057;\W1.031;\A1;TRANSMISSIBLE TORQUE
  0
MTEXT
  5
99
100
AcDbEntity
  8
PV
  6
CONTINUOUS
 62
       110
100
AcDbMText
 10
-76.3405208301
 20
-87.5319998808
 30
0.0
 40
3.2000000477
 41
0.0
 71
         1
 72
         1
  1
\T1.057;\W1.031;\A1;TRANSMISSIBLE THRUST
  0
MTEXT
  5
9A
100
AcDbEntity
  8
PV
  6
CONTINUOUS
 62
       110
100
AcDbMText
 10
-76.3465410229
 20
-93.5319998808
 30
0.0
 40
3.2000000477
 41
0.0
 71
         1
 72
         1
  1
\T1.051;\W1.077;\A1;CONTACT PRESSURE OF SHAFT
  0
MTEXT
  5
9B
100
AcDbEntity
  8
PV
  6
CONTINUOUS
 62
       110
100
AcDbMText
 10
-76.3274129758
 20
-99.5319998808
 30
0.0
 40
3.2000000477
 41
0.0
 71
         1
 72
         1
  1
\T1.061;\W1.093;\A1;CONTACT PRESSURE OF HUB BORE
  0
MTEXT
  5
9C
100
AcDbEntity
  8
PV
  6
CONTINUOUS
 62
       110
100
AcDbMText
 10
-76.3753786348
 20
-63.5319998808
 30
0.0
 40
3.2000000477
 41
0.0
 71
         1
 72
         1
  1
\T1.034;\W1.053;\A1;MODEL NUMBER
  0
MTEXT
  5
9D
100
AcDbEntity
  8
PV
  6
CONTINUOUS
 62
       110
100
AcDbMText
 10
-18.3240389227
 20
-32.3709998808
 30
0.0
 40
3.2000000477
 41
0.0
 71
         1
 72
         1
  1
\T1.006;\W1.063;\A1;POWER LOCK
  0
MTEXT
  5
9E
100
AcDbEntity
  8
PV
  6
CONTINUOUS
 62
       110
100
AcDbMText
 10
-18.3187950091
 20
-38.3709998808
 30
0.0
 40
3.2000000477
 41
0.0
 71
         1
 72
         1
  1
\W1.031;\A1;PL065X095AS
  0
LINE
  5
9F
100
AcDbEntity
  8
PV
  6
CONTINUOUS
 62
         3
100
AcDbLine
 10
33.866872
 20
-62.0
 30
0.0
 11
33.866872
 21
-110.0
 31
0.0
  0
LINE
  5
A0
100
AcDbEntity
  8
PV
  6
CONTINUOUS
 62
         3
100
AcDbLine
 10
-80.906128
 20
-50.0
 30
0.0
 11
-80.906128
 21
-110.0
 31
0.0
  0
LINE
  5
A1
100
AcDbEntity
  8
PV
  6
CONTINUOUS
 62
         3
100
AcDbLine
 10
-80.906128
 20
-50.0
 30
0.0
 11
118.202503
 21
-50.0
 31
0.0
  0
LINE
  5
A2
100
AcDbEntity
  8
PV
  6
CONTINUOUS
 62
         3
100
AcDbLine
 10
-80.906128
 20
-110.0
 30
0.0
 11
118.202503
 21
-110.0
 31
0.0
  0
LINE
  5
A3
100
AcDbEntity
  8
PV
  6
CONTINUOUS
 62
         3
100
AcDbLine
 10
-80.906128
 20
-104.0
 30
0.0
 11
118.202503
 21
-104.0
 31
0.0
  0
LINE
  5
A4
100
AcDbEntity
  8
PV
  6
CONTINUOUS
 62
         3
100
AcDbLine
 10
-80.906128
 20
-98.0
 30
0.0
 11
118.202503
 21
-98.0
 31
0.0
  0
LINE
  5
A5
100
AcDbEntity
  8
PV
  6
CONTINUOUS
 62
         3
100
AcDbLine
 10
-80.906128
 20
-92.0
 30
0.0
 11
118.202503
 21
-92.0
 31
0.0
  0
LINE
  5
A6
100
AcDbEntity
  8
PV
  6
CONTINUOUS
 62
         3
100
AcDbLine
 10
-80.906128
 20
-86.0
 30
0.0
 11
118.202503
 21
-86.0
 31
0.0
  0
LINE
  5
A7
100
AcDbEntity
  8
PV
  6
CONTINUOUS
 62
         3
100
AcDbLine
 10
-80.906128
 20
-80.0
 30
0.0
 11
118.202503
 21
-80.0
 31
0.0
  0
LINE
  5
A8
100
AcDbEntity
  8
PV
  6
CONTINUOUS
 62
         3
100
AcDbLine
 10
-80.906128
 20
-74.0
 30
0.0
 11
118.202503
 21
-74.0
 31
0.0
  0
LINE
  5
A9
100
AcDbEntity
  8
PV
  6
CONTINUOUS
 62
         3
100
AcDbLine
 10
-80.906128
 20
-68.0
 30
0.0
 11
118.202503
 21
-68.0
 31
0.0
  0
LINE
  5
AA
100
AcDbEntity
  8
PV
  6
CONTINUOUS
 62
         3
100
AcDbLine
 10
-80.906128
 20
-62.0
 30
0.0
 11
118.202503
 21
-62.0
 31
0.0
  0
LINE
  5
AB
100
AcDbEntity
  8
PV
  6
CONTINUOUS
 62
         3
100
AcDbLine
 10
-80.906128
 20
-56.0
 30
0.0
 11
118.202503
 21
-56.0
 31
0.0
  0
LINE
  5
AC
100
AcDbEntity
  8
PV
  6
CONTINUOUS
 62
         3
100
AcDbLine
 10
-74.251
 20
93.993
 30
0.0
 11
-60.966
 21
93.993
 31
0.0
  0
LINE
  5
AD
100
AcDbEntity
  8
PV
  6
CONTINUOUS
 62
         3
100
AcDbLine
 10
-52.0
 20
78.464
 30
0.0
 11
-60.966
 21
93.993
 31
0.0
  0
MTEXT
  5
AE
100
AcDbEntity
  8
PV
  6
CONTINUOUS
 62
       110
100
AcDbMText
 10
67.8296439881
 20
-99.3104718808
 30
0.0
 40
3.2000000477
 41
0.0
 71
         1
 72
         1
  1
\W1.500;\A1;\{
  0
MTEXT
  5
AF
100
AcDbEntity
  8
PV
  6
CONTINUOUS
 62
       110
100
AcDbMText
 10
67.7521719881
 20
-93.3999998808
 30
0.0
 40
3.2000000477
 41
0.0
 71
         1
 72
         1
  1
\W1.500;\A1;\{
  0
MTEXT
  5
B0
100
AcDbEntity
  8
PV
  6
CONTINUOUS
 62
       110
100
AcDbMText
 10
67.7521719881
 20
-87.3999998808
 30
0.0
 40
3.2000000477
 41
0.0
 71
         1
 72
         1
  1
\W1.500;\A1;\{
  0
MTEXT
  5
B1
100
AcDbEntity
  8
PV
  6
CONTINUOUS
 62
       110
100
AcDbMText
 10
71.0265589881
 20
-81.3999998808
 30
0.0
 40
3.2000000477
 41
0.0
 71
         1
 72
         1
  1
\W1.500;\A1;\{
  0
MTEXT
  5
B2
100
AcDbEntity
  8
PV
  6
CONTINUOUS
 62
       110
100
AcDbMText
 10
108.557231
 20
-93.3994470298
 30
0.0
 40
1.5
 41
0.0
 71
         1
 72
         1
  1
\A1;2
  0
MTEXT
  5
B3
100
AcDbEntity
  8
PV
  6
CONTINUOUS
 62
       110
100
AcDbMText
 10
108.557231
 20
-99.3994470298
 30
0.0
 40
1.5
 41
0.0
 71
         1
 72
         1
  1
\A1;2
  0
MTEXT
  5
B4
100
AcDbEntity
  8
PV
  6
CONTINUOUS
 62
       110
100
AcDbMText
 10
89.2900651812
 20
-99.3999998808
 30
0.0
 40
3.2000000477
 41
0.0
 71
         1
 72
         1
  1
\T1.101;\W1.081;\A1;kgf/mm \}
  0
MTEXT
  5
B5
100
AcDbEntity
  8
PV
  6
CONTINUOUS
 62
       110
100
AcDbMText
 10
89.2900651812
 20
-93.3999998808
 30
0.0
 40
3.2000000477
 41
0.0
 71
         1
 72
         1
  1
\T1.101;\W1.081;\A1;kgf/mm \}
  0
MTEXT
  5
B6
100
AcDbEntity
  8
PV
  6
CONTINUOUS
 62
       110
100
AcDbMText
 10
89.1640060055
 20
-87.3999998808
 30
0.0
 40
3.2000000477
 41
0.0
 71
         1
 72
         1
  1
\W1.091;\A1;kgf\}
  0
MTEXT
  5
B7
100
AcDbEntity
  8
PV
  6
CONTINUOUS
 62
       110
100
AcDbMText
 10
89.6488550102
 20
-81.3999998808
 30
0.0
 40
3.2000000477
 41
0.0
 71
         1
 72
         1
  1
\W0.833;\A1;ｋｇｆ・ｍ｝
  0
MTEXT
  5
B8
100
AcDbEntity
  8
PV
  6
CONTINUOUS
 62
       110
100
AcDbMText
 10
89.6488550102
 20
-75.3999998808
 30
0.0
 40
3.2000000477
 41
0.0
 71
         1
 72
         1
  1
\W0.833;\A1;ｋｇｆ・ｍ｝
  0
MTEXT
  5
B9
100
AcDbEntity
  8
PV
  6
CONTINUOUS
 62
       110
100
AcDbMText
 10
70.9521719881
 20
-75.3999998808
 30
0.0
 40
3.2000000477
 41
0.0
 71
         1
 72
         1
  1
\W1.500;\A1;\{
  0
MTEXT
  5
BA
100
AcDbEntity
  8
PV
  6
CONTINUOUS
 62
       110
100
AcDbMText
 10
55.8346670079
 20
-99.3999998808
 30
0.0
 40
3.2000000477
 41
0.0
 71
         1
 72
         1
  1
\A1;MPa
  0
MTEXT
  5
BB
100
AcDbEntity
  8
PV
  6
CONTINUOUS
 62
       110
100
AcDbMText
 10
44.5185080045
 20
-99.3104718808
 30
0.0
 40
3.2000000477
 41
0.0
 71
         1
 72
         1
  1
\W1.125;\A1;126
  0
MTEXT
  5
BC
100
AcDbEntity
  8
PV
  6
CONTINUOUS
 62
       110
100
AcDbMText
 10
55.8346670079
 20
-93.3999998808
 30
0.0
 40
3.2000000477
 41
0.0
 71
         1
 72
         1
  1
\A1;MPa
  0
MTEXT
  5
BD
100
AcDbEntity
  8
PV
  6
CONTINUOUS
 62
       110
100
AcDbMText
 10
44.4410360045
 20
-93.3999998808
 30
0.0
 40
3.2000000477
 41
0.0
 71
         1
 72
         1
  1
\W1.125;\A1;184
  0
MTEXT
  5
BE
100
AcDbEntity
  8
PV
  6
CONTINUOUS
 62
       110
100
AcDbMText
 10
55.8346670079
 20
-87.3999998808
 30
0.0
 40
3.2000000477
 41
0.0
 71
         1
 72
         1
  1
\A1;kN
  0
MTEXT
  5
BF
100
AcDbEntity
  8
PV
  6
CONTINUOUS
 62
       110
100
AcDbMText
 10
41.4124440035
 20
-87.3999998808
 30
0.0
 40
3.2000000477
 41
0.0
 71
         1
 72
         1
  1
\W1.333;\A1;94.1
  0
MTEXT
  5
C0
100
AcDbEntity
  8
PV
  6
CONTINUOUS
 62
       110
100
AcDbMText
 10
56.3680000102
 20
-81.3999998808
 30
0.0
 40
3.2000000477
 41
0.0
 71
         1
 72
         1
  1
\W0.833;\A1;ｋＮ・ｍ
  0
MTEXT
  5
C1
100
AcDbEntity
  8
PV
  6
CONTINUOUS
 62
       110
100
AcDbMText
 10
41.2588899921
 20
-81.4000001192
 30
0.0
 40
3.2000000477
 41
0.0
 71
         1
 72
         1
  1
\W1.263;\A1;3.09
  0
MTEXT
  5
C2
100
AcDbEntity
  8
PV
  6
CONTINUOUS
 62
       110
100
AcDbMText
 10
56.3680000102
 20
-75.3999998808
 30
0.0
 40
3.2000000477
 41
0.0
 71
         1
 72
         1
  1
\W0.833;\A1;Ｎ・ｍ
  0
MTEXT
  5
C3
100
AcDbEntity
  8
PV
  6
CONTINUOUS
 62
       110
100
AcDbMText
 10
41.4436859921
 20
-75.4000001192
 30
0.0
 40
3.2000000477
 41
0.0
 71
         1
 72
         1
  1
\W1.263;\A1;40.2
  0
MTEXT
  5
C4
100
AcDbEntity
  8
PV
  6
CONTINUOUS
 62
       110
100
AcDbMText
 10
55.8346670079
 20
-105.3999998808
 30
0.0
 40
3.2000000477
 41
0.0
 71
         1
 72
         1
  1
\A1;kg
  0
MTEXT
  5
C5
100
AcDbEntity
  8
PV
  6
CONTINUOUS
 62
       110
100
AcDbMText
 10
41.3750169921
 20
-105.4000001192
 30
0.0
 40
3.2000000477
 41
0.0
 71
         1
 72
         1
  1
\W1.263;\A1;0.69
  0
MTEXT
  5
C6
100
AcDbEntity
  8
PV
  6
CONTINUOUS
 62
       110
100
AcDbMText
 10
74.2593510035
 20
-99.3999998808
 30
0.0
 40
3.2000000477
 41
0.0
 71
         1
 72
         1
  1
\W1.333;\A1;12.9
  0
MTEXT
  5
C7
100
AcDbEntity
  8
PV
  6
CONTINUOUS
 62
       110
100
AcDbMText
 10
74.2593510035
 20
-93.3999998808
 30
0.0
 40
3.2000000477
 41
0.0
 71
         1
 72
         1
  1
\W1.333;\A1;18.8
  0
MTEXT
  5
C8
100
AcDbEntity
  8
PV
  6
CONTINUOUS
 62
       110
100
AcDbMText
 10
74.130058015
 20
-87.3999998808
 30
0.0
 40
3.2000000477
 41
0.0
 71
         1
 72
         1
  1
\W1.091;\A1;9600
  0
MTEXT
  5
C9
100
AcDbEntity
  8
PV
  6
CONTINUOUS
 62
       110
100
AcDbMText
 10
77.3482400045
 20
-81.3999998808
 30
0.0
 40
3.2000000477
 41
0.0
 71
         1
 72
         1
  1
\W1.125;\A1;315
  0
MTEXT
  5
CA
100
AcDbEntity
  8
PV
  6
CONTINUOUS
 62
       110
100
AcDbMText
 10
77.54824
 20
-75.3999998808
 30
0.0
 40
3.2000000477
 41
0.0
 71
         1
 72
         1
  1
\W1.500;\A1;4.1
  0
MTEXT
  5
CB
100
AcDbEntity
  8
PV
  6
CONTINUOUS
 62
       110
100
AcDbMText
 10
41.9628550013
 20
-69.5429998808
 30
0.0
 40
3.2000000477
 41
0.0
 71
         1
 72
         1
  1
\W1.043;\A1;12-M8X22
  0
MTEXT
  5
CC
100
AcDbEntity
  8
PV
  6
CONTINUOUS
 62
       110
100
AcDbMText
 10
40.6263329909
 20
-63.3179998808
 30
0.0
 40
3.2000000477
 41
0.0
 71
         1
 72
         1
  1
\W1.031;\A1;PL065X095AS
  0
MTEXT
  5
CD
100
AcDbEntity
  8
PV
  6
CONTINUOUS
 62
       110
100
AcDbMText
 10
-69.0173329921
 20
97.9210001192
 30
0.0
 40
3.2000000477
 41
0.0
 71
         1
 72
         1
  1
\A1;M8
  0
LINE
  5
CE
100
AcDbEntity
  8
PV
  6
CONTINUOUS
 62
         3
100
AcDbLine
 10
74.0
 20
81.55
 30
0.0
 11
74.0
 21
-11.55
 31
0.0
  0
LINE
  5
CF
100
AcDbEntity
  8
PV
  6
CONTINUOUS
 62
         3
100
AcDbLine
 10
50.0
 20
81.55
 30
0.0
 11
50.0
 21
-11.55
 31
0.0
  0
LINE
  5
D0
100
AcDbEntity
  8
PV
  6
CONTINUOUS
 62
         3
100
AcDbLine
 10
73.1
 20
81.55
 30
0.0
 11
74.0
 21
81.55
 31
0.0
  0
LINE
  5
D1
100
AcDbEntity
  8
PV
  6
CONTINUOUS
 62
         3
100
AcDbLine
 10
51.5
 20
82.5
 30
0.0
 11
72.5
 21
82.5
 31
0.0
  0
LINE
  5
D2
100
AcDbEntity
  8
PV
  6
CONTINUOUS
 62
         3
100
AcDbLine
 10
73.1
 20
68.45
 30
0.0
 11
74.0
 21
68.45
 31
0.0
  0
LINE
  5
D3
100
AcDbEntity
  8
PV
  6
CONTINUOUS
 62
         3
100
AcDbLine
 10
51.5
 20
67.5
 30
0.0
 11
72.5
 21
67.5
 31
0.0
  0
LINE
  5
D4
100
AcDbEntity
  8
PV
  6
CONTINUOUS
 62
         3
100
AcDbLine
 10
50.0
 20
81.55
 30
0.0
 11
50.9
 21
81.55
 31
0.0
  0
LINE
  5
D5
100
AcDbEntity
  8
PV
  6
CONTINUOUS
 62
         3
100
AcDbLine
 10
50.0
 20
68.45
 30
0.0
 11
50.9
 21
68.45
 31
0.0
  0
LINE
  5
D6
100
AcDbEntity
  8
PV
  6
CONTINUOUS
 62
         3
100
AcDbLine
 10
50.9
 20
68.45
 30
0.0
 11
51.5
 21
68.572
 31
0.0
  0
LINE
  5
D7
100
AcDbEntity
  8
PV
  6
CONTINUOUS
 62
         3
100
AcDbLine
 10
50.9
 20
81.55
 30
0.0
 11
51.5
 21
81.428
 31
0.0
  0
LINE
  5
D8
100
AcDbEntity
  8
PV
  6
CONTINUOUS
 62
         3
100
AcDbLine
 10
50.0
 20
81.5
 30
0.0
 11
42.5
 21
81.5
 31
0.0
  0
LINE
  5
D9
100
AcDbEntity
  8
PV
  6
CONTINUOUS
 62
         3
100
AcDbLine
 10
50.0
 20
68.5
 30
0.0
 11
42.5
 21
68.5
 31
0.0
  0
LINE
  5
DA
100
AcDbEntity
  8
PV
  6
CONTINUOUS
 62
         3
100
AcDbLine
 10
42.0
 20
69.366
 30
0.0
 11
42.5
 21
68.5
 31
0.0
  0
LINE
  5
DB
100
AcDbEntity
  8
PV
  6
CONTINUOUS
 62
         3
100
AcDbLine
 10
42.0
 20
80.634
 30
0.0
 11
42.5
 21
81.5
 31
0.0
  0
LINE
  5
DC
100
AcDbEntity
  8
PV
  6
CONTINUOUS
 62
         3
100
AcDbLine
 10
42.0
 20
80.634
 30
0.0
 11
42.0
 21
69.366
 31
0.0
  0
LINE
  5
DD
100
AcDbEntity
  8
PV
  6
CONTINUOUS
 62
         3
100
AcDbLine
 10
72.5
 20
82.5
 30
0.0
 11
72.5
 21
81.428
 31
0.0
  0
LINE
  5
DE
100
AcDbEntity
  8
PV
  6
CONTINUOUS
 62
         3
100
AcDbLine
 10
51.5
 20
82.5
 30
0.0
 11
51.5
 21
81.428
 31
0.0
  0
LINE
  5
DF
100
AcDbEntity
  8
PV
  6
CONTINUOUS
 62
         3
100
AcDbLine
 10
72.5
 20
68.1
 30
0.0
 11
72.5
 21
68.082
 31
0.0
  0
LINE
  5
E0
100
AcDbEntity
  8
PV
  6
CONTINUOUS
 62
         3
100
AcDbLine
 10
72.5
 20
68.572
 30
0.0
 11
72.5
 21
1.428
 31
0.0
  0
LINE
  5
E1
100
AcDbEntity
  8
PV
  6
CONTINUOUS
 62
         3
100
AcDbLine
 10
51.5
 20
68.572
 30
0.0
 11
51.5
 21
1.428
 31
0.0
  0
LINE
  5
E2
100
AcDbEntity
  8
PV
  6
CONTINUOUS
 62
         3
100
AcDbLine
 10
74.0
 20
-11.55
 30
0.0
 11
73.1
 21
-11.55
 31
0.0
  0
LINE
  5
E3
100
AcDbEntity
  8
PV
  6
CONTINUOUS
 62
         3
100
AcDbLine
 10
72.5
 20
-12.5
 30
0.0
 11
51.5
 21
-12.5
 31
0.0
  0
LINE
  5
E4
100
AcDbEntity
  8
PV
  6
CONTINUOUS
 62
         3
100
AcDbLine
 10
74.0
 20
1.55
 30
0.0
 11
73.1
 21
1.55
 31
0.0
  0
LINE
  5
E5
100
AcDbEntity
  8
PV
  6
CONTINUOUS
 62
         3
100
AcDbLine
 10
72.5
 20
2.5
 30
0.0
 11
51.5
 21
2.5
 31
0.0
  0
LINE
  5
E6
100
AcDbEntity
  8
PV
  6
CONTINUOUS
 62
         3
100
AcDbLine
 10
73.1
 20
1.55
 30
0.0
 11
72.5
 21
1.428
 31
0.0
  0
LINE
  5
E7
100
AcDbEntity
  8
PV
  6
CONTINUOUS
 62
         3
100
AcDbLine
 10
73.1
 20
-11.55
 30
0.0
 11
72.5
 21
-11.428
 31
0.0
  0
LINE
  5
E8
100
AcDbEntity
  8
PV
  6
CONTINUOUS
 62
         3
100
AcDbLine
 10
50.9
 20
-11.55
 30
0.0
 11
50.0
 21
-11.55
 31
0.0
  0
LINE
  5
E9
100
AcDbEntity
  8
PV
  6
CONTINUOUS
 62
         3
100
AcDbLine
 10
50.9
 20
1.55
 30
0.0
 11
50.0
 21
1.55
 31
0.0
  0
LINE
  5
EA
100
AcDbEntity
  8
PV
  6
CONTINUOUS
 62
         3
100
AcDbLine
 10
51.5
 20
-11.428
 30
0.0
 11
51.5
 21
-12.5
 31
0.0
  0
LINE
  5
EB
100
AcDbEntity
  8
PV
  6
CONTINUOUS
 62
         3
100
AcDbLine
 10
72.5
 20
-11.428
 30
0.0
 11
72.5
 21
-12.5
 31
0.0
  0
LINE
  5
EC
100
AcDbEntity
  8
PV
  6
CONTINUOUS
 62
         3
100
AcDbLine
 10
72.5
 20
81.428
 30
0.0
 11
73.1
 21
81.55
 31
0.0
  0
LINE
  5
ED
100
AcDbEntity
  8
PV
  6
CONTINUOUS
 62
         3
100
AcDbLine
 10
72.5
 20
68.572
 30
0.0
 11
73.1
 21
68.45
 31
0.0
  0
LINE
  5
EE
100
AcDbEntity
  8
PV
  6
CONTINUOUS
 62
         3
100
AcDbLine
 10
51.5
 20
-11.428
 30
0.0
 11
50.9
 21
-11.55
 31
0.0
  0
LINE
  5
EF
100
AcDbEntity
  8
PV
  6
CONTINUOUS
 62
         3
100
AcDbLine
 10
51.5
 20
1.428
 30
0.0
 11
50.9
 21
1.55
 31
0.0
  0
ARC
  5
F0
100
AcDbEntity
  8
PV
  6
CONTINUOUS
 62
         3
100
AcDbCircle
 10
-50.0
 20
35.0
 30
0.0
 40
47.5
100
AcDbArc
 50
1.230938
 51
358.793672
  0
ARC
  5
F1
100
AcDbEntity
  8
PV
  6
CONTINUOUS
 62
         3
100
AcDbCircle
 10
-50.0
 20
35.0
 30
0.0
 40
32.5
100
AcDbArc
 50
91.763
 51
88.236796
  0
LINE
  5
F2
100
AcDbEntity
  8
PV
  6
CONTINUOUS
 62
         3
100
AcDbLine
 10
118.202503
 20
-50.0
 30
0.0
 11
118.202503
 21
-110.0
 31
0.0
  0
LINE
  5
F4
100
AcDbEntity
  8
PV
  6
CENTER
 62
         3
100
AcDbLine
 10
44.204
 20
35.0
 30
0.0
 11
80.044
 21
35.0
 31
0.0
  0
LINE
  5
F5
100
AcDbEntity
  8
PV
  6
CONTINUOUS
 62
         3
100
AcDbLine
 10
64.1
 20
79.72
 30
0.0
 11
64.1
 21
78.323
 31
0.0
  0
LINE
  5
F6
100
AcDbEntity
  8
PV
  6
CONTINUOUS
 62
         3
100
AcDbLine
 10
64.0
 20
70.3
 30
0.0
 11
72.5
 21
68.572
 31
0.0
  0
LINE
  5
F7
100
AcDbEntity
  8
PV
  6
CONTINUOUS
 62
         3
100
AcDbLine
 10
64.0
 20
79.7
 30
0.0
 11
72.5
 21
81.428
 31
0.0
  0
LINE
  5
F8
100
AcDbEntity
  8
PV
  6
CONTINUOUS
 62
         3
100
AcDbLine
 10
59.9
 20
70.28
 30
0.0
 11
59.9
 21
71.0
 31
0.0
  0
LINE
  5
F9
100
AcDbEntity
  8
PV
  6
CONTINUOUS
 62
         3
100
AcDbLine
 10
74.0
 20
79.0
 30
0.0
 11
50.0
 21
79.0
 31
0.0
  0
LINE
  5
FA
100
AcDbEntity
  8
PV
  6
CONTINUOUS
 62
         3
100
AcDbLine
 10
74.0
 20
71.0
 30
0.0
 11
50.0
 21
71.0
 31
0.0
  0
LINE
  5
FB
100
AcDbEntity
  8
PV
  6
CONTINUOUS
 62
         3
100
AcDbLine
 10
70.8
 20
79.0
 30
0.0
 11
72.0
 21
77.8
 31
0.0
  0
LINE
  5
FC
100
AcDbEntity
  8
PV
  6
CONTINUOUS
 62
         3
100
AcDbLine
 10
70.8
 20
71.0
 30
0.0
 11
72.0
 21
72.2
 31
0.0
  0
LINE
  5
FD
100
AcDbEntity
  8
PV
  6
CONTINUOUS
 62
         3
100
AcDbLine
 10
70.8
 20
79.0
 30
0.0
 11
70.8
 21
71.0
 31
0.0
  0
LINE
  5
FE
100
AcDbEntity
  8
PV
  6
CONTINUOUS
 62
         3
100
AcDbLine
 10
72.0
 20
77.8
 30
0.0
 11
72.0
 21
72.2
 31
0.0
  0
LINE
  5
FF
100
AcDbEntity
  8
PV
  6
CONTINUOUS
 62
         3
100
AcDbLine
 10
53.125
 20
79.0
 30
0.0
 11
53.125
 21
71.0
 31
0.0
  0
LINE
  5
100
100
AcDbEntity
  8
PV
  6
CONTINUOUS
 62
         3
100
AcDbLine
 10
53.125
 20
78.323
 30
0.0
 11
51.772
 21
79.0
 31
0.0
  0
LINE
  5
101
100
AcDbEntity
  8
PV
  6
CONTINUOUS
 62
         3
100
AcDbLine
 10
53.125
 20
71.677
 30
0.0
 11
51.772
 21
71.0
 31
0.0
  0
LINE
  5
102
100
AcDbEntity
  8
PV
  6
CONTINUOUS
 62
         3
100
AcDbLine
 10
53.125
 20
71.677
 30
0.0
 11
74.0
 21
71.677
 31
0.0
  0
LINE
  5
103
100
AcDbEntity
  8
PV
  6
CONTINUOUS
 62
         3
100
AcDbLine
 10
53.125
 20
78.323
 30
0.0
 11
74.0
 21
78.323
 31
0.0
  0
LINE
  5
104
100
AcDbEntity
  8
PV
  6
CONTINUOUS
 62
         3
100
AcDbLine
 10
42.5
 20
81.5
 30
0.0
 11
42.5
 21
68.5
 31
0.0
  0
LINE
  5
105
100
AcDbEntity
  8
PV
  6
CENTER
 62
         3
100
AcDbLine
 10
37.0
 20
75.0
 30
0.0
 11
77.0
 21
75.0
 31
0.0
  0
LINE
  5
106
100
AcDbEntity
  8
PV
  6
CONTINUOUS
 62
         3
100
AcDbLine
 10
60.0
 20
79.7
 30
0.0
 11
64.0
 21
79.7
 31
0.0
  0
LINE
  5
107
100
AcDbEntity
  8
PV
  6
CONTINUOUS
 62
         3
100
AcDbLine
 10
60.0
 20
70.3
 30
0.0
 11
64.0
 21
70.3
 31
0.0
  0
LINE
  5
108
100
AcDbEntity
  8
PV
  6
CONTINUOUS
 62
         3
100
AcDbLine
 10
59.9
 20
79.0
 30
0.0
 11
59.9
 21
79.72
 31
0.0
  0
LINE
  5
109
100
AcDbEntity
  8
PV
  6
CONTINUOUS
 62
         3
100
AcDbLine
 10
64.1
 20
71.677
 30
0.0
 11
64.1
 21
70.28
 31
0.0
  0
LINE
  5
10A
100
AcDbEntity
  8
PV
  6
CONTINUOUS
 62
         3
100
AcDbLine
 10
59.9
 20
-9.72
 30
0.0
 11
59.9
 21
-0.28
 31
0.0
  0
LINE
  5
10B
100
AcDbEntity
  8
PV
  6
CONTINUOUS
 62
         3
100
AcDbLine
 10
60.0
 20
-0.3
 30
0.0
 11
51.5
 21
1.428
 31
0.0
  0
LINE
  5
10C
100
AcDbEntity
  8
PV
  6
CONTINUOUS
 62
         3
100
AcDbLine
 10
60.0
 20
-9.7
 30
0.0
 11
51.5
 21
-11.428
 31
0.0
  0
LINE
  5
10D
100
AcDbEntity
  8
PV
  6
CONTINUOUS
 62
         3
100
AcDbLine
 10
50.0
 20
-9.0
 30
0.0
 11
59.9
 21
-9.0
 31
0.0
  0
LINE
  5
10E
100
AcDbEntity
  8
PV
  6
CONTINUOUS
 62
         3
100
AcDbLine
 10
50.0
 20
-1.0
 30
0.0
 11
59.9
 21
-1.0
 31
0.0
  0
LINE
  5
10F
100
AcDbEntity
  8
PV
  6
CONTINUOUS
 62
         3
100
AcDbLine
 10
59.9
 20
-1.677
 30
0.0
 11
50.0
 21
-1.677
 31
0.0
  0
LINE
  5
110
100
AcDbEntity
  8
PV
  6
CONTINUOUS
 62
         3
100
AcDbLine
 10
59.9
 20
-8.323
 30
0.0
 11
50.0
 21
-8.323
 31
0.0
  0
LINE
  5
111
100
AcDbEntity
  8
PV
  6
CENTER
 62
         3
100
AcDbLine
 10
77.0
 20
-5.0
 30
0.0
 11
37.0
 21
-5.0
 31
0.0
  0
LINE
  5
112
100
AcDbEntity
  8
PV
  6
CONTINUOUS
 62
         3
100
AcDbLine
 10
64.0
 20
-9.7
 30
0.0
 11
60.0
 21
-9.7
 31
0.0
  0
LINE
  5
113
100
AcDbEntity
  8
PV
  6
CONTINUOUS
 62
         3
100
AcDbLine
 10
64.0
 20
-0.3
 30
0.0
 11
60.0
 21
-0.3
 31
0.0
  0
LINE
  5
114
100
AcDbEntity
  8
PV
  6
CONTINUOUS
 62
         3
100
AcDbLine
 10
64.1
 20
-0.28
 30
0.0
 11
64.1
 21
-9.72
 31
0.0
  0
LINE
  5
115
100
AcDbEntity
  8
PV
  6
CONTINUOUS
 62
         3
100
AcDbLine
 10
51.5
 20
1.918
 30
0.0
 11
51.5
 21
1.9
 31
0.0
  0
LINE
  5
116
100
AcDbEntity
  8
PV
  6
CONTINUOUS
 62
         3
100
AcDbLine
 10
51.5
 20
68.572
 30
0.0
 11
60.0
 21
70.3
 31
0.0
  0
LINE
  5
117
100
AcDbEntity
  8
PV
  6
CONTINUOUS
 62
         3
100
AcDbLine
 10
51.5
 20
81.428
 30
0.0
 11
60.0
 21
79.7
 31
0.0
  0
LINE
  5
118
100
AcDbEntity
  8
PV
  6
CONTINUOUS
 62
         3
100
AcDbLine
 10
72.5
 20
-11.428
 30
0.0
 11
64.0
 21
-9.7
 31
0.0
  0
LINE
  5
119
100
AcDbEntity
  8
PV
  6
CONTINUOUS
 62
         3
100
AcDbLine
 10
72.5
 20
1.428
 30
0.0
 11
64.0
 21
-0.3
 31
0.0
  0
LINE
  5
11A
100
AcDbEntity
  8
PV
  6
CENTER
 62
         3
100
AcDbLine
 10
-99.608
 20
35.0
 30
0.0
 11
0.943
 21
35.0
 31
0.0
  0
LINE
  5
11B
100
AcDbEntity
  8
PV
  6
CENTER
 62
         3
100
AcDbLine
 10
-20.845
 20
31.936
 30
0.0
 11
0.31
 21
29.712
 31
0.0
  0
LINE
  5
11C
100
AcDbEntity
  8
PV
  6
CENTER
 62
         3
100
AcDbLine
 10
-22.119
 20
44.059
 30
0.0
 11
-1.889
 21
50.632
 31
0.0
  0
LINE
  5
11D
100
AcDbEntity
  8
PV
  6
CENTER
 62
         3
100
AcDbLine
 10
-28.214
 20
54.616
 30
0.0
 11
-12.406
 21
68.849
 31
0.0
  0
LINE
  5
11E
100
AcDbEntity
  8
PV
  6
CENTER
 62
         3
100
AcDbLine
 10
-38.076
 20
61.781
 30
0.0
 11
-29.424
 21
81.214
 31
0.0
  0
LINE
  5
11F
100
AcDbEntity
  8
PV
  6
CENTER
 62
         3
100
AcDbLine
 10
-50.0
 20
-19.112
 30
0.0
 11
-50.0
 21
85.587
 31
0.0
  0
LINE
  5
120
100
AcDbEntity
  8
PV
  6
CENTER
 62
         3
100
AcDbLine
 10
-61.924
 20
61.781
 30
0.0
 11
-70.576
 21
81.214
 31
0.0
  0
LINE
  5
121
100
AcDbEntity
  8
PV
  6
CENTER
 62
         3
100
AcDbLine
 10
-71.785
 20
54.616
 30
0.0
 11
-87.594
 21
68.849
 31
0.0
  0
LINE
  5
122
100
AcDbEntity
  8
PV
  6
CENTER
 62
         3
100
AcDbLine
 10
-77.88
 20
44.059
 30
0.0
 11
-98.111
 21
50.632
 31
0.0
  0
LINE
  5
123
100
AcDbEntity
  8
PV
  6
CENTER
 62
         3
100
AcDbLine
 10
-79.154
 20
31.936
 30
0.0
 11
-100.31
 21
29.712
 31
0.0
  0
LINE
  5
124
100
AcDbEntity
  8
PV
  6
CENTER
 62
         3
100
AcDbLine
 10
-75.388
 20
20.342
 30
0.0
 11
-93.81
 21
9.706
 31
0.0
  0
LINE
  5
125
100
AcDbEntity
  8
PV
  6
CENTER
 62
         3
100
AcDbLine
 10
-67.231
 20
11.284
 30
0.0
 11
-79.734
 21
-5.926
 31
0.0
  0
LINE
  5
126
100
AcDbEntity
  8
PV
  6
CENTER
 62
         3
100
AcDbLine
 10
-56.095
 20
6.326
 30
0.0
 11
-60.518
 21
-14.482
 31
0.0
  0
LINE
  5
127
100
AcDbEntity
  8
PV
  6
CENTER
 62
         3
100
AcDbLine
 10
-43.905
 20
6.326
 30
0.0
 11
-39.482
 21
-14.482
 31
0.0
  0
LINE
  5
128
100
AcDbEntity
  8
PV
  6
CENTER
 62
         3
100
AcDbLine
 10
-32.769
 20
11.284
 30
0.0
 11
-20.266
 21
-5.926
 31
0.0
  0
LINE
  5
129
100
AcDbEntity
  8
PV
  6
CENTER
 62
         3
100
AcDbLine
 10
-24.612
 20
20.342
 30
0.0
 11
-6.19
 21
9.706
 31
0.0
  0
LINE
  5
12A
100
AcDbEntity
  8
PV
  6
CONTINUOUS
 62
         3
100
AcDbLine
 10
-33.73
 20
75.006
 30
0.0
 11
-30.73
 21
73.274
 31
0.0
  0
LINE
  5
12B
100
AcDbEntity
  8
PV
  6
CONTINUOUS
 62
         3
100
AcDbLine
 10
-33.73
 20
75.006
 30
0.0
 11
-36.731
 21
73.274
 31
0.0
  0
LINE
  5
12C
100
AcDbEntity
  8
PV
  6
CONTINUOUS
 62
         3
100
AcDbLine
 10
-33.73
 20
68.078
 30
0.0
 11
-36.731
 21
69.81
 31
0.0
  0
LINE
  5
12D
100
AcDbEntity
  8
PV
  6
CONTINUOUS
 62
         3
100
AcDbLine
 10
-33.73
 20
68.078
 30
0.0
 11
-30.73
 21
69.81
 31
0.0
  0
LINE
  5
12E
100
AcDbEntity
  8
PV
  6
CONTINUOUS
 62
         3
100
AcDbLine
 10
-30.73
 20
73.274
 30
0.0
 11
-30.73
 21
69.81
 31
0.0
  0
LINE
  5
12F
100
AcDbEntity
  8
PV
  6
CONTINUOUS
 62
         3
100
AcDbLine
 10
-36.731
 20
73.274
 30
0.0
 11
-36.731
 21
69.81
 31
0.0
  0
LINE
  5
130
100
AcDbEntity
  8
PV
  6
CONTINUOUS
 62
         3
100
AcDbLine
 10
-20.274
 20
65.229
 30
0.0
 11
-17.274
 21
63.497
 31
0.0
  0
LINE
  5
131
100
AcDbEntity
  8
PV
  6
CONTINUOUS
 62
         3
100
AcDbLine
 10
-20.274
 20
65.229
 30
0.0
 11
-23.274
 21
63.497
 31
0.0
  0
LINE
  5
132
100
AcDbEntity
  8
PV
  6
CONTINUOUS
 62
         3
100
AcDbLine
 10
-20.274
 20
58.301
 30
0.0
 11
-23.274
 21
60.033
 31
0.0
  0
LINE
  5
133
100
AcDbEntity
  8
PV
  6
CONTINUOUS
 62
         3
100
AcDbLine
 10
-20.274
 20
58.301
 30
0.0
 11
-17.274
 21
60.033
 31
0.0
  0
LINE
  5
134
100
AcDbEntity
  8
PV
  6
CONTINUOUS
 62
         3
100
AcDbLine
 10
-17.274
 20
63.497
 30
0.0
 11
-17.274
 21
60.033
 31
0.0
  0
LINE
  5
135
100
AcDbEntity
  8
PV
  6
CONTINUOUS
 62
         3
100
AcDbLine
 10
-23.274
 20
63.497
 30
0.0
 11
-23.274
 21
60.033
 31
0.0
  0
LINE
  5
136
100
AcDbEntity
  8
PV
  6
CONTINUOUS
 62
         3
100
AcDbLine
 10
-11.958
 20
50.825
 30
0.0
 11
-8.958
 21
49.093
 31
0.0
  0
LINE
  5
137
100
AcDbEntity
  8
PV
  6
CONTINUOUS
 62
         3
100
AcDbLine
 10
-11.958
 20
50.825
 30
0.0
 11
-14.958
 21
49.093
 31
0.0
  0
LINE
  5
138
100
AcDbEntity
  8
PV
  6
CONTINUOUS
 62
         3
100
AcDbLine
 10
-11.958
 20
43.897
 30
0.0
 11
-14.958
 21
45.629
 31
0.0
  0
LINE
  5
139
100
AcDbEntity
  8
PV
  6
CONTINUOUS
 62
         3
100
AcDbLine
 10
-11.958
 20
43.897
 30
0.0
 11
-8.958
 21
45.629
 31
0.0
  0
LINE
  5
13A
100
AcDbEntity
  8
PV
  6
CONTINUOUS
 62
         3
100
AcDbLine
 10
-8.958
 20
49.093
 30
0.0
 11
-8.958
 21
45.629
 31
0.0
  0
LINE
  5
13B
100
AcDbEntity
  8
PV
  6
CONTINUOUS
 62
         3
100
AcDbLine
 10
-14.958
 20
49.093
 30
0.0
 11
-14.958
 21
45.629
 31
0.0
  0
LINE
  5
13C
100
AcDbEntity
  8
PV
  6
CONTINUOUS
 62
         3
100
AcDbLine
 10
-10.219
 20
34.283
 30
0.0
 11
-7.219
 21
32.551
 31
0.0
  0
LINE
  5
13D
100
AcDbEntity
  8
PV
  6
CONTINUOUS
 62
         3
100
AcDbLine
 10
-10.219
 20
34.283
 30
0.0
 11
-13.219
 21
32.551
 31
0.0
  0
LINE
  5
13E
100
AcDbEntity
  8
PV
  6
CONTINUOUS
 62
         3
100
AcDbLine
 10
-10.219
 20
27.355
 30
0.0
 11
-13.219
 21
29.087
 31
0.0
  0
LINE
  5
13F
100
AcDbEntity
  8
PV
  6
CONTINUOUS
 62
         3
100
AcDbLine
 10
-10.219
 20
27.355
 30
0.0
 11
-7.219
 21
29.087
 31
0.0
  0
LINE
  5
140
100
AcDbEntity
  8
PV
  6
CONTINUOUS
 62
         3
100
AcDbLine
 10
-7.219
 20
32.551
 30
0.0
 11
-7.219
 21
29.087
 31
0.0
  0
LINE
  5
141
100
AcDbEntity
  8
PV
  6
CONTINUOUS
 62
         3
100
AcDbLine
 10
-13.219
 20
32.551
 30
0.0
 11
-13.219
 21
29.087
 31
0.0
  0
LINE
  5
142
100
AcDbEntity
  8
PV
  6
CONTINUOUS
 62
         3
100
AcDbLine
 10
-26.489
 20
6.103
 30
0.0
 11
-23.489
 21
4.371
 31
0.0
  0
LINE
  5
143
100
AcDbEntity
  8
PV
  6
CONTINUOUS
 62
         3
100
AcDbLine
 10
-26.489
 20
6.103
 30
0.0
 11
-29.489
 21
4.371
 31
0.0
  0
LINE
  5
144
100
AcDbEntity
  8
PV
  6
CONTINUOUS
 62
         3
100
AcDbLine
 10
-26.489
 20
-0.825
 30
0.0
 11
-29.489
 21
0.907
 31
0.0
  0
LINE
  5
145
100
AcDbEntity
  8
PV
  6
CONTINUOUS
 62
         3
100
AcDbLine
 10
-26.489
 20
-0.825
 30
0.0
 11
-23.489
 21
0.907
 31
0.0
  0
LINE
  5
146
100
AcDbEntity
  8
PV
  6
CONTINUOUS
 62
         3
100
AcDbLine
 10
-23.489
 20
4.371
 30
0.0
 11
-23.489
 21
0.907
 31
0.0
  0
LINE
  5
147
100
AcDbEntity
  8
PV
  6
CONTINUOUS
 62
         3
100
AcDbLine
 10
-29.489
 20
4.371
 30
0.0
 11
-29.489
 21
0.907
 31
0.0
  0
LINE
  5
148
100
AcDbEntity
  8
PV
  6
CONTINUOUS
 62
         3
100
AcDbLine
 10
-41.684
 20
-0.662
 30
0.0
 11
-38.684
 21
-2.394
 31
0.0
  0
LINE
  5
149
100
AcDbEntity
  8
PV
  6
CONTINUOUS
 62
         3
100
AcDbLine
 10
-41.684
 20
-0.662
 30
0.0
 11
-44.684
 21
-2.394
 31
0.0
  0
LINE
  5
14A
100
AcDbEntity
  8
PV
  6
CONTINUOUS
 62
         3
100
AcDbLine
 10
-41.684
 20
-7.59
 30
0.0
 11
-44.684
 21
-5.858
 31
0.0
  0
LINE
  5
14B
100
AcDbEntity
  8
PV
  6
CONTINUOUS
 62
         3
100
AcDbLine
 10
-41.684
 20
-7.59
 30
0.0
 11
-38.684
 21
-5.858
 31
0.0
  0
LINE
  5
14C
100
AcDbEntity
  8
PV
  6
CONTINUOUS
 62
         3
100
AcDbLine
 10
-38.684
 20
-2.394
 30
0.0
 11
-38.684
 21
-5.858
 31
0.0
  0
LINE
  5
14D
100
AcDbEntity
  8
PV
  6
CONTINUOUS
 62
         3
100
AcDbLine
 10
-44.684
 20
-2.394
 30
0.0
 11
-44.684
 21
-5.858
 31
0.0
  0
LINE
  5
14E
100
AcDbEntity
  8
PV
  6
CONTINUOUS
 62
         3
100
AcDbLine
 10
-58.316
 20
-0.662
 30
0.0
 11
-55.316
 21
-2.394
 31
0.0
  0
LINE
  5
14F
100
AcDbEntity
  8
PV
  6
CONTINUOUS
 62
         3
100
AcDbLine
 10
-58.316
 20
-0.662
 30
0.0
 11
-61.316
 21
-2.394
 31
0.0
  0
LINE
  5
150
100
AcDbEntity
  8
PV
  6
CONTINUOUS
 62
         3
100
AcDbLine
 10
-58.316
 20
-7.59
 30
0.0
 11
-61.316
 21
-5.858
 31
0.0
  0
LINE
  5
151
100
AcDbEntity
  8
PV
  6
CONTINUOUS
 62
         3
100
AcDbLine
 10
-58.316
 20
-7.59
 30
0.0
 11
-55.316
 21
-5.858
 31
0.0
  0
LINE
  5
152
100
AcDbEntity
  8
PV
  6
CONTINUOUS
 62
         3
100
AcDbLine
 10
-55.316
 20
-2.394
 30
0.0
 11
-55.316
 21
-5.858
 31
0.0
  0
LINE
  5
153
100
AcDbEntity
  8
PV
  6
CONTINUOUS
 62
         3
100
AcDbLine
 10
-61.316
 20
-2.394
 30
0.0
 11
-61.316
 21
-5.858
 31
0.0
  0
LINE
  5
154
100
AcDbEntity
  8
PV
  6
CONTINUOUS
 62
         3
100
AcDbLine
 10
-73.511
 20
6.103
 30
0.0
 11
-70.511
 21
4.371
 31
0.0
  0
LINE
  5
155
100
AcDbEntity
  8
PV
  6
CONTINUOUS
 62
         3
100
AcDbLine
 10
-73.511
 20
6.103
 30
0.0
 11
-76.511
 21
4.371
 31
0.0
  0
LINE
  5
156
100
AcDbEntity
  8
PV
  6
CONTINUOUS
 62
         3
100
AcDbLine
 10
-73.511
 20
-0.825
 30
0.0
 11
-76.511
 21
0.907
 31
0.0
  0
LINE
  5
157
100
AcDbEntity
  8
PV
  6
CONTINUOUS
 62
         3
100
AcDbLine
 10
-73.511
 20
-0.825
 30
0.0
 11
-70.511
 21
0.907
 31
0.0
  0
LINE
  5
158
100
AcDbEntity
  8
PV
  6
CONTINUOUS
 62
         3
100
AcDbLine
 10
-70.511
 20
4.371
 30
0.0
 11
-70.511
 21
0.907
 31
0.0
  0
LINE
  5
159
100
AcDbEntity
  8
PV
  6
CONTINUOUS
 62
         3
100
AcDbLine
 10
-76.511
 20
4.371
 30
0.0
 11
-76.511
 21
0.907
 31
0.0
  0
LINE
  5
15A
100
AcDbEntity
  8
PV
  6
CONTINUOUS
 62
         3
100
AcDbLine
 10
-89.781
 20
34.283
 30
0.0
 11
-86.781
 21
32.551
 31
0.0
  0
LINE
  5
15B
100
AcDbEntity
  8
PV
  6
CONTINUOUS
 62
         3
100
AcDbLine
 10
-89.781
 20
34.283
 30
0.0
 11
-92.781
 21
32.551
 31
0.0
  0
LINE
  5
15C
100
AcDbEntity
  8
PV
  6
CONTINUOUS
 62
         3
100
AcDbLine
 10
-89.781
 20
27.355
 30
0.0
 11
-92.781
 21
29.087
 31
0.0
  0
LINE
  5
15D
100
AcDbEntity
  8
PV
  6
CONTINUOUS
 62
         3
100
AcDbLine
 10
-89.781
 20
27.355
 30
0.0
 11
-86.781
 21
29.087
 31
0.0
  0
LINE
  5
15E
100
AcDbEntity
  8
PV
  6
CONTINUOUS
 62
         3
100
AcDbLine
 10
-86.781
 20
32.551
 30
0.0
 11
-86.781
 21
29.087
 31
0.0
  0
LINE
  5
15F
100
AcDbEntity
  8
PV
  6
CONTINUOUS
 62
         3
100
AcDbLine
 10
-92.781
 20
32.551
 30
0.0
 11
-92.781
 21
29.087
 31
0.0
  0
LINE
  5
160
100
AcDbEntity
  8
PV
  6
CONTINUOUS
 62
         3
100
AcDbLine
 10
-88.042
 20
50.825
 30
0.0
 11
-85.042
 21
49.093
 31
0.0
  0
LINE
  5
161
100
AcDbEntity
  8
PV
  6
CONTINUOUS
 62
         3
100
AcDbLine
 10
-88.042
 20
50.825
 30
0.0
 11
-91.042
 21
49.093
 31
0.0
  0
LINE
  5
162
100
AcDbEntity
  8
PV
  6
CONTINUOUS
 62
         3
100
AcDbLine
 10
-88.042
 20
43.897
 30
0.0
 11
-91.042
 21
45.629
 31
0.0
  0
LINE
  5
163
100
AcDbEntity
  8
PV
  6
CONTINUOUS
 62
         3
100
AcDbLine
 10
-88.042
 20
43.897
 30
0.0
 11
-85.042
 21
45.629
 31
0.0
  0
LINE
  5
164
100
AcDbEntity
  8
PV
  6
CONTINUOUS
 62
         3
100
AcDbLine
 10
-85.042
 20
49.093
 30
0.0
 11
-85.042
 21
45.629
 31
0.0
  0
LINE
  5
165
100
AcDbEntity
  8
PV
  6
CONTINUOUS
 62
         3
100
AcDbLine
 10
-91.042
 20
49.093
 30
0.0
 11
-91.042
 21
45.629
 31
0.0
  0
LINE
  5
166
100
AcDbEntity
  8
PV
  6
CONTINUOUS
 62
         3
100
AcDbLine
 10
-79.726
 20
65.229
 30
0.0
 11
-76.726
 21
63.497
 31
0.0
  0
LINE
  5
167
100
AcDbEntity
  8
PV
  6
CONTINUOUS
 62
         3
100
AcDbLine
 10
-79.726
 20
65.229
 30
0.0
 11
-82.726
 21
63.497
 31
0.0
  0
LINE
  5
168
100
AcDbEntity
  8
PV
  6
CONTINUOUS
 62
         3
100
AcDbLine
 10
-79.726
 20
58.301
 30
0.0
 11
-82.726
 21
60.033
 31
0.0
  0
LINE
  5
169
100
AcDbEntity
  8
PV
  6
CONTINUOUS
 62
         3
100
AcDbLine
 10
-79.726
 20
58.301
 30
0.0
 11
-76.726
 21
60.033
 31
0.0
  0
LINE
  5
16A
100
AcDbEntity
  8
PV
  6
CONTINUOUS
 62
         3
100
AcDbLine
 10
-76.726
 20
63.497
 30
0.0
 11
-76.726
 21
60.033
 31
0.0
  0
LINE
  5
16B
100
AcDbEntity
  8
PV
  6
CONTINUOUS
 62
         3
100
AcDbLine
 10
-82.726
 20
63.497
 30
0.0
 11
-82.726
 21
60.033
 31
0.0
  0
LINE
  5
16C
100
AcDbEntity
  8
PV
  6
CONTINUOUS
 62
         3
100
AcDbLine
 10
-66.269
 20
75.006
 30
0.0
 11
-63.269
 21
73.274
 31
0.0
  0
LINE
  5
16D
100
AcDbEntity
  8
PV
  6
CONTINUOUS
 62
         3
100
AcDbLine
 10
-66.269
 20
75.006
 30
0.0
 11
-69.269
 21
73.274
 31
0.0
  0
LINE
  5
16E
100
AcDbEntity
  8
PV
  6
CONTINUOUS
 62
         3
100
AcDbLine
 10
-66.27
 20
68.078
 30
0.0
 11
-69.269
 21
69.81
 31
0.0
  0
LINE
  5
16F
100
AcDbEntity
  8
PV
  6
CONTINUOUS
 62
         3
100
AcDbLine
 10
-66.269
 20
68.078
 30
0.0
 11
-63.269
 21
69.81
 31
0.0
  0
LINE
  5
170
100
AcDbEntity
  8
PV
  6
CONTINUOUS
 62
         3
100
AcDbLine
 10
-63.269
 20
73.274
 30
0.0
 11
-63.269
 21
69.81
 31
0.0
  0
LINE
  5
171
100
AcDbEntity
  8
PV
  6
CONTINUOUS
 62
         3
100
AcDbLine
 10
-69.269
 20
73.274
 30
0.0
 11
-69.269
 21
69.81
 31
0.0
  0
LINE
  5
172
100
AcDbEntity
  8
PV
  6
CONTINUOUS
 62
         3
100
AcDbLine
 10
-3.461
 20
36.0
 30
0.0
 11
-2.511
 21
36.0
 31
0.0
  0
LINE
  5
173
100
AcDbEntity
  8
PV
  6
CONTINUOUS
 62
         3
100
AcDbLine
 10
-3.461
 20
34.0
 30
0.0
 11
-2.511
 21
34.0
 31
0.0
  0
LINE
  5
174
100
AcDbEntity
  8
PV
  6
CONTINUOUS
 62
         3
100
AcDbLine
 10
-49.0
 20
67.485
 30
0.0
 11
-49.0
 21
68.435
 31
0.0
  0
LINE
  5
175
100
AcDbEntity
  8
PV
  6
CONTINUOUS
 62
         3
100
AcDbLine
 10
-51.0
 20
67.485
 30
0.0
 11
-51.0
 21
68.435
 31
0.0
  0
CIRCLE
  5
176
100
AcDbEntity
  8
PV
  6
CONTINUOUS
 62
         3
100
AcDbCircle
 10
-50.0
 20
35.0
 30
0.0
 40
46.55
  0
CIRCLE
  5
177
100
AcDbEntity
  8
PV
  6
CONTINUOUS
 62
         3
100
AcDbCircle
 10
-50.0
 20
35.0
 30
0.0
 40
33.45
  0
CIRCLE
  5
178
100
AcDbEntity
  8
PV
  6
CENTER
 62
         3
100
AcDbCircle
 10
-50.0
 20
35.0
 30
0.0
 40
40.0
  0
CIRCLE
  5
179
100
AcDbEntity
  8
PV
  6
CONTINUOUS
 62
         3
100
AcDbCircle
 10
-50.0
 20
75.0
 30
0.0
 40
4.0
  0
CIRCLE
  5
17A
100
AcDbEntity
  8
PV
  6
CONTINUOUS
 62
         3
100
AcDbCircle
 10
-84.641
 20
15.0
 30
0.0
 40
4.0
  0
CIRCLE
  5
17B
100
AcDbEntity
  8
PV
  6
CONTINUOUS
 62
         3
100
AcDbCircle
 10
-15.359
 20
15.0
 30
0.0
 40
4.0
  0
CIRCLE
  5
17C
100
AcDbEntity
  8
PV
  6
CONTINUOUS
 62
         3
100
AcDbCircle
 10
-15.359
 20
15.0
 30
0.0
 40
3.33
  0
CIRCLE
  5
17D
100
AcDbEntity
  8
PV
  6
CONTINUOUS
 62
         3
100
AcDbCircle
 10
-50.0
 20
75.0
 30
0.0
 40
3.33
  0
CIRCLE
  5
17E
100
AcDbEntity
  8
PV
  6
CONTINUOUS
 62
         3
100
AcDbCircle
 10
-84.641
 20
15.0
 30
0.0
 40
3.33
  0
CIRCLE
  5
17F
100
AcDbEntity
  8
PV
  6
CONTINUOUS
 62
         3
100
AcDbCircle
 10
-33.73
 20
71.542
 30
0.0
 40
6.5
  0
CIRCLE
  5
180
100
AcDbEntity
  8
PV
  6
CONTINUOUS
 62
         3
100
AcDbCircle
 10
-33.73
 20
71.542
 30
0.0
 40
5.634
  0
CIRCLE
  5
181
100
AcDbEntity
  8
PV
  6
CONTINUOUS
 62
         3
100
AcDbCircle
 10
-20.274
 20
61.765
 30
0.0
 40
6.5
  0
CIRCLE
  5
182
100
AcDbEntity
  8
PV
  6
CONTINUOUS
 62
         3
100
AcDbCircle
 10
-20.274
 20
61.765
 30
0.0
 40
5.634
  0
CIRCLE
  5
183
100
AcDbEntity
  8
PV
  6
CONTINUOUS
 62
         3
100
AcDbCircle
 10
-11.958
 20
47.361
 30
0.0
 40
6.5
  0
CIRCLE
  5
184
100
AcDbEntity
  8
PV
  6
CONTINUOUS
 62
         3
100
AcDbCircle
 10
-11.958
 20
47.361
 30
0.0
 40
5.634
  0
CIRCLE
  5
185
100
AcDbEntity
  8
PV
  6
CONTINUOUS
 62
         3
100
AcDbCircle
 10
-10.219
 20
30.819
 30
0.0
 40
6.5
  0
CIRCLE
  5
186
100
AcDbEntity
  8
PV
  6
CONTINUOUS
 62
         3
100
AcDbCircle
 10
-10.219
 20
30.819
 30
0.0
 40
5.634
  0
CIRCLE
  5
187
100
AcDbEntity
  8
PV
  6
CONTINUOUS
 62
         3
100
AcDbCircle
 10
-26.489
 20
2.639
 30
0.0
 40
6.5
  0
CIRCLE
  5
188
100
AcDbEntity
  8
PV
  6
CONTINUOUS
 62
         3
100
AcDbCircle
 10
-26.489
 20
2.639
 30
0.0
 40
5.634
  0
CIRCLE
  5
189
100
AcDbEntity
  8
PV
  6
CONTINUOUS
 62
         3
100
AcDbCircle
 10
-41.684
 20
-4.126
 30
0.0
 40
6.5
  0
CIRCLE
  5
18A
100
AcDbEntity
  8
PV
  6
CONTINUOUS
 62
         3
100
AcDbCircle
 10
-41.684
 20
-4.126
 30
0.0
 40
5.634
  0
CIRCLE
  5
18B
100
AcDbEntity
  8
PV
  6
CONTINUOUS
 62
         3
100
AcDbCircle
 10
-58.316
 20
-4.126
 30
0.0
 40
6.5
  0
CIRCLE
  5
18C
100
AcDbEntity
  8
PV
  6
CONTINUOUS
 62
         3
100
AcDbCircle
 10
-58.316
 20
-4.126
 30
0.0
 40
5.634
  0
CIRCLE
  5
18D
100
AcDbEntity
  8
PV
  6
CONTINUOUS
 62
         3
100
AcDbCircle
 10
-73.511
 20
2.639
 30
0.0
 40
6.5
  0
CIRCLE
  5
18E
100
AcDbEntity
  8
PV
  6
CONTINUOUS
 62
         3
100
AcDbCircle
 10
-73.511
 20
2.639
 30
0.0
 40
5.634
  0
CIRCLE
  5
18F
100
AcDbEntity
  8
PV
  6
CONTINUOUS
 62
         3
100
AcDbCircle
 10
-89.781
 20
30.819
 30
0.0
 40
6.5
  0
CIRCLE
  5
190
100
AcDbEntity
  8
PV
  6
CONTINUOUS
 62
         3
100
AcDbCircle
 10
-89.781
 20
30.819
 30
0.0
 40
5.634
  0
CIRCLE
  5
191
100
AcDbEntity
  8
PV
  6
CONTINUOUS
 62
         3
100
AcDbCircle
 10
-88.042
 20
47.361
 30
0.0
 40
6.5
  0
CIRCLE
  5
192
100
AcDbEntity
  8
PV
  6
CONTINUOUS
 62
         3
100
AcDbCircle
 10
-88.042
 20
47.361
 30
0.0
 40
5.634
  0
CIRCLE
  5
193
100
AcDbEntity
  8
PV
  6
CONTINUOUS
 62
         3
100
AcDbCircle
 10
-79.726
 20
61.765
 30
0.0
 40
6.5
  0
CIRCLE
  5
194
100
AcDbEntity
  8
PV
  6
CONTINUOUS
 62
         3
100
AcDbCircle
 10
-79.726
 20
61.765
 30
0.0
 40
5.634
  0
CIRCLE
  5
195
100
AcDbEntity
  8
PV
  6
CONTINUOUS
 62
         3
100
AcDbCircle
 10
-66.269
 20
71.542
 30
0.0
 40
6.5
  0
CIRCLE
  5
196
100
AcDbEntity
  8
PV
  6
CONTINUOUS
 62
         3
100
AcDbCircle
 10
-66.269
 20
71.542
 30
0.0
 40
5.634
  0
ENDSEC
  0
SECTION
  2
OBJECTS
  0
DICTIONARY
  5
19
100
AcDbDictionary
  3
ACAD_GROUP
350
1A
  3
ACAD_MLINESTYLE
350
1B
  0
DICTIONARY
  5
1A
102
{ACAD_REACTORS
330
19
102
}
100
AcDbDictionary
  0
DICTIONARY
  5
1B
102
{ACAD_REACTORS
330
19
102
}
100
AcDbDictionary
  3
STANDARD
350
1C
  0
MLINESTYLE
  5
1C
102
{ACAD_REACTORS
330
1B
102
}
100
AcDbMlineStyle
  2
Standard
 70
         0
  3

 62
         0
 51
90.0
 52
90.0
 71
         2
 49
0.5
 62
       256
  6
ByLayer
 49
-0.5
 62
       256
  6
ByLayer
  0
ENDSEC
  0
EOF
