  0
SECTION
  2
HEADER
  9
$ACADVER
  1
AC1014
  9
$ACADMAINTVER
 70
         0
  9
$DWGCODEPAGE
  3
ANSI_932
  9
$INSBASE
 10
0.0
 20
0.0
 30
0.0
  9
$EXTMIN
 10
-103.352
 20
-110.0
 30
0.0
  9
$EXTMAX
 10
232.6773169402
 20
188.6297955316
 30
0.0
  9
$LIMMIN
 10
-103.352
 20
-110.0
  9
$LIMMAX
 10
232.6773169402
 20
188.6297955316
  9
$ORTHOMODE
 70
         0
  9
$REGENMODE
 70
         1
  9
$FILLMODE
 70
         1
  9
$QTEXTMODE
 70
         0
  9
$MIRRTEXT
 70
         1
  9
$DRAGMODE
 70
         2
  9
$LTSCALE
 40
1.0
  9
$OSMODE
 70
         0
  9
$ATTMODE
 70
         1
  9
$TEXTSIZE
 40
3.2000000477
  9
$TRACEWID
 40
0.05
  9
$TEXTSTYLE
  7
MX_NOTE_STANDARD
  9
$CLAYER
  8
0
  9
$CELTYPE
  6
CONTINUOUS
  9
$CECOLOR
 62
       256
  9
$CELTSCALE
 40
1.0
  9
$DELOBJ
 70
         1
  9
$DISPSILH
 70
         0
  9
$DIMSCALE
 40
1.0
  9
$DIMASZ
 40
2.5
  9
$DIMEXO
 40
0.0
  9
$DIMDLI
 40
3.75
  9
$DIMRND
 40
0.0
  9
$DIMDLE
 40
0.0
  9
$DIMEXE
 40
2.5
  9
$DIMTP
 40
0.0
  9
$DIMTM
 40
0.0
  9
$DIMTXT
 40
3.2000000477
  9
$DIMCEN
 40
2.5
  9
$DIMTSZ
 40
0.0
  9
$DIMTOL
 70
         0
  9
$DIMLIM
 70
         0
  9
$DIMTIH
 70
         0
  9
$DIMTOH
 70
         0
  9
$DIMSE1
 70
         0
  9
$DIMSE2
 70
         0
  9
$DIMTAD
 70
         1
  9
$DIMZIN
 70
         8
  9
$DIMBLK
  1

  9
$DIMASO
 70
         1
  9
$DIMSHO
 70
         1
  9
$DIMPOST
  1

  9
$DIMAPOST
  1

  9
$DIMALT
 70
         0
  9
$DIMALTD
 70
         4
  9
$DIMALTF
 40
0.0393700787
  9
$DIMLFAC
 40
1.0
  9
$DIMTOFL
 70
         1
  9
$DIMTVP
 40
0.0
  9
$DIMTIX
 70
         0
  9
$DIMSOXD
 70
         0
  9
$DIMSAH
 70
         1
  9
$DIMBLK1
  1
_OPEN30
  9
$DIMBLK2
  1
_OPEN30
  9
$DIMSTYLE
  2
MXDIMSTYLE
  9
$DIMCLRD
 70
         0
  9
$DIMCLRE
 70
         0
  9
$DIMCLRT
 70
         0
  9
$DIMTFAC
 40
1.0
  9
$DIMGAP
 40
1.0
  9
$DIMJUST
 70
         0
  9
$DIMSD1
 70
         0
  9
$DIMSD2
 70
         0
  9
$DIMTOLJ
 70
         0
  9
$DIMTZIN
 70
         0
  9
$DIMALTZ
 70
         0
  9
$DIMALTTZ
 70
         0
  9
$DIMFIT
 70
         3
  9
$DIMUPT
 70
         0
  9
$DIMUNIT
 70
         2
  9
$DIMDEC
 70
         2
  9
$DIMTDEC
 70
         2
  9
$DIMALTU
 70
         2
  9
$DIMALTTD
 70
         4
  9
$DIMTXSTY
  7
MX_NOTE_STANDARD
  9
$DIMAUNIT
 70
         0
  9
$LUNITS
 70
         2
  9
$LUPREC
 70
         4
  9
$SKETCHINC
 40
0.1
  9
$FILLETRAD
 40
0.0
  9
$AUNITS
 70
         0
  9
$AUPREC
 70
         0
  9
$MENU
  1
acad
  9
$ELEVATION
 40
0.0
  9
$PELEVATION
 40
0.0
  9
$THICKNESS
 40
0.0
  9
$LIMCHECK
 70
         0
  9
$BLIPMODE
 70
         1
  9
$CHAMFERA
 40
0.0
  9
$CHAMFERB
 40
0.0
  9
$CHAMFERC
 40
0.0
  9
$CHAMFERD
 40
0.0
  9
$SKPOLY
 70
         0
  9
$TDCREATE
 40
2456603.419247685
  9
$TDUPDATE
 40
2456603.419247685
  9
$TDINDWG
 40
0.0000000000
  9
$TDUSRTIMER
 40
0.0000000000
  9
$USRTIMER
 70
         1
  9
$ANGBASE
 50
0.0
  9
$ANGDIR
 70
         0
  9
$PDMODE
 70
         0
  9
$PDSIZE
 40
0.0
  9
$PLINEWID
 40
0.0
  9
$COORDS
 70
         1
  9
$SPLFRAME
 70
         0
  9
$SPLINETYPE
 70
         6
  9
$SPLINESEGS
 70
         8
  9
$ATTDIA
 70
         0
  9
$ATTREQ
 70
         1
  9
$HANDLING
 70
         1
  9
$HANDSEED
  5
19E
  9
$SURFTAB1
 70
         6
  9
$SURFTAB2
 70
         6
  9
$SURFTYPE
 70
         6
  9
$SURFU
 70
         6
  9
$SURFV
 70
         6
  9
$UCSNAME
  2

  9
$UCSORG
 10
0.0
 20
0.0
 30
0.0
  9
$UCSXDIR
 10
1.0
 20
0.0
 30
0.0
  9
$UCSYDIR
 10
0.0
 20
1.0
 30
0.0
  9
$PUCSNAME
  2

  9
$PUCSORG
 10
0.0
 20
0.0
 30
0.0
  9
$PUCSXDIR
 10
1.0
 20
0.0
 30
0.0
  9
$PUCSYDIR
 10
0.0
 20
1.0
 30
0.0
  9
$USERI1
 70
         0
  9
$USERI2
 70
         0
  9
$USERI3
 70
         0
  9
$USERI4
 70
         0
  9
$USERI5
 70
         0
  9
$USERR1
 40
0.0
  9
$USERR2
 40
0.0
  9
$USERR3
 40
0.0
  9
$USERR4
 40
0.0
  9
$USERR5
 40
0.0
  9
$WORLDVIEW
 70
         1
  9
$SHADEDGE
 70
         3
  9
$SHADEDIF
 70
        70
  9
$TILEMODE
 70
         1
  9
$MAXACTVP
 70
        16
  9
$PINSBASE
 10
0.0
 20
0.0
 30
0.0
  9
$PLIMCHECK
 70
         0
  9
$PEXTMIN
 10
1.0000000000E+20
 20
1.0000000000E+20
 30
1.0000000000E+20
  9
$PEXTMAX
 10
-1.0000000000E+20
 20
-1.0000000000E+20
 30
-1.0000000000E+20
  9
$PLIMMIN
 10
0.0
 20
0.0
  9
$PLIMMAX
 10
12.0
 20
9.0
  9
$UNITMODE
 70
         0
  9
$VISRETAIN
 70
         0
  9
$PLINEGEN
 70
         1
  9
$PSLTSCALE
 70
         0
  9
$TREEDEPTH
 70
      3020
  9
$PICKSTYLE
 70
         1
  9
$CMLSTYLE
  2
Standard
  9
$CMLJUST
 70
         0
  9
$CMLSCALE
 40
1.0
  9
$PROXYGRAPHICS
 70
         0
  9
$MEASUREMENT
 70
         1
  0
ENDSEC
  0
SECTION
  2
CLASSES
  0
CLASS
  1
LWPOLYLINE
  2
AcDbPolyline
  3
"AutoCAD"
 90
        0
280
         0
281
         1
  0
CLASS
  1
IMAGE
  2
AcDbRasterImage
  3
ISM
 90
      127
280
         0
281
         1
  0
CLASS
  1
OLE2FRAME
  2
AcDbOle2Frame
  3
""
 90
        0
280
         0
281
         1
  0
CLASS
  1
HATCH
  2
AcDbHatch
  3
"ACAD_SEDONA"
 90
        0
280
         0
281
         1
  0
CLASS
  1
DICTIONARYVAR
  2
AcDbDictionaryVar
  3
"AutoCAD"
 90
        0
280
         0
281
         0
  0
CLASS
  1
RASTERVARIABLES
  2
AcDbRasterVariables
  3
ISM
 90
        0
280
         0
281
         0
  0
CLASS
  1
IMAGEDEF
  2
AcDbRasterImageDef
  3
ISM
 90
        0
280
         0
281
         0
  0
CLASS
  1
IMAGEDEF_REACTOR
  2
AcDbRasterImageDefReactor
  3
ISM
 90
        1
280
         0
281
         0
  0
CLASS
  1
IDBUFFER
  2
AcDbIdBuffer
  3
"Acad"
 90
        0
280
         0
281
         0
  0
CLASS
  1
SPATIAL_FILTER
  2
AcDbSpatialFilter
  3
"Acad"
 90
        0
280
         0
281
         0
  0
CLASS
  1
XRECORD
  2
AcDbXrecord
  3
"<Built In>"
 90
        0
280
         0
281
         0
  0
CLASS
  1
SORTENTSTABLE
  2
AcDbSortentsTable
  3
"AutoCAD"
 90
        0
280
         0
281
         0
  0
CLASS
  1
LAYER_INDEX
  2
AcDbLayerIndex
  3
"Acad"
 90
        0
280
         0
281
         0
  0
CLASS
  1
SPATIAL_INDEX
  2
AcDbSpatialIndex
  3
"Acad"
 90
        0
280
         0
281
         0
  0
CLASS
  1
OBJECT_PTR
  2
CAseDLPNTableRecord
  3
"ASE-LPNTableRecord"
 90
        1
280
         0
281
         0
  0
CLASS
  1
LAYOUT
  2
AcDbLayout
  3
"AutoCAD 2000"
 90
        0
280
         0
281
         0
  0
CLASS
  1
PLOTSETTINGS
  2
AcDbPlotSettings
  3
"AutoCAD 2000"
 90
        0
280
         0
281
         0
  0
CLASS
  1
ACDBDICTIONARYWDFLT
  2
AcDbDictionaryWithDefault
  3
"AutoCAD 2000"
 90
        0
280
         0
281
         0
  0
CLASS
  1
ACDBPLACEHOLDER
  2
AcDbPlaceHolder
  3
"AutoCAD 2000"
 90
        0
280
         0
281
         0
  0
ENDSEC
  0
SECTION
  2
TABLES
  0
TABLE
  2
VPORT
  5
7
100
AcDbSymbolTable
 70
         1
  0
VPORT
  5
15
100
AcDbSymbolTableRecord
100
AcDbViewportTableRecord
  2
*ACTIVE
 70
         0
 10
0.0
 20
0.0
 11
1.0
 21
1.0
 12
64.6626584701
 22
39.3148977658
 13
0.0
 23
0.0
 14
1.0
 24
1.0
 15
0.0
 25
0.0
 16
0.0
 26
0.0
 36
1.0
 17
0.0
 27
0.0
 37
0.0
 40
301.6160934869
 41
1.7320508076
 42
50.0
 43
0.0
 44
0.0
 50
0.0
 51
0.0
 71
         0
 72
       100
 73
         1
 74
         1
 75
         0
 76
         0
 77
         0
 78
         0
  0
ENDTAB
  0
TABLE
  2
LTYPE
  5
4
100
AcDbSymbolTable
 70
         4
  0
LTYPE
  5
11
100
AcDbSymbolTableRecord
100
AcDbLinetypeTableRecord
  2
BYBLOCK
 70
        64
  3

 72
        65
 73
         0
 40
0.0
  0
LTYPE
  5
12
100
AcDbSymbolTableRecord
100
AcDbLinetypeTableRecord
  2
BYLAYER
 70
        64
  3

 72
        65
 73
         0
 40
0.0
  0
LTYPE
  5
13
100
AcDbSymbolTableRecord
100
AcDbLinetypeTableRecord
  2
CONTINUOUS
 70
        64
  3
Solid line
 72
        65
 73
         0
 40
0.0
  0
LTYPE
  5
10F
100
AcDbSymbolTableRecord
100
AcDbLinetypeTableRecord
  2
CENTER
 70
        64
  3
Center ____ _ ____ _ ____ _ ____ _ ____ _ ____
 72
        65
 73
         4
 40
50.8
 49
31.75
 74
         0
 49
-6.35
 74
         0
 49
6.35
 74
         0
 49
-6.35
 74
         0
  0
ENDTAB
  0
TABLE
  2
LAYER
  5
2
100
AcDbSymbolTable
 70
         3
  0
LAYER
  5
14
100
AcDbSymbolTableRecord
100
AcDbLayerTableRecord
  2
0
 70
         0
 62
         7
  6
CONTINUOUS
  0
LAYER
  5
1D
100
AcDbSymbolTableRecord
100
AcDbLayerTableRecord
  2
PV
 70
         0
 62
         3
  6
CONTINUOUS
  0
LAYER
  5
1E
100
AcDbSymbolTableRecord
100
AcDbLayerTableRecord
  2
DEFPOINTS
 70
         0
 62
         7
  6
CONTINUOUS
  0
ENDTAB
  0
TABLE
  2
STYLE
  5
3
100
AcDbSymbolTable
 70
         4
  0
STYLE
  5
17
100
AcDbSymbolTableRecord
100
AcDbTextStyleTableRecord
  2
MX_NOTE_STANDARD
 70
         0
 40
0.0
 41
1.0
 50
0.0
 71
         0
 42
3.2000000477
  3
txt.shx
  4
extfont.shx
  0
STYLE
  5
4C
100
AcDbSymbolTableRecord
100
AcDbTextStyleTableRecord
  2
MX_DIMTXSTY_2
 70
         0
 40
0.0
 41
1.2
 50
0.0
 71
         0
 42
3.2000000477
  3
txt.shx
  4
extfont.shx
  0
STYLE
  5
A5
100
AcDbSymbolTableRecord
100
AcDbTextStyleTableRecord
  2
MX_DIMTXSTY_3
 70
         0
 40
0.0
 41
1.1
 50
0.0
 71
         0
 42
3.2000000477
  3
txt.shx
  4
extfont.shx
  0
STYLE
  5
B5
100
AcDbSymbolTableRecord
100
AcDbTextStyleTableRecord
  2
MX_DIMTXSTY_4
 70
         0
 40
0.0
 41
1.05
 50
0.0
 71
         0
 42
3.2000000477
  3
txt.shx
  4
extfont.shx
  0
ENDTAB
  0
TABLE
  2
VIEW
  5
5
100
AcDbSymbolTable
 70
         0
  0
ENDTAB
  0
TABLE
  2
UCS
  5
6
100
AcDbSymbolTable
 70
         0
  0
ENDTAB
  0
TABLE
  2
APPID
  5
8
100
AcDbSymbolTable
 70
         1
  0
APPID
  5
16
100
AcDbSymbolTableRecord
100
AcDbRegAppTableRecord
  2
ACAD
 70
         0
  0
ENDTAB
  0
TABLE
  2
DIMSTYLE
  5
9
100
AcDbSymbolTable
 70
         1
  0
DIMSTYLE
105
18
100
AcDbSymbolTableRecord
100
AcDbDimStyleTableRecord
  2
MXDIMSTYLE
 70
         0
  3

  4

  5

  6
_OPEN30
  7
_OPEN30
 40
1.0
 41
2.5
 42
0.0
 43
3.75
 44
2.5
 45
0.0
 46
0.0
 47
0.0
 48
0.0
 71
         0
 72
         0
 73
         0
 74
         0
 75
         0
 76
         0
 77
         1
 78
         8
140
3.2000000477
141
2.5
142
0.0
143
0.0393700787
144
1.0
145
0.0
146
1.0
147
1.0
170
         0
171
         4
172
         1
173
         1
174
         0
175
         0
176
         0
177
         0
178
         0
270
         2
271
         2
272
         2
273
         2
274
         4
275
         0
280
         0
281
         0
282
         0
283
         0
284
         0
285
         0
286
         0
287
         3
288
         0
340
17
  0
ENDTAB
  0
TABLE
  2
BLOCK_RECORD
  5
1
100
AcDbSymbolTable
 70
        12
  0
BLOCK_RECORD
  5
A
100
AcDbSymbolTableRecord
100
AcDbBlockTableRecord
  2
*MODEL_SPACE
  0
BLOCK_RECORD
  5
B
100
AcDbSymbolTableRecord
100
AcDbBlockTableRecord
  2
*PAPER_SPACE
  0
BLOCK_RECORD
  5
1F
100
AcDbSymbolTableRecord
100
AcDbBlockTableRecord
  2
ARROW
  0
BLOCK_RECORD
  5
20
100
AcDbSymbolTableRecord
100
AcDbBlockTableRecord
  2
_OPEN30
  0
BLOCK_RECORD
  5
43
100
AcDbSymbolTableRecord
100
AcDbBlockTableRecord
  2
*D2
  0
BLOCK_RECORD
  5
53
100
AcDbSymbolTableRecord
100
AcDbBlockTableRecord
  2
*D3
  0
BLOCK_RECORD
  5
62
100
AcDbSymbolTableRecord
100
AcDbBlockTableRecord
  2
*D4
  0
BLOCK_RECORD
  5
71
100
AcDbSymbolTableRecord
100
AcDbBlockTableRecord
  2
*D5
  0
BLOCK_RECORD
  5
7E
100
AcDbSymbolTableRecord
100
AcDbBlockTableRecord
  2
*D6
  0
BLOCK_RECORD
  5
8D
100
AcDbSymbolTableRecord
100
AcDbBlockTableRecord
  2
*D7
  0
BLOCK_RECORD
  5
9C
100
AcDbSymbolTableRecord
100
AcDbBlockTableRecord
  2
*D8
  0
BLOCK_RECORD
  5
AC
100
AcDbSymbolTableRecord
100
AcDbBlockTableRecord
  2
*D9
  0
BLOCK_RECORD
  5
BC
100
AcDbSymbolTableRecord
100
AcDbBlockTableRecord
  2
*D10
  0
BLOCK_RECORD
  5
191
100
AcDbSymbolTableRecord
100
AcDbBlockTableRecord
  2
*D11
  0
ENDTAB
  0
ENDSEC
  0
SECTION
  2
BLOCKS
  0
BLOCK
  5
D
100
AcDbEntity
  8
0
100
AcDbBlockBegin
  2
*MODEL_SPACE
 70
         0
 10
0.0
 20
0.0
 30
0.0
  3
*MODEL_SPACE
  1

  0
ENDBLK
  5
E
100
AcDbEntity
  8
0
100
AcDbBlockEnd
  0
BLOCK
  5
F
100
AcDbEntity
 67
         1
  8
0
100
AcDbBlockBegin
  2
*PAPER_SPACE
 70
         0
 10
0.0
 20
0.0
 30
0.0
  3
*PAPER_SPACE
  1

  0
ENDBLK
  5
10
100
AcDbEntity
 67
         1
  8
0
100
AcDbBlockEnd
  0
BLOCK
  5
26
100
AcDbEntity
  8
0
100
AcDbBlockBegin
  2
ARROW
 70
         0
 10
0.0
 20
0.0
 30
0.0
  3
ARROW
  1

  0
LWPOLYLINE
  5
27
100
AcDbEntity
  8
0
  6
CONTINUOUS
 62
       193
100
AcDbPolyline
 90
        3
 70
         0
 10
3.53971678
 20
0.948464253
 10
0.0
 20
0.0
 10
3.53971678
 20
-0.948464253
  0
ENDBLK
  5
28
100
AcDbEntity
  8
0
100
AcDbBlockEnd
  0
BLOCK
  5
21
100
AcDbEntity
  8
0
  6
ByBlock
 62
         0
100
AcDbBlockBegin
  2
_OPEN30
 70
         2
 10
0.0
 20
0.0
 30
0.0
  3
_OPEN30
  1

  0
LINE
  5
22
100
AcDbEntity
  8
0
  6
ByBlock
 62
         0
100
AcDbLine
 10
-1.0
 20
0.267949
 30
0.0
 11
0.0
 21
0.0
 31
0.0
  0
LINE
  5
23
100
AcDbEntity
  8
0
  6
ByBlock
 62
         0
100
AcDbLine
 10
0.0
 20
0.0
 30
0.0
 11
-1.0
 21
-0.267949
 31
0.0
  0
LINE
  5
24
100
AcDbEntity
  8
0
  6
ByBlock
 62
         0
100
AcDbLine
 10
0.0
 20
0.0
 30
0.0
 11
-1.0
 21
0.0
 31
0.0
  0
ENDBLK
  5
25
100
AcDbEntity
  8
0
  6
ByBlock
 62
         0
100
AcDbBlockEnd
  0
BLOCK
  5
44
100
AcDbEntity
  8
0
  6
ByBlock
 62
         0
100
AcDbBlockBegin
  2
*D2
 70
         1
 10
0.0
 20
0.0
 30
0.0
  3
*D2
  1

  0
LINE
  5
45
100
AcDbEntity
  8
0
  6
CONTINUOUS
 62
       110
100
AcDbLine
 10
83.579025
 20
183.363129
 30
0.0
 11
126.379023
 21
183.363129
 31
0.0
  0
LINE
  5
46
100
AcDbEntity
  8
0
  6
CONTINUOUS
 62
       110
100
AcDbLine
 10
83.579025
 20
131.0990375083
 30
0.0
 11
83.579025
 21
185.363129
 31
0.0
  0
LINE
  5
47
100
AcDbEntity
  8
0
  6
CONTINUOUS
 62
       110
100
AcDbLine
 10
126.379023
 20
132.4650386375
 30
0.0
 11
126.379023
 21
185.363129
 31
0.0
  0
LINE
  5
48
100
AcDbEntity
  8
0
  6
CONTINUOUS
 62
       110
100
AcDbLine
 10
83.579025
 20
183.363129
 30
0.0
 11
79.579025
 21
183.363129
 31
0.0
  0
LINE
  5
49
100
AcDbEntity
  8
0
  6
CONTINUOUS
 62
       110
100
AcDbLine
 10
126.379023
 20
183.363129
 30
0.0
 11
130.379023
 21
183.363129
 31
0.0
  0
SOLID
  5
4A
100
AcDbEntity
  8
0
  6
CONTINUOUS
 62
       110
100
AcDbTrace
 10
82.5790249702
 20
183.529796005
 30
0.0
 11
82.5790249702
 21
183.196461995
 31
0.0
 12
83.579025
 22
183.363129
 32
0.0
 13
83.579025
 23
183.363129
 33
0.0
  0
SOLID
  5
4B
100
AcDbEntity
  8
0
  6
CONTINUOUS
 62
       110
100
AcDbTrace
 10
127.3790230298
 20
183.196461995
 30
0.0
 11
127.3790230298
 21
183.529796005
 31
0.0
 12
126.379023
 22
183.363129
 32
0.0
 13
126.379023
 23
183.363129
 33
0.0
  0
MTEXT
  5
4D
100
AcDbEntity
  8
0
  6
CONTINUOUS
 62
       110
100
AcDbMText
 10
105.0040261444
 20
185.9631290238
 30
0.0
 40
3.2000000477
 41
0.0
 71
         5
 72
         1
  1
\A1;42.8
  7
MX_DIMTXSTY_2
  0
POINT
  5
4E
100
AcDbEntity
  8
DEFPOINTS
  6
CONTINUOUS
 62
         0
100
AcDbPoint
 10
83.579025
 20
131.0365375083
 30
0.0
  0
POINT
  5
4F
100
AcDbEntity
  8
DEFPOINTS
  6
CONTINUOUS
 62
         0
100
AcDbPoint
 10
126.379023
 20
132.4025386375
 30
0.0
  0
POINT
  5
50
100
AcDbEntity
  8
DEFPOINTS
  6
CONTINUOUS
 62
         0
100
AcDbPoint
 10
126.379023
 20
183.363129
 30
0.0
  0
ENDBLK
  5
51
100
AcDbEntity
  8
0
  6
ByBlock
 62
         0
100
AcDbBlockEnd
  0
BLOCK
  5
54
100
AcDbEntity
  8
0
  6
ByBlock
 62
         0
100
AcDbBlockBegin
  2
*D3
 70
         1
 10
0.0
 20
0.0
 30
0.0
  3
*D3
  1

  0
LINE
  5
55
100
AcDbEntity
  8
0
  6
CONTINUOUS
 62
       110
100
AcDbLine
 10
91.579025
 20
173.570243
 30
0.0
 11
126.379023
 21
173.570243
 31
0.0
  0
LINE
  5
56
100
AcDbEntity
  8
0
  6
CONTINUOUS
 62
       110
100
AcDbLine
 10
91.579025
 20
136.9650374641
 30
0.0
 11
91.579025
 21
175.570243
 31
0.0
  0
LINE
  5
57
100
AcDbEntity
  8
0
  6
CONTINUOUS
 62
       110
100
AcDbLine
 10
126.379023
 20
132.4650374641
 30
0.0
 11
126.379023
 21
175.570243
 31
0.0
  0
LINE
  5
58
100
AcDbEntity
  8
0
  6
CONTINUOUS
 62
       110
100
AcDbLine
 10
91.579025
 20
173.570243
 30
0.0
 11
87.579025
 21
173.570243
 31
0.0
  0
LINE
  5
59
100
AcDbEntity
  8
0
  6
CONTINUOUS
 62
       110
100
AcDbLine
 10
126.379023
 20
173.570243
 30
0.0
 11
130.379023
 21
173.570243
 31
0.0
  0
SOLID
  5
5A
100
AcDbEntity
  8
0
  6
CONTINUOUS
 62
       110
100
AcDbTrace
 10
90.5790249702
 20
173.736910005
 30
0.0
 11
90.5790249702
 21
173.403575995
 31
0.0
 12
91.579025
 22
173.570243
 32
0.0
 13
91.579025
 23
173.570243
 33
0.0
  0
SOLID
  5
5B
100
AcDbEntity
  8
0
  6
CONTINUOUS
 62
       110
100
AcDbTrace
 10
127.3790230298
 20
173.403575995
 30
0.0
 11
127.3790230298
 21
173.736910005
 31
0.0
 12
126.379023
 22
173.570243
 32
0.0
 13
126.379023
 23
173.570243
 33
0.0
  0
MTEXT
  5
5C
100
AcDbEntity
  8
0
  6
CONTINUOUS
 62
       110
100
AcDbMText
 10
109.0040261444
 20
176.1702430238
 30
0.0
 40
3.2000000477
 41
0.0
 71
         5
 72
         1
  1
\A1;34.8
  7
MX_DIMTXSTY_2
  0
POINT
  5
5D
100
AcDbEntity
  8
DEFPOINTS
  6
CONTINUOUS
 62
         0
100
AcDbPoint
 10
91.579025
 20
136.9025374641
 30
0.0
  0
POINT
  5
5E
100
AcDbEntity
  8
DEFPOINTS
  6
CONTINUOUS
 62
         0
100
AcDbPoint
 10
126.379023
 20
132.4025374641
 30
0.0
  0
POINT
  5
5F
100
AcDbEntity
  8
DEFPOINTS
  6
CONTINUOUS
 62
         0
100
AcDbPoint
 10
126.379023
 20
173.570243
 30
0.0
  0
ENDBLK
  5
60
100
AcDbEntity
  8
0
  6
ByBlock
 62
         0
100
AcDbBlockEnd
  0
BLOCK
  5
63
100
AcDbEntity
  8
0
  6
ByBlock
 62
         0
100
AcDbBlockBegin
  2
*D4
 70
         1
 10
0.0
 20
0.0
 30
0.0
  3
*D4
  1

  0
LINE
  5
64
100
AcDbEntity
  8
0
  6
CONTINUOUS
 62
       110
100
AcDbLine
 10
95.579025
 20
163.95541
 30
0.0
 11
126.379023
 21
163.95541
 31
0.0
  0
LINE
  5
65
100
AcDbEntity
  8
0
  6
CONTINUOUS
 62
       110
100
AcDbLine
 10
95.579025
 20
136.9650363885
 30
0.0
 11
95.579025
 21
165.95541
 31
0.0
  0
LINE
  5
66
100
AcDbEntity
  8
0
  6
CONTINUOUS
 62
       110
100
AcDbLine
 10
126.379023
 20
132.4650363885
 30
0.0
 11
126.379023
 21
165.95541
 31
0.0
  0
LINE
  5
67
100
AcDbEntity
  8
0
  6
CONTINUOUS
 62
       110
100
AcDbLine
 10
95.579025
 20
163.95541
 30
0.0
 11
91.579025
 21
163.95541
 31
0.0
  0
LINE
  5
68
100
AcDbEntity
  8
0
  6
CONTINUOUS
 62
       110
100
AcDbLine
 10
126.379023
 20
163.95541
 30
0.0
 11
130.379023
 21
163.95541
 31
0.0
  0
SOLID
  5
69
100
AcDbEntity
  8
0
  6
CONTINUOUS
 62
       110
100
AcDbTrace
 10
94.5790249702
 20
164.122077005
 30
0.0
 11
94.5790249702
 21
163.788742995
 31
0.0
 12
95.579025
 22
163.95541
 32
0.0
 13
95.579025
 23
163.95541
 33
0.0
  0
SOLID
  5
6A
100
AcDbEntity
  8
0
  6
CONTINUOUS
 62
       110
100
AcDbTrace
 10
127.3790230298
 20
163.788742995
 30
0.0
 11
127.3790230298
 21
164.122077005
 31
0.0
 12
126.379023
 22
163.95541
 32
0.0
 13
126.379023
 23
163.95541
 33
0.0
  0
MTEXT
  5
6B
100
AcDbEntity
  8
0
  6
CONTINUOUS
 62
       110
100
AcDbMText
 10
111.0040242371
 20
166.5554100238
 30
0.0
 40
3.2000000477
 41
0.0
 71
         5
 72
         1
  1
\A1;30.8
  7
MX_DIMTXSTY_2
  0
POINT
  5
6C
100
AcDbEntity
  8
DEFPOINTS
  6
CONTINUOUS
 62
         0
100
AcDbPoint
 10
95.579025
 20
136.9025363885
 30
0.0
  0
POINT
  5
6D
100
AcDbEntity
  8
DEFPOINTS
  6
CONTINUOUS
 62
         0
100
AcDbPoint
 10
126.379023
 20
132.4025363885
 30
0.0
  0
POINT
  5
6E
100
AcDbEntity
  8
DEFPOINTS
  6
CONTINUOUS
 62
         0
100
AcDbPoint
 10
126.379023
 20
163.95541
 30
0.0
  0
ENDBLK
  5
6F
100
AcDbEntity
  8
0
  6
ByBlock
 62
         0
100
AcDbBlockEnd
  0
BLOCK
  5
72
100
AcDbEntity
  8
0
  6
ByBlock
 62
         0
100
AcDbBlockBegin
  2
*D5
 70
         1
 10
0.0
 20
0.0
 30
0.0
  3
*D5
  1

  0
LINE
  5
73
100
AcDbEntity
  8
0
  6
CONTINUOUS
 62
       110
100
AcDbLine
 10
95.579025
 20
154.518629
 30
0.0
 11
98.579024
 21
154.518629
 31
0.0
  0
LINE
  5
74
100
AcDbEntity
  8
0
  6
CONTINUOUS
 62
       110
100
AcDbLine
 10
95.579025
 20
136.9650363181
 30
0.0
 11
95.579025
 21
156.518629
 31
0.0
  0
LINE
  5
75
100
AcDbEntity
  8
0
  6
CONTINUOUS
 62
       110
100
AcDbLine
 10
98.579024
 20
132.4650363181
 30
0.0
 11
98.579024
 21
156.518629
 31
0.0
  0
SOLID
  5
76
100
AcDbEntity
  8
0
  6
CONTINUOUS
 62
       110
100
AcDbTrace
 10
96.5790250298
 20
154.351961995
 30
0.0
 11
96.5790250298
 21
154.685296005
 31
0.0
 12
95.579025
 22
154.518629
 32
0.0
 13
95.579025
 23
154.518629
 33
0.0
  0
SOLID
  5
77
100
AcDbEntity
  8
0
  6
CONTINUOUS
 62
       110
100
AcDbTrace
 10
97.5790239702
 20
154.685296005
 30
0.0
 11
97.5790239702
 21
154.351961995
 31
0.0
 12
98.579024
 22
154.518629
 32
0.0
 13
98.579024
 23
154.518629
 33
0.0
  0
MTEXT
  5
78
100
AcDbEntity
  8
0
  6
CONTINUOUS
 62
       110
100
AcDbMText
 10
97.1040246185
 20
157.1186290238
 30
0.0
 40
3.2000000477
 41
0.0
 71
         5
 72
         1
  1
\A1;3
  0
POINT
  5
79
100
AcDbEntity
  8
DEFPOINTS
  6
CONTINUOUS
 62
         0
100
AcDbPoint
 10
95.579025
 20
136.9025363181
 30
0.0
  0
POINT
  5
7A
100
AcDbEntity
  8
DEFPOINTS
  6
CONTINUOUS
 62
         0
100
AcDbPoint
 10
98.579024
 20
132.4025363181
 30
0.0
  0
POINT
  5
7B
100
AcDbEntity
  8
DEFPOINTS
  6
CONTINUOUS
 62
         0
100
AcDbPoint
 10
98.579024
 20
154.518629
 30
0.0
  0
ENDBLK
  5
7C
100
AcDbEntity
  8
0
  6
ByBlock
 62
         0
100
AcDbBlockEnd
  0
BLOCK
  5
7F
100
AcDbEntity
  8
0
  6
ByBlock
 62
         0
100
AcDbBlockBegin
  2
*D6
 70
         1
 10
0.0
 20
0.0
 30
0.0
  3
*D6
  1

  0
LINE
  5
80
100
AcDbEntity
  8
0
  6
CONTINUOUS
 62
       110
100
AcDbLine
 10
102.879024
 20
154.518629
 30
0.0
 11
126.379023
 21
154.518629
 31
0.0
  0
LINE
  5
81
100
AcDbEntity
  8
0
  6
CONTINUOUS
 62
       110
100
AcDbLine
 10
102.879024
 20
132.4650363181
 30
0.0
 11
102.879024
 21
156.518629
 31
0.0
  0
LINE
  5
82
100
AcDbEntity
  8
0
  6
CONTINUOUS
 62
       110
100
AcDbLine
 10
126.379023
 20
132.4650363181
 30
0.0
 11
126.379023
 21
156.518629
 31
0.0
  0
LINE
  5
83
100
AcDbEntity
  8
0
  6
CONTINUOUS
 62
       110
100
AcDbLine
 10
102.879024
 20
154.518629
 30
0.0
 11
98.879024
 21
154.518629
 31
0.0
  0
LINE
  5
84
100
AcDbEntity
  8
0
  6
CONTINUOUS
 62
       110
100
AcDbLine
 10
126.379023
 20
154.518629
 30
0.0
 11
130.379023
 21
154.518629
 31
0.0
  0
SOLID
  5
85
100
AcDbEntity
  8
0
  6
CONTINUOUS
 62
       110
100
AcDbTrace
 10
101.8790239702
 20
154.685296005
 30
0.0
 11
101.8790239702
 21
154.351961995
 31
0.0
 12
102.879024
 22
154.518629
 32
0.0
 13
102.879024
 23
154.518629
 33
0.0
  0
SOLID
  5
86
100
AcDbEntity
  8
0
  6
CONTINUOUS
 62
       110
100
AcDbTrace
 10
127.3790230298
 20
154.351961995
 30
0.0
 11
127.3790230298
 21
154.685296005
 31
0.0
 12
126.379023
 22
154.518629
 32
0.0
 13
126.379023
 23
154.518629
 33
0.0
  0
MTEXT
  5
87
100
AcDbEntity
  8
0
  6
CONTINUOUS
 62
       110
100
AcDbMText
 10
114.6540226649
 20
157.1186290238
 30
0.0
 40
3.2000000477
 41
0.0
 71
         5
 72
         1
  1
\A1;23.5
  7
MX_DIMTXSTY_2
  0
POINT
  5
88
100
AcDbEntity
  8
DEFPOINTS
  6
CONTINUOUS
 62
         0
100
AcDbPoint
 10
102.879024
 20
132.4025363181
 30
0.0
  0
POINT
  5
89
100
AcDbEntity
  8
DEFPOINTS
  6
CONTINUOUS
 62
         0
100
AcDbPoint
 10
126.379023
 20
132.4025363181
 30
0.0
  0
POINT
  5
8A
100
AcDbEntity
  8
DEFPOINTS
  6
CONTINUOUS
 62
         0
100
AcDbPoint
 10
126.379023
 20
154.518629
 30
0.0
  0
ENDBLK
  5
8B
100
AcDbEntity
  8
0
  6
ByBlock
 62
         0
100
AcDbBlockEnd
  0
BLOCK
  5
8E
100
AcDbEntity
  8
0
  6
ByBlock
 62
         0
100
AcDbBlockBegin
  2
*D7
 70
         1
 10
0.0
 20
0.0
 30
0.0
  3
*D7
  1

  0
LINE
  5
8F
100
AcDbEntity
  8
0
  6
CONTINUOUS
 62
       110
100
AcDbLine
 10
145.381986
 20
132.402537
 30
0.0
 11
145.381986
 21
37.402541
 31
0.0
  0
LINE
  5
90
100
AcDbEntity
  8
0
  6
CONTINUOUS
 62
       110
100
AcDbLine
 10
126.4415238876
 20
132.402537
 30
0.0
 11
147.381986
 21
132.402537
 31
0.0
  0
LINE
  5
91
100
AcDbEntity
  8
0
  6
CONTINUOUS
 62
       110
100
AcDbLine
 10
126.4415238876
 20
37.402541
 30
0.0
 11
147.381986
 21
37.402541
 31
0.0
  0
LINE
  5
92
100
AcDbEntity
  8
0
  6
CONTINUOUS
 62
       110
100
AcDbLine
 10
145.381986
 20
132.402537
 30
0.0
 11
145.381986
 21
136.402537
 31
0.0
  0
LINE
  5
93
100
AcDbEntity
  8
0
  6
CONTINUOUS
 62
       110
100
AcDbLine
 10
145.381986
 20
37.402541
 30
0.0
 11
145.381986
 21
33.402541
 31
0.0
  0
SOLID
  5
94
100
AcDbEntity
  8
0
  6
CONTINUOUS
 62
       110
100
AcDbTrace
 10
145.548653005
 20
133.4025370298
 30
0.0
 11
145.215318995
 21
133.4025370298
 31
0.0
 12
145.381986
 22
132.402537
 32
0.0
 13
145.381986
 23
132.402537
 33
0.0
  0
SOLID
  5
95
100
AcDbEntity
  8
0
  6
CONTINUOUS
 62
       110
100
AcDbTrace
 10
145.215318995
 20
36.4025409702
 30
0.0
 11
145.548653005
 21
36.4025409702
 31
0.0
 12
145.381986
 22
37.402541
 32
0.0
 13
145.381986
 23
37.402541
 33
0.0
  0
MTEXT
  5
96
100
AcDbEntity
  8
0
  6
CONTINUOUS
 62
       110
100
AcDbMText
 10
142.7819859762
 20
84.9275385259
 30
0.0
 40
3.2000000477
 41
0.0
 71
         5
 72
         1
  1
\A1;\U+220595
 11
0.0
 21
1.0
 31
0.0
  0
POINT
  5
97
100
AcDbEntity
  8
DEFPOINTS
  6
CONTINUOUS
 62
         0
100
AcDbPoint
 10
126.3790238876
 20
132.402537
 30
0.0
  0
POINT
  5
98
100
AcDbEntity
  8
DEFPOINTS
  6
CONTINUOUS
 62
         0
100
AcDbPoint
 10
126.3790238876
 20
37.402541
 30
0.0
  0
POINT
  5
99
100
AcDbEntity
  8
DEFPOINTS
  6
CONTINUOUS
 62
         0
100
AcDbPoint
 10
145.381986
 20
37.402541
 30
0.0
  0
ENDBLK
  5
9A
100
AcDbEntity
  8
0
  6
ByBlock
 62
         0
100
AcDbBlockEnd
  0
BLOCK
  5
9D
100
AcDbEntity
  8
0
  6
ByBlock
 62
         0
100
AcDbBlockBegin
  2
*D8
 70
         1
 10
0.0
 20
0.0
 30
0.0
  3
*D8
  1

  0
LINE
  5
9E
100
AcDbEntity
  8
0
  6
CONTINUOUS
 62
       110
100
AcDbLine
 10
55.999647
 20
32.902542
 30
0.0
 11
55.999647
 21
136.902536
 31
0.0
  0
LINE
  5
9F
100
AcDbEntity
  8
0
  6
CONTINUOUS
 62
       110
100
AcDbLine
 10
91.5165232207
 20
32.902542
 30
0.0
 11
53.999647
 21
32.902542
 31
0.0
  0
LINE
  5
A0
100
AcDbEntity
  8
0
  6
CONTINUOUS
 62
       110
100
AcDbLine
 10
91.5165232207
 20
136.902536
 30
0.0
 11
53.999647
 21
136.902536
 31
0.0
  0
LINE
  5
A1
100
AcDbEntity
  8
0
  6
CONTINUOUS
 62
       110
100
AcDbLine
 10
55.999647
 20
32.902542
 30
0.0
 11
55.999647
 21
28.902542
 31
0.0
  0
LINE
  5
A2
100
AcDbEntity
  8
0
  6
CONTINUOUS
 62
       110
100
AcDbLine
 10
55.999647
 20
136.902536
 30
0.0
 11
55.999647
 21
140.902536
 31
0.0
  0
SOLID
  5
A3
100
AcDbEntity
  8
0
  6
CONTINUOUS
 62
       110
100
AcDbTrace
 10
55.832979995
 20
31.9025419702
 30
0.0
 11
56.166314005
 21
31.9025419702
 31
0.0
 12
55.999647
 22
32.902542
 32
0.0
 13
55.999647
 23
32.902542
 33
0.0
  0
SOLID
  5
A4
100
AcDbEntity
  8
0
  6
CONTINUOUS
 62
       110
100
AcDbTrace
 10
56.166314005
 20
137.9025360298
 30
0.0
 11
55.832979995
 21
137.9025360298
 31
0.0
 12
55.999647
 22
136.902536
 32
0.0
 13
55.999647
 23
136.902536
 33
0.0
  0
MTEXT
  5
A6
100
AcDbEntity
  8
0
  6
CONTINUOUS
 62
       110
100
AcDbMText
 10
53.3996469762
 20
84.9275358965
 30
0.0
 40
3.2000000477
 41
0.0
 71
         5
 72
         1
  1
\A1;\U+2205104
  7
MX_DIMTXSTY_3
 11
0.0
 21
1.0
 31
0.0
  0
POINT
  5
A7
100
AcDbEntity
  8
DEFPOINTS
  6
CONTINUOUS
 62
         0
100
AcDbPoint
 10
91.5790232207
 20
32.902542
 30
0.0
  0
POINT
  5
A8
100
AcDbEntity
  8
DEFPOINTS
  6
CONTINUOUS
 62
         0
100
AcDbPoint
 10
91.5790232207
 20
136.902536
 30
0.0
  0
POINT
  5
A9
100
AcDbEntity
  8
DEFPOINTS
  6
CONTINUOUS
 62
         0
100
AcDbPoint
 10
55.999647
 20
136.902536
 30
0.0
  0
ENDBLK
  5
AA
100
AcDbEntity
  8
0
  6
ByBlock
 62
         0
100
AcDbBlockEnd
  0
BLOCK
  5
AD
100
AcDbEntity
  8
0
  6
ByBlock
 62
         0
100
AcDbBlockBegin
  2
*D9
 70
         1
 10
0.0
 20
0.0
 30
0.0
  3
*D9
  1

  0
LINE
  5
AE
100
AcDbEntity
  8
0
  6
CONTINUOUS
 62
       110
100
AcDbLine
 10
67.0389
 20
44.402541
 30
0.0
 11
67.0389
 21
125.402537
 31
0.0
  0
LINE
  5
AF
100
AcDbEntity
  8
0
  6
CONTINUOUS
 62
       110
100
AcDbLine
 10
89.6245246948
 20
44.402541
 30
0.0
 11
65.0389
 21
44.402541
 31
0.0
  0
LINE
  5
B0
100
AcDbEntity
  8
0
  6
CONTINUOUS
 62
       110
100
AcDbLine
 10
80.1825252594
 20
125.402537
 30
0.0
 11
65.0389
 21
125.402537
 31
0.0
  0
LINE
  5
B1
100
AcDbEntity
  8
0
  6
CONTINUOUS
 62
       110
100
AcDbLine
 10
67.0389
 20
44.402541
 30
0.0
 11
67.0389
 21
40.402541
 31
0.0
  0
LINE
  5
B2
100
AcDbEntity
  8
0
  6
CONTINUOUS
 62
       110
100
AcDbLine
 10
67.0389
 20
125.402537
 30
0.0
 11
67.0389
 21
129.402537
 31
0.0
  0
SOLID
  5
B3
100
AcDbEntity
  8
0
  6
CONTINUOUS
 62
       110
100
AcDbTrace
 10
66.872232995
 20
43.4025409702
 30
0.0
 11
67.205567005
 21
43.4025409702
 31
0.0
 12
67.0389
 22
44.402541
 32
0.0
 13
67.0389
 23
44.402541
 33
0.0
  0
SOLID
  5
B4
100
AcDbEntity
  8
0
  6
CONTINUOUS
 62
       110
100
AcDbTrace
 10
67.205567005
 20
126.4025370298
 30
0.0
 11
66.872232995
 21
126.4025370298
 31
0.0
 12
67.0389
 22
125.402537
 32
0.0
 13
67.0389
 23
125.402537
 33
0.0
  0
MTEXT
  5
B6
100
AcDbEntity
  8
0
  6
CONTINUOUS
 62
       110
100
AcDbMText
 10
64.4388999762
 20
84.9275348965
 30
0.0
 40
3.2000000477
 41
0.0
 71
         5
 72
         1
  1
\A1;\U+220581
  7
MX_DIMTXSTY_4
 11
0.0
 21
1.0
 31
0.0
  0
POINT
  5
B7
100
AcDbEntity
  8
DEFPOINTS
  6
CONTINUOUS
 62
         0
100
AcDbPoint
 10
89.6870246948
 20
44.402541
 30
0.0
  0
POINT
  5
B8
100
AcDbEntity
  8
DEFPOINTS
  6
CONTINUOUS
 62
         0
100
AcDbPoint
 10
80.2450252594
 20
125.402537
 30
0.0
  0
POINT
  5
B9
100
AcDbEntity
  8
DEFPOINTS
  6
CONTINUOUS
 62
         0
100
AcDbPoint
 10
67.0389
 20
125.402537
 30
0.0
  0
ENDBLK
  5
BA
100
AcDbEntity
  8
0
  6
ByBlock
 62
         0
100
AcDbBlockEnd
  0
BLOCK
  5
BD
100
AcDbEntity
  8
0
  6
ByBlock
 62
         0
100
AcDbBlockBegin
  2
*D10
 70
         1
 10
0.0
 20
0.0
 30
0.0
  3
*D10
  1

  0
LINE
  5
BE
100
AcDbEntity
  8
0
  6
CONTINUOUS
 62
       110
100
AcDbLine
 10
76.2976284
 20
52.402541
 30
0.0
 11
76.2976284
 21
117.402537
 31
0.0
  0
LINE
  5
BF
100
AcDbEntity
  8
0
  6
CONTINUOUS
 62
       110
100
AcDbLine
 10
91.5165252658
 20
52.402541
 30
0.0
 11
74.2976284
 21
52.402541
 31
0.0
  0
LINE
  5
C0
100
AcDbEntity
  8
0
  6
CONTINUOUS
 62
       110
100
AcDbLine
 10
91.5165252658
 20
117.402537
 30
0.0
 11
74.2976284
 21
117.402537
 31
0.0
  0
LINE
  5
C1
100
AcDbEntity
  8
0
  6
CONTINUOUS
 62
       110
100
AcDbLine
 10
76.2976284
 20
52.402541
 30
0.0
 11
76.2976284
 21
48.402541
 31
0.0
  0
LINE
  5
C2
100
AcDbEntity
  8
0
  6
CONTINUOUS
 62
       110
100
AcDbLine
 10
76.2976284
 20
117.402537
 30
0.0
 11
76.2976284
 21
121.402537
 31
0.0
  0
SOLID
  5
C3
100
AcDbEntity
  8
0
  6
CONTINUOUS
 62
       110
100
AcDbTrace
 10
76.130961395
 20
51.4025409702
 30
0.0
 11
76.464295405
 21
51.4025409702
 31
0.0
 12
76.2976284
 22
52.402541
 32
0.0
 13
76.2976284
 23
52.402541
 33
0.0
  0
SOLID
  5
C4
100
AcDbEntity
  8
0
  6
CONTINUOUS
 62
       110
100
AcDbTrace
 10
76.464295405
 20
118.4025370298
 30
0.0
 11
76.130961395
 21
118.4025370298
 31
0.0
 12
76.2976284
 22
117.402537
 32
0.0
 13
76.2976284
 23
117.402537
 33
0.0
  0
MTEXT
  5
C5
100
AcDbEntity
  8
0
  6
CONTINUOUS
 62
       110
100
AcDbMText
 10
73.6976283762
 20
84.9275348965
 30
0.0
 40
3.2000000477
 41
0.0
 71
         5
 72
         1
  1
\A1;\U+220565
 11
0.0
 21
1.0
 31
0.0
  0
POINT
  5
C6
100
AcDbEntity
  8
DEFPOINTS
  6
CONTINUOUS
 62
         0
100
AcDbPoint
 10
91.5790252658
 20
52.402541
 30
0.0
  0
POINT
  5
C7
100
AcDbEntity
  8
DEFPOINTS
  6
CONTINUOUS
 62
         0
100
AcDbPoint
 10
91.5790252658
 20
117.402537
 30
0.0
  0
POINT
  5
C8
100
AcDbEntity
  8
DEFPOINTS
  6
CONTINUOUS
 62
         0
100
AcDbPoint
 10
76.2976284
 20
117.402537
 30
0.0
  0
ENDBLK
  5
C9
100
AcDbEntity
  8
0
  6
ByBlock
 62
         0
100
AcDbBlockEnd
  0
BLOCK
  5
192
100
AcDbEntity
  8
0
  6
ByBlock
 62
         0
100
AcDbBlockBegin
  2
*D11
 70
         1
 10
0.0
 20
0.0
 30
0.0
  3
*D11
  1

  0
LINE
  5
193
100
AcDbEntity
  8
0
  6
CONTINUOUS
 62
       110
100
AcDbLine
 10
91.579025
 20
163.95541
 30
0.0
 11
95.579025
 21
163.95541
 31
0.0
  0
LINE
  5
194
100
AcDbEntity
  8
0
  6
CONTINUOUS
 62
       110
100
AcDbLine
 10
91.579025
 20
136.9650363885
 30
0.0
 11
91.579025
 21
166.45541
 31
0.0
  0
LINE
  5
195
100
AcDbEntity
  8
0
  6
CONTINUOUS
 62
       110
100
AcDbLine
 10
95.579025
 20
136.9650363885
 30
0.0
 11
95.579025
 21
166.45541
 31
0.0
  0
SOLID
  5
196
100
AcDbEntity
  8
0
  6
CONTINUOUS
 62
       110
100
AcDbTrace
 10
92.5790250298
 20
163.788742995
 30
0.0
 11
92.5790250298
 21
164.122077005
 31
0.0
 12
91.579025
 22
163.95541
 32
0.0
 13
91.579025
 23
163.95541
 33
0.0
  0
SOLID
  5
197
100
AcDbEntity
  8
0
  6
CONTINUOUS
 62
       110
100
AcDbTrace
 10
94.5790249702
 20
164.122077005
 30
0.0
 11
94.5790249702
 21
163.788742995
 31
0.0
 12
95.579025
 22
163.95541
 32
0.0
 13
95.579025
 23
163.95541
 33
0.0
  0
MTEXT
  5
198
100
AcDbEntity
  8
0
  6
CONTINUOUS
 62
       110
100
AcDbMText
 10
93.8790249523
 20
166.5554100238
 30
0.0
 40
3.2000000477
 41
0.0
 71
         5
 72
         1
  1
\A1;4
  0
POINT
  5
199
100
AcDbEntity
  8
DEFPOINTS
  6
CONTINUOUS
 62
         0
100
AcDbPoint
 10
91.579025
 20
136.9025363885
 30
0.0
  0
POINT
  5
19A
100
AcDbEntity
  8
DEFPOINTS
  6
CONTINUOUS
 62
         0
100
AcDbPoint
 10
95.579025
 20
136.9025363885
 30
0.0
  0
POINT
  5
19B
100
AcDbEntity
  8
DEFPOINTS
  6
CONTINUOUS
 62
         0
100
AcDbPoint
 10
95.579025
 20
163.95541
 30
0.0
  0
ENDBLK
  5
19C
100
AcDbEntity
  8
0
  6
ByBlock
 62
         0
100
AcDbBlockEnd
  0
ENDSEC
  0
SECTION
  2
ENTITIES
  0
MTEXT
  5
29
100
AcDbEntity
  8
0
  6
CONTINUOUS
 62
       110
100
AcDbMText
 10
25.0677355188
 20
15.4423005604
 30
0.0
 40
4.797601223
 41
0.0
 71
         1
 72
         1
  1
\T1.025;\W1.058;\A1;TSUBAKI
  0
MTEXT
  5
2A
100
AcDbEntity
  8
0
  6
CONTINUOUS
 62
       110
100
AcDbMText
 10
3.9537354688
 20
-22.4716994396
 30
0.0
 40
4.797601223
 41
0.0
 71
         1
 72
         1
  1
\T1.025;\W1.058;\A1;TSUBAKI
  0
MTEXT
  5
2B
100
AcDbEntity
  8
PV
  6
CONTINUOUS
 62
       110
100
AcDbMText
 10
-62.1623350829
 20
-103.2991998396
 30
0.0
 40
4.797601223
 41
0.0
 71
         1
 72
         1
  1
\A1;MASS
  0
MTEXT
  5
2C
100
AcDbEntity
  8
PV
  6
CONTINUOUS
 62
       110
100
AcDbMText
 10
3.8820920116
 20
-31.4716994396
 30
0.0
 40
4.797601223
 41
0.0
 71
         1
 72
         1
  1
\T1.003;\W1.067;\A1;POWER LOCK
  0
MTEXT
  5
2D
100
AcDbEntity
  8
PV
  6
CONTINUOUS
 62
       110
100
AcDbMText
 10
-62.0184438986
 20
-58.2991994396
 30
0.0
 40
4.797601223
 41
0.0
 71
         1
 72
         1
  1
\T1.041;\W1.120;\A1;TIGHTENING TORQUE OF LOCKING BOLTS
  0
MTEXT
  5
2E
100
AcDbEntity
  8
PV
  6
CONTINUOUS
 62
       110
100
AcDbMText
 10
-61.9906376609
 20
-49.2991994396
 30
0.0
 40
4.797601223
 41
0.0
 71
         1
 72
         1
  1
\T1.047;\W1.149;\A1;QUANTITY AND SIZE OF LOCKING BOLTS
  0
MTEXT
  5
2F
100
AcDbEntity
  8
PV
  6
CONTINUOUS
 62
       110
100
AcDbMText
 10
-62.0688168981
 20
-67.2991994396
 30
0.0
 40
4.797601223
 41
0.0
 71
         1
 72
         1
  1
\T1.028;\W1.060;\A1;TRANSMISSIBLE TORQUE
  0
MTEXT
  5
30
100
AcDbEntity
  8
PV
  6
CONTINUOUS
 62
       110
100
AcDbMText
 10
-62.0688168981
 20
-76.2991994396
 30
0.0
 40
4.797601223
 41
0.0
 71
         1
 72
         1
  1
\T1.028;\W1.060;\A1;TRANSMISSIBLE THRUST
  0
MTEXT
  5
31
100
AcDbEntity
  8
PV
  6
CONTINUOUS
 62
       110
100
AcDbMText
 10
-62.074913204
 20
-85.2991994396
 30
0.0
 40
4.797601223
 41
0.0
 71
         1
 72
         1
  1
\T1.025;\W1.104;\A1;CONTACT PRESSURE OF SHAFT
  0
MTEXT
  5
32
100
AcDbEntity
  8
PV
  6
CONTINUOUS
 62
       110
100
AcDbMText
 10
-62.0555483619
 20
-94.2991994396
 30
0.0
 40
4.797601223
 41
0.0
 71
         1
 72
         1
  1
\T1.030;\W1.126;\A1;CONTACT PRESSURE OF HUB BORE
  0
MTEXT
  5
33
100
AcDbEntity
  8
PV
  6
CONTINUOUS
 62
       110
100
AcDbMText
 10
-62.1040422381
 20
-40.2991994396
 30
0.0
 40
4.797601223
 41
0.0
 71
         1
 72
         1
  1
\T1.017;\W1.071;\A1;MODEL NUMBER
  0
MTEXT
  5
34
100
AcDbEntity
  8
PV
  6
CONTINUOUS
 62
       110
100
AcDbMText
 10
24.9960920616
 20
6.4423005904
 30
0.0
 40
4.797601223
 41
0.0
 71
         1
 72
         1
  1
\T1.003;\W1.067;\A1;POWER LOCK
  0
MTEXT
  5
35
100
AcDbEntity
  8
PV
  6
CONTINUOUS
 62
       110
100
AcDbMText
 10
25.0096520988
 20
-2.5576994096
 30
0.0
 40
4.797601223
 41
0.0
 71
         1
 72
         1
  1
\W1.031;\A1;PL065X095AE
  0
LINE
  5
36
100
AcDbEntity
  8
PV
  6
CONTINUOUS
 62
         3
100
AcDbLine
 10
103.286965
 20
-38.0
 30
0.0
 11
103.286965
 21
-110.0
 31
0.0
  0
LINE
  5
37
100
AcDbEntity
  8
PV
  6
CONTINUOUS
 62
         3
100
AcDbLine
 10
-68.8725345
 20
-20.0
 30
0.0
 11
-68.8725345
 21
-110.0
 31
0.0
  0
LINE
  5
38
100
AcDbEntity
  8
PV
  6
CONTINUOUS
 62
         3
100
AcDbLine
 10
-68.8725345
 20
-20.0
 30
0.0
 11
229.790412
 21
-20.0
 31
0.0
  0
LINE
  5
39
100
AcDbEntity
  8
PV
  6
CONTINUOUS
 62
         3
100
AcDbLine
 10
-68.8725345
 20
-110.0
 30
0.0
 11
229.790412
 21
-110.0
 31
0.0
  0
LINE
  5
3A
100
AcDbEntity
  8
PV
  6
CONTINUOUS
 62
         3
100
AcDbLine
 10
-68.8725345
 20
-101.0
 30
0.0
 11
229.790412
 21
-101.0
 31
0.0
  0
LINE
  5
3B
100
AcDbEntity
  8
PV
  6
CONTINUOUS
 62
         3
100
AcDbLine
 10
-68.8725345
 20
-92.0
 30
0.0
 11
229.790412
 21
-92.0
 31
0.0
  0
LINE
  5
3C
100
AcDbEntity
  8
PV
  6
CONTINUOUS
 62
         3
100
AcDbLine
 10
-68.8725345
 20
-83.0
 30
0.0
 11
229.790412
 21
-83.0
 31
0.0
  0
LINE
  5
3D
100
AcDbEntity
  8
PV
  6
CONTINUOUS
 62
         3
100
AcDbLine
 10
-68.8725345
 20
-74.0
 30
0.0
 11
229.790412
 21
-74.0
 31
0.0
  0
LINE
  5
3E
100
AcDbEntity
  8
PV
  6
CONTINUOUS
 62
         3
100
AcDbLine
 10
-68.8725345
 20
-65.0
 30
0.0
 11
229.790412
 21
-65.0
 31
0.0
  0
LINE
  5
3F
100
AcDbEntity
  8
PV
  6
CONTINUOUS
 62
         3
100
AcDbLine
 10
-68.8725345
 20
-56.0
 30
0.0
 11
229.790412
 21
-56.0
 31
0.0
  0
LINE
  5
40
100
AcDbEntity
  8
PV
  6
CONTINUOUS
 62
         3
100
AcDbLine
 10
-68.8725345
 20
-47.0
 30
0.0
 11
229.790412
 21
-47.0
 31
0.0
  0
LINE
  5
41
100
AcDbEntity
  8
PV
  6
CONTINUOUS
 62
         3
100
AcDbLine
 10
-68.8725345
 20
-38.0
 30
0.0
 11
229.790412
 21
-38.0
 31
0.0
  0
LINE
  5
42
100
AcDbEntity
  8
PV
  6
CONTINUOUS
 62
         3
100
AcDbLine
 10
-68.8725345
 20
-29.0
 30
0.0
 11
229.790412
 21
-29.0
 31
0.0
  0
DIMENSION
  5
52
100
AcDbEntity
  8
PV
  6
CONTINUOUS
 62
       110
100
AcDbDimension
  2
*D2
 10
126.379023
 20
183.363129
 30
0.0
 11
105.0040261444
 21
183.363129
 31
0.0
 70
       128
  1
\A1;<>
  3
MXDIMSTYLE
100
AcDbAlignedDimension
 13
83.579025
 23
131.0365375083
 33
0.0
 14
126.379023
 24
132.4025386375
 34
0.0
100
AcDbRotatedDimension
1001
ACAD
1000
DSTYLE
1002
{
1070
         6
1000
SOLID
1070
         7
1000
SOLID
1070
        41
1040
1.0000000298
1070
        42
1040
0.0625
1070
        44
1040
2.0
1070
       271
1070
         4
1070
       284
1070
         8
1070
       340
1005
4C
1070
       343
1005
0
1070
       344
1005
0
1002
}
  0
DIMENSION
  5
61
100
AcDbEntity
  8
PV
  6
CONTINUOUS
 62
       110
100
AcDbDimension
  2
*D3
 10
126.379023
 20
173.570243
 30
0.0
 11
109.0040261444
 21
173.570243
 31
0.0
 70
       128
  1
\A1;<>
  3
MXDIMSTYLE
100
AcDbAlignedDimension
 13
91.579025
 23
136.9025374641
 33
0.0
 14
126.379023
 24
132.4025374641
 34
0.0
100
AcDbRotatedDimension
1001
ACAD
1000
DSTYLE
1002
{
1070
         6
1000
SOLID
1070
         7
1000
SOLID
1070
        41
1040
1.0000000298
1070
        42
1040
0.0625
1070
        44
1040
2.0
1070
       271
1070
         4
1070
       284
1070
         8
1070
       340
1005
4C
1070
       343
1005
0
1070
       344
1005
0
1002
}
  0
DIMENSION
  5
70
100
AcDbEntity
  8
PV
  6
CONTINUOUS
 62
       110
100
AcDbDimension
  2
*D4
 10
126.379023
 20
163.95541
 30
0.0
 11
111.0040242371
 21
163.95541
 31
0.0
 70
       128
  1
\A1;<>
  3
MXDIMSTYLE
100
AcDbAlignedDimension
 13
95.579025
 23
136.9025363885
 33
0.0
 14
126.379023
 24
132.4025363885
 34
0.0
100
AcDbRotatedDimension
1001
ACAD
1000
DSTYLE
1002
{
1070
         6
1000
SOLID
1070
         7
1000
SOLID
1070
        41
1040
1.0000000298
1070
        42
1040
0.0625
1070
        44
1040
2.0
1070
       271
1070
         4
1070
       284
1070
         8
1070
       340
1005
4C
1070
       343
1005
0
1070
       344
1005
0
1002
}
  0
DIMENSION
  5
7D
100
AcDbEntity
  8
PV
  6
CONTINUOUS
 62
       110
100
AcDbDimension
  2
*D5
 10
98.579024
 20
154.518629
 30
0.0
 11
97.1040246185
 21
154.518629
 31
0.0
 70
       128
  1
\A1;<>
  3
MXDIMSTYLE
100
AcDbAlignedDimension
 13
95.579025
 23
136.9025363181
 33
0.0
 14
98.579024
 24
132.4025363181
 34
0.0
100
AcDbRotatedDimension
1001
ACAD
1000
DSTYLE
1002
{
1070
         6
1000
SOLID
1070
         7
1000
SOLID
1070
        41
1040
1.0000000298
1070
        42
1040
0.0625
1070
        44
1040
2.0
1070
       271
1070
         4
1070
       284
1070
         8
1070
       343
1005
0
1070
       344
1005
0
1002
}
  0
DIMENSION
  5
8C
100
AcDbEntity
  8
PV
  6
CONTINUOUS
 62
       110
100
AcDbDimension
  2
*D6
 10
126.379023
 20
154.518629
 30
0.0
 11
114.6540226649
 21
154.518629
 31
0.0
 70
       128
  1
\A1;<>
  3
MXDIMSTYLE
100
AcDbAlignedDimension
 13
102.879024
 23
132.4025363181
 33
0.0
 14
126.379023
 24
132.4025363181
 34
0.0
100
AcDbRotatedDimension
1001
ACAD
1000
DSTYLE
1002
{
1070
         6
1000
SOLID
1070
         7
1000
SOLID
1070
        41
1040
1.0000000298
1070
        42
1040
0.0625
1070
        44
1040
2.0
1070
       271
1070
         4
1070
       284
1070
         8
1070
       340
1005
4C
1070
       343
1005
0
1070
       344
1005
0
1002
}
  0
DIMENSION
  5
9B
100
AcDbEntity
  8
PV
  6
CONTINUOUS
 62
       110
100
AcDbDimension
  2
*D7
 10
145.381986
 20
37.402541
 30
0.0
 11
145.381986
 21
84.9275385259
 31
0.0
 70
       128
  1
\A1;\U+2205<>
  3
MXDIMSTYLE
100
AcDbAlignedDimension
 13
126.3790238876
 23
132.402537
 33
0.0
 14
126.3790238876
 24
37.402541
 34
0.0
 50
90.0
100
AcDbRotatedDimension
1001
ACAD
1000
DSTYLE
1002
{
1070
         6
1000
SOLID
1070
         7
1000
SOLID
1070
        41
1040
1.0000000298
1070
        42
1040
0.0625
1070
        44
1040
2.0
1070
       271
1070
         4
1070
       284
1070
         8
1070
       343
1005
0
1070
       344
1005
0
1002
}
  0
DIMENSION
  5
AB
100
AcDbEntity
  8
PV
  6
CONTINUOUS
 62
       110
100
AcDbDimension
  2
*D8
 10
55.999647
 20
136.902536
 30
0.0
 11
55.999647
 21
84.9275358965
 31
0.0
 70
       128
  1
\A1;\U+2205<>
  3
MXDIMSTYLE
100
AcDbAlignedDimension
 13
91.5790232207
 23
32.902542
 33
0.0
 14
91.5790232207
 24
136.902536
 34
0.0
 50
90.0
100
AcDbRotatedDimension
1001
ACAD
1000
DSTYLE
1002
{
1070
         6
1000
SOLID
1070
         7
1000
SOLID
1070
        41
1040
1.0000000298
1070
        42
1040
0.0625
1070
        44
1040
2.0
1070
       271
1070
         4
1070
       284
1070
         8
1070
       340
1005
A5
1070
       343
1005
0
1070
       344
1005
0
1002
}
  0
DIMENSION
  5
BB
100
AcDbEntity
  8
PV
  6
CONTINUOUS
 62
       110
100
AcDbDimension
  2
*D9
 10
67.0389
 20
125.402537
 30
0.0
 11
67.0389
 21
84.9275348965
 31
0.0
 70
       128
  1
\A1;\U+2205<>
  3
MXDIMSTYLE
100
AcDbAlignedDimension
 13
89.6870246948
 23
44.402541
 33
0.0
 14
80.2450252594
 24
125.402537
 34
0.0
 50
90.0
100
AcDbRotatedDimension
1001
ACAD
1000
DSTYLE
1002
{
1070
         6
1000
SOLID
1070
         7
1000
SOLID
1070
        41
1040
1.0000000298
1070
        42
1040
0.0625
1070
        44
1040
2.0
1070
       271
1070
         4
1070
       284
1070
         8
1070
       340
1005
B5
1070
       343
1005
0
1070
       344
1005
0
1002
}
  0
DIMENSION
  5
CA
100
AcDbEntity
  8
PV
  6
CONTINUOUS
 62
       110
100
AcDbDimension
  2
*D10
 10
76.2976284
 20
117.402537
 30
0.0
 11
76.2976284
 21
84.9275348965
 31
0.0
 70
       128
  1
\A1;\U+2205<>
  3
MXDIMSTYLE
100
AcDbAlignedDimension
 13
91.5790252658
 23
52.402541
 33
0.0
 14
91.5790252658
 24
117.402537
 34
0.0
 50
90.0
100
AcDbRotatedDimension
1001
ACAD
1000
DSTYLE
1002
{
1070
         6
1000
SOLID
1070
         7
1000
SOLID
1070
        41
1040
1.0000000298
1070
        42
1040
0.0625
1070
        44
1040
2.0
1070
       271
1070
         4
1070
       284
1070
         8
1070
       343
1005
0
1070
       344
1005
0
1002
}
  0
LINE
  5
CB
100
AcDbEntity
  8
PV
  6
CONTINUOUS
 62
         3
100
AcDbLine
 10
102.879024
 20
132.402537
 30
0.0
 11
126.379023
 21
132.402537
 31
0.0
  0
LINE
  5
CC
100
AcDbEntity
  8
PV
  6
CONTINUOUS
 62
         3
100
AcDbLine
 10
98.579024
 20
37.402541
 30
0.0
 11
95.579025
 21
37.402541
 31
0.0
  0
LINE
  5
CD
100
AcDbEntity
  8
PV
  6
CONTINUOUS
 62
         3
100
AcDbLine
 10
7.850994
 20
151.022536
 30
0.0
 11
0.119995
 21
151.022536
 31
0.0
  0
LINE
  5
CE
100
AcDbEntity
  8
PV
  6
CONTINUOUS
 62
         3
100
AcDbLine
 10
-11.604005
 20
108.785538
 30
0.0
 11
7.850994
 21
151.022536
 31
0.0
  0
MTEXT
  5
CF
100
AcDbEntity
  8
PV
  6
CONTINUOUS
 62
       110
100
AcDbMText
 10
118.1117569783
 20
-94.1079469396
 30
0.0
 40
4.797601223
 41
0.0
 71
         1
 72
         1
  1
\W1.125;\A1;137
  0
MTEXT
  5
D0
100
AcDbEntity
  8
PV
  6
CONTINUOUS
 62
       110
100
AcDbMText
 10
118.0118073171
 20
-85.1124449396
 30
0.0
 40
4.797601223
 41
0.0
 71
         1
 72
         1
  1
\A1;246
  0
MTEXT
  5
D1
100
AcDbEntity
  8
PV
  6
CONTINUOUS
 62
       110
100
AcDbMText
 10
118.1717269764
 20
-76.1169429396
 30
0.0
 40
4.797601223
 41
0.0
 71
         1
 72
         1
  1
\W1.200;\A1;104
  0
MTEXT
  5
D2
100
AcDbEntity
  8
PV
  6
CONTINUOUS
 62
       110
100
AcDbMText
 10
113.3741259736
 20
-67.1214409396
 30
0.0
 40
4.797601223
 41
0.0
 71
         1
 72
         1
  1
\W1.200;\A1;3.33
  0
MTEXT
  5
D3
100
AcDbEntity
  8
PV
  6
CONTINUOUS
 62
       110
100
AcDbMText
 10
113.424627025
 20
-58.1259399396
 30
0.0
 40
4.797601223
 41
0.0
 71
         1
 72
         1
  1
\W1.263;\A1;40.2
  0
MTEXT
  5
D4
100
AcDbEntity
  8
PV
  6
CONTINUOUS
 62
       110
100
AcDbMText
 10
215.9243461593
 20
-93.5082470368
 30
0.0
 40
2.3987998962
 41
0.0
 71
         1
 72
         1
  1
\A1;2
  0
MTEXT
  5
D5
100
AcDbEntity
  8
PV
  6
CONTINUOUS
 62
       110
100
AcDbMText
 10
187.6511171608
 20
-94.1079469396
 30
0.0
 40
4.797601223
 41
0.0
 71
         1
 72
         1
  1
\T1.070;\W1.143;\A1;kgf/ mm \}
  0
MTEXT
  5
D6
100
AcDbEntity
  8
PV
  6
CONTINUOUS
 62
       110
100
AcDbMText
 10
215.9243461593
 20
-84.5127452368
 30
0.0
 40
2.3987998962
 41
0.0
 71
         1
 72
         1
  1
\A1;2
  0
MTEXT
  5
D7
100
AcDbEntity
  8
PV
  6
CONTINUOUS
 62
       110
100
AcDbMText
 10
187.6511171608
 20
-85.1124449396
 30
0.0
 40
4.797601223
 41
0.0
 71
         1
 72
         1
  1
\T1.070;\W1.143;\A1;kgf/ mm \}
  0
MTEXT
  5
D8
100
AcDbEntity
  8
PV
  6
CONTINUOUS
 62
       110
100
AcDbMText
 10
187.6512108932
 20
-76.1169429396
 30
0.0
 40
4.797601223
 41
0.0
 71
         1
 72
         1
  1
\W1.091;\A1;kgf\}
  0
MTEXT
  5
D9
100
AcDbEntity
  8
PV
  6
CONTINUOUS
 62
       110
100
AcDbMText
 10
187.9783199732
 20
-58.1259399396
 30
0.0
 40
4.797601223
 41
0.0
 71
         1
 72
         1
  1
\W0.833;\A1;ｋｇｆ・ｍ｝
  0
MTEXT
  5
DA
100
AcDbEntity
  8
PV
  6
CONTINUOUS
 62
       110
100
AcDbMText
 10
187.9783199732
 20
-67.1214409396
 30
0.0
 40
4.797601223
 41
0.0
 71
         1
 72
         1
  1
\W0.833;\A1;ｋｇｆ・ｍ｝
  0
MTEXT
  5
DB
100
AcDbEntity
  8
PV
  6
CONTINUOUS
 62
       110
100
AcDbMText
 10
135.1032603171
 20
-103.1034498396
 30
0.0
 40
4.797601223
 41
0.0
 71
         1
 72
         1
  1
\A1;kg
  0
MTEXT
  5
DC
100
AcDbEntity
  8
PV
  6
CONTINUOUS
 62
       110
100
AcDbMText
 10
135.1032603171
 20
-94.1079469396
 30
0.0
 40
4.797601223
 41
0.0
 71
         1
 72
         1
  1
\A1;MPa
  0
MTEXT
  5
DD
100
AcDbEntity
  8
PV
  6
CONTINUOUS
 62
       110
100
AcDbMText
 10
135.1032603171
 20
-85.1124449396
 30
0.0
 40
4.797601223
 41
0.0
 71
         1
 72
         1
  1
\A1;MPa
  0
MTEXT
  5
DE
100
AcDbEntity
  8
PV
  6
CONTINUOUS
 62
       110
100
AcDbMText
 10
135.1032603171
 20
-76.1169429396
 30
0.0
 40
4.797601223
 41
0.0
 71
         1
 72
         1
  1
\A1;kN
  0
MTEXT
  5
DF
100
AcDbEntity
  8
PV
  6
CONTINUOUS
 62
       110
100
AcDbMText
 10
135.5030599732
 20
-67.1214409396
 30
0.0
 40
4.797601223
 41
0.0
 71
         1
 72
         1
  1
\W0.833;\A1;ｋＮ・ｍ
  0
MTEXT
  5
E0
100
AcDbEntity
  8
PV
  6
CONTINUOUS
 62
       110
100
AcDbMText
 10
135.5030599732
 20
-58.1259399396
 30
0.0
 40
4.797601223
 41
0.0
 71
         1
 72
         1
  1
\W0.833;\A1;Ｎ・ｍ
  0
MTEXT
  5
E1
100
AcDbEntity
  8
PV
  6
CONTINUOUS
 62
       110
100
AcDbMText
 10
139.9963134988
 20
-40.1349359396
 30
0.0
 40
4.797601223
 41
0.0
 71
         1
 72
         1
  1
\W1.031;\A1;PL065X095AE
  0
MTEXT
  5
E2
100
AcDbEntity
  8
PV
  6
CONTINUOUS
 62
       110
100
AcDbMText
 10
147.2009932095
 20
-49.1304379396
 30
0.0
 40
4.797601223
 41
0.0
 71
         1
 72
         1
  1
\W1.043;\A1;12-M8X22
  0
MTEXT
  5
E3
100
AcDbEntity
  8
PV
  6
CONTINUOUS
 62
       110
100
AcDbMText
 10
164.6499861238
 20
-58.1259399396
 30
0.0
 40
4.797601223
 41
0.0
 71
         1
 72
         1
  1
\W1.500;\A1;\{4.1
  0
MTEXT
  5
E4
100
AcDbEntity
  8
PV
  6
CONTINUOUS
 62
       110
100
AcDbMText
 10
164.3644147583
 20
-67.1214409396
 30
0.0
 40
4.797601223
 41
0.0
 71
         1
 72
         1
  1
\W1.143;\A1;\{340
  0
MTEXT
  5
E5
100
AcDbEntity
  8
PV
  6
CONTINUOUS
 62
       110
100
AcDbMText
 10
154.8479910763
 20
-76.1169429396
 30
0.0
 40
4.797601223
 41
0.0
 71
         1
 72
         1
  1
\W1.241;\A1;\{10600
  0
MTEXT
  5
E6
100
AcDbEntity
  8
PV
  6
CONTINUOUS
 62
       110
100
AcDbMText
 10
159.7418497833
 20
-85.1124449396
 30
0.0
 40
4.797601223
 41
0.0
 71
         1
 72
         1
  1
\W1.364;\A1;\{25.1
  0
MTEXT
  5
E7
100
AcDbEntity
  8
PV
  6
CONTINUOUS
 62
       110
100
AcDbMText
 10
159.7937718589
 20
-94.1079469396
 30
0.0
 40
4.797601223
 41
0.0
 71
         1
 72
         1
  1
\W1.429;\A1;\{14.0
  0
MTEXT
  5
E8
100
AcDbEntity
  8
PV
  6
CONTINUOUS
 62
       110
100
AcDbMText
 10
113.424627025
 20
-103.1034498396
 30
0.0
 40
4.797601223
 41
0.0
 71
         1
 72
         1
  1
\W1.263;\A1;0.96
  0
MTEXT
  5
E9
100
AcDbEntity
  8
PV
  6
CONTINUOUS
 62
       110
100
AcDbMText
 10
0.456739898
 20
155.0679775322
 30
0.0
 40
3.2000000477
 41
0.0
 71
         1
 72
         1
  1
\A1;M8
 11
0.9998476952
 21
-0.0174524064
 31
0.0
  0
LINE
  5
EA
100
AcDbEntity
  8
PV
  6
CONTINUOUS
 62
         3
100
AcDbLine
 10
91.579025
 20
136.902536
 30
0.0
 11
91.579025
 21
32.902542
 31
0.0
  0
LINE
  5
EB
100
AcDbEntity
  8
PV
  6
CONTINUOUS
 62
         3
100
AcDbLine
 10
83.579025
 20
131.036537
 30
0.0
 11
83.579025
 21
119.768537
 31
0.0
  0
LINE
  5
EC
100
AcDbEntity
  8
PV
  6
CONTINUOUS
 62
         3
100
AcDbLine
 10
83.579025
 20
131.036537
 30
0.0
 11
84.079025
 21
131.902537
 31
0.0
  0
LINE
  5
ED
100
AcDbEntity
  8
PV
  6
CONTINUOUS
 62
         3
100
AcDbLine
 10
83.579025
 20
119.768537
 30
0.0
 11
84.079025
 21
118.902537
 31
0.0
  0
LINE
  5
EE
100
AcDbEntity
  8
PV
  6
CONTINUOUS
 62
         3
100
AcDbLine
 10
91.579025
 20
118.902537
 30
0.0
 11
84.079025
 21
118.902537
 31
0.0
  0
LINE
  5
EF
100
AcDbEntity
  8
PV
  6
CONTINUOUS
 62
         3
100
AcDbLine
 10
91.579025
 20
131.902537
 30
0.0
 11
84.079025
 21
131.902537
 31
0.0
  0
LINE
  5
F0
100
AcDbEntity
  8
PV
  6
CONTINUOUS
 62
         3
100
AcDbLine
 10
126.379023
 20
37.402541
 30
0.0
 11
102.879024
 21
37.402541
 31
0.0
  0
LINE
  5
F1
100
AcDbEntity
  8
PV
  6
CONTINUOUS
 62
         3
100
AcDbLine
 10
126.379023
 20
84.902539
 30
0.0
 11
126.379023
 21
37.402541
 31
0.0
  0
LINE
  5
F2
100
AcDbEntity
  8
PV
  6
CONTINUOUS
 62
         3
100
AcDbLine
 10
95.579025
 20
132.402537
 30
0.0
 11
98.579024
 21
132.402537
 31
0.0
  0
LINE
  5
F3
100
AcDbEntity
  8
PV
  6
CONTINUOUS
 62
         3
100
AcDbLine
 10
126.379023
 20
132.402537
 30
0.0
 11
126.379023
 21
84.902539
 31
0.0
  0
LINE
  5
F4
100
AcDbEntity
  8
PV
  6
CONTINUOUS
 62
         3
100
AcDbLine
 10
122.079023
 20
52.402541
 30
0.0
 11
91.579025
 21
52.402541
 31
0.0
  0
LINE
  5
F5
100
AcDbEntity
  8
PV
  6
CONTINUOUS
 62
         3
100
AcDbLine
 10
95.579025
 20
37.402541
 30
0.0
 11
95.579025
 21
32.902542
 31
0.0
  0
LINE
  5
F6
100
AcDbEntity
  8
PV
  6
CONTINUOUS
 62
         3
100
AcDbLine
 10
95.579025
 20
32.902542
 30
0.0
 11
91.579025
 21
32.902542
 31
0.0
  0
LINE
  5
F7
100
AcDbEntity
  8
PV
  6
CONTINUOUS
 62
         3
100
AcDbLine
 10
91.579025
 20
117.402537
 30
0.0
 11
122.079023
 21
117.402537
 31
0.0
  0
LINE
  5
F8
100
AcDbEntity
  8
PV
  6
CONTINUOUS
 62
         3
100
AcDbLine
 10
95.579025
 20
136.902536
 30
0.0
 11
95.579025
 21
132.402537
 31
0.0
  0
LINE
  5
F9
100
AcDbEntity
  8
PV
  6
CONTINUOUS
 62
         3
100
AcDbLine
 10
91.579025
 20
136.902536
 30
0.0
 11
95.579025
 21
136.902536
 31
0.0
  0
CIRCLE
  5
FA
100
AcDbEntity
  8
PV
  6
CONTINUOUS
 62
         3
100
AcDbCircle
 10
-48.352003
 20
84.902539
 30
0.0
 40
31.999998
  0
CIRCLE
  5
FB
100
AcDbEntity
  8
PV
  6
CONTINUOUS
 62
         3
100
AcDbCircle
 10
-48.352003
 20
84.902539
 30
0.0
 40
51.999997
  0
LINE
  5
FC
100
AcDbEntity
  8
PV
  6
CONTINUOUS
 62
         3
100
AcDbLine
 10
229.790412
 20
-20.044982
 30
0.0
 11
229.790412
 21
-110.0
 31
0.0
  0
LINE
  5
FD
100
AcDbEntity
  8
PV
  6
CONTINUOUS
 62
         3
100
AcDbLine
 10
102.879024
 20
122.078537
 30
0.0
 11
102.879024
 21
120.072537
 31
0.0
  0
LINE
  5
FE
100
AcDbEntity
  8
PV
  6
CONTINUOUS
 62
         3
100
AcDbLine
 10
98.579024
 20
121.402537
 30
0.0
 11
98.579024
 21
120.501537
 31
0.0
  0
LINE
  5
FF
100
AcDbEntity
  8
PV
  6
CONTINUOUS
 62
         3
100
AcDbLine
 10
84.079025
 20
131.902537
 30
0.0
 11
84.079025
 21
118.902537
 31
0.0
  0
LINE
  5
100
100
AcDbEntity
  8
PV
  6
CONTINUOUS
 62
         3
100
AcDbLine
 10
94.704025
 20
128.725537
 30
0.0
 11
126.379023
 21
128.725537
 31
0.0
  0
LINE
  5
101
100
AcDbEntity
  8
PV
  6
CONTINUOUS
 62
         3
100
AcDbLine
 10
94.704025
 20
122.078537
 30
0.0
 11
126.379023
 21
122.078537
 31
0.0
  0
LINE
  5
102
100
AcDbEntity
  8
PV
  6
CONTINUOUS
 62
         3
100
AcDbLine
 10
94.704025
 20
122.078537
 30
0.0
 11
93.351025
 21
121.402537
 31
0.0
  0
LINE
  5
103
100
AcDbEntity
  8
PV
  6
CONTINUOUS
 62
         3
100
AcDbLine
 10
94.704025
 20
128.725537
 30
0.0
 11
93.351025
 21
129.402537
 31
0.0
  0
LINE
  5
104
100
AcDbEntity
  8
PV
  6
CONTINUOUS
 62
         3
100
AcDbLine
 10
94.704025
 20
129.402537
 30
0.0
 11
94.704025
 21
121.402537
 31
0.0
  0
LINE
  5
105
100
AcDbEntity
  8
PV
  6
CONTINUOUS
 62
         3
100
AcDbLine
 10
113.579024
 20
128.202537
 30
0.0
 11
113.579024
 21
122.602537
 31
0.0
  0
LINE
  5
106
100
AcDbEntity
  8
PV
  6
CONTINUOUS
 62
         3
100
AcDbLine
 10
112.379024
 20
129.402537
 30
0.0
 11
112.379024
 21
121.402537
 31
0.0
  0
LINE
  5
107
100
AcDbEntity
  8
PV
  6
CONTINUOUS
 62
         3
100
AcDbLine
 10
112.379024
 20
121.402537
 30
0.0
 11
113.579024
 21
122.602537
 31
0.0
  0
LINE
  5
108
100
AcDbEntity
  8
PV
  6
CONTINUOUS
 62
         3
100
AcDbLine
 10
112.379024
 20
129.402537
 30
0.0
 11
113.579024
 21
128.202537
 31
0.0
  0
LINE
  5
109
100
AcDbEntity
  8
PV
  6
CONTINUOUS
 62
         3
100
AcDbLine
 10
126.379023
 20
121.402537
 30
0.0
 11
91.579025
 21
121.402537
 31
0.0
  0
LINE
  5
10A
100
AcDbEntity
  8
PV
  6
CONTINUOUS
 62
         3
100
AcDbLine
 10
126.379023
 20
129.402537
 30
0.0
 11
91.579025
 21
129.402537
 31
0.0
  0
LINE
  5
10B
100
AcDbEntity
  8
PV
  6
CONTINUOUS
 62
         3
100
AcDbLine
 10
102.879024
 20
49.732541
 30
0.0
 11
102.879024
 21
37.402541
 31
0.0
  0
LINE
  5
10C
100
AcDbEntity
  8
PV
  6
CONTINUOUS
 62
         3
100
AcDbLine
 10
102.879024
 20
132.402537
 30
0.0
 11
102.879024
 21
128.725537
 31
0.0
  0
LINE
  5
10D
100
AcDbEntity
  8
PV
  6
CONTINUOUS
 62
         3
100
AcDbLine
 10
126.379023
 20
52.0824331
 30
0.0
 11
98.579024
 21
49.302541
 31
0.0
  0
LINE
  5
10E
100
AcDbEntity
  8
PV
  6
CONTINUOUS
 62
         3
100
AcDbLine
 10
98.579024
 20
49.302541
 30
0.0
 11
98.579024
 21
37.402541
 31
0.0
  0
LINE
  5
110
100
AcDbEntity
  8
PV
  6
CENTER
 62
         3
100
AcDbLine
 10
99.755024
 20
44.402541
 30
0.0
 11
89.687025
 21
44.402541
 31
0.0
  0
LINE
  5
111
100
AcDbEntity
  8
PV
  6
CONTINUOUS
 62
         3
100
AcDbLine
 10
98.579024
 20
120.501537
 30
0.0
 11
126.379023
 21
117.722725
 31
0.0
  0
LINE
  5
112
100
AcDbEntity
  8
PV
  6
CONTINUOUS
 62
         3
100
AcDbLine
 10
122.079023
 20
51.652541
 30
0.0
 11
122.079023
 21
118.152537
 31
0.0
  0
LINE
  5
113
100
AcDbEntity
  8
PV
  6
CONTINUOUS
 62
         3
100
AcDbLine
 10
98.579024
 20
132.402537
 30
0.0
 11
98.579024
 21
129.402537
 31
0.0
  0
LINE
  5
114
100
AcDbEntity
  8
PV
  6
CONTINUOUS
 62
         3
100
AcDbLine
 10
98.579024
 20
41.078541
 30
0.0
 11
91.579025
 21
41.078541
 31
0.0
  0
LINE
  5
115
100
AcDbEntity
  8
PV
  6
CONTINUOUS
 62
         3
100
AcDbLine
 10
98.579024
 20
40.402541
 30
0.0
 11
91.579025
 21
40.402541
 31
0.0
  0
LINE
  5
116
100
AcDbEntity
  8
PV
  6
CONTINUOUS
 62
         3
100
AcDbLine
 10
91.579025
 20
47.726541
 30
0.0
 11
98.579024
 21
47.726541
 31
0.0
  0
LINE
  5
117
100
AcDbEntity
  8
PV
  6
CONTINUOUS
 62
         3
100
AcDbLine
 10
91.579025
 20
48.402541
 30
0.0
 11
98.579024
 21
48.402541
 31
0.0
  0
LINE
  5
118
100
AcDbEntity
  8
PV
  6
CENTER
 62
         3
100
AcDbLine
 10
80.245025
 20
125.402537
 30
0.0
 11
130.233023
 21
125.402537
 31
0.0
  0
LINE
  5
119
100
AcDbEntity
  8
PV
  6
CENTER
 62
         3
100
AcDbLine
 10
87.513025
 20
84.902539
 30
0.0
 11
127.799023
 21
84.902539
 31
0.0
  0
CIRCLE
  5
11A
100
AcDbEntity
  8
PV
  6
CONTINUOUS
 62
         3
100
AcDbCircle
 10
-58.834002
 20
124.022537
 30
0.0
 40
5.634
  0
CIRCLE
  5
11B
100
AcDbEntity
  8
PV
  6
CONTINUOUS
 62
         3
100
AcDbCircle
 10
-58.834002
 20
124.022537
 30
0.0
 40
6.5
  0
CIRCLE
  5
11C
100
AcDbEntity
  8
PV
  6
CONTINUOUS
 62
         3
100
AcDbCircle
 10
-76.990001
 20
113.540538
 30
0.0
 40
5.634
  0
CIRCLE
  5
11D
100
AcDbEntity
  8
PV
  6
CONTINUOUS
 62
         3
100
AcDbCircle
 10
-76.990001
 20
113.540538
 30
0.0
 40
6.5
  0
CIRCLE
  5
11E
100
AcDbEntity
  8
PV
  6
CONTINUOUS
 62
         3
100
AcDbCircle
 10
-87.472001
 20
95.384538
 30
0.0
 40
5.634
  0
CIRCLE
  5
11F
100
AcDbEntity
  8
PV
  6
CONTINUOUS
 62
         3
100
AcDbCircle
 10
-87.472001
 20
95.384538
 30
0.0
 40
6.5
  0
CIRCLE
  5
120
100
AcDbEntity
  8
PV
  6
CONTINUOUS
 62
         3
100
AcDbCircle
 10
-87.472001
 20
74.42054
 30
0.0
 40
5.634
  0
CIRCLE
  5
121
100
AcDbEntity
  8
PV
  6
CONTINUOUS
 62
         3
100
AcDbCircle
 10
-87.472001
 20
74.42054
 30
0.0
 40
6.5
  0
CIRCLE
  5
122
100
AcDbEntity
  8
PV
  6
CONTINUOUS
 62
         3
100
AcDbCircle
 10
-76.990001
 20
56.26454
 30
0.0
 40
5.634
  0
CIRCLE
  5
123
100
AcDbEntity
  8
PV
  6
CONTINUOUS
 62
         3
100
AcDbCircle
 10
-76.990001
 20
56.26454
 30
0.0
 40
6.5
  0
CIRCLE
  5
124
100
AcDbEntity
  8
PV
  6
CONTINUOUS
 62
         3
100
AcDbCircle
 10
-58.834002
 20
45.782541
 30
0.0
 40
5.634
  0
CIRCLE
  5
125
100
AcDbEntity
  8
PV
  6
CONTINUOUS
 62
         3
100
AcDbCircle
 10
-58.834002
 20
45.782541
 30
0.0
 40
6.5
  0
CIRCLE
  5
126
100
AcDbEntity
  8
PV
  6
CONTINUOUS
 62
         3
100
AcDbCircle
 10
-37.870003
 20
45.782541
 30
0.0
 40
5.634
  0
CIRCLE
  5
127
100
AcDbEntity
  8
PV
  6
CONTINUOUS
 62
         3
100
AcDbCircle
 10
-37.870003
 20
45.782541
 30
0.0
 40
6.5
  0
CIRCLE
  5
128
100
AcDbEntity
  8
PV
  6
CONTINUOUS
 62
         3
100
AcDbCircle
 10
-19.714004
 20
56.26454
 30
0.0
 40
5.634
  0
CIRCLE
  5
129
100
AcDbEntity
  8
PV
  6
CONTINUOUS
 62
         3
100
AcDbCircle
 10
-19.714004
 20
56.26454
 30
0.0
 40
6.5
  0
CIRCLE
  5
12A
100
AcDbEntity
  8
PV
  6
CONTINUOUS
 62
         3
100
AcDbCircle
 10
-9.232005
 20
74.42054
 30
0.0
 40
5.634
  0
CIRCLE
  5
12B
100
AcDbEntity
  8
PV
  6
CONTINUOUS
 62
         3
100
AcDbCircle
 10
-9.232005
 20
74.42054
 30
0.0
 40
6.5
  0
CIRCLE
  5
12C
100
AcDbEntity
  8
PV
  6
CONTINUOUS
 62
         3
100
AcDbCircle
 10
-9.232005
 20
95.384538
 30
0.0
 40
5.634
  0
CIRCLE
  5
12D
100
AcDbEntity
  8
PV
  6
CONTINUOUS
 62
         3
100
AcDbCircle
 10
-9.232005
 20
95.384538
 30
0.0
 40
6.5
  0
CIRCLE
  5
12E
100
AcDbEntity
  8
PV
  6
CONTINUOUS
 62
         3
100
AcDbCircle
 10
-19.714004
 20
113.540538
 30
0.0
 40
5.634
  0
CIRCLE
  5
12F
100
AcDbEntity
  8
PV
  6
CONTINUOUS
 62
         3
100
AcDbCircle
 10
-19.714004
 20
113.540538
 30
0.0
 40
6.5
  0
CIRCLE
  5
130
100
AcDbEntity
  8
PV
  6
CONTINUOUS
 62
         3
100
AcDbCircle
 10
-37.870003
 20
124.022537
 30
0.0
 40
5.634
  0
CIRCLE
  5
131
100
AcDbEntity
  8
PV
  6
CONTINUOUS
 62
         3
100
AcDbCircle
 10
-37.870003
 20
124.022537
 30
0.0
 40
6.5
  0
CIRCLE
  5
132
100
AcDbEntity
  8
PV
  6
CONTINUOUS
 62
         3
100
AcDbCircle
 10
-13.278004
 20
105.152538
 30
0.0
 40
3.323
  0
CIRCLE
  5
133
100
AcDbEntity
  8
PV
  6
CONTINUOUS
 62
         3
100
AcDbCircle
 10
-13.278004
 20
105.152538
 30
0.0
 40
4.0
  0
CIRCLE
  5
134
100
AcDbEntity
  8
PV
  6
CONTINUOUS
 62
         3
100
AcDbCircle
 10
-48.352003
 20
44.402541
 30
0.0
 40
3.323
  0
CIRCLE
  5
135
100
AcDbEntity
  8
PV
  6
CONTINUOUS
 62
         3
100
AcDbCircle
 10
-48.352003
 20
44.402541
 30
0.0
 40
4.0
  0
CIRCLE
  5
136
100
AcDbEntity
  8
PV
  6
CONTINUOUS
 62
         3
100
AcDbCircle
 10
-83.426001
 20
105.152538
 30
0.0
 40
3.323
  0
CIRCLE
  5
137
100
AcDbEntity
  8
PV
  6
CONTINUOUS
 62
         3
100
AcDbCircle
 10
-83.426001
 20
105.152538
 30
0.0
 40
4.0
  0
CIRCLE
  5
138
100
AcDbEntity
  8
PV
  6
CENTER
 62
         3
100
AcDbCircle
 10
-48.352003
 20
84.902539
 30
0.0
 40
40.499998
  0
LINE
  5
139
100
AcDbEntity
  8
PV
  6
CONTINUOUS
 62
         3
100
AcDbLine
 10
-61.834002
 20
125.754537
 30
0.0
 11
-61.834002
 21
122.290537
 31
0.0
  0
LINE
  5
13A
100
AcDbEntity
  8
PV
  6
CONTINUOUS
 62
         3
100
AcDbLine
 10
-55.834002
 20
125.754537
 30
0.0
 11
-55.834002
 21
122.290537
 31
0.0
  0
LINE
  5
13B
100
AcDbEntity
  8
PV
  6
CONTINUOUS
 62
         3
100
AcDbLine
 10
-58.834002
 20
120.558537
 30
0.0
 11
-55.834002
 21
122.290537
 31
0.0
  0
LINE
  5
13C
100
AcDbEntity
  8
PV
  6
CONTINUOUS
 62
         3
100
AcDbLine
 10
-58.834002
 20
120.558537
 30
0.0
 11
-61.834002
 21
122.290537
 31
0.0
  0
LINE
  5
13D
100
AcDbEntity
  8
PV
  6
CONTINUOUS
 62
         3
100
AcDbLine
 10
-58.834002
 20
127.486537
 30
0.0
 11
-61.834002
 21
125.754537
 31
0.0
  0
LINE
  5
13E
100
AcDbEntity
  8
PV
  6
CONTINUOUS
 62
         3
100
AcDbLine
 10
-58.834002
 20
127.486537
 30
0.0
 11
-55.834002
 21
125.754537
 31
0.0
  0
LINE
  5
13F
100
AcDbEntity
  8
PV
  6
CONTINUOUS
 62
         3
100
AcDbLine
 10
-79.990001
 20
115.272537
 30
0.0
 11
-79.990001
 21
111.808538
 31
0.0
  0
LINE
  5
140
100
AcDbEntity
  8
PV
  6
CONTINUOUS
 62
         3
100
AcDbLine
 10
-73.990001
 20
115.272537
 30
0.0
 11
-73.990001
 21
111.808538
 31
0.0
  0
LINE
  5
141
100
AcDbEntity
  8
PV
  6
CONTINUOUS
 62
         3
100
AcDbLine
 10
-76.990001
 20
110.076538
 30
0.0
 11
-73.990001
 21
111.808538
 31
0.0
  0
LINE
  5
142
100
AcDbEntity
  8
PV
  6
CONTINUOUS
 62
         3
100
AcDbLine
 10
-76.990001
 20
110.076538
 30
0.0
 11
-79.990001
 21
111.808538
 31
0.0
  0
LINE
  5
143
100
AcDbEntity
  8
PV
  6
CONTINUOUS
 62
         3
100
AcDbLine
 10
-76.990001
 20
117.004537
 30
0.0
 11
-79.990001
 21
115.272537
 31
0.0
  0
LINE
  5
144
100
AcDbEntity
  8
PV
  6
CONTINUOUS
 62
         3
100
AcDbLine
 10
-76.990001
 20
117.004537
 30
0.0
 11
-73.990001
 21
115.272537
 31
0.0
  0
LINE
  5
145
100
AcDbEntity
  8
PV
  6
CONTINUOUS
 62
         3
100
AcDbLine
 10
-90.472001
 20
97.116538
 30
0.0
 11
-90.472001
 21
93.652539
 31
0.0
  0
LINE
  5
146
100
AcDbEntity
  8
PV
  6
CONTINUOUS
 62
         3
100
AcDbLine
 10
-84.472001
 20
97.116538
 30
0.0
 11
-84.472001
 21
93.652539
 31
0.0
  0
LINE
  5
147
100
AcDbEntity
  8
PV
  6
CONTINUOUS
 62
         3
100
AcDbLine
 10
-87.472001
 20
91.920539
 30
0.0
 11
-84.472001
 21
93.652539
 31
0.0
  0
LINE
  5
148
100
AcDbEntity
  8
PV
  6
CONTINUOUS
 62
         3
100
AcDbLine
 10
-87.472001
 20
91.920539
 30
0.0
 11
-90.472001
 21
93.652539
 31
0.0
  0
LINE
  5
149
100
AcDbEntity
  8
PV
  6
CONTINUOUS
 62
         3
100
AcDbLine
 10
-87.472001
 20
98.848538
 30
0.0
 11
-90.472001
 21
97.116538
 31
0.0
  0
LINE
  5
14A
100
AcDbEntity
  8
PV
  6
CONTINUOUS
 62
         3
100
AcDbLine
 10
-87.472001
 20
98.848538
 30
0.0
 11
-84.472001
 21
97.116538
 31
0.0
  0
LINE
  5
14B
100
AcDbEntity
  8
PV
  6
CONTINUOUS
 62
         3
100
AcDbLine
 10
-90.472001
 20
76.152539
 30
0.0
 11
-90.472001
 21
72.68854
 31
0.0
  0
LINE
  5
14C
100
AcDbEntity
  8
PV
  6
CONTINUOUS
 62
         3
100
AcDbLine
 10
-84.472001
 20
76.152539
 30
0.0
 11
-84.472001
 21
72.68854
 31
0.0
  0
LINE
  5
14D
100
AcDbEntity
  8
PV
  6
CONTINUOUS
 62
         3
100
AcDbLine
 10
-87.472001
 20
70.95654
 30
0.0
 11
-84.472001
 21
72.68854
 31
0.0
  0
LINE
  5
14E
100
AcDbEntity
  8
PV
  6
CONTINUOUS
 62
         3
100
AcDbLine
 10
-87.472001
 20
70.95654
 30
0.0
 11
-90.472001
 21
72.68854
 31
0.0
  0
LINE
  5
14F
100
AcDbEntity
  8
PV
  6
CONTINUOUS
 62
         3
100
AcDbLine
 10
-87.472001
 20
77.884539
 30
0.0
 11
-90.472001
 21
76.152539
 31
0.0
  0
LINE
  5
150
100
AcDbEntity
  8
PV
  6
CONTINUOUS
 62
         3
100
AcDbLine
 10
-87.472001
 20
77.884539
 30
0.0
 11
-84.472001
 21
76.152539
 31
0.0
  0
LINE
  5
151
100
AcDbEntity
  8
PV
  6
CONTINUOUS
 62
         3
100
AcDbLine
 10
-79.990001
 20
57.99654
 30
0.0
 11
-79.990001
 21
54.532541
 31
0.0
  0
LINE
  5
152
100
AcDbEntity
  8
PV
  6
CONTINUOUS
 62
         3
100
AcDbLine
 10
-73.990001
 20
57.99654
 30
0.0
 11
-73.990001
 21
54.532541
 31
0.0
  0
LINE
  5
153
100
AcDbEntity
  8
PV
  6
CONTINUOUS
 62
         3
100
AcDbLine
 10
-76.990001
 20
52.800541
 30
0.0
 11
-73.990001
 21
54.532541
 31
0.0
  0
LINE
  5
154
100
AcDbEntity
  8
PV
  6
CONTINUOUS
 62
         3
100
AcDbLine
 10
-76.990001
 20
52.800541
 30
0.0
 11
-79.990001
 21
54.532541
 31
0.0
  0
LINE
  5
155
100
AcDbEntity
  8
PV
  6
CONTINUOUS
 62
         3
100
AcDbLine
 10
-76.990001
 20
59.72854
 30
0.0
 11
-79.990001
 21
57.99654
 31
0.0
  0
LINE
  5
156
100
AcDbEntity
  8
PV
  6
CONTINUOUS
 62
         3
100
AcDbLine
 10
-76.990001
 20
59.72854
 30
0.0
 11
-73.990001
 21
57.99654
 31
0.0
  0
LINE
  5
157
100
AcDbEntity
  8
PV
  6
CONTINUOUS
 62
         3
100
AcDbLine
 10
-61.834002
 20
47.514541
 30
0.0
 11
-61.834002
 21
44.050541
 31
0.0
  0
LINE
  5
158
100
AcDbEntity
  8
PV
  6
CONTINUOUS
 62
         3
100
AcDbLine
 10
-55.834002
 20
47.514541
 30
0.0
 11
-55.834002
 21
44.050541
 31
0.0
  0
LINE
  5
159
100
AcDbEntity
  8
PV
  6
CONTINUOUS
 62
         3
100
AcDbLine
 10
-58.834002
 20
42.318541
 30
0.0
 11
-55.834002
 21
44.050541
 31
0.0
  0
LINE
  5
15A
100
AcDbEntity
  8
PV
  6
CONTINUOUS
 62
         3
100
AcDbLine
 10
-58.834002
 20
42.318541
 30
0.0
 11
-61.834002
 21
44.050541
 31
0.0
  0
LINE
  5
15B
100
AcDbEntity
  8
PV
  6
CONTINUOUS
 62
         3
100
AcDbLine
 10
-58.834002
 20
49.246541
 30
0.0
 11
-61.834002
 21
47.514541
 31
0.0
  0
LINE
  5
15C
100
AcDbEntity
  8
PV
  6
CONTINUOUS
 62
         3
100
AcDbLine
 10
-58.834002
 20
49.246541
 30
0.0
 11
-55.834002
 21
47.514541
 31
0.0
  0
LINE
  5
15D
100
AcDbEntity
  8
PV
  6
CONTINUOUS
 62
         3
100
AcDbLine
 10
-40.870003
 20
47.514541
 30
0.0
 11
-40.870003
 21
44.050541
 31
0.0
  0
LINE
  5
15E
100
AcDbEntity
  8
PV
  6
CONTINUOUS
 62
         3
100
AcDbLine
 10
-34.870003
 20
47.514541
 30
0.0
 11
-34.870003
 21
44.050541
 31
0.0
  0
LINE
  5
15F
100
AcDbEntity
  8
PV
  6
CONTINUOUS
 62
         3
100
AcDbLine
 10
-37.870003
 20
42.318541
 30
0.0
 11
-34.870003
 21
44.050541
 31
0.0
  0
LINE
  5
160
100
AcDbEntity
  8
PV
  6
CONTINUOUS
 62
         3
100
AcDbLine
 10
-37.870003
 20
42.318541
 30
0.0
 11
-40.870003
 21
44.050541
 31
0.0
  0
LINE
  5
161
100
AcDbEntity
  8
PV
  6
CONTINUOUS
 62
         3
100
AcDbLine
 10
-37.870003
 20
49.246541
 30
0.0
 11
-40.870003
 21
47.514541
 31
0.0
  0
LINE
  5
162
100
AcDbEntity
  8
PV
  6
CONTINUOUS
 62
         3
100
AcDbLine
 10
-37.870003
 20
49.246541
 30
0.0
 11
-34.870003
 21
47.514541
 31
0.0
  0
LINE
  5
163
100
AcDbEntity
  8
PV
  6
CONTINUOUS
 62
         3
100
AcDbLine
 10
-22.714004
 20
57.99654
 30
0.0
 11
-22.714004
 21
54.532541
 31
0.0
  0
LINE
  5
164
100
AcDbEntity
  8
PV
  6
CONTINUOUS
 62
         3
100
AcDbLine
 10
-16.714004
 20
57.99654
 30
0.0
 11
-16.714004
 21
54.532541
 31
0.0
  0
LINE
  5
165
100
AcDbEntity
  8
PV
  6
CONTINUOUS
 62
         3
100
AcDbLine
 10
-19.714004
 20
52.800541
 30
0.0
 11
-16.714004
 21
54.532541
 31
0.0
  0
LINE
  5
166
100
AcDbEntity
  8
PV
  6
CONTINUOUS
 62
         3
100
AcDbLine
 10
-19.714004
 20
52.800541
 30
0.0
 11
-22.714004
 21
54.532541
 31
0.0
  0
LINE
  5
167
100
AcDbEntity
  8
PV
  6
CONTINUOUS
 62
         3
100
AcDbLine
 10
-19.714004
 20
59.72854
 30
0.0
 11
-22.714004
 21
57.99654
 31
0.0
  0
LINE
  5
168
100
AcDbEntity
  8
PV
  6
CONTINUOUS
 62
         3
100
AcDbLine
 10
-19.714004
 20
59.72854
 30
0.0
 11
-16.714004
 21
57.99654
 31
0.0
  0
LINE
  5
169
100
AcDbEntity
  8
PV
  6
CONTINUOUS
 62
         3
100
AcDbLine
 10
-12.232005
 20
76.152539
 30
0.0
 11
-12.232005
 21
72.68854
 31
0.0
  0
LINE
  5
16A
100
AcDbEntity
  8
PV
  6
CONTINUOUS
 62
         3
100
AcDbLine
 10
-6.232005
 20
76.152539
 30
0.0
 11
-6.232005
 21
72.68854
 31
0.0
  0
LINE
  5
16B
100
AcDbEntity
  8
PV
  6
CONTINUOUS
 62
         3
100
AcDbLine
 10
-9.232005
 20
70.95654
 30
0.0
 11
-6.232005
 21
72.68854
 31
0.0
  0
LINE
  5
16C
100
AcDbEntity
  8
PV
  6
CONTINUOUS
 62
         3
100
AcDbLine
 10
-9.232005
 20
70.95654
 30
0.0
 11
-12.232005
 21
72.68854
 31
0.0
  0
LINE
  5
16D
100
AcDbEntity
  8
PV
  6
CONTINUOUS
 62
         3
100
AcDbLine
 10
-9.232005
 20
77.884539
 30
0.0
 11
-12.232005
 21
76.152539
 31
0.0
  0
LINE
  5
16E
100
AcDbEntity
  8
PV
  6
CONTINUOUS
 62
         3
100
AcDbLine
 10
-9.232005
 20
77.884539
 30
0.0
 11
-6.232005
 21
76.152539
 31
0.0
  0
LINE
  5
16F
100
AcDbEntity
  8
PV
  6
CONTINUOUS
 62
         3
100
AcDbLine
 10
-12.232005
 20
97.116538
 30
0.0
 11
-12.232005
 21
93.652539
 31
0.0
  0
LINE
  5
170
100
AcDbEntity
  8
PV
  6
CONTINUOUS
 62
         3
100
AcDbLine
 10
-6.232005
 20
97.116538
 30
0.0
 11
-6.232005
 21
93.652539
 31
0.0
  0
LINE
  5
171
100
AcDbEntity
  8
PV
  6
CONTINUOUS
 62
         3
100
AcDbLine
 10
-9.232005
 20
91.920539
 30
0.0
 11
-6.232005
 21
93.652539
 31
0.0
  0
LINE
  5
172
100
AcDbEntity
  8
PV
  6
CONTINUOUS
 62
         3
100
AcDbLine
 10
-9.232005
 20
91.920539
 30
0.0
 11
-12.232005
 21
93.652539
 31
0.0
  0
LINE
  5
173
100
AcDbEntity
  8
PV
  6
CONTINUOUS
 62
         3
100
AcDbLine
 10
-9.232005
 20
98.848538
 30
0.0
 11
-12.232005
 21
97.116538
 31
0.0
  0
LINE
  5
174
100
AcDbEntity
  8
PV
  6
CONTINUOUS
 62
         3
100
AcDbLine
 10
-9.232005
 20
98.848538
 30
0.0
 11
-6.232005
 21
97.116538
 31
0.0
  0
LINE
  5
175
100
AcDbEntity
  8
PV
  6
CONTINUOUS
 62
         3
100
AcDbLine
 10
-22.714004
 20
115.272537
 30
0.0
 11
-22.714004
 21
111.808538
 31
0.0
  0
LINE
  5
176
100
AcDbEntity
  8
PV
  6
CONTINUOUS
 62
         3
100
AcDbLine
 10
-16.714004
 20
115.272537
 30
0.0
 11
-16.714004
 21
111.808538
 31
0.0
  0
LINE
  5
177
100
AcDbEntity
  8
PV
  6
CONTINUOUS
 62
         3
100
AcDbLine
 10
-19.714004
 20
110.076538
 30
0.0
 11
-16.714004
 21
111.808538
 31
0.0
  0
LINE
  5
178
100
AcDbEntity
  8
PV
  6
CONTINUOUS
 62
         3
100
AcDbLine
 10
-19.714004
 20
110.076538
 30
0.0
 11
-22.714004
 21
111.808538
 31
0.0
  0
LINE
  5
179
100
AcDbEntity
  8
PV
  6
CONTINUOUS
 62
         3
100
AcDbLine
 10
-19.714004
 20
117.004537
 30
0.0
 11
-22.714004
 21
115.272537
 31
0.0
  0
LINE
  5
17A
100
AcDbEntity
  8
PV
  6
CONTINUOUS
 62
         3
100
AcDbLine
 10
-19.714004
 20
117.004537
 30
0.0
 11
-16.714004
 21
115.272537
 31
0.0
  0
LINE
  5
17B
100
AcDbEntity
  8
PV
  6
CONTINUOUS
 62
         3
100
AcDbLine
 10
-40.870003
 20
125.754537
 30
0.0
 11
-40.870003
 21
122.290537
 31
0.0
  0
LINE
  5
17C
100
AcDbEntity
  8
PV
  6
CONTINUOUS
 62
         3
100
AcDbLine
 10
-34.870003
 20
125.754537
 30
0.0
 11
-34.870003
 21
122.290537
 31
0.0
  0
LINE
  5
17D
100
AcDbEntity
  8
PV
  6
CONTINUOUS
 62
         3
100
AcDbLine
 10
-37.870003
 20
120.558537
 30
0.0
 11
-34.870003
 21
122.290537
 31
0.0
  0
LINE
  5
17E
100
AcDbEntity
  8
PV
  6
CONTINUOUS
 62
         3
100
AcDbLine
 10
-37.870003
 20
120.558537
 30
0.0
 11
-40.870003
 21
122.290537
 31
0.0
  0
LINE
  5
17F
100
AcDbEntity
  8
PV
  6
CONTINUOUS
 62
         3
100
AcDbLine
 10
-37.870003
 20
127.486537
 30
0.0
 11
-40.870003
 21
125.754537
 31
0.0
  0
LINE
  5
180
100
AcDbEntity
  8
PV
  6
CONTINUOUS
 62
         3
100
AcDbLine
 10
-37.870003
 20
127.486537
 30
0.0
 11
-34.870003
 21
125.754537
 31
0.0
  0
LINE
  5
181
100
AcDbEntity
  8
PV
  6
CENTER
 62
         3
100
AcDbLine
 10
-62.587002
 20
138.028536
 30
0.0
 11
-55.937002
 21
113.209538
 31
0.0
  0
LINE
  5
182
100
AcDbEntity
  8
PV
  6
CENTER
 62
         3
100
AcDbLine
 10
-0.721005
 20
112.402538
 30
0.0
 11
-22.973004
 21
99.555538
 31
0.0
  0
LINE
  5
183
100
AcDbEntity
  8
PV
  6
CENTER
 62
         3
100
AcDbLine
 10
4.773995
 20
99.137538
 30
0.0
 11
-20.045004
 21
92.487539
 31
0.0
  0
LINE
  5
184
100
AcDbEntity
  8
PV
  6
CENTER
 62
         3
100
AcDbLine
 10
-87.242001
 20
123.793537
 30
0.0
 11
-69.074002
 21
105.624538
 31
0.0
  0
LINE
  5
185
100
AcDbEntity
  8
PV
  6
CENTER
 62
         3
100
AcDbLine
 10
-34.117003
 20
138.028536
 30
0.0
 11
-40.767003
 21
113.209538
 31
0.0
  0
LINE
  5
186
100
AcDbEntity
  8
PV
  6
CENTER
 62
         3
100
AcDbLine
 10
-9.461005
 20
123.793537
 30
0.0
 11
-27.630004
 21
105.624538
 31
0.0
  0
LINE
  5
187
100
AcDbEntity
  8
PV
  6
CENTER
 62
         3
100
AcDbLine
 10
-95.983
 20
112.402538
 30
0.0
 11
-73.731001
 21
99.555538
 31
0.0
  0
LINE
  5
188
100
AcDbEntity
  8
PV
  6
CENTER
 62
         3
100
AcDbLine
 10
4.773995
 20
70.66754
 30
0.0
 11
-20.045004
 21
77.317539
 31
0.0
  0
LINE
  5
189
100
AcDbEntity
  8
PV
  6
CENTER
 62
         3
100
AcDbLine
 10
-9.461005
 20
46.011541
 30
0.0
 11
-27.630004
 21
64.18054
 31
0.0
  0
LINE
  5
18A
100
AcDbEntity
  8
PV
  6
CENTER
 62
         3
100
AcDbLine
 10
-34.117003
 20
31.776542
 30
0.0
 11
-40.767003
 21
56.59554
 31
0.0
  0
LINE
  5
18B
100
AcDbEntity
  8
PV
  6
CENTER
 62
         3
100
AcDbLine
 10
-62.587002
 20
31.776542
 30
0.0
 11
-55.937002
 21
56.59554
 31
0.0
  0
LINE
  5
18C
100
AcDbEntity
  8
PV
  6
CENTER
 62
         3
100
AcDbLine
 10
-87.243001
 20
46.011541
 30
0.0
 11
-69.074002
 21
64.18054
 31
0.0
  0
LINE
  5
18D
100
AcDbEntity
  8
PV
  6
CENTER
 62
         3
100
AcDbLine
 10
-101.478
 20
70.66754
 30
0.0
 11
-76.659001
 21
77.317539
 31
0.0
  0
LINE
  5
18E
100
AcDbEntity
  8
PV
  6
CENTER
 62
         3
100
AcDbLine
 10
-48.352003
 20
139.902536
 30
0.0
 11
-48.352003
 21
29.902542
 31
0.0
  0
LINE
  5
18F
100
AcDbEntity
  8
PV
  6
CENTER
 62
         3
100
AcDbLine
 10
-103.352
 20
84.902539
 30
0.0
 11
6.647995
 21
84.902539
 31
0.0
  0
LINE
  5
190
100
AcDbEntity
  8
PV
  6
CENTER
 62
         3
100
AcDbLine
 10
-101.478
 20
99.137538
 30
0.0
 11
-76.659001
 21
92.487539
 31
0.0
  0
DIMENSION
  5
19D
100
AcDbEntity
  8
PV
  6
CONTINUOUS
 62
       110
100
AcDbDimension
  2
*D11
 10
95.579025
 20
163.95541
 30
0.0
 11
93.8790249523
 21
163.95541
 31
0.0
 70
       128
  1
\A1;<>
  3
MXDIMSTYLE
100
AcDbAlignedDimension
 13
91.579025
 23
136.9025363885
 33
0.0
 14
95.579025
 24
136.9025363885
 34
0.0
100
AcDbRotatedDimension
1001
ACAD
1000
DSTYLE
1002
{
1070
         6
1000
SOLID
1070
         7
1000
SOLID
1070
        41
1040
1.0000000298
1070
        42
1040
0.0625
1070
       271
1070
         4
1070
       284
1070
         8
1070
       343
1005
0
1070
       344
1005
0
1002
}
  0
ENDSEC
  0
SECTION
  2
OBJECTS
  0
DICTIONARY
  5
19
100
AcDbDictionary
  3
ACAD_GROUP
350
1A
  3
ACAD_MLINESTYLE
350
1B
  0
DICTIONARY
  5
1A
102
{ACAD_REACTORS
330
19
102
}
100
AcDbDictionary
  0
DICTIONARY
  5
1B
102
{ACAD_REACTORS
330
19
102
}
100
AcDbDictionary
  3
STANDARD
350
1C
  0
MLINESTYLE
  5
1C
102
{ACAD_REACTORS
330
1B
102
}
100
AcDbMlineStyle
  2
Standard
 70
         0
  3

 62
         0
 51
90.0
 52
90.0
 71
         2
 49
0.5
 62
       256
  6
ByLayer
 49
-0.5
 62
       256
  6
ByLayer
  0
ENDSEC
  0
EOF
