  0
SECTION
  2
HEADER
  9
$ACADVER
  1
AC1014
  9
$ACADMAINTVER
 70
         0
  9
$DWGCODEPAGE
  3
ANSI_932
  9
$INSBASE
 10
0.0
 20
0.0
 30
0.0
  9
$EXTMIN
 10
-100.340495
 20
-110.0
 30
0.0
  9
$EXTMAX
 10
231.1738219402
 20
183.3637565316
 30
0.0
  9
$LIMMIN
 10
-100.340495
 20
-110.0
  9
$LIMMAX
 10
231.1738219402
 20
183.3637565316
  9
$ORTHOMODE
 70
         0
  9
$REGENMODE
 70
         1
  9
$FILLMODE
 70
         1
  9
$QTEXTMODE
 70
         0
  9
$MIRRTEXT
 70
         1
  9
$DRAGMODE
 70
         2
  9
$LTSCALE
 40
1.0
  9
$OSMODE
 70
         0
  9
$ATTMODE
 70
         1
  9
$TEXTSIZE
 40
3.2000000477
  9
$TRACEWID
 40
0.05
  9
$TEXTSTYLE
  7
MX_NOTE_STANDARD
  9
$CLAYER
  8
0
  9
$CELTYPE
  6
CONTINUOUS
  9
$CECOLOR
 62
       256
  9
$CELTSCALE
 40
1.0
  9
$DELOBJ
 70
         1
  9
$DISPSILH
 70
         0
  9
$DIMSCALE
 40
1.0
  9
$DIMASZ
 40
2.5
  9
$DIMEXO
 40
0.0
  9
$DIMDLI
 40
3.75
  9
$DIMRND
 40
0.0
  9
$DIMDLE
 40
0.0
  9
$DIMEXE
 40
2.5
  9
$DIMTP
 40
0.0
  9
$DIMTM
 40
0.0
  9
$DIMTXT
 40
3.2000000477
  9
$DIMCEN
 40
2.5
  9
$DIMTSZ
 40
0.0
  9
$DIMTOL
 70
         0
  9
$DIMLIM
 70
         0
  9
$DIMTIH
 70
         0
  9
$DIMTOH
 70
         0
  9
$DIMSE1
 70
         0
  9
$DIMSE2
 70
         0
  9
$DIMTAD
 70
         1
  9
$DIMZIN
 70
         8
  9
$DIMBLK
  1

  9
$DIMASO
 70
         1
  9
$DIMSHO
 70
         1
  9
$DIMPOST
  1

  9
$DIMAPOST
  1

  9
$DIMALT
 70
         0
  9
$DIMALTD
 70
         4
  9
$DIMALTF
 40
0.0393700787
  9
$DIMLFAC
 40
1.0
  9
$DIMTOFL
 70
         1
  9
$DIMTVP
 40
0.0
  9
$DIMTIX
 70
         0
  9
$DIMSOXD
 70
         0
  9
$DIMSAH
 70
         1
  9
$DIMBLK1
  1
_OPEN30
  9
$DIMBLK2
  1
_OPEN30
  9
$DIMSTYLE
  2
MXDIMSTYLE
  9
$DIMCLRD
 70
         0
  9
$DIMCLRE
 70
         0
  9
$DIMCLRT
 70
         0
  9
$DIMTFAC
 40
1.0
  9
$DIMGAP
 40
1.0
  9
$DIMJUST
 70
         0
  9
$DIMSD1
 70
         0
  9
$DIMSD2
 70
         0
  9
$DIMTOLJ
 70
         0
  9
$DIMTZIN
 70
         0
  9
$DIMALTZ
 70
         0
  9
$DIMALTTZ
 70
         0
  9
$DIMFIT
 70
         3
  9
$DIMUPT
 70
         0
  9
$DIMUNIT
 70
         2
  9
$DIMDEC
 70
         2
  9
$DIMTDEC
 70
         2
  9
$DIMALTU
 70
         2
  9
$DIMALTTD
 70
         4
  9
$DIMTXSTY
  7
MX_NOTE_STANDARD
  9
$DIMAUNIT
 70
         0
  9
$LUNITS
 70
         2
  9
$LUPREC
 70
         4
  9
$SKETCHINC
 40
0.1
  9
$FILLETRAD
 40
0.0
  9
$AUNITS
 70
         0
  9
$AUPREC
 70
         0
  9
$MENU
  1
acad
  9
$ELEVATION
 40
0.0
  9
$PELEVATION
 40
0.0
  9
$THICKNESS
 40
0.0
  9
$LIMCHECK
 70
         0
  9
$BLIPMODE
 70
         1
  9
$CHAMFERA
 40
0.0
  9
$CHAMFERB
 40
0.0
  9
$CHAMFERC
 40
0.0
  9
$CHAMFERD
 40
0.0
  9
$SKPOLY
 70
         0
  9
$TDCREATE
 40
2456603.419247685
  9
$TDUPDATE
 40
2456603.419247685
  9
$TDINDWG
 40
0.0000000000
  9
$TDUSRTIMER
 40
0.0000000000
  9
$USRTIMER
 70
         1
  9
$ANGBASE
 50
0.0
  9
$ANGDIR
 70
         0
  9
$PDMODE
 70
         0
  9
$PDSIZE
 40
0.0
  9
$PLINEWID
 40
0.0
  9
$COORDS
 70
         1
  9
$SPLFRAME
 70
         0
  9
$SPLINETYPE
 70
         6
  9
$SPLINESEGS
 70
         8
  9
$ATTDIA
 70
         0
  9
$ATTREQ
 70
         1
  9
$HANDLING
 70
         1
  9
$HANDSEED
  5
189
  9
$SURFTAB1
 70
         6
  9
$SURFTAB2
 70
         6
  9
$SURFTYPE
 70
         6
  9
$SURFU
 70
         6
  9
$SURFV
 70
         6
  9
$UCSNAME
  2

  9
$UCSORG
 10
0.0
 20
0.0
 30
0.0
  9
$UCSXDIR
 10
1.0
 20
0.0
 30
0.0
  9
$UCSYDIR
 10
0.0
 20
1.0
 30
0.0
  9
$PUCSNAME
  2

  9
$PUCSORG
 10
0.0
 20
0.0
 30
0.0
  9
$PUCSXDIR
 10
1.0
 20
0.0
 30
0.0
  9
$PUCSYDIR
 10
0.0
 20
1.0
 30
0.0
  9
$USERI1
 70
         0
  9
$USERI2
 70
         0
  9
$USERI3
 70
         0
  9
$USERI4
 70
         0
  9
$USERI5
 70
         0
  9
$USERR1
 40
0.0
  9
$USERR2
 40
0.0
  9
$USERR3
 40
0.0
  9
$USERR4
 40
0.0
  9
$USERR5
 40
0.0
  9
$WORLDVIEW
 70
         1
  9
$SHADEDGE
 70
         3
  9
$SHADEDIF
 70
        70
  9
$TILEMODE
 70
         1
  9
$MAXACTVP
 70
        16
  9
$PINSBASE
 10
0.0
 20
0.0
 30
0.0
  9
$PLIMCHECK
 70
         0
  9
$PEXTMIN
 10
1.0000000000E+20
 20
1.0000000000E+20
 30
1.0000000000E+20
  9
$PEXTMAX
 10
-1.0000000000E+20
 20
-1.0000000000E+20
 30
-1.0000000000E+20
  9
$PLIMMIN
 10
0.0
 20
0.0
  9
$PLIMMAX
 10
12.0
 20
9.0
  9
$UNITMODE
 70
         0
  9
$VISRETAIN
 70
         0
  9
$PLINEGEN
 70
         1
  9
$PSLTSCALE
 70
         0
  9
$TREEDEPTH
 70
      3020
  9
$PICKSTYLE
 70
         1
  9
$CMLSTYLE
  2
Standard
  9
$CMLJUST
 70
         0
  9
$CMLSCALE
 40
1.0
  9
$PROXYGRAPHICS
 70
         0
  9
$MEASUREMENT
 70
         1
  0
ENDSEC
  0
SECTION
  2
CLASSES
  0
CLASS
  1
LWPOLYLINE
  2
AcDbPolyline
  3
"AutoCAD"
 90
        0
280
         0
281
         1
  0
CLASS
  1
IMAGE
  2
AcDbRasterImage
  3
ISM
 90
      127
280
         0
281
         1
  0
CLASS
  1
OLE2FRAME
  2
AcDbOle2Frame
  3
""
 90
        0
280
         0
281
         1
  0
CLASS
  1
HATCH
  2
AcDbHatch
  3
"ACAD_SEDONA"
 90
        0
280
         0
281
         1
  0
CLASS
  1
DICTIONARYVAR
  2
AcDbDictionaryVar
  3
"AutoCAD"
 90
        0
280
         0
281
         0
  0
CLASS
  1
RASTERVARIABLES
  2
AcDbRasterVariables
  3
ISM
 90
        0
280
         0
281
         0
  0
CLASS
  1
IMAGEDEF
  2
AcDbRasterImageDef
  3
ISM
 90
        0
280
         0
281
         0
  0
CLASS
  1
IMAGEDEF_REACTOR
  2
AcDbRasterImageDefReactor
  3
ISM
 90
        1
280
         0
281
         0
  0
CLASS
  1
IDBUFFER
  2
AcDbIdBuffer
  3
"Acad"
 90
        0
280
         0
281
         0
  0
CLASS
  1
SPATIAL_FILTER
  2
AcDbSpatialFilter
  3
"Acad"
 90
        0
280
         0
281
         0
  0
CLASS
  1
XRECORD
  2
AcDbXrecord
  3
"<Built In>"
 90
        0
280
         0
281
         0
  0
CLASS
  1
SORTENTSTABLE
  2
AcDbSortentsTable
  3
"AutoCAD"
 90
        0
280
         0
281
         0
  0
CLASS
  1
LAYER_INDEX
  2
AcDbLayerIndex
  3
"Acad"
 90
        0
280
         0
281
         0
  0
CLASS
  1
SPATIAL_INDEX
  2
AcDbSpatialIndex
  3
"Acad"
 90
        0
280
         0
281
         0
  0
CLASS
  1
OBJECT_PTR
  2
CAseDLPNTableRecord
  3
"ASE-LPNTableRecord"
 90
        1
280
         0
281
         0
  0
CLASS
  1
LAYOUT
  2
AcDbLayout
  3
"AutoCAD 2000"
 90
        0
280
         0
281
         0
  0
CLASS
  1
PLOTSETTINGS
  2
AcDbPlotSettings
  3
"AutoCAD 2000"
 90
        0
280
         0
281
         0
  0
CLASS
  1
ACDBDICTIONARYWDFLT
  2
AcDbDictionaryWithDefault
  3
"AutoCAD 2000"
 90
        0
280
         0
281
         0
  0
CLASS
  1
ACDBPLACEHOLDER
  2
AcDbPlaceHolder
  3
"AutoCAD 2000"
 90
        0
280
         0
281
         0
  0
ENDSEC
  0
SECTION
  2
TABLES
  0
TABLE
  2
VPORT
  5
7
100
AcDbSymbolTable
 70
         1
  0
VPORT
  5
15
100
AcDbSymbolTableRecord
100
AcDbViewportTableRecord
  2
*ACTIVE
 70
         0
 10
0.0
 20
0.0
 11
1.0
 21
1.0
 12
65.4166634701
 22
36.6818782658
 13
0.0
 23
0.0
 14
1.0
 24
1.0
 15
0.0
 25
0.0
 16
0.0
 26
0.0
 36
1.0
 17
0.0
 27
0.0
 37
0.0
 40
296.2973940969
 41
1.7320508076
 42
50.0
 43
0.0
 44
0.0
 50
0.0
 51
0.0
 71
         0
 72
       100
 73
         1
 74
         1
 75
         0
 76
         0
 77
         0
 78
         0
  0
ENDTAB
  0
TABLE
  2
LTYPE
  5
4
100
AcDbSymbolTable
 70
         4
  0
LTYPE
  5
11
100
AcDbSymbolTableRecord
100
AcDbLinetypeTableRecord
  2
BYBLOCK
 70
        64
  3

 72
        65
 73
         0
 40
0.0
  0
LTYPE
  5
12
100
AcDbSymbolTableRecord
100
AcDbLinetypeTableRecord
  2
BYLAYER
 70
        64
  3

 72
        65
 73
         0
 40
0.0
  0
LTYPE
  5
13
100
AcDbSymbolTableRecord
100
AcDbLinetypeTableRecord
  2
CONTINUOUS
 70
        64
  3
Solid line
 72
        65
 73
         0
 40
0.0
  0
LTYPE
  5
122
100
AcDbSymbolTableRecord
100
AcDbLinetypeTableRecord
  2
CENTER
 70
        64
  3
Center ____ _ ____ _ ____ _ ____ _ ____ _ ____
 72
        65
 73
         4
 40
50.8
 49
31.75
 74
         0
 49
-6.35
 74
         0
 49
6.35
 74
         0
 49
-6.35
 74
         0
  0
ENDTAB
  0
TABLE
  2
LAYER
  5
2
100
AcDbSymbolTable
 70
         3
  0
LAYER
  5
14
100
AcDbSymbolTableRecord
100
AcDbLayerTableRecord
  2
0
 70
         0
 62
         7
  6
CONTINUOUS
  0
LAYER
  5
1D
100
AcDbSymbolTableRecord
100
AcDbLayerTableRecord
  2
PV
 70
         0
 62
         3
  6
CONTINUOUS
  0
LAYER
  5
1E
100
AcDbSymbolTableRecord
100
AcDbLayerTableRecord
  2
DEFPOINTS
 70
         0
 62
         7
  6
CONTINUOUS
  0
ENDTAB
  0
TABLE
  2
STYLE
  5
3
100
AcDbSymbolTable
 70
         2
  0
STYLE
  5
17
100
AcDbSymbolTableRecord
100
AcDbTextStyleTableRecord
  2
MX_NOTE_STANDARD
 70
         0
 40
0.0
 41
1.0
 50
0.0
 71
         0
 42
3.2000000477
  3
txt.shx
  4
extfont.shx
  0
STYLE
  5
4C
100
AcDbSymbolTableRecord
100
AcDbTextStyleTableRecord
  2
MX_DIMTXSTY_2
 70
         0
 40
0.0
 41
1.2
 50
0.0
 71
         0
 42
3.2000000477
  3
txt.shx
  4
extfont.shx
  0
ENDTAB
  0
TABLE
  2
VIEW
  5
5
100
AcDbSymbolTable
 70
         0
  0
ENDTAB
  0
TABLE
  2
UCS
  5
6
100
AcDbSymbolTable
 70
         0
  0
ENDTAB
  0
TABLE
  2
APPID
  5
8
100
AcDbSymbolTable
 70
         1
  0
APPID
  5
16
100
AcDbSymbolTableRecord
100
AcDbRegAppTableRecord
  2
ACAD
 70
         0
  0
ENDTAB
  0
TABLE
  2
DIMSTYLE
  5
9
100
AcDbSymbolTable
 70
         1
  0
DIMSTYLE
105
18
100
AcDbSymbolTableRecord
100
AcDbDimStyleTableRecord
  2
MXDIMSTYLE
 70
         0
  3

  4

  5

  6
_OPEN30
  7
_OPEN30
 40
1.0
 41
2.5
 42
0.0
 43
3.75
 44
2.5
 45
0.0
 46
0.0
 47
0.0
 48
0.0
 71
         0
 72
         0
 73
         0
 74
         0
 75
         0
 76
         0
 77
         1
 78
         8
140
3.2000000477
141
2.5
142
0.0
143
0.0393700787
144
1.0
145
0.0
146
1.0
147
1.0
170
         0
171
         4
172
         1
173
         1
174
         0
175
         0
176
         0
177
         0
178
         0
270
         2
271
         2
272
         2
273
         2
274
         4
275
         0
280
         0
281
         0
282
         0
283
         0
284
         0
285
         0
286
         0
287
         3
288
         0
340
17
  0
ENDTAB
  0
TABLE
  2
BLOCK_RECORD
  5
1
100
AcDbSymbolTable
 70
        12
  0
BLOCK_RECORD
  5
A
100
AcDbSymbolTableRecord
100
AcDbBlockTableRecord
  2
*MODEL_SPACE
  0
BLOCK_RECORD
  5
B
100
AcDbSymbolTableRecord
100
AcDbBlockTableRecord
  2
*PAPER_SPACE
  0
BLOCK_RECORD
  5
1F
100
AcDbSymbolTableRecord
100
AcDbBlockTableRecord
  2
ARROW
  0
BLOCK_RECORD
  5
20
100
AcDbSymbolTableRecord
100
AcDbBlockTableRecord
  2
_OPEN30
  0
BLOCK_RECORD
  5
43
100
AcDbSymbolTableRecord
100
AcDbBlockTableRecord
  2
*D2
  0
BLOCK_RECORD
  5
53
100
AcDbSymbolTableRecord
100
AcDbBlockTableRecord
  2
*D3
  0
BLOCK_RECORD
  5
62
100
AcDbSymbolTableRecord
100
AcDbBlockTableRecord
  2
*D4
  0
BLOCK_RECORD
  5
6F
100
AcDbSymbolTableRecord
100
AcDbBlockTableRecord
  2
*D5
  0
BLOCK_RECORD
  5
7E
100
AcDbSymbolTableRecord
100
AcDbBlockTableRecord
  2
*D6
  0
BLOCK_RECORD
  5
8B
100
AcDbSymbolTableRecord
100
AcDbBlockTableRecord
  2
*D7
  0
BLOCK_RECORD
  5
9A
100
AcDbSymbolTableRecord
100
AcDbBlockTableRecord
  2
*D8
  0
BLOCK_RECORD
  5
A9
100
AcDbSymbolTableRecord
100
AcDbBlockTableRecord
  2
*D9
  0
BLOCK_RECORD
  5
B8
100
AcDbSymbolTableRecord
100
AcDbBlockTableRecord
  2
*D10
  0
BLOCK_RECORD
  5
C7
100
AcDbSymbolTableRecord
100
AcDbBlockTableRecord
  2
*D11
  0
ENDTAB
  0
ENDSEC
  0
SECTION
  2
BLOCKS
  0
BLOCK
  5
D
100
AcDbEntity
  8
0
100
AcDbBlockBegin
  2
*MODEL_SPACE
 70
         0
 10
0.0
 20
0.0
 30
0.0
  3
*MODEL_SPACE
  1

  0
ENDBLK
  5
E
100
AcDbEntity
  8
0
100
AcDbBlockEnd
  0
BLOCK
  5
F
100
AcDbEntity
 67
         1
  8
0
100
AcDbBlockBegin
  2
*PAPER_SPACE
 70
         0
 10
0.0
 20
0.0
 30
0.0
  3
*PAPER_SPACE
  1

  0
ENDBLK
  5
10
100
AcDbEntity
 67
         1
  8
0
100
AcDbBlockEnd
  0
BLOCK
  5
26
100
AcDbEntity
  8
0
100
AcDbBlockBegin
  2
ARROW
 70
         0
 10
0.0
 20
0.0
 30
0.0
  3
ARROW
  1

  0
LWPOLYLINE
  5
27
100
AcDbEntity
  8
0
  6
CONTINUOUS
 62
       193
100
AcDbPolyline
 90
        3
 70
         0
 10
3.53823925
 20
0.94806835
 10
0.0
 20
0.0
 10
3.53823925
 20
-0.94806835
  0
ENDBLK
  5
28
100
AcDbEntity
  8
0
100
AcDbBlockEnd
  0
BLOCK
  5
21
100
AcDbEntity
  8
0
  6
ByBlock
 62
         0
100
AcDbBlockBegin
  2
_OPEN30
 70
         2
 10
0.0
 20
0.0
 30
0.0
  3
_OPEN30
  1

  0
LINE
  5
22
100
AcDbEntity
  8
0
  6
ByBlock
 62
         0
100
AcDbLine
 10
-1.0
 20
0.267949
 30
0.0
 11
0.0
 21
0.0
 31
0.0
  0
LINE
  5
23
100
AcDbEntity
  8
0
  6
ByBlock
 62
         0
100
AcDbLine
 10
0.0
 20
0.0
 30
0.0
 11
-1.0
 21
-0.267949
 31
0.0
  0
LINE
  5
24
100
AcDbEntity
  8
0
  6
ByBlock
 62
         0
100
AcDbLine
 10
0.0
 20
0.0
 30
0.0
 11
-1.0
 21
0.0
 31
0.0
  0
ENDBLK
  5
25
100
AcDbEntity
  8
0
  6
ByBlock
 62
         0
100
AcDbBlockEnd
  0
BLOCK
  5
44
100
AcDbEntity
  8
0
  6
ByBlock
 62
         0
100
AcDbBlockBegin
  2
*D2
 70
         1
 10
0.0
 20
0.0
 30
0.0
  3
*D2
  1

  0
LINE
  5
45
100
AcDbEntity
  8
0
  6
CONTINUOUS
 62
       110
100
AcDbLine
 10
72.080029
 20
178.09709
 30
0.0
 11
114.880026
 21
178.09709
 31
0.0
  0
LINE
  5
46
100
AcDbEntity
  8
0
  6
CONTINUOUS
 62
       110
100
AcDbLine
 10
72.080029
 20
128.5990393103
 30
0.0
 11
72.080029
 21
180.09709
 31
0.0
  0
LINE
  5
47
100
AcDbEntity
  8
0
  6
CONTINUOUS
 62
       110
100
AcDbLine
 10
114.880026
 20
129.9650366248
 30
0.0
 11
114.880026
 21
180.09709
 31
0.0
  0
LINE
  5
48
100
AcDbEntity
  8
0
  6
CONTINUOUS
 62
       110
100
AcDbLine
 10
72.080029
 20
178.09709
 30
0.0
 11
68.080029
 21
178.09709
 31
0.0
  0
LINE
  5
49
100
AcDbEntity
  8
0
  6
CONTINUOUS
 62
       110
100
AcDbLine
 10
114.880026
 20
178.09709
 30
0.0
 11
118.880026
 21
178.09709
 31
0.0
  0
SOLID
  5
4A
100
AcDbEntity
  8
0
  6
CONTINUOUS
 62
       110
100
AcDbTrace
 10
71.0800289702
 20
178.263757005
 30
0.0
 11
71.0800289702
 21
177.930422995
 31
0.0
 12
72.080029
 22
178.09709
 32
0.0
 13
72.080029
 23
178.09709
 33
0.0
  0
SOLID
  5
4B
100
AcDbEntity
  8
0
  6
CONTINUOUS
 62
       110
100
AcDbTrace
 10
115.8800260298
 20
177.930422995
 30
0.0
 11
115.8800260298
 21
178.263757005
 31
0.0
 12
114.880026
 22
178.09709
 32
0.0
 13
114.880026
 23
178.09709
 33
0.0
  0
MTEXT
  5
4D
100
AcDbEntity
  8
0
  6
CONTINUOUS
 62
       110
100
AcDbMText
 10
93.5050263297
 20
180.6970900238
 30
0.0
 40
3.2000000477
 41
0.0
 71
         5
 72
         1
  1
\A1;42.8
  7
MX_DIMTXSTY_2
  0
POINT
  5
4E
100
AcDbEntity
  8
DEFPOINTS
  6
CONTINUOUS
 62
         0
100
AcDbPoint
 10
72.080029
 20
128.5365393103
 30
0.0
  0
POINT
  5
4F
100
AcDbEntity
  8
DEFPOINTS
  6
CONTINUOUS
 62
         0
100
AcDbPoint
 10
114.880026
 20
129.9025366248
 30
0.0
  0
POINT
  5
50
100
AcDbEntity
  8
DEFPOINTS
  6
CONTINUOUS
 62
         0
100
AcDbPoint
 10
114.880026
 20
178.09709
 30
0.0
  0
ENDBLK
  5
51
100
AcDbEntity
  8
0
  6
ByBlock
 62
         0
100
AcDbBlockEnd
  0
BLOCK
  5
54
100
AcDbEntity
  8
0
  6
ByBlock
 62
         0
100
AcDbBlockBegin
  2
*D3
 70
         1
 10
0.0
 20
0.0
 30
0.0
  3
*D3
  1

  0
LINE
  5
55
100
AcDbEntity
  8
0
  6
CONTINUOUS
 62
       110
100
AcDbLine
 10
80.080028
 20
168.389098
 30
0.0
 11
114.880026
 21
168.389098
 31
0.0
  0
LINE
  5
56
100
AcDbEntity
  8
0
  6
CONTINUOUS
 62
       110
100
AcDbLine
 10
80.080028
 20
134.4650371785
 30
0.0
 11
80.080028
 21
170.389098
 31
0.0
  0
LINE
  5
57
100
AcDbEntity
  8
0
  6
CONTINUOUS
 62
       110
100
AcDbLine
 10
114.880026
 20
129.9650371785
 30
0.0
 11
114.880026
 21
170.389098
 31
0.0
  0
LINE
  5
58
100
AcDbEntity
  8
0
  6
CONTINUOUS
 62
       110
100
AcDbLine
 10
80.080028
 20
168.389098
 30
0.0
 11
76.080028
 21
168.389098
 31
0.0
  0
LINE
  5
59
100
AcDbEntity
  8
0
  6
CONTINUOUS
 62
       110
100
AcDbLine
 10
114.880026
 20
168.389098
 30
0.0
 11
118.880026
 21
168.389098
 31
0.0
  0
SOLID
  5
5A
100
AcDbEntity
  8
0
  6
CONTINUOUS
 62
       110
100
AcDbTrace
 10
79.0800279702
 20
168.555765005
 30
0.0
 11
79.0800279702
 21
168.222430995
 31
0.0
 12
80.080028
 22
168.389098
 32
0.0
 13
80.080028
 23
168.389098
 33
0.0
  0
SOLID
  5
5B
100
AcDbEntity
  8
0
  6
CONTINUOUS
 62
       110
100
AcDbTrace
 10
115.8800260298
 20
168.222430995
 30
0.0
 11
115.8800260298
 21
168.555765005
 31
0.0
 12
114.880026
 22
168.389098
 32
0.0
 13
114.880026
 23
168.389098
 33
0.0
  0
MTEXT
  5
5C
100
AcDbEntity
  8
0
  6
CONTINUOUS
 62
       110
100
AcDbMText
 10
97.5050272371
 20
170.9890980238
 30
0.0
 40
3.2000000477
 41
0.0
 71
         5
 72
         1
  1
\A1;34.8
  7
MX_DIMTXSTY_2
  0
POINT
  5
5D
100
AcDbEntity
  8
DEFPOINTS
  6
CONTINUOUS
 62
         0
100
AcDbPoint
 10
80.080028
 20
134.4025371785
 30
0.0
  0
POINT
  5
5E
100
AcDbEntity
  8
DEFPOINTS
  6
CONTINUOUS
 62
         0
100
AcDbPoint
 10
114.880026
 20
129.9025371785
 30
0.0
  0
POINT
  5
5F
100
AcDbEntity
  8
DEFPOINTS
  6
CONTINUOUS
 62
         0
100
AcDbPoint
 10
114.880026
 20
168.389098
 30
0.0
  0
ENDBLK
  5
60
100
AcDbEntity
  8
0
  6
ByBlock
 62
         0
100
AcDbBlockEnd
  0
BLOCK
  5
63
100
AcDbEntity
  8
0
  6
ByBlock
 62
         0
100
AcDbBlockBegin
  2
*D4
 70
         1
 10
0.0
 20
0.0
 30
0.0
  3
*D4
  1

  0
LINE
  5
64
100
AcDbEntity
  8
0
  6
CONTINUOUS
 62
       110
100
AcDbLine
 10
80.080028
 20
158.999401
 30
0.0
 11
84.080028
 21
158.999401
 31
0.0
  0
LINE
  5
65
100
AcDbEntity
  8
0
  6
CONTINUOUS
 62
       110
100
AcDbLine
 10
80.080028
 20
134.4650362997
 30
0.0
 11
80.080028
 21
160.999401
 31
0.0
  0
LINE
  5
66
100
AcDbEntity
  8
0
  6
CONTINUOUS
 62
       110
100
AcDbLine
 10
84.080028
 20
134.4650362997
 30
0.0
 11
84.080028
 21
160.999401
 31
0.0
  0
SOLID
  5
67
100
AcDbEntity
  8
0
  6
CONTINUOUS
 62
       110
100
AcDbTrace
 10
81.0800280298
 20
158.832733995
 30
0.0
 11
81.0800280298
 21
159.166068005
 31
0.0
 12
80.080028
 22
158.999401
 32
0.0
 13
80.080028
 23
158.999401
 33
0.0
  0
SOLID
  5
68
100
AcDbEntity
  8
0
  6
CONTINUOUS
 62
       110
100
AcDbTrace
 10
83.0800279702
 20
159.166068005
 30
0.0
 11
83.0800279702
 21
158.832733995
 31
0.0
 12
84.080028
 22
158.999401
 32
0.0
 13
84.080028
 23
158.999401
 33
0.0
  0
MTEXT
  5
69
100
AcDbEntity
  8
0
  6
CONTINUOUS
 62
       110
100
AcDbMText
 10
82.1050280954
 20
161.5994010238
 30
0.0
 40
3.2000000477
 41
0.0
 71
         5
 72
         1
  1
\A1;4
  0
POINT
  5
6A
100
AcDbEntity
  8
DEFPOINTS
  6
CONTINUOUS
 62
         0
100
AcDbPoint
 10
80.080028
 20
134.4025362997
 30
0.0
  0
POINT
  5
6B
100
AcDbEntity
  8
DEFPOINTS
  6
CONTINUOUS
 62
         0
100
AcDbPoint
 10
84.080028
 20
134.4025362997
 30
0.0
  0
POINT
  5
6C
100
AcDbEntity
  8
DEFPOINTS
  6
CONTINUOUS
 62
         0
100
AcDbPoint
 10
84.080028
 20
158.999401
 30
0.0
  0
ENDBLK
  5
6D
100
AcDbEntity
  8
0
  6
ByBlock
 62
         0
100
AcDbBlockEnd
  0
BLOCK
  5
70
100
AcDbEntity
  8
0
  6
ByBlock
 62
         0
100
AcDbBlockBegin
  2
*D5
 70
         1
 10
0.0
 20
0.0
 30
0.0
  3
*D5
  1

  0
LINE
  5
71
100
AcDbEntity
  8
0
  6
CONTINUOUS
 62
       110
100
AcDbLine
 10
84.080028
 20
158.999401
 30
0.0
 11
114.880026
 21
158.999401
 31
0.0
  0
LINE
  5
72
100
AcDbEntity
  8
0
  6
CONTINUOUS
 62
       110
100
AcDbLine
 10
84.080028
 20
134.4650362997
 30
0.0
 11
84.080028
 21
160.999401
 31
0.0
  0
LINE
  5
73
100
AcDbEntity
  8
0
  6
CONTINUOUS
 62
       110
100
AcDbLine
 10
114.880026
 20
129.9650362997
 30
0.0
 11
114.880026
 21
160.999401
 31
0.0
  0
LINE
  5
74
100
AcDbEntity
  8
0
  6
CONTINUOUS
 62
       110
100
AcDbLine
 10
84.080028
 20
158.999401
 30
0.0
 11
80.080028
 21
158.999401
 31
0.0
  0
LINE
  5
75
100
AcDbEntity
  8
0
  6
CONTINUOUS
 62
       110
100
AcDbLine
 10
114.880026
 20
158.999401
 30
0.0
 11
118.880026
 21
158.999401
 31
0.0
  0
SOLID
  5
76
100
AcDbEntity
  8
0
  6
CONTINUOUS
 62
       110
100
AcDbTrace
 10
83.0800279702
 20
159.166068005
 30
0.0
 11
83.0800279702
 21
158.832733995
 31
0.0
 12
84.080028
 22
158.999401
 32
0.0
 13
84.080028
 23
158.999401
 33
0.0
  0
SOLID
  5
77
100
AcDbEntity
  8
0
  6
CONTINUOUS
 62
       110
100
AcDbTrace
 10
115.8800260298
 20
158.832733995
 30
0.0
 11
115.8800260298
 21
159.166068005
 31
0.0
 12
114.880026
 22
158.999401
 32
0.0
 13
114.880026
 23
158.999401
 33
0.0
  0
MTEXT
  5
78
100
AcDbEntity
  8
0
  6
CONTINUOUS
 62
       110
100
AcDbMText
 10
99.5050272371
 20
161.5994010238
 30
0.0
 40
3.2000000477
 41
0.0
 71
         5
 72
         1
  1
\A1;30.8
  7
MX_DIMTXSTY_2
  0
POINT
  5
79
100
AcDbEntity
  8
DEFPOINTS
  6
CONTINUOUS
 62
         0
100
AcDbPoint
 10
84.080028
 20
134.4025362997
 30
0.0
  0
POINT
  5
7A
100
AcDbEntity
  8
DEFPOINTS
  6
CONTINUOUS
 62
         0
100
AcDbPoint
 10
114.880026
 20
129.9025362997
 30
0.0
  0
POINT
  5
7B
100
AcDbEntity
  8
DEFPOINTS
  6
CONTINUOUS
 62
         0
100
AcDbPoint
 10
114.880026
 20
158.999401
 30
0.0
  0
ENDBLK
  5
7C
100
AcDbEntity
  8
0
  6
ByBlock
 62
         0
100
AcDbBlockEnd
  0
BLOCK
  5
7F
100
AcDbEntity
  8
0
  6
ByBlock
 62
         0
100
AcDbBlockBegin
  2
*D6
 70
         1
 10
0.0
 20
0.0
 30
0.0
  3
*D6
  1

  0
LINE
  5
80
100
AcDbEntity
  8
0
  6
CONTINUOUS
 62
       110
100
AcDbLine
 10
84.080028
 20
148.813967
 30
0.0
 11
87.080028
 21
148.813967
 31
0.0
  0
LINE
  5
81
100
AcDbEntity
  8
0
  6
CONTINUOUS
 62
       110
100
AcDbLine
 10
84.080028
 20
134.4650366411
 30
0.0
 11
84.080028
 21
150.813967
 31
0.0
  0
LINE
  5
82
100
AcDbEntity
  8
0
  6
CONTINUOUS
 62
       110
100
AcDbLine
 10
87.080028
 20
129.9650366411
 30
0.0
 11
87.080028
 21
150.813967
 31
0.0
  0
SOLID
  5
83
100
AcDbEntity
  8
0
  6
CONTINUOUS
 62
       110
100
AcDbTrace
 10
85.0800280298
 20
148.647299995
 30
0.0
 11
85.0800280298
 21
148.980634005
 31
0.0
 12
84.080028
 22
148.813967
 32
0.0
 13
84.080028
 23
148.813967
 33
0.0
  0
SOLID
  5
84
100
AcDbEntity
  8
0
  6
CONTINUOUS
 62
       110
100
AcDbTrace
 10
86.0800279702
 20
148.980634005
 30
0.0
 11
86.0800279702
 21
148.647299995
 31
0.0
 12
87.080028
 22
148.813967
 32
0.0
 13
87.080028
 23
148.813967
 33
0.0
  0
MTEXT
  5
85
100
AcDbEntity
  8
0
  6
CONTINUOUS
 62
       110
100
AcDbMText
 10
85.6050279762
 20
151.4139670238
 30
0.0
 40
3.2000000477
 41
0.0
 71
         5
 72
         1
  1
\A1;3
  0
POINT
  5
86
100
AcDbEntity
  8
DEFPOINTS
  6
CONTINUOUS
 62
         0
100
AcDbPoint
 10
84.080028
 20
134.4025366411
 30
0.0
  0
POINT
  5
87
100
AcDbEntity
  8
DEFPOINTS
  6
CONTINUOUS
 62
         0
100
AcDbPoint
 10
87.080028
 20
129.9025366411
 30
0.0
  0
POINT
  5
88
100
AcDbEntity
  8
DEFPOINTS
  6
CONTINUOUS
 62
         0
100
AcDbPoint
 10
87.080028
 20
148.813967
 30
0.0
  0
ENDBLK
  5
89
100
AcDbEntity
  8
0
  6
ByBlock
 62
         0
100
AcDbBlockEnd
  0
BLOCK
  5
8C
100
AcDbEntity
  8
0
  6
ByBlock
 62
         0
100
AcDbBlockBegin
  2
*D7
 70
         1
 10
0.0
 20
0.0
 30
0.0
  3
*D7
  1

  0
LINE
  5
8D
100
AcDbEntity
  8
0
  6
CONTINUOUS
 62
       110
100
AcDbLine
 10
91.380028
 20
148.813967
 30
0.0
 11
114.880026
 21
148.813967
 31
0.0
  0
LINE
  5
8E
100
AcDbEntity
  8
0
  6
CONTINUOUS
 62
       110
100
AcDbLine
 10
91.380028
 20
129.9650366411
 30
0.0
 11
91.380028
 21
150.813967
 31
0.0
  0
LINE
  5
8F
100
AcDbEntity
  8
0
  6
CONTINUOUS
 62
       110
100
AcDbLine
 10
114.880026
 20
129.9650366411
 30
0.0
 11
114.880026
 21
150.813967
 31
0.0
  0
LINE
  5
90
100
AcDbEntity
  8
0
  6
CONTINUOUS
 62
       110
100
AcDbLine
 10
91.380028
 20
148.813967
 30
0.0
 11
87.380028
 21
148.813967
 31
0.0
  0
LINE
  5
91
100
AcDbEntity
  8
0
  6
CONTINUOUS
 62
       110
100
AcDbLine
 10
114.880026
 20
148.813967
 30
0.0
 11
118.880026
 21
148.813967
 31
0.0
  0
SOLID
  5
92
100
AcDbEntity
  8
0
  6
CONTINUOUS
 62
       110
100
AcDbTrace
 10
90.3800279702
 20
148.980634005
 30
0.0
 11
90.3800279702
 21
148.647299995
 31
0.0
 12
91.380028
 22
148.813967
 32
0.0
 13
91.380028
 23
148.813967
 33
0.0
  0
SOLID
  5
93
100
AcDbEntity
  8
0
  6
CONTINUOUS
 62
       110
100
AcDbTrace
 10
115.8800260298
 20
148.647299995
 30
0.0
 11
115.8800260298
 21
148.980634005
 31
0.0
 12
114.880026
 22
148.813967
 32
0.0
 13
114.880026
 23
148.813967
 33
0.0
  0
MTEXT
  5
94
100
AcDbEntity
  8
0
  6
CONTINUOUS
 62
       110
100
AcDbMText
 10
103.1550266649
 20
151.4139670238
 30
0.0
 40
3.2000000477
 41
0.0
 71
         5
 72
         1
  1
\A1;23.5
  7
MX_DIMTXSTY_2
  0
POINT
  5
95
100
AcDbEntity
  8
DEFPOINTS
  6
CONTINUOUS
 62
         0
100
AcDbPoint
 10
91.380028
 20
129.9025366411
 30
0.0
  0
POINT
  5
96
100
AcDbEntity
  8
DEFPOINTS
  6
CONTINUOUS
 62
         0
100
AcDbPoint
 10
114.880026
 20
129.9025366411
 30
0.0
  0
POINT
  5
97
100
AcDbEntity
  8
DEFPOINTS
  6
CONTINUOUS
 62
         0
100
AcDbPoint
 10
114.880026
 20
148.813967
 30
0.0
  0
ENDBLK
  5
98
100
AcDbEntity
  8
0
  6
ByBlock
 62
         0
100
AcDbBlockEnd
  0
BLOCK
  5
9B
100
AcDbEntity
  8
0
  6
ByBlock
 62
         0
100
AcDbBlockBegin
  2
*D8
 70
         1
 10
0.0
 20
0.0
 30
0.0
  3
*D8
  1

  0
LINE
  5
9C
100
AcDbEntity
  8
0
  6
CONTINUOUS
 62
       110
100
AcDbLine
 10
131.095926
 20
129.902537
 30
0.0
 11
131.095926
 21
39.902541
 31
0.0
  0
LINE
  5
9D
100
AcDbEntity
  8
0
  6
CONTINUOUS
 62
       110
100
AcDbLine
 10
114.9425255789
 20
129.902537
 30
0.0
 11
133.095926
 21
129.902537
 31
0.0
  0
LINE
  5
9E
100
AcDbEntity
  8
0
  6
CONTINUOUS
 62
       110
100
AcDbLine
 10
114.9425255789
 20
39.902541
 30
0.0
 11
133.095926
 21
39.902541
 31
0.0
  0
LINE
  5
9F
100
AcDbEntity
  8
0
  6
CONTINUOUS
 62
       110
100
AcDbLine
 10
131.095926
 20
129.902537
 30
0.0
 11
131.095926
 21
133.902537
 31
0.0
  0
LINE
  5
A0
100
AcDbEntity
  8
0
  6
CONTINUOUS
 62
       110
100
AcDbLine
 10
131.095926
 20
39.902541
 30
0.0
 11
131.095926
 21
35.902541
 31
0.0
  0
SOLID
  5
A1
100
AcDbEntity
  8
0
  6
CONTINUOUS
 62
       110
100
AcDbTrace
 10
131.262593005
 20
130.9025370298
 30
0.0
 11
130.929258995
 21
130.9025370298
 31
0.0
 12
131.095926
 22
129.902537
 32
0.0
 13
131.095926
 23
129.902537
 33
0.0
  0
SOLID
  5
A2
100
AcDbEntity
  8
0
  6
CONTINUOUS
 62
       110
100
AcDbTrace
 10
130.929258995
 20
38.9025409702
 30
0.0
 11
131.262593005
 21
38.9025409702
 31
0.0
 12
131.095926
 22
39.902541
 32
0.0
 13
131.095926
 23
39.902541
 33
0.0
  0
MTEXT
  5
A3
100
AcDbEntity
  8
0
  6
CONTINUOUS
 62
       110
100
AcDbMText
 10
128.4959259762
 20
84.9275385259
 30
0.0
 40
3.2000000477
 41
0.0
 71
         5
 72
         1
  1
\A1;\U+220590
 11
0.0
 21
1.0
 31
0.0
  0
POINT
  5
A4
100
AcDbEntity
  8
DEFPOINTS
  6
CONTINUOUS
 62
         0
100
AcDbPoint
 10
114.8800255789
 20
129.902537
 30
0.0
  0
POINT
  5
A5
100
AcDbEntity
  8
DEFPOINTS
  6
CONTINUOUS
 62
         0
100
AcDbPoint
 10
114.8800255789
 20
39.902541
 30
0.0
  0
POINT
  5
A6
100
AcDbEntity
  8
DEFPOINTS
  6
CONTINUOUS
 62
         0
100
AcDbPoint
 10
131.095926
 20
39.902541
 30
0.0
  0
ENDBLK
  5
A7
100
AcDbEntity
  8
0
  6
ByBlock
 62
         0
100
AcDbBlockEnd
  0
BLOCK
  5
AA
100
AcDbEntity
  8
0
  6
ByBlock
 62
         0
100
AcDbBlockBegin
  2
*D9
 70
         1
 10
0.0
 20
0.0
 30
0.0
  3
*D9
  1

  0
LINE
  5
AB
100
AcDbEntity
  8
0
  6
CONTINUOUS
 62
       110
100
AcDbLine
 10
47.066097
 20
35.402541
 30
0.0
 11
47.066097
 21
134.402537
 31
0.0
  0
LINE
  5
AC
100
AcDbEntity
  8
0
  6
CONTINUOUS
 62
       110
100
AcDbLine
 10
80.0175282744
 20
35.402541
 30
0.0
 11
45.066097
 21
35.402541
 31
0.0
  0
LINE
  5
AD
100
AcDbEntity
  8
0
  6
CONTINUOUS
 62
       110
100
AcDbLine
 10
80.0175282744
 20
134.402537
 30
0.0
 11
45.066097
 21
134.402537
 31
0.0
  0
LINE
  5
AE
100
AcDbEntity
  8
0
  6
CONTINUOUS
 62
       110
100
AcDbLine
 10
47.066097
 20
35.402541
 30
0.0
 11
47.066097
 21
31.402541
 31
0.0
  0
LINE
  5
AF
100
AcDbEntity
  8
0
  6
CONTINUOUS
 62
       110
100
AcDbLine
 10
47.066097
 20
134.402537
 30
0.0
 11
47.066097
 21
138.402537
 31
0.0
  0
SOLID
  5
B0
100
AcDbEntity
  8
0
  6
CONTINUOUS
 62
       110
100
AcDbTrace
 10
46.899429995
 20
34.4025409702
 30
0.0
 11
47.232764005
 21
34.4025409702
 31
0.0
 12
47.066097
 22
35.402541
 32
0.0
 13
47.066097
 23
35.402541
 33
0.0
  0
SOLID
  5
B1
100
AcDbEntity
  8
0
  6
CONTINUOUS
 62
       110
100
AcDbTrace
 10
47.232764005
 20
135.4025370298
 30
0.0
 11
46.899429995
 21
135.4025370298
 31
0.0
 12
47.066097
 22
134.402537
 32
0.0
 13
47.066097
 23
134.402537
 33
0.0
  0
MTEXT
  5
B2
100
AcDbEntity
  8
0
  6
CONTINUOUS
 62
       110
100
AcDbMText
 10
44.4660969762
 20
84.9275348965
 30
0.0
 40
3.2000000477
 41
0.0
 71
         5
 72
         1
  1
\A1;\U+220599
 11
0.0
 21
1.0
 31
0.0
  0
POINT
  5
B3
100
AcDbEntity
  8
DEFPOINTS
  6
CONTINUOUS
 62
         0
100
AcDbPoint
 10
80.0800282744
 20
35.402541
 30
0.0
  0
POINT
  5
B4
100
AcDbEntity
  8
DEFPOINTS
  6
CONTINUOUS
 62
         0
100
AcDbPoint
 10
80.0800282744
 20
134.402537
 30
0.0
  0
POINT
  5
B5
100
AcDbEntity
  8
DEFPOINTS
  6
CONTINUOUS
 62
         0
100
AcDbPoint
 10
47.066097
 20
134.402537
 30
0.0
  0
ENDBLK
  5
B6
100
AcDbEntity
  8
0
  6
ByBlock
 62
         0
100
AcDbBlockEnd
  0
BLOCK
  5
B9
100
AcDbEntity
  8
0
  6
ByBlock
 62
         0
100
AcDbBlockBegin
  2
*D10
 70
         1
 10
0.0
 20
0.0
 30
0.0
  3
*D10
  1

  0
LINE
  5
BA
100
AcDbEntity
  8
0
  6
CONTINUOUS
 62
       110
100
AcDbLine
 10
57.5698257
 20
46.902541
 30
0.0
 11
57.5698257
 21
122.902537
 31
0.0
  0
LINE
  5
BB
100
AcDbEntity
  8
0
  6
CONTINUOUS
 62
       110
100
AcDbLine
 10
78.1255279095
 20
46.902541
 30
0.0
 11
55.5698257
 21
46.902541
 31
0.0
  0
LINE
  5
BC
100
AcDbEntity
  8
0
  6
CONTINUOUS
 62
       110
100
AcDbLine
 10
70.5665288479
 20
122.902537
 30
0.0
 11
55.5698257
 21
122.902537
 31
0.0
  0
LINE
  5
BD
100
AcDbEntity
  8
0
  6
CONTINUOUS
 62
       110
100
AcDbLine
 10
57.5698257
 20
46.902541
 30
0.0
 11
57.5698257
 21
42.902541
 31
0.0
  0
LINE
  5
BE
100
AcDbEntity
  8
0
  6
CONTINUOUS
 62
       110
100
AcDbLine
 10
57.5698257
 20
122.902537
 30
0.0
 11
57.5698257
 21
126.902537
 31
0.0
  0
SOLID
  5
BF
100
AcDbEntity
  8
0
  6
CONTINUOUS
 62
       110
100
AcDbTrace
 10
57.403158695
 20
45.9025409702
 30
0.0
 11
57.736492705
 21
45.9025409702
 31
0.0
 12
57.5698257
 22
46.902541
 32
0.0
 13
57.5698257
 23
46.902541
 33
0.0
  0
SOLID
  5
C0
100
AcDbEntity
  8
0
  6
CONTINUOUS
 62
       110
100
AcDbTrace
 10
57.736492705
 20
123.9025370298
 30
0.0
 11
57.403158695
 21
123.9025370298
 31
0.0
 12
57.5698257
 22
122.902537
 32
0.0
 13
57.5698257
 23
122.902537
 33
0.0
  0
MTEXT
  5
C1
100
AcDbEntity
  8
0
  6
CONTINUOUS
 62
       110
100
AcDbMText
 10
54.9698256762
 20
84.9275348965
 30
0.0
 40
3.2000000477
 41
0.0
 71
         5
 72
         1
  1
\A1;\U+220576
 11
0.0
 21
1.0
 31
0.0
  0
POINT
  5
C2
100
AcDbEntity
  8
DEFPOINTS
  6
CONTINUOUS
 62
         0
100
AcDbPoint
 10
78.1880279095
 20
46.902541
 30
0.0
  0
POINT
  5
C3
100
AcDbEntity
  8
DEFPOINTS
  6
CONTINUOUS
 62
         0
100
AcDbPoint
 10
70.6290288479
 20
122.902537
 30
0.0
  0
POINT
  5
C4
100
AcDbEntity
  8
DEFPOINTS
  6
CONTINUOUS
 62
         0
100
AcDbPoint
 10
57.5698257
 20
122.902537
 30
0.0
  0
ENDBLK
  5
C5
100
AcDbEntity
  8
0
  6
ByBlock
 62
         0
100
AcDbBlockEnd
  0
BLOCK
  5
C8
100
AcDbEntity
  8
0
  6
ByBlock
 62
         0
100
AcDbBlockBegin
  2
*D11
 70
         1
 10
0.0
 20
0.0
 30
0.0
  3
*D11
  1

  0
LINE
  5
C9
100
AcDbEntity
  8
0
  6
CONTINUOUS
 62
       110
100
AcDbLine
 10
67.2778174
 20
54.90254
 30
0.0
 11
67.2778174
 21
114.902538
 31
0.0
  0
LINE
  5
CA
100
AcDbEntity
  8
0
  6
CONTINUOUS
 62
       110
100
AcDbLine
 10
80.0175282078
 20
54.90254
 30
0.0
 11
65.2778174
 21
54.90254
 31
0.0
  0
LINE
  5
CB
100
AcDbEntity
  8
0
  6
CONTINUOUS
 62
       110
100
AcDbLine
 10
80.0175282078
 20
114.902538
 30
0.0
 11
65.2778174
 21
114.902538
 31
0.0
  0
LINE
  5
CC
100
AcDbEntity
  8
0
  6
CONTINUOUS
 62
       110
100
AcDbLine
 10
67.2778174
 20
54.90254
 30
0.0
 11
67.2778174
 21
50.90254
 31
0.0
  0
LINE
  5
CD
100
AcDbEntity
  8
0
  6
CONTINUOUS
 62
       110
100
AcDbLine
 10
67.2778174
 20
114.902538
 30
0.0
 11
67.2778174
 21
118.902538
 31
0.0
  0
SOLID
  5
CE
100
AcDbEntity
  8
0
  6
CONTINUOUS
 62
       110
100
AcDbTrace
 10
67.111150395
 20
53.9025399702
 30
0.0
 11
67.444484405
 21
53.9025399702
 31
0.0
 12
67.2778174
 22
54.90254
 32
0.0
 13
67.2778174
 23
54.90254
 33
0.0
  0
SOLID
  5
CF
100
AcDbEntity
  8
0
  6
CONTINUOUS
 62
       110
100
AcDbTrace
 10
67.444484405
 20
115.9025380298
 30
0.0
 11
67.111150395
 21
115.9025380298
 31
0.0
 12
67.2778174
 22
114.902538
 32
0.0
 13
67.2778174
 23
114.902538
 33
0.0
  0
MTEXT
  5
D0
100
AcDbEntity
  8
0
  6
CONTINUOUS
 62
       110
100
AcDbMText
 10
64.6778173762
 20
84.9275377112
 30
0.0
 40
3.2000000477
 41
0.0
 71
         5
 72
         1
  1
\A1;\U+220560
 11
0.0
 21
1.0
 31
0.0
  0
POINT
  5
D1
100
AcDbEntity
  8
DEFPOINTS
  6
CONTINUOUS
 62
         0
100
AcDbPoint
 10
80.0800282078
 20
54.90254
 30
0.0
  0
POINT
  5
D2
100
AcDbEntity
  8
DEFPOINTS
  6
CONTINUOUS
 62
         0
100
AcDbPoint
 10
80.0800282078
 20
114.902538
 30
0.0
  0
POINT
  5
D3
100
AcDbEntity
  8
DEFPOINTS
  6
CONTINUOUS
 62
         0
100
AcDbPoint
 10
67.2778174
 20
114.902538
 30
0.0
  0
ENDBLK
  5
D4
100
AcDbEntity
  8
0
  6
ByBlock
 62
         0
100
AcDbBlockEnd
  0
ENDSEC
  0
SECTION
  2
ENTITIES
  0
MTEXT
  5
29
100
AcDbEntity
  8
0
  6
CONTINUOUS
 62
       110
100
AcDbMText
 10
23.5642405188
 20
15.4423005604
 30
0.0
 40
4.797601223
 41
0.0
 71
         1
 72
         1
  1
\T1.025;\W1.058;\A1;TSUBAKI
  0
MTEXT
  5
2A
100
AcDbEntity
  8
0
  6
CONTINUOUS
 62
       110
100
AcDbMText
 10
2.4502404688
 20
-22.4716994396
 30
0.0
 40
4.797601223
 41
0.0
 71
         1
 72
         1
  1
\T1.025;\W1.058;\A1;TSUBAKI
  0
MTEXT
  5
2B
100
AcDbEntity
  8
PV
  6
CONTINUOUS
 62
       110
100
AcDbMText
 10
-63.6658300829
 20
-103.2991998396
 30
0.0
 40
4.797601223
 41
0.0
 71
         1
 72
         1
  1
\A1;MASS
  0
MTEXT
  5
2C
100
AcDbEntity
  8
PV
  6
CONTINUOUS
 62
       110
100
AcDbMText
 10
2.3785970116
 20
-31.4716994396
 30
0.0
 40
4.797601223
 41
0.0
 71
         1
 72
         1
  1
\T1.003;\W1.067;\A1;POWER LOCK
  0
MTEXT
  5
2D
100
AcDbEntity
  8
PV
  6
CONTINUOUS
 62
       110
100
AcDbMText
 10
-63.5219388986
 20
-58.2991994396
 30
0.0
 40
4.797601223
 41
0.0
 71
         1
 72
         1
  1
\T1.041;\W1.120;\A1;TIGHTENING TORQUE OF LOCKING BOLTS
  0
MTEXT
  5
2E
100
AcDbEntity
  8
PV
  6
CONTINUOUS
 62
       110
100
AcDbMText
 10
-63.4941326609
 20
-49.2991994396
 30
0.0
 40
4.797601223
 41
0.0
 71
         1
 72
         1
  1
\T1.047;\W1.149;\A1;QUANTITY AND SIZE OF LOCKING BOLTS
  0
MTEXT
  5
2F
100
AcDbEntity
  8
PV
  6
CONTINUOUS
 62
       110
100
AcDbMText
 10
-63.5723118981
 20
-67.2991994396
 30
0.0
 40
4.797601223
 41
0.0
 71
         1
 72
         1
  1
\T1.028;\W1.060;\A1;TRANSMISSIBLE TORQUE
  0
MTEXT
  5
30
100
AcDbEntity
  8
PV
  6
CONTINUOUS
 62
       110
100
AcDbMText
 10
-63.5723118981
 20
-76.2991994396
 30
0.0
 40
4.797601223
 41
0.0
 71
         1
 72
         1
  1
\T1.028;\W1.060;\A1;TRANSMISSIBLE THRUST
  0
MTEXT
  5
31
100
AcDbEntity
  8
PV
  6
CONTINUOUS
 62
       110
100
AcDbMText
 10
-63.578408204
 20
-85.2991994396
 30
0.0
 40
4.797601223
 41
0.0
 71
         1
 72
         1
  1
\T1.025;\W1.104;\A1;CONTACT PRESSURE OF SHAFT
  0
MTEXT
  5
32
100
AcDbEntity
  8
PV
  6
CONTINUOUS
 62
       110
100
AcDbMText
 10
-63.5590433619
 20
-94.2991994396
 30
0.0
 40
4.797601223
 41
0.0
 71
         1
 72
         1
  1
\T1.030;\W1.126;\A1;CONTACT PRESSURE OF HUB BORE
  0
MTEXT
  5
33
100
AcDbEntity
  8
PV
  6
CONTINUOUS
 62
       110
100
AcDbMText
 10
-63.6075372381
 20
-40.2991994396
 30
0.0
 40
4.797601223
 41
0.0
 71
         1
 72
         1
  1
\T1.017;\W1.071;\A1;MODEL NUMBER
  0
MTEXT
  5
34
100
AcDbEntity
  8
PV
  6
CONTINUOUS
 62
       110
100
AcDbMText
 10
23.4925970616
 20
6.4423005904
 30
0.0
 40
4.797601223
 41
0.0
 71
         1
 72
         1
  1
\T1.003;\W1.067;\A1;POWER LOCK
  0
MTEXT
  5
35
100
AcDbEntity
  8
PV
  6
CONTINUOUS
 62
       110
100
AcDbMText
 10
23.5327566952
 20
-2.5576994096
 30
0.0
 40
4.797601223
 41
0.0
 71
         1
 72
         1
  1
\W1.065;\A1;PL060X090AE
  0
LINE
  5
36
100
AcDbEntity
  8
PV
  6
CONTINUOUS
 62
         3
100
AcDbLine
 10
101.78347
 20
-38.0
 30
0.0
 11
101.78347
 21
-110.0
 31
0.0
  0
LINE
  5
37
100
AcDbEntity
  8
PV
  6
CONTINUOUS
 62
         3
100
AcDbLine
 10
-70.3760295
 20
-20.0
 30
0.0
 11
-70.3760295
 21
-110.0
 31
0.0
  0
LINE
  5
38
100
AcDbEntity
  8
PV
  6
CONTINUOUS
 62
         3
100
AcDbLine
 10
-70.3760295
 20
-20.0
 30
0.0
 11
228.286917
 21
-20.0
 31
0.0
  0
LINE
  5
39
100
AcDbEntity
  8
PV
  6
CONTINUOUS
 62
         3
100
AcDbLine
 10
-70.3760295
 20
-110.0
 30
0.0
 11
228.286917
 21
-110.0
 31
0.0
  0
LINE
  5
3A
100
AcDbEntity
  8
PV
  6
CONTINUOUS
 62
         3
100
AcDbLine
 10
-70.3760295
 20
-101.0
 30
0.0
 11
228.286917
 21
-101.0
 31
0.0
  0
LINE
  5
3B
100
AcDbEntity
  8
PV
  6
CONTINUOUS
 62
         3
100
AcDbLine
 10
-70.3760295
 20
-92.0
 30
0.0
 11
228.286917
 21
-92.0
 31
0.0
  0
LINE
  5
3C
100
AcDbEntity
  8
PV
  6
CONTINUOUS
 62
         3
100
AcDbLine
 10
-70.3760295
 20
-83.0
 30
0.0
 11
228.286917
 21
-83.0
 31
0.0
  0
LINE
  5
3D
100
AcDbEntity
  8
PV
  6
CONTINUOUS
 62
         3
100
AcDbLine
 10
-70.3760295
 20
-74.0
 30
0.0
 11
228.286917
 21
-74.0
 31
0.0
  0
LINE
  5
3E
100
AcDbEntity
  8
PV
  6
CONTINUOUS
 62
         3
100
AcDbLine
 10
-70.3760295
 20
-65.0
 30
0.0
 11
228.286917
 21
-65.0
 31
0.0
  0
LINE
  5
3F
100
AcDbEntity
  8
PV
  6
CONTINUOUS
 62
         3
100
AcDbLine
 10
-70.3760295
 20
-56.0
 30
0.0
 11
228.286917
 21
-56.0
 31
0.0
  0
LINE
  5
40
100
AcDbEntity
  8
PV
  6
CONTINUOUS
 62
         3
100
AcDbLine
 10
-70.3760295
 20
-47.0
 30
0.0
 11
228.286917
 21
-47.0
 31
0.0
  0
LINE
  5
41
100
AcDbEntity
  8
PV
  6
CONTINUOUS
 62
         3
100
AcDbLine
 10
-70.3760295
 20
-38.0
 30
0.0
 11
228.286917
 21
-38.0
 31
0.0
  0
LINE
  5
42
100
AcDbEntity
  8
PV
  6
CONTINUOUS
 62
         3
100
AcDbLine
 10
-70.3760295
 20
-29.0
 30
0.0
 11
228.286917
 21
-29.0
 31
0.0
  0
DIMENSION
  5
52
100
AcDbEntity
  8
PV
  6
CONTINUOUS
 62
       110
100
AcDbDimension
  2
*D2
 10
114.880026
 20
178.09709
 30
0.0
 11
93.5050263297
 21
178.09709
 31
0.0
 70
       128
  1
\A1;<>
  3
MXDIMSTYLE
100
AcDbAlignedDimension
 13
72.080029
 23
128.5365393103
 33
0.0
 14
114.880026
 24
129.9025366248
 34
0.0
100
AcDbRotatedDimension
1001
ACAD
1000
DSTYLE
1002
{
1070
         6
1000
SOLID
1070
         7
1000
SOLID
1070
        41
1040
1.0000000298
1070
        42
1040
0.0625
1070
        44
1040
2.0
1070
       271
1070
         4
1070
       284
1070
         8
1070
       340
1005
4C
1070
       343
1005
0
1070
       344
1005
0
1002
}
  0
DIMENSION
  5
61
100
AcDbEntity
  8
PV
  6
CONTINUOUS
 62
       110
100
AcDbDimension
  2
*D3
 10
114.880026
 20
168.389098
 30
0.0
 11
97.5050272371
 21
168.389098
 31
0.0
 70
       128
  1
\A1;<>
  3
MXDIMSTYLE
100
AcDbAlignedDimension
 13
80.080028
 23
134.4025371785
 33
0.0
 14
114.880026
 24
129.9025371785
 34
0.0
100
AcDbRotatedDimension
1001
ACAD
1000
DSTYLE
1002
{
1070
         6
1000
SOLID
1070
         7
1000
SOLID
1070
        41
1040
1.0000000298
1070
        42
1040
0.0625
1070
        44
1040
2.0
1070
       271
1070
         4
1070
       284
1070
         8
1070
       340
1005
4C
1070
       343
1005
0
1070
       344
1005
0
1002
}
  0
DIMENSION
  5
6E
100
AcDbEntity
  8
PV
  6
CONTINUOUS
 62
       110
100
AcDbDimension
  2
*D4
 10
84.080028
 20
158.999401
 30
0.0
 11
82.1050280954
 21
158.999401
 31
0.0
 70
       128
  1
\A1;<>
  3
MXDIMSTYLE
100
AcDbAlignedDimension
 13
80.080028
 23
134.4025362997
 33
0.0
 14
84.080028
 24
134.4025362997
 34
0.0
100
AcDbRotatedDimension
1001
ACAD
1000
DSTYLE
1002
{
1070
         6
1000
SOLID
1070
         7
1000
SOLID
1070
        41
1040
1.0000000298
1070
        42
1040
0.0625
1070
        44
1040
2.0
1070
       271
1070
         4
1070
       284
1070
         8
1070
       343
1005
0
1070
       344
1005
0
1002
}
  0
DIMENSION
  5
7D
100
AcDbEntity
  8
PV
  6
CONTINUOUS
 62
       110
100
AcDbDimension
  2
*D5
 10
114.880026
 20
158.999401
 30
0.0
 11
99.5050272371
 21
158.999401
 31
0.0
 70
       128
  1
\A1;<>
  3
MXDIMSTYLE
100
AcDbAlignedDimension
 13
84.080028
 23
134.4025362997
 33
0.0
 14
114.880026
 24
129.9025362997
 34
0.0
100
AcDbRotatedDimension
1001
ACAD
1000
DSTYLE
1002
{
1070
         6
1000
SOLID
1070
         7
1000
SOLID
1070
        41
1040
1.0000000298
1070
        42
1040
0.0625
1070
        44
1040
2.0
1070
       271
1070
         4
1070
       284
1070
         8
1070
       340
1005
4C
1070
       343
1005
0
1070
       344
1005
0
1002
}
  0
DIMENSION
  5
8A
100
AcDbEntity
  8
PV
  6
CONTINUOUS
 62
       110
100
AcDbDimension
  2
*D6
 10
87.080028
 20
148.813967
 30
0.0
 11
85.6050279762
 21
148.813967
 31
0.0
 70
       128
  1
\A1;<>
  3
MXDIMSTYLE
100
AcDbAlignedDimension
 13
84.080028
 23
134.4025366411
 33
0.0
 14
87.080028
 24
129.9025366411
 34
0.0
100
AcDbRotatedDimension
1001
ACAD
1000
DSTYLE
1002
{
1070
         6
1000
SOLID
1070
         7
1000
SOLID
1070
        41
1040
1.0000000298
1070
        42
1040
0.0625
1070
        44
1040
2.0
1070
       271
1070
         4
1070
       284
1070
         8
1070
       343
1005
0
1070
       344
1005
0
1002
}
  0
DIMENSION
  5
99
100
AcDbEntity
  8
PV
  6
CONTINUOUS
 62
       110
100
AcDbDimension
  2
*D7
 10
114.880026
 20
148.813967
 30
0.0
 11
103.1550266649
 21
148.813967
 31
0.0
 70
       128
  1
\A1;<>
  3
MXDIMSTYLE
100
AcDbAlignedDimension
 13
91.380028
 23
129.9025366411
 33
0.0
 14
114.880026
 24
129.9025366411
 34
0.0
100
AcDbRotatedDimension
1001
ACAD
1000
DSTYLE
1002
{
1070
         6
1000
SOLID
1070
         7
1000
SOLID
1070
        41
1040
1.0000000298
1070
        42
1040
0.0625
1070
        44
1040
2.0
1070
       271
1070
         4
1070
       284
1070
         8
1070
       340
1005
4C
1070
       343
1005
0
1070
       344
1005
0
1002
}
  0
DIMENSION
  5
A8
100
AcDbEntity
  8
PV
  6
CONTINUOUS
 62
       110
100
AcDbDimension
  2
*D8
 10
131.095926
 20
39.902541
 30
0.0
 11
131.095926
 21
84.9275385259
 31
0.0
 70
       128
  1
\A1;\U+2205<>
  3
MXDIMSTYLE
100
AcDbAlignedDimension
 13
114.8800255789
 23
129.902537
 33
0.0
 14
114.8800255789
 24
39.902541
 34
0.0
 50
90.0
100
AcDbRotatedDimension
1001
ACAD
1000
DSTYLE
1002
{
1070
         6
1000
SOLID
1070
         7
1000
SOLID
1070
        41
1040
1.0000000298
1070
        42
1040
0.0625
1070
        44
1040
2.0
1070
       271
1070
         4
1070
       284
1070
         8
1070
       343
1005
0
1070
       344
1005
0
1002
}
  0
DIMENSION
  5
B7
100
AcDbEntity
  8
PV
  6
CONTINUOUS
 62
       110
100
AcDbDimension
  2
*D9
 10
47.066097
 20
134.402537
 30
0.0
 11
47.066097
 21
84.9275348965
 31
0.0
 70
       128
  1
\A1;\U+2205<>
  3
MXDIMSTYLE
100
AcDbAlignedDimension
 13
80.0800282744
 23
35.402541
 33
0.0
 14
80.0800282744
 24
134.402537
 34
0.0
 50
90.0
100
AcDbRotatedDimension
1001
ACAD
1000
DSTYLE
1002
{
1070
         6
1000
SOLID
1070
         7
1000
SOLID
1070
        41
1040
1.0000000298
1070
        42
1040
0.0625
1070
        44
1040
2.0
1070
       271
1070
         4
1070
       284
1070
         8
1070
       343
1005
0
1070
       344
1005
0
1002
}
  0
DIMENSION
  5
C6
100
AcDbEntity
  8
PV
  6
CONTINUOUS
 62
       110
100
AcDbDimension
  2
*D10
 10
57.5698257
 20
122.902537
 30
0.0
 11
57.5698257
 21
84.9275348965
 31
0.0
 70
       128
  1
\A1;\U+2205<>
  3
MXDIMSTYLE
100
AcDbAlignedDimension
 13
78.1880279095
 23
46.902541
 33
0.0
 14
70.6290288479
 24
122.902537
 34
0.0
 50
90.0
100
AcDbRotatedDimension
1001
ACAD
1000
DSTYLE
1002
{
1070
         6
1000
SOLID
1070
         7
1000
SOLID
1070
        41
1040
1.0000000298
1070
        42
1040
0.0625
1070
        44
1040
2.0
1070
       271
1070
         4
1070
       284
1070
         8
1070
       343
1005
0
1070
       344
1005
0
1002
}
  0
DIMENSION
  5
D5
100
AcDbEntity
  8
PV
  6
CONTINUOUS
 62
       110
100
AcDbDimension
  2
*D11
 10
67.2778174
 20
114.902538
 30
0.0
 11
67.2778174
 21
84.9275377112
 31
0.0
 70
       128
  1
\A1;\U+2205<>
  3
MXDIMSTYLE
100
AcDbAlignedDimension
 13
80.0800282078
 23
54.90254
 33
0.0
 14
80.0800282078
 24
114.902538
 34
0.0
 50
90.0
100
AcDbRotatedDimension
1001
ACAD
1000
DSTYLE
1002
{
1070
         6
1000
SOLID
1070
         7
1000
SOLID
1070
        41
1040
1.0000000298
1070
        42
1040
0.0625
1070
        44
1040
2.0
1070
       271
1070
         4
1070
       284
1070
         8
1070
       343
1005
0
1070
       344
1005
0
1002
}
  0
LINE
  5
D6
100
AcDbEntity
  8
PV
  6
CONTINUOUS
 62
         3
100
AcDbLine
 10
84.080028
 20
39.902541
 30
0.0
 11
87.080028
 21
39.902541
 31
0.0
  0
LINE
  5
D7
100
AcDbEntity
  8
PV
  6
CONTINUOUS
 62
         3
100
AcDbLine
 10
91.380028
 20
129.902537
 30
0.0
 11
114.880026
 21
129.902537
 31
0.0
  0
LINE
  5
D8
100
AcDbEntity
  8
PV
  6
CONTINUOUS
 62
         3
100
AcDbLine
 10
16.243499
 20
159.605535
 30
0.0
 11
6.2105
 21
159.605535
 31
0.0
  0
LINE
  5
D9
100
AcDbEntity
  8
PV
  6
CONTINUOUS
 62
         3
100
AcDbLine
 10
-11.996499
 20
100.257538
 30
0.0
 11
16.243499
 21
159.605535
 31
0.0
  0
MTEXT
  5
DA
100
AcDbEntity
  8
PV
  6
CONTINUOUS
 62
       110
100
AcDbMText
 10
116.6082619783
 20
-94.1079469396
 30
0.0
 40
4.797601223
 41
0.0
 71
         1
 72
         1
  1
\W1.125;\A1;122
  0
MTEXT
  5
DB
100
AcDbEntity
  8
PV
  6
CONTINUOUS
 62
       110
100
AcDbMText
 10
116.6082619783
 20
-85.1124449396
 30
0.0
 40
4.797601223
 41
0.0
 71
         1
 72
         1
  1
\W1.125;\A1;219
  0
MTEXT
  5
DC
100
AcDbEntity
  8
PV
  6
CONTINUOUS
 62
       110
100
AcDbMText
 10
111.8706309736
 20
-76.1169429396
 30
0.0
 40
4.797601223
 41
0.0
 71
         1
 72
         1
  1
\W1.200;\A1;86.8
  0
MTEXT
  5
DD
100
AcDbEntity
  8
PV
  6
CONTINUOUS
 62
       110
100
AcDbMText
 10
111.8706309736
 20
-67.1214409396
 30
0.0
 40
4.797601223
 41
0.0
 71
         1
 72
         1
  1
\W1.200;\A1;2.55
  0
MTEXT
  5
DE
100
AcDbEntity
  8
PV
  6
CONTINUOUS
 62
       110
100
AcDbMText
 10
111.921132025
 20
-58.1259399396
 30
0.0
 40
4.797601223
 41
0.0
 71
         1
 72
         1
  1
\W1.263;\A1;40.2
  0
MTEXT
  5
DF
100
AcDbEntity
  8
PV
  6
CONTINUOUS
 62
       110
100
AcDbMText
 10
214.4208511593
 20
-93.5082470368
 30
0.0
 40
2.3987998962
 41
0.0
 71
         1
 72
         1
  1
\A1;2
  0
MTEXT
  5
E0
100
AcDbEntity
  8
PV
  6
CONTINUOUS
 62
       110
100
AcDbMText
 10
186.1476221608
 20
-94.1079469396
 30
0.0
 40
4.797601223
 41
0.0
 71
         1
 72
         1
  1
\T1.070;\W1.143;\A1;kgf/ mm \}
  0
MTEXT
  5
E1
100
AcDbEntity
  8
PV
  6
CONTINUOUS
 62
       110
100
AcDbMText
 10
214.4208511593
 20
-84.5127452368
 30
0.0
 40
2.3987998962
 41
0.0
 71
         1
 72
         1
  1
\A1;2
  0
MTEXT
  5
E2
100
AcDbEntity
  8
PV
  6
CONTINUOUS
 62
       110
100
AcDbMText
 10
186.1476221608
 20
-85.1124449396
 30
0.0
 40
4.797601223
 41
0.0
 71
         1
 72
         1
  1
\T1.070;\W1.143;\A1;kgf/ mm \}
  0
MTEXT
  5
E3
100
AcDbEntity
  8
PV
  6
CONTINUOUS
 62
       110
100
AcDbMText
 10
186.1477158932
 20
-76.1169429396
 30
0.0
 40
4.797601223
 41
0.0
 71
         1
 72
         1
  1
\W1.091;\A1;kgf\}
  0
MTEXT
  5
E4
100
AcDbEntity
  8
PV
  6
CONTINUOUS
 62
       110
100
AcDbMText
 10
186.4748249732
 20
-58.1259399396
 30
0.0
 40
4.797601223
 41
0.0
 71
         1
 72
         1
  1
\W0.833;\A1;ｋｇｆ・ｍ｝
  0
MTEXT
  5
E5
100
AcDbEntity
  8
PV
  6
CONTINUOUS
 62
       110
100
AcDbMText
 10
186.4748249732
 20
-67.1214409396
 30
0.0
 40
4.797601223
 41
0.0
 71
         1
 72
         1
  1
\W0.833;\A1;ｋｇｆ・ｍ｝
  0
MTEXT
  5
E6
100
AcDbEntity
  8
PV
  6
CONTINUOUS
 62
       110
100
AcDbMText
 10
133.5997663171
 20
-103.1034498396
 30
0.0
 40
4.797601223
 41
0.0
 71
         1
 72
         1
  1
\A1;kg
  0
MTEXT
  5
E7
100
AcDbEntity
  8
PV
  6
CONTINUOUS
 62
       110
100
AcDbMText
 10
133.5997663171
 20
-94.1079469396
 30
0.0
 40
4.797601223
 41
0.0
 71
         1
 72
         1
  1
\A1;MPa
  0
MTEXT
  5
E8
100
AcDbEntity
  8
PV
  6
CONTINUOUS
 62
       110
100
AcDbMText
 10
133.5997663171
 20
-85.1124449396
 30
0.0
 40
4.797601223
 41
0.0
 71
         1
 72
         1
  1
\A1;MPa
  0
MTEXT
  5
E9
100
AcDbEntity
  8
PV
  6
CONTINUOUS
 62
       110
100
AcDbMText
 10
133.5997663171
 20
-76.1169429396
 30
0.0
 40
4.797601223
 41
0.0
 71
         1
 72
         1
  1
\A1;kN
  0
MTEXT
  5
EA
100
AcDbEntity
  8
PV
  6
CONTINUOUS
 62
       110
100
AcDbMText
 10
133.9995659732
 20
-67.1214409396
 30
0.0
 40
4.797601223
 41
0.0
 71
         1
 72
         1
  1
\W0.833;\A1;ｋＮ・ｍ
  0
MTEXT
  5
EB
100
AcDbEntity
  8
PV
  6
CONTINUOUS
 62
       110
100
AcDbMText
 10
133.9995659732
 20
-58.1259399396
 30
0.0
 40
4.797601223
 41
0.0
 71
         1
 72
         1
  1
\W0.833;\A1;Ｎ・ｍ
  0
MTEXT
  5
EC
100
AcDbEntity
  8
PV
  6
CONTINUOUS
 62
       110
100
AcDbMText
 10
138.5194180952
 20
-40.1349359396
 30
0.0
 40
4.797601223
 41
0.0
 71
         1
 72
         1
  1
\W1.065;\A1;PL060X090AE
  0
MTEXT
  5
ED
100
AcDbEntity
  8
PV
  6
CONTINUOUS
 62
       110
100
AcDbMText
 10
145.7160406583
 20
-49.1304379396
 30
0.0
 40
4.797601223
 41
0.0
 71
         1
 72
         1
  1
\W1.067;\A1;10-M8X22
  0
MTEXT
  5
EE
100
AcDbEntity
  8
PV
  6
CONTINUOUS
 62
       110
100
AcDbMText
 10
163.1464911238
 20
-58.1259399396
 30
0.0
 40
4.797601223
 41
0.0
 71
         1
 72
         1
  1
\W1.500;\A1;\{4.1
  0
MTEXT
  5
EF
100
AcDbEntity
  8
PV
  6
CONTINUOUS
 62
       110
100
AcDbMText
 10
162.8609197583
 20
-67.1214409396
 30
0.0
 40
4.797601223
 41
0.0
 71
         1
 72
         1
  1
\W1.143;\A1;\{260
  0
MTEXT
  5
F0
100
AcDbEntity
  8
PV
  6
CONTINUOUS
 62
       110
100
AcDbMText
 10
158.036435635
 20
-76.1169429396
 30
0.0
 40
4.797601223
 41
0.0
 71
         1
 72
         1
  1
\W1.111;\A1;\{8860
  0
MTEXT
  5
F1
100
AcDbEntity
  8
PV
  6
CONTINUOUS
 62
       110
100
AcDbMText
 10
158.1474911672
 20
-85.1124449396
 30
0.0
 40
4.797601223
 41
0.0
 71
         1
 72
         1
  1
\W1.250;\A1;\{22.3
  0
MTEXT
  5
F2
100
AcDbEntity
  8
PV
  6
CONTINUOUS
 62
       110
100
AcDbMText
 10
158.2383547833
 20
-94.1079469396
 30
0.0
 40
4.797601223
 41
0.0
 71
         1
 72
         1
  1
\W1.364;\A1;\{12.4
  0
MTEXT
  5
F3
100
AcDbEntity
  8
PV
  6
CONTINUOUS
 62
       110
100
AcDbMText
 10
111.9772443052
 20
-103.1034498396
 30
0.0
 40
4.797601223
 41
0.0
 71
         1
 72
         1
  1
\W1.333;\A1;0.90
  0
MTEXT
  5
F4
100
AcDbEntity
  8
PV
  6
CONTINUOUS
 62
       110
100
AcDbMText
 10
6.547244897
 20
163.6509765322
 30
0.0
 40
3.2000000477
 41
0.0
 71
         1
 72
         1
  1
\A1;M8
 11
0.9998476952
 21
-0.0174524064
 31
0.0
  0
CIRCLE
  5
F5
100
AcDbEntity
  8
PV
  6
CONTINUOUS
 62
         3
100
AcDbCircle
 10
-49.855498
 20
84.902539
 30
0.0
 40
49.499998
  0
CIRCLE
  5
F6
100
AcDbEntity
  8
PV
  6
CONTINUOUS
 62
         3
100
AcDbCircle
 10
-49.855498
 20
84.902539
 30
0.0
 40
29.999999
  0
LINE
  5
F7
100
AcDbEntity
  8
PV
  6
CONTINUOUS
 62
         3
100
AcDbLine
 10
80.080028
 20
134.402537
 30
0.0
 11
80.080028
 21
35.402541
 31
0.0
  0
LINE
  5
F8
100
AcDbEntity
  8
PV
  6
CONTINUOUS
 62
         3
100
AcDbLine
 10
72.080029
 20
128.536537
 30
0.0
 11
72.080029
 21
117.268537
 31
0.0
  0
LINE
  5
F9
100
AcDbEntity
  8
PV
  6
CONTINUOUS
 62
         3
100
AcDbLine
 10
72.080029
 20
128.536537
 30
0.0
 11
72.580029
 21
129.402537
 31
0.0
  0
LINE
  5
FA
100
AcDbEntity
  8
PV
  6
CONTINUOUS
 62
         3
100
AcDbLine
 10
72.080029
 20
117.268537
 30
0.0
 11
72.580029
 21
116.402537
 31
0.0
  0
LINE
  5
FB
100
AcDbEntity
  8
PV
  6
CONTINUOUS
 62
         3
100
AcDbLine
 10
80.080028
 20
116.402537
 30
0.0
 11
72.580029
 21
116.402537
 31
0.0
  0
LINE
  5
FC
100
AcDbEntity
  8
PV
  6
CONTINUOUS
 62
         3
100
AcDbLine
 10
80.080028
 20
129.402537
 30
0.0
 11
72.580029
 21
129.402537
 31
0.0
  0
LINE
  5
FD
100
AcDbEntity
  8
PV
  6
CONTINUOUS
 62
         3
100
AcDbLine
 10
114.880026
 20
84.902539
 30
0.0
 11
114.880026
 21
39.902541
 31
0.0
  0
LINE
  5
FE
100
AcDbEntity
  8
PV
  6
CONTINUOUS
 62
         3
100
AcDbLine
 10
114.880026
 20
39.902541
 30
0.0
 11
91.380028
 21
39.902541
 31
0.0
  0
LINE
  5
FF
100
AcDbEntity
  8
PV
  6
CONTINUOUS
 62
         3
100
AcDbLine
 10
114.880026
 20
129.902537
 30
0.0
 11
114.880026
 21
84.902539
 31
0.0
  0
LINE
  5
100
100
AcDbEntity
  8
PV
  6
CONTINUOUS
 62
         3
100
AcDbLine
 10
84.080028
 20
129.902537
 30
0.0
 11
87.080028
 21
129.902537
 31
0.0
  0
LINE
  5
101
100
AcDbEntity
  8
PV
  6
CONTINUOUS
 62
         3
100
AcDbLine
 10
110.180027
 20
54.90254
 30
0.0
 11
80.080028
 21
54.90254
 31
0.0
  0
LINE
  5
102
100
AcDbEntity
  8
PV
  6
CONTINUOUS
 62
         3
100
AcDbLine
 10
84.080028
 20
39.902541
 30
0.0
 11
84.080028
 21
35.402541
 31
0.0
  0
LINE
  5
103
100
AcDbEntity
  8
PV
  6
CONTINUOUS
 62
         3
100
AcDbLine
 10
84.080028
 20
35.402541
 30
0.0
 11
80.080028
 21
35.402541
 31
0.0
  0
LINE
  5
104
100
AcDbEntity
  8
PV
  6
CONTINUOUS
 62
         3
100
AcDbLine
 10
80.080028
 20
114.902538
 30
0.0
 11
110.180027
 21
114.902538
 31
0.0
  0
LINE
  5
105
100
AcDbEntity
  8
PV
  6
CONTINUOUS
 62
         3
100
AcDbLine
 10
84.080028
 20
134.402537
 30
0.0
 11
84.080028
 21
129.902537
 31
0.0
  0
LINE
  5
106
100
AcDbEntity
  8
PV
  6
CONTINUOUS
 62
         3
100
AcDbLine
 10
80.080028
 20
134.402537
 30
0.0
 11
84.080028
 21
134.402537
 31
0.0
  0
LINE
  5
107
100
AcDbEntity
  8
PV
  6
CONTINUOUS
 62
         3
100
AcDbLine
 10
228.286917
 20
-20.044982
 30
0.0
 11
228.286917
 21
-110.0
 31
0.0
  0
CIRCLE
  5
108
100
AcDbEntity
  8
PV
  6
CONTINUOUS
 62
         3
100
AcDbCircle
 10
-61.597497
 20
121.042537
 30
0.0
 40
5.634
  0
CIRCLE
  5
109
100
AcDbEntity
  8
PV
  6
CONTINUOUS
 62
         3
100
AcDbCircle
 10
-61.597497
 20
121.042537
 30
0.0
 40
6.5
  0
CIRCLE
  5
10A
100
AcDbEntity
  8
PV
  6
CONTINUOUS
 62
         3
100
AcDbCircle
 10
-80.598496
 20
107.238538
 30
0.0
 40
5.634
  0
CIRCLE
  5
10B
100
AcDbEntity
  8
PV
  6
CONTINUOUS
 62
         3
100
AcDbCircle
 10
-80.598496
 20
107.238538
 30
0.0
 40
6.5
  0
CIRCLE
  5
10C
100
AcDbEntity
  8
PV
  6
CONTINUOUS
 62
         3
100
AcDbCircle
 10
-87.855496
 20
84.902539
 30
0.0
 40
5.634
  0
CIRCLE
  5
10D
100
AcDbEntity
  8
PV
  6
CONTINUOUS
 62
         3
100
AcDbCircle
 10
-87.855496
 20
84.902539
 30
0.0
 40
6.5
  0
CIRCLE
  5
10E
100
AcDbEntity
  8
PV
  6
CONTINUOUS
 62
         3
100
AcDbCircle
 10
-80.598496
 20
62.56654
 30
0.0
 40
5.634
  0
CIRCLE
  5
10F
100
AcDbEntity
  8
PV
  6
CONTINUOUS
 62
         3
100
AcDbCircle
 10
-80.598496
 20
62.56654
 30
0.0
 40
6.5
  0
CIRCLE
  5
110
100
AcDbEntity
  8
PV
  6
CONTINUOUS
 62
         3
100
AcDbCircle
 10
-61.598497
 20
48.762541
 30
0.0
 40
5.634
  0
CIRCLE
  5
111
100
AcDbEntity
  8
PV
  6
CONTINUOUS
 62
         3
100
AcDbCircle
 10
-61.598497
 20
48.762541
 30
0.0
 40
6.5
  0
CIRCLE
  5
112
100
AcDbEntity
  8
PV
  6
CONTINUOUS
 62
         3
100
AcDbCircle
 10
-38.112498
 20
48.762541
 30
0.0
 40
5.634
  0
CIRCLE
  5
113
100
AcDbEntity
  8
PV
  6
CONTINUOUS
 62
         3
100
AcDbCircle
 10
-38.112498
 20
48.762541
 30
0.0
 40
6.5
  0
CIRCLE
  5
114
100
AcDbEntity
  8
PV
  6
CONTINUOUS
 62
         3
100
AcDbCircle
 10
-19.112499
 20
62.56654
 30
0.0
 40
5.634
  0
CIRCLE
  5
115
100
AcDbEntity
  8
PV
  6
CONTINUOUS
 62
         3
100
AcDbCircle
 10
-19.112499
 20
62.56654
 30
0.0
 40
6.5
  0
CIRCLE
  5
116
100
AcDbEntity
  8
PV
  6
CONTINUOUS
 62
         3
100
AcDbCircle
 10
-11.855499
 20
84.902539
 30
0.0
 40
5.634
  0
CIRCLE
  5
117
100
AcDbEntity
  8
PV
  6
CONTINUOUS
 62
         3
100
AcDbCircle
 10
-11.855499
 20
84.902539
 30
0.0
 40
6.5
  0
CIRCLE
  5
118
100
AcDbEntity
  8
PV
  6
CONTINUOUS
 62
         3
100
AcDbCircle
 10
-19.112499
 20
107.238538
 30
0.0
 40
5.634
  0
CIRCLE
  5
119
100
AcDbEntity
  8
PV
  6
CONTINUOUS
 62
         3
100
AcDbCircle
 10
-19.112499
 20
107.238538
 30
0.0
 40
6.5
  0
CIRCLE
  5
11A
100
AcDbEntity
  8
PV
  6
CONTINUOUS
 62
         3
100
AcDbCircle
 10
-38.112498
 20
121.042537
 30
0.0
 40
5.634
  0
CIRCLE
  5
11B
100
AcDbEntity
  8
PV
  6
CONTINUOUS
 62
         3
100
AcDbCircle
 10
-38.112498
 20
121.042537
 30
0.0
 40
6.5
  0
CIRCLE
  5
11C
100
AcDbEntity
  8
PV
  6
CONTINUOUS
 62
         3
100
AcDbCircle
 10
-13.715499
 20
96.645538
 30
0.0
 40
3.323
  0
CIRCLE
  5
11D
100
AcDbEntity
  8
PV
  6
CONTINUOUS
 62
         3
100
AcDbCircle
 10
-13.715499
 20
96.645538
 30
0.0
 40
4.0
  0
CIRCLE
  5
11E
100
AcDbEntity
  8
PV
  6
CONTINUOUS
 62
         3
100
AcDbCircle
 10
-49.855498
 20
46.902541
 30
0.0
 40
3.323
  0
CIRCLE
  5
11F
100
AcDbEntity
  8
PV
  6
CONTINUOUS
 62
         3
100
AcDbCircle
 10
-49.855498
 20
46.902541
 30
0.0
 40
4.0
  0
CIRCLE
  5
120
100
AcDbEntity
  8
PV
  6
CONTINUOUS
 62
         3
100
AcDbCircle
 10
-85.995496
 20
96.645538
 30
0.0
 40
3.323
  0
CIRCLE
  5
121
100
AcDbEntity
  8
PV
  6
CONTINUOUS
 62
         3
100
AcDbCircle
 10
-85.995496
 20
96.645538
 30
0.0
 40
4.0
  0
CIRCLE
  5
123
100
AcDbEntity
  8
PV
  6
CENTER
 62
         3
100
AcDbCircle
 10
-49.855498
 20
84.902539
 30
0.0
 40
37.999998
  0
LINE
  5
124
100
AcDbEntity
  8
PV
  6
CONTINUOUS
 62
         3
100
AcDbLine
 10
-64.597497
 20
122.774537
 30
0.0
 11
-64.597497
 21
119.310537
 31
0.0
  0
LINE
  5
125
100
AcDbEntity
  8
PV
  6
CONTINUOUS
 62
         3
100
AcDbLine
 10
-58.597497
 20
122.774537
 30
0.0
 11
-58.597497
 21
119.310537
 31
0.0
  0
LINE
  5
126
100
AcDbEntity
  8
PV
  6
CONTINUOUS
 62
         3
100
AcDbLine
 10
-61.597497
 20
117.578537
 30
0.0
 11
-58.597497
 21
119.310537
 31
0.0
  0
LINE
  5
127
100
AcDbEntity
  8
PV
  6
CONTINUOUS
 62
         3
100
AcDbLine
 10
-61.597497
 20
117.578537
 30
0.0
 11
-64.597497
 21
119.310537
 31
0.0
  0
LINE
  5
128
100
AcDbEntity
  8
PV
  6
CONTINUOUS
 62
         3
100
AcDbLine
 10
-61.597497
 20
124.506537
 30
0.0
 11
-64.597497
 21
122.774537
 31
0.0
  0
LINE
  5
129
100
AcDbEntity
  8
PV
  6
CONTINUOUS
 62
         3
100
AcDbLine
 10
-61.597497
 20
124.506537
 30
0.0
 11
-58.597497
 21
122.774537
 31
0.0
  0
LINE
  5
12A
100
AcDbEntity
  8
PV
  6
CONTINUOUS
 62
         3
100
AcDbLine
 10
-83.598496
 20
108.970538
 30
0.0
 11
-83.598496
 21
105.506538
 31
0.0
  0
LINE
  5
12B
100
AcDbEntity
  8
PV
  6
CONTINUOUS
 62
         3
100
AcDbLine
 10
-77.598496
 20
108.970538
 30
0.0
 11
-77.598496
 21
105.506538
 31
0.0
  0
LINE
  5
12C
100
AcDbEntity
  8
PV
  6
CONTINUOUS
 62
         3
100
AcDbLine
 10
-80.597496
 20
103.774538
 30
0.0
 11
-77.597496
 21
105.506538
 31
0.0
  0
LINE
  5
12D
100
AcDbEntity
  8
PV
  6
CONTINUOUS
 62
         3
100
AcDbLine
 10
-80.598496
 20
103.774538
 30
0.0
 11
-83.598496
 21
105.506538
 31
0.0
  0
LINE
  5
12E
100
AcDbEntity
  8
PV
  6
CONTINUOUS
 62
         3
100
AcDbLine
 10
-80.597496
 20
110.702538
 30
0.0
 11
-83.597496
 21
108.970538
 31
0.0
  0
LINE
  5
12F
100
AcDbEntity
  8
PV
  6
CONTINUOUS
 62
         3
100
AcDbLine
 10
-80.598496
 20
110.702538
 30
0.0
 11
-77.598496
 21
108.970538
 31
0.0
  0
LINE
  5
130
100
AcDbEntity
  8
PV
  6
CONTINUOUS
 62
         3
100
AcDbLine
 10
-90.855495
 20
86.634539
 30
0.0
 11
-90.855495
 21
83.170539
 31
0.0
  0
LINE
  5
131
100
AcDbEntity
  8
PV
  6
CONTINUOUS
 62
         3
100
AcDbLine
 10
-84.855496
 20
86.634539
 30
0.0
 11
-84.855496
 21
83.170539
 31
0.0
  0
LINE
  5
132
100
AcDbEntity
  8
PV
  6
CONTINUOUS
 62
         3
100
AcDbLine
 10
-87.855496
 20
81.438539
 30
0.0
 11
-84.855496
 21
83.170539
 31
0.0
  0
LINE
  5
133
100
AcDbEntity
  8
PV
  6
CONTINUOUS
 62
         3
100
AcDbLine
 10
-87.855496
 20
81.438539
 30
0.0
 11
-90.855495
 21
83.170539
 31
0.0
  0
LINE
  5
134
100
AcDbEntity
  8
PV
  6
CONTINUOUS
 62
         3
100
AcDbLine
 10
-87.855496
 20
88.366539
 30
0.0
 11
-90.855495
 21
86.634539
 31
0.0
  0
LINE
  5
135
100
AcDbEntity
  8
PV
  6
CONTINUOUS
 62
         3
100
AcDbLine
 10
-87.855496
 20
88.366539
 30
0.0
 11
-84.855496
 21
86.634539
 31
0.0
  0
LINE
  5
136
100
AcDbEntity
  8
PV
  6
CONTINUOUS
 62
         3
100
AcDbLine
 10
-83.598496
 20
64.29854
 30
0.0
 11
-83.598496
 21
60.83454
 31
0.0
  0
LINE
  5
137
100
AcDbEntity
  8
PV
  6
CONTINUOUS
 62
         3
100
AcDbLine
 10
-77.598496
 20
64.29854
 30
0.0
 11
-77.598496
 21
60.83454
 31
0.0
  0
LINE
  5
138
100
AcDbEntity
  8
PV
  6
CONTINUOUS
 62
         3
100
AcDbLine
 10
-80.598496
 20
59.10254
 30
0.0
 11
-77.598496
 21
60.83454
 31
0.0
  0
LINE
  5
139
100
AcDbEntity
  8
PV
  6
CONTINUOUS
 62
         3
100
AcDbLine
 10
-80.598496
 20
59.10254
 30
0.0
 11
-83.598496
 21
60.83454
 31
0.0
  0
LINE
  5
13A
100
AcDbEntity
  8
PV
  6
CONTINUOUS
 62
         3
100
AcDbLine
 10
-80.598496
 20
66.03054
 30
0.0
 11
-83.598496
 21
64.29854
 31
0.0
  0
LINE
  5
13B
100
AcDbEntity
  8
PV
  6
CONTINUOUS
 62
         3
100
AcDbLine
 10
-80.598496
 20
66.03054
 30
0.0
 11
-77.598496
 21
64.29854
 31
0.0
  0
LINE
  5
13C
100
AcDbEntity
  8
PV
  6
CONTINUOUS
 62
         3
100
AcDbLine
 10
-64.598497
 20
50.494541
 30
0.0
 11
-64.598497
 21
47.030541
 31
0.0
  0
LINE
  5
13D
100
AcDbEntity
  8
PV
  6
CONTINUOUS
 62
         3
100
AcDbLine
 10
-58.598497
 20
50.494541
 30
0.0
 11
-58.598497
 21
47.030541
 31
0.0
  0
LINE
  5
13E
100
AcDbEntity
  8
PV
  6
CONTINUOUS
 62
         3
100
AcDbLine
 10
-61.598497
 20
45.298541
 30
0.0
 11
-58.598497
 21
47.030541
 31
0.0
  0
LINE
  5
13F
100
AcDbEntity
  8
PV
  6
CONTINUOUS
 62
         3
100
AcDbLine
 10
-61.598497
 20
45.298541
 30
0.0
 11
-64.598497
 21
47.030541
 31
0.0
  0
LINE
  5
140
100
AcDbEntity
  8
PV
  6
CONTINUOUS
 62
         3
100
AcDbLine
 10
-61.598497
 20
52.226541
 30
0.0
 11
-64.598497
 21
50.494541
 31
0.0
  0
LINE
  5
141
100
AcDbEntity
  8
PV
  6
CONTINUOUS
 62
         3
100
AcDbLine
 10
-61.598497
 20
52.226541
 30
0.0
 11
-58.598497
 21
50.494541
 31
0.0
  0
LINE
  5
142
100
AcDbEntity
  8
PV
  6
CONTINUOUS
 62
         3
100
AcDbLine
 10
-41.112498
 20
50.494541
 30
0.0
 11
-41.112498
 21
47.030541
 31
0.0
  0
LINE
  5
143
100
AcDbEntity
  8
PV
  6
CONTINUOUS
 62
         3
100
AcDbLine
 10
-35.112498
 20
50.494541
 30
0.0
 11
-35.112498
 21
47.030541
 31
0.0
  0
LINE
  5
144
100
AcDbEntity
  8
PV
  6
CONTINUOUS
 62
         3
100
AcDbLine
 10
-38.112498
 20
45.298541
 30
0.0
 11
-35.112498
 21
47.030541
 31
0.0
  0
LINE
  5
145
100
AcDbEntity
  8
PV
  6
CONTINUOUS
 62
         3
100
AcDbLine
 10
-38.112498
 20
45.298541
 30
0.0
 11
-41.112498
 21
47.030541
 31
0.0
  0
LINE
  5
146
100
AcDbEntity
  8
PV
  6
CONTINUOUS
 62
         3
100
AcDbLine
 10
-38.112498
 20
52.226541
 30
0.0
 11
-41.112498
 21
50.494541
 31
0.0
  0
LINE
  5
147
100
AcDbEntity
  8
PV
  6
CONTINUOUS
 62
         3
100
AcDbLine
 10
-38.112498
 20
52.226541
 30
0.0
 11
-35.112498
 21
50.494541
 31
0.0
  0
LINE
  5
148
100
AcDbEntity
  8
PV
  6
CONTINUOUS
 62
         3
100
AcDbLine
 10
-22.112499
 20
64.29854
 30
0.0
 11
-22.112499
 21
60.83454
 31
0.0
  0
LINE
  5
149
100
AcDbEntity
  8
PV
  6
CONTINUOUS
 62
         3
100
AcDbLine
 10
-16.112499
 20
64.29854
 30
0.0
 11
-16.112499
 21
60.83454
 31
0.0
  0
LINE
  5
14A
100
AcDbEntity
  8
PV
  6
CONTINUOUS
 62
         3
100
AcDbLine
 10
-19.112499
 20
59.10254
 30
0.0
 11
-16.112499
 21
60.83454
 31
0.0
  0
LINE
  5
14B
100
AcDbEntity
  8
PV
  6
CONTINUOUS
 62
         3
100
AcDbLine
 10
-19.112499
 20
59.10254
 30
0.0
 11
-22.112499
 21
60.83454
 31
0.0
  0
LINE
  5
14C
100
AcDbEntity
  8
PV
  6
CONTINUOUS
 62
         3
100
AcDbLine
 10
-19.112499
 20
66.03054
 30
0.0
 11
-22.112499
 21
64.29854
 31
0.0
  0
LINE
  5
14D
100
AcDbEntity
  8
PV
  6
CONTINUOUS
 62
         3
100
AcDbLine
 10
-19.112499
 20
66.03054
 30
0.0
 11
-16.112499
 21
64.29854
 31
0.0
  0
LINE
  5
14E
100
AcDbEntity
  8
PV
  6
CONTINUOUS
 62
         3
100
AcDbLine
 10
-14.855499
 20
86.634539
 30
0.0
 11
-14.855499
 21
83.170539
 31
0.0
  0
LINE
  5
14F
100
AcDbEntity
  8
PV
  6
CONTINUOUS
 62
         3
100
AcDbLine
 10
-8.8555
 20
86.634539
 30
0.0
 11
-8.8555
 21
83.170539
 31
0.0
  0
LINE
  5
150
100
AcDbEntity
  8
PV
  6
CONTINUOUS
 62
         3
100
AcDbLine
 10
-11.855499
 20
81.438539
 30
0.0
 11
-8.8555
 21
83.170539
 31
0.0
  0
LINE
  5
151
100
AcDbEntity
  8
PV
  6
CONTINUOUS
 62
         3
100
AcDbLine
 10
-11.855499
 20
81.438539
 30
0.0
 11
-14.855499
 21
83.170539
 31
0.0
  0
LINE
  5
152
100
AcDbEntity
  8
PV
  6
CONTINUOUS
 62
         3
100
AcDbLine
 10
-11.855499
 20
88.366539
 30
0.0
 11
-14.855499
 21
86.634539
 31
0.0
  0
LINE
  5
153
100
AcDbEntity
  8
PV
  6
CONTINUOUS
 62
         3
100
AcDbLine
 10
-11.855499
 20
88.366539
 30
0.0
 11
-8.8555
 21
86.634539
 31
0.0
  0
LINE
  5
154
100
AcDbEntity
  8
PV
  6
CONTINUOUS
 62
         3
100
AcDbLine
 10
-22.112499
 20
108.970538
 30
0.0
 11
-22.112499
 21
105.506538
 31
0.0
  0
LINE
  5
155
100
AcDbEntity
  8
PV
  6
CONTINUOUS
 62
         3
100
AcDbLine
 10
-16.112499
 20
108.970538
 30
0.0
 11
-16.112499
 21
105.506538
 31
0.0
  0
LINE
  5
156
100
AcDbEntity
  8
PV
  6
CONTINUOUS
 62
         3
100
AcDbLine
 10
-19.112499
 20
103.774538
 30
0.0
 11
-16.112499
 21
105.506538
 31
0.0
  0
LINE
  5
157
100
AcDbEntity
  8
PV
  6
CONTINUOUS
 62
         3
100
AcDbLine
 10
-19.112499
 20
103.774538
 30
0.0
 11
-22.112499
 21
105.506538
 31
0.0
  0
LINE
  5
158
100
AcDbEntity
  8
PV
  6
CONTINUOUS
 62
         3
100
AcDbLine
 10
-19.112499
 20
110.702538
 30
0.0
 11
-22.112499
 21
108.970538
 31
0.0
  0
LINE
  5
159
100
AcDbEntity
  8
PV
  6
CONTINUOUS
 62
         3
100
AcDbLine
 10
-19.112499
 20
110.702538
 30
0.0
 11
-16.112499
 21
108.970538
 31
0.0
  0
LINE
  5
15A
100
AcDbEntity
  8
PV
  6
CONTINUOUS
 62
         3
100
AcDbLine
 10
-41.112498
 20
122.774537
 30
0.0
 11
-41.112498
 21
119.310537
 31
0.0
  0
LINE
  5
15B
100
AcDbEntity
  8
PV
  6
CONTINUOUS
 62
         3
100
AcDbLine
 10
-35.112498
 20
122.774537
 30
0.0
 11
-35.112498
 21
119.310537
 31
0.0
  0
LINE
  5
15C
100
AcDbEntity
  8
PV
  6
CONTINUOUS
 62
         3
100
AcDbLine
 10
-38.112498
 20
117.578537
 30
0.0
 11
-35.112498
 21
119.310537
 31
0.0
  0
LINE
  5
15D
100
AcDbEntity
  8
PV
  6
CONTINUOUS
 62
         3
100
AcDbLine
 10
-38.112498
 20
117.578537
 30
0.0
 11
-41.112498
 21
119.310537
 31
0.0
  0
LINE
  5
15E
100
AcDbEntity
  8
PV
  6
CONTINUOUS
 62
         3
100
AcDbLine
 10
-38.112498
 20
124.506537
 30
0.0
 11
-41.112498
 21
122.774537
 31
0.0
  0
LINE
  5
15F
100
AcDbEntity
  8
PV
  6
CONTINUOUS
 62
         3
100
AcDbLine
 10
-38.112498
 20
124.506537
 30
0.0
 11
-35.112498
 21
122.774537
 31
0.0
  0
LINE
  5
160
100
AcDbEntity
  8
PV
  6
CENTER
 62
         3
100
AcDbLine
 10
-65.880497
 20
134.222537
 30
0.0
 11
-58.444497
 21
111.337538
 31
0.0
  0
LINE
  5
161
100
AcDbEntity
  8
PV
  6
CENTER
 62
         3
100
AcDbLine
 10
-33.830498
 20
134.222537
 30
0.0
 11
-41.266498
 21
111.337538
 31
0.0
  0
LINE
  5
162
100
AcDbEntity
  8
PV
  6
CENTER
 62
         3
100
AcDbLine
 10
-7.9015
 20
115.384537
 30
0.0
 11
-27.368499
 21
101.240538
 31
0.0
  0
LINE
  5
163
100
AcDbEntity
  8
PV
  6
CENTER
 62
         3
100
AcDbLine
 10
-0.5355
 20
100.927538
 30
0.0
 11
-23.419499
 21
93.491539
 31
0.0
  0
LINE
  5
164
100
AcDbEntity
  8
PV
  6
CENTER
 62
         3
100
AcDbLine
 10
-7.9015
 20
54.421541
 30
0.0
 11
-27.368499
 21
68.56454
 31
0.0
  0
LINE
  5
165
100
AcDbEntity
  8
PV
  6
CENTER
 62
         3
100
AcDbLine
 10
-33.830498
 20
35.582541
 30
0.0
 11
-41.265498
 21
58.46754
 31
0.0
  0
LINE
  5
166
100
AcDbEntity
  8
PV
  6
CENTER
 62
         3
100
AcDbLine
 10
-65.880497
 20
35.582541
 30
0.0
 11
-58.444497
 21
58.46754
 31
0.0
  0
LINE
  5
167
100
AcDbEntity
  8
PV
  6
CENTER
 62
         3
100
AcDbLine
 10
-91.809495
 20
54.421541
 30
0.0
 11
-72.342496
 21
68.56454
 31
0.0
  0
LINE
  5
168
100
AcDbEntity
  8
PV
  6
CENTER
 62
         3
100
AcDbLine
 10
-99.175495
 20
100.927538
 30
0.0
 11
-76.290496
 21
93.491539
 31
0.0
  0
LINE
  5
169
100
AcDbEntity
  8
PV
  6
CENTER
 62
         3
100
AcDbLine
 10
-91.809495
 20
115.384537
 30
0.0
 11
-72.342496
 21
101.240538
 31
0.0
  0
LINE
  5
16A
100
AcDbEntity
  8
PV
  6
CENTER
 62
         3
100
AcDbLine
 10
-49.855498
 20
136.331536
 30
0.0
 11
-49.855498
 21
32.402542
 31
0.0
  0
LINE
  5
16B
100
AcDbEntity
  8
PV
  6
CENTER
 62
         3
100
AcDbLine
 10
-100.340495
 20
84.902539
 30
0.0
 11
0.3085
 21
84.902539
 31
0.0
  0
LINE
  5
16C
100
AcDbEntity
  8
PV
  6
CONTINUOUS
 62
         3
100
AcDbLine
 10
110.180027
 20
115.642537
 30
0.0
 11
110.180027
 21
54.162541
 31
0.0
  0
LINE
  5
16D
100
AcDbEntity
  8
PV
  6
CONTINUOUS
 62
         3
100
AcDbLine
 10
87.080028
 20
118.902537
 30
0.0
 11
87.080028
 21
117.951537
 31
0.0
  0
LINE
  5
16E
100
AcDbEntity
  8
PV
  6
CONTINUOUS
 62
         3
100
AcDbLine
 10
83.205028
 20
122.694537
 30
0.0
 11
83.205028
 21
118.902537
 31
0.0
  0
LINE
  5
16F
100
AcDbEntity
  8
PV
  6
CONTINUOUS
 62
         3
100
AcDbLine
 10
91.380028
 20
119.578537
 30
0.0
 11
91.380028
 21
117.522537
 31
0.0
  0
LINE
  5
170
100
AcDbEntity
  8
PV
  6
CONTINUOUS
 62
         3
100
AcDbLine
 10
72.580029
 20
129.402537
 30
0.0
 11
72.580029
 21
116.402537
 31
0.0
  0
LINE
  5
171
100
AcDbEntity
  8
PV
  6
CONTINUOUS
 62
         3
100
AcDbLine
 10
83.205028
 20
126.225537
 30
0.0
 11
114.880026
 21
126.225537
 31
0.0
  0
LINE
  5
172
100
AcDbEntity
  8
PV
  6
CONTINUOUS
 62
         3
100
AcDbLine
 10
83.205028
 20
119.578537
 30
0.0
 11
114.880026
 21
119.578537
 31
0.0
  0
LINE
  5
173
100
AcDbEntity
  8
PV
  6
CONTINUOUS
 62
         3
100
AcDbLine
 10
83.205028
 20
119.578537
 30
0.0
 11
81.852028
 21
118.902537
 31
0.0
  0
LINE
  5
174
100
AcDbEntity
  8
PV
  6
CONTINUOUS
 62
         3
100
AcDbLine
 10
83.205028
 20
126.225537
 30
0.0
 11
81.852028
 21
126.902537
 31
0.0
  0
LINE
  5
175
100
AcDbEntity
  8
PV
  6
CONTINUOUS
 62
         3
100
AcDbLine
 10
83.205028
 20
126.902537
 30
0.0
 11
83.205028
 21
123.068537
 31
0.0
  0
LINE
  5
176
100
AcDbEntity
  8
PV
  6
CONTINUOUS
 62
         3
100
AcDbLine
 10
102.080027
 20
125.702537
 30
0.0
 11
102.080027
 21
120.102537
 31
0.0
  0
LINE
  5
177
100
AcDbEntity
  8
PV
  6
CONTINUOUS
 62
         3
100
AcDbLine
 10
100.880027
 20
126.902537
 30
0.0
 11
100.880027
 21
118.902537
 31
0.0
  0
LINE
  5
178
100
AcDbEntity
  8
PV
  6
CONTINUOUS
 62
         3
100
AcDbLine
 10
100.880027
 20
118.902537
 30
0.0
 11
102.080027
 21
120.102537
 31
0.0
  0
LINE
  5
179
100
AcDbEntity
  8
PV
  6
CONTINUOUS
 62
         3
100
AcDbLine
 10
100.880027
 20
126.902537
 30
0.0
 11
102.080027
 21
125.702537
 31
0.0
  0
LINE
  5
17A
100
AcDbEntity
  8
PV
  6
CONTINUOUS
 62
         3
100
AcDbLine
 10
114.880026
 20
118.902537
 30
0.0
 11
80.080028
 21
118.902537
 31
0.0
  0
LINE
  5
17B
100
AcDbEntity
  8
PV
  6
CONTINUOUS
 62
         3
100
AcDbLine
 10
114.880026
 20
126.902537
 30
0.0
 11
80.080028
 21
126.902537
 31
0.0
  0
LINE
  5
17C
100
AcDbEntity
  8
PV
  6
CONTINUOUS
 62
         3
100
AcDbLine
 10
91.380028
 20
52.282541
 30
0.0
 11
91.380028
 21
39.902541
 31
0.0
  0
LINE
  5
17D
100
AcDbEntity
  8
PV
  6
CONTINUOUS
 62
         3
100
AcDbLine
 10
91.380028
 20
129.902537
 30
0.0
 11
91.380028
 21
126.225537
 31
0.0
  0
LINE
  5
17E
100
AcDbEntity
  8
PV
  6
CENTER
 62
         3
100
AcDbLine
 10
70.629029
 20
122.902537
 30
0.0
 11
116.326026
 21
122.902537
 31
0.0
  0
LINE
  5
17F
100
AcDbEntity
  8
PV
  6
CENTER
 62
         3
100
AcDbLine
 10
76.014028
 20
84.902539
 30
0.0
 11
116.300026
 21
84.902539
 31
0.0
  0
LINE
  5
180
100
AcDbEntity
  8
PV
  6
CONTINUOUS
 62
         3
100
AcDbLine
 10
87.080028
 20
50.225541
 30
0.0
 11
80.080028
 21
50.225541
 31
0.0
  0
LINE
  5
181
100
AcDbEntity
  8
PV
  6
CONTINUOUS
 62
         3
100
AcDbLine
 10
87.080028
 20
50.902541
 30
0.0
 11
80.080028
 21
50.902541
 31
0.0
  0
LINE
  5
182
100
AcDbEntity
  8
PV
  6
CONTINUOUS
 62
         3
100
AcDbLine
 10
80.080028
 20
43.578541
 30
0.0
 11
87.080028
 21
43.578541
 31
0.0
  0
LINE
  5
183
100
AcDbEntity
  8
PV
  6
CONTINUOUS
 62
         3
100
AcDbLine
 10
80.080028
 20
42.902541
 30
0.0
 11
87.080028
 21
42.902541
 31
0.0
  0
LINE
  5
184
100
AcDbEntity
  8
PV
  6
CONTINUOUS
 62
         3
100
AcDbLine
 10
114.880026
 20
54.6325409
 30
0.0
 11
87.080028
 21
51.852541
 31
0.0
  0
LINE
  5
185
100
AcDbEntity
  8
PV
  6
CONTINUOUS
 62
         3
100
AcDbLine
 10
87.080028
 20
51.852541
 30
0.0
 11
87.080028
 21
39.902541
 31
0.0
  0
LINE
  5
186
100
AcDbEntity
  8
PV
  6
CENTER
 62
         3
100
AcDbLine
 10
89.208028
 20
46.902541
 30
0.0
 11
78.188028
 21
46.902541
 31
0.0
  0
LINE
  5
187
100
AcDbEntity
  8
PV
  6
CONTINUOUS
 62
         3
100
AcDbLine
 10
87.080028
 20
117.951537
 30
0.0
 11
114.880026
 21
115.172627
 31
0.0
  0
LINE
  5
188
100
AcDbEntity
  8
PV
  6
CONTINUOUS
 62
         3
100
AcDbLine
 10
87.080028
 20
129.902537
 30
0.0
 11
87.080028
 21
126.902537
 31
0.0
  0
ENDSEC
  0
SECTION
  2
OBJECTS
  0
DICTIONARY
  5
19
100
AcDbDictionary
  3
ACAD_GROUP
350
1A
  3
ACAD_MLINESTYLE
350
1B
  0
DICTIONARY
  5
1A
102
{ACAD_REACTORS
330
19
102
}
100
AcDbDictionary
  0
DICTIONARY
  5
1B
102
{ACAD_REACTORS
330
19
102
}
100
AcDbDictionary
  3
STANDARD
350
1C
  0
MLINESTYLE
  5
1C
102
{ACAD_REACTORS
330
1B
102
}
100
AcDbMlineStyle
  2
Standard
 70
         0
  3

 62
         0
 51
90.0
 52
90.0
 71
         2
 49
0.5
 62
       256
  6
ByLayer
 49
-0.5
 62
       256
  6
ByLayer
  0
ENDSEC
  0
EOF
