  0
SECTION
  2
HEADER
  9
$ACADVER
  1
AC1014
  9
$ACADMAINTVER
 70
         0
  9
$DWGCODEPAGE
  3
ANSI_932
  9
$INSBASE
 10
0.0
 20
0.0
 30
0.0
  9
$EXTMIN
 10
-118.057449
 20
-110.0
 30
0.0
  9
$EXTMAX
 10
118.853996
 20
143.3500915316
 30
0.0
  9
$LIMMIN
 10
-118.057449
 20
-110.0
  9
$LIMMAX
 10
118.853996
 20
143.3500915316
  9
$ORTHOMODE
 70
         0
  9
$REGENMODE
 70
         1
  9
$FILLMODE
 70
         1
  9
$QTEXTMODE
 70
         0
  9
$MIRRTEXT
 70
         1
  9
$DRAGMODE
 70
         2
  9
$LTSCALE
 40
1.0
  9
$OSMODE
 70
         0
  9
$ATTMODE
 70
         1
  9
$TEXTSIZE
 40
3.2000000477
  9
$TRACEWID
 40
0.05
  9
$TEXTSTYLE
  7
MX_NOTE_STANDARD
  9
$CLAYER
  8
0
  9
$CELTYPE
  6
CONTINUOUS
  9
$CECOLOR
 62
       256
  9
$CELTSCALE
 40
1.0
  9
$DELOBJ
 70
         1
  9
$DISPSILH
 70
         0
  9
$DIMSCALE
 40
1.0
  9
$DIMASZ
 40
2.5
  9
$DIMEXO
 40
0.0
  9
$DIMDLI
 40
3.75
  9
$DIMRND
 40
0.0
  9
$DIMDLE
 40
0.0
  9
$DIMEXE
 40
2.5
  9
$DIMTP
 40
0.0
  9
$DIMTM
 40
0.0
  9
$DIMTXT
 40
3.2000000477
  9
$DIMCEN
 40
2.5
  9
$DIMTSZ
 40
0.0
  9
$DIMTOL
 70
         0
  9
$DIMLIM
 70
         0
  9
$DIMTIH
 70
         0
  9
$DIMTOH
 70
         0
  9
$DIMSE1
 70
         0
  9
$DIMSE2
 70
         0
  9
$DIMTAD
 70
         1
  9
$DIMZIN
 70
         8
  9
$DIMBLK
  1

  9
$DIMASO
 70
         1
  9
$DIMSHO
 70
         1
  9
$DIMPOST
  1

  9
$DIMAPOST
  1

  9
$DIMALT
 70
         0
  9
$DIMALTD
 70
         4
  9
$DIMALTF
 40
0.0393700787
  9
$DIMLFAC
 40
1.0
  9
$DIMTOFL
 70
         1
  9
$DIMTVP
 40
0.0
  9
$DIMTIX
 70
         0
  9
$DIMSOXD
 70
         0
  9
$DIMSAH
 70
         1
  9
$DIMBLK1
  1
_OPEN30
  9
$DIMBLK2
  1
_OPEN30
  9
$DIMSTYLE
  2
MXDIMSTYLE
  9
$DIMCLRD
 70
         0
  9
$DIMCLRE
 70
         0
  9
$DIMCLRT
 70
         0
  9
$DIMTFAC
 40
1.0
  9
$DIMGAP
 40
1.0
  9
$DIMJUST
 70
         0
  9
$DIMSD1
 70
         0
  9
$DIMSD2
 70
         0
  9
$DIMTOLJ
 70
         0
  9
$DIMTZIN
 70
         0
  9
$DIMALTZ
 70
         0
  9
$DIMALTTZ
 70
         0
  9
$DIMFIT
 70
         3
  9
$DIMUPT
 70
         0
  9
$DIMUNIT
 70
         2
  9
$DIMDEC
 70
         2
  9
$DIMTDEC
 70
         2
  9
$DIMALTU
 70
         2
  9
$DIMALTTD
 70
         4
  9
$DIMTXSTY
  7
MX_NOTE_STANDARD
  9
$DIMAUNIT
 70
         0
  9
$LUNITS
 70
         2
  9
$LUPREC
 70
         4
  9
$SKETCHINC
 40
0.1
  9
$FILLETRAD
 40
0.0
  9
$AUNITS
 70
         0
  9
$AUPREC
 70
         0
  9
$MENU
  1
acad
  9
$ELEVATION
 40
0.0
  9
$PELEVATION
 40
0.0
  9
$THICKNESS
 40
0.0
  9
$LIMCHECK
 70
         0
  9
$BLIPMODE
 70
         1
  9
$CHAMFERA
 40
0.0
  9
$CHAMFERB
 40
0.0
  9
$CHAMFERC
 40
0.0
  9
$CHAMFERD
 40
0.0
  9
$SKPOLY
 70
         0
  9
$TDCREATE
 40
2456603.419247685
  9
$TDUPDATE
 40
2456603.419247685
  9
$TDINDWG
 40
0.0000000000
  9
$TDUSRTIMER
 40
0.0000000000
  9
$USRTIMER
 70
         1
  9
$ANGBASE
 50
0.0
  9
$ANGDIR
 70
         0
  9
$PDMODE
 70
         0
  9
$PDSIZE
 40
0.0
  9
$PLINEWID
 40
0.0
  9
$COORDS
 70
         1
  9
$SPLFRAME
 70
         0
  9
$SPLINETYPE
 70
         6
  9
$SPLINESEGS
 70
         8
  9
$ATTDIA
 70
         0
  9
$ATTREQ
 70
         1
  9
$HANDLING
 70
         1
  9
$HANDSEED
  5
1D8
  9
$SURFTAB1
 70
         6
  9
$SURFTAB2
 70
         6
  9
$SURFTYPE
 70
         6
  9
$SURFU
 70
         6
  9
$SURFV
 70
         6
  9
$UCSNAME
  2

  9
$UCSORG
 10
0.0
 20
0.0
 30
0.0
  9
$UCSXDIR
 10
1.0
 20
0.0
 30
0.0
  9
$UCSYDIR
 10
0.0
 20
1.0
 30
0.0
  9
$PUCSNAME
  2

  9
$PUCSORG
 10
0.0
 20
0.0
 30
0.0
  9
$PUCSXDIR
 10
1.0
 20
0.0
 30
0.0
  9
$PUCSYDIR
 10
0.0
 20
1.0
 30
0.0
  9
$USERI1
 70
         0
  9
$USERI2
 70
         0
  9
$USERI3
 70
         0
  9
$USERI4
 70
         0
  9
$USERI5
 70
         0
  9
$USERR1
 40
0.0
  9
$USERR2
 40
0.0
  9
$USERR3
 40
0.0
  9
$USERR4
 40
0.0
  9
$USERR5
 40
0.0
  9
$WORLDVIEW
 70
         1
  9
$SHADEDGE
 70
         3
  9
$SHADEDIF
 70
        70
  9
$TILEMODE
 70
         1
  9
$MAXACTVP
 70
        16
  9
$PINSBASE
 10
0.0
 20
0.0
 30
0.0
  9
$PLIMCHECK
 70
         0
  9
$PEXTMIN
 10
1.0000000000E+20
 20
1.0000000000E+20
 30
1.0000000000E+20
  9
$PEXTMAX
 10
-1.0000000000E+20
 20
-1.0000000000E+20
 30
-1.0000000000E+20
  9
$PLIMMIN
 10
0.0
 20
0.0
  9
$PLIMMAX
 10
12.0
 20
9.0
  9
$UNITMODE
 70
         0
  9
$VISRETAIN
 70
         0
  9
$PLINEGEN
 70
         1
  9
$PSLTSCALE
 70
         0
  9
$TREEDEPTH
 70
      3020
  9
$PICKSTYLE
 70
         1
  9
$CMLSTYLE
  2
Standard
  9
$CMLJUST
 70
         0
  9
$CMLSCALE
 40
1.0
  9
$PROXYGRAPHICS
 70
         0
  9
$MEASUREMENT
 70
         1
  0
ENDSEC
  0
SECTION
  2
CLASSES
  0
CLASS
  1
LWPOLYLINE
  2
AcDbPolyline
  3
"AutoCAD"
 90
        0
280
         0
281
         1
  0
CLASS
  1
IMAGE
  2
AcDbRasterImage
  3
ISM
 90
      127
280
         0
281
         1
  0
CLASS
  1
OLE2FRAME
  2
AcDbOle2Frame
  3
""
 90
        0
280
         0
281
         1
  0
CLASS
  1
HATCH
  2
AcDbHatch
  3
"ACAD_SEDONA"
 90
        0
280
         0
281
         1
  0
CLASS
  1
DICTIONARYVAR
  2
AcDbDictionaryVar
  3
"AutoCAD"
 90
        0
280
         0
281
         0
  0
CLASS
  1
RASTERVARIABLES
  2
AcDbRasterVariables
  3
ISM
 90
        0
280
         0
281
         0
  0
CLASS
  1
IMAGEDEF
  2
AcDbRasterImageDef
  3
ISM
 90
        0
280
         0
281
         0
  0
CLASS
  1
IMAGEDEF_REACTOR
  2
AcDbRasterImageDefReactor
  3
ISM
 90
        1
280
         0
281
         0
  0
CLASS
  1
IDBUFFER
  2
AcDbIdBuffer
  3
"Acad"
 90
        0
280
         0
281
         0
  0
CLASS
  1
SPATIAL_FILTER
  2
AcDbSpatialFilter
  3
"Acad"
 90
        0
280
         0
281
         0
  0
CLASS
  1
XRECORD
  2
AcDbXrecord
  3
"<Built In>"
 90
        0
280
         0
281
         0
  0
CLASS
  1
SORTENTSTABLE
  2
AcDbSortentsTable
  3
"AutoCAD"
 90
        0
280
         0
281
         0
  0
CLASS
  1
LAYER_INDEX
  2
AcDbLayerIndex
  3
"Acad"
 90
        0
280
         0
281
         0
  0
CLASS
  1
SPATIAL_INDEX
  2
AcDbSpatialIndex
  3
"Acad"
 90
        0
280
         0
281
         0
  0
CLASS
  1
OBJECT_PTR
  2
CAseDLPNTableRecord
  3
"ASE-LPNTableRecord"
 90
        1
280
         0
281
         0
  0
CLASS
  1
LAYOUT
  2
AcDbLayout
  3
"AutoCAD 2000"
 90
        0
280
         0
281
         0
  0
CLASS
  1
PLOTSETTINGS
  2
AcDbPlotSettings
  3
"AutoCAD 2000"
 90
        0
280
         0
281
         0
  0
CLASS
  1
ACDBDICTIONARYWDFLT
  2
AcDbDictionaryWithDefault
  3
"AutoCAD 2000"
 90
        0
280
         0
281
         0
  0
CLASS
  1
ACDBPLACEHOLDER
  2
AcDbPlaceHolder
  3
"AutoCAD 2000"
 90
        0
280
         0
281
         0
  0
ENDSEC
  0
SECTION
  2
TABLES
  0
TABLE
  2
VPORT
  5
7
100
AcDbSymbolTable
 70
         1
  0
VPORT
  5
15
100
AcDbSymbolTableRecord
100
AcDbViewportTableRecord
  2
*ACTIVE
 70
         0
 10
0.0
 20
0.0
 11
1.0
 21
1.0
 12
0.3982735
 22
16.6750457658
 13
0.0
 23
0.0
 14
1.0
 24
1.0
 15
0.0
 25
0.0
 16
0.0
 26
0.0
 36
1.0
 17
0.0
 27
0.0
 37
0.0
 40
255.8835924469
 41
1.7320508076
 42
50.0
 43
0.0
 44
0.0
 50
0.0
 51
0.0
 71
         0
 72
       100
 73
         1
 74
         1
 75
         0
 76
         0
 77
         0
 78
         0
  0
ENDTAB
  0
TABLE
  2
LTYPE
  5
4
100
AcDbSymbolTable
 70
         4
  0
LTYPE
  5
11
100
AcDbSymbolTableRecord
100
AcDbLinetypeTableRecord
  2
BYBLOCK
 70
        64
  3

 72
        65
 73
         0
 40
0.0
  0
LTYPE
  5
12
100
AcDbSymbolTableRecord
100
AcDbLinetypeTableRecord
  2
BYLAYER
 70
        64
  3

 72
        65
 73
         0
 40
0.0
  0
LTYPE
  5
13
100
AcDbSymbolTableRecord
100
AcDbLinetypeTableRecord
  2
CONTINUOUS
 70
        64
  3
Solid line
 72
        65
 73
         0
 40
0.0
  0
LTYPE
  5
A2
100
AcDbSymbolTableRecord
100
AcDbLinetypeTableRecord
  2
CENTER
 70
        64
  3
Center ____ _ ____ _ ____ _ ____ _ ____ _ ____
 72
        65
 73
         4
 40
50.8
 49
31.75
 74
         0
 49
-6.35
 74
         0
 49
6.35
 74
         0
 49
-6.35
 74
         0
  0
ENDTAB
  0
TABLE
  2
LAYER
  5
2
100
AcDbSymbolTable
 70
         3
  0
LAYER
  5
14
100
AcDbSymbolTableRecord
100
AcDbLayerTableRecord
  2
0
 70
         0
 62
         7
  6
CONTINUOUS
  0
LAYER
  5
1D
100
AcDbSymbolTableRecord
100
AcDbLayerTableRecord
  2
PV
 70
         0
 62
         3
  6
CONTINUOUS
  0
LAYER
  5
1E
100
AcDbSymbolTableRecord
100
AcDbLayerTableRecord
  2
DEFPOINTS
 70
         0
 62
         7
  6
CONTINUOUS
  0
ENDTAB
  0
TABLE
  2
STYLE
  5
3
100
AcDbSymbolTable
 70
         4
  0
STYLE
  5
17
100
AcDbSymbolTableRecord
100
AcDbTextStyleTableRecord
  2
MX_NOTE_STANDARD
 70
         0
 40
0.0
 41
1.0
 50
0.0
 71
         0
 42
3.2000000477
  3
txt.shx
  4
extfont.shx
  0
STYLE
  5
37
100
AcDbSymbolTableRecord
100
AcDbTextStyleTableRecord
  2
MX_DIMTXSTY_2
 70
         0
 40
0.0
 41
1.1
 50
0.0
 71
         0
 42
3.2000000477
  3
txt.shx
  4
extfont.shx
  0
STYLE
  5
15E
100
AcDbSymbolTableRecord
100
AcDbTextStyleTableRecord
  2
MX_DIMTXSTY_3
 70
         0
 40
0.0
 41
1.2
 50
0.0
 71
         0
 42
3.2000000477
  3
txt.shx
  4
extfont.shx
  0
STYLE
  5
17E
100
AcDbSymbolTableRecord
100
AcDbTextStyleTableRecord
  2
MX_DIMTXSTY_4
 70
         0
 40
0.0
 41
1.3
 50
0.0
 71
         0
 42
3.2000000477
  3
txt.shx
  4
extfont.shx
  0
ENDTAB
  0
TABLE
  2
VIEW
  5
5
100
AcDbSymbolTable
 70
         0
  0
ENDTAB
  0
TABLE
  2
UCS
  5
6
100
AcDbSymbolTable
 70
         0
  0
ENDTAB
  0
TABLE
  2
APPID
  5
8
100
AcDbSymbolTable
 70
         1
  0
APPID
  5
16
100
AcDbSymbolTableRecord
100
AcDbRegAppTableRecord
  2
ACAD
 70
         0
  0
ENDTAB
  0
TABLE
  2
DIMSTYLE
  5
9
100
AcDbSymbolTable
 70
         1
  0
DIMSTYLE
105
18
100
AcDbSymbolTableRecord
100
AcDbDimStyleTableRecord
  2
MXDIMSTYLE
 70
         0
  3

  4

  5

  6
_OPEN30
  7
_OPEN30
 40
1.0
 41
2.5
 42
0.0
 43
3.75
 44
2.5
 45
0.0
 46
0.0
 47
0.0
 48
0.0
 71
         0
 72
         0
 73
         0
 74
         0
 75
         0
 76
         0
 77
         1
 78
         8
140
3.2000000477
141
2.5
142
0.0
143
0.0393700787
144
1.0
145
0.0
146
1.0
147
1.0
170
         0
171
         4
172
         1
173
         1
174
         0
175
         0
176
         0
177
         0
178
         0
270
         2
271
         2
272
         2
273
         2
274
         4
275
         0
280
         0
281
         0
282
         0
283
         0
284
         0
285
         0
286
         0
287
         3
288
         0
340
17
  0
ENDTAB
  0
TABLE
  2
BLOCK_RECORD
  5
1
100
AcDbSymbolTable
 70
        11
  0
BLOCK_RECORD
  5
A
100
AcDbSymbolTableRecord
100
AcDbBlockTableRecord
  2
*MODEL_SPACE
  0
BLOCK_RECORD
  5
B
100
AcDbSymbolTableRecord
100
AcDbBlockTableRecord
  2
*PAPER_SPACE
  0
BLOCK_RECORD
  5
1F
100
AcDbSymbolTableRecord
100
AcDbBlockTableRecord
  2
ARROW
  0
BLOCK_RECORD
  5
20
100
AcDbSymbolTableRecord
100
AcDbBlockTableRecord
  2
_OPEN30
  0
BLOCK_RECORD
  5
2E
100
AcDbSymbolTableRecord
100
AcDbBlockTableRecord
  2
*D2
  0
BLOCK_RECORD
  5
3E
100
AcDbSymbolTableRecord
100
AcDbBlockTableRecord
  2
*D3
  0
BLOCK_RECORD
  5
4D
100
AcDbSymbolTableRecord
100
AcDbBlockTableRecord
  2
*D4
  0
BLOCK_RECORD
  5
5C
100
AcDbSymbolTableRecord
100
AcDbBlockTableRecord
  2
*D5
  0
BLOCK_RECORD
  5
155
100
AcDbSymbolTableRecord
100
AcDbBlockTableRecord
  2
*D6
  0
BLOCK_RECORD
  5
165
100
AcDbSymbolTableRecord
100
AcDbBlockTableRecord
  2
*D7
  0
BLOCK_RECORD
  5
174
100
AcDbSymbolTableRecord
100
AcDbBlockTableRecord
  2
*D8
  0
BLOCK_RECORD
  5
185
100
AcDbSymbolTableRecord
100
AcDbBlockTableRecord
  2
*D9
  0
BLOCK_RECORD
  5
194
100
AcDbSymbolTableRecord
100
AcDbBlockTableRecord
  2
*D10
  0
ENDTAB
  0
ENDSEC
  0
SECTION
  2
BLOCKS
  0
BLOCK
  5
D
100
AcDbEntity
  8
0
100
AcDbBlockBegin
  2
*MODEL_SPACE
 70
         0
 10
0.0
 20
0.0
 30
0.0
  3
*MODEL_SPACE
  1

  0
ENDBLK
  5
E
100
AcDbEntity
  8
0
100
AcDbBlockEnd
  0
BLOCK
  5
F
100
AcDbEntity
 67
         1
  8
0
100
AcDbBlockBegin
  2
*PAPER_SPACE
 70
         0
 10
0.0
 20
0.0
 30
0.0
  3
*PAPER_SPACE
  1

  0
ENDBLK
  5
10
100
AcDbEntity
 67
         1
  8
0
100
AcDbBlockEnd
  0
BLOCK
  5
26
100
AcDbEntity
  8
0
100
AcDbBlockBegin
  2
ARROW
 70
         0
 10
0.0
 20
0.0
 30
0.0
  3
ARROW
  1

  0
LWPOLYLINE
  5
27
100
AcDbEntity
  8
0
  6
CONTINUOUS
 62
       254
100
AcDbPolyline
 90
        3
 70
         0
 10
2.3840404
 20
0.638801701
 10
0.0
 20
0.0
 10
2.3840404
 20
-0.638801701
  0
ENDBLK
  5
28
100
AcDbEntity
  8
0
100
AcDbBlockEnd
  0
BLOCK
  5
21
100
AcDbEntity
  8
0
  6
ByBlock
 62
         0
100
AcDbBlockBegin
  2
_OPEN30
 70
         2
 10
0.0
 20
0.0
 30
0.0
  3
_OPEN30
  1

  0
LINE
  5
22
100
AcDbEntity
  8
0
  6
ByBlock
 62
         0
100
AcDbLine
 10
-1.0
 20
0.267949
 30
0.0
 11
0.0
 21
0.0
 31
0.0
  0
LINE
  5
23
100
AcDbEntity
  8
0
  6
ByBlock
 62
         0
100
AcDbLine
 10
0.0
 20
0.0
 30
0.0
 11
-1.0
 21
-0.267949
 31
0.0
  0
LINE
  5
24
100
AcDbEntity
  8
0
  6
ByBlock
 62
         0
100
AcDbLine
 10
0.0
 20
0.0
 30
0.0
 11
-1.0
 21
0.0
 31
0.0
  0
ENDBLK
  5
25
100
AcDbEntity
  8
0
  6
ByBlock
 62
         0
100
AcDbBlockEnd
  0
BLOCK
  5
2F
100
AcDbEntity
  8
0
  6
ByBlock
 62
         0
100
AcDbBlockBegin
  2
*D2
 70
         1
 10
0.0
 20
0.0
 30
0.0
  3
*D2
  1

  0
LINE
  5
30
100
AcDbEntity
  8
0
  6
CONTINUOUS
 62
       110
100
AcDbLine
 10
22.8952297
 20
23.1383225
 30
0.0
 11
22.8952297
 21
95.6383377
 31
0.0
  0
LINE
  5
31
100
AcDbEntity
  8
0
  6
CONTINUOUS
 62
       110
100
AcDbLine
 10
45.1440852908
 20
23.1383225
 30
0.0
 11
20.8952297
 21
23.1383225
 31
0.0
  0
LINE
  5
32
100
AcDbEntity
  8
0
  6
CONTINUOUS
 62
       110
100
AcDbLine
 10
39.3386462955
 20
95.6383377
 30
0.0
 11
20.8952297
 21
95.6383377
 31
0.0
  0
LINE
  5
33
100
AcDbEntity
  8
0
  6
CONTINUOUS
 62
       110
100
AcDbLine
 10
22.8952297
 20
23.1383225
 30
0.0
 11
22.8952297
 21
19.1383225
 31
0.0
  0
LINE
  5
34
100
AcDbEntity
  8
0
  6
CONTINUOUS
 62
       110
100
AcDbLine
 10
22.8952297
 20
95.6383377
 30
0.0
 11
22.8952297
 21
99.6383377
 31
0.0
  0
SOLID
  5
35
100
AcDbEntity
  8
0
  6
CONTINUOUS
 62
       110
100
AcDbTrace
 10
22.728562695
 20
22.1383224702
 30
0.0
 11
23.061896705
 21
22.1383224702
 31
0.0
 12
22.8952297
 22
23.1383225
 32
0.0
 13
22.8952297
 23
23.1383225
 33
0.0
  0
SOLID
  5
36
100
AcDbEntity
  8
0
  6
CONTINUOUS
 62
       110
100
AcDbTrace
 10
23.061896705
 20
96.6383377298
 30
0.0
 11
22.728562695
 21
96.6383377298
 31
0.0
 12
22.8952297
 22
95.6383377
 32
0.0
 13
22.8952297
 23
95.6383377
 33
0.0
  0
MTEXT
  5
38
100
AcDbEntity
  8
0
  6
CONTINUOUS
 62
       110
100
AcDbMText
 10
20.2952296762
 20
59.091661123
 30
0.0
 40
3.2000000477
 41
0.0
 71
         5
 72
         1
  1
\A1;\U+220572.5
  7
MX_DIMTXSTY_2
 11
0.0
 21
1.0
 31
0.0
  0
POINT
  5
39
100
AcDbEntity
  8
DEFPOINTS
  6
CONTINUOUS
 62
         0
100
AcDbPoint
 10
45.2065852908
 20
23.1383225
 30
0.0
  0
POINT
  5
3A
100
AcDbEntity
  8
DEFPOINTS
  6
CONTINUOUS
 62
         0
100
AcDbPoint
 10
39.4011462955
 20
95.6383377
 30
0.0
  0
POINT
  5
3B
100
AcDbEntity
  8
DEFPOINTS
  6
CONTINUOUS
 62
         0
100
AcDbPoint
 10
22.8952297
 20
95.6383377
 30
0.0
  0
ENDBLK
  5
3C
100
AcDbEntity
  8
0
  6
ByBlock
 62
         0
100
AcDbBlockEnd
  0
BLOCK
  5
3F
100
AcDbEntity
  8
0
  6
ByBlock
 62
         0
100
AcDbBlockBegin
  2
*D3
 70
         1
 10
0.0
 20
0.0
 30
0.0
  3
*D3
  1

  0
LINE
  5
40
100
AcDbEntity
  8
0
  6
CONTINUOUS
 62
       110
100
AcDbLine
 10
101.361868
 20
100.388322
 30
0.0
 11
101.361868
 21
18.3883377
 31
0.0
  0
LINE
  5
41
100
AcDbEntity
  8
0
  6
CONTINUOUS
 62
       110
100
AcDbLine
 10
81.5300675392
 20
100.388322
 30
0.0
 11
103.361868
 21
100.388322
 31
0.0
  0
LINE
  5
42
100
AcDbEntity
  8
0
  6
CONTINUOUS
 62
       110
100
AcDbLine
 10
81.5300675392
 20
18.3883377
 30
0.0
 11
103.361868
 21
18.3883377
 31
0.0
  0
LINE
  5
43
100
AcDbEntity
  8
0
  6
CONTINUOUS
 62
       110
100
AcDbLine
 10
101.361868
 20
100.388322
 30
0.0
 11
101.361868
 21
104.388322
 31
0.0
  0
LINE
  5
44
100
AcDbEntity
  8
0
  6
CONTINUOUS
 62
       110
100
AcDbLine
 10
101.361868
 20
18.3883377
 30
0.0
 11
101.361868
 21
14.3883377
 31
0.0
  0
SOLID
  5
45
100
AcDbEntity
  8
0
  6
CONTINUOUS
 62
       110
100
AcDbTrace
 10
101.528535005
 20
101.3883220298
 30
0.0
 11
101.195200995
 21
101.3883220298
 31
0.0
 12
101.361868
 22
100.388322
 32
0.0
 13
101.361868
 23
100.388322
 33
0.0
  0
SOLID
  5
46
100
AcDbEntity
  8
0
  6
CONTINUOUS
 62
       110
100
AcDbTrace
 10
101.195200995
 20
17.3883376702
 30
0.0
 11
101.528535005
 21
17.3883376702
 31
0.0
 12
101.361868
 22
18.3883377
 32
0.0
 13
101.361868
 23
18.3883377
 33
0.0
  0
MTEXT
  5
47
100
AcDbEntity
  8
0
  6
CONTINUOUS
 62
       110
100
AcDbMText
 10
98.7618679762
 20
59.091660623
 30
0.0
 40
3.2000000477
 41
0.0
 71
         5
 72
         1
  1
\A1;\U+220582
 11
0.0
 21
1.0
 31
0.0
  0
POINT
  5
48
100
AcDbEntity
  8
DEFPOINTS
  6
CONTINUOUS
 62
         0
100
AcDbPoint
 10
81.4675675392
 20
100.388322
 30
0.0
  0
POINT
  5
49
100
AcDbEntity
  8
DEFPOINTS
  6
CONTINUOUS
 62
         0
100
AcDbPoint
 10
81.4675675392
 20
18.3883377
 30
0.0
  0
POINT
  5
4A
100
AcDbEntity
  8
DEFPOINTS
  6
CONTINUOUS
 62
         0
100
AcDbPoint
 10
101.361868
 20
18.3883377
 30
0.0
  0
ENDBLK
  5
4B
100
AcDbEntity
  8
0
  6
ByBlock
 62
         0
100
AcDbBlockEnd
  0
BLOCK
  5
4E
100
AcDbEntity
  8
0
  6
ByBlock
 62
         0
100
AcDbBlockBegin
  2
*D4
 70
         1
 10
0.0
 20
0.0
 30
0.0
  3
*D4
  1

  0
LINE
  5
4F
100
AcDbEntity
  8
0
  6
CONTINUOUS
 62
       110
100
AcDbLine
 10
10.6695865
 20
15.8883301
 30
0.0
 11
10.6695865
 21
102.88833
 31
0.0
  0
LINE
  5
50
100
AcDbEntity
  8
0
  6
CONTINUOUS
 62
       110
100
AcDbLine
 10
46.9050677622
 20
15.8883301
 30
0.0
 11
8.6695865
 21
15.8883301
 31
0.0
  0
LINE
  5
51
100
AcDbEntity
  8
0
  6
CONTINUOUS
 62
       110
100
AcDbLine
 10
46.9050677622
 20
102.88833
 30
0.0
 11
8.6695865
 21
102.88833
 31
0.0
  0
LINE
  5
52
100
AcDbEntity
  8
0
  6
CONTINUOUS
 62
       110
100
AcDbLine
 10
10.6695865
 20
15.8883301
 30
0.0
 11
10.6695865
 21
11.8883301
 31
0.0
  0
LINE
  5
53
100
AcDbEntity
  8
0
  6
CONTINUOUS
 62
       110
100
AcDbLine
 10
10.6695865
 20
102.88833
 30
0.0
 11
10.6695865
 21
106.88833
 31
0.0
  0
SOLID
  5
54
100
AcDbEntity
  8
0
  6
CONTINUOUS
 62
       110
100
AcDbTrace
 10
10.502919495
 20
14.8883300702
 30
0.0
 11
10.836253505
 21
14.8883300702
 31
0.0
 12
10.6695865
 22
15.8883301
 32
0.0
 13
10.6695865
 23
15.8883301
 33
0.0
  0
SOLID
  5
55
100
AcDbEntity
  8
0
  6
CONTINUOUS
 62
       110
100
AcDbTrace
 10
10.836253505
 20
103.8883300298
 30
0.0
 11
10.502919495
 21
103.8883300298
 31
0.0
 12
10.6695865
 22
102.88833
 32
0.0
 13
10.6695865
 23
102.88833
 33
0.0
  0
MTEXT
  5
56
100
AcDbEntity
  8
0
  6
CONTINUOUS
 62
       110
100
AcDbMText
 10
8.0695864762
 20
59.0916610937
 30
0.0
 40
3.2000000477
 41
0.0
 71
         5
 72
         1
  1
\A1;\U+220587
 11
0.0
 21
1.0
 31
0.0
  0
POINT
  5
57
100
AcDbEntity
  8
DEFPOINTS
  6
CONTINUOUS
 62
         0
100
AcDbPoint
 10
46.9675677622
 20
15.8883301
 30
0.0
  0
POINT
  5
58
100
AcDbEntity
  8
DEFPOINTS
  6
CONTINUOUS
 62
         0
100
AcDbPoint
 10
46.9675677622
 20
102.88833
 30
0.0
  0
POINT
  5
59
100
AcDbEntity
  8
DEFPOINTS
  6
CONTINUOUS
 62
         0
100
AcDbPoint
 10
10.6695865
 20
102.88833
 30
0.0
  0
ENDBLK
  5
5A
100
AcDbEntity
  8
0
  6
ByBlock
 62
         0
100
AcDbBlockEnd
  0
BLOCK
  5
5D
100
AcDbEntity
  8
0
  6
ByBlock
 62
         0
100
AcDbBlockBegin
  2
*D5
 70
         1
 10
0.0
 20
0.0
 30
0.0
  3
*D5
  1

  0
LINE
  5
5E
100
AcDbEntity
  8
0
  6
CONTINUOUS
 62
       110
100
AcDbLine
 10
35.3316501
 20
29.3883301
 30
0.0
 11
35.3316501
 21
89.3883301
 31
0.0
  0
LINE
  5
5F
100
AcDbEntity
  8
0
  6
CONTINUOUS
 62
       110
100
AcDbLine
 10
46.9050677636
 20
29.3883301
 30
0.0
 11
33.3316501
 21
29.3883301
 31
0.0
  0
LINE
  5
60
100
AcDbEntity
  8
0
  6
CONTINUOUS
 62
       110
100
AcDbLine
 10
46.9050677636
 20
89.3883301
 30
0.0
 11
33.3316501
 21
89.3883301
 31
0.0
  0
LINE
  5
61
100
AcDbEntity
  8
0
  6
CONTINUOUS
 62
       110
100
AcDbLine
 10
35.3316501
 20
29.3883301
 30
0.0
 11
35.3316501
 21
25.3883301
 31
0.0
  0
LINE
  5
62
100
AcDbEntity
  8
0
  6
CONTINUOUS
 62
       110
100
AcDbLine
 10
35.3316501
 20
89.3883301
 30
0.0
 11
35.3316501
 21
93.3883301
 31
0.0
  0
SOLID
  5
63
100
AcDbEntity
  8
0
  6
CONTINUOUS
 62
       110
100
AcDbTrace
 10
35.164983095
 20
28.3883300702
 30
0.0
 11
35.498317105
 21
28.3883300702
 31
0.0
 12
35.3316501
 22
29.3883301
 32
0.0
 13
35.3316501
 23
29.3883301
 33
0.0
  0
SOLID
  5
64
100
AcDbEntity
  8
0
  6
CONTINUOUS
 62
       110
100
AcDbTrace
 10
35.498317105
 20
90.3883301298
 30
0.0
 11
35.164983095
 21
90.3883301298
 31
0.0
 12
35.3316501
 22
89.3883301
 32
0.0
 13
35.3316501
 23
89.3883301
 33
0.0
  0
MTEXT
  5
65
100
AcDbEntity
  8
0
  6
CONTINUOUS
 62
       110
100
AcDbMText
 10
32.7316500762
 20
59.0916649083
 30
0.0
 40
3.2000000477
 41
0.0
 71
         5
 72
         1
  1
\A1;\U+220560
 11
0.0
 21
1.0
 31
0.0
  0
POINT
  5
66
100
AcDbEntity
  8
DEFPOINTS
  6
CONTINUOUS
 62
         0
100
AcDbPoint
 10
46.9675677636
 20
29.3883301
 30
0.0
  0
POINT
  5
67
100
AcDbEntity
  8
DEFPOINTS
  6
CONTINUOUS
 62
         0
100
AcDbPoint
 10
46.9675677636
 20
89.3883301
 30
0.0
  0
POINT
  5
68
100
AcDbEntity
  8
DEFPOINTS
  6
CONTINUOUS
 62
         0
100
AcDbPoint
 10
35.3316501
 20
89.3883301
 30
0.0
  0
ENDBLK
  5
69
100
AcDbEntity
  8
0
  6
ByBlock
 62
         0
100
AcDbBlockEnd
  0
BLOCK
  5
156
100
AcDbEntity
  8
0
  6
ByBlock
 62
         0
100
AcDbBlockBegin
  2
*D6
 70
         1
 10
0.0
 20
0.0
 30
0.0
  3
*D6
  1

  0
LINE
  5
157
100
AcDbEntity
  8
0
  6
CONTINUOUS
 62
       110
100
AcDbLine
 10
62.4675659
 20
113.31244
 30
0.0
 11
81.4675678
 21
113.31244
 31
0.0
  0
LINE
  5
158
100
AcDbEntity
  8
0
  6
CONTINUOUS
 62
       110
100
AcDbLine
 10
62.4675659
 20
100.4508229117
 30
0.0
 11
62.4675659
 21
115.31244
 31
0.0
  0
LINE
  5
159
100
AcDbEntity
  8
0
  6
CONTINUOUS
 62
       110
100
AcDbLine
 10
81.4675678
 20
100.4508229117
 30
0.0
 11
81.4675678
 21
115.31244
 31
0.0
  0
LINE
  5
15A
100
AcDbEntity
  8
0
  6
CONTINUOUS
 62
       110
100
AcDbLine
 10
62.4675659
 20
113.31244
 30
0.0
 11
58.4675659
 21
113.31244
 31
0.0
  0
LINE
  5
15B
100
AcDbEntity
  8
0
  6
CONTINUOUS
 62
       110
100
AcDbLine
 10
81.4675678
 20
113.31244
 30
0.0
 11
85.4675678
 21
113.31244
 31
0.0
  0
SOLID
  5
15C
100
AcDbEntity
  8
0
  6
CONTINUOUS
 62
       110
100
AcDbTrace
 10
61.4675658702
 20
113.479107005
 30
0.0
 11
61.4675658702
 21
113.145772995
 31
0.0
 12
62.4675659
 22
113.31244
 32
0.0
 13
62.4675659
 23
113.31244
 33
0.0
  0
SOLID
  5
15D
100
AcDbEntity
  8
0
  6
CONTINUOUS
 62
       110
100
AcDbTrace
 10
82.4675678298
 20
113.145772995
 30
0.0
 11
82.4675678298
 21
113.479107005
 31
0.0
 12
81.4675678
 22
113.31244
 32
0.0
 13
81.4675678
 23
113.31244
 33
0.0
  0
MTEXT
  5
15F
100
AcDbEntity
  8
0
  6
CONTINUOUS
 62
       110
100
AcDbMText
 10
71.684234029
 20
115.9124400238
 30
0.0
 40
3.2000000477
 41
0.0
 71
         5
 72
         1
  1
\A1;19
  7
MX_DIMTXSTY_3
  0
POINT
  5
160
100
AcDbEntity
  8
DEFPOINTS
  6
CONTINUOUS
 62
         0
100
AcDbPoint
 10
62.4675659
 20
100.3883229117
 30
0.0
  0
POINT
  5
161
100
AcDbEntity
  8
DEFPOINTS
  6
CONTINUOUS
 62
         0
100
AcDbPoint
 10
81.4675678
 20
100.3883229117
 30
0.0
  0
POINT
  5
162
100
AcDbEntity
  8
DEFPOINTS
  6
CONTINUOUS
 62
         0
100
AcDbPoint
 10
81.4675678
 20
113.31244
 30
0.0
  0
ENDBLK
  5
163
100
AcDbEntity
  8
0
  6
ByBlock
 62
         0
100
AcDbBlockEnd
  0
BLOCK
  5
166
100
AcDbEntity
  8
0
  6
ByBlock
 62
         0
100
AcDbBlockBegin
  2
*D7
 70
         1
 10
0.0
 20
0.0
 30
0.0
  3
*D7
  1

  0
LINE
  5
167
100
AcDbEntity
  8
0
  6
CONTINUOUS
 62
       110
100
AcDbLine
 10
55.4675697
 20
124.056482
 30
0.0
 11
81.4675678
 21
124.056482
 31
0.0
  0
LINE
  5
168
100
AcDbEntity
  8
0
  6
CONTINUOUS
 62
       110
100
AcDbLine
 10
55.4675697
 20
119.0454060265
 30
0.0
 11
55.4675697
 21
126.056482
 31
0.0
  0
LINE
  5
169
100
AcDbEntity
  8
0
  6
CONTINUOUS
 62
       110
100
AcDbLine
 10
81.4675678
 20
100.4508225151
 30
0.0
 11
81.4675678
 21
126.056482
 31
0.0
  0
LINE
  5
16A
100
AcDbEntity
  8
0
  6
CONTINUOUS
 62
       110
100
AcDbLine
 10
55.4675697
 20
124.056482
 30
0.0
 11
51.4675697
 21
124.056482
 31
0.0
  0
LINE
  5
16B
100
AcDbEntity
  8
0
  6
CONTINUOUS
 62
       110
100
AcDbLine
 10
81.4675678
 20
124.056482
 30
0.0
 11
85.4675678
 21
124.056482
 31
0.0
  0
SOLID
  5
16C
100
AcDbEntity
  8
0
  6
CONTINUOUS
 62
       110
100
AcDbTrace
 10
54.4675696702
 20
124.223149005
 30
0.0
 11
54.4675696702
 21
123.889814995
 31
0.0
 12
55.4675697
 22
124.056482
 32
0.0
 13
55.4675697
 23
124.056482
 33
0.0
  0
SOLID
  5
16D
100
AcDbEntity
  8
0
  6
CONTINUOUS
 62
       110
100
AcDbTrace
 10
82.4675678298
 20
123.889814995
 30
0.0
 11
82.4675678298
 21
124.223149005
 31
0.0
 12
81.4675678
 22
124.056482
 32
0.0
 13
81.4675678
 23
124.056482
 33
0.0
  0
MTEXT
  5
16E
100
AcDbEntity
  8
0
  6
CONTINUOUS
 62
       110
100
AcDbMText
 10
68.1842359216
 20
126.6564820238
 30
0.0
 40
3.2000000477
 41
0.0
 71
         5
 72
         1
  1
\A1;26
  0
POINT
  5
16F
100
AcDbEntity
  8
DEFPOINTS
  6
CONTINUOUS
 62
         0
100
AcDbPoint
 10
55.4675697
 20
118.9829060265
 30
0.0
  0
POINT
  5
170
100
AcDbEntity
  8
DEFPOINTS
  6
CONTINUOUS
 62
         0
100
AcDbPoint
 10
81.4675678
 20
100.3883225151
 30
0.0
  0
POINT
  5
171
100
AcDbEntity
  8
DEFPOINTS
  6
CONTINUOUS
 62
         0
100
AcDbPoint
 10
81.4675678
 20
124.056482
 30
0.0
  0
ENDBLK
  5
172
100
AcDbEntity
  8
0
  6
ByBlock
 62
         0
100
AcDbBlockEnd
  0
BLOCK
  5
175
100
AcDbEntity
  8
0
  6
ByBlock
 62
         0
100
AcDbBlockBegin
  2
*D8
 70
         1
 10
0.0
 20
0.0
 30
0.0
  3
*D8
  1

  0
LINE
  5
176
100
AcDbEntity
  8
0
  6
CONTINUOUS
 62
       110
100
AcDbLine
 10
46.9675678
 20
124.056482
 30
0.0
 11
55.4675697
 21
124.056482
 31
0.0
  0
LINE
  5
177
100
AcDbEntity
  8
0
  6
CONTINUOUS
 62
       110
100
AcDbLine
 10
28.1995196328
 20
124.056482
 30
0.0
 11
46.9675678
 21
124.056482
 31
0.0
  0
LINE
  5
178
100
AcDbEntity
  8
0
  6
CONTINUOUS
 62
       110
100
AcDbLine
 10
46.9675678
 20
102.9508301445
 30
0.0
 11
46.9675678
 21
126.056482
 31
0.0
  0
LINE
  5
179
100
AcDbEntity
  8
0
  6
CONTINUOUS
 62
       110
100
AcDbLine
 10
55.4675697
 20
102.9508301445
 30
0.0
 11
55.4675697
 21
126.056482
 31
0.0
  0
LINE
  5
17A
100
AcDbEntity
  8
0
  6
CONTINUOUS
 62
       110
100
AcDbLine
 10
46.9675678
 20
124.056482
 30
0.0
 11
42.9675678
 21
124.056482
 31
0.0
  0
LINE
  5
17B
100
AcDbEntity
  8
0
  6
CONTINUOUS
 62
       110
100
AcDbLine
 10
55.4675697
 20
124.056482
 30
0.0
 11
59.4675697
 21
124.056482
 31
0.0
  0
SOLID
  5
17C
100
AcDbEntity
  8
0
  6
CONTINUOUS
 62
       110
100
AcDbTrace
 10
45.9675677702
 20
124.223149005
 30
0.0
 11
45.9675677702
 21
123.889814995
 31
0.0
 12
46.9675678
 22
124.056482
 32
0.0
 13
46.9675678
 23
124.056482
 33
0.0
  0
SOLID
  5
17D
100
AcDbEntity
  8
0
  6
CONTINUOUS
 62
       110
100
AcDbTrace
 10
56.4675697298
 20
123.889814995
 30
0.0
 11
56.4675697298
 21
124.223149005
 31
0.0
 12
55.4675697
 22
124.056482
 32
0.0
 13
55.4675697
 23
124.056482
 33
0.0
  0
MTEXT
  5
17F
100
AcDbEntity
  8
0
  6
CONTINUOUS
 62
       110
100
AcDbMText
 10
32.9995197043
 20
126.6564820238
 30
0.0
 40
3.2000000477
 41
0.0
 71
         5
 72
         1
  1
\A1;8.5
  7
MX_DIMTXSTY_4
  0
POINT
  5
180
100
AcDbEntity
  8
DEFPOINTS
  6
CONTINUOUS
 62
         0
100
AcDbPoint
 10
46.9675678
 20
102.8883301445
 30
0.0
  0
POINT
  5
181
100
AcDbEntity
  8
DEFPOINTS
  6
CONTINUOUS
 62
         0
100
AcDbPoint
 10
55.4675697
 20
102.8883301445
 30
0.0
  0
POINT
  5
182
100
AcDbEntity
  8
DEFPOINTS
  6
CONTINUOUS
 62
         0
100
AcDbPoint
 10
55.4675697
 20
124.056482
 30
0.0
  0
ENDBLK
  5
183
100
AcDbEntity
  8
0
  6
ByBlock
 62
         0
100
AcDbBlockEnd
  0
BLOCK
  5
186
100
AcDbEntity
  8
0
  6
ByBlock
 62
         0
100
AcDbBlockBegin
  2
*D9
 70
         1
 10
0.0
 20
0.0
 30
0.0
  3
*D9
  1

  0
LINE
  5
187
100
AcDbEntity
  8
0
  6
CONTINUOUS
 62
       110
100
AcDbLine
 10
46.9675678
 20
130.622285
 30
0.0
 11
81.4675678
 21
130.622285
 31
0.0
  0
LINE
  5
188
100
AcDbEntity
  8
0
  6
CONTINUOUS
 62
       110
100
AcDbLine
 10
46.9675678
 20
102.9508296167
 30
0.0
 11
46.9675678
 21
132.622285
 31
0.0
  0
LINE
  5
189
100
AcDbEntity
  8
0
  6
CONTINUOUS
 62
       110
100
AcDbLine
 10
81.4675678
 20
100.4508219873
 30
0.0
 11
81.4675678
 21
132.622285
 31
0.0
  0
LINE
  5
18A
100
AcDbEntity
  8
0
  6
CONTINUOUS
 62
       110
100
AcDbLine
 10
46.9675678
 20
130.622285
 30
0.0
 11
42.9675678
 21
130.622285
 31
0.0
  0
LINE
  5
18B
100
AcDbEntity
  8
0
  6
CONTINUOUS
 62
       110
100
AcDbLine
 10
81.4675678
 20
130.622285
 30
0.0
 11
85.4675678
 21
130.622285
 31
0.0
  0
SOLID
  5
18C
100
AcDbEntity
  8
0
  6
CONTINUOUS
 62
       110
100
AcDbTrace
 10
45.9675677702
 20
130.788952005
 30
0.0
 11
45.9675677702
 21
130.455617995
 31
0.0
 12
46.9675678
 22
130.622285
 32
0.0
 13
46.9675678
 23
130.622285
 33
0.0
  0
SOLID
  5
18D
100
AcDbEntity
  8
0
  6
CONTINUOUS
 62
       110
100
AcDbTrace
 10
82.4675678298
 20
130.455617995
 30
0.0
 11
82.4675678298
 21
130.788952005
 31
0.0
 12
81.4675678
 22
130.622285
 32
0.0
 13
81.4675678
 23
130.622285
 33
0.0
  0
MTEXT
  5
18E
100
AcDbEntity
  8
0
  6
CONTINUOUS
 62
       110
100
AcDbMText
 10
63.9342349753
 20
133.2222850238
 30
0.0
 40
3.2000000477
 41
0.0
 71
         5
 72
         1
  1
\A1;34.5
  7
MX_DIMTXSTY_3
  0
POINT
  5
18F
100
AcDbEntity
  8
DEFPOINTS
  6
CONTINUOUS
 62
         0
100
AcDbPoint
 10
46.9675678
 20
102.8883296167
 30
0.0
  0
POINT
  5
190
100
AcDbEntity
  8
DEFPOINTS
  6
CONTINUOUS
 62
         0
100
AcDbPoint
 10
81.4675678
 20
100.3883219873
 30
0.0
  0
POINT
  5
191
100
AcDbEntity
  8
DEFPOINTS
  6
CONTINUOUS
 62
         0
100
AcDbPoint
 10
81.4675678
 20
130.622285
 30
0.0
  0
ENDBLK
  5
192
100
AcDbEntity
  8
0
  6
ByBlock
 62
         0
100
AcDbBlockEnd
  0
BLOCK
  5
195
100
AcDbEntity
  8
0
  6
ByBlock
 62
         0
100
AcDbBlockBegin
  2
*D10
 70
         1
 10
0.0
 20
0.0
 30
0.0
  3
*D10
  1

  0
LINE
  5
196
100
AcDbEntity
  8
0
  6
CONTINUOUS
 62
       110
100
AcDbLine
 10
40.9675678
 20
138.083425
 30
0.0
 11
81.4675678
 21
138.083425
 31
0.0
  0
LINE
  5
197
100
AcDbEntity
  8
0
  6
CONTINUOUS
 62
       110
100
AcDbLine
 10
40.9675678
 20
100.0080046204
 30
0.0
 11
40.9675678
 21
140.083425
 31
0.0
  0
LINE
  5
198
100
AcDbEntity
  8
0
  6
CONTINUOUS
 62
       110
100
AcDbLine
 10
81.4675678
 20
100.4508223083
 30
0.0
 11
81.4675678
 21
140.083425
 31
0.0
  0
LINE
  5
199
100
AcDbEntity
  8
0
  6
CONTINUOUS
 62
       110
100
AcDbLine
 10
40.9675678
 20
138.083425
 30
0.0
 11
36.9675678
 21
138.083425
 31
0.0
  0
LINE
  5
19A
100
AcDbEntity
  8
0
  6
CONTINUOUS
 62
       110
100
AcDbLine
 10
81.4675678
 20
138.083425
 30
0.0
 11
85.4675678
 21
138.083425
 31
0.0
  0
SOLID
  5
19B
100
AcDbEntity
  8
0
  6
CONTINUOUS
 62
       110
100
AcDbTrace
 10
39.9675677702
 20
138.250092005
 30
0.0
 11
39.9675677702
 21
137.916757995
 31
0.0
 12
40.9675678
 22
138.083425
 32
0.0
 13
40.9675678
 23
138.083425
 33
0.0
  0
SOLID
  5
19C
100
AcDbEntity
  8
0
  6
CONTINUOUS
 62
       110
100
AcDbTrace
 10
82.4675678298
 20
137.916757995
 30
0.0
 11
82.4675678298
 21
138.250092005
 31
0.0
 12
81.4675678
 22
138.083425
 32
0.0
 13
81.4675678
 23
138.083425
 33
0.0
  0
MTEXT
  5
19D
100
AcDbEntity
  8
0
  6
CONTINUOUS
 62
       110
100
AcDbMText
 10
60.9342349753
 20
140.6834250238
 30
0.0
 40
3.2000000477
 41
0.0
 71
         5
 72
         1
  1
\A1;40.5
  7
MX_DIMTXSTY_3
  0
POINT
  5
19E
100
AcDbEntity
  8
DEFPOINTS
  6
CONTINUOUS
 62
         0
100
AcDbPoint
 10
40.9675678
 20
99.9455046204
 30
0.0
  0
POINT
  5
19F
100
AcDbEntity
  8
DEFPOINTS
  6
CONTINUOUS
 62
         0
100
AcDbPoint
 10
81.4675678
 20
100.3883223083
 30
0.0
  0
POINT
  5
1A0
100
AcDbEntity
  8
DEFPOINTS
  6
CONTINUOUS
 62
         0
100
AcDbPoint
 10
81.4675678
 20
138.083425
 30
0.0
  0
ENDBLK
  5
1A1
100
AcDbEntity
  8
0
  6
ByBlock
 62
         0
100
AcDbBlockEnd
  0
ENDSEC
  0
SECTION
  2
ENTITIES
  0
MTEXT
  5
29
100
AcDbEntity
  8
0
  6
CONTINUOUS
 62
       110
100
AcDbMText
 10
-33.2452431171
 20
-51.6473295498
 30
0.0
 40
3.2000000477
 41
0.0
 71
         1
 72
         1
  1
\T1.025;\W1.058;\A1;TSUBAKI
  0
MTEXT
  5
2A
100
AcDbEntity
  8
0
  6
CONTINUOUS
 62
       110
100
AcDbMText
 10
14.5684317829
 20
-22.4950468498
 30
0.0
 40
3.2000000477
 41
0.0
 71
         1
 72
         1
  1
\T1.025;\W1.058;\A1;TSUBAKI
  0
INSERT
  5
2B
100
AcDbEntity
  8
PV
  6
ByBlock
100
AcDbBlockReference
  2
ARROW
 10
-79.0206345
 20
97.6995623
 30
0.0
 50
107.986706
  0
MTEXT
  5
2C
100
AcDbEntity
  8
PV
  6
CONTINUOUS
 62
       110
100
AcDbMText
 10
14.5206456912
 20
-28.4950468498
 30
0.0
 40
3.2000000477
 41
0.0
 71
         1
 72
         1
  1
\T1.003;\W1.067;\A1;POWER LOCK
  0
MTEXT
  5
2D
100
AcDbEntity
  8
PV
  6
CONTINUOUS
 62
       110
100
AcDbMText
 10
14.538420567
 20
-34.4950470882
 30
0.0
 40
3.2000000477
 41
0.0
 71
         1
 72
         1
  1
\W1.048;\A1;PL060X082KE
  0
DIMENSION
  5
3D
100
AcDbEntity
  8
PV
  6
CONTINUOUS
 62
       110
100
AcDbDimension
  2
*D2
 10
22.8952297
 20
95.6383377
 30
0.0
 11
22.8952297
 21
59.091661123
 31
0.0
 70
       128
  1
\A1;\U+2205<>
  3
MXDIMSTYLE
100
AcDbAlignedDimension
 13
45.2065852908
 23
23.1383225
 33
0.0
 14
39.4011462955
 24
95.6383377
 34
0.0
 50
90.0
100
AcDbRotatedDimension
1001
ACAD
1000
DSTYLE
1002
{
1070
         6
1000
SOLID
1070
         7
1000
SOLID
1070
        41
1040
1.0000000298
1070
        42
1040
0.0625
1070
        44
1040
2.0
1070
       271
1070
         4
1070
       284
1070
         8
1070
       340
1005
37
1070
       343
1005
0
1070
       344
1005
0
1002
}
  0
DIMENSION
  5
4C
100
AcDbEntity
  8
PV
  6
CONTINUOUS
 62
       110
100
AcDbDimension
  2
*D3
 10
101.361868
 20
18.3883377
 30
0.0
 11
101.361868
 21
59.091660623
 31
0.0
 70
       128
  1
\A1;\U+2205<>
  3
MXDIMSTYLE
100
AcDbAlignedDimension
 13
81.4675675392
 23
100.388322
 33
0.0
 14
81.4675675392
 24
18.3883377
 34
0.0
 50
90.0
100
AcDbRotatedDimension
1001
ACAD
1000
DSTYLE
1002
{
1070
         6
1000
SOLID
1070
         7
1000
SOLID
1070
        41
1040
1.0000000298
1070
        42
1040
0.0625
1070
        44
1040
2.0
1070
       271
1070
         4
1070
       284
1070
         8
1070
       343
1005
0
1070
       344
1005
0
1002
}
  0
DIMENSION
  5
5B
100
AcDbEntity
  8
PV
  6
CONTINUOUS
 62
       110
100
AcDbDimension
  2
*D4
 10
10.6695865
 20
102.88833
 30
0.0
 11
10.6695865
 21
59.0916610937
 31
0.0
 70
       128
  1
\A1;\U+2205<>
  3
MXDIMSTYLE
100
AcDbAlignedDimension
 13
46.9675677622
 23
15.8883301
 33
0.0
 14
46.9675677622
 24
102.88833
 34
0.0
 50
90.0
100
AcDbRotatedDimension
1001
ACAD
1000
DSTYLE
1002
{
1070
         6
1000
SOLID
1070
         7
1000
SOLID
1070
        41
1040
1.0000000298
1070
        42
1040
0.0625
1070
        44
1040
2.0
1070
       271
1070
         4
1070
       284
1070
         8
1070
       343
1005
0
1070
       344
1005
0
1002
}
  0
DIMENSION
  5
6A
100
AcDbEntity
  8
PV
  6
CONTINUOUS
 62
       110
100
AcDbDimension
  2
*D5
 10
35.3316501
 20
89.3883301
 30
0.0
 11
35.3316501
 21
59.0916649083
 31
0.0
 70
       128
  1
\A1;\U+2205<>
  3
MXDIMSTYLE
100
AcDbAlignedDimension
 13
46.9675677636
 23
29.3883301
 33
0.0
 14
46.9675677636
 24
89.3883301
 34
0.0
 50
90.0
100
AcDbRotatedDimension
1001
ACAD
1000
DSTYLE
1002
{
1070
         6
1000
SOLID
1070
         7
1000
SOLID
1070
        41
1040
1.0000000298
1070
        42
1040
0.0625
1070
        44
1040
2.0
1070
       271
1070
         4
1070
       284
1070
         8
1070
       343
1005
0
1070
       344
1005
0
1002
}
  0
ARC
  5
6B
100
AcDbEntity
  8
PV
  6
CONTINUOUS
 62
         3
100
AcDbCircle
 10
-78.0942456
 20
94.8461777
 30
0.0
 40
3.0
100
AcDbArc
 50
30.3318729
 51
173.667176
  0
CIRCLE
  5
6C
100
AcDbEntity
  8
PV
  6
CONTINUOUS
 62
         3
100
AcDbCircle
 10
-78.0942456
 20
94.8461777
 30
0.0
 40
2.45875007
  0
ARC
  5
6D
100
AcDbEntity
  8
PV
  6
CONTINUOUS
 62
         3
100
AcDbCircle
 10
-78.0942456
 20
94.8461777
 30
0.0
 40
3.0
100
AcDbArc
 50
222.332756
 51
341.668169
  0
ARC
  5
6E
100
AcDbEntity
  8
PV
  6
CONTINUOUS
 62
         3
100
AcDbCircle
 10
-39.1640202
 20
77.5133225
 30
0.0
 40
3.0
100
AcDbArc
 50
318.331874
 51
101.667175
  0
CIRCLE
  5
6F
100
AcDbEntity
  8
PV
  6
CONTINUOUS
 62
         3
100
AcDbCircle
 10
-39.1640202
 20
77.5133225
 30
0.0
 40
2.45875007
  0
ARC
  5
70
100
AcDbEntity
  8
PV
  6
CONTINUOUS
 62
         3
100
AcDbCircle
 10
-39.1640202
 20
77.5133225
 30
0.0
 40
3.0
100
AcDbArc
 50
150.332764
 51
269.668163
  0
ARC
  5
71
100
AcDbEntity
  8
PV
  6
CONTINUOUS
 62
         3
100
AcDbCircle
 10
-36.0816457
 20
48.1864639
 30
0.0
 40
3.0
100
AcDbArc
 50
270.331877
 51
53.6671766
  0
CIRCLE
  5
72
100
AcDbEntity
  8
PV
  6
CONTINUOUS
 62
         3
100
AcDbCircle
 10
-36.0816457
 20
48.1864639
 30
0.0
 40
2.45875007
  0
ARC
  5
73
100
AcDbEntity
  8
PV
  6
CONTINUOUS
 62
         3
100
AcDbCircle
 10
-36.0816457
 20
48.1864639
 30
0.0
 40
3.0
100
AcDbArc
 50
102.332763
 51
221.668161
  0
ARC
  5
74
100
AcDbEntity
  8
PV
  6
CONTINUOUS
 62
         3
100
AcDbCircle
 10
-55.8132397
 20
26.2723099
 30
0.0
 40
3.0
100
AcDbArc
 50
222.331868
 51
5.667177
  0
CIRCLE
  5
75
100
AcDbEntity
  8
PV
  6
CONTINUOUS
 62
         3
100
AcDbCircle
 10
-55.8132397
 20
26.2723099
 30
0.0
 40
2.45875007
  0
ARC
  5
76
100
AcDbEntity
  8
PV
  6
CONTINUOUS
 62
         3
100
AcDbCircle
 10
-55.8132397
 20
26.2723099
 30
0.0
 40
3.0
100
AcDbArc
 50
54.3327615
 51
173.668174
  0
ARC
  5
77
100
AcDbEntity
  8
PV
  6
CONTINUOUS
 62
         3
100
AcDbCircle
 10
-85.3016431
 20
26.2723099
 30
0.0
 40
3.0
100
AcDbArc
 50
174.331877
 51
317.667181
  0
CIRCLE
  5
78
100
AcDbEntity
  8
PV
  6
CONTINUOUS
 62
         3
100
AcDbCircle
 10
-85.3016431
 20
26.2723099
 30
0.0
 40
2.45875007
  0
ARC
  5
79
100
AcDbEntity
  8
PV
  6
CONTINUOUS
 62
         3
100
AcDbCircle
 10
-85.3016431
 20
26.2723099
 30
0.0
 40
3.0
100
AcDbArc
 50
6.33276145
 51
125.668172
  0
ARC
  5
7A
100
AcDbEntity
  8
PV
  6
CONTINUOUS
 62
         3
100
AcDbCircle
 10
-105.033226
 20
48.1864639
 30
0.0
 40
3.0
100
AcDbArc
 50
126.331876
 51
269.667179
  0
CIRCLE
  5
7B
100
AcDbEntity
  8
PV
  6
CONTINUOUS
 62
         3
100
AcDbCircle
 10
-105.033226
 20
48.1864639
 30
0.0
 40
2.45875007
  0
ARC
  5
7C
100
AcDbEntity
  8
PV
  6
CONTINUOUS
 62
         3
100
AcDbCircle
 10
-105.033226
 20
48.1864639
 30
0.0
 40
3.0
100
AcDbArc
 50
318.332762
 51
77.6681711
  0
ARC
  5
7D
100
AcDbEntity
  8
PV
  6
CONTINUOUS
 62
         3
100
AcDbCircle
 10
-101.950874
 20
77.5133225
 30
0.0
 40
3.0
100
AcDbArc
 50
78.331874
 51
221.667178
  0
CIRCLE
  5
7E
100
AcDbEntity
  8
PV
  6
CONTINUOUS
 62
         3
100
AcDbCircle
 10
-101.950874
 20
77.5133225
 30
0.0
 40
2.45875007
  0
ARC
  5
7F
100
AcDbEntity
  8
PV
  6
CONTINUOUS
 62
         3
100
AcDbCircle
 10
-101.950874
 20
77.5133225
 30
0.0
 40
3.0
100
AcDbArc
 50
270.332764
 51
29.6681664
  0
ARC
  5
80
100
AcDbEntity
  8
PV
  6
CONTINUOUS
 62
         3
100
AcDbCircle
 10
-63.0206372
 20
94.8461777
 30
0.0
 40
3.0
100
AcDbArc
 50
6.33187394
 51
149.667176
  0
CIRCLE
  5
81
100
AcDbEntity
  8
PV
  6
CONTINUOUS
 62
         3
100
AcDbCircle
 10
-63.0206372
 20
94.8461777
 30
0.0
 40
2.45875007
  0
ARC
  5
82
100
AcDbEntity
  8
PV
  6
CONTINUOUS
 62
         3
100
AcDbCircle
 10
-63.0206372
 20
94.8461777
 30
0.0
 40
3.0
100
AcDbArc
 50
198.332756
 51
317.668168
  0
ARC
  5
83
100
AcDbEntity
  8
PV
  6
CONTINUOUS
 62
         3
100
AcDbCircle
 10
-78.0942456
 20
94.8461777
 30
0.0
 40
3.0
100
AcDbArc
 50
222.332756
 51
341.668169
  0
CIRCLE
  5
84
100
AcDbEntity
  8
PV
  6
CONTINUOUS
 62
         3
100
AcDbCircle
 10
-78.0942456
 20
94.8461777
 30
0.0
 40
2.45875007
  0
ARC
  5
85
100
AcDbEntity
  8
PV
  6
CONTINUOUS
 62
         3
100
AcDbCircle
 10
-78.0942456
 20
94.8461777
 30
0.0
 40
3.0
100
AcDbArc
 50
30.3318729
 51
173.667176
  0
CIRCLE
  5
86
100
AcDbEntity
  8
PV
  6
CONTINUOUS
 62
         3
100
AcDbCircle
 10
-85.3016431
 20
92.5043503
 30
0.0
 40
4.99999988
  0
CIRCLE
  5
87
100
AcDbEntity
  8
PV
  6
CONTINUOUS
 62
         3
100
AcDbCircle
 10
-85.3016431
 20
92.5043503
 30
0.0
 40
4.3071785
  0
CIRCLE
  5
88
100
AcDbEntity
  8
PV
  6
CONTINUOUS
 62
         3
100
AcDbCircle
 10
-55.8132168
 20
92.5043503
 30
0.0
 40
4.99999988
  0
CIRCLE
  5
89
100
AcDbEntity
  8
PV
  6
CONTINUOUS
 62
         3
100
AcDbCircle
 10
-55.8132168
 20
92.5043503
 30
0.0
 40
4.3071785
  0
CIRCLE
  5
8A
100
AcDbEntity
  8
PV
  6
CONTINUOUS
 62
         3
100
AcDbCircle
 10
-43.6184384
 20
83.6443115
 30
0.0
 40
4.99999988
  0
CIRCLE
  5
8B
100
AcDbEntity
  8
PV
  6
CONTINUOUS
 62
         3
100
AcDbCircle
 10
-43.6184384
 20
83.6443115
 30
0.0
 40
4.3071785
  0
CIRCLE
  5
8C
100
AcDbEntity
  8
PV
  6
CONTINUOUS
 62
         3
100
AcDbCircle
 10
-36.0816342
 20
70.5901962
 30
0.0
 40
4.99999988
  0
CIRCLE
  5
8D
100
AcDbEntity
  8
PV
  6
CONTINUOUS
 62
         3
100
AcDbCircle
 10
-36.0816342
 20
70.5901962
 30
0.0
 40
4.3071785
  0
CIRCLE
  5
8E
100
AcDbEntity
  8
PV
  6
CONTINUOUS
 62
         3
100
AcDbCircle
 10
-34.5060231
 20
55.5991684
 30
0.0
 40
4.99999988
  0
CIRCLE
  5
8F
100
AcDbEntity
  8
PV
  6
CONTINUOUS
 62
         3
100
AcDbCircle
 10
-34.5060231
 20
55.5991684
 30
0.0
 40
4.3071785
  0
CIRCLE
  5
90
100
AcDbEntity
  8
PV
  6
CONTINUOUS
 62
         3
100
AcDbCircle
 10
-39.1640202
 20
41.2633148
 30
0.0
 40
4.99999988
  0
CIRCLE
  5
91
100
AcDbEntity
  8
PV
  6
CONTINUOUS
 62
         3
100
AcDbCircle
 10
-39.1640202
 20
41.2633148
 30
0.0
 40
4.3071785
  0
CIRCLE
  5
92
100
AcDbEntity
  8
PV
  6
CONTINUOUS
 62
         3
100
AcDbCircle
 10
-49.2502362
 20
30.0614487
 30
0.0
 40
4.99999988
  0
CIRCLE
  5
93
100
AcDbEntity
  8
PV
  6
CONTINUOUS
 62
         3
100
AcDbCircle
 10
-49.2502362
 20
30.0614487
 30
0.0
 40
4.3071785
  0
CIRCLE
  5
94
100
AcDbEntity
  8
PV
  6
CONTINUOUS
 62
         3
100
AcDbCircle
 10
-63.0206601
 20
23.9304825
 30
0.0
 40
4.99999988
  0
CIRCLE
  5
95
100
AcDbEntity
  8
PV
  6
CONTINUOUS
 62
         3
100
AcDbCircle
 10
-63.0206601
 20
23.9304825
 30
0.0
 40
4.3071785
  0
CIRCLE
  5
96
100
AcDbEntity
  8
PV
  6
CONTINUOUS
 62
         3
100
AcDbCircle
 10
-78.0942456
 20
23.9304825
 30
0.0
 40
4.99999988
  0
CIRCLE
  5
97
100
AcDbEntity
  8
PV
  6
CONTINUOUS
 62
         3
100
AcDbCircle
 10
-78.0942456
 20
23.9304825
 30
0.0
 40
4.3071785
  0
CIRCLE
  5
98
100
AcDbEntity
  8
PV
  6
CONTINUOUS
 62
         3
100
AcDbCircle
 10
-91.8646695
 20
30.0614716
 30
0.0
 40
4.99999988
  0
CIRCLE
  5
99
100
AcDbEntity
  8
PV
  6
CONTINUOUS
 62
         3
100
AcDbCircle
 10
-91.8646695
 20
30.0614716
 30
0.0
 40
4.3071785
  0
CIRCLE
  5
9A
100
AcDbEntity
  8
PV
  6
CONTINUOUS
 62
         3
100
AcDbCircle
 10
-101.950874
 20
41.2633377
 30
0.0
 40
4.99999988
  0
CIRCLE
  5
9B
100
AcDbEntity
  8
PV
  6
CONTINUOUS
 62
         3
100
AcDbCircle
 10
-101.950874
 20
41.2633377
 30
0.0
 40
4.3071785
  0
CIRCLE
  5
9C
100
AcDbEntity
  8
PV
  6
CONTINUOUS
 62
         3
100
AcDbCircle
 10
-106.608871
 20
55.5991913
 30
0.0
 40
4.99999988
  0
CIRCLE
  5
9D
100
AcDbEntity
  8
PV
  6
CONTINUOUS
 62
         3
100
AcDbCircle
 10
-106.608871
 20
55.5991913
 30
0.0
 40
4.3071785
  0
CIRCLE
  5
9E
100
AcDbEntity
  8
PV
  6
CONTINUOUS
 62
         3
100
AcDbCircle
 10
-105.033249
 20
70.5901962
 30
0.0
 40
4.99999988
  0
CIRCLE
  5
9F
100
AcDbEntity
  8
PV
  6
CONTINUOUS
 62
         3
100
AcDbCircle
 10
-105.033249
 20
70.5901962
 30
0.0
 40
4.3071785
  0
CIRCLE
  5
A0
100
AcDbEntity
  8
PV
  6
CONTINUOUS
 62
         3
100
AcDbCircle
 10
-97.4964444
 20
83.6443344
 30
0.0
 40
4.99999988
  0
CIRCLE
  5
A1
100
AcDbEntity
  8
PV
  6
CONTINUOUS
 62
         3
100
AcDbCircle
 10
-97.4964444
 20
83.6443344
 30
0.0
 40
4.3071785
  0
CIRCLE
  5
A3
100
AcDbEntity
  8
PV
  6
CENTER
 62
         3
100
AcDbCircle
 10
-70.5574414
 20
59.3883301
 30
0.0
 40
36.249999
  0
ARC
  5
A4
100
AcDbEntity
  8
PV
  6
CONTINUOUS
 62
         3
100
AcDbCircle
 10
-70.5574414
 20
59.3883301
 30
0.0
 40
32.2123318
100
AcDbArc
 50
268.221007
 51
271.778989
  0
ARC
  5
A5
100
AcDbEntity
  8
PV
  6
CONTINUOUS
 62
         3
100
AcDbCircle
 10
-70.5574414
 20
59.3883301
 30
0.0
 40
30.5500488
100
AcDbArc
 50
268.124175
 51
271.87582
  0
ARC
  5
A6
100
AcDbEntity
  8
PV
  6
CONTINUOUS
 62
         3
100
AcDbCircle
 10
-70.5574414
 20
59.3883301
 30
0.0
 40
41.000001
100
AcDbArc
 50
268.602404
 51
271.397598
  0
CIRCLE
  5
A7
100
AcDbEntity
  8
PV
  6
CONTINUOUS
 62
         3
100
AcDbCircle
 10
-70.5574414
 20
95.6383377
 30
0.0
 40
4.3071785
  0
CIRCLE
  5
A8
100
AcDbEntity
  8
PV
  6
CONTINUOUS
 62
         3
100
AcDbCircle
 10
-70.5574414
 20
95.6383377
 30
0.0
 40
4.99999988
  0
ARC
  5
A9
100
AcDbEntity
  8
PV
  6
CONTINUOUS
 62
         3
100
AcDbCircle
 10
47.2175639
 20
92.3883301
 30
0.0
 40
0.250000007
100
AcDbArc
 50
89.9999818
 51
180.000019
  0
ARC
  5
AA
100
AcDbEntity
  8
PV
  6
CONTINUOUS
 62
         3
100
AcDbCircle
 10
47.2175639
 20
98.8883453
 30
0.0
 40
0.250000007
100
AcDbArc
 50
180.000036
 51
270.000018
  0
ARC
  5
AB
100
AcDbEntity
  8
PV
  6
CONTINUOUS
 62
         3
100
AcDbCircle
 10
-70.5574414
 20
59.3883301
 30
0.0
 40
43.5
100
AcDbArc
 50
271.317261
 51
0.0
  0
ARC
  5
AC
100
AcDbEntity
  8
PV
  6
CONTINUOUS
 62
         3
100
AcDbCircle
 10
-70.5574414
 20
59.3883301
 30
0.0
 40
43.5
100
AcDbArc
 50
0.0
 51
268.68273
  0
ARC
  5
AD
100
AcDbEntity
  8
PV
  6
CONTINUOUS
 62
         3
100
AcDbCircle
 10
-70.5574414
 20
59.3883301
 30
0.0
 40
30.0
100
AcDbArc
 50
271.91021
 51
0.0
  0
ARC
  5
AE
100
AcDbEntity
  8
PV
  6
CONTINUOUS
 62
         3
100
AcDbCircle
 10
-70.5574414
 20
59.3883301
 30
0.0
 40
30.0
100
AcDbArc
 50
0.0
 51
268.089788
  0
LINE
  5
AF
100
AcDbEntity
  8
PV
  6
CONTINUOUS
 62
         3
100
AcDbLine
 10
-86.4757989
 20
95.1415209
 30
0.0
 11
-83.6048635
 21
94.8397736
 31
0.0
  0
LINE
  5
B0
100
AcDbEntity
  8
PV
  6
CONTINUOUS
 62
         3
100
AcDbLine
 10
-83.6048522
 20
94.8397714
 30
0.0
 11
-82.4307055
 21
92.2025948
 31
0.0
  0
LINE
  5
B1
100
AcDbEntity
  8
PV
  6
CONTINUOUS
 62
         3
100
AcDbLine
 10
-84.1275112
 20
89.8671931
 30
0.0
 11
-82.4307156
 21
92.2026315
 31
0.0
  0
LINE
  5
B2
100
AcDbEntity
  8
PV
  6
CONTINUOUS
 62
         3
100
AcDbLine
 10
-84.1275048
 20
89.8671716
 30
0.0
 11
-86.9984402
 21
90.1689189
 31
0.0
  0
LINE
  5
B3
100
AcDbEntity
  8
PV
  6
CONTINUOUS
 62
         3
100
AcDbLine
 10
-88.1725776
 20
92.8060889
 30
0.0
 11
-86.9984309
 21
90.1689123
 31
0.0
  0
LINE
  5
B4
100
AcDbEntity
  8
PV
  6
CONTINUOUS
 62
         3
100
AcDbLine
 10
-86.4757824
 20
95.1415308
 30
0.0
 11
-88.1725712
 21
92.8061017
 31
0.0
  0
LINE
  5
B5
100
AcDbEntity
  8
PV
  6
CONTINUOUS
 62
         3
100
AcDbLine
 10
-54.6391167
 20
95.1415403
 30
0.0
 11
-52.9423279
 21
92.8061113
 31
0.0
  0
LINE
  5
B6
100
AcDbEntity
  8
PV
  6
CONTINUOUS
 62
         3
100
AcDbLine
 10
-52.942306
 20
92.8061175
 30
0.0
 11
-54.1164527
 21
90.1689408
 31
0.0
  0
LINE
  5
B7
100
AcDbEntity
  8
PV
  6
CONTINUOUS
 62
         3
100
AcDbLine
 10
-56.9873862
 20
89.8671905
 30
0.0
 11
-54.1164394
 21
90.168939
 31
0.0
  0
LINE
  5
B8
100
AcDbEntity
  8
PV
  6
CONTINUOUS
 62
         3
100
AcDbLine
 10
-56.9874064
 20
89.8671892
 30
0.0
 11
-58.6841952
 21
92.2026183
 31
0.0
  0
LINE
  5
B9
100
AcDbEntity
  8
PV
  6
CONTINUOUS
 62
         3
100
AcDbLine
 10
-57.5100265
 20
94.8397976
 30
0.0
 11
-58.6841732
 21
92.2026209
 31
0.0
  0
LINE
  5
BA
100
AcDbEntity
  8
PV
  6
CONTINUOUS
 62
         3
100
AcDbLine
 10
-54.6390896
 20
95.141517
 30
0.0
 11
-57.510025
 21
94.8397697
 31
0.0
  0
LINE
  5
BB
100
AcDbEntity
  8
PV
  6
CONTINUOUS
 62
         3
100
AcDbLine
 10
-41.4731788
 20
85.5759198
 30
0.0
 11
-40.8729897
 21
82.752253
 31
0.0
  0
LINE
  5
BC
100
AcDbEntity
  8
PV
  6
CONTINUOUS
 62
         3
100
AcDbLine
 10
-40.8729693
 20
82.7522605
 30
0.0
 11
-43.018242
 21
80.8206482
 31
0.0
  0
LINE
  5
BD
100
AcDbEntity
  8
PV
  6
CONTINUOUS
 62
         3
100
AcDbLine
 10
-45.7637038
 20
81.7126955
 30
0.0
 11
-43.0182422
 21
80.8206407
 31
0.0
  0
LINE
  5
BE
100
AcDbEntity
  8
PV
  6
CONTINUOUS
 62
         3
100
AcDbLine
 10
-45.7637201
 20
81.7126959
 30
0.0
 11
-46.3639092
 21
84.5363627
 31
0.0
  0
LINE
  5
BF
100
AcDbEntity
  8
PV
  6
CONTINUOUS
 62
         3
100
AcDbLine
 10
-44.2186326
 20
86.4679959
 30
0.0
 11
-46.3639053
 21
84.5363836
 31
0.0
  0
LINE
  5
C0
100
AcDbEntity
  8
PV
  6
CONTINUOUS
 62
         3
100
AcDbLine
 10
-41.4731663
 20
85.5758941
 30
0.0
 11
-44.2186279
 21
86.4679489
 31
0.0
  0
LINE
  5
C1
100
AcDbEntity
  8
PV
  6
CONTINUOUS
 62
         3
100
AcDbLine
 10
-33.3361932
 20
71.4822565
 30
0.0
 11
-33.936382
 21
68.6585895
 31
0.0
  0
LINE
  5
C2
100
AcDbEntity
  8
PV
  6
CONTINUOUS
 62
         3
100
AcDbLine
 10
-33.93636
 20
68.6586086
 30
0.0
 11
-36.6818217
 21
67.766554
 31
0.0
  0
LINE
  5
C3
100
AcDbEntity
  8
PV
  6
CONTINUOUS
 62
         3
100
AcDbLine
 10
-38.8270793
 20
69.698148
 30
0.0
 11
-36.6818067
 21
67.7665355
 31
0.0
  0
LINE
  5
C4
100
AcDbEntity
  8
PV
  6
CONTINUOUS
 62
         3
100
AcDbLine
 10
-38.8271127
 20
69.6981462
 30
0.0
 11
-38.2269239
 21
72.5218131
 31
0.0
  0
LINE
  5
C5
100
AcDbEntity
  8
PV
  6
CONTINUOUS
 62
         3
100
AcDbLine
 10
-35.4814426
 20
73.413884
 30
0.0
 11
-38.2269044
 21
72.5218294
 31
0.0
  0
LINE
  5
C6
100
AcDbEntity
  8
PV
  6
CONTINUOUS
 62
         3
100
AcDbLine
 10
-33.3361737
 20
71.4822365
 30
0.0
 11
-35.4814463
 21
73.413849
 31
0.0
  0
LINE
  5
C7
100
AcDbEntity
  8
PV
  6
CONTINUOUS
 62
         3
100
AcDbLine
 10
-31.6350751
 20
55.297419
 30
0.0
 11
-33.3318635
 21
52.9619897
 31
0.0
  0
LINE
  5
C8
100
AcDbEntity
  8
PV
  6
CONTINUOUS
 62
         3
100
AcDbLine
 10
-33.3318684
 20
52.962013
 30
0.0
 11
-36.2028038
 21
53.2637605
 31
0.0
  0
LINE
  5
C9
100
AcDbEntity
  8
PV
  6
CONTINUOUS
 62
         3
100
AcDbLine
 10
-37.3769537
 20
55.9009276
 30
0.0
 11
-36.2027978
 21
53.26373
 31
0.0
  0
LINE
  5
CA
100
AcDbEntity
  8
PV
  6
CONTINUOUS
 62
         3
100
AcDbLine
 10
-37.3769424
 20
55.9009112
 30
0.0
 11
-35.6801539
 21
58.2363404
 31
0.0
  0
LINE
  5
CB
100
AcDbEntity
  8
PV
  6
CONTINUOUS
 62
         3
100
AcDbLine
 10
-32.809227
 20
57.934615
 30
0.0
 11
-35.6801624
 21
58.2363625
 31
0.0
  0
LINE
  5
CC
100
AcDbEntity
  8
PV
  6
CONTINUOUS
 62
         3
100
AcDbLine
 10
-31.6351076
 20
55.2974214
 30
0.0
 11
-32.8092541
 21
57.9345981
 31
0.0
  0
LINE
  5
CD
100
AcDbEntity
  8
PV
  6
CONTINUOUS
 62
         3
100
AcDbLine
 10
-36.6640195
 20
39.8199666
 30
0.0
 11
-39.1640176
 21
38.3765918
 31
0.0
  0
LINE
  5
CE
100
AcDbEntity
  8
PV
  6
CONTINUOUS
 62
         3
100
AcDbLine
 10
-39.1640006
 20
38.3765742
 30
0.0
 11
-41.6639988
 21
39.8199488
 31
0.0
  0
LINE
  5
CF
100
AcDbEntity
  8
PV
  6
CONTINUOUS
 62
         3
100
AcDbLine
 10
-41.664005
 20
42.7067123
 30
0.0
 11
-41.664005
 21
39.8199402
 31
0.0
  0
LINE
  5
D0
100
AcDbEntity
  8
PV
  6
CONTINUOUS
 62
         3
100
AcDbLine
 10
-41.6640141
 20
42.7067122
 30
0.0
 11
-39.164016
 21
44.150087
 31
0.0
  0
LINE
  5
D1
100
AcDbEntity
  8
PV
  6
CONTINUOUS
 62
         3
100
AcDbLine
 10
-36.6639987
 20
42.7067045
 30
0.0
 11
-39.1639969
 21
44.1500791
 31
0.0
  0
LINE
  5
D2
100
AcDbEntity
  8
PV
  6
CONTINUOUS
 62
         3
100
AcDbLine
 10
-36.6640355
 20
39.8199402
 30
0.0
 11
-36.6640355
 21
42.7066895
 31
0.0
  0
LINE
  5
D3
100
AcDbEntity
  8
PV
  6
CONTINUOUS
 62
         3
100
AcDbLine
 10
-47.5534374
 20
27.7260536
 30
0.0
 11
-50.4243728
 21
27.424306
 31
0.0
  0
LINE
  5
D4
100
AcDbEntity
  8
PV
  6
CONTINUOUS
 62
         3
100
AcDbLine
 10
-50.4243528
 20
27.4242773
 30
0.0
 11
-52.1211414
 21
29.7597065
 31
0.0
  0
LINE
  5
D5
100
AcDbEntity
  8
PV
  6
CONTINUOUS
 62
         3
100
AcDbLine
 10
-50.9470095
 20
32.3968874
 30
0.0
 11
-52.121161
 21
29.7597003
 31
0.0
  0
LINE
  5
D6
100
AcDbEntity
  8
PV
  6
CONTINUOUS
 62
         3
100
AcDbLine
 10
-50.9470146
 20
32.396908
 30
0.0
 11
-48.0760792
 21
32.6986556
 31
0.0
  0
LINE
  5
D7
100
AcDbEntity
  8
PV
  6
CONTINUOUS
 62
         3
100
AcDbLine
 10
-46.3792694
 20
30.3632024
 30
0.0
 11
-48.076058
 21
32.6986316
 31
0.0
  0
LINE
  5
D8
100
AcDbEntity
  8
PV
  6
CONTINUOUS
 62
         3
100
AcDbLine
 10
-47.5534571
 20
27.7260397
 30
0.0
 11
-46.3793102
 21
30.3632163
 31
0.0
  0
LINE
  5
D9
100
AcDbEntity
  8
PV
  6
CONTINUOUS
 62
         3
100
AcDbLine
 10
-62.4204514
 20
21.1068216
 30
0.0
 11
-65.1659132
 21
21.998876
 31
0.0
  0
LINE
  5
DA
100
AcDbEntity
  8
PV
  6
CONTINUOUS
 62
         3
100
AcDbLine
 10
-65.165908
 20
21.9988638
 30
0.0
 11
-65.766097
 21
24.8225307
 31
0.0
  0
LINE
  5
DB
100
AcDbEntity
  8
PV
  6
CONTINUOUS
 62
         3
100
AcDbLine
 10
-63.6208364
 20
26.7541401
 30
0.0
 11
-65.7661178
 21
24.8225203
 31
0.0
  0
LINE
  5
DC
100
AcDbEntity
  8
PV
  6
CONTINUOUS
 62
         3
100
AcDbLine
 10
-63.6208308
 20
26.7541515
 30
0.0
 11
-60.8753691
 21
25.862097
 31
0.0
  0
LINE
  5
DD
100
AcDbEntity
  8
PV
  6
CONTINUOUS
 62
         3
100
AcDbLine
 10
-60.2751774
 20
23.0384207
 30
0.0
 11
-60.8753663
 21
25.8620876
 31
0.0
  0
LINE
  5
DE
100
AcDbEntity
  8
PV
  6
CONTINUOUS
 62
         3
100
AcDbLine
 10
-62.4204769
 20
21.1068263
 30
0.0
 11
-60.275204
 21
23.0384384
 31
0.0
  0
LINE
  5
DF
100
AcDbEntity
  8
PV
  6
CONTINUOUS
 62
         3
100
AcDbLine
 10
-78.6944129
 20
21.1068019
 30
0.0
 11
-80.8396858
 21
23.038414
 31
0.0
  0
LINE
  5
E0
100
AcDbEntity
  8
PV
  6
CONTINUOUS
 62
         3
100
AcDbLine
 10
-80.8397147
 20
23.0384192
 30
0.0
 11
-80.2395258
 21
25.8620861
 31
0.0
  0
LINE
  5
E1
100
AcDbEntity
  8
PV
  6
CONTINUOUS
 62
         3
100
AcDbLine
 10
-77.4940499
 20
26.754129
 30
0.0
 11
-80.2395226
 21
25.8620711
 31
0.0
  0
LINE
  5
E2
100
AcDbEntity
  8
PV
  6
CONTINUOUS
 62
         3
100
AcDbLine
 10
-77.4940381
 20
26.7541327
 30
0.0
 11
-75.3487651
 21
24.8225206
 31
0.0
  0
LINE
  5
E3
100
AcDbEntity
  8
PV
  6
CONTINUOUS
 62
         3
100
AcDbLine
 10
-75.9489617
 20
21.9988576
 30
0.0
 11
-75.3487728
 21
24.8225245
 31
0.0
  0
LINE
  5
E4
100
AcDbEntity
  8
PV
  6
CONTINUOUS
 62
         3
100
AcDbLine
 10
-78.6944365
 20
21.106821
 30
0.0
 11
-75.9489748
 21
21.9988753
 31
0.0
  0
LINE
  5
E5
100
AcDbEntity
  8
PV
  6
CONTINUOUS
 62
         3
100
AcDbLine
 10
-93.5614372
 20
27.7260301
 30
0.0
 11
-94.735584
 21
30.3632067
 31
0.0
  0
LINE
  5
E6
100
AcDbEntity
  8
PV
  6
CONTINUOUS
 62
         3
100
AcDbLine
 10
-94.7355978
 20
30.3631999
 30
0.0
 11
-93.0388092
 21
32.6986291
 31
0.0
  0
LINE
  5
E7
100
AcDbEntity
  8
PV
  6
CONTINUOUS
 62
         3
100
AcDbLine
 10
-90.1678901
 20
32.3968965
 30
0.0
 11
-93.0388255
 21
32.6986442
 31
0.0
  0
LINE
  5
E8
100
AcDbEntity
  8
PV
  6
CONTINUOUS
 62
         3
100
AcDbLine
 10
-90.1678639
 20
32.3968871
 30
0.0
 11
-88.993717
 21
29.7597105
 31
0.0
  0
LINE
  5
E9
100
AcDbEntity
  8
PV
  6
CONTINUOUS
 62
         3
100
AcDbLine
 10
-90.690519
 20
27.4242781
 30
0.0
 11
-88.9937303
 21
29.7597074
 31
0.0
  0
LINE
  5
EA
100
AcDbEntity
  8
PV
  6
CONTINUOUS
 62
         3
100
AcDbLine
 10
-93.561465
 20
27.726065
 30
0.0
 11
-90.6905296
 21
27.4243173
 31
0.0
  0
LINE
  5
EB
100
AcDbEntity
  8
PV
  6
CONTINUOUS
 62
         3
100
AcDbLine
 10
-104.450859
 20
39.8199402
 30
0.0
 11
-104.450859
 21
42.7066895
 31
0.0
  0
LINE
  5
EC
100
AcDbEntity
  8
PV
  6
CONTINUOUS
 62
         3
100
AcDbLine
 10
-104.450864
 20
42.7066831
 30
0.0
 11
-101.950865
 21
44.1500577
 31
0.0
  0
LINE
  5
ED
100
AcDbEntity
  8
PV
  6
CONTINUOUS
 62
         3
100
AcDbLine
 10
-99.4508749
 20
42.7066979
 30
0.0
 11
-101.950893
 21
44.1500842
 31
0.0
  0
LINE
  5
EE
100
AcDbEntity
  8
PV
  6
CONTINUOUS
 62
         3
100
AcDbLine
 10
-99.4508664
 20
42.7066895
 30
0.0
 11
-99.4508664
 21
39.8199402
 31
0.0
  0
LINE
  5
EF
100
AcDbEntity
  8
PV
  6
CONTINUOUS
 62
         3
100
AcDbLine
 10
-101.950867
 20
38.3765628
 30
0.0
 11
-99.4508692
 21
39.8199374
 31
0.0
  0
LINE
  5
F0
100
AcDbEntity
  8
PV
  6
CONTINUOUS
 62
         3
100
AcDbLine
 10
-104.450858
 20
39.8199722
 30
0.0
 11
-101.95086
 21
38.3765974
 31
0.0
  0
LINE
  5
F1
100
AcDbEntity
  8
PV
  6
CONTINUOUS
 62
         3
100
AcDbLine
 10
-109.479796
 20
55.2974136
 30
0.0
 11
-108.30565
 21
57.9345904
 31
0.0
  0
LINE
  5
F2
100
AcDbEntity
  8
PV
  6
CONTINUOUS
 62
         3
100
AcDbLine
 10
-108.30567
 20
57.9346103
 30
0.0
 11
-105.434734
 21
58.2363578
 31
0.0
  0
LINE
  5
F3
100
AcDbEntity
  8
PV
  6
CONTINUOUS
 62
         3
100
AcDbLine
 10
-103.737918
 20
55.9009106
 30
0.0
 11
-105.434733
 21
58.2363771
 31
0.0
  0
LINE
  5
F4
100
AcDbEntity
  8
PV
  6
CONTINUOUS
 62
         3
100
AcDbLine
 10
-103.737929
 20
55.9009106
 30
0.0
 11
-104.912076
 21
53.2637338
 31
0.0
  0
LINE
  5
F5
100
AcDbEntity
  8
PV
  6
CONTINUOUS
 62
         3
100
AcDbLine
 10
-107.783028
 20
52.9620083
 30
0.0
 11
-104.912093
 21
53.2637558
 31
0.0
  0
LINE
  5
F6
100
AcDbEntity
  8
PV
  6
CONTINUOUS
 62
         3
100
AcDbLine
 10
-109.479767
 20
55.297432
 30
0.0
 11
-107.782979
 21
52.9620026
 31
0.0
  0
LINE
  5
F7
100
AcDbEntity
  8
PV
  6
CONTINUOUS
 62
         3
100
AcDbLine
 10
-107.7787
 20
71.4822516
 30
0.0
 11
-105.633428
 21
73.4138639
 31
0.0
  0
LINE
  5
F8
100
AcDbEntity
  8
PV
  6
CONTINUOUS
 62
         3
100
AcDbLine
 10
-105.63345
 20
73.4138726
 30
0.0
 11
-102.887988
 21
72.5218181
 31
0.0
  0
LINE
  5
F9
100
AcDbEntity
  8
PV
  6
CONTINUOUS
 62
         3
100
AcDbLine
 10
-102.287794
 20
69.6981421
 30
0.0
 11
-102.887988
 21
72.5218314
 31
0.0
  0
LINE
  5
FA
100
AcDbEntity
  8
PV
  6
CONTINUOUS
 62
         3
100
AcDbLine
 10
-102.287764
 20
69.6981286
 30
0.0
 11
-104.433037
 21
67.7665162
 31
0.0
  0
LINE
  5
FB
100
AcDbEntity
  8
PV
  6
CONTINUOUS
 62
         3
100
AcDbLine
 10
-107.178539
 20
68.6585754
 30
0.0
 11
-104.433077
 21
67.7665208
 31
0.0
  0
LINE
  5
FC
100
AcDbEntity
  8
PV
  6
CONTINUOUS
 62
         3
100
AcDbLine
 10
-107.778691
 20
71.4822572
 30
0.0
 11
-107.178502
 21
68.6585903
 31
0.0
  0
LINE
  5
FD
100
AcDbEntity
  8
PV
  6
CONTINUOUS
 62
         3
100
AcDbLine
 10
-99.6417175
 20
85.5759302
 30
0.0
 11
-96.8962559
 21
86.4679849
 31
0.0
  0
LINE
  5
FE
100
AcDbEntity
  8
PV
  6
CONTINUOUS
 62
         3
100
AcDbLine
 10
-96.896259
 20
86.468004
 30
0.0
 11
-94.7509863
 21
84.5363917
 31
0.0
  0
LINE
  5
FF
100
AcDbEntity
  8
PV
  6
CONTINUOUS
 62
         3
100
AcDbLine
 10
-95.3511593
 20
81.7127076
 30
0.0
 11
-94.7509702
 21
84.5363744
 31
0.0
  0
LINE
  5
100
100
AcDbEntity
  8
PV
  6
CONTINUOUS
 62
         3
100
AcDbLine
 10
-95.351166
 20
81.712688
 30
0.0
 11
-98.0966276
 21
80.8206333
 31
0.0
  0
LINE
  5
101
100
AcDbEntity
  8
PV
  6
CONTINUOUS
 62
         3
100
AcDbLine
 10
-100.241911
 20
82.7522814
 30
0.0
 11
-98.0966381
 21
80.820669
 31
0.0
  0
LINE
  5
102
100
AcDbEntity
  8
PV
  6
CONTINUOUS
 62
         3
100
AcDbLine
 10
-99.6416781
 20
85.5759268
 30
0.0
 11
-100.241867
 21
82.75226
 31
0.0
  0
LINE
  5
103
100
AcDbEntity
  8
PV
  6
CONTINUOUS
 62
         3
100
AcDbLine
 10
-70.5574696
 20
98.5250801
 30
0.0
 11
-68.0574712
 21
97.0817056
 31
0.0
  0
LINE
  5
104
100
AcDbEntity
  8
PV
  6
CONTINUOUS
 62
         3
100
AcDbLine
 10
-68.0574338
 20
97.0817123
 30
0.0
 11
-68.0574338
 21
94.1949631
 31
0.0
  0
LINE
  5
105
100
AcDbEntity
  8
PV
  6
CONTINUOUS
 62
         3
100
AcDbLine
 10
-70.5574426
 20
92.7515905
 30
0.0
 11
-68.0574344
 21
94.1949706
 31
0.0
  0
LINE
  5
106
100
AcDbEntity
  8
PV
  6
CONTINUOUS
 62
         3
100
AcDbLine
 10
-70.5574671
 20
92.751585
 30
0.0
 11
-73.0574655
 21
94.1949595
 31
0.0
  0
LINE
  5
107
100
AcDbEntity
  8
PV
  6
CONTINUOUS
 62
         3
100
AcDbLine
 10
-73.057449
 20
97.0817123
 30
0.0
 11
-73.057449
 21
94.1949631
 31
0.0
  0
LINE
  5
108
100
AcDbEntity
  8
PV
  6
CONTINUOUS
 62
         3
100
AcDbLine
 10
-70.5574287
 20
98.5250657
 30
0.0
 11
-73.057427
 21
97.0816913
 31
0.0
  0
LINE
  5
109
100
AcDbEntity
  8
PV
  6
CONTINUOUS
 62
         3
100
AcDbLine
 10
62.4675659
 20
93.1795975
 30
0.0
 11
62.4675659
 21
91.6006561
 31
0.0
  0
LINE
  5
10A
100
AcDbEntity
  8
PV
  6
CONTINUOUS
 62
         3
100
AcDbLine
 10
58.4675697
 20
98.6383377
 30
0.0
 11
58.4675697
 21
100.388322
 31
0.0
  0
LINE
  5
10B
100
AcDbEntity
  8
PV
  6
CONTINUOUS
 62
         3
100
AcDbLine
 10
70.9675895
 20
92.6383192
 30
0.0
 11
71.9675905
 21
93.6383202
 31
0.0
  0
LINE
  5
10C
100
AcDbEntity
  8
PV
  6
CONTINUOUS
 62
         3
100
AcDbLine
 10
71.9675697
 20
97.6383301
 30
0.0
 11
71.9675697
 21
93.6383453
 31
0.0
  0
LINE
  5
10D
100
AcDbEntity
  8
PV
  6
CONTINUOUS
 62
         3
100
AcDbLine
 10
70.9675895
 20
98.6383255
 30
0.0
 11
71.9675905
 21
97.6383245
 31
0.0
  0
LINE
  5
10E
100
AcDbEntity
  8
PV
  6
CONTINUOUS
 62
         3
100
AcDbLine
 10
70.9675678
 20
98.6383377
 30
0.0
 11
70.9675678
 21
92.6383377
 31
0.0
  0
LINE
  5
10F
100
AcDbEntity
  8
PV
  6
CONTINUOUS
 62
         3
100
AcDbLine
 10
49.4675639
 20
98.0970779
 30
0.0
 11
81.4675678
 21
98.0970779
 31
0.0
  0
LINE
  5
110
100
AcDbEntity
  8
PV
  6
CONTINUOUS
 62
         3
100
AcDbLine
 10
49.4675639
 20
93.1795975
 30
0.0
 11
81.4675678
 21
93.1795975
 31
0.0
  0
LINE
  5
111
100
AcDbEntity
  8
PV
  6
CONTINUOUS
 62
         3
100
AcDbLine
 10
49.4675622
 20
93.1796205
 30
0.0
 11
48.3850282
 21
92.6383531
 31
0.0
  0
LINE
  5
112
100
AcDbEntity
  8
PV
  6
CONTINUOUS
 62
         3
100
AcDbLine
 10
49.4675639
 20
98.6383377
 30
0.0
 11
49.4675639
 21
92.6383377
 31
0.0
  0
LINE
  5
113
100
AcDbEntity
  8
PV
  6
CONTINUOUS
 62
         3
100
AcDbLine
 10
49.4675845
 20
98.0970768
 30
0.0
 11
48.3850351
 21
98.6383518
 31
0.0
  0
LINE
  5
114
100
AcDbEntity
  8
PV
  6
CONTINUOUS
 62
         3
100
AcDbLine
 10
81.4675678
 20
98.6383377
 30
0.0
 11
47.2175639
 21
98.6383377
 31
0.0
  0
LINE
  5
115
100
AcDbEntity
  8
PV
  6
CONTINUOUS
 62
         3
100
AcDbLine
 10
81.4675678
 20
92.6383377
 30
0.0
 11
47.2175639
 21
92.6383377
 31
0.0
  0
LINE
  5
116
100
AcDbEntity
  8
PV
  6
CONTINUOUS
 62
         3
100
AcDbLine
 10
46.9675678
 20
90.6383453
 30
0.0
 11
41.3675731
 21
90.6383453
 31
0.0
  0
LINE
  5
117
100
AcDbEntity
  8
PV
  6
CONTINUOUS
 62
         3
100
AcDbLine
 10
40.9675723
 20
91.3311518
 30
0.0
 11
41.3675775
 21
90.6383221
 31
0.0
  0
LINE
  5
118
100
AcDbEntity
  8
PV
  6
CONTINUOUS
 62
         3
100
AcDbLine
 10
40.9675678
 20
99.9455048
 30
0.0
 11
40.9675678
 21
91.3311707
 31
0.0
  0
LINE
  5
119
100
AcDbEntity
  8
PV
  6
CONTINUOUS
 62
         3
100
AcDbLine
 10
40.9675706
 20
99.945506
 30
0.0
 11
41.3675758
 21
100.638336
 31
0.0
  0
LINE
  5
11A
100
AcDbEntity
  8
PV
  6
CONTINUOUS
 62
         3
100
AcDbLine
 10
41.3675731
 20
100.63833
 30
0.0
 11
41.3675731
 21
90.6383453
 31
0.0
  0
LINE
  5
11B
100
AcDbEntity
  8
PV
  6
CONTINUOUS
 62
         3
100
AcDbLine
 10
46.9675678
 20
100.63833
 30
0.0
 11
41.3675731
 21
100.63833
 31
0.0
  0
LINE
  5
11C
100
AcDbEntity
  8
PV
  6
CONTINUOUS
 62
         3
100
AcDbLine
 10
55.4675697
 20
100.388322
 30
0.0
 11
58.4675697
 21
100.388322
 31
0.0
  0
LINE
  5
11D
100
AcDbEntity
  8
PV
  6
CONTINUOUS
 62
         3
100
AcDbLine
 10
46.9675678
 20
102.88833
 30
0.0
 11
55.4675697
 21
102.88833
 31
0.0
  0
LINE
  5
11E
100
AcDbEntity
  8
PV
  6
CONTINUOUS
 62
         3
100
AcDbLine
 10
58.4675697
 20
91.7756363
 30
0.0
 11
58.4675697
 21
92.6383377
 31
0.0
  0
LINE
  5
11F
100
AcDbEntity
  8
PV
  6
CONTINUOUS
 62
         3
100
AcDbLine
 10
81.4675699
 20
89.9383824
 30
0.0
 11
60.4675402
 21
91.7756469
 31
0.0
  0
LINE
  5
120
100
AcDbEntity
  8
PV
  6
CONTINUOUS
 62
         3
100
AcDbLine
 10
60.4675678
 20
91.7756363
 30
0.0
 11
58.4675697
 21
91.7756363
 31
0.0
  0
LINE
  5
121
100
AcDbEntity
  8
PV
  6
CONTINUOUS
 62
         3
100
AcDbLine
 10
62.4675659
 20
100.388322
 30
0.0
 11
81.4675678
 21
100.388322
 31
0.0
  0
LINE
  5
122
100
AcDbEntity
  8
PV
  6
CONTINUOUS
 62
         3
100
AcDbLine
 10
81.4675678
 20
100.388322
 30
0.0
 11
81.4675678
 21
59.3883301
 31
0.0
  0
LINE
  5
123
100
AcDbEntity
  8
PV
  6
CONTINUOUS
 62
         3
100
AcDbLine
 10
62.4675659
 20
100.388322
 30
0.0
 11
62.4675659
 21
98.0970779
 31
0.0
  0
LINE
  5
124
100
AcDbEntity
  8
PV
  6
CONTINUOUS
 62
         3
100
AcDbLine
 10
55.4675697
 20
102.88833
 30
0.0
 11
55.4675697
 21
100.388322
 31
0.0
  0
LINE
  5
125
100
AcDbEntity
  8
PV
  6
CENTER
 62
         3
100
AcDbLine
 10
39.4011463
 20
95.6383377
 30
0.0
 11
84.2028545
 21
95.6383377
 31
0.0
  0
LINE
  5
126
100
AcDbEntity
  8
PV
  6
CONTINUOUS
 62
         3
100
AcDbLine
 10
46.9675678
 20
89.3883301
 30
0.0
 11
77.4675659
 21
89.3883301
 31
0.0
  0
LINE
  5
127
100
AcDbEntity
  8
PV
  6
CONTINUOUS
 62
         3
100
AcDbLine
 10
77.4675659
 20
90.2883392
 30
0.0
 11
77.4675659
 21
59.3883301
 31
0.0
  0
LINE
  5
128
100
AcDbEntity
  8
PV
  6
CONTINUOUS
 62
         3
100
AcDbLine
 10
46.9675678
 20
102.88833
 30
0.0
 11
46.9675678
 21
59.3883301
 31
0.0
  0
LINE
  5
129
100
AcDbEntity
  8
PV
  6
CONTINUOUS
 62
         3
100
AcDbLine
 10
62.4675659
 20
18.3883377
 30
0.0
 11
81.4675678
 21
18.3883377
 31
0.0
  0
LINE
  5
12A
100
AcDbEntity
  8
PV
  6
CONTINUOUS
 62
         3
100
AcDbLine
 10
62.4675659
 20
18.3883377
 30
0.0
 11
62.4675659
 21
27.176004
 31
0.0
  0
LINE
  5
12B
100
AcDbEntity
  8
PV
  6
CONTINUOUS
 62
         3
100
AcDbLine
 10
81.4675678
 20
18.3883377
 30
0.0
 11
81.4675678
 21
59.3883301
 31
0.0
  0
LINE
  5
12C
100
AcDbEntity
  8
PV
  6
CONTINUOUS
 62
         3
100
AcDbLine
 10
55.4675697
 20
15.8883301
 30
0.0
 11
55.4675697
 21
18.3883377
 31
0.0
  0
LINE
  5
12D
100
AcDbEntity
  8
PV
  6
CONTINUOUS
 62
         3
100
AcDbLine
 10
55.4675697
 20
18.3883377
 30
0.0
 11
58.4675697
 21
18.3883377
 31
0.0
  0
LINE
  5
12E
100
AcDbEntity
  8
PV
  6
CONTINUOUS
 62
         3
100
AcDbLine
 10
46.9675678
 20
15.8883301
 30
0.0
 11
55.4675697
 21
15.8883301
 31
0.0
  0
LINE
  5
12F
100
AcDbEntity
  8
PV
  6
CONTINUOUS
 62
         3
100
AcDbLine
 10
58.4675697
 20
27.0010239
 30
0.0
 11
58.4675697
 21
18.3883377
 31
0.0
  0
LINE
  5
130
100
AcDbEntity
  8
PV
  6
CONTINUOUS
 62
         3
100
AcDbLine
 10
81.4675682
 20
28.838288
 30
0.0
 11
60.4675413
 21
27.0010237
 31
0.0
  0
LINE
  5
131
100
AcDbEntity
  8
PV
  6
CONTINUOUS
 62
         3
100
AcDbLine
 10
60.4675678
 20
27.0010239
 30
0.0
 11
58.4675697
 21
27.0010239
 31
0.0
  0
LINE
  5
132
100
AcDbEntity
  8
PV
  6
CONTINUOUS
 62
         3
100
AcDbLine
 10
46.9675678
 20
20.6795822
 30
0.0
 11
58.4675697
 21
20.6795822
 31
0.0
  0
LINE
  5
133
100
AcDbEntity
  8
PV
  6
CONTINUOUS
 62
         3
100
AcDbLine
 10
46.9675678
 20
25.5970627
 30
0.0
 11
58.4675697
 21
25.5970627
 31
0.0
  0
LINE
  5
134
100
AcDbEntity
  8
PV
  6
CONTINUOUS
 62
         3
100
AcDbLine
 10
46.9675678
 20
20.1383225
 30
0.0
 11
58.4675697
 21
20.1383225
 31
0.0
  0
LINE
  5
135
100
AcDbEntity
  8
PV
  6
CONTINUOUS
 62
         3
100
AcDbLine
 10
46.9675678
 20
26.1383225
 30
0.0
 11
58.4675697
 21
26.1383225
 31
0.0
  0
LINE
  5
136
100
AcDbEntity
  8
PV
  6
CENTER
 62
         3
100
AcDbLine
 10
45.2065852
 20
23.1383225
 30
0.0
 11
60.1111816
 21
23.1383225
 31
0.0
  0
LINE
  5
137
100
AcDbEntity
  8
PV
  6
CONTINUOUS
 62
         3
100
AcDbLine
 10
46.9675678
 20
29.3883301
 30
0.0
 11
77.4675659
 21
29.3883301
 31
0.0
  0
LINE
  5
138
100
AcDbEntity
  8
PV
  6
CONTINUOUS
 62
         3
100
AcDbLine
 10
77.4675659
 20
28.4883209
 30
0.0
 11
77.4675659
 21
59.3883301
 31
0.0
  0
LINE
  5
139
100
AcDbEntity
  8
PV
  6
CONTINUOUS
 62
         3
100
AcDbLine
 10
46.9675678
 20
15.8883301
 30
0.0
 11
46.9675678
 21
59.3883301
 31
0.0
  0
LINE
  5
13A
100
AcDbEntity
  8
PV
  6
CENTER
 62
         3
100
AcDbLine
 10
43.4536136
 20
59.3883301
 30
0.0
 11
85.4084667
 21
59.3883301
 31
0.0
  0
LINE
  5
13B
100
AcDbEntity
  8
PV
  6
CONTINUOUS
 62
         3
100
AcDbLine
 10
-71.557449
 20
29.4050156
 30
0.0
 11
-71.557449
 21
15.8998199
 31
0.0
  0
LINE
  5
13C
100
AcDbEntity
  8
PV
  6
CONTINUOUS
 62
         3
100
AcDbLine
 10
-69.5574338
 20
29.4050156
 30
0.0
 11
-69.5574338
 21
15.8998199
 31
0.0
  0
LINE
  5
13D
100
AcDbEntity
  8
PV
  6
CENTER
 62
         3
100
AcDbLine
 10
-44.4132851
 20
50.8935839
 30
0.0
 11
-26.9998122
 21
45.2356036
 31
0.0
  0
LINE
  5
13E
100
AcDbEntity
  8
PV
  6
CENTER
 62
         3
100
AcDbLine
 10
-59.3764138
 20
34.2753356
 30
0.0
 11
-51.9292252
 21
17.5486765
 31
0.0
  0
LINE
  5
13F
100
AcDbEntity
  8
PV
  6
CENTER
 62
         3
100
AcDbLine
 10
-81.7384652
 20
34.275332
 30
0.0
 11
-89.1856538
 21
17.5486728
 31
0.0
  0
LINE
  5
140
100
AcDbEntity
  8
PV
  6
CENTER
 62
         3
100
AcDbLine
 10
-96.7016059
 20
50.8935835
 30
0.0
 11
-114.115079
 21
45.2356032
 31
0.0
  0
LINE
  5
141
100
AcDbEntity
  8
PV
  6
CENTER
 62
         3
100
AcDbLine
 10
-94.3641211
 20
73.1331261
 30
0.0
 11
-110.220707
 21
82.2879303
 31
0.0
  0
LINE
  5
142
100
AcDbEntity
  8
PV
  6
CENTER
 62
         3
100
AcDbLine
 10
-76.2728532
 20
86.2772226
 30
0.0
 11
-80.07963
 21
104.1867
 31
0.0
  0
LINE
  5
143
100
AcDbEntity
  8
PV
  6
CENTER
 62
         3
100
AcDbLine
 10
-46.7507539
 20
73.1331238
 30
0.0
 11
-30.8941706
 21
82.2879266
 31
0.0
  0
LINE
  5
144
100
AcDbEntity
  8
PV
  6
CENTER
 62
         3
100
AcDbLine
 10
-59.3764091
 20
84.5013309
 30
0.0
 11
-51.9292297
 21
101.227969
 31
0.0
  0
LINE
  5
145
100
AcDbEntity
  8
PV
  6
CENTER
 62
         3
100
AcDbLine
 10
-50.1286964
 20
77.7824581
 30
0.0
 11
-36.5220059
 21
90.0339778
 31
0.0
  0
LINE
  5
146
100
AcDbEntity
  8
PV
  6
CENTER
 62
         3
100
AcDbLine
 10
-44.4132869
 20
67.8830883
 30
0.0
 11
-26.9998194
 21
73.5410668
 31
0.0
  0
LINE
  5
147
100
AcDbEntity
  8
PV
  6
CENTER
 62
         3
100
AcDbLine
 10
-43.2184286
 20
56.5148914
 30
0.0
 11
-25.0091445
 21
54.6010185
 31
0.0
  0
LINE
  5
148
100
AcDbEntity
  8
PV
  6
CENTER
 62
         3
100
AcDbLine
 10
-46.7507559
 20
45.6435364
 30
0.0
 11
-30.8941701
 21
36.4887322
 31
0.0
  0
LINE
  5
149
100
AcDbEntity
  8
PV
  6
CENTER
 62
         3
100
AcDbLine
 10
-54.3994638
 20
37.1487855
 30
0.0
 11
-43.6373461
 21
22.336001
 31
0.0
  0
LINE
  5
14A
100
AcDbEntity
  8
PV
  6
CENTER
 62
         3
100
AcDbLine
 10
-64.8420346
 20
32.4994464
 30
0.0
 11
-61.0352531
 21
14.5899463
 31
0.0
  0
LINE
  5
14B
100
AcDbEntity
  8
PV
  6
CENTER
 62
         3
100
AcDbLine
 10
-76.2728481
 20
32.4994651
 30
0.0
 11
-80.0796297
 21
14.589965
 31
0.0
  0
LINE
  5
14C
100
AcDbEntity
  8
PV
  6
CENTER
 62
         3
100
AcDbLine
 10
-86.7154104
 20
37.148774
 30
0.0
 11
-97.4775281
 21
22.3359894
 31
0.0
  0
LINE
  5
14D
100
AcDbEntity
  8
PV
  6
CENTER
 62
         3
100
AcDbLine
 10
-94.3641277
 20
45.6435291
 30
0.0
 11
-110.220709
 21
36.4887278
 31
0.0
  0
LINE
  5
14E
100
AcDbEntity
  8
PV
  6
CENTER
 62
         3
100
AcDbLine
 10
-97.8964386
 20
56.5148875
 30
0.0
 11
-116.105745
 21
54.6010123
 31
0.0
  0
LINE
  5
14F
100
AcDbEntity
  8
PV
  6
CENTER
 62
         3
100
AcDbLine
 10
-96.701615
 20
67.8830922
 30
0.0
 11
-114.115066
 21
73.5410655
 31
0.0
  0
LINE
  5
150
100
AcDbEntity
  8
PV
  6
CENTER
 62
         3
100
AcDbLine
 10
-90.9861697
 20
77.7824432
 30
0.0
 11
-104.592877
 21
90.0339783
 31
0.0
  0
LINE
  5
151
100
AcDbEntity
  8
PV
  6
CENTER
 62
         3
100
AcDbLine
 10
-81.7384606
 20
84.5013137
 30
0.0
 11
-89.18564
 21
101.227952
 31
0.0
  0
LINE
  5
152
100
AcDbEntity
  8
PV
  6
CENTER
 62
         3
100
AcDbLine
 10
-70.5574414
 20
106.888338
 30
0.0
 11
-70.5574414
 21
11.8883225
 31
0.0
  0
LINE
  5
153
100
AcDbEntity
  8
PV
  6
CENTER
 62
         3
100
AcDbLine
 10
-64.8420343
 20
86.2772188
 30
0.0
 11
-61.0352527
 21
104.186719
 31
0.0
  0
LINE
  5
154
100
AcDbEntity
  8
PV
  6
CENTER
 62
         3
100
AcDbLine
 10
-118.057449
 20
59.3883301
 30
0.0
 11
-23.0574452
 21
59.3883301
 31
0.0
  0
DIMENSION
  5
164
100
AcDbEntity
  8
PV
  6
CONTINUOUS
 62
       110
100
AcDbDimension
  2
*D6
 10
81.4675678
 20
113.31244
 30
0.0
 11
71.684234029
 21
113.31244
 31
0.0
 70
       128
  1
\A1;<>
  3
MXDIMSTYLE
100
AcDbAlignedDimension
 13
62.4675659
 23
100.3883229117
 33
0.0
 14
81.4675678
 24
100.3883229117
 34
0.0
100
AcDbRotatedDimension
1001
ACAD
1000
DSTYLE
1002
{
1070
         6
1000
SOLID
1070
         7
1000
SOLID
1070
        41
1040
1.0000000298
1070
        42
1040
0.0625
1070
        44
1040
2.0
1070
       271
1070
         4
1070
       284
1070
         8
1070
       340
1005
15E
1070
       343
1005
0
1070
       344
1005
0
1002
}
  0
DIMENSION
  5
173
100
AcDbEntity
  8
PV
  6
CONTINUOUS
 62
       110
100
AcDbDimension
  2
*D7
 10
81.4675678
 20
124.056482
 30
0.0
 11
68.1842359216
 21
124.056482
 31
0.0
 70
       128
  1
\A1;<>
  3
MXDIMSTYLE
100
AcDbAlignedDimension
 13
55.4675697
 23
118.9829060265
 33
0.0
 14
81.4675678
 24
100.3883225151
 34
0.0
100
AcDbRotatedDimension
1001
ACAD
1000
DSTYLE
1002
{
1070
         6
1000
SOLID
1070
         7
1000
SOLID
1070
        41
1040
1.0000000298
1070
        42
1040
0.0625
1070
        44
1040
2.0
1070
       271
1070
         4
1070
       284
1070
         8
1070
       343
1005
0
1070
       344
1005
0
1002
}
  0
DIMENSION
  5
184
100
AcDbEntity
  8
PV
  6
CONTINUOUS
 62
       110
100
AcDbDimension
  2
*D8
 10
55.4675697
 20
124.056482
 30
0.0
 11
32.9995197043
 21
124.056482
 31
0.0
 70
       128
  1
\A1;<>
  3
MXDIMSTYLE
100
AcDbAlignedDimension
 13
46.9675678
 23
102.8883301445
 33
0.0
 14
55.4675697
 24
102.8883301445
 34
0.0
100
AcDbRotatedDimension
1001
ACAD
1000
DSTYLE
1002
{
1070
         6
1000
SOLID
1070
         7
1000
SOLID
1070
        41
1040
1.0000000298
1070
        42
1040
0.0625
1070
        44
1040
2.0
1070
       271
1070
         4
1070
       284
1070
         8
1070
       340
1005
17E
1070
       343
1005
0
1070
       344
1005
0
1002
}
  0
DIMENSION
  5
193
100
AcDbEntity
  8
PV
  6
CONTINUOUS
 62
       110
100
AcDbDimension
  2
*D9
 10
81.4675678
 20
130.622285
 30
0.0
 11
63.9342349753
 21
130.622285
 31
0.0
 70
       128
  1
\A1;<>
  3
MXDIMSTYLE
100
AcDbAlignedDimension
 13
46.9675678
 23
102.8883296167
 33
0.0
 14
81.4675678
 24
100.3883219873
 34
0.0
100
AcDbRotatedDimension
1001
ACAD
1000
DSTYLE
1002
{
1070
         6
1000
SOLID
1070
         7
1000
SOLID
1070
        41
1040
1.0000000298
1070
        42
1040
0.0625
1070
        44
1040
2.0
1070
       271
1070
         4
1070
       284
1070
         8
1070
       340
1005
15E
1070
       343
1005
0
1070
       344
1005
0
1002
}
  0
DIMENSION
  5
1A2
100
AcDbEntity
  8
PV
  6
CONTINUOUS
 62
       110
100
AcDbDimension
  2
*D10
 10
81.4675678
 20
138.083425
 30
0.0
 11
60.9342349753
 21
138.083425
 31
0.0
 70
       128
  1
\A1;<>
  3
MXDIMSTYLE
100
AcDbAlignedDimension
 13
40.9675678
 23
99.9455046204
 33
0.0
 14
81.4675678
 24
100.3883223083
 34
0.0
100
AcDbRotatedDimension
1001
ACAD
1000
DSTYLE
1002
{
1070
         6
1000
SOLID
1070
         7
1000
SOLID
1070
        41
1040
1.0000000298
1070
        42
1040
0.0625
1070
        44
1040
2.0
1070
       271
1070
         4
1070
       284
1070
         8
1070
       340
1005
15E
1070
       343
1005
0
1070
       344
1005
0
1002
}
  0
MTEXT
  5
1A3
100
AcDbEntity
  8
PV
  6
CONTINUOUS
 62
       110
100
AcDbMText
 10
-76.327201462
 20
-105.5323010882
 30
0.0
 40
3.2000000477
 41
0.0
 71
         1
 72
         1
  1
\A1;MASS
  0
MTEXT
  5
1A4
100
AcDbEntity
  8
PV
  6
CONTINUOUS
 62
       110
100
AcDbMText
 10
110.8581692989
 20
-99.4000000882
 30
0.0
 40
3.2000000477
 41
0.0
 71
         1
 72
         1
  1
\W1.500;\A1;\}
  0
MTEXT
  5
1A5
100
AcDbEntity
  8
PV
  6
CONTINUOUS
 62
       110
100
AcDbMText
 10
109.7915010206
 20
-99.0000000024
 30
0.0
 40
1.6000000238
 41
0.0
 71
         1
 72
         1
  1
\A1;2
  0
MTEXT
  5
1A6
100
AcDbEntity
  8
PV
  6
CONTINUOUS
 62
       110
100
AcDbMText
 10
90.751503338
 20
-99.4000000882
 30
0.0
 40
3.2000000477
 41
0.0
 71
         1
 72
         1
  1
\A1;kgf/mm
  0
MTEXT
  5
1A7
100
AcDbEntity
  8
PV
  6
CONTINUOUS
 62
       110
100
AcDbMText
 10
110.8581692989
 20
-93.4000000882
 30
0.0
 40
3.2000000477
 41
0.0
 71
         1
 72
         1
  1
\W1.500;\A1;\}
  0
MTEXT
  5
1A8
100
AcDbEntity
  8
PV
  6
CONTINUOUS
 62
       110
100
AcDbMText
 10
109.7915010206
 20
-93.0000002024
 30
0.0
 40
1.6000000238
 41
0.0
 71
         1
 72
         1
  1
\A1;2
  0
MTEXT
  5
1A9
100
AcDbEntity
  8
PV
  6
CONTINUOUS
 62
       110
100
AcDbMText
 10
90.751503338
 20
-93.4000000882
 30
0.0
 40
3.2000000477
 41
0.0
 71
         1
 72
         1
  1
\A1;kgf/mm
  0
MTEXT
  5
1AA
100
AcDbEntity
  8
PV
  6
CONTINUOUS
 62
       110
100
AcDbMText
 10
90.7999881841
 20
-87.4000000882
 30
0.0
 40
3.2000000477
 41
0.0
 71
         1
 72
         1
  1
\W1.091;\A1;kgf\}
  0
MTEXT
  5
1AB
100
AcDbEntity
  8
PV
  6
CONTINUOUS
 62
       110
100
AcDbMText
 10
91.284836015
 20
-75.3999998498
 30
0.0
 40
3.2000000477
 41
0.0
 71
         1
 72
         1
  1
\W0.833;\A1;ｋｇｆ・ｍ｝
  0
MTEXT
  5
1AC
100
AcDbEntity
  8
PV
  6
CONTINUOUS
 62
       110
100
AcDbMText
 10
91.284836015
 20
-81.3999998498
 30
0.0
 40
3.2000000477
 41
0.0
 71
         1
 72
         1
  1
\W0.833;\A1;ｋｇｆ・ｍ｝
  0
MTEXT
  5
1AD
100
AcDbEntity
  8
PV
  6
CONTINUOUS
 62
       110
100
AcDbMText
 10
55.751499538
 20
-105.4000000882
 30
0.0
 40
3.2000000477
 41
0.0
 71
         1
 72
         1
  1
\A1;kg
  0
MTEXT
  5
1AE
100
AcDbEntity
  8
PV
  6
CONTINUOUS
 62
       110
100
AcDbMText
 10
55.751499538
 20
-99.4000000882
 30
0.0
 40
3.2000000477
 41
0.0
 71
         1
 72
         1
  1
\A1;MPa
  0
MTEXT
  5
1AF
100
AcDbEntity
  8
PV
  6
CONTINUOUS
 62
       110
100
AcDbMText
 10
55.751499538
 20
-93.4000000882
 30
0.0
 40
3.2000000477
 41
0.0
 71
         1
 72
         1
  1
\A1;MPa
  0
MTEXT
  5
1B0
100
AcDbEntity
  8
PV
  6
CONTINUOUS
 62
       110
100
AcDbMText
 10
55.751499538
 20
-87.4000000882
 30
0.0
 40
3.2000000477
 41
0.0
 71
         1
 72
         1
  1
\A1;kN
  0
MTEXT
  5
1B1
100
AcDbEntity
  8
PV
  6
CONTINUOUS
 62
       110
100
AcDbMText
 10
56.284832215
 20
-81.3999998498
 30
0.0
 40
3.2000000477
 41
0.0
 71
         1
 72
         1
  1
\W0.833;\A1;Ｎ・ｍ
  0
MTEXT
  5
1B2
100
AcDbEntity
  8
PV
  6
CONTINUOUS
 62
       110
100
AcDbMText
 10
56.284832215
 20
-75.3999998498
 30
0.0
 40
3.2000000477
 41
0.0
 71
         1
 72
         1
  1
\W0.833;\A1;Ｎ・ｍ
  0
MTEXT
  5
1B3
100
AcDbEntity
  8
PV
  6
CONTINUOUS
 62
       110
100
AcDbMText
 10
40.6518240194
 20
-105.4000000882
 30
0.0
 40
3.2000000477
 41
0.0
 71
         1
 72
         1
  1
\W1.263;\A1;0.59
  0
MTEXT
  5
1B4
100
AcDbEntity
  8
PV
  6
CONTINUOUS
 62
       110
100
AcDbMText
 10
43.7781396012
 20
-99.4000000882
 30
0.0
 40
3.2000000477
 41
0.0
 71
         1
 72
         1
  1
\W1.125;\A1;137
  0
MTEXT
  5
1B5
100
AcDbEntity
  8
PV
  6
CONTINUOUS
 62
       110
100
AcDbMText
 10
43.7781396012
 20
-93.4000000882
 30
0.0
 40
3.2000000477
 41
0.0
 71
         1
 72
         1
  1
\W1.125;\A1;188
  0
MTEXT
  5
1B6
100
AcDbEntity
  8
PV
  6
CONTINUOUS
 62
       110
100
AcDbMText
 10
40.6181398044
 20
-87.4000000882
 30
0.0
 40
3.2000000477
 41
0.0
 71
         1
 72
         1
  1
\W1.200;\A1;68.6
  0
MTEXT
  5
1B7
100
AcDbEntity
  8
PV
  6
CONTINUOUS
 62
       110
100
AcDbMText
 10
40.5876636153
 20
-81.4000000882
 30
0.0
 40
3.2000000477
 41
0.0
 71
         1
 72
         1
  1
\W1.143;\A1;2180
  0
MTEXT
  5
1B8
100
AcDbEntity
  8
PV
  6
CONTINUOUS
 62
       110
100
AcDbMText
 10
40.6892509114
 20
-75.4000000882
 30
0.0
 40
3.2000000477
 41
0.0
 71
         1
 72
         1
  1
\W1.333;\A1;16.7
  0
MTEXT
  5
1B9
100
AcDbEntity
  8
PV
  6
CONTINUOUS
 62
       110
100
AcDbMText
 10
58.702895567
 20
-63.4000000882
 30
0.0
 40
3.2000000477
 41
0.0
 71
         1
 72
         1
  1
\W1.048;\A1;PL060X082KE
  0
MTEXT
  5
1BA
100
AcDbEntity
  8
PV
  6
CONTINUOUS
 62
       110
100
AcDbMText
 10
-77.2843070285
 20
-63.5323393498
 30
0.0
 40
3.2000000477
 41
0.0
 71
         1
 72
         1
  1
\T1.017;\W1.071;\A1;MODEL NUMBER
  0
MTEXT
  5
1BB
100
AcDbEntity
  8
PV
  6
CONTINUOUS
 62
       110
100
AcDbMText
 10
63.5006868427
 20
-69.4000000882
 30
0.0
 40
3.2000000477
 41
0.0
 71
         1
 72
         1
  1
\W1.043;\A1;15-M6X25
  0
MTEXT
  5
1BC
100
AcDbEntity
  8
PV
  6
CONTINUOUS
 62
       110
100
AcDbMText
 10
74.8181402079
 20
-75.4000000882
 30
0.0
 40
3.2000000477
 41
0.0
 71
         1
 72
         1
  1
\W1.500;\A1;\{1.7
  0
MTEXT
  5
1BD
100
AcDbEntity
  8
PV
  6
CONTINUOUS
 62
       110
100
AcDbMText
 10
74.5999583982
 20
-81.4000000882
 30
0.0
 40
3.2000000477
 41
0.0
 71
         1
 72
         1
  1
\W1.091;\A1;\{222
  0
MTEXT
  5
1BE
100
AcDbEntity
  8
PV
  6
CONTINUOUS
 62
       110
100
AcDbMText
 10
71.4581403265
 20
-87.4000000882
 30
0.0
 40
3.2000000477
 41
0.0
 71
         1
 72
         1
  1
\W1.200;\A1;\{7000
  0
MTEXT
  5
1BF
100
AcDbEntity
  8
PV
  6
CONTINUOUS
 62
       110
100
AcDbMText
 10
71.5454130391
 20
-93.4000000882
 30
0.0
 40
3.2000000477
 41
0.0
 71
         1
 72
         1
  1
\W1.364;\A1;\{19.2
  0
MTEXT
  5
1C0
100
AcDbEntity
  8
PV
  6
CONTINUOUS
 62
       110
100
AcDbMText
 10
71.5800450776
 20
-99.4000000882
 30
0.0
 40
3.2000000477
 41
0.0
 71
         1
 72
         1
  1
\W1.429;\A1;\{14.0
  0
MTEXT
  5
1C1
100
AcDbEntity
  8
PV
  6
CONTINUOUS
 62
       110
100
AcDbMText
 10
-77.2519615519
 20
-99.5323388498
 30
0.0
 40
3.2000000477
 41
0.0
 71
         1
 72
         1
  1
\T1.030;\W1.126;\A1;CONTACT PRESSURE OF HUB BORE
  0
MTEXT
  5
1C2
100
AcDbEntity
  8
PV
  6
CONTINUOUS
 62
       110
100
AcDbMText
 10
-77.264878134
 20
-93.5323393498
 30
0.0
 40
3.2000000477
 41
0.0
 71
         1
 72
         1
  1
\T1.025;\W1.104;\A1;CONTACT PRESSURE OF SHAFT
  0
MTEXT
  5
1C3
100
AcDbEntity
  8
PV
  6
CONTINUOUS
 62
       110
100
AcDbMText
 10
-77.2608117529
 20
-87.5323393498
 30
0.0
 40
3.2000000477
 41
0.0
 71
         1
 72
         1
  1
\T1.028;\W1.060;\A1;TRANSMISSIBLE THRUST
  0
MTEXT
  5
1C4
100
AcDbEntity
  8
PV
  6
CONTINUOUS
 62
       110
100
AcDbMText
 10
-77.2608117529
 20
-81.5323393498
 30
0.0
 40
3.2000000477
 41
0.0
 71
         1
 72
         1
  1
\T1.028;\W1.060;\A1;TRANSMISSIBLE TORQUE
  0
MTEXT
  5
1C5
100
AcDbEntity
  8
PV
  6
CONTINUOUS
 62
       110
100
AcDbMText
 10
-77.2086661764
 20
-69.5323393498
 30
0.0
 40
3.2000000477
 41
0.0
 71
         1
 72
         1
  1
\T1.047;\W1.149;\A1;QUANTITY AND SIZE OF LOCKING BOLTS
  0
MTEXT
  5
1C6
100
AcDbEntity
  8
PV
  6
CONTINUOUS
 62
       110
100
AcDbMText
 10
-77.2272130173
 20
-75.5323393498
 30
0.0
 40
3.2000000477
 41
0.0
 71
         1
 72
         1
  1
\T1.041;\W1.120;\A1;TIGHTENING TORQUE OF LOCKING BOLTS
  0
MTEXT
  5
1C7
100
AcDbEntity
  8
PV
  6
CONTINUOUS
 62
       110
100
AcDbMText
 10
-33.2930292088
 20
-57.6473295498
 30
0.0
 40
3.2000000477
 41
0.0
 71
         1
 72
         1
  1
\T1.003;\W1.067;\A1;POWER LOCK
  0
LINE
  5
1C8
100
AcDbEntity
  8
PV
  6
CONTINUOUS
 62
         3
100
AcDbLine
 10
118.853996
 20
-50.0
 30
0.0
 11
118.853996
 21
-110.0
 31
0.0
  0
LINE
  5
1C9
100
AcDbEntity
  8
PV
  6
CONTINUOUS
 62
         3
100
AcDbLine
 10
-81.7114716
 20
-50.0
 30
0.0
 11
118.853996
 21
-50.0
 31
0.0
  0
LINE
  5
1CA
100
AcDbEntity
  8
PV
  6
CONTINUOUS
 62
         3
100
AcDbLine
 10
-81.7114716
 20
-50.0
 30
0.0
 11
-81.7114716
 21
-110.0
 31
0.0
  0
LINE
  5
1CB
100
AcDbEntity
  8
PV
  6
CONTINUOUS
 62
         3
100
AcDbLine
 10
33.0612793
 20
-62.0
 30
0.0
 11
33.0612793
 21
-110.0
 31
0.0
  0
LINE
  5
1CC
100
AcDbEntity
  8
PV
  6
CONTINUOUS
 62
         3
100
AcDbLine
 10
-81.7114716
 20
-110.0
 30
0.0
 11
118.853996
 21
-110.0
 31
0.0
  0
LINE
  5
1CD
100
AcDbEntity
  8
PV
  6
CONTINUOUS
 62
         3
100
AcDbLine
 10
-81.7114716
 20
-104.0
 30
0.0
 11
118.853996
 21
-104.0
 31
0.0
  0
LINE
  5
1CE
100
AcDbEntity
  8
PV
  6
CONTINUOUS
 62
         3
100
AcDbLine
 10
-81.7114716
 20
-98.0
 30
0.0
 11
118.853996
 21
-98.0
 31
0.0
  0
LINE
  5
1CF
100
AcDbEntity
  8
PV
  6
CONTINUOUS
 62
         3
100
AcDbLine
 10
-81.7114716
 20
-92.0
 30
0.0
 11
118.853996
 21
-92.0
 31
0.0
  0
LINE
  5
1D0
100
AcDbEntity
  8
PV
  6
CONTINUOUS
 62
         3
100
AcDbLine
 10
-81.7114716
 20
-86.0
 30
0.0
 11
118.853996
 21
-86.0
 31
0.0
  0
LINE
  5
1D1
100
AcDbEntity
  8
PV
  6
CONTINUOUS
 62
         3
100
AcDbLine
 10
-81.7114716
 20
-80.0
 30
0.0
 11
118.853996
 21
-80.0
 31
0.0
  0
LINE
  5
1D2
100
AcDbEntity
  8
PV
  6
CONTINUOUS
 62
         3
100
AcDbLine
 10
-81.7114716
 20
-74.0
 30
0.0
 11
118.853996
 21
-74.0
 31
0.0
  0
LINE
  5
1D3
100
AcDbEntity
  8
PV
  6
CONTINUOUS
 62
         3
100
AcDbLine
 10
-81.7114716
 20
-68.0
 30
0.0
 11
118.853996
 21
-68.0
 31
0.0
  0
LINE
  5
1D4
100
AcDbEntity
  8
PV
  6
CONTINUOUS
 62
         3
100
AcDbLine
 10
-81.7114716
 20
-62.0
 30
0.0
 11
118.853996
 21
-62.0
 31
0.0
  0
LINE
  5
1D5
100
AcDbEntity
  8
PV
  6
CONTINUOUS
 62
         3
100
AcDbLine
 10
-81.7114716
 20
-56.0
 30
0.0
 11
118.853996
 21
-56.0
 31
0.0
  0
LWPOLYLINE
  5
1D6
100
AcDbEntity
  8
PV
  6
CONTINUOUS
 62
         7
100
AcDbPolyline
 90
        3
 70
         0
 10
-79.0206345
 20
97.6995623
 10
-87.4539967
 20
123.675289
 10
-93.5711208
 20
123.675289
  0
MTEXT
  5
1D7
100
AcDbEntity
  8
PV
  6
CONTINUOUS
 62
       110
100
AcDbMText
 10
-93.2711208998
 20
128.6752891502
 30
0.0
 40
3.2000000477
 41
0.0
 71
         1
 72
         1
  1
\W0.937;\A1;M6
  0
ENDSEC
  0
SECTION
  2
OBJECTS
  0
DICTIONARY
  5
19
100
AcDbDictionary
  3
ACAD_GROUP
350
1A
  3
ACAD_MLINESTYLE
350
1B
  0
DICTIONARY
  5
1A
102
{ACAD_REACTORS
330
19
102
}
100
AcDbDictionary
  0
DICTIONARY
  5
1B
102
{ACAD_REACTORS
330
19
102
}
100
AcDbDictionary
  3
STANDARD
350
1C
  0
MLINESTYLE
  5
1C
102
{ACAD_REACTORS
330
1B
102
}
100
AcDbMlineStyle
  2
Standard
 70
         0
  3

 62
         0
 51
90.0
 52
90.0
 71
         2
 49
0.5
 62
       256
  6
ByLayer
 49
-0.5
 62
       256
  6
ByLayer
  0
ENDSEC
  0
EOF
