  0
SECTION
  2
HEADER
  9
$ACADVER
  1
AC1014
  9
$ACADMAINTVER
 70
         0
  9
$DWGCODEPAGE
  3
ANSI_932
  9
$INSBASE
 10
0.0
 20
0.0
 30
0.0
  9
$EXTMIN
 10
-138.9346725316
 20
-110.0
 30
0.0
  9
$EXTMAX
 10
131.661364
 20
144.0533785316
 30
0.0
  9
$LIMMIN
 10
-138.9346725316
 20
-110.0
  9
$LIMMAX
 10
131.661364
 20
144.0533785316
  9
$ORTHOMODE
 70
         0
  9
$REGENMODE
 70
         1
  9
$FILLMODE
 70
         1
  9
$QTEXTMODE
 70
         0
  9
$MIRRTEXT
 70
         1
  9
$DRAGMODE
 70
         2
  9
$LTSCALE
 40
1.0
  9
$OSMODE
 70
         0
  9
$ATTMODE
 70
         1
  9
$TEXTSIZE
 40
3.2000000477
  9
$TRACEWID
 40
0.05
  9
$TEXTSTYLE
  7
MX_NOTE_STANDARD
  9
$CLAYER
  8
0
  9
$CELTYPE
  6
CONTINUOUS
  9
$CECOLOR
 62
       256
  9
$CELTSCALE
 40
1.0
  9
$DELOBJ
 70
         1
  9
$DISPSILH
 70
         0
  9
$DIMSCALE
 40
1.0
  9
$DIMASZ
 40
2.5
  9
$DIMEXO
 40
0.0
  9
$DIMDLI
 40
3.75
  9
$DIMRND
 40
0.0
  9
$DIMDLE
 40
0.0
  9
$DIMEXE
 40
2.5
  9
$DIMTP
 40
0.0
  9
$DIMTM
 40
0.0
  9
$DIMTXT
 40
3.2000000477
  9
$DIMCEN
 40
2.5
  9
$DIMTSZ
 40
0.0
  9
$DIMTOL
 70
         0
  9
$DIMLIM
 70
         0
  9
$DIMTIH
 70
         0
  9
$DIMTOH
 70
         0
  9
$DIMSE1
 70
         0
  9
$DIMSE2
 70
         0
  9
$DIMTAD
 70
         1
  9
$DIMZIN
 70
         8
  9
$DIMBLK
  1

  9
$DIMASO
 70
         1
  9
$DIMSHO
 70
         1
  9
$DIMPOST
  1

  9
$DIMAPOST
  1

  9
$DIMALT
 70
         0
  9
$DIMALTD
 70
         4
  9
$DIMALTF
 40
0.0393700787
  9
$DIMLFAC
 40
1.0
  9
$DIMTOFL
 70
         1
  9
$DIMTVP
 40
0.0
  9
$DIMTIX
 70
         0
  9
$DIMSOXD
 70
         0
  9
$DIMSAH
 70
         1
  9
$DIMBLK1
  1
_OPEN30
  9
$DIMBLK2
  1
_OPEN30
  9
$DIMSTYLE
  2
MXDIMSTYLE
  9
$DIMCLRD
 70
         0
  9
$DIMCLRE
 70
         0
  9
$DIMCLRT
 70
         0
  9
$DIMTFAC
 40
1.0
  9
$DIMGAP
 40
1.0
  9
$DIMJUST
 70
         0
  9
$DIMSD1
 70
         0
  9
$DIMSD2
 70
         0
  9
$DIMTOLJ
 70
         0
  9
$DIMTZIN
 70
         0
  9
$DIMALTZ
 70
         0
  9
$DIMALTTZ
 70
         0
  9
$DIMFIT
 70
         3
  9
$DIMUPT
 70
         0
  9
$DIMUNIT
 70
         2
  9
$DIMDEC
 70
         2
  9
$DIMTDEC
 70
         2
  9
$DIMALTU
 70
         2
  9
$DIMALTTD
 70
         4
  9
$DIMTXSTY
  7
MX_NOTE_STANDARD
  9
$DIMAUNIT
 70
         0
  9
$LUNITS
 70
         2
  9
$LUPREC
 70
         4
  9
$SKETCHINC
 40
0.1
  9
$FILLETRAD
 40
0.0
  9
$AUNITS
 70
         0
  9
$AUPREC
 70
         0
  9
$MENU
  1
acad
  9
$ELEVATION
 40
0.0
  9
$PELEVATION
 40
0.0
  9
$THICKNESS
 40
0.0
  9
$LIMCHECK
 70
         0
  9
$BLIPMODE
 70
         1
  9
$CHAMFERA
 40
0.0
  9
$CHAMFERB
 40
0.0
  9
$CHAMFERC
 40
0.0
  9
$CHAMFERD
 40
0.0
  9
$SKPOLY
 70
         0
  9
$TDCREATE
 40
2456603.419236111
  9
$TDUPDATE
 40
2456603.419236111
  9
$TDINDWG
 40
0.0000000000
  9
$TDUSRTIMER
 40
0.0000000000
  9
$USRTIMER
 70
         1
  9
$ANGBASE
 50
0.0
  9
$ANGDIR
 70
         0
  9
$PDMODE
 70
         0
  9
$PDSIZE
 40
0.0
  9
$PLINEWID
 40
0.0
  9
$COORDS
 70
         1
  9
$SPLFRAME
 70
         0
  9
$SPLINETYPE
 70
         6
  9
$SPLINESEGS
 70
         8
  9
$ATTDIA
 70
         0
  9
$ATTREQ
 70
         1
  9
$HANDLING
 70
         1
  9
$HANDSEED
  5
1A0
  9
$SURFTAB1
 70
         6
  9
$SURFTAB2
 70
         6
  9
$SURFTYPE
 70
         6
  9
$SURFU
 70
         6
  9
$SURFV
 70
         6
  9
$UCSNAME
  2

  9
$UCSORG
 10
0.0
 20
0.0
 30
0.0
  9
$UCSXDIR
 10
1.0
 20
0.0
 30
0.0
  9
$UCSYDIR
 10
0.0
 20
1.0
 30
0.0
  9
$PUCSNAME
  2

  9
$PUCSORG
 10
0.0
 20
0.0
 30
0.0
  9
$PUCSXDIR
 10
1.0
 20
0.0
 30
0.0
  9
$PUCSYDIR
 10
0.0
 20
1.0
 30
0.0
  9
$USERI1
 70
         0
  9
$USERI2
 70
         0
  9
$USERI3
 70
         0
  9
$USERI4
 70
         0
  9
$USERI5
 70
         0
  9
$USERR1
 40
0.0
  9
$USERR2
 40
0.0
  9
$USERR3
 40
0.0
  9
$USERR4
 40
0.0
  9
$USERR5
 40
0.0
  9
$WORLDVIEW
 70
         1
  9
$SHADEDGE
 70
         3
  9
$SHADEDIF
 70
        70
  9
$TILEMODE
 70
         1
  9
$MAXACTVP
 70
        16
  9
$PINSBASE
 10
0.0
 20
0.0
 30
0.0
  9
$PLIMCHECK
 70
         0
  9
$PEXTMIN
 10
1.0000000000E+20
 20
1.0000000000E+20
 30
1.0000000000E+20
  9
$PEXTMAX
 10
-1.0000000000E+20
 20
-1.0000000000E+20
 30
-1.0000000000E+20
  9
$PLIMMIN
 10
0.0
 20
0.0
  9
$PLIMMAX
 10
12.0
 20
9.0
  9
$UNITMODE
 70
         0
  9
$VISRETAIN
 70
         0
  9
$PLINEGEN
 70
         1
  9
$PSLTSCALE
 70
         0
  9
$TREEDEPTH
 70
      3020
  9
$PICKSTYLE
 70
         1
  9
$CMLSTYLE
  2
Standard
  9
$CMLJUST
 70
         0
  9
$CMLSCALE
 40
1.0
  9
$PROXYGRAPHICS
 70
         0
  9
$MEASUREMENT
 70
         1
  0
ENDSEC
  0
SECTION
  2
CLASSES
  0
CLASS
  1
LWPOLYLINE
  2
AcDbPolyline
  3
"AutoCAD"
 90
        0
280
         0
281
         1
  0
CLASS
  1
IMAGE
  2
AcDbRasterImage
  3
ISM
 90
      127
280
         0
281
         1
  0
CLASS
  1
OLE2FRAME
  2
AcDbOle2Frame
  3
""
 90
        0
280
         0
281
         1
  0
CLASS
  1
HATCH
  2
AcDbHatch
  3
"ACAD_SEDONA"
 90
        0
280
         0
281
         1
  0
CLASS
  1
DICTIONARYVAR
  2
AcDbDictionaryVar
  3
"AutoCAD"
 90
        0
280
         0
281
         0
  0
CLASS
  1
RASTERVARIABLES
  2
AcDbRasterVariables
  3
ISM
 90
        0
280
         0
281
         0
  0
CLASS
  1
IMAGEDEF
  2
AcDbRasterImageDef
  3
ISM
 90
        0
280
         0
281
         0
  0
CLASS
  1
IMAGEDEF_REACTOR
  2
AcDbRasterImageDefReactor
  3
ISM
 90
        1
280
         0
281
         0
  0
CLASS
  1
IDBUFFER
  2
AcDbIdBuffer
  3
"Acad"
 90
        0
280
         0
281
         0
  0
CLASS
  1
SPATIAL_FILTER
  2
AcDbSpatialFilter
  3
"Acad"
 90
        0
280
         0
281
         0
  0
CLASS
  1
XRECORD
  2
AcDbXrecord
  3
"<Built In>"
 90
        0
280
         0
281
         0
  0
CLASS
  1
SORTENTSTABLE
  2
AcDbSortentsTable
  3
"AutoCAD"
 90
        0
280
         0
281
         0
  0
CLASS
  1
LAYER_INDEX
  2
AcDbLayerIndex
  3
"Acad"
 90
        0
280
         0
281
         0
  0
CLASS
  1
SPATIAL_INDEX
  2
AcDbSpatialIndex
  3
"Acad"
 90
        0
280
         0
281
         0
  0
CLASS
  1
OBJECT_PTR
  2
CAseDLPNTableRecord
  3
"ASE-LPNTableRecord"
 90
        1
280
         0
281
         0
  0
CLASS
  1
LAYOUT
  2
AcDbLayout
  3
"AutoCAD 2000"
 90
        0
280
         0
281
         0
  0
CLASS
  1
PLOTSETTINGS
  2
AcDbPlotSettings
  3
"AutoCAD 2000"
 90
        0
280
         0
281
         0
  0
CLASS
  1
ACDBDICTIONARYWDFLT
  2
AcDbDictionaryWithDefault
  3
"AutoCAD 2000"
 90
        0
280
         0
281
         0
  0
CLASS
  1
ACDBPLACEHOLDER
  2
AcDbPlaceHolder
  3
"AutoCAD 2000"
 90
        0
280
         0
281
         0
  0
ENDSEC
  0
SECTION
  2
TABLES
  0
TABLE
  2
VPORT
  5
7
100
AcDbSymbolTable
 70
         1
  0
VPORT
  5
15
100
AcDbSymbolTableRecord
100
AcDbViewportTableRecord
  2
*ACTIVE
 70
         0
 10
0.0
 20
0.0
 11
1.0
 21
1.0
 12
-3.6366542658
 22
17.0266892658
 13
0.0
 23
0.0
 14
1.0
 24
1.0
 15
0.0
 25
0.0
 16
0.0
 26
0.0
 36
1.0
 17
0.0
 27
0.0
 37
0.0
 40
256.5939123169
 41
1.7320508076
 42
50.0
 43
0.0
 44
0.0
 50
0.0
 51
0.0
 71
         0
 72
       100
 73
         1
 74
         1
 75
         0
 76
         0
 77
         0
 78
         0
  0
ENDTAB
  0
TABLE
  2
LTYPE
  5
4
100
AcDbSymbolTable
 70
         6
  0
LTYPE
  5
11
100
AcDbSymbolTableRecord
100
AcDbLinetypeTableRecord
  2
BYBLOCK
 70
        64
  3

 72
        65
 73
         0
 40
0.0
  0
LTYPE
  5
12
100
AcDbSymbolTableRecord
100
AcDbLinetypeTableRecord
  2
BYLAYER
 70
        64
  3

 72
        65
 73
         0
 40
0.0
  0
LTYPE
  5
13
100
AcDbSymbolTableRecord
100
AcDbLinetypeTableRecord
  2
CONTINUOUS
 70
        64
  3
Solid line
 72
        65
 73
         0
 40
0.0
  0
LTYPE
  5
67
100
AcDbSymbolTableRecord
100
AcDbLinetypeTableRecord
  2
DASHED
 70
        64
  3
Dashed __ __ __ __ __ __ __ __ __ __ __ __ __ _
 72
        65
 73
         2
 40
19.05
 49
12.7
 74
         0
 49
-6.35
 74
         0
  0
LTYPE
  5
8F
100
AcDbSymbolTableRecord
100
AcDbLinetypeTableRecord
  2
CENTER
 70
        64
  3
Center ____ _ ____ _ ____ _ ____ _ ____ _ ____
 72
        65
 73
         4
 40
50.8
 49
31.75
 74
         0
 49
-6.35
 74
         0
 49
6.35
 74
         0
 49
-6.35
 74
         0
  0
LTYPE
  5
9D
100
AcDbSymbolTableRecord
100
AcDbLinetypeTableRecord
  2
PHANTOM
 70
        64
  3
Phantom ______  __  __  ______  __  __  ______
 72
        65
 73
         6
 40
63.5
 49
31.75
 74
         0
 49
-6.35
 74
         0
 49
6.35
 74
         0
 49
-6.35
 74
         0
 49
6.35
 74
         0
 49
-6.35
 74
         0
  0
ENDTAB
  0
TABLE
  2
LAYER
  5
2
100
AcDbSymbolTable
 70
         3
  0
LAYER
  5
14
100
AcDbSymbolTableRecord
100
AcDbLayerTableRecord
  2
0
 70
         0
 62
         7
  6
CONTINUOUS
  0
LAYER
  5
1D
100
AcDbSymbolTableRecord
100
AcDbLayerTableRecord
  2
PV
 70
         0
 62
         3
  6
CONTINUOUS
  0
LAYER
  5
1E
100
AcDbSymbolTableRecord
100
AcDbLayerTableRecord
  2
DEFPOINTS
 70
         0
 62
         7
  6
CONTINUOUS
  0
ENDTAB
  0
TABLE
  2
STYLE
  5
3
100
AcDbSymbolTable
 70
         2
  0
STYLE
  5
17
100
AcDbSymbolTableRecord
100
AcDbTextStyleTableRecord
  2
MX_NOTE_STANDARD
 70
         0
 40
0.0
 41
1.0
 50
0.0
 71
         0
 42
3.2000000477
  3
txt.shx
  4
extfont.shx
  0
STYLE
  5
17B
100
AcDbSymbolTableRecord
100
AcDbTextStyleTableRecord
  2
MX_DIMTXSTY_2
 70
         0
 40
0.0
 41
1.2
 50
0.0
 71
         0
 42
3.2000000477
  3
txt.shx
  4
extfont.shx
  0
ENDTAB
  0
TABLE
  2
VIEW
  5
5
100
AcDbSymbolTable
 70
         0
  0
ENDTAB
  0
TABLE
  2
UCS
  5
6
100
AcDbSymbolTable
 70
         0
  0
ENDTAB
  0
TABLE
  2
APPID
  5
8
100
AcDbSymbolTable
 70
         1
  0
APPID
  5
16
100
AcDbSymbolTableRecord
100
AcDbRegAppTableRecord
  2
ACAD
 70
         0
  0
ENDTAB
  0
TABLE
  2
DIMSTYLE
  5
9
100
AcDbSymbolTable
 70
         1
  0
DIMSTYLE
105
18
100
AcDbSymbolTableRecord
100
AcDbDimStyleTableRecord
  2
MXDIMSTYLE
 70
         0
  3

  4

  5

  6
_OPEN30
  7
_OPEN30
 40
1.0
 41
2.5
 42
0.0
 43
3.75
 44
2.5
 45
0.0
 46
0.0
 47
0.0
 48
0.0
 71
         0
 72
         0
 73
         0
 74
         0
 75
         0
 76
         0
 77
         1
 78
         8
140
3.2000000477
141
2.5
142
0.0
143
0.0393700787
144
1.0
145
0.0
146
1.0
147
1.0
170
         0
171
         4
172
         1
173
         1
174
         0
175
         0
176
         0
177
         0
178
         0
270
         2
271
         2
272
         2
273
         2
274
         4
275
         0
280
         0
281
         0
282
         0
283
         0
284
         0
285
         0
286
         0
287
         3
288
         0
340
17
  0
ENDTAB
  0
TABLE
  2
BLOCK_RECORD
  5
1
100
AcDbSymbolTable
 70
         7
  0
BLOCK_RECORD
  5
A
100
AcDbSymbolTableRecord
100
AcDbBlockTableRecord
  2
*MODEL_SPACE
  0
BLOCK_RECORD
  5
B
100
AcDbSymbolTableRecord
100
AcDbBlockTableRecord
  2
*PAPER_SPACE
  0
BLOCK_RECORD
  5
1F
100
AcDbSymbolTableRecord
100
AcDbBlockTableRecord
  2
ARROW
  0
BLOCK_RECORD
  5
20
100
AcDbSymbolTableRecord
100
AcDbBlockTableRecord
  2
_OPEN30
  0
BLOCK_RECORD
  5
154
100
AcDbSymbolTableRecord
100
AcDbBlockTableRecord
  2
*D2
  0
BLOCK_RECORD
  5
163
100
AcDbSymbolTableRecord
100
AcDbBlockTableRecord
  2
*D3
  0
BLOCK_RECORD
  5
172
100
AcDbSymbolTableRecord
100
AcDbBlockTableRecord
  2
*D4
  0
BLOCK_RECORD
  5
182
100
AcDbSymbolTableRecord
100
AcDbBlockTableRecord
  2
*D5
  0
BLOCK_RECORD
  5
191
100
AcDbSymbolTableRecord
100
AcDbBlockTableRecord
  2
*D6
  0
ENDTAB
  0
ENDSEC
  0
SECTION
  2
BLOCKS
  0
BLOCK
  5
D
100
AcDbEntity
  8
0
100
AcDbBlockBegin
  2
*MODEL_SPACE
 70
         0
 10
0.0
 20
0.0
 30
0.0
  3
*MODEL_SPACE
  1

  0
ENDBLK
  5
E
100
AcDbEntity
  8
0
100
AcDbBlockEnd
  0
BLOCK
  5
F
100
AcDbEntity
 67
         1
  8
0
100
AcDbBlockBegin
  2
*PAPER_SPACE
 70
         0
 10
0.0
 20
0.0
 30
0.0
  3
*PAPER_SPACE
  1

  0
ENDBLK
  5
10
100
AcDbEntity
 67
         1
  8
0
100
AcDbBlockEnd
  0
BLOCK
  5
26
100
AcDbEntity
  8
0
100
AcDbBlockBegin
  2
ARROW
 70
         0
 10
0.0
 20
0.0
 30
0.0
  3
ARROW
  1

  0
LWPOLYLINE
  5
27
100
AcDbEntity
  8
0
  6
CONTINUOUS
 62
       193
100
AcDbPolyline
 90
        3
 70
         0
 10
2.39955081
 20
0.642957702
 10
0.0
 20
0.0
 10
2.39955081
 20
-0.642957702
  0
ENDBLK
  5
28
100
AcDbEntity
  8
0
100
AcDbBlockEnd
  0
BLOCK
  5
21
100
AcDbEntity
  8
0
  6
ByBlock
 62
         0
100
AcDbBlockBegin
  2
_OPEN30
 70
         2
 10
0.0
 20
0.0
 30
0.0
  3
_OPEN30
  1

  0
LINE
  5
22
100
AcDbEntity
  8
0
  6
ByBlock
 62
         0
100
AcDbLine
 10
-1.0
 20
0.267949
 30
0.0
 11
0.0
 21
0.0
 31
0.0
  0
LINE
  5
23
100
AcDbEntity
  8
0
  6
ByBlock
 62
         0
100
AcDbLine
 10
0.0
 20
0.0
 30
0.0
 11
-1.0
 21
-0.267949
 31
0.0
  0
LINE
  5
24
100
AcDbEntity
  8
0
  6
ByBlock
 62
         0
100
AcDbLine
 10
0.0
 20
0.0
 30
0.0
 11
-1.0
 21
0.0
 31
0.0
  0
ENDBLK
  5
25
100
AcDbEntity
  8
0
  6
ByBlock
 62
         0
100
AcDbBlockEnd
  0
BLOCK
  5
155
100
AcDbEntity
  8
0
  6
ByBlock
 62
         0
100
AcDbBlockBegin
  2
*D2
 70
         1
 10
0.0
 20
0.0
 30
0.0
  3
*D2
  1

  0
LINE
  5
156
100
AcDbEntity
  8
0
  6
CONTINUOUS
 62
       110
100
AcDbLine
 10
-35.4834111
 20
1.38057581
 30
0.0
 11
-108.508424
 21
1.38057581
 31
0.0
  0
LINE
  5
157
100
AcDbEntity
  8
0
  6
CONTINUOUS
 62
       110
100
AcDbLine
 10
-35.4834111
 20
42.673166905
 30
0.0
 11
-35.4834111
 21
-0.61942419
 31
0.0
  0
LINE
  5
158
100
AcDbEntity
  8
0
  6
CONTINUOUS
 62
       110
100
AcDbLine
 10
-108.508424
 20
42.673166905
 30
0.0
 11
-108.508424
 21
-0.61942419
 31
0.0
  0
LINE
  5
159
100
AcDbEntity
  8
0
  6
CONTINUOUS
 62
       110
100
AcDbLine
 10
-35.4834111
 20
1.38057581
 30
0.0
 11
-31.4834111
 21
1.38057581
 31
0.0
  0
LINE
  5
15A
100
AcDbEntity
  8
0
  6
CONTINUOUS
 62
       110
100
AcDbLine
 10
-108.508424
 20
1.38057581
 30
0.0
 11
-112.508424
 21
1.38057581
 31
0.0
  0
SOLID
  5
15B
100
AcDbEntity
  8
0
  6
CONTINUOUS
 62
       110
100
AcDbTrace
 10
-34.4834110702
 20
1.213908805
 30
0.0
 11
-34.4834110702
 21
1.547242815
 31
0.0
 12
-35.4834111
 22
1.38057581
 32
0.0
 13
-35.4834111
 23
1.38057581
 33
0.0
  0
SOLID
  5
15C
100
AcDbEntity
  8
0
  6
CONTINUOUS
 62
       110
100
AcDbTrace
 10
-109.5084240298
 20
1.547242815
 30
0.0
 11
-109.5084240298
 21
1.213908805
 31
0.0
 12
-108.508424
 22
1.38057581
 32
0.0
 13
-108.508424
 23
1.38057581
 33
0.0
  0
MTEXT
  5
15D
100
AcDbEntity
  8
0
  6
CONTINUOUS
 62
       110
100
AcDbMText
 10
-72.279252317
 20
3.9805758338
 30
0.0
 40
3.2000000477
 41
0.0
 71
         5
 72
         1
  1
\A1;73
 11
1.0
 21
0.0
 31
0.0
  0
POINT
  5
15E
100
AcDbEntity
  8
DEFPOINTS
  6
CONTINUOUS
 62
         0
100
AcDbPoint
 10
-35.4834111
 20
42.735666905
 30
0.0
  0
POINT
  5
15F
100
AcDbEntity
  8
DEFPOINTS
  6
CONTINUOUS
 62
         0
100
AcDbPoint
 10
-108.508424
 20
42.735666905
 30
0.0
  0
POINT
  5
160
100
AcDbEntity
  8
DEFPOINTS
  6
CONTINUOUS
 62
         0
100
AcDbPoint
 10
-108.508424
 20
1.38057581
 30
0.0
  0
ENDBLK
  5
161
100
AcDbEntity
  8
0
  6
ByBlock
 62
         0
100
AcDbBlockEnd
  0
BLOCK
  5
164
100
AcDbEntity
  8
0
  6
ByBlock
 62
         0
100
AcDbBlockBegin
  2
*D3
 70
         1
 10
0.0
 20
0.0
 30
0.0
  3
*D3
  1

  0
LINE
  5
165
100
AcDbEntity
  8
0
  6
CONTINUOUS
 62
       110
100
AcDbLine
 10
-133.668006
 20
27.6895013
 30
0.0
 11
-133.668006
 21
92.7135034
 31
0.0
  0
LINE
  5
166
100
AcDbEntity
  8
0
  6
CONTINUOUS
 62
       110
100
AcDbLine
 10
-87.616015491
 20
27.6895013
 30
0.0
 11
-135.668006
 21
27.6895013
 31
0.0
  0
LINE
  5
167
100
AcDbEntity
  8
0
  6
CONTINUOUS
 62
       110
100
AcDbLine
 10
-87.616015491
 20
92.7135034
 30
0.0
 11
-135.668006
 21
92.7135034
 31
0.0
  0
LINE
  5
168
100
AcDbEntity
  8
0
  6
CONTINUOUS
 62
       110
100
AcDbLine
 10
-133.668006
 20
27.6895013
 30
0.0
 11
-133.668006
 21
23.6895013
 31
0.0
  0
LINE
  5
169
100
AcDbEntity
  8
0
  6
CONTINUOUS
 62
       110
100
AcDbLine
 10
-133.668006
 20
92.7135034
 30
0.0
 11
-133.668006
 21
96.7135034
 31
0.0
  0
SOLID
  5
16A
100
AcDbEntity
  8
0
  6
CONTINUOUS
 62
       110
100
AcDbTrace
 10
-133.834673005
 20
26.6895012702
 30
0.0
 11
-133.501338995
 21
26.6895012702
 31
0.0
 12
-133.668006
 22
27.6895013
 32
0.0
 13
-133.668006
 23
27.6895013
 33
0.0
  0
SOLID
  5
16B
100
AcDbEntity
  8
0
  6
CONTINUOUS
 62
       110
100
AcDbTrace
 10
-133.501338995
 20
93.7135034298
 30
0.0
 11
-133.834673005
 21
93.7135034298
 31
0.0
 12
-133.668006
 22
92.7135034
 32
0.0
 13
-133.668006
 23
92.7135034
 33
0.0
  0
MTEXT
  5
16C
100
AcDbEntity
  8
0
  6
CONTINUOUS
 62
       110
100
AcDbMText
 10
-136.2680060238
 20
59.9181656982
 30
0.0
 40
3.2000000477
 41
0.0
 71
         5
 72
         1
  1
\A1;65
 11
0.0
 21
1.0
 31
0.0
  0
POINT
  5
16D
100
AcDbEntity
  8
DEFPOINTS
  6
CONTINUOUS
 62
         0
100
AcDbPoint
 10
-87.553515491
 20
27.6895013
 30
0.0
  0
POINT
  5
16E
100
AcDbEntity
  8
DEFPOINTS
  6
CONTINUOUS
 62
         0
100
AcDbPoint
 10
-87.553515491
 20
92.7135034
 30
0.0
  0
POINT
  5
16F
100
AcDbEntity
  8
DEFPOINTS
  6
CONTINUOUS
 62
         0
100
AcDbPoint
 10
-133.668006
 20
92.7135034
 30
0.0
  0
ENDBLK
  5
170
100
AcDbEntity
  8
0
  6
ByBlock
 62
         0
100
AcDbBlockEnd
  0
BLOCK
  5
173
100
AcDbEntity
  8
0
  6
ByBlock
 62
         0
100
AcDbBlockBegin
  2
*D4
 70
         1
 10
0.0
 20
0.0
 30
0.0
  3
*D4
  1

  0
LINE
  5
174
100
AcDbEntity
  8
0
  6
CONTINUOUS
 62
       110
100
AcDbLine
 10
57.4909027
 20
120.260042
 30
0.0
 11
108.290906
 21
120.260042
 31
0.0
  0
LINE
  5
175
100
AcDbEntity
  8
0
  6
CONTINUOUS
 62
       110
100
AcDbLine
 10
57.4909027
 20
100.7388933184
 30
0.0
 11
57.4909027
 21
122.260042
 31
0.0
  0
LINE
  5
176
100
AcDbEntity
  8
0
  6
CONTINUOUS
 62
       110
100
AcDbLine
 10
108.290906
 20
96.7765138628
 30
0.0
 11
108.290906
 21
122.260042
 31
0.0
  0
LINE
  5
177
100
AcDbEntity
  8
0
  6
CONTINUOUS
 62
       110
100
AcDbLine
 10
57.4909027
 20
120.260042
 30
0.0
 11
53.4909027
 21
120.260042
 31
0.0
  0
LINE
  5
178
100
AcDbEntity
  8
0
  6
CONTINUOUS
 62
       110
100
AcDbLine
 10
108.290906
 20
120.260042
 30
0.0
 11
112.290906
 21
120.260042
 31
0.0
  0
SOLID
  5
179
100
AcDbEntity
  8
0
  6
CONTINUOUS
 62
       110
100
AcDbTrace
 10
56.4909026702
 20
120.426709005
 30
0.0
 11
56.4909026702
 21
120.093374995
 31
0.0
 12
57.4909027
 22
120.260042
 32
0.0
 13
57.4909027
 23
120.260042
 33
0.0
  0
SOLID
  5
17A
100
AcDbEntity
  8
0
  6
CONTINUOUS
 62
       110
100
AcDbTrace
 10
109.2909060298
 20
120.093374995
 30
0.0
 11
109.2909060298
 21
120.426709005
 31
0.0
 12
108.290906
 22
120.260042
 32
0.0
 13
108.290906
 23
120.260042
 33
0.0
  0
MTEXT
  5
17C
100
AcDbEntity
  8
0
  6
CONTINUOUS
 62
       110
100
AcDbMText
 10
82.6075714012
 20
122.8600420238
 30
0.0
 40
3.2000000477
 41
0.0
 71
         5
 72
         1
  1
\A1;51
  7
MX_DIMTXSTY_2
  0
POINT
  5
17D
100
AcDbEntity
  8
DEFPOINTS
  6
CONTINUOUS
 62
         0
100
AcDbPoint
 10
57.4909027
 20
100.6763933184
 30
0.0
  0
POINT
  5
17E
100
AcDbEntity
  8
DEFPOINTS
  6
CONTINUOUS
 62
         0
100
AcDbPoint
 10
108.290906
 20
96.7140138628
 30
0.0
  0
POINT
  5
17F
100
AcDbEntity
  8
DEFPOINTS
  6
CONTINUOUS
 62
         0
100
AcDbPoint
 10
108.290906
 20
120.260042
 30
0.0
  0
ENDBLK
  5
180
100
AcDbEntity
  8
0
  6
ByBlock
 62
         0
100
AcDbBlockEnd
  0
BLOCK
  5
183
100
AcDbEntity
  8
0
  6
ByBlock
 62
         0
100
AcDbBlockBegin
  2
*D5
 70
         1
 10
0.0
 20
0.0
 30
0.0
  3
*D5
  1

  0
LINE
  5
184
100
AcDbEntity
  8
0
  6
CONTINUOUS
 62
       110
100
AcDbLine
 10
38.4155071
 20
120.260042
 30
0.0
 11
57.4909027
 21
120.260042
 31
0.0
  0
LINE
  5
185
100
AcDbEntity
  8
0
  6
CONTINUOUS
 62
       110
100
AcDbLine
 10
38.4155071
 20
100.7388933184
 30
0.0
 11
38.4155071
 21
122.260042
 31
0.0
  0
LINE
  5
186
100
AcDbEntity
  8
0
  6
CONTINUOUS
 62
       110
100
AcDbLine
 10
57.4909027
 20
100.7388933184
 30
0.0
 11
57.4909027
 21
122.260042
 31
0.0
  0
LINE
  5
187
100
AcDbEntity
  8
0
  6
CONTINUOUS
 62
       110
100
AcDbLine
 10
38.4155071
 20
120.260042
 30
0.0
 11
34.4155071
 21
120.260042
 31
0.0
  0
LINE
  5
188
100
AcDbEntity
  8
0
  6
CONTINUOUS
 62
       110
100
AcDbLine
 10
57.4909027
 20
120.260042
 30
0.0
 11
61.4909027
 21
120.260042
 31
0.0
  0
SOLID
  5
189
100
AcDbEntity
  8
0
  6
CONTINUOUS
 62
       110
100
AcDbTrace
 10
37.4155070702
 20
120.426709005
 30
0.0
 11
37.4155070702
 21
120.093374995
 31
0.0
 12
38.4155071
 22
120.260042
 32
0.0
 13
38.4155071
 23
120.260042
 33
0.0
  0
SOLID
  5
18A
100
AcDbEntity
  8
0
  6
CONTINUOUS
 62
       110
100
AcDbTrace
 10
58.4909027298
 20
120.093374995
 30
0.0
 11
58.4909027298
 21
120.426709005
 31
0.0
 12
57.4909027
 22
120.260042
 32
0.0
 13
57.4909027
 23
120.260042
 33
0.0
  0
MTEXT
  5
18B
100
AcDbEntity
  8
0
  6
CONTINUOUS
 62
       110
100
AcDbMText
 10
47.6698720673
 20
122.8600420238
 30
0.0
 40
3.2000000477
 41
0.0
 71
         5
 72
         1
  1
\A1;19
  7
MX_DIMTXSTY_2
  0
POINT
  5
18C
100
AcDbEntity
  8
DEFPOINTS
  6
CONTINUOUS
 62
         0
100
AcDbPoint
 10
38.4155071
 20
100.6763933184
 30
0.0
  0
POINT
  5
18D
100
AcDbEntity
  8
DEFPOINTS
  6
CONTINUOUS
 62
         0
100
AcDbPoint
 10
57.4909027
 20
100.6763933184
 30
0.0
  0
POINT
  5
18E
100
AcDbEntity
  8
DEFPOINTS
  6
CONTINUOUS
 62
         0
100
AcDbPoint
 10
57.4909027
 20
120.260042
 30
0.0
  0
ENDBLK
  5
18F
100
AcDbEntity
  8
0
  6
ByBlock
 62
         0
100
AcDbBlockEnd
  0
BLOCK
  5
192
100
AcDbEntity
  8
0
  6
ByBlock
 62
         0
100
AcDbBlockBegin
  2
*D6
 70
         1
 10
0.0
 20
0.0
 30
0.0
  3
*D6
  1

  0
LINE
  5
193
100
AcDbEntity
  8
0
  6
CONTINUOUS
 62
       110
100
AcDbLine
 10
20.6863086
 20
138.786712
 30
0.0
 11
111.186507
 21
138.786712
 31
0.0
  0
LINE
  5
194
100
AcDbEntity
  8
0
  6
CONTINUOUS
 62
       110
100
AcDbLine
 10
20.6863086
 20
60.2639992925
 30
0.0
 11
20.6863086
 21
140.786712
 31
0.0
  0
LINE
  5
195
100
AcDbEntity
  8
0
  6
CONTINUOUS
 62
       110
100
AcDbLine
 10
111.186507
 20
60.2639992925
 30
0.0
 11
111.186507
 21
140.786712
 31
0.0
  0
LINE
  5
196
100
AcDbEntity
  8
0
  6
CONTINUOUS
 62
       110
100
AcDbLine
 10
20.6863086
 20
138.786712
 30
0.0
 11
16.6863086
 21
138.786712
 31
0.0
  0
LINE
  5
197
100
AcDbEntity
  8
0
  6
CONTINUOUS
 62
       110
100
AcDbLine
 10
111.186507
 20
138.786712
 30
0.0
 11
115.186507
 21
138.786712
 31
0.0
  0
SOLID
  5
198
100
AcDbEntity
  8
0
  6
CONTINUOUS
 62
       110
100
AcDbTrace
 10
19.6863085702
 20
138.953379005
 30
0.0
 11
19.6863085702
 21
138.620044995
 31
0.0
 12
20.6863086
 22
138.786712
 32
0.0
 13
20.6863086
 23
138.786712
 33
0.0
  0
SOLID
  5
199
100
AcDbEntity
  8
0
  6
CONTINUOUS
 62
       110
100
AcDbTrace
 10
112.1865070298
 20
138.620044995
 30
0.0
 11
112.1865070298
 21
138.953379005
 31
0.0
 12
111.186507
 22
138.786712
 32
0.0
 13
111.186507
 23
138.786712
 33
0.0
  0
MTEXT
  5
19A
100
AcDbEntity
  8
0
  6
CONTINUOUS
 62
       110
100
AcDbMText
 10
65.6530711427
 20
141.3867120238
 30
0.0
 40
3.2000000477
 41
0.0
 71
         5
 72
         1
  1
\A1;90.5
  7
MX_DIMTXSTY_2
  0
POINT
  5
19B
100
AcDbEntity
  8
DEFPOINTS
  6
CONTINUOUS
 62
         0
100
AcDbPoint
 10
20.6863086
 20
60.2014992925
 30
0.0
  0
POINT
  5
19C
100
AcDbEntity
  8
DEFPOINTS
  6
CONTINUOUS
 62
         0
100
AcDbPoint
 10
111.186507
 20
60.2014992925
 30
0.0
  0
POINT
  5
19D
100
AcDbEntity
  8
DEFPOINTS
  6
CONTINUOUS
 62
         0
100
AcDbPoint
 10
111.186507
 20
138.786712
 30
0.0
  0
ENDBLK
  5
19E
100
AcDbEntity
  8
0
  6
ByBlock
 62
         0
100
AcDbBlockEnd
  0
ENDSEC
  0
SECTION
  2
ENTITIES
  0
MTEXT
  5
29
100
AcDbEntity
  8
0
  6
CONTINUOUS
 62
       110
100
AcDbMText
 10
-8.5899059671
 20
-24.5535657498
 30
0.0
 40
3.2000000477
 41
0.0
 71
         1
 72
         1
  1
\T1.025;\W1.058;\A1;TSUBAKI
  0
MTEXT
  5
2A
100
AcDbEntity
  8
0
  6
CONTINUOUS
 62
       110
100
AcDbMText
 10
-33.2452433171
 20
-57.6473295498
 30
0.0
 40
3.2000000477
 41
0.0
 71
         1
 72
         1
  1
\T1.025;\W1.058;\A1;TSUBAKI
  0
LINE
  5
2B
100
AcDbEntity
  8
PV
  6
CONTINUOUS
 62
         3
100
AcDbLine
 10
-81.7114716
 20
-62.0
 30
0.0
 11
118.853996
 21
-62.0
 31
0.0
  0
LINE
  5
2C
100
AcDbEntity
  8
PV
  6
CONTINUOUS
 62
         3
100
AcDbLine
 10
-81.7114716
 20
-68.0
 30
0.0
 11
118.853996
 21
-68.0
 31
0.0
  0
LINE
  5
2D
100
AcDbEntity
  8
PV
  6
CONTINUOUS
 62
         3
100
AcDbLine
 10
-81.7114716
 20
-74.0
 30
0.0
 11
118.853996
 21
-74.0
 31
0.0
  0
LINE
  5
2E
100
AcDbEntity
  8
PV
  6
CONTINUOUS
 62
         3
100
AcDbLine
 10
-81.7114716
 20
-80.0
 30
0.0
 11
118.853996
 21
-80.0
 31
0.0
  0
LINE
  5
2F
100
AcDbEntity
  8
PV
  6
CONTINUOUS
 62
         3
100
AcDbLine
 10
-81.7114716
 20
-86.0
 30
0.0
 11
118.853996
 21
-86.0
 31
0.0
  0
LINE
  5
30
100
AcDbEntity
  8
PV
  6
CONTINUOUS
 62
         3
100
AcDbLine
 10
-81.7114716
 20
-92.0
 30
0.0
 11
118.853996
 21
-92.0
 31
0.0
  0
LINE
  5
31
100
AcDbEntity
  8
PV
  6
CONTINUOUS
 62
         3
100
AcDbLine
 10
-81.7114716
 20
-98.0
 30
0.0
 11
118.853996
 21
-98.0
 31
0.0
  0
LINE
  5
32
100
AcDbEntity
  8
PV
  6
CONTINUOUS
 62
         3
100
AcDbLine
 10
-81.7114716
 20
-104.0
 30
0.0
 11
118.853996
 21
-104.0
 31
0.0
  0
LINE
  5
33
100
AcDbEntity
  8
PV
  6
CONTINUOUS
 62
         3
100
AcDbLine
 10
-81.7114716
 20
-110.0
 30
0.0
 11
118.853996
 21
-110.0
 31
0.0
  0
LINE
  5
34
100
AcDbEntity
  8
PV
  6
CONTINUOUS
 62
         3
100
AcDbLine
 10
33.0612793
 20
-68.0
 30
0.0
 11
33.0612793
 21
-110.0
 31
0.0
  0
LINE
  5
35
100
AcDbEntity
  8
PV
  6
CONTINUOUS
 62
         3
100
AcDbLine
 10
-81.7114716
 20
-56.0
 30
0.0
 11
-81.7114716
 21
-110.0
 31
0.0
  0
LINE
  5
36
100
AcDbEntity
  8
PV
  6
CONTINUOUS
 62
         3
100
AcDbLine
 10
-81.7114716
 20
-56.0
 30
0.0
 11
118.853996
 21
-56.0
 31
0.0
  0
LINE
  5
37
100
AcDbEntity
  8
PV
  6
CONTINUOUS
 62
         3
100
AcDbLine
 10
118.853996
 20
-56.0
 30
0.0
 11
118.853996
 21
-110.0
 31
0.0
  0
MTEXT
  5
38
100
AcDbEntity
  8
PV
  6
CONTINUOUS
 62
       110
100
AcDbMText
 10
-33.2930294088
 20
-63.6473295498
 30
0.0
 40
3.2000000477
 41
0.0
 71
         1
 72
         1
  1
\T1.003;\W1.067;\A1;POWER LOCK
  0
MTEXT
  5
39
100
AcDbEntity
  8
PV
  6
CONTINUOUS
 62
       110
100
AcDbMText
 10
-77.220129289
 20
-75.5323393498
 30
0.0
 40
3.2000000477
 41
0.0
 71
         1
 72
         1
  1
\T1.043;\W1.128;\A1;TIGHTENING TORQUE OF LOCKING NUT
  0
MTEXT
  5
3A
100
AcDbEntity
  8
PV
  6
CONTINUOUS
 62
       110
100
AcDbMText
 10
-77.2608119529
 20
-81.5323393498
 30
0.0
 40
3.2000000477
 41
0.0
 71
         1
 72
         1
  1
\T1.028;\W1.060;\A1;TRANSMISSIBLE TORQUE
  0
MTEXT
  5
3B
100
AcDbEntity
  8
PV
  6
CONTINUOUS
 62
       110
100
AcDbMText
 10
-77.2608119529
 20
-87.5323393498
 30
0.0
 40
3.2000000477
 41
0.0
 71
         1
 72
         1
  1
\T1.028;\W1.060;\A1;TRANSMISSIBLE THRUST
  0
MTEXT
  5
3C
100
AcDbEntity
  8
PV
  6
CONTINUOUS
 62
       110
100
AcDbMText
 10
-77.264878334
 20
-93.5323393498
 30
0.0
 40
3.2000000477
 41
0.0
 71
         1
 72
         1
  1
\T1.025;\W1.104;\A1;CONTACT PRESSURE OF SHAFT
  0
MTEXT
  5
3D
100
AcDbEntity
  8
PV
  6
CONTINUOUS
 62
       110
100
AcDbMText
 10
-77.2519617519
 20
-99.5323388498
 30
0.0
 40
3.2000000477
 41
0.0
 71
         1
 72
         1
  1
\T1.030;\W1.126;\A1;CONTACT PRESSURE OF HUB BORE
  0
MTEXT
  5
3E
100
AcDbEntity
  8
PV
  6
CONTINUOUS
 62
       110
100
AcDbMText
 10
74.7292513255
 20
-99.4000000882
 30
0.0
 40
3.2000000477
 41
0.0
 71
         1
 72
         1
  1
\W1.333;\A1;\{4.3
  0
MTEXT
  5
3F
100
AcDbEntity
  8
PV
  6
CONTINUOUS
 62
       110
100
AcDbMText
 10
74.7292513255
 20
-93.4000000882
 30
0.0
 40
3.2000000477
 41
0.0
 71
         1
 72
         1
  1
\W1.333;\A1;\{5.8
  0
MTEXT
  5
40
100
AcDbEntity
  8
PV
  6
CONTINUOUS
 62
       110
100
AcDbMText
 10
71.4107330123
 20
-87.4000000882
 30
0.0
 40
3.2000000477
 41
0.0
 71
         1
 72
         1
  1
\W1.111;\A1;\{5860
  0
MTEXT
  5
41
100
AcDbEntity
  8
PV
  6
CONTINUOUS
 62
       110
100
AcDbMText
 10
74.6581402128
 20
-81.4000000882
 30
0.0
 40
3.2000000477
 41
0.0
 71
         1
 72
         1
  1
\W1.200;\A1;\{145
  0
MTEXT
  5
42
100
AcDbEntity
  8
PV
  6
CONTINUOUS
 62
       110
100
AcDbMText
 10
71.4848070825
 20
-75.4000000882
 30
0.0
 40
3.2000000477
 41
0.0
 71
         1
 72
         1
  1
\W1.250;\A1;\{56.6
  0
MTEXT
  5
43
100
AcDbEntity
  8
PV
  6
CONTINUOUS
 62
       110
100
AcDbMText
 10
-77.2843072285
 20
-69.5323393498
 30
0.0
 40
3.2000000477
 41
0.0
 71
         1
 72
         1
  1
\T1.017;\W1.071;\A1;MODEL NUMBER
  0
MTEXT
  5
44
100
AcDbEntity
  8
PV
  6
CONTINUOUS
 62
       110
100
AcDbMText
 10
58.702895467
 20
-69.4000000882
 30
0.0
 40
3.2000000477
 41
0.0
 71
         1
 72
         1
  1
\W1.048;\A1;PL050X073MG
  0
MTEXT
  5
45
100
AcDbEntity
  8
PV
  6
CONTINUOUS
 62
       110
100
AcDbMText
 10
43.711472938
 20
-75.4000000882
 30
0.0
 40
3.2000000477
 41
0.0
 71
         1
 72
         1
  1
\A1;554
  0
MTEXT
  5
46
100
AcDbEntity
  8
PV
  6
CONTINUOUS
 62
       110
100
AcDbMText
 10
40.5876636153
 20
-81.4000000882
 30
0.0
 40
3.2000000477
 41
0.0
 71
         1
 72
         1
  1
\W1.143;\A1;1430
  0
MTEXT
  5
47
100
AcDbEntity
  8
PV
  6
CONTINUOUS
 62
       110
100
AcDbMText
 10
40.6181398044
 20
-87.4000000882
 30
0.0
 40
3.2000000477
 41
0.0
 71
         1
 72
         1
  1
\W1.200;\A1;57.5
  0
MTEXT
  5
48
100
AcDbEntity
  8
PV
  6
CONTINUOUS
 62
       110
100
AcDbMText
 10
46.911472738
 20
-93.4000000882
 30
0.0
 40
3.2000000477
 41
0.0
 71
         1
 72
         1
  1
\A1;57
  0
MTEXT
  5
49
100
AcDbEntity
  8
PV
  6
CONTINUOUS
 62
       110
100
AcDbMText
 10
46.911472738
 20
-99.4000000882
 30
0.0
 40
3.2000000477
 41
0.0
 71
         1
 72
         1
  1
\A1;42
  0
MTEXT
  5
4A
100
AcDbEntity
  8
PV
  6
CONTINUOUS
 62
       110
100
AcDbMText
 10
40.5876636153
 20
-105.4000000882
 30
0.0
 40
3.2000000477
 41
0.0
 71
         1
 72
         1
  1
\W1.143;\A1;1360
  0
MTEXT
  5
4B
100
AcDbEntity
  8
PV
  6
CONTINUOUS
 62
       110
100
AcDbMText
 10
56.551498515
 20
-75.3999998498
 30
0.0
 40
3.2000000477
 41
0.0
 71
         1
 72
         1
  1
\W0.833;\A1;Ｎ・ｍ
  0
MTEXT
  5
4C
100
AcDbEntity
  8
PV
  6
CONTINUOUS
 62
       110
100
AcDbMText
 10
56.551498515
 20
-81.3999998498
 30
0.0
 40
3.2000000477
 41
0.0
 71
         1
 72
         1
  1
\W0.833;\A1;Ｎ・ｍ
  0
MTEXT
  5
4D
100
AcDbEntity
  8
PV
  6
CONTINUOUS
 62
       110
100
AcDbMText
 10
55.751499338
 20
-87.4000000882
 30
0.0
 40
3.2000000477
 41
0.0
 71
         1
 72
         1
  1
\A1;kN
  0
MTEXT
  5
4E
100
AcDbEntity
  8
PV
  6
CONTINUOUS
 62
       110
100
AcDbMText
 10
55.751499338
 20
-93.4000000882
 30
0.0
 40
3.2000000477
 41
0.0
 71
         1
 72
         1
  1
\A1;MPa
  0
MTEXT
  5
4F
100
AcDbEntity
  8
PV
  6
CONTINUOUS
 62
       110
100
AcDbMText
 10
55.751499338
 20
-99.4000000882
 30
0.0
 40
3.2000000477
 41
0.0
 71
         1
 72
         1
  1
\A1;MPa
  0
MTEXT
  5
50
100
AcDbEntity
  8
PV
  6
CONTINUOUS
 62
       110
100
AcDbMText
 10
55.751499338
 20
-105.4000000882
 30
0.0
 40
3.2000000477
 41
0.0
 71
         1
 72
         1
  1
\A1;g
  0
MTEXT
  5
51
100
AcDbEntity
  8
PV
  6
CONTINUOUS
 62
       110
100
AcDbMText
 10
91.551502315
 20
-81.3999998498
 30
0.0
 40
3.2000000477
 41
0.0
 71
         1
 72
         1
  1
\W0.833;\A1;ｋｇｆ・ｍ｝
  0
MTEXT
  5
52
100
AcDbEntity
  8
PV
  6
CONTINUOUS
 62
       110
100
AcDbMText
 10
91.551502315
 20
-75.3999998498
 30
0.0
 40
3.2000000477
 41
0.0
 71
         1
 72
         1
  1
\W0.833;\A1;ｋｇｆ・ｍ｝
  0
MTEXT
  5
53
100
AcDbEntity
  8
PV
  6
CONTINUOUS
 62
       110
100
AcDbMText
 10
90.7999879841
 20
-87.4000000882
 30
0.0
 40
3.2000000477
 41
0.0
 71
         1
 72
         1
  1
\W1.091;\A1;kgf\}
  0
MTEXT
  5
54
100
AcDbEntity
  8
PV
  6
CONTINUOUS
 62
       110
100
AcDbMText
 10
90.751503138
 20
-93.4000000882
 30
0.0
 40
3.2000000477
 41
0.0
 71
         1
 72
         1
  1
\A1;kgf/mm
  0
MTEXT
  5
55
100
AcDbEntity
  8
PV
  6
CONTINUOUS
 62
       110
100
AcDbMText
 10
109.791501119
 20
-93.0000002424
 30
0.0
 40
1.6000000238
 41
0.0
 71
         1
 72
         1
  1
\A1;2
  0
MTEXT
  5
56
100
AcDbEntity
  8
PV
  6
CONTINUOUS
 62
       110
100
AcDbMText
 10
110.8581692989
 20
-93.4000000882
 30
0.0
 40
3.2000000477
 41
0.0
 71
         1
 72
         1
  1
\W1.500;\A1;\}
  0
MTEXT
  5
57
100
AcDbEntity
  8
PV
  6
CONTINUOUS
 62
       110
100
AcDbMText
 10
90.751503138
 20
-99.4000000882
 30
0.0
 40
3.2000000477
 41
0.0
 71
         1
 72
         1
  1
\A1;kgf/mm
  0
MTEXT
  5
58
100
AcDbEntity
  8
PV
  6
CONTINUOUS
 62
       110
100
AcDbMText
 10
109.791501119
 20
-99.0000000424
 30
0.0
 40
1.6000000238
 41
0.0
 71
         1
 72
         1
  1
\A1;2
  0
MTEXT
  5
59
100
AcDbEntity
  8
PV
  6
CONTINUOUS
 62
       110
100
AcDbMText
 10
110.8581692989
 20
-99.4000000882
 30
0.0
 40
3.2000000477
 41
0.0
 71
         1
 72
         1
  1
\W1.500;\A1;\}
  0
MTEXT
  5
5A
100
AcDbEntity
  8
PV
  6
CONTINUOUS
 62
       110
100
AcDbMText
 10
-76.327201662
 20
-105.5323010882
 30
0.0
 40
3.2000000477
 41
0.0
 71
         1
 72
         1
  1
\A1;MASS
  0
LINE
  5
5B
100
AcDbEntity
  8
PV
  6
CONTINUOUS
 62
         3
100
AcDbLine
 10
20.6863086
 20
92.7135034
 30
0.0
 11
20.6863086
 21
27.6895013
 31
0.0
  0
LINE
  5
5C
100
AcDbEntity
  8
PV
  6
CONTINUOUS
 62
         3
100
AcDbLine
 10
20.6863086
 20
27.6895013
 30
0.0
 11
36.561301
 21
27.6895013
 31
0.0
  0
LINE
  5
5D
100
AcDbEntity
  8
PV
  6
CONTINUOUS
 62
         3
100
AcDbLine
 10
36.561301
 20
92.7135034
 30
0.0
 11
20.6863086
 21
92.7135034
 31
0.0
  0
LINE
  5
5E
100
AcDbEntity
  8
PV
  6
CONTINUOUS
 62
         3
100
AcDbLine
 10
36.561301
 20
96.2440973
 30
0.0
 11
36.561301
 21
92.7135034
 31
0.0
  0
LINE
  5
5F
100
AcDbEntity
  8
PV
  6
CONTINUOUS
 62
         3
100
AcDbLine
 10
36.561301
 20
24.1589075
 30
0.0
 11
38.1615055
 21
24.1589075
 31
0.0
  0
LINE
  5
60
100
AcDbEntity
  8
PV
  6
CONTINUOUS
 62
         3
100
AcDbLine
 10
38.1615055
 20
24.1589075
 30
0.0
 11
38.1615055
 21
29.9246927
 31
0.0
  0
LINE
  5
61
100
AcDbEntity
  8
PV
  6
CONTINUOUS
 62
         3
100
AcDbLine
 10
38.1615055
 20
96.2440973
 30
0.0
 11
36.561301
 21
96.2440973
 31
0.0
  0
LINE
  5
62
100
AcDbEntity
  8
PV
  6
CONTINUOUS
 62
         3
100
AcDbLine
 10
38.1615055
 20
29.9246927
 30
0.0
 11
45.2480991
 21
29.9246927
 31
0.0
  0
LINE
  5
63
100
AcDbEntity
  8
PV
  6
CONTINUOUS
 62
         3
100
AcDbLine
 10
38.4155071
 20
90.4783121
 30
0.0
 11
38.1615055
 21
90.4783121
 31
0.0
  0
LINE
  5
64
100
AcDbEntity
  8
PV
  6
CONTINUOUS
 62
         3
100
AcDbLine
 10
45.2480991
 20
29.9246927
 30
0.0
 11
45.2480991
 21
28.2609964
 31
0.0
  0
LINE
  5
65
100
AcDbEntity
  8
PV
  6
CONTINUOUS
 62
         3
100
AcDbLine
 10
45.2480991
 20
28.2609964
 30
0.0
 11
50.0741069
 21
28.2609964
 31
0.0
  0
LINE
  5
66
100
AcDbEntity
  8
PV
  6
CONTINUOUS
 62
         3
100
AcDbLine
 10
20.6863086
 20
31.3725076
 30
0.0
 11
21.1943004
 21
31.3725076
 31
0.0
  0
LINE
  5
68
100
AcDbEntity
  8
PV
  6
DASHED
 62
         3
100
AcDbLine
 10
20.6863086
 20
89.0304971
 30
0.0
 11
21.1943004
 21
89.0304971
 31
0.0
  0
LINE
  5
69
100
AcDbEntity
  8
PV
  6
CONTINUOUS
 62
         3
100
AcDbLine
 10
21.1943004
 20
31.7535043
 30
0.0
 11
21.1943004
 21
31.3725076
 31
0.0
  0
LINE
  5
6A
100
AcDbEntity
  8
PV
  6
CONTINUOUS
 62
         3
100
AcDbLine
 10
20.6863086
 20
62.931376
 30
0.0
 11
28.0269039
 21
62.931376
 31
0.0
  0
LINE
  5
6B
100
AcDbEntity
  8
PV
  6
CONTINUOUS
 62
         3
100
AcDbLine
 10
20.6863086
 20
89.2216592
 30
0.0
 11
28.0269039
 21
89.2216592
 31
0.0
  0
LINE
  5
6C
100
AcDbEntity
  8
PV
  6
CONTINUOUS
 62
         3
100
AcDbLine
 10
36.561301
 20
27.6895013
 30
0.0
 11
36.561301
 21
24.1589075
 31
0.0
  0
LINE
  5
6D
100
AcDbEntity
  8
PV
  6
CONTINUOUS
 62
         3
100
AcDbLine
 10
36.561301
 20
89.2216592
 30
0.0
 11
36.561301
 21
62.931376
 31
0.0
  0
LINE
  5
6E
100
AcDbEntity
  8
PV
  6
CONTINUOUS
 62
         3
100
AcDbLine
 10
28.0269039
 20
63.5020013
 30
0.0
 11
29.2207058
 21
63.5020013
 31
0.0
  0
LINE
  5
6F
100
AcDbEntity
  8
PV
  6
CONTINUOUS
 62
         3
100
AcDbLine
 10
29.2207058
 20
60.2015024
 30
0.0
 11
29.2207058
 21
63.5020013
 31
0.0
  0
LINE
  5
70
100
AcDbEntity
  8
PV
  6
CONTINUOUS
 62
         3
100
AcDbLine
 10
28.0269039
 20
60.2015024
 30
0.0
 11
28.0269039
 21
63.5020013
 31
0.0
  0
LINE
  5
71
100
AcDbEntity
  8
PV
  6
CONTINUOUS
 62
         3
100
AcDbLine
 10
29.2207058
 20
62.931376
 30
0.0
 11
36.561301
 21
62.931376
 31
0.0
  0
LINE
  5
72
100
AcDbEntity
  8
PV
  6
CONTINUOUS
 62
         3
100
AcDbLine
 10
29.2207058
 20
88.4563699
 30
0.0
 11
29.2207058
 21
92.7135034
 31
0.0
  0
LINE
  5
73
100
AcDbEntity
  8
PV
  6
CONTINUOUS
 62
         3
100
AcDbLine
 10
28.0269039
 20
88.4563699
 30
0.0
 11
28.0269039
 21
92.7135034
 31
0.0
  0
LINE
  5
74
100
AcDbEntity
  8
PV
  6
CONTINUOUS
 62
         3
100
AcDbLine
 10
28.0269039
 20
88.4563699
 30
0.0
 11
29.2207058
 21
88.4563699
 31
0.0
  0
LINE
  5
75
100
AcDbEntity
  8
PV
  6
CONTINUOUS
 62
         3
100
AcDbLine
 10
29.2207058
 20
89.2216592
 30
0.0
 11
36.561301
 21
89.2216592
 31
0.0
  0
LINE
  5
76
100
AcDbEntity
  8
PV
  6
CONTINUOUS
 62
         3
100
AcDbLine
 10
111.186507
 20
93.3226037
 30
0.0
 11
111.186507
 21
60.2015024
 31
0.0
  0
LINE
  5
77
100
AcDbEntity
  8
PV
  6
CONTINUOUS
 62
         3
100
AcDbLine
 10
110.805507
 20
93.6841455
 30
0.0
 11
110.805507
 21
60.2015024
 31
0.0
  0
LINE
  5
78
100
AcDbEntity
  8
PV
  6
CONTINUOUS
 62
         3
100
AcDbLine
 10
110.805507
 20
26.7188574
 30
0.0
 11
57.490905
 21
29.5129592
 31
0.0
  0
LINE
  5
79
100
AcDbEntity
  8
PV
  6
CONTINUOUS
 62
         3
100
AcDbLine
 10
110.805506
 20
93.6841516
 30
0.0
 11
108.290905
 21
93.5523764
 31
0.0
  0
LINE
  5
7A
100
AcDbEntity
  8
PV
  6
CONTINUOUS
 62
         3
100
AcDbLine
 10
111.186504
 20
27.0804409
 30
0.0
 11
110.8055
 21
26.7188681
 31
0.0
  0
LINE
  5
7B
100
AcDbEntity
  8
PV
  6
CONTINUOUS
 62
         3
100
AcDbLine
 10
111.186504
 20
93.3225973
 30
0.0
 11
110.805503
 21
93.684141
 31
0.0
  0
LINE
  5
7C
100
AcDbEntity
  8
PV
  6
CONTINUOUS
 62
         3
100
AcDbLine
 10
20.6863086
 20
60.2015024
 30
0.0
 11
20.6863086
 21
32.7356592
 31
0.0
  0
LINE
  5
7D
100
AcDbEntity
  8
PV
  6
CONTINUOUS
 62
         3
100
AcDbLine
 10
44.0797031
 20
32.7695108
 30
0.0
 11
56.7289035
 21
32.7695108
 31
0.0
  0
LINE
  5
7E
100
AcDbEntity
  8
PV
  6
CONTINUOUS
 62
         3
100
AcDbLine
 10
-97.7646878
 20
60.9952417
 30
0.0
 11
-96.9896252
 21
60.9952417
 31
0.0
  0
LINE
  5
7F
100
AcDbEntity
  8
PV
  6
CONTINUOUS
 62
         3
100
AcDbLine
 10
-97.7646878
 20
59.407763
 30
0.0
 11
-96.9896252
 21
59.407763
 31
0.0
  0
LINE
  5
80
100
AcDbEntity
  8
PV
  6
CONTINUOUS
 62
         3
100
AcDbLine
 10
-84.1928882
 20
37.4882028
 30
0.0
 11
-83.8053333
 21
38.1594262
 31
0.0
  0
LINE
  5
81
100
AcDbEntity
  8
PV
  6
CONTINUOUS
 62
         3
100
AcDbLine
 10
-85.567695
 20
38.2819683
 30
0.0
 11
-85.1801706
 21
38.9531829
 31
0.0
  0
LINE
  5
82
100
AcDbEntity
  8
PV
  6
CONTINUOUS
 62
         3
100
AcDbLine
 10
-58.4240998
 20
38.2819629
 30
0.0
 11
-58.811649
 21
38.9531764
 31
0.0
  0
LINE
  5
83
100
AcDbEntity
  8
PV
  6
CONTINUOUS
 62
         3
100
AcDbLine
 10
-59.7989287
 20
37.4882051
 30
0.0
 11
-60.1864588
 21
38.1594296
 31
0.0
  0
LINE
  5
84
100
AcDbEntity
  8
PV
  6
CONTINUOUS
 62
         3
100
AcDbLine
 10
-46.2271244
 20
60.9952417
 30
0.0
 11
-47.0021984
 21
60.9952417
 31
0.0
  0
LINE
  5
85
100
AcDbEntity
  8
PV
  6
CONTINUOUS
 62
         3
100
AcDbLine
 10
-46.2271244
 20
59.407763
 30
0.0
 11
-47.0021984
 21
59.407763
 31
0.0
  0
LINE
  5
86
100
AcDbEntity
  8
PV
  6
CONTINUOUS
 62
         3
100
AcDbLine
 10
-59.7989322
 20
82.9147965
 30
0.0
 11
-60.1864629
 21
82.2435458
 31
0.0
  0
LINE
  5
87
100
AcDbEntity
  8
PV
  6
CONTINUOUS
 62
         3
100
AcDbLine
 10
-58.4241008
 20
82.1210342
 30
0.0
 11
-58.8116562
 21
81.4497847
 31
0.0
  0
LINE
  5
88
100
AcDbEntity
  8
PV
  6
CONTINUOUS
 62
         3
100
AcDbLine
 10
-85.5677036
 20
82.1210689
 30
0.0
 11
-85.180173
 21
81.4498182
 31
0.0
  0
LINE
  5
89
100
AcDbEntity
  8
PV
  6
CONTINUOUS
 62
         3
100
AcDbLine
 10
-84.192876
 20
82.9147704
 30
0.0
 11
-83.8053264
 21
82.2435307
 31
0.0
  0
LINE
  5
8A
100
AcDbEntity
  8
PV
  6
CONTINUOUS
 62
         3
100
AcDbLine
 10
111.186506
 20
89.5870469
 30
0.0
 11
108.290906
 21
89.4565162
 31
0.0
  0
LINE
  5
8B
100
AcDbEntity
  8
PV
  6
CONTINUOUS
 62
         3
100
AcDbLine
 10
111.186508
 20
88.7932805
 30
0.0
 11
108.290908
 21
88.6627499
 31
0.0
  0
LINE
  5
8C
100
AcDbEntity
  8
PV
  6
CONTINUOUS
 62
         3
100
AcDbLine
 10
111.186507
 20
60.2015024
 30
0.0
 11
111.186507
 21
27.0804239
 31
0.0
  0
LINE
  5
8D
100
AcDbEntity
  8
PV
  6
CONTINUOUS
 62
         3
100
AcDbLine
 10
57.4909027
 20
60.2015024
 30
0.0
 11
57.4909027
 21
34.4205041
 31
0.0
  0
LINE
  5
8E
100
AcDbEntity
  8
PV
  6
CONTINUOUS
 62
         3
100
AcDbLine
 10
20.6863086
 20
34.4205041
 30
0.0
 11
57.4909027
 21
34.4205041
 31
0.0
  0
LINE
  5
90
100
AcDbEntity
  8
PV
  6
CENTER
 62
         3
100
AcDbLine
 10
-113.258271
 20
60.2015024
 30
0.0
 11
-71.9959118
 21
60.2015024
 31
0.0
  0
LINE
  5
91
100
AcDbEntity
  8
PV
  6
CONTINUOUS
 62
         3
100
AcDbLine
 10
-70.4084103
 20
96.2091241
 30
0.0
 11
-70.4084103
 21
100.645243
 31
0.0
  0
LINE
  5
92
100
AcDbEntity
  8
PV
  6
CONTINUOUS
 62
         3
100
AcDbLine
 10
-73.5834134
 20
96.2091241
 30
0.0
 11
-73.5834134
 21
100.645243
 31
0.0
  0
LINE
  5
93
100
AcDbEntity
  8
PV
  6
CONTINUOUS
 62
         3
100
AcDbLine
 10
-103.973186
 20
76.8304798
 30
0.0
 11
-107.814971
 21
79.048551
 31
0.0
  0
LINE
  5
94
100
AcDbEntity
  8
PV
  6
CONTINUOUS
 62
         3
100
AcDbLine
 10
-102.385669
 20
79.5801261
 30
0.0
 11
-106.227465
 21
81.7981784
 31
0.0
  0
LINE
  5
95
100
AcDbEntity
  8
PV
  6
CONTINUOUS
 62
         3
100
AcDbLine
 10
-102.385658
 20
40.8228857
 30
0.0
 11
-106.227458
 21
38.6048059
 31
0.0
  0
LINE
  5
96
100
AcDbEntity
  8
PV
  6
CONTINUOUS
 62
         3
100
AcDbLine
 10
-103.973162
 20
43.5725171
 30
0.0
 11
-107.814962
 21
41.3544373
 31
0.0
  0
LINE
  5
97
100
AcDbEntity
  8
PV
  6
CONTINUOUS
 62
         3
100
AcDbLine
 10
-70.4084103
 20
24.1938806
 30
0.0
 11
-70.4084103
 21
19.7577386
 31
0.0
  0
LINE
  5
98
100
AcDbEntity
  8
PV
  6
CONTINUOUS
 62
         3
100
AcDbLine
 10
-73.5834134
 20
24.1938806
 30
0.0
 11
-73.5834134
 21
19.7577386
 31
0.0
  0
LINE
  5
99
100
AcDbEntity
  8
PV
  6
CONTINUOUS
 62
         3
100
AcDbLine
 10
-40.0186399
 20
43.5724959
 30
0.0
 11
-36.1768349
 21
41.3544133
 31
0.0
  0
LINE
  5
9A
100
AcDbEntity
  8
PV
  6
CONTINUOUS
 62
         3
100
AcDbLine
 10
-41.606144
 20
40.8228773
 30
0.0
 11
-37.764339
 21
38.6047947
 31
0.0
  0
LINE
  5
9B
100
AcDbEntity
  8
PV
  6
CONTINUOUS
 62
         3
100
AcDbLine
 10
-41.6061283
 20
79.5801147
 30
0.0
 11
-37.7643274
 21
81.7981698
 31
0.0
  0
LINE
  5
9C
100
AcDbEntity
  8
PV
  6
CONTINUOUS
 62
         3
100
AcDbLine
 10
-40.0186271
 20
76.8304947
 30
0.0
 11
-36.1768261
 21
79.048575
 31
0.0
  0
LINE
  5
9E
100
AcDbEntity
  8
PV
  6
PHANTOM
 62
         3
100
AcDbLine
 10
117.85835
 20
60.2015024
 30
0.0
 11
14.9615505
 21
60.2015024
 31
0.0
  0
LINE
  5
9F
100
AcDbEntity
  8
PV
  6
CONTINUOUS
 62
         3
100
AcDbLine
 10
108.290906
 20
96.7140146
 30
0.0
 11
108.290906
 21
60.2015024
 31
0.0
  0
LINE
  5
A0
100
AcDbEntity
  8
PV
  6
CONTINUOUS
 62
         3
100
AcDbLine
 10
108.290906
 20
23.6889902
 30
0.0
 11
57.4909027
 21
23.6889902
 31
0.0
  0
LINE
  5
A1
100
AcDbEntity
  8
PV
  6
CONTINUOUS
 62
         3
100
AcDbLine
 10
57.4909027
 20
96.7140146
 30
0.0
 11
108.290906
 21
96.7140146
 31
0.0
  0
LINE
  5
A2
100
AcDbEntity
  8
PV
  6
CONTINUOUS
 62
         3
100
AcDbLine
 10
57.4909027
 20
100.676394
 30
0.0
 11
57.4909027
 21
60.2015024
 31
0.0
  0
LINE
  5
A3
100
AcDbEntity
  8
PV
  6
CONTINUOUS
 62
         3
100
AcDbLine
 10
57.4909027
 20
19.7266107
 30
0.0
 11
48.5501087
 21
19.7266107
 31
0.0
  0
LINE
  5
A4
100
AcDbEntity
  8
PV
  6
CONTINUOUS
 62
         3
100
AcDbLine
 10
38.4155071
 20
19.7266107
 30
0.0
 11
38.4155071
 21
29.9246927
 31
0.0
  0
LINE
  5
A5
100
AcDbEntity
  8
PV
  6
CONTINUOUS
 62
         3
100
AcDbLine
 10
38.4155071
 20
100.676394
 30
0.0
 11
47.3563068
 21
100.676394
 31
0.0
  0
LINE
  5
A6
100
AcDbEntity
  8
PV
  6
CONTINUOUS
 62
         3
100
AcDbLine
 10
108.290903
 20
26.7750945
 30
0.0
 11
50.0740969
 21
29.8230947
 31
0.0
  0
LINE
  5
A7
100
AcDbEntity
  8
PV
  6
CONTINUOUS
 62
         3
100
AcDbLine
 10
44.8671024
 20
29.6707025
 30
0.0
 11
40.3205021
 21
29.6707025
 31
0.0
  0
LINE
  5
A8
100
AcDbEntity
  8
PV
  6
CONTINUOUS
 62
         3
100
AcDbLine
 10
40.3205021
 20
29.6707025
 30
0.0
 11
40.3205021
 21
29.9246927
 31
0.0
  0
LINE
  5
A9
100
AcDbEntity
  8
PV
  6
CONTINUOUS
 62
         3
100
AcDbLine
 10
50.0741069
 20
28.0070062
 30
0.0
 11
44.8671024
 21
28.0070062
 31
0.0
  0
LINE
  5
AA
100
AcDbEntity
  8
PV
  6
CONTINUOUS
 62
         3
100
AcDbLine
 10
44.8671024
 20
28.0070062
 30
0.0
 11
44.8671024
 21
29.9246927
 31
0.0
  0
LINE
  5
AB
100
AcDbEntity
  8
PV
  6
CONTINUOUS
 62
         3
100
AcDbLine
 10
40.320496
 20
29.6707016
 30
0.0
 11
38.4154963
 21
27.7657019
 31
0.0
  0
LINE
  5
AC
100
AcDbEntity
  8
PV
  6
CONTINUOUS
 62
         3
100
AcDbLine
 10
50.0741069
 20
28.0070062
 30
0.0
 11
50.0741069
 21
32.7695108
 31
0.0
  0
LINE
  5
AD
100
AcDbEntity
  8
PV
  6
CONTINUOUS
 62
         3
100
AcDbLine
 10
57.4909027
 20
83.0893655
 30
0.0
 11
48.5501087
 21
83.0893655
 31
0.0
  0
LINE
  5
AE
100
AcDbEntity
  8
PV
  6
CONTINUOUS
 62
         3
100
AcDbLine
 10
57.4909027
 20
81.7981973
 30
0.0
 11
38.4155071
 21
81.7981973
 31
0.0
  0
LINE
  5
AF
100
AcDbEntity
  8
PV
  6
CONTINUOUS
 62
         3
100
AcDbLine
 10
57.4909027
 20
79.0485712
 30
0.0
 11
38.4155071
 21
79.0485712
 31
0.0
  0
LINE
  5
B0
100
AcDbEntity
  8
PV
  6
CONTINUOUS
 62
         3
100
AcDbLine
 10
57.4909027
 20
77.6673379
 30
0.0
 11
48.5501087
 21
77.6673379
 31
0.0
  0
LINE
  5
B1
100
AcDbEntity
  8
PV
  6
CONTINUOUS
 62
         3
100
AcDbLine
 10
106.665307
 20
77.0656763
 30
0.0
 11
57.4909027
 21
77.0656763
 31
0.0
  0
LINE
  5
B2
100
AcDbEntity
  8
PV
  6
CONTINUOUS
 62
         3
100
AcDbLine
 10
106.665307
 20
79.8153024
 30
0.0
 11
57.4909027
 21
79.8153024
 31
0.0
  0
LINE
  5
B3
100
AcDbEntity
  8
PV
  6
CONTINUOUS
 62
         3
100
AcDbLine
 10
48.5501087
 20
79.0485712
 30
0.0
 11
48.5501087
 21
77.0703454
 31
0.0
  0
LINE
  5
B4
100
AcDbEntity
  8
PV
  6
CONTINUOUS
 62
         3
100
AcDbLine
 10
47.3563068
 20
79.0485712
 30
0.0
 11
47.3563068
 21
77.0703454
 31
0.0
  0
LINE
  5
B5
100
AcDbEntity
  8
PV
  6
CONTINUOUS
 62
         3
100
AcDbLine
 10
48.5501087
 20
77.0703454
 30
0.0
 11
47.3563068
 21
77.0703454
 31
0.0
  0
LINE
  5
B6
100
AcDbEntity
  8
PV
  6
CONTINUOUS
 62
         3
100
AcDbLine
 10
48.5501087
 20
83.3878503
 30
0.0
 11
48.5501087
 21
81.7981973
 31
0.0
  0
LINE
  5
B7
100
AcDbEntity
  8
PV
  6
CONTINUOUS
 62
         3
100
AcDbLine
 10
47.3563068
 20
83.3878503
 30
0.0
 11
47.3563068
 21
81.7981973
 31
0.0
  0
LINE
  5
B8
100
AcDbEntity
  8
PV
  6
CONTINUOUS
 62
         3
100
AcDbLine
 10
48.5501087
 20
83.3878503
 30
0.0
 11
47.3563068
 21
83.3878503
 31
0.0
  0
LINE
  5
B9
100
AcDbEntity
  8
PV
  6
CONTINUOUS
 62
         3
100
AcDbLine
 10
47.3563068
 20
77.6673379
 30
0.0
 11
38.4155071
 21
77.6673379
 31
0.0
  0
LINE
  5
BA
100
AcDbEntity
  8
PV
  6
CONTINUOUS
 62
         3
100
AcDbLine
 10
47.3563068
 20
83.0893655
 30
0.0
 11
38.4155071
 21
83.0893655
 31
0.0
  0
LINE
  5
BB
100
AcDbEntity
  8
PV
  6
CONTINUOUS
 62
         3
100
AcDbLine
 10
48.5501087
 20
19.9806009
 30
0.0
 11
47.3563068
 21
19.9806009
 31
0.0
  0
LINE
  5
BC
100
AcDbEntity
  8
PV
  6
CONTINUOUS
 62
         3
100
AcDbLine
 10
48.5501087
 20
19.7266107
 30
0.0
 11
48.5501087
 21
19.9806009
 31
0.0
  0
LINE
  5
BD
100
AcDbEntity
  8
PV
  6
CONTINUOUS
 62
         3
100
AcDbLine
 10
47.3563068
 20
19.7266107
 30
0.0
 11
47.3563068
 21
19.9806009
 31
0.0
  0
LINE
  5
BE
100
AcDbEntity
  8
PV
  6
CONTINUOUS
 62
         3
100
AcDbLine
 10
47.3563068
 20
19.7266107
 30
0.0
 11
38.4155071
 21
19.7266107
 31
0.0
  0
LINE
  5
BF
100
AcDbEntity
  8
PV
  6
CONTINUOUS
 62
         3
100
AcDbLine
 10
48.5501087
 20
100.422404
 30
0.0
 11
47.3563068
 21
100.422404
 31
0.0
  0
LINE
  5
C0
100
AcDbEntity
  8
PV
  6
CONTINUOUS
 62
         3
100
AcDbLine
 10
47.3563068
 20
100.676394
 30
0.0
 11
47.3563068
 21
100.422404
 31
0.0
  0
LINE
  5
C1
100
AcDbEntity
  8
PV
  6
CONTINUOUS
 62
         3
100
AcDbLine
 10
48.5501087
 20
100.676394
 30
0.0
 11
48.5501087
 21
100.422404
 31
0.0
  0
LINE
  5
C2
100
AcDbEntity
  8
PV
  6
CONTINUOUS
 62
         3
100
AcDbLine
 10
48.5501087
 20
100.676394
 30
0.0
 11
57.4909027
 21
100.676394
 31
0.0
  0
LINE
  5
C3
100
AcDbEntity
  8
PV
  6
CONTINUOUS
 62
         3
100
AcDbLine
 10
57.4909027
 20
35.1952005
 30
0.0
 11
111.186507
 21
35.1952005
 31
0.0
  0
LINE
  5
C4
100
AcDbEntity
  8
PV
  6
CONTINUOUS
 62
         3
100
AcDbLine
 10
57.4909027
 20
23.6889902
 30
0.0
 11
57.4909027
 21
19.7266107
 31
0.0
  0
LINE
  5
C5
100
AcDbEntity
  8
PV
  6
CONTINUOUS
 62
         3
100
AcDbLine
 10
38.1615055
 20
60.2015024
 30
0.0
 11
38.1615055
 21
96.2440973
 31
0.0
  0
LINE
  5
C6
100
AcDbEntity
  8
PV
  6
CONTINUOUS
 62
         3
100
AcDbLine
 10
38.4155071
 20
60.2015024
 30
0.0
 11
38.4155071
 21
100.676394
 31
0.0
  0
LINE
  5
C7
100
AcDbEntity
  8
PV
  6
CONTINUOUS
 62
         3
100
AcDbLine
 10
20.9315368
 20
32.7694965
 30
0.0
 11
21.1942985
 21
31.7535017
 31
0.0
  0
LINE
  5
C8
100
AcDbEntity
  8
PV
  6
CONTINUOUS
 62
         3
100
AcDbLine
 10
21.1943004
 20
31.7535043
 30
0.0
 11
22.2672298
 21
31.7535043
 31
0.0
  0
LINE
  5
C9
100
AcDbEntity
  8
PV
  6
CONTINUOUS
 62
         3
100
AcDbLine
 10
22.2672245
 20
31.7535008
 30
0.0
 11
22.5299861
 21
32.7694956
 31
0.0
  0
LINE
  5
CA
100
AcDbEntity
  8
PV
  6
CONTINUOUS
 62
         3
100
AcDbLine
 10
22.5299862
 20
32.7695108
 30
0.0
 11
23.4715374
 21
32.7695108
 31
0.0
  0
LINE
  5
CB
100
AcDbEntity
  8
PV
  6
CONTINUOUS
 62
         3
100
AcDbLine
 10
23.4715328
 20
32.769507
 30
0.0
 11
23.7342944
 21
31.7535122
 31
0.0
  0
LINE
  5
CC
100
AcDbEntity
  8
PV
  6
CONTINUOUS
 62
         3
100
AcDbLine
 10
26.0115381
 20
32.5154948
 30
0.0
 11
26.2742998
 21
31.4995
 31
0.0
  0
LINE
  5
CD
100
AcDbEntity
  8
PV
  6
CONTINUOUS
 62
         3
100
AcDbLine
 10
26.2742984
 20
31.4994913
 30
0.0
 11
27.2815387
 21
31.4994913
 31
0.0
  0
LINE
  5
CE
100
AcDbEntity
  8
PV
  6
CONTINUOUS
 62
         3
100
AcDbLine
 10
27.2815456
 20
31.4995114
 30
0.0
 11
27.5443073
 21
32.5155061
 31
0.0
  0
LINE
  5
CF
100
AcDbEntity
  8
PV
  6
CONTINUOUS
 62
         3
100
AcDbLine
 10
27.5443065
 20
32.5154977
 30
0.0
 11
28.5515354
 21
32.5154977
 31
0.0
  0
LINE
  5
D0
100
AcDbEntity
  8
PV
  6
CONTINUOUS
 62
         3
100
AcDbLine
 10
28.5515369
 20
32.5155061
 30
0.0
 11
28.8142985
 21
31.4995113
 31
0.0
  0
LINE
  5
D1
100
AcDbEntity
  8
PV
  6
CONTINUOUS
 62
         3
100
AcDbLine
 10
28.8143032
 20
31.4994913
 30
0.0
 11
29.8215435
 21
31.4994913
 31
0.0
  0
LINE
  5
D2
100
AcDbEntity
  8
PV
  6
CONTINUOUS
 62
         3
100
AcDbLine
 10
30.0842998
 20
32.5154977
 30
0.0
 11
31.0915401
 21
32.5154977
 31
0.0
  0
LINE
  5
D3
100
AcDbEntity
  8
PV
  6
CONTINUOUS
 62
         3
100
AcDbLine
 10
29.821536
 20
31.4995022
 30
0.0
 11
30.0842977
 21
32.515497
 31
0.0
  0
LINE
  5
D4
100
AcDbEntity
  8
PV
  6
CONTINUOUS
 62
         3
100
AcDbLine
 10
31.0915385
 20
32.5154945
 30
0.0
 11
31.3543002
 21
31.4994997
 31
0.0
  0
LINE
  5
D5
100
AcDbEntity
  8
PV
  6
CONTINUOUS
 62
         3
100
AcDbLine
 10
34.9015447
 20
31.4995004
 30
0.0
 11
35.1643064
 21
32.5154952
 31
0.0
  0
LINE
  5
D6
100
AcDbEntity
  8
PV
  6
CONTINUOUS
 62
         3
100
AcDbLine
 10
35.1643093
 20
32.5154977
 30
0.0
 11
36.1715381
 21
32.5154977
 31
0.0
  0
LINE
  5
D7
100
AcDbEntity
  8
PV
  6
CONTINUOUS
 62
         3
100
AcDbLine
 10
33.8943012
 20
31.4994913
 30
0.0
 11
34.9015415
 21
31.4994913
 31
0.0
  0
LINE
  5
D8
100
AcDbEntity
  8
PV
  6
CONTINUOUS
 62
         3
100
AcDbLine
 10
33.6315373
 20
32.5155058
 30
0.0
 11
33.8942989
 21
31.499511
 31
0.0
  0
LINE
  5
D9
100
AcDbEntity
  8
PV
  6
CONTINUOUS
 62
         3
100
AcDbLine
 10
31.3543079
 20
31.4994913
 30
0.0
 11
32.3615368
 21
31.4994913
 31
0.0
  0
LINE
  5
DA
100
AcDbEntity
  8
PV
  6
CONTINUOUS
 62
         3
100
AcDbLine
 10
32.6243045
 20
32.5154977
 30
0.0
 11
33.6315448
 21
32.5154977
 31
0.0
  0
LINE
  5
DB
100
AcDbEntity
  8
PV
  6
CONTINUOUS
 62
         3
100
AcDbLine
 10
32.3615432
 20
31.4995124
 30
0.0
 11
32.6243049
 21
32.5155072
 31
0.0
  0
LINE
  5
DC
100
AcDbEntity
  8
PV
  6
CONTINUOUS
 62
         3
100
AcDbLine
 10
36.1715389
 20
32.5154942
 30
0.0
 11
36.4343006
 21
31.4994994
 31
0.0
  0
LINE
  5
DD
100
AcDbEntity
  8
PV
  6
CONTINUOUS
 62
         3
100
AcDbLine
 10
41.5143039
 20
31.4994913
 30
0.0
 11
42.5215442
 21
31.4994913
 31
0.0
  0
LINE
  5
DE
100
AcDbEntity
  8
PV
  6
CONTINUOUS
 62
         3
100
AcDbLine
 10
41.2515393
 20
32.5154939
 30
0.0
 11
41.514301
 21
31.4994991
 31
0.0
  0
LINE
  5
DF
100
AcDbEntity
  8
PV
  6
CONTINUOUS
 62
         3
100
AcDbLine
 10
39.9815423
 20
31.4995014
 30
0.0
 11
40.244304
 21
32.5154962
 31
0.0
  0
LINE
  5
E0
100
AcDbEntity
  8
PV
  6
CONTINUOUS
 62
         3
100
AcDbLine
 10
40.2443073
 20
32.5154977
 30
0.0
 11
41.2515361
 21
32.5154977
 31
0.0
  0
LINE
  5
E1
100
AcDbEntity
  8
PV
  6
CONTINUOUS
 62
         3
100
AcDbLine
 10
38.9742992
 20
31.4994913
 30
0.0
 11
39.9815395
 21
31.4994913
 31
0.0
  0
LINE
  5
E2
100
AcDbEntity
  8
PV
  6
CONTINUOUS
 62
         3
100
AcDbLine
 10
38.7115376
 20
32.5155055
 30
0.0
 11
38.9742993
 21
31.4995107
 31
0.0
  0
LINE
  5
E3
100
AcDbEntity
  8
PV
  6
CONTINUOUS
 62
         3
100
AcDbLine
 10
36.4343059
 20
31.4994913
 30
0.0
 11
37.4415462
 21
31.4994913
 31
0.0
  0
LINE
  5
E4
100
AcDbEntity
  8
PV
  6
CONTINUOUS
 62
         3
100
AcDbLine
 10
37.7043026
 20
32.5154977
 30
0.0
 11
38.7115429
 21
32.5154977
 31
0.0
  0
LINE
  5
E5
100
AcDbEntity
  8
PV
  6
CONTINUOUS
 62
         3
100
AcDbLine
 10
37.4415409
 20
31.4995134
 30
0.0
 11
37.7043025
 21
32.5155082
 31
0.0
  0
LINE
  5
E6
100
AcDbEntity
  8
PV
  6
CONTINUOUS
 62
         3
100
AcDbLine
 10
42.5215496
 20
31.4995115
 30
0.0
 11
42.7843112
 21
32.5155063
 31
0.0
  0
LINE
  5
E7
100
AcDbEntity
  8
PV
  6
CONTINUOUS
 62
         3
100
AcDbLine
 10
42.7843006
 20
32.5154977
 30
0.0
 11
43.7915409
 21
32.5154977
 31
0.0
  0
LINE
  5
E8
100
AcDbEntity
  8
PV
  6
CONTINUOUS
 62
         3
100
AcDbLine
 10
43.791538
 20
32.5155052
 30
0.0
 11
44.0542997
 21
31.4995104
 31
0.0
  0
LINE
  5
E9
100
AcDbEntity
  8
PV
  6
CONTINUOUS
 62
         3
100
AcDbLine
 10
44.0543087
 20
31.4994913
 30
0.0
 11
45.0615375
 21
31.4994913
 31
0.0
  0
LINE
  5
EA
100
AcDbEntity
  8
PV
  6
CONTINUOUS
 62
         3
100
AcDbLine
 10
45.3243053
 20
32.5154977
 30
0.0
 11
46.3315456
 21
32.5154977
 31
0.0
  0
LINE
  5
EB
100
AcDbEntity
  8
PV
  6
CONTINUOUS
 62
         3
100
AcDbLine
 10
45.06154
 20
31.4995024
 30
0.0
 11
45.3243016
 21
32.5154972
 31
0.0
  0
LINE
  5
EC
100
AcDbEntity
  8
PV
  6
CONTINUOUS
 62
         3
100
AcDbLine
 10
24.7415384
 20
31.4995012
 30
0.0
 11
25.0043001
 21
32.515496
 31
0.0
  0
LINE
  5
ED
100
AcDbEntity
  8
PV
  6
CONTINUOUS
 62
         3
100
AcDbLine
 10
25.0043018
 20
32.5154977
 30
0.0
 11
26.0115421
 21
32.5154977
 31
0.0
  0
LINE
  5
EE
100
AcDbEntity
  8
PV
  6
CONTINUOUS
 62
         3
100
AcDbLine
 10
23.7343052
 20
31.4994913
 30
0.0
 11
24.7415454
 21
31.4994913
 31
0.0
  0
LINE
  5
EF
100
AcDbEntity
  8
PV
  6
CONTINUOUS
 62
         3
100
AcDbLine
 10
23.4715365
 20
32.5155064
 30
0.0
 11
23.7342981
 21
31.4995116
 31
0.0
  0
LINE
  5
F0
100
AcDbEntity
  8
PV
  6
CONTINUOUS
 62
         3
100
AcDbLine
 10
21.1943004
 20
31.4994913
 30
0.0
 11
22.2015407
 21
31.4994913
 31
0.0
  0
LINE
  5
F1
100
AcDbEntity
  8
PV
  6
CONTINUOUS
 62
         3
100
AcDbLine
 10
22.4643085
 20
32.5154977
 30
0.0
 11
23.4715374
 21
32.5154977
 31
0.0
  0
LINE
  5
F2
100
AcDbEntity
  8
PV
  6
CONTINUOUS
 62
         3
100
AcDbLine
 10
22.201548
 20
31.4995103
 30
0.0
 11
22.4643096
 21
32.5155051
 31
0.0
  0
LINE
  5
F3
100
AcDbEntity
  8
PV
  6
CONTINUOUS
 62
         3
100
AcDbLine
 10
26.0115372
 20
32.7694962
 30
0.0
 11
26.2742989
 21
31.7535014
 31
0.0
  0
LINE
  5
F4
100
AcDbEntity
  8
PV
  6
CONTINUOUS
 62
         3
100
AcDbLine
 10
24.8072317
 20
31.753511
 30
0.0
 11
25.0699933
 21
32.7695058
 31
0.0
  0
LINE
  5
F5
100
AcDbEntity
  8
PV
  6
CONTINUOUS
 62
         3
100
AcDbLine
 10
25.0699909
 20
32.7695108
 30
0.0
 11
26.0115421
 21
32.7695108
 31
0.0
  0
LINE
  5
F6
100
AcDbEntity
  8
PV
  6
CONTINUOUS
 62
         3
100
AcDbLine
 10
23.7343052
 20
31.7535043
 30
0.0
 11
24.8072231
 21
31.7535043
 31
0.0
  0
LINE
  5
F7
100
AcDbEntity
  8
PV
  6
CONTINUOUS
 62
         3
100
AcDbLine
 10
29.8872293
 20
31.753512
 30
0.0
 11
30.149991
 21
32.7695068
 31
0.0
  0
LINE
  5
F8
100
AcDbEntity
  8
PV
  6
CONTINUOUS
 62
         3
100
AcDbLine
 10
31.0915376
 20
32.7694959
 30
0.0
 11
31.3542993
 21
31.7535011
 31
0.0
  0
LINE
  5
F9
100
AcDbEntity
  8
PV
  6
CONTINUOUS
 62
         3
100
AcDbLine
 10
28.5515359
 20
32.7695075
 30
0.0
 11
28.8142976
 21
31.7535127
 31
0.0
  0
LINE
  5
FA
100
AcDbEntity
  8
PV
  6
CONTINUOUS
 62
         3
100
AcDbLine
 10
27.3472221
 20
31.7535018
 30
0.0
 11
27.6099837
 21
32.7694966
 31
0.0
  0
LINE
  5
FB
100
AcDbEntity
  8
PV
  6
CONTINUOUS
 62
         3
100
AcDbLine
 10
27.6099842
 20
32.7695108
 30
0.0
 11
28.5515354
 21
32.7695108
 31
0.0
  0
LINE
  5
FC
100
AcDbEntity
  8
PV
  6
CONTINUOUS
 62
         3
100
AcDbLine
 10
30.1499889
 20
32.7695108
 30
0.0
 11
31.0915401
 21
32.7695108
 31
0.0
  0
LINE
  5
FD
100
AcDbEntity
  8
PV
  6
CONTINUOUS
 62
         3
100
AcDbLine
 10
28.8143032
 20
31.7535043
 30
0.0
 11
29.8872211
 21
31.7535043
 31
0.0
  0
LINE
  5
FE
100
AcDbEntity
  8
PV
  6
CONTINUOUS
 62
         3
100
AcDbLine
 10
26.2742984
 20
31.7535043
 30
0.0
 11
27.3472278
 21
31.7535043
 31
0.0
  0
LINE
  5
FF
100
AcDbEntity
  8
PV
  6
CONTINUOUS
 62
         3
100
AcDbLine
 10
33.6315363
 20
32.7695072
 30
0.0
 11
33.894298
 21
31.7535124
 31
0.0
  0
LINE
  5
100
100
AcDbEntity
  8
PV
  6
CONTINUOUS
 62
         3
100
AcDbLine
 10
32.4272308
 20
31.7535
 30
0.0
 11
32.6899924
 21
32.7694948
 31
0.0
  0
LINE
  5
101
100
AcDbEntity
  8
PV
  6
CONTINUOUS
 62
         3
100
AcDbLine
 10
32.6899936
 20
32.7695108
 30
0.0
 11
33.6315448
 21
32.7695108
 31
0.0
  0
LINE
  5
102
100
AcDbEntity
  8
PV
  6
CONTINUOUS
 62
         3
100
AcDbLine
 10
31.3543079
 20
31.7535043
 30
0.0
 11
32.4272258
 21
31.7535043
 31
0.0
  0
LINE
  5
103
100
AcDbEntity
  8
PV
  6
CONTINUOUS
 62
         3
100
AcDbLine
 10
40.0472245
 20
31.753514
 30
0.0
 11
40.3099862
 21
32.7695088
 31
0.0
  0
LINE
  5
104
100
AcDbEntity
  8
PV
  6
CONTINUOUS
 62
         3
100
AcDbLine
 10
41.2515384
 20
32.7694953
 30
0.0
 11
41.5143001
 21
31.7535005
 31
0.0
  0
LINE
  5
105
100
AcDbEntity
  8
PV
  6
CONTINUOUS
 62
         3
100
AcDbLine
 10
43.7915478
 20
32.7694955
 30
0.0
 11
43.8048047
 21
32.7181946
 31
0.0
  0
LINE
  5
106
100
AcDbEntity
  8
PV
  6
CONTINUOUS
 62
         3
100
AcDbLine
 10
42.587226
 20
31.753502
 30
0.0
 11
42.8499877
 21
32.7694968
 31
0.0
  0
LINE
  5
107
100
AcDbEntity
  8
PV
  6
CONTINUOUS
 62
         3
100
AcDbLine
 10
37.5072284
 20
31.753501
 30
0.0
 11
37.7699901
 21
32.7694958
 31
0.0
  0
LINE
  5
108
100
AcDbEntity
  8
PV
  6
CONTINUOUS
 62
         3
100
AcDbLine
 10
38.7115367
 20
32.7695069
 30
0.0
 11
38.9742984
 21
31.7535121
 31
0.0
  0
LINE
  5
109
100
AcDbEntity
  8
PV
  6
CONTINUOUS
 62
         3
100
AcDbLine
 10
36.171538
 20
32.7694956
 30
0.0
 11
36.4342997
 21
31.7535008
 31
0.0
  0
LINE
  5
10A
100
AcDbEntity
  8
PV
  6
CONTINUOUS
 62
         3
100
AcDbLine
 10
34.9672269
 20
31.753513
 30
0.0
 11
35.2299886
 21
32.7695078
 31
0.0
  0
LINE
  5
10B
100
AcDbEntity
  8
PV
  6
CONTINUOUS
 62
         3
100
AcDbLine
 10
35.2299869
 20
32.7695108
 30
0.0
 11
36.1715381
 21
32.7695108
 31
0.0
  0
LINE
  5
10C
100
AcDbEntity
  8
PV
  6
CONTINUOUS
 62
         3
100
AcDbLine
 10
42.8499897
 20
32.7695108
 30
0.0
 11
43.7915409
 21
32.7695108
 31
0.0
  0
LINE
  5
10D
100
AcDbEntity
  8
PV
  6
CONTINUOUS
 62
         3
100
AcDbLine
 10
40.3099849
 20
32.7695108
 30
0.0
 11
41.2515361
 21
32.7695108
 31
0.0
  0
LINE
  5
10E
100
AcDbEntity
  8
PV
  6
CONTINUOUS
 62
         3
100
AcDbLine
 10
37.7699916
 20
32.7695108
 30
0.0
 11
38.7115429
 21
32.7695108
 31
0.0
  0
LINE
  5
10F
100
AcDbEntity
  8
PV
  6
CONTINUOUS
 62
         3
100
AcDbLine
 10
36.4343059
 20
31.7535043
 30
0.0
 11
37.5072239
 21
31.7535043
 31
0.0
  0
LINE
  5
110
100
AcDbEntity
  8
PV
  6
CONTINUOUS
 62
         3
100
AcDbLine
 10
33.8943012
 20
31.7535043
 30
0.0
 11
34.9672306
 21
31.7535043
 31
0.0
  0
LINE
  5
111
100
AcDbEntity
  8
PV
  6
CONTINUOUS
 62
         3
100
AcDbLine
 10
38.9742992
 20
31.7535043
 30
0.0
 11
40.0472286
 21
31.7535043
 31
0.0
  0
LINE
  5
112
100
AcDbEntity
  8
PV
  6
CONTINUOUS
 62
         3
100
AcDbLine
 10
41.5143039
 20
31.7535043
 30
0.0
 11
42.5872219
 21
31.7535043
 31
0.0
  0
LINE
  5
113
100
AcDbEntity
  8
PV
  6
CONTINUOUS
 62
         3
100
AcDbLine
 10
47.6015472
 20
31.4995126
 30
0.0
 11
47.8643088
 21
32.5155073
 31
0.0
  0
LINE
  5
114
100
AcDbEntity
  8
PV
  6
CONTINUOUS
 62
         3
100
AcDbLine
 10
48.8715384
 20
32.5155049
 30
0.0
 11
49.1343001
 21
31.4995101
 31
0.0
  0
LINE
  5
115
100
AcDbEntity
  8
PV
  6
CONTINUOUS
 62
         3
100
AcDbLine
 10
47.8642986
 20
32.5154977
 30
0.0
 11
48.8715389
 21
32.5154977
 31
0.0
  0
LINE
  5
116
100
AcDbEntity
  8
PV
  6
CONTINUOUS
 62
         3
100
AcDbLine
 10
49.1343067
 20
31.4994913
 30
0.0
 11
50.0741069
 21
31.4994913
 31
0.0
  0
LINE
  5
117
100
AcDbEntity
  8
PV
  6
CONTINUOUS
 62
         3
100
AcDbLine
 10
46.5943019
 20
31.4994913
 30
0.0
 11
47.6015422
 21
31.4994913
 31
0.0
  0
LINE
  5
118
100
AcDbEntity
  8
PV
  6
CONTINUOUS
 62
         3
100
AcDbLine
 10
46.3315397
 20
32.5154936
 30
0.0
 11
46.5943014
 21
31.4994988
 31
0.0
  0
LINE
  5
119
100
AcDbEntity
  8
PV
  6
CONTINUOUS
 62
         3
100
AcDbLine
 10
57.4909027
 20
32.0074945
 30
0.0
 11
57.4909027
 21
29.5129571
 31
0.0
  0
LINE
  5
11A
100
AcDbEntity
  8
PV
  6
CONTINUOUS
 62
         3
100
AcDbLine
 10
108.290906
 20
26.8506723
 30
0.0
 11
108.290906
 21
23.6889902
 31
0.0
  0
LINE
  5
11B
100
AcDbEntity
  8
PV
  6
CONTINUOUS
 62
         3
100
AcDbLine
 10
20.9315441
 20
32.7695108
 30
0.0
 11
20.6863086
 21
32.7695108
 31
0.0
  0
LINE
  5
11C
100
AcDbEntity
  8
PV
  6
CONTINUOUS
 62
         3
100
AcDbLine
 10
43.7699441
 20
32.5155002
 30
0.0
 11
43.7953396
 21
32.500847
 31
0.0
  0
LINE
  5
11D
100
AcDbEntity
  8
PV
  6
CONTINUOUS
 62
         3
100
AcDbLine
 10
26.269646
 20
31.7714839
 30
0.0
 11
26.287643
 21
31.7534869
 31
0.0
  0
LINE
  5
11E
100
AcDbEntity
  8
PV
  6
PHANTOM
 62
         3
100
AcDbLine
 10
-71.9959118
 20
18.0840219
 30
0.0
 11
-71.9959118
 21
105.955828
 31
0.0
  0
LINE
  5
11F
100
AcDbEntity
  8
PV
  6
PHANTOM
 62
         3
100
AcDbLine
 10
-71.9959118
 20
60.2015024
 30
0.0
 11
-30.061475
 21
60.2015024
 31
0.0
  0
LINE
  5
120
100
AcDbEntity
  8
PV
  6
CONTINUOUS
 62
         3
100
AcDbLine
 10
103.515707
 20
79.8153024
 30
0.0
 11
103.515707
 21
77.0656763
 31
0.0
  0
LINE
  5
121
100
AcDbEntity
  8
PV
  6
CONTINUOUS
 62
         3
100
AcDbLine
 10
106.665307
 20
79.8153024
 30
0.0
 11
106.665307
 21
77.0656763
 31
0.0
  0
CIRCLE
  5
122
100
AcDbEntity
  8
PV
  6
CONTINUOUS
 62
         3
100
AcDbCircle
 10
-71.9959118
 20
60.2015024
 30
0.0
 40
27.6860018
  0
CIRCLE
  5
123
100
AcDbEntity
  8
PV
  6
CONTINUOUS
 62
         3
100
AcDbCircle
 10
-71.9959118
 20
60.2015024
 30
0.0
 40
28.8290005
  0
CIRCLE
  5
124
100
AcDbEntity
  8
PV
  6
CONTINUOUS
 62
         3
100
AcDbCircle
 10
-71.9959118
 20
60.2015024
 30
0.0
 40
36.0426006
  0
ARC
  5
125
100
AcDbEntity
  8
PV
  6
CONTINUOUS
 62
         3
100
AcDbCircle
 10
56.7289035
 20
32.0074945
 30
0.0
 40
0.762000024
100
AcDbArc
 50
0.0
 51
90.0000025
  0
ARC
  5
126
100
AcDbEntity
  8
PV
  6
CONTINUOUS
 62
         3
100
AcDbCircle
 10
44.0797031
 20
32.0074945
 30
0.0
 40
0.762000024
100
AcDbArc
 50
90.0000025
 51
111.145824
  0
CIRCLE
  5
127
100
AcDbEntity
  8
PV
  6
CONTINUOUS
 62
         3
100
AcDbCircle
 10
-71.9959118
 20
60.2015024
 30
0.0
 40
25.7810011
  0
ARC
  5
128
100
AcDbEntity
  8
PV
  6
CONTINUOUS
 62
         3
100
AcDbCircle
 10
-71.9959118
 20
60.2015024
 30
0.0
 40
40.4749002
100
AcDbArc
 50
85.5642045
 51
87.7521802
  0
ARC
  5
129
100
AcDbEntity
  8
PV
  6
CONTINUOUS
 62
         3
100
AcDbCircle
 10
-71.9959118
 20
60.2015024
 30
0.0
 40
40.4749002
100
AcDbArc
 50
145.564199
 51
147.752182
  0
ARC
  5
12A
100
AcDbEntity
  8
PV
  6
CONTINUOUS
 62
         3
100
AcDbCircle
 10
-71.9959118
 20
60.2015024
 30
0.0
 40
40.4749002
100
AcDbArc
 50
205.564204
 51
207.752174
  0
ARC
  5
12B
100
AcDbEntity
  8
PV
  6
CONTINUOUS
 62
         3
100
AcDbCircle
 10
-71.9959118
 20
60.2015024
 30
0.0
 40
40.4749002
100
AcDbArc
 50
265.564206
 51
267.752175
  0
ARC
  5
12C
100
AcDbEntity
  8
PV
  6
CONTINUOUS
 62
         3
100
AcDbCircle
 10
-71.9959118
 20
60.2015024
 30
0.0
 40
40.4749002
100
AcDbArc
 50
325.564205
 51
327.752177
  0
ARC
  5
12D
100
AcDbEntity
  8
PV
  6
CONTINUOUS
 62
         3
100
AcDbCircle
 10
-71.9959118
 20
60.2015024
 30
0.0
 40
40.4749002
100
AcDbArc
 50
25.5642045
 51
27.7521788
  0
ARC
  5
12E
100
AcDbEntity
  8
PV
  6
CONTINUOUS
 62
         3
100
AcDbCircle
 10
-71.9959118
 20
60.2015024
 30
0.0
 40
40.4749002
100
AcDbArc
 50
32.2478229
 51
34.4357955
  0
ARC
  5
12F
100
AcDbEntity
  8
PV
  6
CONTINUOUS
 62
         3
100
AcDbCircle
 10
-71.9959118
 20
60.2015024
 30
0.0
 40
40.4749002
100
AcDbArc
 50
92.2478248
 51
94.4357936
  0
ARC
  5
130
100
AcDbEntity
  8
PV
  6
CONTINUOUS
 62
         3
100
AcDbCircle
 10
-71.9959118
 20
60.2015024
 30
0.0
 40
40.4749002
100
AcDbArc
 50
152.247826
 51
154.435795
  0
ARC
  5
131
100
AcDbEntity
  8
PV
  6
CONTINUOUS
 62
         3
100
AcDbCircle
 10
-71.9959118
 20
60.2015024
 30
0.0
 40
40.4749002
100
AcDbArc
 50
212.247818
 51
214.435801
  0
ARC
  5
132
100
AcDbEntity
  8
PV
  6
CONTINUOUS
 62
         3
100
AcDbCircle
 10
-71.9959118
 20
60.2015024
 30
0.0
 40
40.4749002
100
AcDbArc
 50
272.247819
 51
274.435796
  0
ARC
  5
133
100
AcDbEntity
  8
PV
  6
CONTINUOUS
 62
         3
100
AcDbCircle
 10
-71.9959118
 20
60.2015024
 30
0.0
 40
40.4749002
100
AcDbArc
 50
332.247821
 51
334.435796
  0
ARC
  5
134
100
AcDbEntity
  8
PV
  6
CONTINUOUS
 62
         3
100
AcDbCircle
 10
-71.9959118
 20
60.2015024
 30
0.0
 40
25.0063019
100
AcDbArc
 50
121.818992
 51
178.181016
  0
ARC
  5
135
100
AcDbEntity
  8
PV
  6
CONTINUOUS
 62
         3
100
AcDbCircle
 10
-71.9959118
 20
60.2015024
 30
0.0
 40
25.0063019
100
AcDbArc
 50
61.8189902
 51
118.181015
  0
ARC
  5
136
100
AcDbEntity
  8
PV
  6
CONTINUOUS
 62
         3
100
AcDbCircle
 10
-71.9959118
 20
60.2015024
 30
0.0
 40
25.0063019
100
AcDbArc
 50
1.81898802
 51
58.1810131
  0
ARC
  5
137
100
AcDbEntity
  8
PV
  6
CONTINUOUS
 62
         3
100
AcDbCircle
 10
-71.9959118
 20
60.2015024
 30
0.0
 40
25.0063019
100
AcDbArc
 50
301.818987
 51
358.181012
  0
ARC
  5
138
100
AcDbEntity
  8
PV
  6
CONTINUOUS
 62
         3
100
AcDbCircle
 10
-71.9959118
 20
60.2015024
 30
0.0
 40
25.0063019
100
AcDbArc
 50
241.818985
 51
298.18101
  0
ARC
  5
139
100
AcDbEntity
  8
PV
  6
CONTINUOUS
 62
         3
100
AcDbCircle
 10
-71.9959118
 20
60.2015024
 30
0.0
 40
25.0063019
100
AcDbArc
 50
181.818984
 51
238.181008
  0
LINE
  5
13A
100
AcDbEntity
  8
PV
  6
CONTINUOUS
 62
         3
100
AcDbLine
 10
-36.0608799
 20
62.9842248
 30
0.0
 11
-51.6184704
 21
89.9307809
 31
0.0
  0
LINE
  5
13B
100
AcDbEntity
  8
PV
  6
CONTINUOUS
 62
         3
100
AcDbLine
 10
-51.6184704
 20
30.4722238
 30
0.0
 11
-36.0608799
 21
57.4187799
 31
0.0
  0
LINE
  5
13C
100
AcDbEntity
  8
PV
  6
CONTINUOUS
 62
         3
100
AcDbLine
 10
-87.5535138
 20
27.6895013
 30
0.0
 11
-56.4383099
 21
27.6895013
 31
0.0
  0
LINE
  5
13D
100
AcDbEntity
  8
PV
  6
CONTINUOUS
 62
         3
100
AcDbLine
 10
-107.930909
 20
57.4187799
 30
0.0
 11
-92.3733075
 21
30.4722238
 31
0.0
  0
LINE
  5
13E
100
AcDbEntity
  8
PV
  6
CONTINUOUS
 62
         3
100
AcDbLine
 10
-56.4383099
 20
92.7135034
 30
0.0
 11
-87.5535138
 21
92.7135034
 31
0.0
  0
LINE
  5
13F
100
AcDbEntity
  8
PV
  6
CONTINUOUS
 62
         3
100
AcDbLine
 10
-92.3733075
 20
89.9307809
 30
0.0
 11
-107.930909
 21
62.9842248
 31
0.0
  0
LINE
  5
140
100
AcDbEntity
  8
PV
  6
CONTINUOUS
 62
         3
100
AcDbLine
 10
-38.613805
 20
83.0893426
 30
0.0
 11
-68.865495
 21
100.555155
 31
0.0
  0
LINE
  5
141
100
AcDbEntity
  8
PV
  6
CONTINUOUS
 62
         3
100
AcDbLine
 10
-35.4834111
 20
42.7356668
 30
0.0
 11
-35.4834111
 21
77.667315
 31
0.0
  0
LINE
  5
142
100
AcDbEntity
  8
PV
  6
CONTINUOUS
 62
         3
100
AcDbLine
 10
-68.865495
 20
19.8478265
 30
0.0
 11
-38.613805
 21
37.3136392
 31
0.0
  0
LINE
  5
143
100
AcDbEntity
  8
PV
  6
CONTINUOUS
 62
         3
100
AcDbLine
 10
-105.377984
 20
37.3136392
 30
0.0
 11
-75.1263058
 21
19.8478265
 31
0.0
  0
LINE
  5
144
100
AcDbEntity
  8
PV
  6
CONTINUOUS
 62
         3
100
AcDbLine
 10
-75.1263058
 20
100.555155
 30
0.0
 11
-105.377984
 21
83.0893426
 31
0.0
  0
LINE
  5
145
100
AcDbEntity
  8
PV
  6
CONTINUOUS
 62
         3
100
AcDbLine
 10
-108.508424
 20
77.667315
 30
0.0
 11
-108.508424
 21
42.7356668
 31
0.0
  0
LWPOLYLINE
  5
146
100
AcDbEntity
  8
PV
  6
CONTINUOUS
 62
         3
100
AcDbPolyline
 90
        3
 70
         0
 10
6.1776612
 20
37.5886633
 10
6.81898762
 20
35.1952005
 10
7.46031404
 20
37.5886633
  0
LINE
  5
147
100
AcDbEntity
  8
PV
  6
CONTINUOUS
 62
         3
100
AcDbLine
 10
6.81898762
 20
35.1952005
 30
0.0
 11
6.81898762
 21
35.6952005
 31
0.0
  0
LINE
  5
148
100
AcDbEntity
  8
PV
  6
CONTINUOUS
 62
         3
100
AcDbLine
 10
6.81898762
 20
64.0114923
 30
0.0
 11
6.81898762
 21
35.1952005
 31
0.0
  0
MTEXT
  5
149
100
AcDbEntity
  8
PV
  6
CONTINUOUS
 62
       110
100
AcDbMText
 10
2.6189878282
 20
45.1276256879
 30
0.0
 40
3.2000000477
 41
0.0
 71
         1
 72
         1
  1
\W1.008;\A1;\U+220550
 11
-0.0000000035
 21
1.0
 31
0.0
  0
LINE
  5
14A
100
AcDbEntity
  8
PV
  6
CONTINUOUS
 62
         3
100
AcDbLine
 10
57.4909027
 20
35.1952005
 30
0.0
 11
6.81898762
 21
35.1952005
 31
0.0
  0
LINE
  5
14B
100
AcDbEntity
  8
PV
  6
CONTINUOUS
 62
         3
100
AcDbLine
 10
6.81898762
 20
35.1952005
 30
0.0
 11
3.06898762
 21
35.1952005
 31
0.0
  0
LINE
  5
14C
100
AcDbEntity
  8
PV
  6
CONTINUOUS
 62
         3
100
AcDbLine
 10
129.161364
 20
23.6889902
 30
0.0
 11
131.661364
 21
23.6889902
 31
0.0
  0
LWPOLYLINE
  5
14D
100
AcDbEntity
  8
PV
  6
CONTINUOUS
 62
         3
100
AcDbPolyline
 90
        3
 70
         0
 10
128.520038
 20
26.082453
 10
129.161364
 20
23.6889902
 10
129.80269
 20
26.082453
  0
LINE
  5
14E
100
AcDbEntity
  8
PV
  6
CONTINUOUS
 62
         3
100
AcDbLine
 10
129.161364
 20
23.6889902
 30
0.0
 11
129.161364
 21
24.1889902
 31
0.0
  0
LINE
  5
14F
100
AcDbEntity
  8
PV
  6
CONTINUOUS
 62
         3
100
AcDbLine
 10
129.161364
 20
64.0114923
 30
0.0
 11
129.161364
 21
23.6889902
 31
0.0
  0
MTEXT
  5
150
100
AcDbEntity
  8
PV
  6
CONTINUOUS
 62
       110
100
AcDbMText
 10
124.9613640883
 20
39.346011494
 30
0.0
 40
3.2000000477
 41
0.0
 71
         1
 72
         1
  1
\W0.955;\A1;\U+220573
 11
-0.0000000035
 21
1.0
 31
0.0
  0
LINE
  5
151
100
AcDbEntity
  8
PV
  6
CONTINUOUS
 62
         3
100
AcDbLine
 10
108.290906
 20
23.6889902
 30
0.0
 11
129.161364
 21
23.6889902
 31
0.0
  0
MTEXT
  5
152
100
AcDbEntity
  8
PV
  6
CONTINUOUS
 62
       110
100
AcDbMText
 10
-8.619917173
 20
-36.5535659882
 30
0.0
 40
3.2000000477
 41
0.0
 71
         1
 72
         1
  1
\W1.048;\A1;PL050X073MG
  0
MTEXT
  5
153
100
AcDbEntity
  8
PV
  6
CONTINUOUS
 62
       110
100
AcDbMText
 10
-8.6376920488
 20
-30.5535657498
 30
0.0
 40
3.2000000477
 41
0.0
 71
         1
 72
         1
  1
\T1.003;\W1.067;\A1;POWER LOCK
  0
DIMENSION
  5
162
100
AcDbEntity
  8
PV
  6
CONTINUOUS
 62
       110
100
AcDbDimension
  2
*D2
 10
-108.508424
 20
1.38057581
 30
0.0
 11
-72.279252317
 21
1.38057581
 31
0.0
 70
       128
  1
\A1;<>
  3
MXDIMSTYLE
100
AcDbAlignedDimension
 13
-35.4834111
 23
42.735666905
 33
0.0
 14
-108.508424
 24
42.735666905
 34
0.0
100
AcDbRotatedDimension
1001
ACAD
1000
DSTYLE
1002
{
1070
         6
1000
SOLID
1070
         7
1000
SOLID
1070
        41
1040
1.0000000298
1070
        42
1040
0.0625
1070
        44
1040
2.0
1070
       271
1070
         4
1070
       284
1070
         8
1070
       343
1005
0
1070
       344
1005
0
1002
}
  0
DIMENSION
  5
171
100
AcDbEntity
  8
PV
  6
CONTINUOUS
 62
       110
100
AcDbDimension
  2
*D3
 10
-133.668006
 20
92.7135034
 30
0.0
 11
-133.668006
 21
59.9181656982
 31
0.0
 70
       128
  1
\A1;<>
  3
MXDIMSTYLE
100
AcDbAlignedDimension
 13
-87.553515491
 23
27.6895013
 33
0.0
 14
-87.553515491
 24
92.7135034
 34
0.0
 50
90.0
100
AcDbRotatedDimension
1001
ACAD
1000
DSTYLE
1002
{
1070
         6
1000
SOLID
1070
         7
1000
SOLID
1070
        41
1040
1.0000000298
1070
        42
1040
0.0625
1070
        44
1040
2.0
1070
       271
1070
         4
1070
       284
1070
         8
1070
       343
1005
0
1070
       344
1005
0
1002
}
  0
DIMENSION
  5
181
100
AcDbEntity
  8
PV
  6
CONTINUOUS
 62
       110
100
AcDbDimension
  2
*D4
 10
108.290906
 20
120.260042
 30
0.0
 11
82.6075714012
 21
120.260042
 31
0.0
 70
       128
  1
\A1;<>
  3
MXDIMSTYLE
100
AcDbAlignedDimension
 13
57.4909027
 23
100.6763933184
 33
0.0
 14
108.290906
 24
96.7140138628
 34
0.0
100
AcDbRotatedDimension
1001
ACAD
1000
DSTYLE
1002
{
1070
         6
1000
SOLID
1070
         7
1000
SOLID
1070
        41
1040
1.0000000298
1070
        42
1040
0.0625
1070
        44
1040
2.0
1070
       271
1070
         4
1070
       284
1070
         8
1070
       340
1005
17B
1070
       343
1005
0
1070
       344
1005
0
1002
}
  0
DIMENSION
  5
190
100
AcDbEntity
  8
PV
  6
CONTINUOUS
 62
       110
100
AcDbDimension
  2
*D5
 10
57.4909027
 20
120.260042
 30
0.0
 11
47.6698720673
 21
120.260042
 31
0.0
 70
       128
  1
\A1;<>
  3
MXDIMSTYLE
100
AcDbAlignedDimension
 13
38.4155071
 23
100.6763933184
 33
0.0
 14
57.4909027
 24
100.6763933184
 34
0.0
100
AcDbRotatedDimension
1001
ACAD
1000
DSTYLE
1002
{
1070
         6
1000
SOLID
1070
         7
1000
SOLID
1070
        41
1040
1.0000000298
1070
        42
1040
0.0625
1070
        44
1040
2.0
1070
       271
1070
         4
1070
       284
1070
         8
1070
       340
1005
17B
1070
       343
1005
0
1070
       344
1005
0
1002
}
  0
DIMENSION
  5
19F
100
AcDbEntity
  8
PV
  6
CONTINUOUS
 62
       110
100
AcDbDimension
  2
*D6
 10
111.186507
 20
138.786712
 30
0.0
 11
65.6530711427
 21
138.786712
 31
0.0
 70
       128
  1
\A1;<>
  3
MXDIMSTYLE
100
AcDbAlignedDimension
 13
20.6863086
 23
60.2014992925
 33
0.0
 14
111.186507
 24
60.2014992925
 34
0.0
100
AcDbRotatedDimension
1001
ACAD
1000
DSTYLE
1002
{
1070
         6
1000
SOLID
1070
         7
1000
SOLID
1070
        41
1040
1.0000000298
1070
        42
1040
0.0625
1070
        44
1040
2.0
1070
       271
1070
         4
1070
       284
1070
         8
1070
       340
1005
17B
1070
       343
1005
0
1070
       344
1005
0
1002
}
  0
ENDSEC
  0
SECTION
  2
OBJECTS
  0
DICTIONARY
  5
19
100
AcDbDictionary
  3
ACAD_GROUP
350
1A
  3
ACAD_MLINESTYLE
350
1B
  0
DICTIONARY
  5
1A
102
{ACAD_REACTORS
330
19
102
}
100
AcDbDictionary
  0
DICTIONARY
  5
1B
102
{ACAD_REACTORS
330
19
102
}
100
AcDbDictionary
  3
STANDARD
350
1C
  0
MLINESTYLE
  5
1C
102
{ACAD_REACTORS
330
1B
102
}
100
AcDbMlineStyle
  2
Standard
 70
         0
  3

 62
         0
 51
90.0
 52
90.0
 71
         2
 49
0.5
 62
       256
  6
ByLayer
 49
-0.5
 62
       256
  6
ByLayer
  0
ENDSEC
  0
EOF
