  0
SECTION
  2
HEADER
  9
$ACADVER
  1
AC1014
  9
$ACADMAINTVER
 70
         0
  9
$DWGCODEPAGE
  3
ANSI_932
  9
$INSBASE
 10
0.0
 20
0.0
 30
0.0
  9
$EXTMIN
 10
-108.945
 20
-110.0
 30
0.0
  9
$EXTMAX
 10
130.6379679279
 20
115.7828792012
 30
0.0
  9
$LIMMIN
 10
-108.945
 20
-110.0
  9
$LIMMAX
 10
130.6379679279
 20
115.7828792012
  9
$ORTHOMODE
 70
         0
  9
$REGENMODE
 70
         1
  9
$FILLMODE
 70
         1
  9
$QTEXTMODE
 70
         0
  9
$MIRRTEXT
 70
         1
  9
$DRAGMODE
 70
         2
  9
$LTSCALE
 40
1.0
  9
$OSMODE
 70
         0
  9
$ATTMODE
 70
         1
  9
$TEXTSIZE
 40
3.2000000477
  9
$TRACEWID
 40
0.05
  9
$TEXTSTYLE
  7
MX_NOTE_STANDARD
  9
$CLAYER
  8
0
  9
$CELTYPE
  6
CONTINUOUS
  9
$CECOLOR
 62
       256
  9
$CELTSCALE
 40
1.0
  9
$DELOBJ
 70
         1
  9
$DISPSILH
 70
         0
  9
$DIMSCALE
 40
1.0
  9
$DIMASZ
 40
2.5
  9
$DIMEXO
 40
0.0
  9
$DIMDLI
 40
3.75
  9
$DIMRND
 40
0.0
  9
$DIMDLE
 40
0.0
  9
$DIMEXE
 40
2.5
  9
$DIMTP
 40
0.0
  9
$DIMTM
 40
0.0
  9
$DIMTXT
 40
3.2000000477
  9
$DIMCEN
 40
2.5
  9
$DIMTSZ
 40
0.0
  9
$DIMTOL
 70
         0
  9
$DIMLIM
 70
         0
  9
$DIMTIH
 70
         0
  9
$DIMTOH
 70
         0
  9
$DIMSE1
 70
         0
  9
$DIMSE2
 70
         0
  9
$DIMTAD
 70
         1
  9
$DIMZIN
 70
         8
  9
$DIMBLK
  1

  9
$DIMASO
 70
         1
  9
$DIMSHO
 70
         1
  9
$DIMPOST
  1

  9
$DIMAPOST
  1

  9
$DIMALT
 70
         0
  9
$DIMALTD
 70
         4
  9
$DIMALTF
 40
0.0393700787
  9
$DIMLFAC
 40
1.0
  9
$DIMTOFL
 70
         1
  9
$DIMTVP
 40
0.0
  9
$DIMTIX
 70
         0
  9
$DIMSOXD
 70
         0
  9
$DIMSAH
 70
         1
  9
$DIMBLK1
  1
_OPEN30
  9
$DIMBLK2
  1
_OPEN30
  9
$DIMSTYLE
  2
MXDIMSTYLE
  9
$DIMCLRD
 70
         0
  9
$DIMCLRE
 70
         0
  9
$DIMCLRT
 70
         0
  9
$DIMTFAC
 40
1.0
  9
$DIMGAP
 40
1.0
  9
$DIMJUST
 70
         0
  9
$DIMSD1
 70
         0
  9
$DIMSD2
 70
         0
  9
$DIMTOLJ
 70
         0
  9
$DIMTZIN
 70
         0
  9
$DIMALTZ
 70
         0
  9
$DIMALTTZ
 70
         0
  9
$DIMFIT
 70
         3
  9
$DIMUPT
 70
         0
  9
$DIMUNIT
 70
         2
  9
$DIMDEC
 70
         2
  9
$DIMTDEC
 70
         2
  9
$DIMALTU
 70
         2
  9
$DIMALTTD
 70
         4
  9
$DIMTXSTY
  7
MX_NOTE_STANDARD
  9
$DIMAUNIT
 70
         0
  9
$LUNITS
 70
         2
  9
$LUPREC
 70
         4
  9
$SKETCHINC
 40
0.1
  9
$FILLETRAD
 40
0.0
  9
$AUNITS
 70
         0
  9
$AUPREC
 70
         0
  9
$MENU
  1
acad
  9
$ELEVATION
 40
0.0
  9
$PELEVATION
 40
0.0
  9
$THICKNESS
 40
0.0
  9
$LIMCHECK
 70
         0
  9
$BLIPMODE
 70
         1
  9
$CHAMFERA
 40
0.0
  9
$CHAMFERB
 40
0.0
  9
$CHAMFERC
 40
0.0
  9
$CHAMFERD
 40
0.0
  9
$SKPOLY
 70
         0
  9
$TDCREATE
 40
2456603.419201389
  9
$TDUPDATE
 40
2456603.419201389
  9
$TDINDWG
 40
0.0000000000
  9
$TDUSRTIMER
 40
0.0000000000
  9
$USRTIMER
 70
         1
  9
$ANGBASE
 50
0.0
  9
$ANGDIR
 70
         0
  9
$PDMODE
 70
         0
  9
$PDSIZE
 40
0.0
  9
$PLINEWID
 40
0.0
  9
$COORDS
 70
         1
  9
$SPLFRAME
 70
         0
  9
$SPLINETYPE
 70
         6
  9
$SPLINESEGS
 70
         8
  9
$ATTDIA
 70
         0
  9
$ATTREQ
 70
         1
  9
$HANDLING
 70
         1
  9
$HANDSEED
  5
175
  9
$SURFTAB1
 70
         6
  9
$SURFTAB2
 70
         6
  9
$SURFTYPE
 70
         6
  9
$SURFU
 70
         6
  9
$SURFV
 70
         6
  9
$UCSNAME
  2

  9
$UCSORG
 10
0.0
 20
0.0
 30
0.0
  9
$UCSXDIR
 10
1.0
 20
0.0
 30
0.0
  9
$UCSYDIR
 10
0.0
 20
1.0
 30
0.0
  9
$PUCSNAME
  2

  9
$PUCSORG
 10
0.0
 20
0.0
 30
0.0
  9
$PUCSXDIR
 10
1.0
 20
0.0
 30
0.0
  9
$PUCSYDIR
 10
0.0
 20
1.0
 30
0.0
  9
$USERI1
 70
         0
  9
$USERI2
 70
         0
  9
$USERI3
 70
         0
  9
$USERI4
 70
         0
  9
$USERI5
 70
         0
  9
$USERR1
 40
0.0
  9
$USERR2
 40
0.0
  9
$USERR3
 40
0.0
  9
$USERR4
 40
0.0
  9
$USERR5
 40
0.0
  9
$WORLDVIEW
 70
         1
  9
$SHADEDGE
 70
         3
  9
$SHADEDIF
 70
        70
  9
$TILEMODE
 70
         1
  9
$MAXACTVP
 70
        16
  9
$PINSBASE
 10
0.0
 20
0.0
 30
0.0
  9
$PLIMCHECK
 70
         0
  9
$PEXTMIN
 10
1.0000000000E+20
 20
1.0000000000E+20
 30
1.0000000000E+20
  9
$PEXTMAX
 10
-1.0000000000E+20
 20
-1.0000000000E+20
 30
-1.0000000000E+20
  9
$PLIMMIN
 10
0.0
 20
0.0
  9
$PLIMMAX
 10
12.0
 20
9.0
  9
$UNITMODE
 70
         0
  9
$VISRETAIN
 70
         0
  9
$PLINEGEN
 70
         1
  9
$PSLTSCALE
 70
         0
  9
$TREEDEPTH
 70
      3020
  9
$PICKSTYLE
 70
         1
  9
$CMLSTYLE
  2
Standard
  9
$CMLJUST
 70
         0
  9
$CMLSCALE
 40
1.0
  9
$PROXYGRAPHICS
 70
         0
  9
$MEASUREMENT
 70
         1
  0
ENDSEC
  0
SECTION
  2
CLASSES
  0
CLASS
  1
LWPOLYLINE
  2
AcDbPolyline
  3
"AutoCAD"
 90
        0
280
         0
281
         1
  0
CLASS
  1
IMAGE
  2
AcDbRasterImage
  3
ISM
 90
      127
280
         0
281
         1
  0
CLASS
  1
OLE2FRAME
  2
AcDbOle2Frame
  3
""
 90
        0
280
         0
281
         1
  0
CLASS
  1
HATCH
  2
AcDbHatch
  3
"ACAD_SEDONA"
 90
        0
280
         0
281
         1
  0
CLASS
  1
DICTIONARYVAR
  2
AcDbDictionaryVar
  3
"AutoCAD"
 90
        0
280
         0
281
         0
  0
CLASS
  1
RASTERVARIABLES
  2
AcDbRasterVariables
  3
ISM
 90
        0
280
         0
281
         0
  0
CLASS
  1
IMAGEDEF
  2
AcDbRasterImageDef
  3
ISM
 90
        0
280
         0
281
         0
  0
CLASS
  1
IMAGEDEF_REACTOR
  2
AcDbRasterImageDefReactor
  3
ISM
 90
        1
280
         0
281
         0
  0
CLASS
  1
IDBUFFER
  2
AcDbIdBuffer
  3
"Acad"
 90
        0
280
         0
281
         0
  0
CLASS
  1
SPATIAL_FILTER
  2
AcDbSpatialFilter
  3
"Acad"
 90
        0
280
         0
281
         0
  0
CLASS
  1
XRECORD
  2
AcDbXrecord
  3
"<Built In>"
 90
        0
280
         0
281
         0
  0
CLASS
  1
SORTENTSTABLE
  2
AcDbSortentsTable
  3
"AutoCAD"
 90
        0
280
         0
281
         0
  0
CLASS
  1
LAYER_INDEX
  2
AcDbLayerIndex
  3
"Acad"
 90
        0
280
         0
281
         0
  0
CLASS
  1
SPATIAL_INDEX
  2
AcDbSpatialIndex
  3
"Acad"
 90
        0
280
         0
281
         0
  0
CLASS
  1
OBJECT_PTR
  2
CAseDLPNTableRecord
  3
"ASE-LPNTableRecord"
 90
        1
280
         0
281
         0
  0
CLASS
  1
LAYOUT
  2
AcDbLayout
  3
"AutoCAD 2000"
 90
        0
280
         0
281
         0
  0
CLASS
  1
PLOTSETTINGS
  2
AcDbPlotSettings
  3
"AutoCAD 2000"
 90
        0
280
         0
281
         0
  0
CLASS
  1
ACDBDICTIONARYWDFLT
  2
AcDbDictionaryWithDefault
  3
"AutoCAD 2000"
 90
        0
280
         0
281
         0
  0
CLASS
  1
ACDBPLACEHOLDER
  2
AcDbPlaceHolder
  3
"AutoCAD 2000"
 90
        0
280
         0
281
         0
  0
ENDSEC
  0
SECTION
  2
TABLES
  0
TABLE
  2
VPORT
  5
7
100
AcDbSymbolTable
 70
         1
  0
VPORT
  5
15
100
AcDbSymbolTableRecord
100
AcDbViewportTableRecord
  2
*ACTIVE
 70
         0
 10
0.0
 20
0.0
 11
1.0
 21
1.0
 12
10.8464839639
 22
2.8914396006
 13
0.0
 23
0.0
 14
1.0
 24
1.0
 15
0.0
 25
0.0
 16
0.0
 26
0.0
 36
1.0
 17
0.0
 27
0.0
 37
0.0
 40
228.0407079932
 41
1.7320508076
 42
50.0
 43
0.0
 44
0.0
 50
0.0
 51
0.0
 71
         0
 72
       100
 73
         1
 74
         1
 75
         0
 76
         0
 77
         0
 78
         0
  0
ENDTAB
  0
TABLE
  2
LTYPE
  5
4
100
AcDbSymbolTable
 70
         4
  0
LTYPE
  5
11
100
AcDbSymbolTableRecord
100
AcDbLinetypeTableRecord
  2
BYBLOCK
 70
        64
  3

 72
        65
 73
         0
 40
0.0
  0
LTYPE
  5
12
100
AcDbSymbolTableRecord
100
AcDbLinetypeTableRecord
  2
BYLAYER
 70
        64
  3

 72
        65
 73
         0
 40
0.0
  0
LTYPE
  5
13
100
AcDbSymbolTableRecord
100
AcDbLinetypeTableRecord
  2
CONTINUOUS
 70
        64
  3
Solid line
 72
        65
 73
         0
 40
0.0
  0
LTYPE
  5
123
100
AcDbSymbolTableRecord
100
AcDbLinetypeTableRecord
  2
CENTER
 70
        64
  3
Center ____ _ ____ _ ____ _ ____ _ ____ _ ____
 72
        65
 73
         4
 40
50.8
 49
31.75
 74
         0
 49
-6.35
 74
         0
 49
6.35
 74
         0
 49
-6.35
 74
         0
  0
ENDTAB
  0
TABLE
  2
LAYER
  5
2
100
AcDbSymbolTable
 70
         3
  0
LAYER
  5
14
100
AcDbSymbolTableRecord
100
AcDbLayerTableRecord
  2
0
 70
         0
 62
         7
  6
CONTINUOUS
  0
LAYER
  5
1D
100
AcDbSymbolTableRecord
100
AcDbLayerTableRecord
  2
PV
 70
         0
 62
         3
  6
CONTINUOUS
  0
LAYER
  5
1E
100
AcDbSymbolTableRecord
100
AcDbLayerTableRecord
  2
DEFPOINTS
 70
         0
 62
         7
  6
CONTINUOUS
  0
ENDTAB
  0
TABLE
  2
STYLE
  5
3
100
AcDbSymbolTable
 70
         3
  0
STYLE
  5
17
100
AcDbSymbolTableRecord
100
AcDbTextStyleTableRecord
  2
MX_NOTE_STANDARD
 70
         0
 40
0.0
 41
1.0
 50
0.0
 71
         0
 42
3.2000000477
  3
txt.shx
  4
extfont.shx
  0
STYLE
  5
9D
100
AcDbSymbolTableRecord
100
AcDbTextStyleTableRecord
  2
MX_DIMTXSTY_2
 70
         0
 40
0.0
 41
1.35
 50
0.0
 71
         0
 42
3.2000000477
  3
txt.shx
  4
extfont.shx
  0
STYLE
  5
BB
100
AcDbSymbolTableRecord
100
AcDbTextStyleTableRecord
  2
MX_DIMTXSTY_3
 70
         0
 40
0.0
 41
1.3
 50
0.0
 71
         0
 42
3.2000000477
  3
txt.shx
  4
extfont.shx
  0
ENDTAB
  0
TABLE
  2
VIEW
  5
5
100
AcDbSymbolTable
 70
         0
  0
ENDTAB
  0
TABLE
  2
UCS
  5
6
100
AcDbSymbolTable
 70
         0
  0
ENDTAB
  0
TABLE
  2
APPID
  5
8
100
AcDbSymbolTable
 70
         1
  0
APPID
  5
16
100
AcDbSymbolTableRecord
100
AcDbRegAppTableRecord
  2
ACAD
 70
         0
  0
ENDTAB
  0
TABLE
  2
DIMSTYLE
  5
9
100
AcDbSymbolTable
 70
         1
  0
DIMSTYLE
105
18
100
AcDbSymbolTableRecord
100
AcDbDimStyleTableRecord
  2
MXDIMSTYLE
 70
         0
  3

  4

  5

  6
_OPEN30
  7
_OPEN30
 40
1.0
 41
2.5
 42
0.0
 43
3.75
 44
2.5
 45
0.0
 46
0.0
 47
0.0
 48
0.0
 71
         0
 72
         0
 73
         0
 74
         0
 75
         0
 76
         0
 77
         1
 78
         8
140
3.2000000477
141
2.5
142
0.0
143
0.0393700787
144
1.0
145
0.0
146
1.0
147
1.0
170
         0
171
         4
172
         1
173
         1
174
         0
175
         0
176
         0
177
         0
178
         0
270
         2
271
         2
272
         2
273
         2
274
         4
275
         0
280
         0
281
         0
282
         0
283
         0
284
         0
285
         0
286
         0
287
         3
288
         0
340
17
  0
ENDTAB
  0
TABLE
  2
BLOCK_RECORD
  5
1
100
AcDbSymbolTable
 70
        12
  0
BLOCK_RECORD
  5
A
100
AcDbSymbolTableRecord
100
AcDbBlockTableRecord
  2
*MODEL_SPACE
  0
BLOCK_RECORD
  5
B
100
AcDbSymbolTableRecord
100
AcDbBlockTableRecord
  2
*PAPER_SPACE
  0
BLOCK_RECORD
  5
1F
100
AcDbSymbolTableRecord
100
AcDbBlockTableRecord
  2
ARROW
  0
BLOCK_RECORD
  5
20
100
AcDbSymbolTableRecord
100
AcDbBlockTableRecord
  2
_OPEN30
  0
BLOCK_RECORD
  5
2B
100
AcDbSymbolTableRecord
100
AcDbBlockTableRecord
  2
*D2
  0
BLOCK_RECORD
  5
3A
100
AcDbSymbolTableRecord
100
AcDbBlockTableRecord
  2
*D3
  0
BLOCK_RECORD
  5
49
100
AcDbSymbolTableRecord
100
AcDbBlockTableRecord
  2
*D4
  0
BLOCK_RECORD
  5
58
100
AcDbSymbolTableRecord
100
AcDbBlockTableRecord
  2
*D5
  0
BLOCK_RECORD
  5
67
100
AcDbSymbolTableRecord
100
AcDbBlockTableRecord
  2
*D6
  0
BLOCK_RECORD
  5
76
100
AcDbSymbolTableRecord
100
AcDbBlockTableRecord
  2
*D7
  0
BLOCK_RECORD
  5
85
100
AcDbSymbolTableRecord
100
AcDbBlockTableRecord
  2
*D8
  0
BLOCK_RECORD
  5
94
100
AcDbSymbolTableRecord
100
AcDbBlockTableRecord
  2
*D9
  0
BLOCK_RECORD
  5
A4
100
AcDbSymbolTableRecord
100
AcDbBlockTableRecord
  2
*D10
  0
BLOCK_RECORD
  5
B3
100
AcDbSymbolTableRecord
100
AcDbBlockTableRecord
  2
*D11
  0
ENDTAB
  0
ENDSEC
  0
SECTION
  2
BLOCKS
  0
BLOCK
  5
D
100
AcDbEntity
  8
0
100
AcDbBlockBegin
  2
*MODEL_SPACE
 70
         0
 10
0.0
 20
0.0
 30
0.0
  3
*MODEL_SPACE
  1

  0
ENDBLK
  5
E
100
AcDbEntity
  8
0
100
AcDbBlockEnd
  0
BLOCK
  5
F
100
AcDbEntity
 67
         1
  8
0
100
AcDbBlockBegin
  2
*PAPER_SPACE
 70
         0
 10
0.0
 20
0.0
 30
0.0
  3
*PAPER_SPACE
  1

  0
ENDBLK
  5
10
100
AcDbEntity
 67
         1
  8
0
100
AcDbBlockEnd
  0
BLOCK
  5
26
100
AcDbEntity
  8
0
100
AcDbBlockBegin
  2
ARROW
 70
         0
 10
0.0
 20
0.0
 30
0.0
  3
ARROW
  1

  0
LWPOLYLINE
  5
27
100
AcDbEntity
  8
0
  6
CONTINUOUS
 62
       193
100
AcDbPolyline
 90
        3
 70
         0
 10
2.39993738
 20
0.643061282
 10
0.0
 20
0.0
 10
2.39993738
 20
-0.643061282
  0
ENDBLK
  5
28
100
AcDbEntity
  8
0
100
AcDbBlockEnd
  0
BLOCK
  5
21
100
AcDbEntity
  8
0
  6
ByBlock
 62
         0
100
AcDbBlockBegin
  2
_OPEN30
 70
         2
 10
0.0
 20
0.0
 30
0.0
  3
_OPEN30
  1

  0
LINE
  5
22
100
AcDbEntity
  8
0
  6
ByBlock
 62
         0
100
AcDbLine
 10
-1.0
 20
0.267949
 30
0.0
 11
0.0
 21
0.0
 31
0.0
  0
LINE
  5
23
100
AcDbEntity
  8
0
  6
ByBlock
 62
         0
100
AcDbLine
 10
0.0
 20
0.0
 30
0.0
 11
-1.0
 21
-0.267949
 31
0.0
  0
LINE
  5
24
100
AcDbEntity
  8
0
  6
ByBlock
 62
         0
100
AcDbLine
 10
0.0
 20
0.0
 30
0.0
 11
-1.0
 21
0.0
 31
0.0
  0
ENDBLK
  5
25
100
AcDbEntity
  8
0
  6
ByBlock
 62
         0
100
AcDbBlockEnd
  0
BLOCK
  5
2C
100
AcDbEntity
  8
0
  6
ByBlock
 62
         0
100
AcDbBlockBegin
  2
*D2
 70
         1
 10
0.0
 20
0.0
 30
0.0
  3
*D2
  1

  0
LINE
  5
2D
100
AcDbEntity
  8
0
  6
CONTINUOUS
 62
       110
100
AcDbLine
 10
7.95195756
 20
15.0
 30
0.0
 11
7.95195756
 21
85.0
 31
0.0
  0
LINE
  5
2E
100
AcDbEntity
  8
0
  6
CONTINUOUS
 62
       110
100
AcDbLine
 10
29.9374998574
 20
15.0
 30
0.0
 11
5.95195756
 21
15.0
 31
0.0
  0
LINE
  5
2F
100
AcDbEntity
  8
0
  6
CONTINUOUS
 62
       110
100
AcDbLine
 10
29.9374998574
 20
85.0
 30
0.0
 11
5.95195756
 21
85.0
 31
0.0
  0
LINE
  5
30
100
AcDbEntity
  8
0
  6
CONTINUOUS
 62
       110
100
AcDbLine
 10
7.95195756
 20
15.0
 30
0.0
 11
7.95195756
 21
11.0
 31
0.0
  0
LINE
  5
31
100
AcDbEntity
  8
0
  6
CONTINUOUS
 62
       110
100
AcDbLine
 10
7.95195756
 20
85.0
 30
0.0
 11
7.95195756
 21
89.0
 31
0.0
  0
SOLID
  5
32
100
AcDbEntity
  8
0
  6
CONTINUOUS
 62
       110
100
AcDbTrace
 10
7.785290555
 20
13.9999999702
 30
0.0
 11
8.118624565
 21
13.9999999702
 31
0.0
 12
7.95195756
 22
15.0
 32
0.0
 13
7.95195756
 23
15.0
 33
0.0
  0
SOLID
  5
33
100
AcDbEntity
  8
0
  6
CONTINUOUS
 62
       110
100
AcDbTrace
 10
8.118624565
 20
86.0000000298
 30
0.0
 11
7.785290555
 21
86.0000000298
 31
0.0
 12
7.95195756
 22
85.0
 32
0.0
 13
7.95195756
 23
85.0
 33
0.0
  0
MTEXT
  5
34
100
AcDbEntity
  8
0
  6
CONTINUOUS
 62
       110
100
AcDbMText
 10
5.3519575362
 20
50.0249977112
 30
0.0
 40
3.2000000477
 41
0.0
 71
         5
 72
         1
  1
\A1;\U+220570
 11
0.0
 21
1.0
 31
0.0
  0
POINT
  5
35
100
AcDbEntity
  8
DEFPOINTS
  6
CONTINUOUS
 62
         0
100
AcDbPoint
 10
29.9999998574
 20
15.0
 30
0.0
  0
POINT
  5
36
100
AcDbEntity
  8
DEFPOINTS
  6
CONTINUOUS
 62
         0
100
AcDbPoint
 10
29.9999998574
 20
85.0
 30
0.0
  0
POINT
  5
37
100
AcDbEntity
  8
DEFPOINTS
  6
CONTINUOUS
 62
         0
100
AcDbPoint
 10
7.95195756
 20
85.0
 30
0.0
  0
ENDBLK
  5
38
100
AcDbEntity
  8
0
  6
ByBlock
 62
         0
100
AcDbBlockEnd
  0
BLOCK
  5
3B
100
AcDbEntity
  8
0
  6
ByBlock
 62
         0
100
AcDbBlockBegin
  2
*D3
 70
         1
 10
0.0
 20
0.0
 30
0.0
  3
*D3
  1

  0
LINE
  5
3C
100
AcDbEntity
  8
0
  6
CONTINUOUS
 62
       110
100
AcDbLine
 10
17.0644426
 20
21.0
 30
0.0
 11
17.0644426
 21
79.0000003
 31
0.0
  0
LINE
  5
3D
100
AcDbEntity
  8
0
  6
CONTINUOUS
 62
       110
100
AcDbLine
 10
29.9374999654
 20
21.0
 30
0.0
 11
15.0644426
 21
21.0
 31
0.0
  0
LINE
  5
3E
100
AcDbEntity
  8
0
  6
CONTINUOUS
 62
       110
100
AcDbLine
 10
23.9374999654
 20
79.0000003
 30
0.0
 11
15.0644426
 21
79.0000003
 31
0.0
  0
LINE
  5
3F
100
AcDbEntity
  8
0
  6
CONTINUOUS
 62
       110
100
AcDbLine
 10
17.0644426
 20
21.0
 30
0.0
 11
17.0644426
 21
17.0
 31
0.0
  0
LINE
  5
40
100
AcDbEntity
  8
0
  6
CONTINUOUS
 62
       110
100
AcDbLine
 10
17.0644426
 20
79.0000003
 30
0.0
 11
17.0644426
 21
83.0000003
 31
0.0
  0
SOLID
  5
41
100
AcDbEntity
  8
0
  6
CONTINUOUS
 62
       110
100
AcDbTrace
 10
16.897775595
 20
19.9999999702
 30
0.0
 11
17.231109605
 21
19.9999999702
 31
0.0
 12
17.0644426
 22
21.0
 32
0.0
 13
17.0644426
 23
21.0
 33
0.0
  0
SOLID
  5
42
100
AcDbEntity
  8
0
  6
CONTINUOUS
 62
       110
100
AcDbTrace
 10
17.231109605
 20
80.0000003298
 30
0.0
 11
16.897775595
 21
80.0000003298
 31
0.0
 12
17.0644426
 22
79.0000003
 32
0.0
 13
17.0644426
 23
79.0000003
 33
0.0
  0
MTEXT
  5
43
100
AcDbEntity
  8
0
  6
CONTINUOUS
 62
       110
100
AcDbMText
 10
14.4644425762
 20
50.0249996185
 30
0.0
 40
3.2000000477
 41
0.0
 71
         5
 72
         1
  1
\A1;\U+220558
 11
0.0
 21
1.0
 31
0.0
  0
POINT
  5
44
100
AcDbEntity
  8
DEFPOINTS
  6
CONTINUOUS
 62
         0
100
AcDbPoint
 10
29.9999999654
 20
21.0
 30
0.0
  0
POINT
  5
45
100
AcDbEntity
  8
DEFPOINTS
  6
CONTINUOUS
 62
         0
100
AcDbPoint
 10
23.9999999654
 20
79.0000003
 30
0.0
  0
POINT
  5
46
100
AcDbEntity
  8
DEFPOINTS
  6
CONTINUOUS
 62
         0
100
AcDbPoint
 10
17.0644426
 20
79.0000003
 30
0.0
  0
ENDBLK
  5
47
100
AcDbEntity
  8
0
  6
ByBlock
 62
         0
100
AcDbBlockEnd
  0
BLOCK
  5
4A
100
AcDbEntity
  8
0
  6
ByBlock
 62
         0
100
AcDbBlockBegin
  2
*D4
 70
         1
 10
0.0
 20
0.0
 30
0.0
  3
*D4
  1

  0
LINE
  5
4B
100
AcDbEntity
  8
0
  6
CONTINUOUS
 62
       110
100
AcDbLine
 10
97.1695441
 20
74.5
 30
0.0
 11
97.1695441
 21
25.5000003
 31
0.0
  0
LINE
  5
4C
100
AcDbEntity
  8
0
  6
CONTINUOUS
 62
       110
100
AcDbLine
 10
45.56249988
 20
74.5
 30
0.0
 11
99.1695441
 21
74.5
 31
0.0
  0
LINE
  5
4D
100
AcDbEntity
  8
0
  6
CONTINUOUS
 62
       110
100
AcDbLine
 10
45.56249988
 20
25.5000003
 30
0.0
 11
99.1695441
 21
25.5000003
 31
0.0
  0
LINE
  5
4E
100
AcDbEntity
  8
0
  6
CONTINUOUS
 62
       110
100
AcDbLine
 10
97.1695441
 20
74.5
 30
0.0
 11
97.1695441
 21
78.5
 31
0.0
  0
LINE
  5
4F
100
AcDbEntity
  8
0
  6
CONTINUOUS
 62
       110
100
AcDbLine
 10
97.1695441
 20
25.5000003
 30
0.0
 11
97.1695441
 21
21.5000003
 31
0.0
  0
SOLID
  5
50
100
AcDbEntity
  8
0
  6
CONTINUOUS
 62
       110
100
AcDbTrace
 10
97.336211105
 20
75.5000000298
 30
0.0
 11
97.002877095
 21
75.5000000298
 31
0.0
 12
97.1695441
 22
74.5
 32
0.0
 13
97.1695441
 23
74.5
 33
0.0
  0
SOLID
  5
51
100
AcDbEntity
  8
0
  6
CONTINUOUS
 62
       110
100
AcDbTrace
 10
97.002877095
 20
24.5000002702
 30
0.0
 11
97.336211105
 21
24.5000002702
 31
0.0
 12
97.1695441
 22
25.5000003
 32
0.0
 13
97.1695441
 23
25.5000003
 33
0.0
  0
MTEXT
  5
52
100
AcDbEntity
  8
0
  6
CONTINUOUS
 62
       110
100
AcDbMText
 10
94.5695440762
 20
50.0249996185
 30
0.0
 40
3.2000000477
 41
0.0
 71
         5
 72
         1
  1
\A1;\U+220549
 11
0.0
 21
1.0
 31
0.0
  0
POINT
  5
53
100
AcDbEntity
  8
DEFPOINTS
  6
CONTINUOUS
 62
         0
100
AcDbPoint
 10
45.49999988
 20
74.5
 30
0.0
  0
POINT
  5
54
100
AcDbEntity
  8
DEFPOINTS
  6
CONTINUOUS
 62
         0
100
AcDbPoint
 10
45.49999988
 20
25.5000003
 30
0.0
  0
POINT
  5
55
100
AcDbEntity
  8
DEFPOINTS
  6
CONTINUOUS
 62
         0
100
AcDbPoint
 10
97.1695441
 20
25.5000003
 30
0.0
  0
ENDBLK
  5
56
100
AcDbEntity
  8
0
  6
ByBlock
 62
         0
100
AcDbBlockEnd
  0
BLOCK
  5
59
100
AcDbEntity
  8
0
  6
ByBlock
 62
         0
100
AcDbBlockBegin
  2
*D5
 70
         1
 10
0.0
 20
0.0
 30
0.0
  3
*D5
  1

  0
LINE
  5
5A
100
AcDbEntity
  8
0
  6
CONTINUOUS
 62
       110
100
AcDbLine
 10
87.8451407
 20
72.0
 30
0.0
 11
87.8451407
 21
27.9999996
 31
0.0
  0
LINE
  5
5B
100
AcDbEntity
  8
0
  6
CONTINUOUS
 62
       110
100
AcDbLine
 10
63.0625002428
 20
72.0
 30
0.0
 11
89.8451407
 21
72.0
 31
0.0
  0
LINE
  5
5C
100
AcDbEntity
  8
0
  6
CONTINUOUS
 62
       110
100
AcDbLine
 10
63.0625002428
 20
27.9999996
 30
0.0
 11
89.8451407
 21
27.9999996
 31
0.0
  0
LINE
  5
5D
100
AcDbEntity
  8
0
  6
CONTINUOUS
 62
       110
100
AcDbLine
 10
87.8451407
 20
72.0
 30
0.0
 11
87.8451407
 21
76.0
 31
0.0
  0
LINE
  5
5E
100
AcDbEntity
  8
0
  6
CONTINUOUS
 62
       110
100
AcDbLine
 10
87.8451407
 20
27.9999996
 30
0.0
 11
87.8451407
 21
23.9999996
 31
0.0
  0
SOLID
  5
5F
100
AcDbEntity
  8
0
  6
CONTINUOUS
 62
       110
100
AcDbTrace
 10
88.011807705
 20
73.0000000298
 30
0.0
 11
87.678473695
 21
73.0000000298
 31
0.0
 12
87.8451407
 22
72.0
 32
0.0
 13
87.8451407
 23
72.0
 33
0.0
  0
SOLID
  5
60
100
AcDbEntity
  8
0
  6
CONTINUOUS
 62
       110
100
AcDbTrace
 10
87.678473695
 20
26.9999995702
 30
0.0
 11
88.011807705
 21
26.9999995702
 31
0.0
 12
87.8451407
 22
27.9999996
 32
0.0
 13
87.8451407
 23
27.9999996
 33
0.0
  0
MTEXT
  5
61
100
AcDbEntity
  8
0
  6
CONTINUOUS
 62
       110
100
AcDbMText
 10
85.2451406762
 20
50.0249996185
 30
0.0
 40
3.2000000477
 41
0.0
 71
         5
 72
         1
  1
\A1;\U+220544
 11
0.0
 21
1.0
 31
0.0
  0
POINT
  5
62
100
AcDbEntity
  8
DEFPOINTS
  6
CONTINUOUS
 62
         0
100
AcDbPoint
 10
63.0000002428
 20
72.0
 30
0.0
  0
POINT
  5
63
100
AcDbEntity
  8
DEFPOINTS
  6
CONTINUOUS
 62
         0
100
AcDbPoint
 10
63.0000002428
 20
27.9999996
 30
0.0
  0
POINT
  5
64
100
AcDbEntity
  8
DEFPOINTS
  6
CONTINUOUS
 62
         0
100
AcDbPoint
 10
87.8451407
 20
27.9999996
 30
0.0
  0
ENDBLK
  5
65
100
AcDbEntity
  8
0
  6
ByBlock
 62
         0
100
AcDbBlockEnd
  0
BLOCK
  5
68
100
AcDbEntity
  8
0
  6
ByBlock
 62
         0
100
AcDbBlockBegin
  2
*D6
 70
         1
 10
0.0
 20
0.0
 30
0.0
  3
*D6
  1

  0
LINE
  5
69
100
AcDbEntity
  8
0
  6
CONTINUOUS
 62
       110
100
AcDbLine
 10
78.3088191
 20
69.0
 30
0.0
 11
78.3088191
 21
31.0
 31
0.0
  0
LINE
  5
6A
100
AcDbEntity
  8
0
  6
CONTINUOUS
 62
       110
100
AcDbLine
 10
63.0625002829
 20
69.0
 30
0.0
 11
80.3088191
 21
69.0
 31
0.0
  0
LINE
  5
6B
100
AcDbEntity
  8
0
  6
CONTINUOUS
 62
       110
100
AcDbLine
 10
63.0625002829
 20
31.0
 30
0.0
 11
80.3088191
 21
31.0
 31
0.0
  0
LINE
  5
6C
100
AcDbEntity
  8
0
  6
CONTINUOUS
 62
       110
100
AcDbLine
 10
78.3088191
 20
69.0
 30
0.0
 11
78.3088191
 21
73.0
 31
0.0
  0
LINE
  5
6D
100
AcDbEntity
  8
0
  6
CONTINUOUS
 62
       110
100
AcDbLine
 10
78.3088191
 20
31.0
 30
0.0
 11
78.3088191
 21
27.0
 31
0.0
  0
SOLID
  5
6E
100
AcDbEntity
  8
0
  6
CONTINUOUS
 62
       110
100
AcDbTrace
 10
78.475486105
 20
70.0000000298
 30
0.0
 11
78.142152095
 21
70.0000000298
 31
0.0
 12
78.3088191
 22
69.0
 32
0.0
 13
78.3088191
 23
69.0
 33
0.0
  0
SOLID
  5
6F
100
AcDbEntity
  8
0
  6
CONTINUOUS
 62
       110
100
AcDbTrace
 10
78.142152095
 20
29.9999999702
 30
0.0
 11
78.475486105
 21
29.9999999702
 31
0.0
 12
78.3088191
 22
31.0
 32
0.0
 13
78.3088191
 23
31.0
 33
0.0
  0
MTEXT
  5
70
100
AcDbEntity
  8
0
  6
CONTINUOUS
 62
       110
100
AcDbMText
 10
75.7088190762
 20
50.0249996185
 30
0.0
 40
3.2000000477
 41
0.0
 71
         5
 72
         1
  1
\A1;\U+220538
 11
0.0
 21
1.0
 31
0.0
  0
POINT
  5
71
100
AcDbEntity
  8
DEFPOINTS
  6
CONTINUOUS
 62
         0
100
AcDbPoint
 10
63.0000002829
 20
69.0
 30
0.0
  0
POINT
  5
72
100
AcDbEntity
  8
DEFPOINTS
  6
CONTINUOUS
 62
         0
100
AcDbPoint
 10
63.0000002829
 20
31.0
 30
0.0
  0
POINT
  5
73
100
AcDbEntity
  8
DEFPOINTS
  6
CONTINUOUS
 62
         0
100
AcDbPoint
 10
78.3088191
 20
31.0
 30
0.0
  0
ENDBLK
  5
74
100
AcDbEntity
  8
0
  6
ByBlock
 62
         0
100
AcDbBlockEnd
  0
BLOCK
  5
77
100
AcDbEntity
  8
0
  6
ByBlock
 62
         0
100
AcDbBlockBegin
  2
*D7
 70
         1
 10
0.0
 20
0.0
 30
0.0
  3
*D7
  1

  0
LINE
  5
78
100
AcDbEntity
  8
0
  6
CONTINUOUS
 62
       110
100
AcDbLine
 10
24.0
 20
95.0476039
 30
0.0
 11
63.0
 21
95.0476039
 31
0.0
  0
LINE
  5
79
100
AcDbEntity
  8
0
  6
CONTINUOUS
 62
       110
100
AcDbLine
 10
24.0
 20
79.0625002928
 30
0.0
 11
24.0
 21
97.0476039
 31
0.0
  0
LINE
  5
7A
100
AcDbEntity
  8
0
  6
CONTINUOUS
 62
       110
100
AcDbLine
 10
63.0
 20
72.0625002928
 30
0.0
 11
63.0
 21
97.0476039
 31
0.0
  0
LINE
  5
7B
100
AcDbEntity
  8
0
  6
CONTINUOUS
 62
       110
100
AcDbLine
 10
24.0
 20
95.0476039
 30
0.0
 11
20.0
 21
95.0476039
 31
0.0
  0
LINE
  5
7C
100
AcDbEntity
  8
0
  6
CONTINUOUS
 62
       110
100
AcDbLine
 10
63.0
 20
95.0476039
 30
0.0
 11
67.0
 21
95.0476039
 31
0.0
  0
SOLID
  5
7D
100
AcDbEntity
  8
0
  6
CONTINUOUS
 62
       110
100
AcDbTrace
 10
22.9999999702
 20
95.214270905
 30
0.0
 11
22.9999999702
 21
94.880936895
 31
0.0
 12
24.0
 22
95.0476039
 32
0.0
 13
24.0
 23
95.0476039
 33
0.0
  0
SOLID
  5
7E
100
AcDbEntity
  8
0
  6
CONTINUOUS
 62
       110
100
AcDbTrace
 10
64.0000000298
 20
94.880936895
 30
0.0
 11
64.0000000298
 21
95.214270905
 31
0.0
 12
63.0
 22
95.0476039
 32
0.0
 13
63.0
 23
95.0476039
 33
0.0
  0
MTEXT
  5
7F
100
AcDbEntity
  8
0
  6
CONTINUOUS
 62
       110
100
AcDbMText
 10
43.5249996185
 20
97.6476039238
 30
0.0
 40
3.2000000477
 41
0.0
 71
         5
 72
         1
  1
\A1;39
  0
POINT
  5
80
100
AcDbEntity
  8
DEFPOINTS
  6
CONTINUOUS
 62
         0
100
AcDbPoint
 10
24.0
 20
79.0000002928
 30
0.0
  0
POINT
  5
81
100
AcDbEntity
  8
DEFPOINTS
  6
CONTINUOUS
 62
         0
100
AcDbPoint
 10
63.0
 20
72.0000002928
 30
0.0
  0
POINT
  5
82
100
AcDbEntity
  8
DEFPOINTS
  6
CONTINUOUS
 62
         0
100
AcDbPoint
 10
63.0
 20
95.0476039
 30
0.0
  0
ENDBLK
  5
83
100
AcDbEntity
  8
0
  6
ByBlock
 62
         0
100
AcDbBlockEnd
  0
BLOCK
  5
86
100
AcDbEntity
  8
0
  6
ByBlock
 62
         0
100
AcDbBlockBegin
  2
*D8
 70
         1
 10
0.0
 20
0.0
 30
0.0
  3
*D8
  1

  0
LINE
  5
87
100
AcDbEntity
  8
0
  6
CONTINUOUS
 62
       110
100
AcDbLine
 10
63.0
 20
-5.18973199
 30
0.0
 11
40.0
 21
-5.18973199
 31
0.0
  0
LINE
  5
88
100
AcDbEntity
  8
0
  6
CONTINUOUS
 62
       110
100
AcDbLine
 10
63.0
 20
27.9374996079
 30
0.0
 11
63.0
 21
-7.18973199
 31
0.0
  0
LINE
  5
89
100
AcDbEntity
  8
0
  6
CONTINUOUS
 62
       110
100
AcDbLine
 10
40.0
 20
14.9374996079
 30
0.0
 11
40.0
 21
-7.18973199
 31
0.0
  0
LINE
  5
8A
100
AcDbEntity
  8
0
  6
CONTINUOUS
 62
       110
100
AcDbLine
 10
63.0
 20
-5.18973199
 30
0.0
 11
67.0
 21
-5.18973199
 31
0.0
  0
LINE
  5
8B
100
AcDbEntity
  8
0
  6
CONTINUOUS
 62
       110
100
AcDbLine
 10
40.0
 20
-5.18973199
 30
0.0
 11
36.0
 21
-5.18973199
 31
0.0
  0
SOLID
  5
8C
100
AcDbEntity
  8
0
  6
CONTINUOUS
 62
       110
100
AcDbTrace
 10
64.0000000298
 20
-5.356398995
 30
0.0
 11
64.0000000298
 21
-5.023064985
 31
0.0
 12
63.0
 22
-5.18973199
 32
0.0
 13
63.0
 23
-5.18973199
 33
0.0
  0
SOLID
  5
8D
100
AcDbEntity
  8
0
  6
CONTINUOUS
 62
       110
100
AcDbTrace
 10
38.9999999702
 20
-5.023064985
 30
0.0
 11
38.9999999702
 21
-5.356398995
 31
0.0
 12
40.0
 22
-5.18973199
 32
0.0
 13
40.0
 23
-5.18973199
 33
0.0
  0
MTEXT
  5
8E
100
AcDbEntity
  8
0
  6
CONTINUOUS
 62
       110
100
AcDbMText
 10
51.5250005722
 20
-2.5897319662
 30
0.0
 40
3.2000000477
 41
0.0
 71
         5
 72
         1
  1
\A1;23
 11
1.0
 21
0.0
 31
0.0
  0
POINT
  5
8F
100
AcDbEntity
  8
DEFPOINTS
  6
CONTINUOUS
 62
         0
100
AcDbPoint
 10
63.0
 20
27.9999996079
 30
0.0
  0
POINT
  5
90
100
AcDbEntity
  8
DEFPOINTS
  6
CONTINUOUS
 62
         0
100
AcDbPoint
 10
40.0
 20
14.9999996079
 30
0.0
  0
POINT
  5
91
100
AcDbEntity
  8
DEFPOINTS
  6
CONTINUOUS
 62
         0
100
AcDbPoint
 10
40.0
 20
-5.18973199
 30
0.0
  0
ENDBLK
  5
92
100
AcDbEntity
  8
0
  6
ByBlock
 62
         0
100
AcDbBlockEnd
  0
BLOCK
  5
95
100
AcDbEntity
  8
0
  6
ByBlock
 62
         0
100
AcDbBlockBegin
  2
*D9
 70
         1
 10
0.0
 20
0.0
 30
0.0
  3
*D9
  1

  0
LINE
  5
96
100
AcDbEntity
  8
0
  6
CONTINUOUS
 62
       110
100
AcDbLine
 10
40.0
 20
-5.18973199
 30
0.0
 11
30.0
 21
-5.18973199
 31
0.0
  0
LINE
  5
97
100
AcDbEntity
  8
0
  6
CONTINUOUS
 62
       110
100
AcDbLine
 10
40.0
 20
14.9374996079
 30
0.0
 11
40.0
 21
-7.18973199
 31
0.0
  0
LINE
  5
98
100
AcDbEntity
  8
0
  6
CONTINUOUS
 62
       110
100
AcDbLine
 10
30.0
 20
14.9374996079
 30
0.0
 11
30.0
 21
-7.18973199
 31
0.0
  0
LINE
  5
99
100
AcDbEntity
  8
0
  6
CONTINUOUS
 62
       110
100
AcDbLine
 10
40.0
 20
-5.18973199
 30
0.0
 11
44.0
 21
-5.18973199
 31
0.0
  0
LINE
  5
9A
100
AcDbEntity
  8
0
  6
CONTINUOUS
 62
       110
100
AcDbLine
 10
30.0
 20
-5.18973199
 30
0.0
 11
26.0
 21
-5.18973199
 31
0.0
  0
SOLID
  5
9B
100
AcDbEntity
  8
0
  6
CONTINUOUS
 62
       110
100
AcDbTrace
 10
41.0000000298
 20
-5.356398995
 30
0.0
 11
41.0000000298
 21
-5.023064985
 31
0.0
 12
40.0
 22
-5.18973199
 32
0.0
 13
40.0
 23
-5.18973199
 33
0.0
  0
SOLID
  5
9C
100
AcDbEntity
  8
0
  6
CONTINUOUS
 62
       110
100
AcDbTrace
 10
28.9999999702
 20
-5.023064985
 30
0.0
 11
28.9999999702
 21
-5.356398995
 31
0.0
 12
30.0
 22
-5.18973199
 32
0.0
 13
30.0
 23
-5.18973199
 33
0.0
  0
MTEXT
  5
9E
100
AcDbEntity
  8
0
  6
CONTINUOUS
 62
       110
100
AcDbMText
 10
35.0250000954
 20
-2.5897319662
 30
0.0
 40
3.2000000477
 41
0.0
 71
         5
 72
         1
  1
\A1;10
  7
MX_DIMTXSTY_2
 11
1.0
 21
0.0
 31
0.0
  0
POINT
  5
9F
100
AcDbEntity
  8
DEFPOINTS
  6
CONTINUOUS
 62
         0
100
AcDbPoint
 10
40.0
 20
14.9999996079
 30
0.0
  0
POINT
  5
A0
100
AcDbEntity
  8
DEFPOINTS
  6
CONTINUOUS
 62
         0
100
AcDbPoint
 10
30.0
 20
14.9999996079
 30
0.0
  0
POINT
  5
A1
100
AcDbEntity
  8
DEFPOINTS
  6
CONTINUOUS
 62
         0
100
AcDbPoint
 10
30.0
 20
-5.18973199
 30
0.0
  0
ENDBLK
  5
A2
100
AcDbEntity
  8
0
  6
ByBlock
 62
         0
100
AcDbBlockEnd
  0
BLOCK
  5
A5
100
AcDbEntity
  8
0
  6
ByBlock
 62
         0
100
AcDbBlockBegin
  2
*D10
 70
         1
 10
0.0
 20
0.0
 30
0.0
  3
*D10
  1

  0
LINE
  5
A6
100
AcDbEntity
  8
0
  6
CONTINUOUS
 62
       110
100
AcDbLine
 10
63.0
 20
4.77042613
 30
0.0
 11
45.5
 21
4.77042613
 31
0.0
  0
LINE
  5
A7
100
AcDbEntity
  8
0
  6
CONTINUOUS
 62
       110
100
AcDbLine
 10
63.0
 20
27.9375003335
 30
0.0
 11
63.0
 21
2.77042613
 31
0.0
  0
LINE
  5
A8
100
AcDbEntity
  8
0
  6
CONTINUOUS
 62
       110
100
AcDbLine
 10
45.5
 20
25.4375003335
 30
0.0
 11
45.5
 21
2.77042613
 31
0.0
  0
LINE
  5
A9
100
AcDbEntity
  8
0
  6
CONTINUOUS
 62
       110
100
AcDbLine
 10
63.0
 20
4.77042613
 30
0.0
 11
67.0
 21
4.77042613
 31
0.0
  0
LINE
  5
AA
100
AcDbEntity
  8
0
  6
CONTINUOUS
 62
       110
100
AcDbLine
 10
45.5
 20
4.77042613
 30
0.0
 11
41.5
 21
4.77042613
 31
0.0
  0
SOLID
  5
AB
100
AcDbEntity
  8
0
  6
CONTINUOUS
 62
       110
100
AcDbTrace
 10
64.0000000298
 20
4.603759125
 30
0.0
 11
64.0000000298
 21
4.937093135
 31
0.0
 12
63.0
 22
4.77042613
 32
0.0
 13
63.0
 23
4.77042613
 33
0.0
  0
SOLID
  5
AC
100
AcDbEntity
  8
0
  6
CONTINUOUS
 62
       110
100
AcDbTrace
 10
44.4999999702
 20
4.937093135
 30
0.0
 11
44.4999999702
 21
4.603759125
 31
0.0
 12
45.5
 22
4.77042613
 32
0.0
 13
45.5
 23
4.77042613
 33
0.0
  0
MTEXT
  5
AD
100
AcDbEntity
  8
0
  6
CONTINUOUS
 62
       110
100
AcDbMText
 10
54.2750005722
 20
7.3704261538
 30
0.0
 40
3.2000000477
 41
0.0
 71
         5
 72
         1
  1
\A1;17.5
  7
MX_DIMTXSTY_2
 11
1.0
 21
0.0
 31
0.0
  0
POINT
  5
AE
100
AcDbEntity
  8
DEFPOINTS
  6
CONTINUOUS
 62
         0
100
AcDbPoint
 10
63.0
 20
28.0000003335
 30
0.0
  0
POINT
  5
AF
100
AcDbEntity
  8
DEFPOINTS
  6
CONTINUOUS
 62
         0
100
AcDbPoint
 10
45.5
 20
25.5000003335
 30
0.0
  0
POINT
  5
B0
100
AcDbEntity
  8
DEFPOINTS
  6
CONTINUOUS
 62
         0
100
AcDbPoint
 10
45.5
 20
4.77042613
 30
0.0
  0
ENDBLK
  5
B1
100
AcDbEntity
  8
0
  6
ByBlock
 62
         0
100
AcDbBlockEnd
  0
BLOCK
  5
B4
100
AcDbEntity
  8
0
  6
ByBlock
 62
         0
100
AcDbBlockBegin
  2
*D11
 70
         1
 10
0.0
 20
0.0
 30
0.0
  3
*D11
  1

  0
LINE
  5
B5
100
AcDbEntity
  8
0
  6
CONTINUOUS
 62
       110
100
AcDbLine
 10
45.5
 20
4.77042613
 30
0.0
 11
43.0
 21
4.77042613
 31
0.0
  0
LINE
  5
B6
100
AcDbEntity
  8
0
  6
CONTINUOUS
 62
       110
100
AcDbLine
 10
43.0
 20
4.77042613
 30
0.0
 11
30.0905772448
 21
4.77042613
 31
0.0
  0
LINE
  5
B7
100
AcDbEntity
  8
0
  6
CONTINUOUS
 62
       110
100
AcDbLine
 10
45.5
 20
25.4375003335
 30
0.0
 11
45.5
 21
2.77042613
 31
0.0
  0
LINE
  5
B8
100
AcDbEntity
  8
0
  6
CONTINUOUS
 62
       110
100
AcDbLine
 10
43.0
 20
25.4375003335
 30
0.0
 11
43.0
 21
2.77042613
 31
0.0
  0
SOLID
  5
B9
100
AcDbEntity
  8
0
  6
CONTINUOUS
 62
       110
100
AcDbTrace
 10
44.4999999702
 20
4.937093135
 30
0.0
 11
44.4999999702
 21
4.603759125
 31
0.0
 12
45.5
 22
4.77042613
 32
0.0
 13
45.5
 23
4.77042613
 33
0.0
  0
SOLID
  5
BA
100
AcDbEntity
  8
0
  6
CONTINUOUS
 62
       110
100
AcDbTrace
 10
44.0000000298
 20
4.603759125
 30
0.0
 11
44.0000000298
 21
4.937093135
 31
0.0
 12
43.0
 22
4.77042613
 32
0.0
 13
43.0
 23
4.77042613
 33
0.0
  0
MTEXT
  5
BC
100
AcDbEntity
  8
0
  6
CONTINUOUS
 62
       110
100
AcDbMText
 10
34.8905773163
 20
7.3704261538
 30
0.0
 40
3.2000000477
 41
0.0
 71
         5
 72
         1
  1
\A1;2.5
  7
MX_DIMTXSTY_3
 11
1.0
 21
0.0
 31
0.0
  0
POINT
  5
BD
100
AcDbEntity
  8
DEFPOINTS
  6
CONTINUOUS
 62
         0
100
AcDbPoint
 10
45.5
 20
25.5000003335
 30
0.0
  0
POINT
  5
BE
100
AcDbEntity
  8
DEFPOINTS
  6
CONTINUOUS
 62
         0
100
AcDbPoint
 10
43.0
 20
25.5000003335
 30
0.0
  0
POINT
  5
BF
100
AcDbEntity
  8
DEFPOINTS
  6
CONTINUOUS
 62
         0
100
AcDbPoint
 10
43.0
 20
4.77042613
 30
0.0
  0
ENDBLK
  5
C0
100
AcDbEntity
  8
0
  6
ByBlock
 62
         0
100
AcDbBlockEnd
  0
ENDSEC
  0
SECTION
  2
ENTITIES
  0
MTEXT
  5
29
100
AcDbEntity
  8
0
  6
CONTINUOUS
 62
       110
100
AcDbMText
 10
-12.3860910171
 20
-21.7481241498
 30
0.0
 40
3.2000000477
 41
0.0
 71
         1
 72
         1
  1
\T1.025;\W1.058;\A1;TSUBAKI
  0
MTEXT
  5
2A
100
AcDbEntity
  8
0
  6
CONTINUOUS
 62
       110
100
AcDbMText
 10
-23.1669252171
 20
-51.6849998498
 30
0.0
 40
3.2000000477
 41
0.0
 71
         1
 72
         1
  1
\T1.025;\W1.058;\A1;TSUBAKI
  0
DIMENSION
  5
39
100
AcDbEntity
  8
PV
  6
CONTINUOUS
 62
       110
100
AcDbDimension
  2
*D2
 10
7.95195756
 20
85.0
 30
0.0
 11
7.95195756
 21
50.0249977112
 31
0.0
 70
       128
  1
\A1;\U+2205<>
  3
MXDIMSTYLE
100
AcDbAlignedDimension
 13
29.9999998574
 23
15.0
 33
0.0
 14
29.9999998574
 24
85.0
 34
0.0
 50
90.0
100
AcDbRotatedDimension
1001
ACAD
1000
DSTYLE
1002
{
1070
         6
1000
SOLID
1070
         7
1000
SOLID
1070
        41
1040
1.0000000298
1070
        42
1040
0.0625
1070
        44
1040
2.0
1070
       271
1070
         4
1070
       284
1070
         8
1070
       343
1005
0
1070
       344
1005
0
1002
}
  0
DIMENSION
  5
48
100
AcDbEntity
  8
PV
  6
CONTINUOUS
 62
       110
100
AcDbDimension
  2
*D3
 10
17.0644426
 20
79.0000003
 30
0.0
 11
17.0644426
 21
50.0249996185
 31
0.0
 70
       128
  1
\A1;\U+2205<>
  3
MXDIMSTYLE
100
AcDbAlignedDimension
 13
29.9999999654
 23
21.0
 33
0.0
 14
23.9999999654
 24
79.0000003
 34
0.0
 50
90.0
100
AcDbRotatedDimension
1001
ACAD
1000
DSTYLE
1002
{
1070
         6
1000
SOLID
1070
         7
1000
SOLID
1070
        41
1040
1.0000000298
1070
        42
1040
0.0625
1070
        44
1040
2.0
1070
       271
1070
         4
1070
       284
1070
         8
1070
       343
1005
0
1070
       344
1005
0
1002
}
  0
DIMENSION
  5
57
100
AcDbEntity
  8
PV
  6
CONTINUOUS
 62
       110
100
AcDbDimension
  2
*D4
 10
97.1695441
 20
25.5000003
 30
0.0
 11
97.1695441
 21
50.0249996185
 31
0.0
 70
       128
  1
\A1;\U+2205<>
  3
MXDIMSTYLE
100
AcDbAlignedDimension
 13
45.49999988
 23
74.5
 33
0.0
 14
45.49999988
 24
25.5000003
 34
0.0
 50
90.0
100
AcDbRotatedDimension
1001
ACAD
1000
DSTYLE
1002
{
1070
         6
1000
SOLID
1070
         7
1000
SOLID
1070
        41
1040
1.0000000298
1070
        42
1040
0.0625
1070
        44
1040
2.0
1070
       271
1070
         4
1070
       284
1070
         8
1070
       343
1005
0
1070
       344
1005
0
1002
}
  0
DIMENSION
  5
66
100
AcDbEntity
  8
PV
  6
CONTINUOUS
 62
       110
100
AcDbDimension
  2
*D5
 10
87.8451407
 20
27.9999996
 30
0.0
 11
87.8451407
 21
50.0249996185
 31
0.0
 70
       128
  1
\A1;\U+2205<>
  3
MXDIMSTYLE
100
AcDbAlignedDimension
 13
63.0000002428
 23
72.0
 33
0.0
 14
63.0000002428
 24
27.9999996
 34
0.0
 50
90.0
100
AcDbRotatedDimension
1001
ACAD
1000
DSTYLE
1002
{
1070
         6
1000
SOLID
1070
         7
1000
SOLID
1070
        41
1040
1.0000000298
1070
        42
1040
0.0625
1070
        44
1040
2.0
1070
       271
1070
         4
1070
       284
1070
         8
1070
       343
1005
0
1070
       344
1005
0
1002
}
  0
DIMENSION
  5
75
100
AcDbEntity
  8
PV
  6
CONTINUOUS
 62
       110
100
AcDbDimension
  2
*D6
 10
78.3088191
 20
31.0
 30
0.0
 11
78.3088191
 21
50.0249996185
 31
0.0
 70
       128
  1
\A1;\U+2205<>
  3
MXDIMSTYLE
100
AcDbAlignedDimension
 13
63.0000002829
 23
69.0
 33
0.0
 14
63.0000002829
 24
31.0
 34
0.0
 50
90.0
100
AcDbRotatedDimension
1001
ACAD
1000
DSTYLE
1002
{
1070
         6
1000
SOLID
1070
         7
1000
SOLID
1070
        41
1040
1.0000000298
1070
        42
1040
0.0625
1070
        44
1040
2.0
1070
       271
1070
         4
1070
       284
1070
         8
1070
       343
1005
0
1070
       344
1005
0
1002
}
  0
DIMENSION
  5
84
100
AcDbEntity
  8
PV
  6
CONTINUOUS
 62
       110
100
AcDbDimension
  2
*D7
 10
63.0
 20
95.0476039
 30
0.0
 11
43.5249996185
 21
95.0476039
 31
0.0
 70
       128
  1
\A1;<>
  3
MXDIMSTYLE
100
AcDbAlignedDimension
 13
24.0
 23
79.0000002928
 33
0.0
 14
63.0
 24
72.0000002928
 34
0.0
100
AcDbRotatedDimension
1001
ACAD
1000
DSTYLE
1002
{
1070
         6
1000
SOLID
1070
         7
1000
SOLID
1070
        41
1040
1.0000000298
1070
        42
1040
0.0625
1070
        44
1040
2.0
1070
       271
1070
         4
1070
       284
1070
         8
1070
       343
1005
0
1070
       344
1005
0
1002
}
  0
DIMENSION
  5
93
100
AcDbEntity
  8
PV
  6
CONTINUOUS
 62
       110
100
AcDbDimension
  2
*D8
 10
40.0
 20
-5.18973199
 30
0.0
 11
51.5250005722
 21
-5.18973199
 31
0.0
 70
       128
  1
\A1;<>
  3
MXDIMSTYLE
100
AcDbAlignedDimension
 13
63.0
 23
27.9999996079
 33
0.0
 14
40.0
 24
14.9999996079
 34
0.0
100
AcDbRotatedDimension
1001
ACAD
1000
DSTYLE
1002
{
1070
         6
1000
SOLID
1070
         7
1000
SOLID
1070
        41
1040
1.0000000298
1070
        42
1040
0.0625
1070
        44
1040
2.0
1070
       271
1070
         4
1070
       284
1070
         8
1070
       343
1005
0
1070
       344
1005
0
1002
}
  0
DIMENSION
  5
A3
100
AcDbEntity
  8
PV
  6
CONTINUOUS
 62
       110
100
AcDbDimension
  2
*D9
 10
30.0
 20
-5.18973199
 30
0.0
 11
35.0250000954
 21
-5.18973199
 31
0.0
 70
       128
  1
\A1;<>
  3
MXDIMSTYLE
100
AcDbAlignedDimension
 13
40.0
 23
14.9999996079
 33
0.0
 14
30.0
 24
14.9999996079
 34
0.0
100
AcDbRotatedDimension
1001
ACAD
1000
DSTYLE
1002
{
1070
         6
1000
SOLID
1070
         7
1000
SOLID
1070
        41
1040
1.0000000298
1070
        42
1040
0.0625
1070
        44
1040
2.0
1070
       271
1070
         4
1070
       284
1070
         8
1070
       340
1005
9D
1070
       343
1005
0
1070
       344
1005
0
1002
}
  0
DIMENSION
  5
B2
100
AcDbEntity
  8
PV
  6
CONTINUOUS
 62
       110
100
AcDbDimension
  2
*D10
 10
45.5
 20
4.77042613
 30
0.0
 11
54.2750005722
 21
4.77042613
 31
0.0
 70
       128
  1
\A1;<>
  3
MXDIMSTYLE
100
AcDbAlignedDimension
 13
63.0
 23
28.0000003335
 33
0.0
 14
45.5
 24
25.5000003335
 34
0.0
100
AcDbRotatedDimension
1001
ACAD
1000
DSTYLE
1002
{
1070
         6
1000
SOLID
1070
         7
1000
SOLID
1070
        41
1040
1.0000000298
1070
        42
1040
0.0625
1070
        44
1040
2.0
1070
       271
1070
         4
1070
       284
1070
         8
1070
       340
1005
9D
1070
       343
1005
0
1070
       344
1005
0
1002
}
  0
DIMENSION
  5
C1
100
AcDbEntity
  8
PV
  6
CONTINUOUS
 62
       110
100
AcDbDimension
  2
*D11
 10
43.0
 20
4.77042613
 30
0.0
 11
34.8905773163
 21
4.77042613
 31
0.0
 70
       128
  1
\A1;<>
  3
MXDIMSTYLE
100
AcDbAlignedDimension
 13
45.5
 23
25.5000003335
 33
0.0
 14
43.0
 24
25.5000003335
 34
0.0
100
AcDbRotatedDimension
1001
ACAD
1000
DSTYLE
1002
{
1070
         6
1000
SOLID
1070
         7
1000
SOLID
1070
        41
1040
1.0000000298
1070
        42
1040
0.0625
1070
        44
1040
2.0
1070
       271
1070
         4
1070
       284
1070
         8
1070
       340
1005
BB
1070
       343
1005
0
1070
       344
1005
0
1002
}
  0
LWPOLYLINE
  5
C2
100
AcDbEntity
  8
PV
  6
CONTINUOUS
 62
         3
100
AcDbPolyline
 90
        3
 70
         0
 10
-58.3369801
 20
80.2542063
 10
-57.0410272
 20
78.0123563
 10
-57.0424303
 20
80.6018318
  0
LINE
  5
C3
100
AcDbEntity
  8
PV
  6
CONTINUOUS
 62
         3
100
AcDbLine
 10
-57.0410272
 20
78.0123563
 30
0.0
 11
-65.121
 21
108.102
 31
0.0
  0
LINE
  5
C4
100
AcDbEntity
  8
PV
  6
CONTINUOUS
 62
         3
100
AcDbLine
 10
-65.121
 20
108.102
 30
0.0
 11
-75.911
 21
108.102
 31
0.0
  0
MTEXT
  5
C5
100
AcDbEntity
  8
PV
  6
CONTINUOUS
 62
       110
100
AcDbMText
 10
26.749666738
 20
-69.4000000882
 30
0.0
 40
3.2000000477
 41
0.0
 71
         1
 72
         1
  1
\A1;6-M6X28
  0
MTEXT
  5
C6
100
AcDbEntity
  8
PV
  6
CONTINUOUS
 62
       110
100
AcDbMText
 10
-91.7924519285
 20
-63.5669998498
 30
0.0
 40
3.2000000477
 41
0.0
 71
         1
 72
         1
  1
\T1.017;\W1.071;\A1;MODEL NUMBER
  0
MTEXT
  5
C7
100
AcDbEntity
  8
PV
  6
CONTINUOUS
 62
       110
100
AcDbMText
 10
-23.2147113088
 20
-57.6849998498
 30
0.0
 40
3.2000000477
 41
0.0
 71
         1
 72
         1
  1
\T1.003;\W1.067;\A1;POWER LOCK
  0
MTEXT
  5
C8
100
AcDbEntity
  8
PV
  6
CONTINUOUS
 62
       110
100
AcDbMText
 10
26.766333407
 20
-63.4000000882
 30
0.0
 40
3.2000000477
 41
0.0
 71
         1
 72
         1
  1
\W1.031;\A1;PL038X044EF
  0
MTEXT
  5
C9
100
AcDbEntity
  8
PV
  6
CONTINUOUS
 62
       110
100
AcDbMText
 10
-91.7168110764
 20
-69.5669998498
 30
0.0
 40
3.2000000477
 41
0.0
 71
         1
 72
         1
  1
\T1.047;\W1.149;\A1;QUANTITY AND SIZE OF LOCKING BOLTS
  0
MTEXT
  5
CA
100
AcDbEntity
  8
PV
  6
CONTINUOUS
 62
       110
100
AcDbMText
 10
26.2900176194
 20
-105.4000000882
 30
0.0
 40
3.2000000477
 41
0.0
 71
         1
 72
         1
  1
\W1.263;\A1;0.33
  0
MTEXT
  5
CB
100
AcDbEntity
  8
PV
  6
CONTINUOUS
 62
       110
100
AcDbMText
 10
29.4163334146
 20
-99.4000000882
 30
0.0
 40
3.2000000477
 41
0.0
 71
         1
 72
         1
  1
\W1.125;\A1;200
  0
MTEXT
  5
CC
100
AcDbEntity
  8
PV
  6
CONTINUOUS
 62
       110
100
AcDbMText
 10
29.4163334012
 20
-93.4000000882
 30
0.0
 40
3.2000000477
 41
0.0
 71
         1
 72
         1
  1
\W1.125;\A1;231
  0
MTEXT
  5
CD
100
AcDbEntity
  8
PV
  6
CONTINUOUS
 62
       110
100
AcDbMText
 10
26.3274445114
 20
-87.4000000882
 30
0.0
 40
3.2000000477
 41
0.0
 71
         1
 72
         1
  1
\W1.333;\A1;36.1
  0
MTEXT
  5
CE
100
AcDbEntity
  8
PV
  6
CONTINUOUS
 62
       110
100
AcDbMText
 10
29.349666738
 20
-81.4000000882
 30
0.0
 40
3.2000000477
 41
0.0
 71
         1
 72
         1
  1
\A1;686
  0
MTEXT
  5
CF
100
AcDbEntity
  8
PV
  6
CONTINUOUS
 62
       110
100
AcDbMText
 10
26.3274445114
 20
-75.4000000882
 30
0.0
 40
3.2000000477
 41
0.0
 71
         1
 72
         1
  1
\W1.333;\A1;13.7
  0
MTEXT
  5
D0
100
AcDbEntity
  8
PV
  6
CONTINUOUS
 62
       110
100
AcDbMText
 10
41.8901665003
 20
-105.3999998498
 30
0.0
 40
3.2000000477
 41
0.0
 71
         1
 72
         1
  1
\W0.861;\A1;kg
  0
MTEXT
  5
D1
100
AcDbEntity
  8
PV
  6
CONTINUOUS
 62
       110
100
AcDbMText
 10
42.0342501004
 20
-99.3999998498
 30
0.0
 40
3.2000000477
 41
0.0
 71
         1
 72
         1
  1
\W0.719;\A1;MPa
  0
MTEXT
  5
D2
100
AcDbEntity
  8
PV
  6
CONTINUOUS
 62
       110
100
AcDbMText
 10
42.1106666003
 20
-93.3999998498
 30
0.0
 40
3.2000000477
 41
0.0
 71
         1
 72
         1
  1
\W0.644;\A1;MPa
  0
MTEXT
  5
D3
100
AcDbEntity
  8
PV
  6
CONTINUOUS
 62
       110
100
AcDbMText
 10
42.2546666875
 20
-75.3999998498
 30
0.0
 40
3.2000000477
 41
0.0
 71
         1
 72
         1
  1
\W0.567;\A1;Ｎ・ｍ
  0
MTEXT
  5
D4
100
AcDbEntity
  8
PV
  6
CONTINUOUS
 62
       110
100
AcDbMText
 10
42.2211667874
 20
-81.3999998498
 30
0.0
 40
3.2000000477
 41
0.0
 71
         1
 72
         1
  1
\W0.605;\A1;Ｎ・ｍ
  0
MTEXT
  5
D5
100
AcDbEntity
  8
PV
  6
CONTINUOUS
 62
       110
100
AcDbMText
 10
41.9539166997
 20
-87.3999998498
 30
0.0
 40
3.2000000477
 41
0.0
 71
         1
 72
         1
  1
\W0.798;\A1;kN
  0
MTEXT
  5
D6
100
AcDbEntity
  8
PV
  6
CONTINUOUS
 62
       110
100
AcDbMText
 10
56.3453943427
 20
-75.5679998498
 30
0.0
 40
3.2000000477
 41
0.0
 71
         1
 72
         1
  1
\T1.279;\W2.558;\A1;\{          \}
  0
MTEXT
  5
D7
100
AcDbEntity
  8
PV
  6
CONTINUOUS
 62
       110
100
AcDbMText
 10
56.3453943427
 20
-81.5679998498
 30
0.0
 40
3.2000000477
 41
0.0
 71
         1
 72
         1
  1
\T1.279;\W2.558;\A1;\{          \}
  0
MTEXT
  5
D8
100
AcDbEntity
  8
PV
  6
CONTINUOUS
 62
       110
100
AcDbMText
 10
56.3453943427
 20
-93.5679998498
 30
0.0
 40
3.2000000477
 41
0.0
 71
         1
 72
         1
  1
\T1.279;\W2.558;\A1;\{          \}
  0
MTEXT
  5
D9
100
AcDbEntity
  8
PV
  6
CONTINUOUS
 62
       110
100
AcDbMText
 10
56.3453943427
 20
-99.5679998498
 30
0.0
 40
3.2000000477
 41
0.0
 71
         1
 72
         1
  1
\T1.279;\W2.558;\A1;\{          \}
  0
MTEXT
  5
DA
100
AcDbEntity
  8
PV
  6
CONTINUOUS
 62
       110
100
AcDbMText
 10
56.3453943427
 20
-87.5679998498
 30
0.0
 40
3.2000000477
 41
0.0
 71
         1
 72
         1
  1
\T1.279;\W2.558;\A1;\{          \}
  0
MTEXT
  5
DB
100
AcDbEntity
  8
PV
  6
CONTINUOUS
 62
       110
100
AcDbMText
 10
63.4320176194
 20
-99.7460000882
 30
0.0
 40
3.2000000477
 41
0.0
 71
         1
 72
         1
  1
\W1.263;\A1;20.4
  0
MTEXT
  5
DC
100
AcDbEntity
  8
PV
  6
CONTINUOUS
 62
       110
100
AcDbMText
 10
63.3983334044
 20
-93.7460000882
 30
0.0
 40
3.2000000477
 41
0.0
 71
         1
 72
         1
  1
\W1.200;\A1;23.6
  0
MTEXT
  5
DD
100
AcDbEntity
  8
PV
  6
CONTINUOUS
 62
       110
100
AcDbMText
 10
63.314855147
 20
-87.7460000882
 30
0.0
 40
3.2000000477
 41
0.0
 71
         1
 72
         1
  1
\W1.043;\A1;3680
  0
MTEXT
  5
DE
100
AcDbEntity
  8
PV
  6
CONTINUOUS
 62
       110
100
AcDbMText
 10
63.8694445255
 20
-81.7460000882
 30
0.0
 40
3.2000000477
 41
0.0
 71
         1
 72
         1
  1
\W1.333;\A1;70.0
  0
MTEXT
  5
DF
100
AcDbEntity
  8
PV
  6
CONTINUOUS
 62
       110
100
AcDbMText
 10
66.7583333967
 20
-75.7460000882
 30
0.0
 40
3.2000000477
 41
0.0
 71
         1
 72
         1
  1
\W1.500;\A1;1.4
  0
MTEXT
  5
E0
100
AcDbEntity
  8
PV
  6
CONTINUOUS
 62
       110
100
AcDbMText
 10
-91.7353579173
 20
-75.5669998498
 30
0.0
 40
3.2000000477
 41
0.0
 71
         1
 72
         1
  1
\T1.041;\W1.120;\A1;TIGHTENING TORQUE OF LOCKING BOLTS
  0
MTEXT
  5
E1
100
AcDbEntity
  8
PV
  6
CONTINUOUS
 62
       110
100
AcDbMText
 10
91.5550833999
 20
-99.4089999232
 30
0.0
 40
1.6000000238
 41
0.0
 71
         1
 72
         1
  1
\W0.694;\A1;2
  0
MTEXT
  5
E2
100
AcDbEntity
  8
PV
  6
CONTINUOUS
 62
       110
100
AcDbMText
 10
78.3642354831
 20
-99.8089998498
 30
0.0
 40
3.2000000477
 41
0.0
 71
         1
 72
         1
  1
\W0.794;\A1;kgf/ mm
  0
MTEXT
  5
E3
100
AcDbEntity
  8
PV
  6
CONTINUOUS
 62
       110
100
AcDbMText
 10
91.2195833996
 20
-93.4089999232
 30
0.0
 40
1.6000000238
 41
0.0
 71
         1
 72
         1
  1
\W0.676;\A1;2
  0
MTEXT
  5
E4
100
AcDbEntity
  8
PV
  6
CONTINUOUS
 62
       110
100
AcDbMText
 10
78.3850818847
 20
-93.8089998498
 30
0.0
 40
3.2000000477
 41
0.0
 71
         1
 72
         1
  1
\W0.772;\A1;kgf/ mm
  0
MTEXT
  5
E5
100
AcDbEntity
  8
PV
  6
CONTINUOUS
 62
       110
100
AcDbMText
 10
-92.1061064519
 20
-99.4539998498
 30
0.0
 40
3.2000000477
 41
0.0
 71
         1
 72
         1
  1
\T1.030;\W1.126;\A1;CONTACT PRESSURE OF HUB BORE
  0
MTEXT
  5
E6
100
AcDbEntity
  8
PV
  6
CONTINUOUS
 62
       110
100
AcDbMText
 10
-92.119023034
 20
-93.4539998498
 30
0.0
 40
3.2000000477
 41
0.0
 71
         1
 72
         1
  1
\T1.025;\W1.104;\A1;CONTACT PRESSURE OF SHAFT
  0
MTEXT
  5
E7
100
AcDbEntity
  8
PV
  6
CONTINUOUS
 62
       110
100
AcDbMText
 10
-92.177333262
 20
-105.4540000882
 30
0.0
 40
3.2000000477
 41
0.0
 71
         1
 72
         1
  1
\A1;MASS
  0
MTEXT
  5
E8
100
AcDbEntity
  8
PV
  6
CONTINUOUS
 62
       110
100
AcDbMText
 10
78.7778335886
 20
-81.3999998498
 30
0.0
 40
3.2000000477
 41
0.0
 71
         1
 72
         1
  1
\W0.512;\A1;ｋｇｆ・ｍ
  0
MTEXT
  5
E9
100
AcDbEntity
  8
PV
  6
CONTINUOUS
 62
       110
100
AcDbMText
 10
78.5894165999
 20
-87.3999998498
 30
0.0
 40
3.2000000477
 41
0.0
 71
         1
 72
         1
  1
\W0.639;\A1;kgf
  0
MTEXT
  5
EA
100
AcDbEntity
  8
PV
  6
CONTINUOUS
 62
       110
100
AcDbMText
 10
78.4506663887
 20
-76.0309998498
 30
0.0
 40
3.2000000477
 41
0.0
 71
         1
 72
         1
  1
\W0.532;\A1;ｋｇｆ・ｍ
  0
MTEXT
  5
EB
100
AcDbEntity
  8
PV
  6
CONTINUOUS
 62
       110
100
AcDbMText
 10
-92.0009566529
 20
-87.3899998498
 30
0.0
 40
3.2000000477
 41
0.0
 71
         1
 72
         1
  1
\T1.028;\W1.060;\A1;TRANSMISSIBLE THRUST
  0
MTEXT
  5
EC
100
AcDbEntity
  8
PV
  6
CONTINUOUS
 62
       110
100
AcDbMText
 10
-91.5379566529
 20
-81.1299998498
 30
0.0
 40
3.2000000477
 41
0.0
 71
         1
 72
         1
  1
\T1.028;\W1.060;\A1;TRANSMISSIBLE TORQUE
  0
MTEXT
  5
ED
100
AcDbEntity
  8
PV
  6
CONTINUOUS
 62
       110
100
AcDbMText
 10
-75.4058820284
 20
114.1691610586
 30
0.0
 40
4.8000001907
 41
0.0
 71
         1
 72
         1
  1
\A1;M6
 11
0.9998476952
 21
-0.0174524064
 31
0.0
  0
MTEXT
  5
EE
100
AcDbEntity
  8
PV
  6
CONTINUOUS
 62
       110
100
AcDbMText
 10
-12.4338771088
 20
-30.7481241498
 30
0.0
 40
3.2000000477
 41
0.0
 71
         1
 72
         1
  1
\T1.003;\W1.067;\A1;POWER LOCK
  0
MTEXT
  5
EF
100
AcDbEntity
  8
PV
  6
CONTINUOUS
 62
       110
100
AcDbMText
 10
-12.424832393
 20
-39.7481243882
 30
0.0
 40
3.2000000477
 41
0.0
 71
         1
 72
         1
  1
\W1.031;\A1;PL038X044EF
  0
LINE
  5
F0
100
AcDbEntity
  8
PV
  6
CONTINUOUS
 62
         3
100
AcDbLine
 10
43.0
 20
29.0
 30
0.0
 11
40.0
 21
29.0
 31
0.0
  0
LINE
  5
F1
100
AcDbEntity
  8
PV
  6
CONTINUOUS
 62
         3
100
AcDbLine
 10
43.0
 20
71.0
 30
0.0
 11
40.0
 21
71.0
 31
0.0
  0
LINE
  5
F2
100
AcDbEntity
  8
PV
  6
CONTINUOUS
 62
         3
100
AcDbLine
 10
40.0
 20
15.0
 30
0.0
 11
40.0
 21
29.0
 31
0.0
  0
LINE
  5
F3
100
AcDbEntity
  8
PV
  6
CONTINUOUS
 62
         3
100
AcDbLine
 10
45.5
 20
25.5
 30
0.0
 11
43.0
 21
25.5
 31
0.0
  0
LINE
  5
F4
100
AcDbEntity
  8
PV
  6
CONTINUOUS
 62
         3
100
AcDbLine
 10
45.5
 20
25.5
 30
0.0
 11
45.5
 21
28.0
 31
0.0
  0
LINE
  5
F5
100
AcDbEntity
  8
PV
  6
CONTINUOUS
 62
         3
100
AcDbLine
 10
43.0
 20
25.5
 30
0.0
 11
43.0
 21
29.0
 31
0.0
  0
LINE
  5
F6
100
AcDbEntity
  8
PV
  6
CONTINUOUS
 62
         3
100
AcDbLine
 10
40.0
 20
15.0
 30
0.0
 11
30.0
 21
15.0
 31
0.0
  0
LINE
  5
F7
100
AcDbEntity
  8
PV
  6
CONTINUOUS
 62
         3
100
AcDbLine
 10
63.0
 20
28.0
 30
0.0
 11
45.5
 21
28.0
 31
0.0
  0
LINE
  5
F8
100
AcDbEntity
  8
PV
  6
CONTINUOUS
 62
         3
100
AcDbLine
 10
63.0
 20
31.0
 30
0.0
 11
30.0
 21
31.0
 31
0.0
  0
LINE
  5
F9
100
AcDbEntity
  8
PV
  6
CONTINUOUS
 62
         3
100
AcDbLine
 10
40.0
 20
76.0
 30
0.0
 11
40.0
 21
71.0
 31
0.0
  0
LINE
  5
FA
100
AcDbEntity
  8
PV
  6
CONTINUOUS
 62
         3
100
AcDbLine
 10
30.0
 20
85.0
 30
0.0
 11
30.0
 21
15.0
 31
0.0
  0
LINE
  5
FB
100
AcDbEntity
  8
PV
  6
CONTINUOUS
 62
         3
100
AcDbLine
 10
24.0
 20
83.307
 30
0.0
 11
24.0
 21
74.693
 31
0.0
  0
LINE
  5
FC
100
AcDbEntity
  8
PV
  6
CONTINUOUS
 62
         3
100
AcDbLine
 10
24.0
 20
83.307
 30
0.0
 11
24.4
 21
84.0
 31
0.0
  0
LINE
  5
FD
100
AcDbEntity
  8
PV
  6
CONTINUOUS
 62
         3
100
AcDbLine
 10
24.0
 20
74.693
 30
0.0
 11
24.4
 21
74.0
 31
0.0
  0
LINE
  5
FE
100
AcDbEntity
  8
PV
  6
CONTINUOUS
 62
         3
100
AcDbLine
 10
30.0
 20
74.0
 30
0.0
 11
24.4
 21
74.0
 31
0.0
  0
LINE
  5
FF
100
AcDbEntity
  8
PV
  6
CONTINUOUS
 62
         3
100
AcDbLine
 10
30.0
 20
84.0
 30
0.0
 11
24.4
 21
84.0
 31
0.0
  0
LINE
  5
100
100
AcDbEntity
  8
PV
  6
CONTINUOUS
 62
         3
100
AcDbLine
 10
58.0
 20
81.0
 30
0.0
 11
58.0
 21
77.0
 31
0.0
  0
LINE
  5
101
100
AcDbEntity
  8
PV
  6
CONTINUOUS
 62
         3
100
AcDbLine
 10
57.0
 20
76.0
 30
0.0
 11
58.0
 21
77.0
 31
0.0
  0
LINE
  5
102
100
AcDbEntity
  8
PV
  6
CONTINUOUS
 62
         3
100
AcDbLine
 10
57.0
 20
82.0
 30
0.0
 11
58.0
 21
81.0
 31
0.0
  0
LINE
  5
103
100
AcDbEntity
  8
PV
  6
CONTINUOUS
 62
         3
100
AcDbLine
 10
57.0
 20
76.0
 30
0.0
 11
40.0
 21
76.0
 31
0.0
  0
LINE
  5
104
100
AcDbEntity
  8
PV
  6
CONTINUOUS
 62
         3
100
AcDbLine
 10
57.0
 20
82.0
 30
0.0
 11
40.0
 21
82.0
 31
0.0
  0
LINE
  5
105
100
AcDbEntity
  8
PV
  6
CONTINUOUS
 62
         3
100
AcDbLine
 10
45.5
 20
74.5
 30
0.0
 11
43.0
 21
74.5
 31
0.0
  0
LINE
  5
106
100
AcDbEntity
  8
PV
  6
CONTINUOUS
 62
         3
100
AcDbLine
 10
63.0
 20
72.0
 30
0.0
 11
63.0
 21
28.0
 31
0.0
  0
LINE
  5
107
100
AcDbEntity
  8
PV
  6
CONTINUOUS
 62
         3
100
AcDbLine
 10
45.5
 20
74.5
 30
0.0
 11
45.5
 21
72.0
 31
0.0
  0
LINE
  5
108
100
AcDbEntity
  8
PV
  6
CONTINUOUS
 62
         3
100
AcDbLine
 10
43.0
 20
74.5
 30
0.0
 11
43.0
 21
71.0
 31
0.0
  0
LINE
  5
109
100
AcDbEntity
  8
PV
  6
CONTINUOUS
 62
         3
100
AcDbLine
 10
40.0
 20
85.0
 30
0.0
 11
40.0
 21
82.0
 31
0.0
  0
LINE
  5
10A
100
AcDbEntity
  8
PV
  6
CONTINUOUS
 62
         3
100
AcDbLine
 10
40.0
 20
85.0
 30
0.0
 11
30.0
 21
85.0
 31
0.0
  0
LINE
  5
10B
100
AcDbEntity
  8
PV
  6
CONTINUOUS
 62
         3
100
AcDbLine
 10
63.0
 20
72.0
 30
0.0
 11
45.5
 21
72.0
 31
0.0
  0
LINE
  5
10C
100
AcDbEntity
  8
PV
  6
CONTINUOUS
 62
         3
100
AcDbLine
 10
63.0
 20
69.0
 30
0.0
 11
30.0
 21
69.0
 31
0.0
  0
CIRCLE
  5
10D
100
AcDbEntity
  8
PV
  6
CONTINUOUS
 62
         3
100
AcDbCircle
 10
-70.763
 20
50.0
 30
0.0
 40
19.0
  0
CIRCLE
  5
10E
100
AcDbEntity
  8
PV
  6
CONTINUOUS
 62
         3
100
AcDbCircle
 10
-70.763
 20
50.0
 30
0.0
 40
35.0
  0
LINE
  5
10F
100
AcDbEntity
  8
PV
  6
CONTINUOUS
 62
         3
100
AcDbLine
 10
-94.237
 20
-50.0
 30
0.0
 11
94.237
 21
-50.0
 31
0.0
  0
LINE
  5
110
100
AcDbEntity
  8
PV
  6
CONTINUOUS
 62
         3
100
AcDbLine
 10
-94.237
 20
-56.0
 30
0.0
 11
94.237
 21
-56.0
 31
0.0
  0
LINE
  5
111
100
AcDbEntity
  8
PV
  6
CONTINUOUS
 62
         3
100
AcDbLine
 10
-94.237
 20
-62.0
 30
0.0
 11
94.237
 21
-62.0
 31
0.0
  0
LINE
  5
112
100
AcDbEntity
  8
PV
  6
CONTINUOUS
 62
         3
100
AcDbLine
 10
-94.237
 20
-68.0
 30
0.0
 11
94.237
 21
-68.0
 31
0.0
  0
LINE
  5
113
100
AcDbEntity
  8
PV
  6
CONTINUOUS
 62
         3
100
AcDbLine
 10
94.237
 20
-50.0
 30
0.0
 11
94.237
 21
-110.0
 31
0.0
  0
LINE
  5
114
100
AcDbEntity
  8
PV
  6
CONTINUOUS
 62
         3
100
AcDbLine
 10
17.763
 20
-62.0
 30
0.0
 11
17.763
 21
-110.0
 31
0.0
  0
LINE
  5
115
100
AcDbEntity
  8
PV
  6
CONTINUOUS
 62
         3
100
AcDbLine
 10
-94.237
 20
-110.0
 30
0.0
 11
94.237
 21
-110.0
 31
0.0
  0
LINE
  5
116
100
AcDbEntity
  8
PV
  6
CONTINUOUS
 62
         3
100
AcDbLine
 10
-94.237
 20
-104.0
 30
0.0
 11
94.237
 21
-104.0
 31
0.0
  0
LINE
  5
117
100
AcDbEntity
  8
PV
  6
CONTINUOUS
 62
         3
100
AcDbLine
 10
-94.237
 20
-98.0
 30
0.0
 11
94.237
 21
-98.0
 31
0.0
  0
LINE
  5
118
100
AcDbEntity
  8
PV
  6
CONTINUOUS
 62
         3
100
AcDbLine
 10
-94.237
 20
-92.0
 30
0.0
 11
94.237
 21
-92.0
 31
0.0
  0
LINE
  5
119
100
AcDbEntity
  8
PV
  6
CONTINUOUS
 62
         3
100
AcDbLine
 10
-94.237
 20
-86.0
 30
0.0
 11
94.237
 21
-86.0
 31
0.0
  0
LINE
  5
11A
100
AcDbEntity
  8
PV
  6
CONTINUOUS
 62
         3
100
AcDbLine
 10
-94.237
 20
-80.0
 30
0.0
 11
94.237
 21
-80.0
 31
0.0
  0
LINE
  5
11B
100
AcDbEntity
  8
PV
  6
CONTINUOUS
 62
         3
100
AcDbLine
 10
-94.237
 20
-74.0
 30
0.0
 11
94.237
 21
-74.0
 31
0.0
  0
LINE
  5
11C
100
AcDbEntity
  8
PV
  6
CONTINUOUS
 62
         3
100
AcDbLine
 10
-94.237
 20
-50.0
 30
0.0
 11
-94.237
 21
-110.0
 31
0.0
  0
ARC
  5
11D
100
AcDbEntity
  8
PV
  6
CONTINUOUS
 62
         3
100
AcDbCircle
 10
30.25
 20
75.75
 30
0.0
 40
0.25
100
AcDbArc
 50
90.0000002
 51
180.0
  0
ARC
  5
11E
100
AcDbEntity
  8
PV
  6
CONTINUOUS
 62
         3
100
AcDbCircle
 10
30.25
 20
82.25
 30
0.0
 40
0.25
100
AcDbArc
 50
180.0
 51
270.0
  0
LINE
  5
11F
100
AcDbEntity
  8
PV
  6
CONTINUOUS
 62
         3
100
AcDbLine
 10
40.0
 20
76.0
 30
0.0
 11
30.25
 21
76.0
 31
0.0
  0
LINE
  5
120
100
AcDbEntity
  8
PV
  6
CONTINUOUS
 62
         3
100
AcDbLine
 10
40.0
 20
82.0
 30
0.0
 11
30.25
 21
82.0
 31
0.0
  0
LINE
  5
121
100
AcDbEntity
  8
PV
  6
CONTINUOUS
 62
         3
100
AcDbLine
 10
61.0
 20
69.731
 30
0.0
 11
61.0
 21
30.269
 31
0.0
  0
LINE
  5
122
100
AcDbEntity
  8
PV
  6
CONTINUOUS
 62
         3
100
AcDbLine
 10
58.0
 20
69.775
 30
0.0
 11
58.0
 21
30.225
 31
0.0
  0
LINE
  5
124
100
AcDbEntity
  8
PV
  6
CENTER
 62
         3
100
AcDbLine
 10
27.576
 20
21.0
 30
0.0
 11
43.329
 21
21.0
 31
0.0
  0
LINE
  5
125
100
AcDbEntity
  8
PV
  6
CONTINUOUS
 62
         3
100
AcDbLine
 10
30.0
 20
18.541
 30
0.0
 11
40.0
 21
18.541
 31
0.0
  0
LINE
  5
126
100
AcDbEntity
  8
PV
  6
CONTINUOUS
 62
         3
100
AcDbLine
 10
30.0
 20
23.459
 30
0.0
 11
40.0
 21
23.459
 31
0.0
  0
LINE
  5
127
100
AcDbEntity
  8
PV
  6
CONTINUOUS
 62
         3
100
AcDbLine
 10
40.0
 20
24.0
 30
0.0
 11
30.0
 21
24.0
 31
0.0
  0
LINE
  5
128
100
AcDbEntity
  8
PV
  6
CONTINUOUS
 62
         3
100
AcDbLine
 10
40.0
 20
18.0
 30
0.0
 11
30.0
 21
18.0
 31
0.0
  0
LINE
  5
129
100
AcDbEntity
  8
PV
  6
CONTINUOUS
 62
         3
100
AcDbLine
 10
61.0
 20
30.269
 30
0.0
 11
46.5
 21
29.0
 31
0.0
  0
LINE
  5
12A
100
AcDbEntity
  8
PV
  6
CONTINUOUS
 62
         3
100
AcDbLine
 10
46.5
 20
29.0
 30
0.0
 11
43.0
 21
29.0
 31
0.0
  0
LINE
  5
12B
100
AcDbEntity
  8
PV
  6
CENTER
 62
         3
100
AcDbLine
 10
19.0
 20
79.0
 30
0.0
 11
60.0
 21
79.0
 31
0.0
  0
LINE
  5
12C
100
AcDbEntity
  8
PV
  6
CONTINUOUS
 62
         3
100
AcDbLine
 10
24.4
 20
84.0
 30
0.0
 11
24.4
 21
74.0
 31
0.0
  0
LINE
  5
12D
100
AcDbEntity
  8
PV
  6
CONTINUOUS
 62
         3
100
AcDbLine
 10
37.0
 20
81.459
 30
0.0
 11
57.541
 21
81.459
 31
0.0
  0
LINE
  5
12E
100
AcDbEntity
  8
PV
  6
CONTINUOUS
 62
         3
100
AcDbLine
 10
37.0
 20
76.541
 30
0.0
 11
57.541
 21
76.541
 31
0.0
  0
LINE
  5
12F
100
AcDbEntity
  8
PV
  6
CONTINUOUS
 62
         3
100
AcDbLine
 10
37.0
 20
76.541
 30
0.0
 11
35.917
 21
76.0
 31
0.0
  0
LINE
  5
130
100
AcDbEntity
  8
PV
  6
CONTINUOUS
 62
         3
100
AcDbLine
 10
37.0
 20
81.459
 30
0.0
 11
35.917
 21
82.0
 31
0.0
  0
LINE
  5
131
100
AcDbEntity
  8
PV
  6
CONTINUOUS
 62
         3
100
AcDbLine
 10
37.0
 20
82.0
 30
0.0
 11
37.0
 21
76.0
 31
0.0
  0
LINE
  5
132
100
AcDbEntity
  8
PV
  6
CONTINUOUS
 62
         3
100
AcDbLine
 10
57.0
 20
82.0
 30
0.0
 11
57.0
 21
76.0
 31
0.0
  0
LINE
  5
133
100
AcDbEntity
  8
PV
  6
CONTINUOUS
 62
         3
100
AcDbLine
 10
61.0
 20
69.731
 30
0.0
 11
46.5
 21
71.0
 31
0.0
  0
LINE
  5
134
100
AcDbEntity
  8
PV
  6
CONTINUOUS
 62
         3
100
AcDbLine
 10
46.5
 20
71.0
 30
0.0
 11
43.0
 21
71.0
 31
0.0
  0
LINE
  5
135
100
AcDbEntity
  8
PV
  6
CENTER
 62
         3
100
AcDbLine
 10
68.471
 20
50.0
 30
0.0
 11
25.192
 21
50.0
 31
0.0
  0
CIRCLE
  5
136
100
AcDbEntity
  8
PV
  6
CONTINUOUS
 62
         3
100
AcDbCircle
 10
-95.878
 20
64.5
 30
0.0
 40
5.0
  0
CIRCLE
  5
137
100
AcDbEntity
  8
PV
  6
CONTINUOUS
 62
         3
100
AcDbCircle
 10
-95.878
 20
35.5
 30
0.0
 40
4.307
  0
CIRCLE
  5
138
100
AcDbEntity
  8
PV
  6
CONTINUOUS
 62
         3
100
AcDbCircle
 10
-95.878
 20
35.5
 30
0.0
 40
5.0
  0
CIRCLE
  5
139
100
AcDbEntity
  8
PV
  6
CONTINUOUS
 62
         3
100
AcDbCircle
 10
-70.763
 20
21.0
 30
0.0
 40
4.307
  0
CIRCLE
  5
13A
100
AcDbEntity
  8
PV
  6
CONTINUOUS
 62
         3
100
AcDbCircle
 10
-70.763
 20
21.0
 30
0.0
 40
5.0
  0
CIRCLE
  5
13B
100
AcDbEntity
  8
PV
  6
CONTINUOUS
 62
         3
100
AcDbCircle
 10
-45.648
 20
35.5
 30
0.0
 40
4.307
  0
CIRCLE
  5
13C
100
AcDbEntity
  8
PV
  6
CONTINUOUS
 62
         3
100
AcDbCircle
 10
-45.648
 20
35.5
 30
0.0
 40
5.0
  0
CIRCLE
  5
13D
100
AcDbEntity
  8
PV
  6
CONTINUOUS
 62
         3
100
AcDbCircle
 10
-45.648
 20
64.5
 30
0.0
 40
4.307
  0
CIRCLE
  5
13E
100
AcDbEntity
  8
PV
  6
CONTINUOUS
 62
         3
100
AcDbCircle
 10
-45.648
 20
64.5
 30
0.0
 40
5.0
  0
CIRCLE
  5
13F
100
AcDbEntity
  8
PV
  6
CONTINUOUS
 62
         3
100
AcDbCircle
 10
-56.263
 20
24.885
 30
0.0
 40
2.5
  0
CIRCLE
  5
140
100
AcDbEntity
  8
PV
  6
CONTINUOUS
 62
         3
100
AcDbCircle
 10
-56.263
 20
24.885
 30
0.0
 40
3.0
  0
CIRCLE
  5
141
100
AcDbEntity
  8
PV
  6
CENTER
 62
         3
100
AcDbCircle
 10
-70.763
 20
50.0
 30
0.0
 40
29.0
  0
CIRCLE
  5
142
100
AcDbEntity
  8
PV
  6
CONTINUOUS
 62
         3
100
AcDbCircle
 10
-99.763
 20
50.0
 30
0.0
 40
2.5
  0
CIRCLE
  5
143
100
AcDbEntity
  8
PV
  6
CONTINUOUS
 62
         3
100
AcDbCircle
 10
-99.763
 20
50.0
 30
0.0
 40
3.0
  0
CIRCLE
  5
144
100
AcDbEntity
  8
PV
  6
CONTINUOUS
 62
         3
100
AcDbCircle
 10
-70.763
 20
79.0
 30
0.0
 40
4.307
  0
CIRCLE
  5
145
100
AcDbEntity
  8
PV
  6
CONTINUOUS
 62
         3
100
AcDbCircle
 10
-70.763
 20
79.0
 30
0.0
 40
5.0
  0
CIRCLE
  5
146
100
AcDbEntity
  8
PV
  6
CONTINUOUS
 62
         3
100
AcDbCircle
 10
-56.263
 20
75.115
 30
0.0
 40
2.5
  0
CIRCLE
  5
147
100
AcDbEntity
  8
PV
  6
CONTINUOUS
 62
         3
100
AcDbCircle
 10
-56.263
 20
75.115
 30
0.0
 40
3.0
  0
CIRCLE
  5
148
100
AcDbEntity
  8
PV
  6
CONTINUOUS
 62
         3
100
AcDbCircle
 10
-95.878
 20
64.5
 30
0.0
 40
4.307
  0
LINE
  5
149
100
AcDbEntity
  8
PV
  6
CENTER
 62
         3
100
AcDbLine
 10
-51.672
 20
16.934
 30
0.0
 11
-63.302
 21
37.078
 31
0.0
  0
LINE
  5
14A
100
AcDbEntity
  8
PV
  6
CENTER
 62
         3
100
AcDbLine
 10
-51.672
 20
83.066
 30
0.0
 11
-63.302
 21
62.922
 31
0.0
  0
LINE
  5
14B
100
AcDbEntity
  8
PV
  6
CONTINUOUS
 62
         3
100
AcDbLine
 10
-95.878
 20
67.387
 30
0.0
 11
-93.378
 21
65.943
 31
0.0
  0
LINE
  5
14C
100
AcDbEntity
  8
PV
  6
CONTINUOUS
 62
         3
100
AcDbLine
 10
-98.378
 20
63.057
 30
0.0
 11
-95.878
 21
61.613
 31
0.0
  0
LINE
  5
14D
100
AcDbEntity
  8
PV
  6
CONTINUOUS
 62
         3
100
AcDbLine
 10
-93.378
 20
63.057
 30
0.0
 11
-95.878
 21
61.613
 31
0.0
  0
LINE
  5
14E
100
AcDbEntity
  8
PV
  6
CONTINUOUS
 62
         3
100
AcDbLine
 10
-93.378
 20
63.057
 30
0.0
 11
-93.378
 21
65.943
 31
0.0
  0
LINE
  5
14F
100
AcDbEntity
  8
PV
  6
CONTINUOUS
 62
         3
100
AcDbLine
 10
-98.378
 20
65.943
 30
0.0
 11
-95.878
 21
67.387
 31
0.0
  0
LINE
  5
150
100
AcDbEntity
  8
PV
  6
CONTINUOUS
 62
         3
100
AcDbLine
 10
-98.378
 20
65.943
 30
0.0
 11
-98.378
 21
63.057
 31
0.0
  0
LINE
  5
151
100
AcDbEntity
  8
PV
  6
CENTER
 62
         3
100
AcDbLine
 10
-103.829
 20
69.091
 30
0.0
 11
-84.924
 21
58.176
 31
0.0
  0
LINE
  5
152
100
AcDbEntity
  8
PV
  6
CONTINUOUS
 62
         3
100
AcDbLine
 10
-98.378
 20
36.943
 30
0.0
 11
-95.878
 21
38.387
 31
0.0
  0
LINE
  5
153
100
AcDbEntity
  8
PV
  6
CONTINUOUS
 62
         3
100
AcDbLine
 10
-95.878
 20
32.613
 30
0.0
 11
-93.378
 21
34.057
 31
0.0
  0
LINE
  5
154
100
AcDbEntity
  8
PV
  6
CONTINUOUS
 62
         3
100
AcDbLine
 10
-93.378
 20
36.943
 30
0.0
 11
-93.378
 21
34.057
 31
0.0
  0
LINE
  5
155
100
AcDbEntity
  8
PV
  6
CONTINUOUS
 62
         3
100
AcDbLine
 10
-93.378
 20
36.943
 30
0.0
 11
-95.878
 21
38.387
 31
0.0
  0
LINE
  5
156
100
AcDbEntity
  8
PV
  6
CONTINUOUS
 62
         3
100
AcDbLine
 10
-98.378
 20
34.057
 30
0.0
 11
-98.378
 21
36.943
 31
0.0
  0
LINE
  5
157
100
AcDbEntity
  8
PV
  6
CONTINUOUS
 62
         3
100
AcDbLine
 10
-98.378
 20
34.057
 30
0.0
 11
-95.878
 21
32.613
 31
0.0
  0
LINE
  5
158
100
AcDbEntity
  8
PV
  6
CENTER
 62
         3
100
AcDbLine
 10
-103.829
 20
30.909
 30
0.0
 11
-84.925
 21
41.824
 31
0.0
  0
LINE
  5
159
100
AcDbEntity
  8
PV
  6
CONTINUOUS
 62
         3
100
AcDbLine
 10
-73.263
 20
19.557
 30
0.0
 11
-73.263
 21
22.443
 31
0.0
  0
LINE
  5
15A
100
AcDbEntity
  8
PV
  6
CONTINUOUS
 62
         3
100
AcDbLine
 10
-68.263
 20
19.557
 30
0.0
 11
-68.263
 21
22.443
 31
0.0
  0
LINE
  5
15B
100
AcDbEntity
  8
PV
  6
CONTINUOUS
 62
         3
100
AcDbLine
 10
-70.763
 20
23.887
 30
0.0
 11
-68.263
 21
22.443
 31
0.0
  0
LINE
  5
15C
100
AcDbEntity
  8
PV
  6
CONTINUOUS
 62
         3
100
AcDbLine
 10
-70.763
 20
23.887
 30
0.0
 11
-73.263
 21
22.443
 31
0.0
  0
LINE
  5
15D
100
AcDbEntity
  8
PV
  6
CONTINUOUS
 62
         3
100
AcDbLine
 10
-70.763
 20
18.113
 30
0.0
 11
-73.263
 21
19.557
 31
0.0
  0
LINE
  5
15E
100
AcDbEntity
  8
PV
  6
CONTINUOUS
 62
         3
100
AcDbLine
 10
-70.763
 20
18.113
 30
0.0
 11
-68.263
 21
19.557
 31
0.0
  0
LINE
  5
15F
100
AcDbEntity
  8
PV
  6
CONTINUOUS
 62
         3
100
AcDbLine
 10
-45.648
 20
32.613
 30
0.0
 11
-48.148
 21
34.057
 31
0.0
  0
LINE
  5
160
100
AcDbEntity
  8
PV
  6
CONTINUOUS
 62
         3
100
AcDbLine
 10
-43.148
 20
36.943
 30
0.0
 11
-45.648
 21
38.387
 31
0.0
  0
LINE
  5
161
100
AcDbEntity
  8
PV
  6
CONTINUOUS
 62
         3
100
AcDbLine
 10
-48.148
 20
36.943
 30
0.0
 11
-45.648
 21
38.387
 31
0.0
  0
LINE
  5
162
100
AcDbEntity
  8
PV
  6
CONTINUOUS
 62
         3
100
AcDbLine
 10
-48.148
 20
36.943
 30
0.0
 11
-48.148
 21
34.057
 31
0.0
  0
LINE
  5
163
100
AcDbEntity
  8
PV
  6
CONTINUOUS
 62
         3
100
AcDbLine
 10
-43.148
 20
34.057
 30
0.0
 11
-45.648
 21
32.613
 31
0.0
  0
LINE
  5
164
100
AcDbEntity
  8
PV
  6
CONTINUOUS
 62
         3
100
AcDbLine
 10
-43.148
 20
34.057
 30
0.0
 11
-43.148
 21
36.943
 31
0.0
  0
LINE
  5
165
100
AcDbEntity
  8
PV
  6
CENTER
 62
         3
100
AcDbLine
 10
-37.697
 20
30.909
 30
0.0
 11
-56.601
 21
41.824
 31
0.0
  0
LINE
  5
166
100
AcDbEntity
  8
PV
  6
CONTINUOUS
 62
         3
100
AcDbLine
 10
-43.148
 20
63.057
 30
0.0
 11
-45.648
 21
61.613
 31
0.0
  0
LINE
  5
167
100
AcDbEntity
  8
PV
  6
CONTINUOUS
 62
         3
100
AcDbLine
 10
-45.648
 20
67.387
 30
0.0
 11
-48.148
 21
65.943
 31
0.0
  0
LINE
  5
168
100
AcDbEntity
  8
PV
  6
CONTINUOUS
 62
         3
100
AcDbLine
 10
-48.148
 20
63.057
 30
0.0
 11
-48.148
 21
65.943
 31
0.0
  0
LINE
  5
169
100
AcDbEntity
  8
PV
  6
CONTINUOUS
 62
         3
100
AcDbLine
 10
-48.148
 20
63.057
 30
0.0
 11
-45.648
 21
61.613
 31
0.0
  0
LINE
  5
16A
100
AcDbEntity
  8
PV
  6
CONTINUOUS
 62
         3
100
AcDbLine
 10
-43.148
 20
65.943
 30
0.0
 11
-43.148
 21
63.057
 31
0.0
  0
LINE
  5
16B
100
AcDbEntity
  8
PV
  6
CONTINUOUS
 62
         3
100
AcDbLine
 10
-43.148
 20
65.943
 30
0.0
 11
-45.648
 21
67.387
 31
0.0
  0
LINE
  5
16C
100
AcDbEntity
  8
PV
  6
CENTER
 62
         3
100
AcDbLine
 10
-37.697
 20
69.091
 30
0.0
 11
-56.601
 21
58.176
 31
0.0
  0
LINE
  5
16D
100
AcDbEntity
  8
PV
  6
CENTER
 62
         3
100
AcDbLine
 10
-108.945
 20
50.0
 30
0.0
 11
-32.592
 21
50.0
 31
0.0
  0
LINE
  5
16E
100
AcDbEntity
  8
PV
  6
CONTINUOUS
 62
         3
100
AcDbLine
 10
-68.263
 20
80.443
 30
0.0
 11
-68.263
 21
77.557
 31
0.0
  0
LINE
  5
16F
100
AcDbEntity
  8
PV
  6
CONTINUOUS
 62
         3
100
AcDbLine
 10
-73.263
 20
80.443
 30
0.0
 11
-73.263
 21
77.557
 31
0.0
  0
LINE
  5
170
100
AcDbEntity
  8
PV
  6
CONTINUOUS
 62
         3
100
AcDbLine
 10
-70.763
 20
76.113
 30
0.0
 11
-73.263
 21
77.557
 31
0.0
  0
LINE
  5
171
100
AcDbEntity
  8
PV
  6
CONTINUOUS
 62
         3
100
AcDbLine
 10
-70.763
 20
76.113
 30
0.0
 11
-68.263
 21
77.557
 31
0.0
  0
LINE
  5
172
100
AcDbEntity
  8
PV
  6
CONTINUOUS
 62
         3
100
AcDbLine
 10
-70.763
 20
81.887
 30
0.0
 11
-68.263
 21
80.443
 31
0.0
  0
LINE
  5
173
100
AcDbEntity
  8
PV
  6
CONTINUOUS
 62
         3
100
AcDbLine
 10
-70.763
 20
81.887
 30
0.0
 11
-73.263
 21
80.443
 31
0.0
  0
LINE
  5
174
100
AcDbEntity
  8
PV
  6
CENTER
 62
         3
100
AcDbLine
 10
-70.763
 20
88.182
 30
0.0
 11
-70.763
 21
8.809
 31
0.0
  0
ENDSEC
  0
SECTION
  2
OBJECTS
  0
DICTIONARY
  5
19
100
AcDbDictionary
  3
ACAD_GROUP
350
1A
  3
ACAD_MLINESTYLE
350
1B
  0
DICTIONARY
  5
1A
102
{ACAD_REACTORS
330
19
102
}
100
AcDbDictionary
  0
DICTIONARY
  5
1B
102
{ACAD_REACTORS
330
19
102
}
100
AcDbDictionary
  3
STANDARD
350
1C
  0
MLINESTYLE
  5
1C
102
{ACAD_REACTORS
330
1B
102
}
100
AcDbMlineStyle
  2
Standard
 70
         0
  3

 62
         0
 51
90.0
 52
90.0
 71
         2
 49
0.5
 62
       256
  6
ByLayer
 49
-0.5
 62
       256
  6
ByLayer
  0
ENDSEC
  0
EOF
