  0
SECTION
  2
HEADER
  9
$ACADVER
  1
AC1014
  9
$ACADMAINTVER
 70
         0
  9
$DWGCODEPAGE
  3
ANSI_932
  9
$INSBASE
 10
0.0
 20
0.0
 30
0.0
  9
$EXTMIN
 10
-110.9213665316
 20
-110.0
 30
0.0
  9
$EXTMAX
 10
118.853996
 20
115.4091255316
 30
0.0
  9
$LIMMIN
 10
-110.9213665316
 20
-110.0
  9
$LIMMAX
 10
118.853996
 20
115.4091255316
  9
$ORTHOMODE
 70
         0
  9
$REGENMODE
 70
         1
  9
$FILLMODE
 70
         1
  9
$QTEXTMODE
 70
         0
  9
$MIRRTEXT
 70
         1
  9
$DRAGMODE
 70
         2
  9
$LTSCALE
 40
1.0
  9
$OSMODE
 70
         0
  9
$ATTMODE
 70
         1
  9
$TEXTSIZE
 40
3.2000000477
  9
$TRACEWID
 40
0.05
  9
$TEXTSTYLE
  7
MX_NOTE_STANDARD
  9
$CLAYER
  8
0
  9
$CELTYPE
  6
CONTINUOUS
  9
$CECOLOR
 62
       256
  9
$CELTSCALE
 40
1.0
  9
$DELOBJ
 70
         1
  9
$DISPSILH
 70
         0
  9
$DIMSCALE
 40
1.0
  9
$DIMASZ
 40
2.5
  9
$DIMEXO
 40
0.0
  9
$DIMDLI
 40
3.75
  9
$DIMRND
 40
0.0
  9
$DIMDLE
 40
0.0
  9
$DIMEXE
 40
2.5
  9
$DIMTP
 40
0.0
  9
$DIMTM
 40
0.0
  9
$DIMTXT
 40
3.2000000477
  9
$DIMCEN
 40
2.5
  9
$DIMTSZ
 40
0.0
  9
$DIMTOL
 70
         0
  9
$DIMLIM
 70
         0
  9
$DIMTIH
 70
         0
  9
$DIMTOH
 70
         0
  9
$DIMSE1
 70
         0
  9
$DIMSE2
 70
         0
  9
$DIMTAD
 70
         1
  9
$DIMZIN
 70
         8
  9
$DIMBLK
  1

  9
$DIMASO
 70
         1
  9
$DIMSHO
 70
         1
  9
$DIMPOST
  1

  9
$DIMAPOST
  1

  9
$DIMALT
 70
         0
  9
$DIMALTD
 70
         4
  9
$DIMALTF
 40
0.0393700787
  9
$DIMLFAC
 40
1.0
  9
$DIMTOFL
 70
         1
  9
$DIMTVP
 40
0.0
  9
$DIMTIX
 70
         0
  9
$DIMSOXD
 70
         0
  9
$DIMSAH
 70
         1
  9
$DIMBLK1
  1
_OPEN30
  9
$DIMBLK2
  1
_OPEN30
  9
$DIMSTYLE
  2
MXDIMSTYLE
  9
$DIMCLRD
 70
         0
  9
$DIMCLRE
 70
         0
  9
$DIMCLRT
 70
         0
  9
$DIMTFAC
 40
1.0
  9
$DIMGAP
 40
1.0
  9
$DIMJUST
 70
         0
  9
$DIMSD1
 70
         0
  9
$DIMSD2
 70
         0
  9
$DIMTOLJ
 70
         0
  9
$DIMTZIN
 70
         0
  9
$DIMALTZ
 70
         0
  9
$DIMALTTZ
 70
         0
  9
$DIMFIT
 70
         3
  9
$DIMUPT
 70
         0
  9
$DIMUNIT
 70
         2
  9
$DIMDEC
 70
         2
  9
$DIMTDEC
 70
         2
  9
$DIMALTU
 70
         2
  9
$DIMALTTD
 70
         4
  9
$DIMTXSTY
  7
MX_NOTE_STANDARD
  9
$DIMAUNIT
 70
         0
  9
$LUNITS
 70
         2
  9
$LUPREC
 70
         4
  9
$SKETCHINC
 40
0.1
  9
$FILLETRAD
 40
0.0
  9
$AUNITS
 70
         0
  9
$AUPREC
 70
         0
  9
$MENU
  1
acad
  9
$ELEVATION
 40
0.0
  9
$PELEVATION
 40
0.0
  9
$THICKNESS
 40
0.0
  9
$LIMCHECK
 70
         0
  9
$BLIPMODE
 70
         1
  9
$CHAMFERA
 40
0.0
  9
$CHAMFERB
 40
0.0
  9
$CHAMFERC
 40
0.0
  9
$CHAMFERD
 40
0.0
  9
$SKPOLY
 70
         0
  9
$TDCREATE
 40
2456603.419189815
  9
$TDUPDATE
 40
2456603.419189815
  9
$TDINDWG
 40
0.0000000000
  9
$TDUSRTIMER
 40
0.0000000000
  9
$USRTIMER
 70
         1
  9
$ANGBASE
 50
0.0
  9
$ANGDIR
 70
         0
  9
$PDMODE
 70
         0
  9
$PDSIZE
 40
0.0
  9
$PLINEWID
 40
0.0
  9
$COORDS
 70
         1
  9
$SPLFRAME
 70
         0
  9
$SPLINETYPE
 70
         6
  9
$SPLINESEGS
 70
         8
  9
$ATTDIA
 70
         0
  9
$ATTREQ
 70
         1
  9
$HANDLING
 70
         1
  9
$HANDSEED
  5
191
  9
$SURFTAB1
 70
         6
  9
$SURFTAB2
 70
         6
  9
$SURFTYPE
 70
         6
  9
$SURFU
 70
         6
  9
$SURFV
 70
         6
  9
$UCSNAME
  2

  9
$UCSORG
 10
0.0
 20
0.0
 30
0.0
  9
$UCSXDIR
 10
1.0
 20
0.0
 30
0.0
  9
$UCSYDIR
 10
0.0
 20
1.0
 30
0.0
  9
$PUCSNAME
  2

  9
$PUCSORG
 10
0.0
 20
0.0
 30
0.0
  9
$PUCSXDIR
 10
1.0
 20
0.0
 30
0.0
  9
$PUCSYDIR
 10
0.0
 20
1.0
 30
0.0
  9
$USERI1
 70
         0
  9
$USERI2
 70
         0
  9
$USERI3
 70
         0
  9
$USERI4
 70
         0
  9
$USERI5
 70
         0
  9
$USERR1
 40
0.0
  9
$USERR2
 40
0.0
  9
$USERR3
 40
0.0
  9
$USERR4
 40
0.0
  9
$USERR5
 40
0.0
  9
$WORLDVIEW
 70
         1
  9
$SHADEDGE
 70
         3
  9
$SHADEDIF
 70
        70
  9
$TILEMODE
 70
         1
  9
$MAXACTVP
 70
        16
  9
$PINSBASE
 10
0.0
 20
0.0
 30
0.0
  9
$PLIMCHECK
 70
         0
  9
$PEXTMIN
 10
1.0000000000E+20
 20
1.0000000000E+20
 30
1.0000000000E+20
  9
$PEXTMAX
 10
-1.0000000000E+20
 20
-1.0000000000E+20
 30
-1.0000000000E+20
  9
$PLIMMIN
 10
0.0
 20
0.0
  9
$PLIMMAX
 10
12.0
 20
9.0
  9
$UNITMODE
 70
         0
  9
$VISRETAIN
 70
         0
  9
$PLINEGEN
 70
         1
  9
$PSLTSCALE
 70
         0
  9
$TREEDEPTH
 70
      3020
  9
$PICKSTYLE
 70
         1
  9
$CMLSTYLE
  2
Standard
  9
$CMLJUST
 70
         0
  9
$CMLSCALE
 40
1.0
  9
$PROXYGRAPHICS
 70
         0
  9
$MEASUREMENT
 70
         1
  0
ENDSEC
  0
SECTION
  2
CLASSES
  0
CLASS
  1
LWPOLYLINE
  2
AcDbPolyline
  3
"AutoCAD"
 90
        0
280
         0
281
         1
  0
CLASS
  1
IMAGE
  2
AcDbRasterImage
  3
ISM
 90
      127
280
         0
281
         1
  0
CLASS
  1
OLE2FRAME
  2
AcDbOle2Frame
  3
""
 90
        0
280
         0
281
         1
  0
CLASS
  1
HATCH
  2
AcDbHatch
  3
"ACAD_SEDONA"
 90
        0
280
         0
281
         1
  0
CLASS
  1
DICTIONARYVAR
  2
AcDbDictionaryVar
  3
"AutoCAD"
 90
        0
280
         0
281
         0
  0
CLASS
  1
RASTERVARIABLES
  2
AcDbRasterVariables
  3
ISM
 90
        0
280
         0
281
         0
  0
CLASS
  1
IMAGEDEF
  2
AcDbRasterImageDef
  3
ISM
 90
        0
280
         0
281
         0
  0
CLASS
  1
IMAGEDEF_REACTOR
  2
AcDbRasterImageDefReactor
  3
ISM
 90
        1
280
         0
281
         0
  0
CLASS
  1
IDBUFFER
  2
AcDbIdBuffer
  3
"Acad"
 90
        0
280
         0
281
         0
  0
CLASS
  1
SPATIAL_FILTER
  2
AcDbSpatialFilter
  3
"Acad"
 90
        0
280
         0
281
         0
  0
CLASS
  1
XRECORD
  2
AcDbXrecord
  3
"<Built In>"
 90
        0
280
         0
281
         0
  0
CLASS
  1
SORTENTSTABLE
  2
AcDbSortentsTable
  3
"AutoCAD"
 90
        0
280
         0
281
         0
  0
CLASS
  1
LAYER_INDEX
  2
AcDbLayerIndex
  3
"Acad"
 90
        0
280
         0
281
         0
  0
CLASS
  1
SPATIAL_INDEX
  2
AcDbSpatialIndex
  3
"Acad"
 90
        0
280
         0
281
         0
  0
CLASS
  1
OBJECT_PTR
  2
CAseDLPNTableRecord
  3
"ASE-LPNTableRecord"
 90
        1
280
         0
281
         0
  0
CLASS
  1
LAYOUT
  2
AcDbLayout
  3
"AutoCAD 2000"
 90
        0
280
         0
281
         0
  0
CLASS
  1
PLOTSETTINGS
  2
AcDbPlotSettings
  3
"AutoCAD 2000"
 90
        0
280
         0
281
         0
  0
CLASS
  1
ACDBDICTIONARYWDFLT
  2
AcDbDictionaryWithDefault
  3
"AutoCAD 2000"
 90
        0
280
         0
281
         0
  0
CLASS
  1
ACDBPLACEHOLDER
  2
AcDbPlaceHolder
  3
"AutoCAD 2000"
 90
        0
280
         0
281
         0
  0
ENDSEC
  0
SECTION
  2
TABLES
  0
TABLE
  2
VPORT
  5
7
100
AcDbSymbolTable
 70
         1
  0
VPORT
  5
15
100
AcDbSymbolTableRecord
100
AcDbViewportTableRecord
  2
*ACTIVE
 70
         0
 10
0.0
 20
0.0
 11
1.0
 21
1.0
 12
3.9663147342
 22
2.7045627658
 13
0.0
 23
0.0
 14
1.0
 24
1.0
 15
0.0
 25
0.0
 16
0.0
 26
0.0
 36
1.0
 17
0.0
 27
0.0
 37
0.0
 40
227.6632167869
 41
1.7320508076
 42
50.0
 43
0.0
 44
0.0
 50
0.0
 51
0.0
 71
         0
 72
       100
 73
         1
 74
         1
 75
         0
 76
         0
 77
         0
 78
         0
  0
ENDTAB
  0
TABLE
  2
LTYPE
  5
4
100
AcDbSymbolTable
 70
         5
  0
LTYPE
  5
11
100
AcDbSymbolTableRecord
100
AcDbLinetypeTableRecord
  2
BYBLOCK
 70
        64
  3

 72
        65
 73
         0
 40
0.0
  0
LTYPE
  5
12
100
AcDbSymbolTableRecord
100
AcDbLinetypeTableRecord
  2
BYLAYER
 70
        64
  3

 72
        65
 73
         0
 40
0.0
  0
LTYPE
  5
13
100
AcDbSymbolTableRecord
100
AcDbLinetypeTableRecord
  2
CONTINUOUS
 70
        64
  3
Solid line
 72
        65
 73
         0
 40
0.0
  0
LTYPE
  5
A6
100
AcDbSymbolTableRecord
100
AcDbLinetypeTableRecord
  2
CENTER
 70
        64
  3
Center ____ _ ____ _ ____ _ ____ _ ____ _ ____
 72
        65
 73
         4
 40
50.8
 49
31.75
 74
         0
 49
-6.35
 74
         0
 49
6.35
 74
         0
 49
-6.35
 74
         0
  0
LTYPE
  5
A9
100
AcDbSymbolTableRecord
100
AcDbLinetypeTableRecord
  2
PHANTOM
 70
        64
  3
Phantom ______  __  __  ______  __  __  ______
 72
        65
 73
         6
 40
63.5
 49
31.75
 74
         0
 49
-6.35
 74
         0
 49
6.35
 74
         0
 49
-6.35
 74
         0
 49
6.35
 74
         0
 49
-6.35
 74
         0
  0
ENDTAB
  0
TABLE
  2
LAYER
  5
2
100
AcDbSymbolTable
 70
         3
  0
LAYER
  5
14
100
AcDbSymbolTableRecord
100
AcDbLayerTableRecord
  2
0
 70
         0
 62
         7
  6
CONTINUOUS
  0
LAYER
  5
1D
100
AcDbSymbolTableRecord
100
AcDbLayerTableRecord
  2
PV
 70
         0
 62
         3
  6
CONTINUOUS
  0
LAYER
  5
1E
100
AcDbSymbolTableRecord
100
AcDbLayerTableRecord
  2
DEFPOINTS
 70
         0
 62
         7
  6
CONTINUOUS
  0
ENDTAB
  0
TABLE
  2
STYLE
  5
3
100
AcDbSymbolTable
 70
         3
  0
STYLE
  5
17
100
AcDbSymbolTableRecord
100
AcDbTextStyleTableRecord
  2
MX_NOTE_STANDARD
 70
         0
 40
0.0
 41
1.0
 50
0.0
 71
         0
 42
3.2000000477
  3
txt.shx
  4
extfont.shx
  0
STYLE
  5
34
100
AcDbSymbolTableRecord
100
AcDbTextStyleTableRecord
  2
MX_DIMTXSTY_2
 70
         0
 40
0.0
 41
1.2
 50
0.0
 71
         0
 42
3.2000000477
  3
txt.shx
  4
extfont.shx
  0
STYLE
  5
16C
100
AcDbSymbolTableRecord
100
AcDbTextStyleTableRecord
  2
MX_DIMTXSTY_3
 70
         0
 40
0.0
 41
1.1
 50
0.0
 71
         0
 42
3.2000000477
  3
txt.shx
  4
extfont.shx
  0
ENDTAB
  0
TABLE
  2
VIEW
  5
5
100
AcDbSymbolTable
 70
         0
  0
ENDTAB
  0
TABLE
  2
UCS
  5
6
100
AcDbSymbolTable
 70
         0
  0
ENDTAB
  0
TABLE
  2
APPID
  5
8
100
AcDbSymbolTable
 70
         1
  0
APPID
  5
16
100
AcDbSymbolTableRecord
100
AcDbRegAppTableRecord
  2
ACAD
 70
         0
  0
ENDTAB
  0
TABLE
  2
DIMSTYLE
  5
9
100
AcDbSymbolTable
 70
         1
  0
DIMSTYLE
105
18
100
AcDbSymbolTableRecord
100
AcDbDimStyleTableRecord
  2
MXDIMSTYLE
 70
         0
  3

  4

  5

  6
_OPEN30
  7
_OPEN30
 40
1.0
 41
2.5
 42
0.0
 43
3.75
 44
2.5
 45
0.0
 46
0.0
 47
0.0
 48
0.0
 71
         0
 72
         0
 73
         0
 74
         0
 75
         0
 76
         0
 77
         1
 78
         8
140
3.2000000477
141
2.5
142
0.0
143
0.0393700787
144
1.0
145
0.0
146
1.0
147
1.0
170
         0
171
         4
172
         1
173
         1
174
         0
175
         0
176
         0
177
         0
178
         0
270
         2
271
         2
272
         2
273
         2
274
         4
275
         0
280
         0
281
         0
282
         0
283
         0
284
         0
285
         0
286
         0
287
         3
288
         0
340
17
  0
ENDTAB
  0
TABLE
  2
BLOCK_RECORD
  5
1
100
AcDbSymbolTable
 70
         7
  0
BLOCK_RECORD
  5
A
100
AcDbSymbolTableRecord
100
AcDbBlockTableRecord
  2
*MODEL_SPACE
  0
BLOCK_RECORD
  5
B
100
AcDbSymbolTableRecord
100
AcDbBlockTableRecord
  2
*PAPER_SPACE
  0
BLOCK_RECORD
  5
1F
100
AcDbSymbolTableRecord
100
AcDbBlockTableRecord
  2
ARROW
  0
BLOCK_RECORD
  5
20
100
AcDbSymbolTableRecord
100
AcDbBlockTableRecord
  2
_OPEN30
  0
BLOCK_RECORD
  5
2B
100
AcDbSymbolTableRecord
100
AcDbBlockTableRecord
  2
*D2
  0
BLOCK_RECORD
  5
3B
100
AcDbSymbolTableRecord
100
AcDbBlockTableRecord
  2
*D3
  0
BLOCK_RECORD
  5
163
100
AcDbSymbolTableRecord
100
AcDbBlockTableRecord
  2
*D4
  0
BLOCK_RECORD
  5
173
100
AcDbSymbolTableRecord
100
AcDbBlockTableRecord
  2
*D5
  0
BLOCK_RECORD
  5
182
100
AcDbSymbolTableRecord
100
AcDbBlockTableRecord
  2
*D6
  0
ENDTAB
  0
ENDSEC
  0
SECTION
  2
BLOCKS
  0
BLOCK
  5
D
100
AcDbEntity
  8
0
100
AcDbBlockBegin
  2
*MODEL_SPACE
 70
         0
 10
0.0
 20
0.0
 30
0.0
  3
*MODEL_SPACE
  1

  0
ENDBLK
  5
E
100
AcDbEntity
  8
0
100
AcDbBlockEnd
  0
BLOCK
  5
F
100
AcDbEntity
 67
         1
  8
0
100
AcDbBlockBegin
  2
*PAPER_SPACE
 70
         0
 10
0.0
 20
0.0
 30
0.0
  3
*PAPER_SPACE
  1

  0
ENDBLK
  5
10
100
AcDbEntity
 67
         1
  8
0
100
AcDbBlockEnd
  0
BLOCK
  5
26
100
AcDbEntity
  8
0
100
AcDbBlockBegin
  2
ARROW
 70
         0
 10
0.0
 20
0.0
 30
0.0
  3
ARROW
  1

  0
LWPOLYLINE
  5
27
100
AcDbEntity
  8
0
  6
CONTINUOUS
 62
       193
100
AcDbPolyline
 90
        3
 70
         0
 10
2.39981603
 20
0.643028768
 10
0.0
 20
0.0
 10
2.39981603
 20
-0.643028768
  0
ENDBLK
  5
28
100
AcDbEntity
  8
0
100
AcDbBlockEnd
  0
BLOCK
  5
21
100
AcDbEntity
  8
0
  6
ByBlock
 62
         0
100
AcDbBlockBegin
  2
_OPEN30
 70
         2
 10
0.0
 20
0.0
 30
0.0
  3
_OPEN30
  1

  0
LINE
  5
22
100
AcDbEntity
  8
0
  6
ByBlock
 62
         0
100
AcDbLine
 10
-1.0
 20
0.267949
 30
0.0
 11
0.0
 21
0.0
 31
0.0
  0
LINE
  5
23
100
AcDbEntity
  8
0
  6
ByBlock
 62
         0
100
AcDbLine
 10
0.0
 20
0.0
 30
0.0
 11
-1.0
 21
-0.267949
 31
0.0
  0
LINE
  5
24
100
AcDbEntity
  8
0
  6
ByBlock
 62
         0
100
AcDbLine
 10
0.0
 20
0.0
 30
0.0
 11
-1.0
 21
0.0
 31
0.0
  0
ENDBLK
  5
25
100
AcDbEntity
  8
0
  6
ByBlock
 62
         0
100
AcDbBlockEnd
  0
BLOCK
  5
2C
100
AcDbEntity
  8
0
  6
ByBlock
 62
         0
100
AcDbBlockBegin
  2
*D2
 70
         1
 10
0.0
 20
0.0
 30
0.0
  3
*D2
  1

  0
LINE
  5
2D
100
AcDbEntity
  8
0
  6
CONTINUOUS
 62
       110
100
AcDbLine
 10
32.3375261
 20
93.8477892
 30
0.0
 11
45.0375269
 21
93.8477892
 31
0.0
  0
LINE
  5
2E
100
AcDbEntity
  8
0
  6
CONTINUOUS
 62
       110
100
AcDbLine
 10
32.3375261
 20
85.099988373
 30
0.0
 11
32.3375261
 21
95.8477892
 31
0.0
  0
LINE
  5
2F
100
AcDbEntity
  8
0
  6
CONTINUOUS
 62
       110
100
AcDbLine
 10
45.0375269
 20
85.099988373
 30
0.0
 11
45.0375269
 21
95.8477892
 31
0.0
  0
LINE
  5
30
100
AcDbEntity
  8
0
  6
CONTINUOUS
 62
       110
100
AcDbLine
 10
32.3375261
 20
93.8477892
 30
0.0
 11
28.3375261
 21
93.8477892
 31
0.0
  0
LINE
  5
31
100
AcDbEntity
  8
0
  6
CONTINUOUS
 62
       110
100
AcDbLine
 10
45.0375269
 20
93.8477892
 30
0.0
 11
49.0375269
 21
93.8477892
 31
0.0
  0
SOLID
  5
32
100
AcDbEntity
  8
0
  6
CONTINUOUS
 62
       110
100
AcDbTrace
 10
31.3375260702
 20
94.014456205
 30
0.0
 11
31.3375260702
 21
93.681122195
 31
0.0
 12
32.3375261
 22
93.8477892
 32
0.0
 13
32.3375261
 23
93.8477892
 33
0.0
  0
SOLID
  5
33
100
AcDbEntity
  8
0
  6
CONTINUOUS
 62
       110
100
AcDbTrace
 10
46.0375269298
 20
93.681122195
 30
0.0
 11
46.0375269298
 21
94.014456205
 31
0.0
 12
45.0375269
 22
93.8477892
 32
0.0
 13
45.0375269
 23
93.8477892
 33
0.0
  0
MTEXT
  5
35
100
AcDbEntity
  8
0
  6
CONTINUOUS
 62
       110
100
AcDbMText
 10
38.7125265768
 20
96.4477892238
 30
0.0
 40
3.2000000477
 41
0.0
 71
         5
 72
         1
  1
\A1;13
  7
MX_DIMTXSTY_2
  0
POINT
  5
36
100
AcDbEntity
  8
DEFPOINTS
  6
CONTINUOUS
 62
         0
100
AcDbPoint
 10
32.3375261
 20
85.037488373
 30
0.0
  0
POINT
  5
37
100
AcDbEntity
  8
DEFPOINTS
  6
CONTINUOUS
 62
         0
100
AcDbPoint
 10
45.0375269
 20
85.037488373
 30
0.0
  0
POINT
  5
38
100
AcDbEntity
  8
DEFPOINTS
  6
CONTINUOUS
 62
         0
100
AcDbPoint
 10
45.0375269
 20
93.8477892
 30
0.0
  0
ENDBLK
  5
39
100
AcDbEntity
  8
0
  6
ByBlock
 62
         0
100
AcDbBlockEnd
  0
BLOCK
  5
3C
100
AcDbEntity
  8
0
  6
ByBlock
 62
         0
100
AcDbBlockBegin
  2
*D3
 70
         1
 10
0.0
 20
0.0
 30
0.0
  3
*D3
  1

  0
LINE
  5
3D
100
AcDbEntity
  8
0
  6
CONTINUOUS
 62
       110
100
AcDbLine
 10
45.0375269
 20
93.8477892
 30
0.0
 11
83.2375349
 21
93.8477892
 31
0.0
  0
LINE
  5
3E
100
AcDbEntity
  8
0
  6
CONTINUOUS
 62
       110
100
AcDbLine
 10
45.0375269
 20
85.099988373
 30
0.0
 11
45.0375269
 21
95.8477892
 31
0.0
  0
LINE
  5
3F
100
AcDbEntity
  8
0
  6
CONTINUOUS
 62
       110
100
AcDbLine
 10
83.2375349
 20
81.9122823793
 30
0.0
 11
83.2375349
 21
95.8477892
 31
0.0
  0
LINE
  5
40
100
AcDbEntity
  8
0
  6
CONTINUOUS
 62
       110
100
AcDbLine
 10
45.0375269
 20
93.8477892
 30
0.0
 11
41.0375269
 21
93.8477892
 31
0.0
  0
LINE
  5
41
100
AcDbEntity
  8
0
  6
CONTINUOUS
 62
       110
100
AcDbLine
 10
83.2375349
 20
93.8477892
 30
0.0
 11
87.2375349
 21
93.8477892
 31
0.0
  0
SOLID
  5
42
100
AcDbEntity
  8
0
  6
CONTINUOUS
 62
       110
100
AcDbTrace
 10
44.0375268702
 20
94.014456205
 30
0.0
 11
44.0375268702
 21
93.681122195
 31
0.0
 12
45.0375269
 22
93.8477892
 32
0.0
 13
45.0375269
 23
93.8477892
 33
0.0
  0
SOLID
  5
43
100
AcDbEntity
  8
0
  6
CONTINUOUS
 62
       110
100
AcDbTrace
 10
84.2375349298
 20
93.681122195
 30
0.0
 11
84.2375349298
 21
94.014456205
 31
0.0
 12
83.2375349
 22
93.8477892
 32
0.0
 13
83.2375349
 23
93.8477892
 33
0.0
  0
MTEXT
  5
44
100
AcDbEntity
  8
0
  6
CONTINUOUS
 62
       110
100
AcDbMText
 10
64.1625307147
 20
96.4477892238
 30
0.0
 40
3.2000000477
 41
0.0
 71
         5
 72
         1
  1
\A1;38
  0
POINT
  5
45
100
AcDbEntity
  8
DEFPOINTS
  6
CONTINUOUS
 62
         0
100
AcDbPoint
 10
45.0375269
 20
85.037488373
 30
0.0
  0
POINT
  5
46
100
AcDbEntity
  8
DEFPOINTS
  6
CONTINUOUS
 62
         0
100
AcDbPoint
 10
83.2375349
 20
81.8497823793
 30
0.0
  0
POINT
  5
47
100
AcDbEntity
  8
DEFPOINTS
  6
CONTINUOUS
 62
         0
100
AcDbPoint
 10
83.2375349
 20
93.8477892
 30
0.0
  0
ENDBLK
  5
48
100
AcDbEntity
  8
0
  6
ByBlock
 62
         0
100
AcDbBlockEnd
  0
BLOCK
  5
164
100
AcDbEntity
  8
0
  6
ByBlock
 62
         0
100
AcDbBlockBegin
  2
*D4
 70
         1
 10
0.0
 20
0.0
 30
0.0
  3
*D4
  1

  0
LINE
  5
165
100
AcDbEntity
  8
0
  6
CONTINUOUS
 62
       110
100
AcDbLine
 10
-105.6547
 20
26.6047798
 30
0.0
 11
-105.6547
 21
76.5919776
 31
0.0
  0
LINE
  5
166
100
AcDbEntity
  8
0
  6
CONTINUOUS
 62
       110
100
AcDbLine
 10
-73.341456134
 20
26.6047798
 30
0.0
 11
-107.6547
 21
26.6047798
 31
0.0
  0
LINE
  5
167
100
AcDbEntity
  8
0
  6
CONTINUOUS
 62
       110
100
AcDbLine
 10
-73.341456134
 20
76.5919776
 30
0.0
 11
-107.6547
 21
76.5919776
 31
0.0
  0
LINE
  5
168
100
AcDbEntity
  8
0
  6
CONTINUOUS
 62
       110
100
AcDbLine
 10
-105.6547
 20
26.6047798
 30
0.0
 11
-105.6547
 21
22.6047798
 31
0.0
  0
LINE
  5
169
100
AcDbEntity
  8
0
  6
CONTINUOUS
 62
       110
100
AcDbLine
 10
-105.6547
 20
76.5919776
 30
0.0
 11
-105.6547
 21
80.5919776
 31
0.0
  0
SOLID
  5
16A
100
AcDbEntity
  8
0
  6
CONTINUOUS
 62
       110
100
AcDbTrace
 10
-105.821367005
 20
25.6047797702
 30
0.0
 11
-105.488032995
 21
25.6047797702
 31
0.0
 12
-105.6547
 22
26.6047798
 32
0.0
 13
-105.6547
 23
26.6047798
 33
0.0
  0
SOLID
  5
16B
100
AcDbEntity
  8
0
  6
CONTINUOUS
 62
       110
100
AcDbTrace
 10
-105.488032995
 20
77.5919776298
 30
0.0
 11
-105.821367005
 21
77.5919776298
 31
0.0
 12
-105.6547
 22
76.5919776
 32
0.0
 13
-105.6547
 23
76.5919776
 33
0.0
  0
MTEXT
  5
16D
100
AcDbEntity
  8
0
  6
CONTINUOUS
 62
       110
100
AcDbMText
 10
-108.2547000238
 20
50.6983810268
 30
0.0
 40
3.2000000477
 41
0.0
 71
         5
 72
         1
  1
\A1;50
  7
MX_DIMTXSTY_3
 11
0.0
 21
1.0
 31
0.0
  0
POINT
  5
16E
100
AcDbEntity
  8
DEFPOINTS
  6
CONTINUOUS
 62
         0
100
AcDbPoint
 10
-73.278956134
 20
26.6047798
 30
0.0
  0
POINT
  5
16F
100
AcDbEntity
  8
DEFPOINTS
  6
CONTINUOUS
 62
         0
100
AcDbPoint
 10
-73.278956134
 20
76.5919776
 30
0.0
  0
POINT
  5
170
100
AcDbEntity
  8
DEFPOINTS
  6
CONTINUOUS
 62
         0
100
AcDbPoint
 10
-105.6547
 20
76.5919776
 30
0.0
  0
ENDBLK
  5
171
100
AcDbEntity
  8
0
  6
ByBlock
 62
         0
100
AcDbBlockEnd
  0
BLOCK
  5
174
100
AcDbEntity
  8
0
  6
ByBlock
 62
         0
100
AcDbBlockBegin
  2
*D5
 70
         1
 10
0.0
 20
0.0
 30
0.0
  3
*D5
  1

  0
LINE
  5
175
100
AcDbEntity
  8
0
  6
CONTINUOUS
 62
       110
100
AcDbLine
 10
16.1831263
 20
110.142459
 30
0.0
 11
86.1331305
 21
110.142459
 31
0.0
  0
LINE
  5
176
100
AcDbEntity
  8
0
  6
CONTINUOUS
 62
       110
100
AcDbLine
 10
16.1831263
 20
51.6608763584
 30
0.0
 11
16.1831263
 21
112.142459
 31
0.0
  0
LINE
  5
177
100
AcDbEntity
  8
0
  6
CONTINUOUS
 62
       110
100
AcDbLine
 10
86.1331305
 20
51.6608763584
 30
0.0
 11
86.1331305
 21
112.142459
 31
0.0
  0
LINE
  5
178
100
AcDbEntity
  8
0
  6
CONTINUOUS
 62
       110
100
AcDbLine
 10
16.1831263
 20
110.142459
 30
0.0
 11
12.1831263
 21
110.142459
 31
0.0
  0
LINE
  5
179
100
AcDbEntity
  8
0
  6
CONTINUOUS
 62
       110
100
AcDbLine
 10
86.1331305
 20
110.142459
 30
0.0
 11
90.1331305
 21
110.142459
 31
0.0
  0
SOLID
  5
17A
100
AcDbEntity
  8
0
  6
CONTINUOUS
 62
       110
100
AcDbTrace
 10
15.1831262702
 20
110.309126005
 30
0.0
 11
15.1831262702
 21
109.975791995
 31
0.0
 12
16.1831263
 22
110.142459
 32
0.0
 13
16.1831263
 23
110.142459
 33
0.0
  0
SOLID
  5
17B
100
AcDbEntity
  8
0
  6
CONTINUOUS
 62
       110
100
AcDbTrace
 10
87.1331305298
 20
109.975791995
 30
0.0
 11
87.1331305298
 21
110.309126005
 31
0.0
 12
86.1331305
 22
110.142459
 32
0.0
 13
86.1331305
 23
110.142459
 33
0.0
  0
MTEXT
  5
17C
100
AcDbEntity
  8
0
  6
CONTINUOUS
 62
       110
100
AcDbMText
 10
51.4930017883
 20
112.7424590238
 30
0.0
 40
3.2000000477
 41
0.0
 71
         5
 72
         1
  1
\A1;70
  7
MX_DIMTXSTY_3
  0
POINT
  5
17D
100
AcDbEntity
  8
DEFPOINTS
  6
CONTINUOUS
 62
         0
100
AcDbPoint
 10
16.1831263
 20
51.5983763584
 30
0.0
  0
POINT
  5
17E
100
AcDbEntity
  8
DEFPOINTS
  6
CONTINUOUS
 62
         0
100
AcDbPoint
 10
86.1331305
 20
51.5983763584
 30
0.0
  0
POINT
  5
17F
100
AcDbEntity
  8
DEFPOINTS
  6
CONTINUOUS
 62
         0
100
AcDbPoint
 10
86.1331305
 20
110.142459
 30
0.0
  0
ENDBLK
  5
180
100
AcDbEntity
  8
0
  6
ByBlock
 62
         0
100
AcDbBlockEnd
  0
BLOCK
  5
183
100
AcDbEntity
  8
0
  6
ByBlock
 62
         0
100
AcDbBlockBegin
  2
*D6
 70
         1
 10
0.0
 20
0.0
 30
0.0
  3
*D6
  1

  0
LINE
  5
184
100
AcDbEntity
  8
0
  6
CONTINUOUS
 62
       110
100
AcDbLine
 10
-30.1520788
 20
-6.20063528
 30
0.0
 11
-90.477091
 21
-6.20063528
 31
0.0
  0
LINE
  5
185
100
AcDbEntity
  8
0
  6
CONTINUOUS
 62
       110
100
AcDbLine
 10
-30.1520788
 20
37.0999132735
 30
0.0
 11
-30.1520788
 21
-8.20063528
 31
0.0
  0
LINE
  5
186
100
AcDbEntity
  8
0
  6
CONTINUOUS
 62
       110
100
AcDbLine
 10
-90.477091
 20
37.0999132735
 30
0.0
 11
-90.477091
 21
-8.20063528
 31
0.0
  0
LINE
  5
187
100
AcDbEntity
  8
0
  6
CONTINUOUS
 62
       110
100
AcDbLine
 10
-30.1520788
 20
-6.20063528
 30
0.0
 11
-26.1520788
 21
-6.20063528
 31
0.0
  0
LINE
  5
188
100
AcDbEntity
  8
0
  6
CONTINUOUS
 62
       110
100
AcDbLine
 10
-90.477091
 20
-6.20063528
 30
0.0
 11
-94.477091
 21
-6.20063528
 31
0.0
  0
SOLID
  5
189
100
AcDbEntity
  8
0
  6
CONTINUOUS
 62
       110
100
AcDbTrace
 10
-29.1520787702
 20
-6.367302285
 30
0.0
 11
-29.1520787702
 21
-6.033968275
 31
0.0
 12
-30.1520788
 22
-6.20063528
 32
0.0
 13
-30.1520788
 23
-6.20063528
 33
0.0
  0
SOLID
  5
18A
100
AcDbEntity
  8
0
  6
CONTINUOUS
 62
       110
100
AcDbTrace
 10
-91.4770910298
 20
-6.033968275
 30
0.0
 11
-91.4770910298
 21
-6.367302285
 31
0.0
 12
-90.477091
 22
-6.20063528
 32
0.0
 13
-90.477091
 23
-6.20063528
 33
0.0
  0
MTEXT
  5
18B
100
AcDbEntity
  8
0
  6
CONTINUOUS
 62
       110
100
AcDbMText
 10
-61.2145826147
 20
-3.6006352562
 30
0.0
 40
3.2000000477
 41
0.0
 71
         5
 72
         1
  1
\A1;60.3
  7
MX_DIMTXSTY_2
 11
1.0
 21
0.0
 31
0.0
  0
POINT
  5
18C
100
AcDbEntity
  8
DEFPOINTS
  6
CONTINUOUS
 62
         0
100
AcDbPoint
 10
-30.1520788
 20
37.1624132735
 30
0.0
  0
POINT
  5
18D
100
AcDbEntity
  8
DEFPOINTS
  6
CONTINUOUS
 62
         0
100
AcDbPoint
 10
-90.477091
 20
37.1624132735
 30
0.0
  0
POINT
  5
18E
100
AcDbEntity
  8
DEFPOINTS
  6
CONTINUOUS
 62
         0
100
AcDbPoint
 10
-90.477091
 20
-6.20063528
 30
0.0
  0
ENDBLK
  5
18F
100
AcDbEntity
  8
0
  6
ByBlock
 62
         0
100
AcDbBlockEnd
  0
ENDSEC
  0
SECTION
  2
ENTITIES
  0
MTEXT
  5
29
100
AcDbEntity
  8
0
  6
CONTINUOUS
 62
       110
100
AcDbMText
 10
-9.1392179171
 20
-25.5682606498
 30
0.0
 40
3.2000000477
 41
0.0
 71
         1
 72
         1
  1
\T1.025;\W1.058;\A1;TSUBAKI
  0
MTEXT
  5
2A
100
AcDbEntity
  8
0
  6
CONTINUOUS
 62
       110
100
AcDbMText
 10
-33.2452433171
 20
-57.6473295498
 30
0.0
 40
3.2000000477
 41
0.0
 71
         1
 72
         1
  1
\T1.025;\W1.058;\A1;TSUBAKI
  0
DIMENSION
  5
3A
100
AcDbEntity
  8
PV
  6
CONTINUOUS
 62
       110
100
AcDbDimension
  2
*D2
 10
45.0375269
 20
93.8477892
 30
0.0
 11
38.7125265768
 21
93.8477892
 31
0.0
 70
       128
  1
\A1;<>
  3
MXDIMSTYLE
100
AcDbAlignedDimension
 13
32.3375261
 23
85.037488373
 33
0.0
 14
45.0375269
 24
85.037488373
 34
0.0
100
AcDbRotatedDimension
1001
ACAD
1000
DSTYLE
1002
{
1070
         6
1000
SOLID
1070
         7
1000
SOLID
1070
        41
1040
1.0000000298
1070
        42
1040
0.0625
1070
        44
1040
2.0
1070
       271
1070
         4
1070
       284
1070
         8
1070
       340
1005
34
1070
       343
1005
0
1070
       344
1005
0
1002
}
  0
DIMENSION
  5
49
100
AcDbEntity
  8
PV
  6
CONTINUOUS
 62
       110
100
AcDbDimension
  2
*D3
 10
83.2375349
 20
93.8477892
 30
0.0
 11
64.1625307147
 21
93.8477892
 31
0.0
 70
       128
  1
\A1;<>
  3
MXDIMSTYLE
100
AcDbAlignedDimension
 13
45.0375269
 23
85.037488373
 33
0.0
 14
83.2375349
 24
81.8497823793
 34
0.0
100
AcDbRotatedDimension
1001
ACAD
1000
DSTYLE
1002
{
1070
         6
1000
SOLID
1070
         7
1000
SOLID
1070
        41
1040
1.0000000298
1070
        42
1040
0.0625
1070
        44
1040
2.0
1070
       271
1070
         4
1070
       284
1070
         8
1070
       343
1005
0
1070
       344
1005
0
1002
}
  0
LINE
  5
4A
100
AcDbEntity
  8
PV
  6
CONTINUOUS
 62
         3
100
AcDbLine
 10
1.80496086
 20
34.5930763
 30
0.0
 11
-0.69503914
 21
34.5930763
 31
0.0
  0
LINE
  5
4B
100
AcDbEntity
  8
PV
  6
CONTINUOUS
 62
         3
100
AcDbLine
 10
45.0375277
 20
34.5930763
 30
0.0
 11
1.80496086
 21
34.5930763
 31
0.0
  0
LWPOLYLINE
  5
4C
100
AcDbEntity
  8
PV
  6
CONTINUOUS
 62
         3
100
AcDbPolyline
 90
        3
 70
         0
 10
1.17819585
 20
36.9321952
 10
1.80496086
 20
34.5930763
 10
2.43172587
 20
36.9321952
  0
LINE
  5
4D
100
AcDbEntity
  8
PV
  6
CONTINUOUS
 62
         3
100
AcDbLine
 10
1.80496086
 20
34.5930763
 30
0.0
 11
1.80496086
 21
35.0930763
 31
0.0
  0
LINE
  5
4E
100
AcDbEntity
  8
PV
  6
CONTINUOUS
 62
         3
100
AcDbLine
 10
1.80496086
 20
34.5930763
 30
0.0
 11
1.80496086
 21
56.0983787
 31
0.0
  0
MTEXT
  5
4F
100
AcDbEntity
  8
PV
  6
CONTINUOUS
 62
       110
100
AcDbMText
 10
-2.3950392901
 20
47.3756514085
 30
0.0
 40
3.2000000477
 41
0.0
 71
         1
 72
         1
  1
\W0.895;\A1;\U+220534
 11
-0.0000000035
 21
1.0
 31
0.0
  0
LINE
  5
50
100
AcDbEntity
  8
PV
  6
CONTINUOUS
 62
         3
100
AcDbLine
 10
103.886621
 20
21.3469749
 30
0.0
 11
106.386621
 21
21.3469749
 31
0.0
  0
LINE
  5
51
100
AcDbEntity
  8
PV
  6
CONTINUOUS
 62
         3
100
AcDbLine
 10
83.237535
 20
21.3469749
 30
0.0
 11
103.886621
 21
21.3469749
 31
0.0
  0
LWPOLYLINE
  5
52
100
AcDbEntity
  8
PV
  6
CONTINUOUS
 62
         3
100
AcDbPolyline
 90
        3
 70
         0
 10
103.259856
 20
23.6860938
 10
103.886621
 20
21.3469749
 10
104.513386
 20
23.6860938
  0
LINE
  5
53
100
AcDbEntity
  8
PV
  6
CONTINUOUS
 62
         3
100
AcDbLine
 10
103.886621
 20
21.3469749
 30
0.0
 11
103.886621
 21
21.8469749
 31
0.0
  0
LINE
  5
54
100
AcDbEntity
  8
PV
  6
CONTINUOUS
 62
         3
100
AcDbLine
 10
103.886621
 20
56.0983787
 30
0.0
 11
103.886621
 21
21.3469749
 31
0.0
  0
MTEXT
  5
55
100
AcDbEntity
  8
PV
  6
CONTINUOUS
 62
       110
100
AcDbMText
 10
99.6866208495
 20
44.4784891807
 30
0.0
 40
3.2000000477
 41
0.0
 71
         1
 72
         1
  1
\W1.088;\A1;\U+220560.5
 11
-0.0000000035
 21
1.0
 31
0.0
  0
LINE
  5
56
100
AcDbEntity
  8
PV
  6
CONTINUOUS
 62
         3
100
AcDbLine
 10
-81.7114716
 20
-62.0
 30
0.0
 11
118.853996
 21
-62.0
 31
0.0
  0
LINE
  5
57
100
AcDbEntity
  8
PV
  6
CONTINUOUS
 62
         3
100
AcDbLine
 10
-81.7114716
 20
-68.0
 30
0.0
 11
118.853996
 21
-68.0
 31
0.0
  0
LINE
  5
58
100
AcDbEntity
  8
PV
  6
CONTINUOUS
 62
         3
100
AcDbLine
 10
-81.7114716
 20
-74.0
 30
0.0
 11
118.853996
 21
-74.0
 31
0.0
  0
LINE
  5
59
100
AcDbEntity
  8
PV
  6
CONTINUOUS
 62
         3
100
AcDbLine
 10
-81.7114716
 20
-80.0
 30
0.0
 11
118.853996
 21
-80.0
 31
0.0
  0
LINE
  5
5A
100
AcDbEntity
  8
PV
  6
CONTINUOUS
 62
         3
100
AcDbLine
 10
-81.7114716
 20
-86.0
 30
0.0
 11
118.853996
 21
-86.0
 31
0.0
  0
LINE
  5
5B
100
AcDbEntity
  8
PV
  6
CONTINUOUS
 62
         3
100
AcDbLine
 10
-81.7114716
 20
-92.0
 30
0.0
 11
118.853996
 21
-92.0
 31
0.0
  0
LINE
  5
5C
100
AcDbEntity
  8
PV
  6
CONTINUOUS
 62
         3
100
AcDbLine
 10
-81.7114716
 20
-98.0
 30
0.0
 11
118.853996
 21
-98.0
 31
0.0
  0
LINE
  5
5D
100
AcDbEntity
  8
PV
  6
CONTINUOUS
 62
         3
100
AcDbLine
 10
-81.7114716
 20
-104.0
 30
0.0
 11
118.853996
 21
-104.0
 31
0.0
  0
LINE
  5
5E
100
AcDbEntity
  8
PV
  6
CONTINUOUS
 62
         3
100
AcDbLine
 10
-81.7114716
 20
-110.0
 30
0.0
 11
118.853996
 21
-110.0
 31
0.0
  0
LINE
  5
5F
100
AcDbEntity
  8
PV
  6
CONTINUOUS
 62
         3
100
AcDbLine
 10
33.0612793
 20
-68.0
 30
0.0
 11
33.0612793
 21
-110.0
 31
0.0
  0
LINE
  5
60
100
AcDbEntity
  8
PV
  6
CONTINUOUS
 62
         3
100
AcDbLine
 10
-81.7114716
 20
-56.0
 30
0.0
 11
-81.7114716
 21
-110.0
 31
0.0
  0
LINE
  5
61
100
AcDbEntity
  8
PV
  6
CONTINUOUS
 62
         3
100
AcDbLine
 10
-81.7114716
 20
-56.0
 30
0.0
 11
118.853996
 21
-56.0
 31
0.0
  0
LINE
  5
62
100
AcDbEntity
  8
PV
  6
CONTINUOUS
 62
         3
100
AcDbLine
 10
118.853996
 20
-56.0
 30
0.0
 11
118.853996
 21
-110.0
 31
0.0
  0
MTEXT
  5
63
100
AcDbEntity
  8
PV
  6
CONTINUOUS
 62
       110
100
AcDbMText
 10
-33.2930294088
 20
-63.6473295498
 30
0.0
 40
3.2000000477
 41
0.0
 71
         1
 72
         1
  1
\T1.003;\W1.067;\A1;POWER LOCK
  0
MTEXT
  5
64
100
AcDbEntity
  8
PV
  6
CONTINUOUS
 62
       110
100
AcDbMText
 10
-77.220129289
 20
-75.5323393498
 30
0.0
 40
3.2000000477
 41
0.0
 71
         1
 72
         1
  1
\T1.043;\W1.128;\A1;TIGHTENING TORQUE OF LOCKING NUT
  0
MTEXT
  5
65
100
AcDbEntity
  8
PV
  6
CONTINUOUS
 62
       110
100
AcDbMText
 10
-77.2608119529
 20
-81.5323393498
 30
0.0
 40
3.2000000477
 41
0.0
 71
         1
 72
         1
  1
\T1.028;\W1.060;\A1;TRANSMISSIBLE TORQUE
  0
MTEXT
  5
66
100
AcDbEntity
  8
PV
  6
CONTINUOUS
 62
       110
100
AcDbMText
 10
-77.2608119529
 20
-87.5323393498
 30
0.0
 40
3.2000000477
 41
0.0
 71
         1
 72
         1
  1
\T1.028;\W1.060;\A1;TRANSMISSIBLE THRUST
  0
MTEXT
  5
67
100
AcDbEntity
  8
PV
  6
CONTINUOUS
 62
       110
100
AcDbMText
 10
-77.264878334
 20
-93.5323393498
 30
0.0
 40
3.2000000477
 41
0.0
 71
         1
 72
         1
  1
\T1.025;\W1.104;\A1;CONTACT PRESSURE OF SHAFT
  0
MTEXT
  5
68
100
AcDbEntity
  8
PV
  6
CONTINUOUS
 62
       110
100
AcDbMText
 10
-77.2519617519
 20
-99.5323388498
 30
0.0
 40
3.2000000477
 41
0.0
 71
         1
 72
         1
  1
\T1.030;\W1.126;\A1;CONTACT PRESSURE OF HUB BORE
  0
MTEXT
  5
69
100
AcDbEntity
  8
PV
  6
CONTINUOUS
 62
       110
100
AcDbMText
 10
74.7710813959
 20
-99.4000000882
 30
0.0
 40
3.2000000477
 41
0.0
 71
         1
 72
         1
  1
\W1.412;\A1;\{4.0
  0
MTEXT
  5
6A
100
AcDbEntity
  8
PV
  6
CONTINUOUS
 62
       110
100
AcDbMText
 10
74.7292513255
 20
-93.4000000882
 30
0.0
 40
3.2000000477
 41
0.0
 71
         1
 72
         1
  1
\W1.333;\A1;\{6.6
  0
MTEXT
  5
6B
100
AcDbEntity
  8
PV
  6
CONTINUOUS
 62
       110
100
AcDbMText
 10
71.4107330123
 20
-87.4000000882
 30
0.0
 40
3.2000000477
 41
0.0
 71
         1
 72
         1
  1
\W1.111;\A1;\{3430
  0
MTEXT
  5
6C
100
AcDbEntity
  8
PV
  6
CONTINUOUS
 62
       110
100
AcDbMText
 10
77.8181400153
 20
-81.4000000882
 30
0.0
 40
3.2000000477
 41
0.0
 71
         1
 72
         1
  1
\W1.125;\A1;\{58
  0
MTEXT
  5
6D
100
AcDbEntity
  8
PV
  6
CONTINUOUS
 62
       110
100
AcDbMText
 10
71.4848070825
 20
-75.4000000882
 30
0.0
 40
3.2000000477
 41
0.0
 71
         1
 72
         1
  1
\W1.250;\A1;\{26.6
  0
MTEXT
  5
6E
100
AcDbEntity
  8
PV
  6
CONTINUOUS
 62
       110
100
AcDbMText
 10
-77.2843072285
 20
-69.5323393498
 30
0.0
 40
3.2000000477
 41
0.0
 71
         1
 72
         1
  1
\T1.017;\W1.071;\A1;MODEL NUMBER
  0
MTEXT
  5
6F
100
AcDbEntity
  8
PV
  6
CONTINUOUS
 62
       110
100
AcDbMText
 10
58.702895467
 20
-69.4000000882
 30
0.0
 40
3.2000000477
 41
0.0
 71
         1
 72
         1
  1
\W1.048;\A1;PL034X060MG
  0
MTEXT
  5
70
100
AcDbEntity
  8
PV
  6
CONTINUOUS
 62
       110
100
AcDbMText
 10
43.7428454915
 20
-75.4000000882
 30
0.0
 40
3.2000000477
 41
0.0
 71
         1
 72
         1
  1
\W1.059;\A1;260
  0
MTEXT
  5
71
100
AcDbEntity
  8
PV
  6
CONTINUOUS
 62
       110
100
AcDbMText
 10
43.7428454915
 20
-81.4000000882
 30
0.0
 40
3.2000000477
 41
0.0
 71
         1
 72
         1
  1
\W1.059;\A1;570
  0
MTEXT
  5
72
100
AcDbEntity
  8
PV
  6
CONTINUOUS
 62
       110
100
AcDbMText
 10
40.6181398044
 20
-87.4000000882
 30
0.0
 40
3.2000000477
 41
0.0
 71
         1
 72
         1
  1
\W1.200;\A1;33.7
  0
MTEXT
  5
73
100
AcDbEntity
  8
PV
  6
CONTINUOUS
 62
       110
100
AcDbMText
 10
46.911472738
 20
-93.4000000882
 30
0.0
 40
3.2000000477
 41
0.0
 71
         1
 72
         1
  1
\A1;65
  0
MTEXT
  5
74
100
AcDbEntity
  8
PV
  6
CONTINUOUS
 62
       110
100
AcDbMText
 10
46.911472738
 20
-99.4000000882
 30
0.0
 40
3.2000000477
 41
0.0
 71
         1
 72
         1
  1
\A1;39
  0
MTEXT
  5
75
100
AcDbEntity
  8
PV
  6
CONTINUOUS
 62
       110
100
AcDbMText
 10
40.7225456307
 20
-105.3999998498
 30
0.0
 40
3.2000000477
 41
0.0
 71
         1
 72
         1
  1
\T1.079;\W1.270;\A1; 770
  0
MTEXT
  5
76
100
AcDbEntity
  8
PV
  6
CONTINUOUS
 62
       110
100
AcDbMText
 10
57.084831515
 20
-75.3999998498
 30
0.0
 40
3.2000000477
 41
0.0
 71
         1
 72
         1
  1
\W0.833;\A1;Ｎ・ｍ
  0
MTEXT
  5
77
100
AcDbEntity
  8
PV
  6
CONTINUOUS
 62
       110
100
AcDbMText
 10
57.084831515
 20
-81.3999998498
 30
0.0
 40
3.2000000477
 41
0.0
 71
         1
 72
         1
  1
\W0.833;\A1;Ｎ・ｍ
  0
MTEXT
  5
78
100
AcDbEntity
  8
PV
  6
CONTINUOUS
 62
       110
100
AcDbMText
 10
55.751499338
 20
-87.4000000882
 30
0.0
 40
3.2000000477
 41
0.0
 71
         1
 72
         1
  1
\A1;kN
  0
MTEXT
  5
79
100
AcDbEntity
  8
PV
  6
CONTINUOUS
 62
       110
100
AcDbMText
 10
55.751499338
 20
-93.4000000882
 30
0.0
 40
3.2000000477
 41
0.0
 71
         1
 72
         1
  1
\A1;MPa
  0
MTEXT
  5
7A
100
AcDbEntity
  8
PV
  6
CONTINUOUS
 62
       110
100
AcDbMText
 10
55.751499338
 20
-99.4000000882
 30
0.0
 40
3.2000000477
 41
0.0
 71
         1
 72
         1
  1
\A1;MPa
  0
MTEXT
  5
7B
100
AcDbEntity
  8
PV
  6
CONTINUOUS
 62
       110
100
AcDbMText
 10
56.1430660577
 20
-105.3999998498
 30
0.0
 40
3.2000000477
 41
0.0
 71
         1
 72
         1
  1
\T1.118;\W1.597;\A1; g
  0
MTEXT
  5
7C
100
AcDbEntity
  8
PV
  6
CONTINUOUS
 62
       110
100
AcDbMText
 10
92.084835315
 20
-81.3999998498
 30
0.0
 40
3.2000000477
 41
0.0
 71
         1
 72
         1
  1
\W0.833;\A1;ｋｇｆ・ｍ｝
  0
MTEXT
  5
7D
100
AcDbEntity
  8
PV
  6
CONTINUOUS
 62
       110
100
AcDbMText
 10
92.084835315
 20
-75.3999998498
 30
0.0
 40
3.2000000477
 41
0.0
 71
         1
 72
         1
  1
\W0.833;\A1;ｋｇｆ・ｍ｝
  0
MTEXT
  5
7E
100
AcDbEntity
  8
PV
  6
CONTINUOUS
 62
       110
100
AcDbMText
 10
90.7999879841
 20
-87.4000000882
 30
0.0
 40
3.2000000477
 41
0.0
 71
         1
 72
         1
  1
\W1.091;\A1;kgf\}
  0
MTEXT
  5
7F
100
AcDbEntity
  8
PV
  6
CONTINUOUS
 62
       110
100
AcDbMText
 10
90.751503138
 20
-93.4000000882
 30
0.0
 40
3.2000000477
 41
0.0
 71
         1
 72
         1
  1
\A1;kgf/mm
  0
MTEXT
  5
80
100
AcDbEntity
  8
PV
  6
CONTINUOUS
 62
       110
100
AcDbMText
 10
109.791501119
 20
-93.0000002424
 30
0.0
 40
1.6000000238
 41
0.0
 71
         1
 72
         1
  1
\A1;2
  0
MTEXT
  5
81
100
AcDbEntity
  8
PV
  6
CONTINUOUS
 62
       110
100
AcDbMText
 10
110.8581692989
 20
-93.4000000882
 30
0.0
 40
3.2000000477
 41
0.0
 71
         1
 72
         1
  1
\W1.500;\A1;\}
  0
MTEXT
  5
82
100
AcDbEntity
  8
PV
  6
CONTINUOUS
 62
       110
100
AcDbMText
 10
90.751503138
 20
-99.4000000882
 30
0.0
 40
3.2000000477
 41
0.0
 71
         1
 72
         1
  1
\A1;kgf/mm
  0
MTEXT
  5
83
100
AcDbEntity
  8
PV
  6
CONTINUOUS
 62
       110
100
AcDbMText
 10
109.791501119
 20
-99.0000000424
 30
0.0
 40
1.6000000238
 41
0.0
 71
         1
 72
         1
  1
\A1;2
  0
MTEXT
  5
84
100
AcDbEntity
  8
PV
  6
CONTINUOUS
 62
       110
100
AcDbMText
 10
110.8581692989
 20
-99.4000000882
 30
0.0
 40
3.2000000477
 41
0.0
 71
         1
 72
         1
  1
\W1.500;\A1;\}
  0
MTEXT
  5
85
100
AcDbEntity
  8
PV
  6
CONTINUOUS
 62
       110
100
AcDbMText
 10
-76.327201662
 20
-105.5323010882
 30
0.0
 40
3.2000000477
 41
0.0
 71
         1
 72
         1
  1
\A1;MASS
  0
LINE
  5
86
100
AcDbEntity
  8
PV
  6
CONTINUOUS
 62
         3
100
AcDbLine
 10
37.0365275
 20
26.8333869
 30
0.0
 11
37.0365275
 21
25.1823707
 31
0.0
  0
LINE
  5
87
100
AcDbEntity
  8
PV
  6
CONTINUOUS
 62
         3
100
AcDbLine
 10
30.4833315
 20
79.7542777
 30
0.0
 11
30.4833315
 21
76.5919776
 31
0.0
  0
LINE
  5
88
100
AcDbEntity
  8
PV
  6
CONTINUOUS
 62
         3
100
AcDbLine
 10
30.4833315
 20
23.4424796
 30
0.0
 11
32.083536
 21
23.4424796
 31
0.0
  0
LINE
  5
89
100
AcDbEntity
  8
PV
  6
CONTINUOUS
 62
         3
100
AcDbLine
 10
32.083536
 20
23.4424796
 30
0.0
 11
32.083536
 21
26.8333869
 31
0.0
  0
LINE
  5
8A
100
AcDbEntity
  8
PV
  6
CONTINUOUS
 62
         3
100
AcDbLine
 10
32.083536
 20
79.7542777
 30
0.0
 11
30.4833315
 21
79.7542777
 31
0.0
  0
LINE
  5
8B
100
AcDbEntity
  8
PV
  6
CONTINUOUS
 62
         3
100
AcDbLine
 10
16.1831263
 20
76.5919776
 30
0.0
 11
16.1831263
 21
26.6047798
 31
0.0
  0
LINE
  5
8C
100
AcDbEntity
  8
PV
  6
CONTINUOUS
 62
         3
100
AcDbLine
 10
16.1831263
 20
26.6047798
 30
0.0
 11
30.4833315
 21
26.6047798
 31
0.0
  0
LINE
  5
8D
100
AcDbEntity
  8
PV
  6
CONTINUOUS
 62
         3
100
AcDbLine
 10
30.4833315
 20
76.5919776
 30
0.0
 11
16.1831263
 21
76.5919776
 31
0.0
  0
LINE
  5
8E
100
AcDbEntity
  8
PV
  6
CONTINUOUS
 62
         3
100
AcDbLine
 10
16.1831263
 20
29.1193672
 30
0.0
 11
16.6911295
 21
29.1193672
 31
0.0
  0
LINE
  5
8F
100
AcDbEntity
  8
PV
  6
CONTINUOUS
 62
         3
100
AcDbLine
 10
16.6911295
 20
29.5003867
 30
0.0
 11
16.6911295
 21
29.1193672
 31
0.0
  0
LINE
  5
90
100
AcDbEntity
  8
PV
  6
CONTINUOUS
 62
         3
100
AcDbLine
 10
30.4833315
 20
26.6047798
 30
0.0
 11
30.4833315
 21
23.4424796
 31
0.0
  0
LINE
  5
91
100
AcDbEntity
  8
PV
  6
CONTINUOUS
 62
         3
100
AcDbLine
 10
30.4833315
 20
75.3226447
 30
0.0
 11
30.4833315
 21
52.8677116
 31
0.0
  0
LINE
  5
92
100
AcDbEntity
  8
PV
  6
CONTINUOUS
 62
         3
100
AcDbLine
 10
32.083536
 20
26.8333869
 30
0.0
 11
37.0365275
 21
26.8333869
 31
0.0
  0
LINE
  5
93
100
AcDbEntity
  8
PV
  6
CONTINUOUS
 62
         3
100
AcDbLine
 10
32.3375261
 20
76.3633705
 30
0.0
 11
32.083536
 21
76.3633705
 31
0.0
  0
LINE
  5
94
100
AcDbEntity
  8
PV
  6
CONTINUOUS
 62
         3
100
AcDbLine
 10
37.0365275
 20
25.1823707
 30
0.0
 11
40.2623308
 21
25.1823707
 31
0.0
  0
LINE
  5
95
100
AcDbEntity
  8
PV
  6
CONTINUOUS
 62
         3
100
AcDbLine
 10
16.1831263
 20
52.8677116
 30
0.0
 11
22.7363337
 21
52.8677116
 31
0.0
  0
LINE
  5
96
100
AcDbEntity
  8
PV
  6
CONTINUOUS
 62
         3
100
AcDbLine
 10
16.1831263
 20
75.3226447
 30
0.0
 11
22.7363337
 21
75.3226447
 31
0.0
  0
LINE
  5
97
100
AcDbEntity
  8
PV
  6
CONTINUOUS
 62
         3
100
AcDbLine
 10
22.7363337
 20
53.3537879
 30
0.0
 11
23.9301355
 21
53.3537879
 31
0.0
  0
LINE
  5
98
100
AcDbEntity
  8
PV
  6
CONTINUOUS
 62
         3
100
AcDbLine
 10
23.9301355
 20
51.5983787
 30
0.0
 11
23.9301355
 21
53.3537879
 31
0.0
  0
LINE
  5
99
100
AcDbEntity
  8
PV
  6
CONTINUOUS
 62
         3
100
AcDbLine
 10
22.7363337
 20
51.5983787
 30
0.0
 11
22.7363337
 21
53.3537879
 31
0.0
  0
LINE
  5
9A
100
AcDbEntity
  8
PV
  6
CONTINUOUS
 62
         3
100
AcDbLine
 10
23.9301355
 20
52.8677116
 30
0.0
 11
30.4833315
 21
52.8677116
 31
0.0
  0
LINE
  5
9B
100
AcDbEntity
  8
PV
  6
CONTINUOUS
 62
         3
100
AcDbLine
 10
22.7363337
 20
74.8365455
 30
0.0
 11
23.9301355
 21
74.8365455
 31
0.0
  0
LINE
  5
9C
100
AcDbEntity
  8
PV
  6
CONTINUOUS
 62
         3
100
AcDbLine
 10
23.9301355
 20
74.8365455
 30
0.0
 11
23.9301355
 21
76.5919776
 31
0.0
  0
LINE
  5
9D
100
AcDbEntity
  8
PV
  6
CONTINUOUS
 62
         3
100
AcDbLine
 10
22.7363337
 20
74.8365455
 30
0.0
 11
22.7363337
 21
76.5919776
 31
0.0
  0
LINE
  5
9E
100
AcDbEntity
  8
PV
  6
CONTINUOUS
 62
         3
100
AcDbLine
 10
23.9301355
 20
75.3226447
 30
0.0
 11
30.4833315
 21
75.3226447
 31
0.0
  0
LINE
  5
9F
100
AcDbEntity
  8
PV
  6
CONTINUOUS
 62
         3
100
AcDbLine
 10
32.3375261
 20
85.0374885
 30
0.0
 11
32.3375261
 21
51.5983787
 31
0.0
  0
LINE
  5
A0
100
AcDbEntity
  8
PV
  6
CONTINUOUS
 62
         3
100
AcDbLine
 10
32.3375261
 20
18.1592689
 30
0.0
 11
38.0906313
 21
18.1592689
 31
0.0
  0
LINE
  5
A1
100
AcDbEntity
  8
PV
  6
CONTINUOUS
 62
         3
100
AcDbLine
 10
45.0375269
 20
18.1592689
 30
0.0
 11
45.0375269
 21
21.3469749
 31
0.0
  0
LINE
  5
A2
100
AcDbEntity
  8
PV
  6
CONTINUOUS
 62
         3
100
AcDbLine
 10
45.0375269
 20
85.0374885
 30
0.0
 11
39.2844332
 21
85.0374885
 31
0.0
  0
LINE
  5
A3
100
AcDbEntity
  8
PV
  6
CONTINUOUS
 62
         3
100
AcDbLine
 10
45.0375269
 20
21.3469749
 30
0.0
 11
83.2375349
 21
21.3469749
 31
0.0
  0
LINE
  5
A4
100
AcDbEntity
  8
PV
  6
CONTINUOUS
 62
         3
100
AcDbLine
 10
83.2375349
 20
21.3469749
 30
0.0
 11
83.2375349
 21
24.7626243
 31
0.0
  0
LINE
  5
A5
100
AcDbEntity
  8
PV
  6
CONTINUOUS
 62
         3
100
AcDbLine
 10
83.2375349
 20
81.8497825
 30
0.0
 11
45.0375269
 21
81.8497825
 31
0.0
  0
LINE
  5
A7
100
AcDbEntity
  8
PV
  6
CENTER
 62
         3
100
AcDbLine
 10
-60.3145849
 20
14.7347846
 30
0.0
 11
-60.3145849
 21
51.5983787
 31
0.0
  0
LINE
  5
A8
100
AcDbEntity
  8
PV
  6
CENTER
 62
         3
100
AcDbLine
 10
-94.4789068
 20
51.5983787
 30
0.0
 11
-60.3145849
 21
51.5983787
 31
0.0
  0
LINE
  5
AA
100
AcDbEntity
  8
PV
  6
PHANTOM
 62
         3
100
AcDbLine
 10
90.7167925
 20
51.5983787
 30
0.0
 11
11.8647211
 21
51.5983787
 31
0.0
  0
LINE
  5
AB
100
AcDbEntity
  8
PV
  6
CONTINUOUS
 62
         3
100
AcDbLine
 10
-59.1239645
 20
85.0162711
 30
0.0
 11
-59.1239645
 21
79.7291007
 31
0.0
  0
LINE
  5
AC
100
AcDbEntity
  8
PV
  6
CONTINUOUS
 62
         3
100
AcDbLine
 10
-61.5052053
 20
85.0162711
 30
0.0
 11
-61.5052053
 21
79.7291007
 31
0.0
  0
LINE
  5
AD
100
AcDbEntity
  8
PV
  6
CONTINUOUS
 62
         3
100
AcDbLine
 10
-89.8506407
 20
67.2762251
 30
0.0
 11
-85.2718238
 21
64.6326276
 31
0.0
  0
LINE
  5
AE
100
AcDbEntity
  8
PV
  6
CONTINUOUS
 62
         3
100
AcDbLine
 10
-88.6600288
 20
69.3384584
 30
0.0
 11
-84.0811921
 21
66.6948494
 31
0.0
  0
LINE
  5
AF
100
AcDbEntity
  8
PV
  6
CONTINUOUS
 62
         3
100
AcDbLine
 10
-89.8506427
 20
35.9205603
 30
0.0
 11
-85.2718099
 21
38.5641416
 31
0.0
  0
LINE
  5
B0
100
AcDbEntity
  8
PV
  6
CONTINUOUS
 62
         3
100
AcDbLine
 10
-88.6600254
 20
33.8583434
 30
0.0
 11
-84.0811925
 21
36.5019247
 31
0.0
  0
LINE
  5
B1
100
AcDbEntity
  8
PV
  6
CONTINUOUS
 62
         3
100
AcDbLine
 10
-30.7785294
 20
35.9205576
 30
0.0
 11
-35.3573573
 21
38.564136
 31
0.0
  0
LINE
  5
B2
100
AcDbEntity
  8
PV
  6
CONTINUOUS
 62
         3
100
AcDbLine
 10
-31.9691525
 20
33.8583308
 30
0.0
 11
-36.5479804
 21
36.5019092
 31
0.0
  0
LINE
  5
B3
100
AcDbEntity
  8
PV
  6
CONTINUOUS
 62
         3
100
AcDbLine
 10
-31.9691447
 20
69.3384458
 30
0.0
 11
-36.5479774
 21
66.6948392
 31
0.0
  0
LINE
  5
B4
100
AcDbEntity
  8
PV
  6
CONTINUOUS
 62
         3
100
AcDbLine
 10
-30.7785259
 20
67.2762298
 30
0.0
 11
-35.3573583
 21
64.6326233
 31
0.0
  0
LINE
  5
B5
100
AcDbEntity
  8
PV
  6
CONTINUOUS
 62
         3
100
AcDbLine
 10
36.6555307
 20
26.5793739
 30
0.0
 11
34.2425326
 21
26.5793739
 31
0.0
  0
LINE
  5
B6
100
AcDbEntity
  8
PV
  6
CONTINUOUS
 62
         3
100
AcDbLine
 10
34.2425326
 20
26.5793739
 30
0.0
 11
34.2425326
 21
26.8333869
 31
0.0
  0
LINE
  5
B7
100
AcDbEntity
  8
PV
  6
CONTINUOUS
 62
         3
100
AcDbLine
 10
36.6555307
 20
24.9283805
 30
0.0
 11
36.6555307
 21
26.8333869
 31
0.0
  0
LINE
  5
B8
100
AcDbEntity
  8
PV
  6
CONTINUOUS
 62
         3
100
AcDbLine
 10
34.2425385
 20
26.5793741
 30
0.0
 11
32.3375388
 21
24.6743744
 31
0.0
  0
LINE
  5
B9
100
AcDbEntity
  8
PV
  6
CONTINUOUS
 62
         3
100
AcDbLine
 10
83.2375301
 20
24.6870865
 30
0.0
 11
40.2877273
 21
26.9349865
 31
0.0
  0
LINE
  5
BA
100
AcDbEntity
  8
PV
  6
CONTINUOUS
 62
         3
100
AcDbLine
 10
40.2623308
 20
24.9283805
 30
0.0
 11
36.6555307
 21
24.9283805
 31
0.0
  0
LINE
  5
BB
100
AcDbEntity
  8
PV
  6
CONTINUOUS
 62
         3
100
AcDbLine
 10
40.2623308
 20
24.9283805
 30
0.0
 11
40.2623308
 21
30.5163703
 31
0.0
  0
LINE
  5
BC
100
AcDbEntity
  8
PV
  6
CONTINUOUS
 62
         3
100
AcDbLine
 10
-61.5052053
 20
23.4676795
 30
0.0
 11
-61.5052053
 21
18.1804862
 31
0.0
  0
LINE
  5
BD
100
AcDbEntity
  8
PV
  6
CONTINUOUS
 62
         3
100
AcDbLine
 10
-59.1239645
 20
23.4676795
 30
0.0
 11
-59.1239645
 21
18.1804862
 31
0.0
  0
LINE
  5
BE
100
AcDbEntity
  8
PV
  6
CONTINUOUS
 62
         3
100
AcDbLine
 10
45.0375269
 20
70.5018897
 30
0.0
 11
39.2844332
 21
70.5018897
 31
0.0
  0
LINE
  5
BF
100
AcDbEntity
  8
PV
  6
CONTINUOUS
 62
         3
100
AcDbLine
 10
45.0375269
 20
69.3384147
 30
0.0
 11
32.3375261
 21
69.3384147
 31
0.0
  0
LINE
  5
C0
100
AcDbEntity
  8
PV
  6
CONTINUOUS
 62
         3
100
AcDbLine
 10
45.0375269
 20
67.2761894
 30
0.0
 11
32.3375261
 21
67.2761894
 31
0.0
  0
LINE
  5
C1
100
AcDbEntity
  8
PV
  6
CONTINUOUS
 62
         3
100
AcDbLine
 10
45.0375269
 20
66.0343452
 30
0.0
 11
39.2844332
 21
66.0343452
 31
0.0
  0
LINE
  5
C2
100
AcDbEntity
  8
PV
  6
CONTINUOUS
 62
         3
100
AcDbLine
 10
81.56113
 20
65.6367545
 30
0.0
 11
45.0375269
 21
65.6367545
 31
0.0
  0
LINE
  5
C3
100
AcDbEntity
  8
PV
  6
CONTINUOUS
 62
         3
100
AcDbLine
 10
81.56113
 20
67.6989799
 30
0.0
 11
45.0375269
 21
67.6989799
 31
0.0
  0
LINE
  5
C4
100
AcDbEntity
  8
PV
  6
CONTINUOUS
 62
         3
100
AcDbLine
 10
39.2844332
 20
65.4358192
 30
0.0
 11
38.0906313
 21
65.4358192
 31
0.0
  0
LINE
  5
C5
100
AcDbEntity
  8
PV
  6
CONTINUOUS
 62
         3
100
AcDbLine
 10
39.2844332
 20
67.2761894
 30
0.0
 11
39.2844332
 21
65.4358192
 31
0.0
  0
LINE
  5
C6
100
AcDbEntity
  8
PV
  6
CONTINUOUS
 62
         3
100
AcDbLine
 10
38.0906313
 20
67.2761894
 30
0.0
 11
38.0906313
 21
65.4358192
 31
0.0
  0
LINE
  5
C7
100
AcDbEntity
  8
PV
  6
CONTINUOUS
 62
         3
100
AcDbLine
 10
39.2844332
 20
70.8011527
 30
0.0
 11
38.0906313
 21
70.8011527
 31
0.0
  0
LINE
  5
C8
100
AcDbEntity
  8
PV
  6
CONTINUOUS
 62
         3
100
AcDbLine
 10
39.2844332
 20
70.8011527
 30
0.0
 11
39.2844332
 21
69.3384147
 31
0.0
  0
LINE
  5
C9
100
AcDbEntity
  8
PV
  6
CONTINUOUS
 62
         3
100
AcDbLine
 10
38.0906313
 20
70.8011527
 30
0.0
 11
38.0906313
 21
69.3384147
 31
0.0
  0
LINE
  5
CA
100
AcDbEntity
  8
PV
  6
CONTINUOUS
 62
         3
100
AcDbLine
 10
38.0906313
 20
66.0343452
 30
0.0
 11
32.3375261
 21
66.0343452
 31
0.0
  0
LINE
  5
CB
100
AcDbEntity
  8
PV
  6
CONTINUOUS
 62
         3
100
AcDbLine
 10
38.0906313
 20
70.5018897
 30
0.0
 11
32.3375261
 21
70.5018897
 31
0.0
  0
LINE
  5
CC
100
AcDbEntity
  8
PV
  6
CONTINUOUS
 62
         3
100
AcDbLine
 10
39.2844332
 20
18.1592689
 30
0.0
 11
39.2844332
 21
18.413282
 31
0.0
  0
LINE
  5
CD
100
AcDbEntity
  8
PV
  6
CONTINUOUS
 62
         3
100
AcDbLine
 10
38.0906313
 20
18.1592689
 30
0.0
 11
38.0906313
 21
18.413282
 31
0.0
  0
LINE
  5
CE
100
AcDbEntity
  8
PV
  6
CONTINUOUS
 62
         3
100
AcDbLine
 10
38.0906313
 20
18.413282
 30
0.0
 11
39.2844332
 21
18.413282
 31
0.0
  0
LINE
  5
CF
100
AcDbEntity
  8
PV
  6
CONTINUOUS
 62
         3
100
AcDbLine
 10
39.2844332
 20
18.1592689
 30
0.0
 11
45.0375269
 21
18.1592689
 31
0.0
  0
LINE
  5
D0
100
AcDbEntity
  8
PV
  6
CONTINUOUS
 62
         3
100
AcDbLine
 10
38.0906313
 20
84.7834754
 30
0.0
 11
39.2844332
 21
84.7834754
 31
0.0
  0
LINE
  5
D1
100
AcDbEntity
  8
PV
  6
CONTINUOUS
 62
         3
100
AcDbLine
 10
39.2844332
 20
85.0374885
 30
0.0
 11
39.2844332
 21
84.7834754
 31
0.0
  0
LINE
  5
D2
100
AcDbEntity
  8
PV
  6
CONTINUOUS
 62
         3
100
AcDbLine
 10
38.0906313
 20
85.0374885
 30
0.0
 11
38.0906313
 21
84.7834754
 31
0.0
  0
LINE
  5
D3
100
AcDbEntity
  8
PV
  6
CONTINUOUS
 62
         3
100
AcDbLine
 10
38.0906313
 20
85.0374885
 30
0.0
 11
32.3375261
 21
85.0374885
 31
0.0
  0
LINE
  5
D4
100
AcDbEntity
  8
PV
  6
CONTINUOUS
 62
         3
100
AcDbLine
 10
86.1331305
 20
78.2043357
 30
0.0
 11
86.1331305
 21
51.5983787
 31
0.0
  0
LINE
  5
D5
100
AcDbEntity
  8
PV
  6
CONTINUOUS
 62
         3
100
AcDbLine
 10
85.7521338
 20
78.5659232
 30
0.0
 11
85.7521338
 21
51.5983787
 31
0.0
  0
LINE
  5
D6
100
AcDbEntity
  8
PV
  6
CONTINUOUS
 62
         3
100
AcDbLine
 10
85.7521363
 20
24.6308292
 30
0.0
 11
45.0375293
 21
26.7593497
 31
0.0
  0
LINE
  5
D7
100
AcDbEntity
  8
PV
  6
CONTINUOUS
 62
         3
100
AcDbLine
 10
85.7521338
 20
78.5659287
 30
0.0
 11
83.2375306
 21
78.4341279
 31
0.0
  0
LINE
  5
D8
100
AcDbEntity
  8
PV
  6
CONTINUOUS
 62
         3
100
AcDbLine
 10
86.1331413
 20
24.9923676
 30
0.0
 11
85.7521412
 21
24.6308239
 31
0.0
  0
LINE
  5
D9
100
AcDbEntity
  8
PV
  6
CONTINUOUS
 62
         3
100
AcDbLine
 10
86.1331324
 20
78.2043326
 30
0.0
 11
85.7521284
 21
78.5659054
 31
0.0
  0
LINE
  5
DA
100
AcDbEntity
  8
PV
  6
CONTINUOUS
 62
         3
100
AcDbLine
 10
16.1831263
 20
51.5983787
 30
0.0
 11
16.1831263
 21
30.4825187
 31
0.0
  0
LINE
  5
DB
100
AcDbEntity
  8
PV
  6
CONTINUOUS
 62
         3
100
AcDbLine
 10
34.420328
 20
30.5163703
 30
0.0
 11
44.2755335
 21
30.5163703
 31
0.0
  0
LINE
  5
DC
100
AcDbEntity
  8
PV
  6
CONTINUOUS
 62
         3
100
AcDbLine
 10
-79.7364447
 20
52.1937461
 30
0.0
 11
-77.3094503
 21
52.1937461
 31
0.0
  0
LINE
  5
DD
100
AcDbEntity
  8
PV
  6
CONTINUOUS
 62
         3
100
AcDbLine
 10
-79.7364447
 20
51.0030113
 30
0.0
 11
-77.3094503
 21
51.0030113
 31
0.0
  0
LINE
  5
DE
100
AcDbEntity
  8
PV
  6
CONTINUOUS
 62
         3
100
AcDbLine
 10
-69.5098929
 20
34.4808536
 30
0.0
 11
-68.2964097
 21
36.5827004
 31
0.0
  0
LINE
  5
DF
100
AcDbEntity
  8
PV
  6
CONTINUOUS
 62
         3
100
AcDbLine
 10
-70.5411317
 20
35.0762434
 30
0.0
 11
-69.3276237
 21
37.1780891
 31
0.0
  0
LINE
  5
E0
100
AcDbEntity
  8
PV
  6
CONTINUOUS
 62
         3
100
AcDbLine
 10
-50.088026
 20
35.0762252
 30
0.0
 11
-51.3015206
 21
37.1780918
 31
0.0
  0
LINE
  5
E1
100
AcDbEntity
  8
PV
  6
CONTINUOUS
 62
         3
100
AcDbLine
 10
-51.1192535
 20
34.4808631
 30
0.0
 11
-52.3327672
 21
36.5827187
 31
0.0
  0
LINE
  5
E2
100
AcDbEntity
  8
PV
  6
CONTINUOUS
 62
         3
100
AcDbLine
 10
-40.8927023
 20
52.1937461
 30
0.0
 11
-43.3196966
 21
52.1937461
 31
0.0
  0
LINE
  5
E3
100
AcDbEntity
  8
PV
  6
CONTINUOUS
 62
         3
100
AcDbLine
 10
-40.8927023
 20
51.0030113
 30
0.0
 11
-43.3196966
 21
51.0030113
 31
0.0
  0
LINE
  5
E4
100
AcDbEntity
  8
PV
  6
CONTINUOUS
 62
         3
100
AcDbLine
 10
-51.119253
 20
68.7159198
 30
0.0
 11
-52.332761
 21
66.6140741
 31
0.0
  0
LINE
  5
E5
100
AcDbEntity
  8
PV
  6
CONTINUOUS
 62
         3
100
AcDbLine
 10
-50.0880423
 20
68.1205458
 30
0.0
 11
-51.3015312
 21
66.0186891
 31
0.0
  0
LINE
  5
E6
100
AcDbEntity
  8
PV
  6
CONTINUOUS
 62
         3
100
AcDbLine
 10
-70.5411379
 20
68.1205495
 30
0.0
 11
-69.3276243
 21
66.0186938
 31
0.0
  0
LINE
  5
E7
100
AcDbEntity
  8
PV
  6
CONTINUOUS
 62
         3
100
AcDbLine
 10
-69.5098897
 20
68.715923
 30
0.0
 11
-68.2964066
 21
66.6140762
 31
0.0
  0
LINE
  5
E8
100
AcDbEntity
  8
PV
  6
CONTINUOUS
 62
         3
100
AcDbLine
 10
86.1331316
 20
75.2449381
 30
0.0
 11
83.2375332
 21
75.1147124
 31
0.0
  0
LINE
  5
E9
100
AcDbEntity
  8
PV
  6
CONTINUOUS
 62
         3
100
AcDbLine
 10
86.1331301
 20
74.6495645
 30
0.0
 11
83.2375317
 21
74.5193387
 31
0.0
  0
LINE
  5
EA
100
AcDbEntity
  8
PV
  6
CONTINUOUS
 62
         3
100
AcDbLine
 10
86.1331305
 20
51.5983787
 30
0.0
 11
86.1331305
 21
24.9923759
 31
0.0
  0
LINE
  5
EB
100
AcDbEntity
  8
PV
  6
CONTINUOUS
 62
         3
100
AcDbLine
 10
45.0375269
 20
51.5983787
 30
0.0
 11
45.0375269
 21
32.1673866
 31
0.0
  0
LINE
  5
EC
100
AcDbEntity
  8
PV
  6
CONTINUOUS
 62
         3
100
AcDbLine
 10
16.1831263
 20
32.1673866
 30
0.0
 11
45.0375269
 21
32.1673866
 31
0.0
  0
LINE
  5
ED
100
AcDbEntity
  8
PV
  6
CONTINUOUS
 62
         3
100
AcDbLine
 10
45.0375269
 20
34.5930763
 30
0.0
 11
86.1331305
 21
34.5930763
 31
0.0
  0
LINE
  5
EE
100
AcDbEntity
  8
PV
  6
CONTINUOUS
 62
         3
100
AcDbLine
 10
45.0375269
 20
51.5983787
 30
0.0
 11
45.0375269
 21
85.0374885
 31
0.0
  0
LINE
  5
EF
100
AcDbEntity
  8
PV
  6
CONTINUOUS
 62
         3
100
AcDbLine
 10
32.083536
 20
51.5983787
 30
0.0
 11
32.083536
 21
79.7542777
 31
0.0
  0
LINE
  5
F0
100
AcDbEntity
  8
PV
  6
CONTINUOUS
 62
         3
100
AcDbLine
 10
32.3375261
 20
26.8333869
 30
0.0
 11
32.3375261
 21
18.1592689
 31
0.0
  0
LINE
  5
F1
100
AcDbEntity
  8
PV
  6
CONTINUOUS
 62
         3
100
AcDbLine
 10
24.0483654
 20
30.5163695
 30
0.0
 11
24.3111271
 21
29.5003747
 31
0.0
  0
LINE
  5
F2
100
AcDbEntity
  8
PV
  6
CONTINUOUS
 62
         3
100
AcDbLine
 10
24.3111323
 20
29.5003867
 30
0.0
 11
25.3840731
 21
29.5003867
 31
0.0
  0
LINE
  5
F3
100
AcDbEntity
  8
PV
  6
CONTINUOUS
 62
         3
100
AcDbLine
 10
25.3840891
 20
29.5003691
 30
0.0
 11
25.6468269
 21
30.51637
 31
0.0
  0
LINE
  5
F4
100
AcDbEntity
  8
PV
  6
CONTINUOUS
 62
         3
100
AcDbLine
 10
25.646818
 20
30.5163703
 30
0.0
 11
26.5883692
 21
30.5163703
 31
0.0
  0
LINE
  5
F5
100
AcDbEntity
  8
PV
  6
CONTINUOUS
 62
         3
100
AcDbLine
 10
26.5883614
 20
30.5163801
 30
0.0
 11
26.8511231
 21
29.5003853
 31
0.0
  0
LINE
  5
F6
100
AcDbEntity
  8
PV
  6
CONTINUOUS
 62
         3
100
AcDbLine
 10
31.6683627
 20
30.2623784
 30
0.0
 11
31.9311244
 21
29.2463836
 31
0.0
  0
LINE
  5
F7
100
AcDbEntity
  8
PV
  6
CONTINUOUS
 62
         3
100
AcDbLine
 10
31.931135
 20
29.2463737
 30
0.0
 11
32.9383638
 21
29.2463737
 31
0.0
  0
LINE
  5
F8
100
AcDbEntity
  8
PV
  6
CONTINUOUS
 62
         3
100
AcDbLine
 10
32.9383775
 20
29.2463896
 30
0.0
 11
33.2011391
 21
30.2623844
 31
0.0
  0
LINE
  5
F9
100
AcDbEntity
  8
PV
  6
CONTINUOUS
 62
         3
100
AcDbLine
 10
33.2011316
 20
30.2623802
 30
0.0
 11
34.2083719
 21
30.2623802
 31
0.0
  0
LINE
  5
FA
100
AcDbEntity
  8
PV
  6
CONTINUOUS
 62
         3
100
AcDbLine
 10
34.4711283
 20
29.2463737
 30
0.0
 11
35.4783686
 21
29.2463737
 31
0.0
  0
LINE
  5
FB
100
AcDbEntity
  8
PV
  6
CONTINUOUS
 62
         3
100
AcDbLine
 10
34.2083642
 20
30.2623904
 30
0.0
 11
34.4711316
 21
29.2463734
 31
0.0
  0
LINE
  5
FC
100
AcDbEntity
  8
PV
  6
CONTINUOUS
 62
         3
100
AcDbLine
 10
35.4783679
 20
29.2463805
 30
0.0
 11
35.7411296
 21
30.2623753
 31
0.0
  0
LINE
  5
FD
100
AcDbEntity
  8
PV
  6
CONTINUOUS
 62
         3
100
AcDbLine
 10
35.7411364
 20
30.2623802
 30
0.0
 11
36.7483652
 21
30.2623802
 31
0.0
  0
LINE
  5
FE
100
AcDbEntity
  8
PV
  6
CONTINUOUS
 62
         3
100
AcDbLine
 10
37.011133
 20
29.2463737
 30
0.0
 11
38.0183733
 21
29.2463737
 31
0.0
  0
LINE
  5
FF
100
AcDbEntity
  8
PV
  6
CONTINUOUS
 62
         3
100
AcDbLine
 10
36.7483659
 20
30.2623788
 30
0.0
 11
37.0111275
 21
29.246384
 31
0.0
  0
LINE
  5
100
100
AcDbEntity
  8
PV
  6
CONTINUOUS
 62
         3
100
AcDbLine
 10
39.2883618
 20
30.2623894
 30
0.0
 11
39.5511292
 21
29.2463724
 31
0.0
  0
LINE
  5
101
100
AcDbEntity
  8
PV
  6
CONTINUOUS
 62
         3
100
AcDbLine
 10
39.5511263
 20
29.2463737
 30
0.0
 11
40.2623308
 21
29.2463737
 31
0.0
  0
LINE
  5
102
100
AcDbEntity
  8
PV
  6
CONTINUOUS
 62
         3
100
AcDbLine
 10
38.0183751
 20
29.2463906
 30
0.0
 11
38.2811368
 21
30.2623854
 31
0.0
  0
LINE
  5
103
100
AcDbEntity
  8
PV
  6
CONTINUOUS
 62
         3
100
AcDbLine
 10
38.2811297
 20
30.2623802
 30
0.0
 11
39.28837
 21
30.2623802
 31
0.0
  0
LINE
  5
104
100
AcDbEntity
  8
PV
  6
CONTINUOUS
 62
         3
100
AcDbLine
 10
29.3911303
 20
29.2463737
 30
0.0
 11
30.3983706
 21
29.2463737
 31
0.0
  0
LINE
  5
105
100
AcDbEntity
  8
PV
  6
CONTINUOUS
 62
         3
100
AcDbLine
 10
29.128361
 20
30.26239
 30
0.0
 11
29.3911284
 21
29.246373
 31
0.0
  0
LINE
  5
106
100
AcDbEntity
  8
PV
  6
CONTINUOUS
 62
         3
100
AcDbLine
 10
30.3983703
 20
29.2463795
 30
0.0
 11
30.6611319
 21
30.2623743
 31
0.0
  0
LINE
  5
107
100
AcDbEntity
  8
PV
  6
CONTINUOUS
 62
         3
100
AcDbLine
 10
30.6611269
 20
30.2623802
 30
0.0
 11
31.6683672
 21
30.2623802
 31
0.0
  0
LINE
  5
108
100
AcDbEntity
  8
PV
  6
CONTINUOUS
 62
         3
100
AcDbLine
 10
28.1211336
 20
30.2623802
 30
0.0
 11
29.1283625
 21
30.2623802
 31
0.0
  0
LINE
  5
109
100
AcDbEntity
  8
PV
  6
CONTINUOUS
 62
         3
100
AcDbLine
 10
27.8583799
 20
29.2463886
 30
0.0
 11
28.1211415
 21
30.2623834
 31
0.0
  0
LINE
  5
10A
100
AcDbEntity
  8
PV
  6
CONTINUOUS
 62
         3
100
AcDbLine
 10
26.5883651
 20
30.2623794
 30
0.0
 11
26.8511268
 21
29.2463846
 31
0.0
  0
LINE
  5
10B
100
AcDbEntity
  8
PV
  6
CONTINUOUS
 62
         3
100
AcDbLine
 10
26.8511255
 20
29.2463737
 30
0.0
 11
27.8583658
 21
29.2463737
 31
0.0
  0
LINE
  5
10C
100
AcDbEntity
  8
PV
  6
CONTINUOUS
 62
         3
100
AcDbLine
 10
21.7711275
 20
29.2463737
 30
0.0
 11
22.7783678
 21
29.2463737
 31
0.0
  0
LINE
  5
10D
100
AcDbEntity
  8
PV
  6
CONTINUOUS
 62
         3
100
AcDbLine
 10
17.6983625
 20
29.2463923
 30
0.0
 11
17.9611241
 21
30.2623871
 31
0.0
  0
LINE
  5
10E
100
AcDbEntity
  8
PV
  6
CONTINUOUS
 62
         3
100
AcDbLine
 10
16.6911295
 20
29.2463737
 30
0.0
 11
17.6983698
 21
29.2463737
 31
0.0
  0
LINE
  5
10F
100
AcDbEntity
  8
PV
  6
CONTINUOUS
 62
         3
100
AcDbLine
 10
17.9611261
 20
30.2623802
 30
0.0
 11
18.9683664
 21
30.2623802
 31
0.0
  0
LINE
  5
110
100
AcDbEntity
  8
PV
  6
CONTINUOUS
 62
         3
100
AcDbLine
 10
20.5011309
 20
30.2623802
 30
0.0
 11
21.5083712
 21
30.2623802
 31
0.0
  0
LINE
  5
111
100
AcDbEntity
  8
PV
  6
CONTINUOUS
 62
         3
100
AcDbLine
 10
20.238375
 20
29.2463774
 30
0.0
 11
20.5011367
 21
30.2623722
 31
0.0
  0
LINE
  5
112
100
AcDbEntity
  8
PV
  6
CONTINUOUS
 62
         3
100
AcDbLine
 10
18.968366
 20
30.2623684
 30
0.0
 11
19.2311277
 21
29.2463736
 31
0.0
  0
LINE
  5
113
100
AcDbEntity
  8
PV
  6
CONTINUOUS
 62
         3
100
AcDbLine
 10
19.2311342
 20
29.2463737
 30
0.0
 11
20.2383631
 21
29.2463737
 31
0.0
  0
LINE
  5
114
100
AcDbEntity
  8
PV
  6
CONTINUOUS
 62
         3
100
AcDbLine
 10
21.5083619
 20
30.262379
 30
0.0
 11
21.7711236
 21
29.2463842
 31
0.0
  0
LINE
  5
115
100
AcDbEntity
  8
PV
  6
CONTINUOUS
 62
         3
100
AcDbLine
 10
25.5811289
 20
30.2623802
 30
0.0
 11
26.5883692
 21
30.2623802
 31
0.0
  0
LINE
  5
116
100
AcDbEntity
  8
PV
  6
CONTINUOUS
 62
         3
100
AcDbLine
 10
25.3183616
 20
29.2463813
 30
0.0
 11
25.5811232
 21
30.2623761
 31
0.0
  0
LINE
  5
117
100
AcDbEntity
  8
PV
  6
CONTINUOUS
 62
         3
100
AcDbLine
 10
24.0483634
 20
30.262391
 30
0.0
 11
24.3111308
 21
29.246374
 31
0.0
  0
LINE
  5
118
100
AcDbEntity
  8
PV
  6
CONTINUOUS
 62
         3
100
AcDbLine
 10
24.3111323
 20
29.2463737
 30
0.0
 11
25.3183725
 21
29.2463737
 31
0.0
  0
LINE
  5
119
100
AcDbEntity
  8
PV
  6
CONTINUOUS
 62
         3
100
AcDbLine
 10
22.7783712
 20
29.2463905
 30
0.0
 11
23.0411328
 21
30.2623852
 31
0.0
  0
LINE
  5
11A
100
AcDbEntity
  8
PV
  6
CONTINUOUS
 62
         3
100
AcDbLine
 10
23.0411356
 20
30.2623802
 30
0.0
 11
24.0483645
 21
30.2623802
 31
0.0
  0
LINE
  5
11B
100
AcDbEntity
  8
PV
  6
CONTINUOUS
 62
         3
100
AcDbLine
 10
26.8511255
 20
29.5003867
 30
0.0
 11
27.9240778
 21
29.5003867
 31
0.0
  0
LINE
  5
11C
100
AcDbEntity
  8
PV
  6
CONTINUOUS
 62
         3
100
AcDbLine
 10
29.1283686
 20
30.5163699
 30
0.0
 11
29.3911303
 21
29.5003751
 31
0.0
  0
LINE
  5
11D
100
AcDbEntity
  8
PV
  6
CONTINUOUS
 62
         3
100
AcDbLine
 10
28.1868113
 20
30.5163703
 30
0.0
 11
29.1283625
 21
30.5163703
 31
0.0
  0
LINE
  5
11E
100
AcDbEntity
  8
PV
  6
CONTINUOUS
 62
         3
100
AcDbLine
 10
27.9240901
 20
29.5003695
 30
0.0
 11
28.1868279
 21
30.5163704
 31
0.0
  0
LINE
  5
11F
100
AcDbEntity
  8
PV
  6
CONTINUOUS
 62
         3
100
AcDbLine
 10
30.726816
 20
30.5163703
 30
0.0
 11
31.6683672
 21
30.5163703
 31
0.0
  0
LINE
  5
120
100
AcDbEntity
  8
PV
  6
CONTINUOUS
 62
         3
100
AcDbLine
 10
30.46408
 20
29.5003727
 30
0.0
 11
30.7268179
 21
30.5163736
 31
0.0
  0
LINE
  5
121
100
AcDbEntity
  8
PV
  6
CONTINUOUS
 62
         3
100
AcDbLine
 10
29.3911303
 20
29.5003867
 30
0.0
 11
30.4640825
 21
29.5003867
 31
0.0
  0
LINE
  5
122
100
AcDbEntity
  8
PV
  6
CONTINUOUS
 62
         3
100
AcDbLine
 10
31.6683646
 20
30.5163805
 30
0.0
 11
31.9311262
 21
29.5003857
 31
0.0
  0
LINE
  5
123
100
AcDbEntity
  8
PV
  6
CONTINUOUS
 62
         3
100
AcDbLine
 10
31.931135
 20
29.5003867
 30
0.0
 11
33.0040758
 21
29.5003867
 31
0.0
  0
LINE
  5
124
100
AcDbEntity
  8
PV
  6
CONTINUOUS
 62
         3
100
AcDbLine
 10
34.2083627
 20
30.5163818
 30
0.0
 11
34.215624
 21
30.4883773
 31
0.0
  0
LINE
  5
125
100
AcDbEntity
  8
PV
  6
CONTINUOUS
 62
         3
100
AcDbLine
 10
33.2668207
 20
30.5163703
 30
0.0
 11
34.2083719
 21
30.5163703
 31
0.0
  0
LINE
  5
126
100
AcDbEntity
  8
PV
  6
CONTINUOUS
 62
         3
100
AcDbLine
 10
33.0040811
 20
29.5003731
 30
0.0
 11
33.2668189
 21
30.516374
 31
0.0
  0
LINE
  5
127
100
AcDbEntity
  8
PV
  6
CONTINUOUS
 62
         3
100
AcDbLine
 10
20.56682
 20
30.5163703
 30
0.0
 11
21.5083712
 21
30.5163703
 31
0.0
  0
LINE
  5
128
100
AcDbEntity
  8
PV
  6
CONTINUOUS
 62
         3
100
AcDbLine
 10
16.6911295
 20
29.5003867
 30
0.0
 11
17.7640818
 21
29.5003867
 31
0.0
  0
LINE
  5
129
100
AcDbEntity
  8
PV
  6
CONTINUOUS
 62
         3
100
AcDbLine
 10
16.4283606
 20
30.5163807
 30
0.0
 11
16.6911223
 21
29.5003859
 31
0.0
  0
LINE
  5
12A
100
AcDbEntity
  8
PV
  6
CONTINUOUS
 62
         3
100
AcDbLine
 10
20.304087
 20
29.5003684
 30
0.0
 11
20.5668248
 21
30.5163693
 31
0.0
  0
LINE
  5
12B
100
AcDbEntity
  8
PV
  6
CONTINUOUS
 62
         3
100
AcDbLine
 10
19.2311342
 20
29.5003867
 30
0.0
 11
20.3040751
 21
29.5003867
 31
0.0
  0
LINE
  5
12C
100
AcDbEntity
  8
PV
  6
CONTINUOUS
 62
         3
100
AcDbLine
 10
18.9683678
 20
30.5163705
 30
0.0
 11
19.2311295
 21
29.5003757
 31
0.0
  0
LINE
  5
12D
100
AcDbEntity
  8
PV
  6
CONTINUOUS
 62
         3
100
AcDbLine
 10
18.0268152
 20
30.5163703
 30
0.0
 11
18.9683664
 21
30.5163703
 31
0.0
  0
LINE
  5
12E
100
AcDbEntity
  8
PV
  6
CONTINUOUS
 62
         3
100
AcDbLine
 10
17.764086
 20
29.500368
 30
0.0
 11
18.0268238
 21
30.5163689
 31
0.0
  0
LINE
  5
12F
100
AcDbEntity
  8
PV
  6
CONTINUOUS
 62
         3
100
AcDbLine
 10
21.7711275
 20
29.5003867
 30
0.0
 11
22.8440798
 21
29.5003867
 31
0.0
  0
LINE
  5
130
100
AcDbEntity
  8
PV
  6
CONTINUOUS
 62
         3
100
AcDbLine
 10
22.844088
 20
29.5003687
 30
0.0
 11
23.1068259
 21
30.5163696
 31
0.0
  0
LINE
  5
131
100
AcDbEntity
  8
PV
  6
CONTINUOUS
 62
         3
100
AcDbLine
 10
23.1068133
 20
30.5163703
 30
0.0
 11
24.0483645
 21
30.5163703
 31
0.0
  0
LINE
  5
132
100
AcDbEntity
  8
PV
  6
CONTINUOUS
 62
         3
100
AcDbLine
 10
21.5083638
 20
30.5163811
 30
0.0
 11
21.7711254
 21
29.5003863
 31
0.0
  0
LINE
  5
133
100
AcDbEntity
  8
PV
  6
CONTINUOUS
 62
         3
100
AcDbLine
 10
45.0375269
 20
29.7543769
 30
0.0
 11
45.0375269
 21
26.7593665
 31
0.0
  0
LINE
  5
134
100
AcDbEntity
  8
PV
  6
CONTINUOUS
 62
         3
100
AcDbLine
 10
83.2375349
 20
51.5983787
 30
0.0
 11
83.2375349
 21
81.8497825
 31
0.0
  0
LINE
  5
135
100
AcDbEntity
  8
PV
  6
CONTINUOUS
 62
         3
100
AcDbLine
 10
83.2375377
 20
21.4392282
 30
0.0
 11
83.1452785
 21
21.3469691
 31
0.0
  0
LINE
  5
136
100
AcDbEntity
  8
PV
  6
CONTINUOUS
 62
         3
100
AcDbLine
 10
16.4283732
 20
30.5163703
 30
0.0
 11
16.1831263
 21
30.5163703
 31
0.0
  0
LINE
  5
137
100
AcDbEntity
  8
PV
  6
CONTINUOUS
 62
         3
100
AcDbLine
 10
40.1835678
 20
29.2463895
 30
0.0
 11
40.2623324
 21
29.2008986
 31
0.0
  0
LINE
  5
138
100
AcDbEntity
  8
PV
  6
PHANTOM
 62
         3
100
AcDbLine
 10
-60.3145849
 20
51.5983787
 30
0.0
 11
-60.3145849
 21
89.128408
 31
0.0
  0
LINE
  5
139
100
AcDbEntity
  8
PV
  6
PHANTOM
 62
         3
100
AcDbLine
 10
-60.3145849
 20
51.5983787
 30
0.0
 11
-26.2908308
 21
51.5983787
 31
0.0
  0
LINE
  5
13A
100
AcDbEntity
  8
PV
  6
CONTINUOUS
 62
         3
100
AcDbLine
 10
16.1831308
 20
30.5921398
 30
0.0
 11
16.2589061
 21
30.5163645
 31
0.0
  0
LINE
  5
13B
100
AcDbEntity
  8
PV
  6
CONTINUOUS
 62
         3
100
AcDbLine
 10
78.4623331
 20
65.6367545
 30
0.0
 11
78.4623331
 21
67.6989799
 31
0.0
  0
LINE
  5
13C
100
AcDbEntity
  8
PV
  6
CONTINUOUS
 62
         3
100
AcDbLine
 10
81.56113
 20
65.6367545
 30
0.0
 11
81.56113
 21
67.6989799
 31
0.0
  0
CIRCLE
  5
13D
100
AcDbEntity
  8
PV
  6
CONTINUOUS
 62
         3
100
AcDbCircle
 10
-60.3145849
 20
51.5983787
 30
0.0
 40
28.1559019
  0
CIRCLE
  5
13E
100
AcDbEntity
  8
PV
  6
CONTINUOUS
 62
         3
100
AcDbCircle
 10
-60.3145849
 20
51.5983787
 30
0.0
 40
21.336
  0
CIRCLE
  5
13F
100
AcDbEntity
  8
PV
  6
CONTINUOUS
 62
         3
100
AcDbCircle
 10
-60.3145849
 20
51.5983787
 30
0.0
 40
22.4790001
  0
ARC
  5
140
100
AcDbEntity
  8
PV
  6
CONTINUOUS
 62
         3
100
AcDbCircle
 10
-60.3145849
 20
51.5983787
 30
0.0
 40
33.4391012
100
AcDbArc
 50
145.57607
 51
147.959505
  0
ARC
  5
141
100
AcDbEntity
  8
PV
  6
CONTINUOUS
 62
         3
100
AcDbCircle
 10
-60.3145849
 20
51.5983787
 30
0.0
 40
33.4391012
100
AcDbArc
 50
85.5760687
 51
87.9595107
  0
ARC
  5
142
100
AcDbEntity
  8
PV
  6
CONTINUOUS
 62
         3
100
AcDbCircle
 10
-60.3145849
 20
51.5983787
 30
0.0
 40
33.4391012
100
AcDbArc
 50
25.5760702
 51
27.9595074
  0
ARC
  5
143
100
AcDbEntity
  8
PV
  6
CONTINUOUS
 62
         3
100
AcDbCircle
 10
-60.3145849
 20
51.5983787
 30
0.0
 40
33.4391012
100
AcDbArc
 50
325.576068
 51
327.959508
  0
ARC
  5
144
100
AcDbEntity
  8
PV
  6
CONTINUOUS
 62
         3
100
AcDbCircle
 10
-60.3145849
 20
51.5983787
 30
0.0
 40
33.4391012
100
AcDbArc
 50
265.57607
 51
267.959506
  0
ARC
  5
145
100
AcDbEntity
  8
PV
  6
CONTINUOUS
 62
         3
100
AcDbCircle
 10
-60.3145849
 20
51.5983787
 30
0.0
 40
33.4391012
100
AcDbArc
 50
205.576075
 51
207.959511
  0
ARC
  5
146
100
AcDbEntity
  8
PV
  6
CONTINUOUS
 62
         3
100
AcDbCircle
 10
-60.3145849
 20
51.5983787
 30
0.0
 40
33.4391012
100
AcDbArc
 50
32.0404926
 51
34.4239314
  0
ARC
  5
147
100
AcDbEntity
  8
PV
  6
CONTINUOUS
 62
         3
100
AcDbCircle
 10
-60.3145849
 20
51.5983787
 30
0.0
 40
33.4391012
100
AcDbArc
 50
332.040493
 51
334.42393
  0
ARC
  5
148
100
AcDbEntity
  8
PV
  6
CONTINUOUS
 62
         3
100
AcDbCircle
 10
-60.3145849
 20
51.5983787
 30
0.0
 40
33.4391012
100
AcDbArc
 50
272.040489
 51
274.423931
  0
ARC
  5
149
100
AcDbEntity
  8
PV
  6
CONTINUOUS
 62
         3
100
AcDbCircle
 10
-60.3145849
 20
51.5983787
 30
0.0
 40
33.4391012
100
AcDbArc
 50
212.040494
 51
214.42393
  0
ARC
  5
14A
100
AcDbEntity
  8
PV
  6
CONTINUOUS
 62
         3
100
AcDbCircle
 10
-60.3145849
 20
51.5983787
 30
0.0
 40
33.4391012
100
AcDbArc
 50
152.040489
 51
154.423925
  0
ARC
  5
14B
100
AcDbEntity
  8
PV
  6
CONTINUOUS
 62
         3
100
AcDbCircle
 10
-60.3145849
 20
51.5983787
 30
0.0
 40
33.4391012
100
AcDbArc
 50
92.0404943
 51
94.4239299
  0
ARC
  5
14C
100
AcDbEntity
  8
PV
  6
CONTINUOUS
 62
         3
100
AcDbCircle
 10
44.2755335
 20
29.7543769
 30
0.0
 40
0.762000024
100
AcDbArc
 50
0.0
 51
90.0000025
  0
ARC
  5
14D
100
AcDbEntity
  8
PV
  6
CONTINUOUS
 62
         3
100
AcDbCircle
 10
34.420328
 20
29.7543769
 30
0.0
 40
0.762000024
100
AcDbArc
 50
90.0000025
 51
105.583919
  0
CIRCLE
  5
14E
100
AcDbEntity
  8
PV
  6
CONTINUOUS
 62
         3
100
AcDbCircle
 10
-60.3145849
 20
51.5983787
 30
0.0
 40
19.4310007
  0
ARC
  5
14F
100
AcDbEntity
  8
PV
  6
CONTINUOUS
 62
         3
100
AcDbCircle
 10
-60.3145849
 20
51.5983787
 30
0.0
 40
17.005301
100
AcDbArc
 50
62.0064042
 51
117.993594
  0
ARC
  5
150
100
AcDbEntity
  8
PV
  6
CONTINUOUS
 62
         3
100
AcDbCircle
 10
-60.3145849
 20
51.5983787
 30
0.0
 40
17.005301
100
AcDbArc
 50
122.006399
 51
177.993596
  0
ARC
  5
151
100
AcDbEntity
  8
PV
  6
CONTINUOUS
 62
         3
100
AcDbCircle
 10
-60.3145849
 20
51.5983787
 30
0.0
 40
17.005301
100
AcDbArc
 50
302.006407
 51
357.993596
  0
ARC
  5
152
100
AcDbEntity
  8
PV
  6
CONTINUOUS
 62
         3
100
AcDbCircle
 10
-60.3145849
 20
51.5983787
 30
0.0
 40
17.005301
100
AcDbArc
 50
242.006406
 51
297.993596
  0
ARC
  5
153
100
AcDbEntity
  8
PV
  6
CONTINUOUS
 62
         3
100
AcDbCircle
 10
-60.3145849
 20
51.5983787
 30
0.0
 40
17.005301
100
AcDbArc
 50
182.006404
 51
237.993601
  0
ARC
  5
154
100
AcDbEntity
  8
PV
  6
CONTINUOUS
 62
         3
100
AcDbCircle
 10
-60.3145849
 20
51.5983787
 30
0.0
 40
17.005301
100
AcDbArc
 50
2.00640393
 51
57.9935928
  0
LINE
  5
155
100
AcDbEntity
  8
PV
  6
CONTINUOUS
 62
         3
100
AcDbLine
 10
-32.1873075
 20
52.8677116
 30
0.0
 11
-45.1516668
 21
75.3226447
 31
0.0
  0
LINE
  5
156
100
AcDbEntity
  8
PV
  6
CONTINUOUS
 62
         3
100
AcDbLine
 10
-47.3502142
 20
76.5919776
 30
0.0
 11
-73.2789556
 21
76.5919776
 31
0.0
  0
LINE
  5
157
100
AcDbEntity
  8
PV
  6
CONTINUOUS
 62
         3
100
AcDbLine
 10
-75.477503
 20
75.3226447
 30
0.0
 11
-88.4418508
 21
52.8677116
 31
0.0
  0
LINE
  5
158
100
AcDbEntity
  8
PV
  6
CONTINUOUS
 62
         3
100
AcDbLine
 10
-88.4418508
 20
50.3290458
 30
0.0
 11
-75.477503
 21
27.8741126
 31
0.0
  0
LINE
  5
159
100
AcDbEntity
  8
PV
  6
CONTINUOUS
 62
         3
100
AcDbLine
 10
-73.2789556
 20
26.6047798
 30
0.0
 11
-47.3502142
 21
26.6047798
 31
0.0
  0
LINE
  5
15A
100
AcDbEntity
  8
PV
  6
CONTINUOUS
 62
         3
100
AcDbLine
 10
-45.1516668
 20
27.8741126
 30
0.0
 11
-32.1873075
 21
50.3290458
 31
0.0
  0
LINE
  5
15B
100
AcDbEntity
  8
PV
  6
CONTINUOUS
 62
         3
100
AcDbLine
 10
-30.1520788
 20
37.1624122
 30
0.0
 11
-30.1520788
 21
66.0343452
 31
0.0
  0
LINE
  5
15C
100
AcDbEntity
  8
PV
  6
CONTINUOUS
 62
         3
100
AcDbLine
 10
-57.7352468
 20
18.258924
 30
0.0
 11
-32.7314054
 21
32.6948676
 31
0.0
  0
LINE
  5
15D
100
AcDbEntity
  8
PV
  6
CONTINUOUS
 62
         3
100
AcDbLine
 10
-87.8977301
 20
32.6948676
 30
0.0
 11
-62.8939001
 21
18.258924
 31
0.0
  0
LINE
  5
15E
100
AcDbEntity
  8
PV
  6
CONTINUOUS
 62
         3
100
AcDbLine
 10
-90.477091
 20
66.0343452
 30
0.0
 11
-90.477091
 21
37.1624122
 31
0.0
  0
LINE
  5
15F
100
AcDbEntity
  8
PV
  6
CONTINUOUS
 62
         3
100
AcDbLine
 10
-32.7314054
 20
70.5018897
 30
0.0
 11
-57.7352468
 21
84.9378562
 31
0.0
  0
LINE
  5
160
100
AcDbEntity
  8
PV
  6
CONTINUOUS
 62
         3
100
AcDbLine
 10
-62.8939001
 20
84.9378562
 30
0.0
 11
-87.8977301
 21
70.5018897
 31
0.0
  0
MTEXT
  5
161
100
AcDbEntity
  8
PV
  6
CONTINUOUS
 62
       110
100
AcDbMText
 10
-9.169229103
 20
-37.5682608882
 30
0.0
 40
3.2000000477
 41
0.0
 71
         1
 72
         1
  1
\W1.048;\A1;PL034X060MG
  0
MTEXT
  5
162
100
AcDbEntity
  8
PV
  6
CONTINUOUS
 62
       110
100
AcDbMText
 10
-9.1870039688
 20
-31.5682606498
 30
0.0
 40
3.2000000477
 41
0.0
 71
         1
 72
         1
  1
\T1.003;\W1.067;\A1;POWER LOCK
  0
DIMENSION
  5
172
100
AcDbEntity
  8
PV
  6
CONTINUOUS
 62
       110
100
AcDbDimension
  2
*D4
 10
-105.6547
 20
76.5919776
 30
0.0
 11
-105.6547
 21
50.6983810268
 31
0.0
 70
       128
  1
\A1;<>
  3
MXDIMSTYLE
100
AcDbAlignedDimension
 13
-73.278956134
 23
26.6047798
 33
0.0
 14
-73.278956134
 24
76.5919776
 34
0.0
 50
90.0
100
AcDbRotatedDimension
1001
ACAD
1000
DSTYLE
1002
{
1070
         6
1000
SOLID
1070
         7
1000
SOLID
1070
        41
1040
1.0000000298
1070
        42
1040
0.0625
1070
        44
1040
2.0
1070
       271
1070
         4
1070
       284
1070
         8
1070
       340
1005
16C
1070
       343
1005
0
1070
       344
1005
0
1002
}
  0
DIMENSION
  5
181
100
AcDbEntity
  8
PV
  6
CONTINUOUS
 62
       110
100
AcDbDimension
  2
*D5
 10
86.1331305
 20
110.142459
 30
0.0
 11
51.4930017883
 21
110.142459
 31
0.0
 70
       128
  1
\A1;<>
  3
MXDIMSTYLE
100
AcDbAlignedDimension
 13
16.1831263
 23
51.5983763584
 33
0.0
 14
86.1331305
 24
51.5983763584
 34
0.0
100
AcDbRotatedDimension
1001
ACAD
1000
DSTYLE
1002
{
1070
         6
1000
SOLID
1070
         7
1000
SOLID
1070
        41
1040
1.0000000298
1070
        42
1040
0.0625
1070
        44
1040
2.0
1070
       271
1070
         4
1070
       284
1070
         8
1070
       340
1005
16C
1070
       343
1005
0
1070
       344
1005
0
1002
}
  0
DIMENSION
  5
190
100
AcDbEntity
  8
PV
  6
CONTINUOUS
 62
       110
100
AcDbDimension
  2
*D6
 10
-90.477091
 20
-6.20063528
 30
0.0
 11
-61.2145826147
 21
-6.20063528
 31
0.0
 70
       128
  1
\A1;<>
  3
MXDIMSTYLE
100
AcDbAlignedDimension
 13
-30.1520788
 23
37.1624132735
 33
0.0
 14
-90.477091
 24
37.1624132735
 34
0.0
100
AcDbRotatedDimension
1001
ACAD
1000
DSTYLE
1002
{
1070
         6
1000
SOLID
1070
         7
1000
SOLID
1070
        41
1040
1.0000000298
1070
        42
1040
0.0625
1070
        44
1040
2.0
1070
       271
1070
         4
1070
       284
1070
         8
1070
       340
1005
34
1070
       343
1005
0
1070
       344
1005
0
1002
}
  0
ENDSEC
  0
SECTION
  2
OBJECTS
  0
DICTIONARY
  5
19
100
AcDbDictionary
  3
ACAD_GROUP
350
1A
  3
ACAD_MLINESTYLE
350
1B
  0
DICTIONARY
  5
1A
102
{ACAD_REACTORS
330
19
102
}
100
AcDbDictionary
  0
DICTIONARY
  5
1B
102
{ACAD_REACTORS
330
19
102
}
100
AcDbDictionary
  3
STANDARD
350
1C
  0
MLINESTYLE
  5
1C
102
{ACAD_REACTORS
330
1B
102
}
100
AcDbMlineStyle
  2
Standard
 70
         0
  3

 62
         0
 51
90.0
 52
90.0
 71
         2
 49
0.5
 62
       256
  6
ByLayer
 49
-0.5
 62
       256
  6
ByLayer
  0
ENDSEC
  0
EOF
