  0
SECTION
  2
HEADER
  9
$ACADVER
  1
AC1014
  9
$ACADMAINTVER
 70
         0
  9
$DWGCODEPAGE
  3
ANSI_932
  9
$INSBASE
 10
0.0
 20
0.0
 30
0.0
  9
$EXTMIN
 10
-81.7114716
 20
-110.0
 30
0.0
  9
$EXTMAX
 10
118.853996
 20
83.3536765316
 30
0.0
  9
$LIMMIN
 10
-81.7114716
 20
-110.0
  9
$LIMMAX
 10
118.853996
 20
83.3536765316
  9
$ORTHOMODE
 70
         0
  9
$REGENMODE
 70
         1
  9
$FILLMODE
 70
         1
  9
$QTEXTMODE
 70
         0
  9
$MIRRTEXT
 70
         1
  9
$DRAGMODE
 70
         2
  9
$LTSCALE
 40
1.0
  9
$OSMODE
 70
         0
  9
$ATTMODE
 70
         1
  9
$TEXTSIZE
 40
3.2000000477
  9
$TRACEWID
 40
0.05
  9
$TEXTSTYLE
  7
MX_NOTE_STANDARD
  9
$CLAYER
  8
0
  9
$CELTYPE
  6
CONTINUOUS
  9
$CECOLOR
 62
       256
  9
$CELTSCALE
 40
1.0
  9
$DELOBJ
 70
         1
  9
$DISPSILH
 70
         0
  9
$DIMSCALE
 40
1.0
  9
$DIMASZ
 40
2.5
  9
$DIMEXO
 40
0.0
  9
$DIMDLI
 40
3.75
  9
$DIMRND
 40
0.0
  9
$DIMDLE
 40
0.0
  9
$DIMEXE
 40
2.5
  9
$DIMTP
 40
0.0
  9
$DIMTM
 40
0.0
  9
$DIMTXT
 40
3.2000000477
  9
$DIMCEN
 40
2.5
  9
$DIMTSZ
 40
0.0
  9
$DIMTOL
 70
         0
  9
$DIMLIM
 70
         0
  9
$DIMTIH
 70
         0
  9
$DIMTOH
 70
         0
  9
$DIMSE1
 70
         0
  9
$DIMSE2
 70
         0
  9
$DIMTAD
 70
         1
  9
$DIMZIN
 70
         8
  9
$DIMBLK
  1

  9
$DIMASO
 70
         1
  9
$DIMSHO
 70
         1
  9
$DIMPOST
  1

  9
$DIMAPOST
  1

  9
$DIMALT
 70
         0
  9
$DIMALTD
 70
         4
  9
$DIMALTF
 40
0.0393700787
  9
$DIMLFAC
 40
1.0
  9
$DIMTOFL
 70
         1
  9
$DIMTVP
 40
0.0
  9
$DIMTIX
 70
         0
  9
$DIMSOXD
 70
         0
  9
$DIMSAH
 70
         1
  9
$DIMBLK1
  1
_OPEN30
  9
$DIMBLK2
  1
_OPEN30
  9
$DIMSTYLE
  2
MXDIMSTYLE
  9
$DIMCLRD
 70
         0
  9
$DIMCLRE
 70
         0
  9
$DIMCLRT
 70
         0
  9
$DIMTFAC
 40
1.0
  9
$DIMGAP
 40
1.0
  9
$DIMJUST
 70
         0
  9
$DIMSD1
 70
         0
  9
$DIMSD2
 70
         0
  9
$DIMTOLJ
 70
         0
  9
$DIMTZIN
 70
         0
  9
$DIMALTZ
 70
         0
  9
$DIMALTTZ
 70
         0
  9
$DIMFIT
 70
         3
  9
$DIMUPT
 70
         0
  9
$DIMUNIT
 70
         2
  9
$DIMDEC
 70
         2
  9
$DIMTDEC
 70
         2
  9
$DIMALTU
 70
         2
  9
$DIMALTTD
 70
         4
  9
$DIMTXSTY
  7
MX_NOTE_STANDARD
  9
$DIMAUNIT
 70
         0
  9
$LUNITS
 70
         2
  9
$LUPREC
 70
         4
  9
$SKETCHINC
 40
0.1
  9
$FILLETRAD
 40
0.0
  9
$AUNITS
 70
         0
  9
$AUPREC
 70
         0
  9
$MENU
  1
acad
  9
$ELEVATION
 40
0.0
  9
$PELEVATION
 40
0.0
  9
$THICKNESS
 40
0.0
  9
$LIMCHECK
 70
         0
  9
$BLIPMODE
 70
         1
  9
$CHAMFERA
 40
0.0
  9
$CHAMFERB
 40
0.0
  9
$CHAMFERC
 40
0.0
  9
$CHAMFERD
 40
0.0
  9
$SKPOLY
 70
         0
  9
$TDCREATE
 40
2456603.419189815
  9
$TDUPDATE
 40
2456603.419189815
  9
$TDINDWG
 40
0.0000000000
  9
$TDUSRTIMER
 40
0.0000000000
  9
$USRTIMER
 70
         1
  9
$ANGBASE
 50
0.0
  9
$ANGDIR
 70
         0
  9
$PDMODE
 70
         0
  9
$PDSIZE
 40
0.0
  9
$PLINEWID
 40
0.0
  9
$COORDS
 70
         1
  9
$SPLFRAME
 70
         0
  9
$SPLINETYPE
 70
         6
  9
$SPLINESEGS
 70
         8
  9
$ATTDIA
 70
         0
  9
$ATTREQ
 70
         1
  9
$HANDLING
 70
         1
  9
$HANDSEED
  5
198
  9
$SURFTAB1
 70
         6
  9
$SURFTAB2
 70
         6
  9
$SURFTYPE
 70
         6
  9
$SURFU
 70
         6
  9
$SURFV
 70
         6
  9
$UCSNAME
  2

  9
$UCSORG
 10
0.0
 20
0.0
 30
0.0
  9
$UCSXDIR
 10
1.0
 20
0.0
 30
0.0
  9
$UCSYDIR
 10
0.0
 20
1.0
 30
0.0
  9
$PUCSNAME
  2

  9
$PUCSORG
 10
0.0
 20
0.0
 30
0.0
  9
$PUCSXDIR
 10
1.0
 20
0.0
 30
0.0
  9
$PUCSYDIR
 10
0.0
 20
1.0
 30
0.0
  9
$USERI1
 70
         0
  9
$USERI2
 70
         0
  9
$USERI3
 70
         0
  9
$USERI4
 70
         0
  9
$USERI5
 70
         0
  9
$USERR1
 40
0.0
  9
$USERR2
 40
0.0
  9
$USERR3
 40
0.0
  9
$USERR4
 40
0.0
  9
$USERR5
 40
0.0
  9
$WORLDVIEW
 70
         1
  9
$SHADEDGE
 70
         3
  9
$SHADEDIF
 70
        70
  9
$TILEMODE
 70
         1
  9
$MAXACTVP
 70
        16
  9
$PINSBASE
 10
0.0
 20
0.0
 30
0.0
  9
$PLIMCHECK
 70
         0
  9
$PEXTMIN
 10
1.0000000000E+20
 20
1.0000000000E+20
 30
1.0000000000E+20
  9
$PEXTMAX
 10
-1.0000000000E+20
 20
-1.0000000000E+20
 30
-1.0000000000E+20
  9
$PLIMMIN
 10
0.0
 20
0.0
  9
$PLIMMAX
 10
12.0
 20
9.0
  9
$UNITMODE
 70
         0
  9
$VISRETAIN
 70
         0
  9
$PLINEGEN
 70
         1
  9
$PSLTSCALE
 70
         0
  9
$TREEDEPTH
 70
      3020
  9
$PICKSTYLE
 70
         1
  9
$CMLSTYLE
  2
Standard
  9
$CMLJUST
 70
         0
  9
$CMLSCALE
 40
1.0
  9
$PROXYGRAPHICS
 70
         0
  9
$MEASUREMENT
 70
         1
  0
ENDSEC
  0
SECTION
  2
CLASSES
  0
CLASS
  1
LWPOLYLINE
  2
AcDbPolyline
  3
"AutoCAD"
 90
        0
280
         0
281
         1
  0
CLASS
  1
IMAGE
  2
AcDbRasterImage
  3
ISM
 90
      127
280
         0
281
         1
  0
CLASS
  1
OLE2FRAME
  2
AcDbOle2Frame
  3
""
 90
        0
280
         0
281
         1
  0
CLASS
  1
HATCH
  2
AcDbHatch
  3
"ACAD_SEDONA"
 90
        0
280
         0
281
         1
  0
CLASS
  1
DICTIONARYVAR
  2
AcDbDictionaryVar
  3
"AutoCAD"
 90
        0
280
         0
281
         0
  0
CLASS
  1
RASTERVARIABLES
  2
AcDbRasterVariables
  3
ISM
 90
        0
280
         0
281
         0
  0
CLASS
  1
IMAGEDEF
  2
AcDbRasterImageDef
  3
ISM
 90
        0
280
         0
281
         0
  0
CLASS
  1
IMAGEDEF_REACTOR
  2
AcDbRasterImageDefReactor
  3
ISM
 90
        1
280
         0
281
         0
  0
CLASS
  1
IDBUFFER
  2
AcDbIdBuffer
  3
"Acad"
 90
        0
280
         0
281
         0
  0
CLASS
  1
SPATIAL_FILTER
  2
AcDbSpatialFilter
  3
"Acad"
 90
        0
280
         0
281
         0
  0
CLASS
  1
XRECORD
  2
AcDbXrecord
  3
"<Built In>"
 90
        0
280
         0
281
         0
  0
CLASS
  1
SORTENTSTABLE
  2
AcDbSortentsTable
  3
"AutoCAD"
 90
        0
280
         0
281
         0
  0
CLASS
  1
LAYER_INDEX
  2
AcDbLayerIndex
  3
"Acad"
 90
        0
280
         0
281
         0
  0
CLASS
  1
SPATIAL_INDEX
  2
AcDbSpatialIndex
  3
"Acad"
 90
        0
280
         0
281
         0
  0
CLASS
  1
OBJECT_PTR
  2
CAseDLPNTableRecord
  3
"ASE-LPNTableRecord"
 90
        1
280
         0
281
         0
  0
CLASS
  1
LAYOUT
  2
AcDbLayout
  3
"AutoCAD 2000"
 90
        0
280
         0
281
         0
  0
CLASS
  1
PLOTSETTINGS
  2
AcDbPlotSettings
  3
"AutoCAD 2000"
 90
        0
280
         0
281
         0
  0
CLASS
  1
ACDBDICTIONARYWDFLT
  2
AcDbDictionaryWithDefault
  3
"AutoCAD 2000"
 90
        0
280
         0
281
         0
  0
CLASS
  1
ACDBPLACEHOLDER
  2
AcDbPlaceHolder
  3
"AutoCAD 2000"
 90
        0
280
         0
281
         0
  0
ENDSEC
  0
SECTION
  2
TABLES
  0
TABLE
  2
VPORT
  5
7
100
AcDbSymbolTable
 70
         1
  0
VPORT
  5
15
100
AcDbSymbolTableRecord
100
AcDbViewportTableRecord
  2
*ACTIVE
 70
         0
 10
0.0
 20
0.0
 11
1.0
 21
1.0
 12
18.5712622
 22
-13.3231617342
 13
0.0
 23
0.0
 14
1.0
 24
1.0
 15
0.0
 25
0.0
 16
0.0
 26
0.0
 36
1.0
 17
0.0
 27
0.0
 37
0.0
 40
195.2872132969
 41
1.7320508076
 42
50.0
 43
0.0
 44
0.0
 50
0.0
 51
0.0
 71
         0
 72
       100
 73
         1
 74
         1
 75
         0
 76
         0
 77
         0
 78
         0
  0
ENDTAB
  0
TABLE
  2
LTYPE
  5
4
100
AcDbSymbolTable
 70
         4
  0
LTYPE
  5
11
100
AcDbSymbolTableRecord
100
AcDbLinetypeTableRecord
  2
BYBLOCK
 70
        64
  3

 72
        65
 73
         0
 40
0.0
  0
LTYPE
  5
12
100
AcDbSymbolTableRecord
100
AcDbLinetypeTableRecord
  2
BYLAYER
 70
        64
  3

 72
        65
 73
         0
 40
0.0
  0
LTYPE
  5
13
100
AcDbSymbolTableRecord
100
AcDbLinetypeTableRecord
  2
CONTINUOUS
 70
        64
  3
Solid line
 72
        65
 73
         0
 40
0.0
  0
LTYPE
  5
6B
100
AcDbSymbolTableRecord
100
AcDbLinetypeTableRecord
  2
CENTER
 70
        64
  3
Center ____ _ ____ _ ____ _ ____ _ ____ _ ____
 72
        65
 73
         4
 40
50.8
 49
31.75
 74
         0
 49
-6.35
 74
         0
 49
6.35
 74
         0
 49
-6.35
 74
         0
  0
ENDTAB
  0
TABLE
  2
LAYER
  5
2
100
AcDbSymbolTable
 70
         3
  0
LAYER
  5
14
100
AcDbSymbolTableRecord
100
AcDbLayerTableRecord
  2
0
 70
         0
 62
         7
  6
CONTINUOUS
  0
LAYER
  5
1D
100
AcDbSymbolTableRecord
100
AcDbLayerTableRecord
  2
PV
 70
         0
 62
         3
  6
CONTINUOUS
  0
LAYER
  5
1E
100
AcDbSymbolTableRecord
100
AcDbLayerTableRecord
  2
DEFPOINTS
 70
         0
 62
         7
  6
CONTINUOUS
  0
ENDTAB
  0
TABLE
  2
STYLE
  5
3
100
AcDbSymbolTable
 70
         4
  0
STYLE
  5
17
100
AcDbSymbolTableRecord
100
AcDbTextStyleTableRecord
  2
MX_NOTE_STANDARD
 70
         0
 40
0.0
 41
1.0
 50
0.0
 71
         0
 42
3.2000000477
  3
txt.shx
  4
extfont.shx
  0
STYLE
  5
34
100
AcDbSymbolTableRecord
100
AcDbTextStyleTableRecord
  2
MX_DIMTXSTY_2
 70
         0
 40
0.0
 41
1.3
 50
0.0
 71
         0
 42
3.2000000477
  3
txt.shx
  4
extfont.shx
  0
STYLE
  5
53
100
AcDbSymbolTableRecord
100
AcDbTextStyleTableRecord
  2
MX_DIMTXSTY_3
 70
         0
 40
0.0
 41
1.2
 50
0.0
 71
         0
 42
3.2000000477
  3
txt.shx
  4
extfont.shx
  0
STYLE
  5
76
100
AcDbSymbolTableRecord
100
AcDbTextStyleTableRecord
  2
MX_DIMTXSTY_4
 70
         0
 40
0.0
 41
1.1
 50
0.0
 71
         0
 42
3.2000000477
  3
txt.shx
  4
extfont.shx
  0
ENDTAB
  0
TABLE
  2
VIEW
  5
5
100
AcDbSymbolTable
 70
         0
  0
ENDTAB
  0
TABLE
  2
UCS
  5
6
100
AcDbSymbolTable
 70
         0
  0
ENDTAB
  0
TABLE
  2
APPID
  5
8
100
AcDbSymbolTable
 70
         1
  0
APPID
  5
16
100
AcDbSymbolTableRecord
100
AcDbRegAppTableRecord
  2
ACAD
 70
         0
  0
ENDTAB
  0
TABLE
  2
DIMSTYLE
  5
9
100
AcDbSymbolTable
 70
         1
  0
DIMSTYLE
105
18
100
AcDbSymbolTableRecord
100
AcDbDimStyleTableRecord
  2
MXDIMSTYLE
 70
         0
  3

  4

  5

  6
_OPEN30
  7
_OPEN30
 40
1.0
 41
2.5
 42
0.0
 43
3.75
 44
2.5
 45
0.0
 46
0.0
 47
0.0
 48
0.0
 71
         0
 72
         0
 73
         0
 74
         0
 75
         0
 76
         0
 77
         1
 78
         8
140
3.2000000477
141
2.5
142
0.0
143
0.0393700787
144
1.0
145
0.0
146
1.0
147
1.0
170
         0
171
         4
172
         1
173
         1
174
         0
175
         0
176
         0
177
         0
178
         0
270
         2
271
         2
272
         2
273
         2
274
         4
275
         0
280
         0
281
         0
282
         0
283
         0
284
         0
285
         0
286
         0
287
         3
288
         0
340
17
  0
ENDTAB
  0
TABLE
  2
BLOCK_RECORD
  5
1
100
AcDbSymbolTable
 70
        11
  0
BLOCK_RECORD
  5
A
100
AcDbSymbolTableRecord
100
AcDbBlockTableRecord
  2
*MODEL_SPACE
  0
BLOCK_RECORD
  5
B
100
AcDbSymbolTableRecord
100
AcDbBlockTableRecord
  2
*PAPER_SPACE
  0
BLOCK_RECORD
  5
1F
100
AcDbSymbolTableRecord
100
AcDbBlockTableRecord
  2
ARROW
  0
BLOCK_RECORD
  5
20
100
AcDbSymbolTableRecord
100
AcDbBlockTableRecord
  2
_OPEN30
  0
BLOCK_RECORD
  5
2C
100
AcDbSymbolTableRecord
100
AcDbBlockTableRecord
  2
*D2
  0
BLOCK_RECORD
  5
3B
100
AcDbSymbolTableRecord
100
AcDbBlockTableRecord
  2
*D3
  0
BLOCK_RECORD
  5
4A
100
AcDbSymbolTableRecord
100
AcDbBlockTableRecord
  2
*D4
  0
BLOCK_RECORD
  5
5A
100
AcDbSymbolTableRecord
100
AcDbBlockTableRecord
  2
*D5
  0
BLOCK_RECORD
  5
6D
100
AcDbSymbolTableRecord
100
AcDbBlockTableRecord
  2
*D6
  0
BLOCK_RECORD
  5
7D
100
AcDbSymbolTableRecord
100
AcDbBlockTableRecord
  2
*D7
  0
BLOCK_RECORD
  5
8C
100
AcDbSymbolTableRecord
100
AcDbBlockTableRecord
  2
*D8
  0
BLOCK_RECORD
  5
9B
100
AcDbSymbolTableRecord
100
AcDbBlockTableRecord
  2
*D9
  0
BLOCK_RECORD
  5
AA
100
AcDbSymbolTableRecord
100
AcDbBlockTableRecord
  2
*D10
  0
ENDTAB
  0
ENDSEC
  0
SECTION
  2
BLOCKS
  0
BLOCK
  5
D
100
AcDbEntity
  8
0
100
AcDbBlockBegin
  2
*MODEL_SPACE
 70
         0
 10
0.0
 20
0.0
 30
0.0
  3
*MODEL_SPACE
  1

  0
ENDBLK
  5
E
100
AcDbEntity
  8
0
100
AcDbBlockEnd
  0
BLOCK
  5
F
100
AcDbEntity
 67
         1
  8
0
100
AcDbBlockBegin
  2
*PAPER_SPACE
 70
         0
 10
0.0
 20
0.0
 30
0.0
  3
*PAPER_SPACE
  1

  0
ENDBLK
  5
10
100
AcDbEntity
 67
         1
  8
0
100
AcDbBlockEnd
  0
BLOCK
  5
26
100
AcDbEntity
  8
0
100
AcDbBlockBegin
  2
ARROW
 70
         0
 10
0.0
 20
0.0
 30
0.0
  3
ARROW
  1

  0
LWPOLYLINE
  5
27
100
AcDbEntity
  8
0
  6
CONTINUOUS
 62
       254
100
AcDbPolyline
 90
        3
 70
         0
 10
2.3840404
 20
0.638801701
 10
0.0
 20
0.0
 10
2.3840404
 20
-0.638801701
  0
ENDBLK
  5
28
100
AcDbEntity
  8
0
100
AcDbBlockEnd
  0
BLOCK
  5
21
100
AcDbEntity
  8
0
  6
ByBlock
 62
         0
100
AcDbBlockBegin
  2
_OPEN30
 70
         2
 10
0.0
 20
0.0
 30
0.0
  3
_OPEN30
  1

  0
LINE
  5
22
100
AcDbEntity
  8
0
  6
ByBlock
 62
         0
100
AcDbLine
 10
-1.0
 20
0.267949
 30
0.0
 11
0.0
 21
0.0
 31
0.0
  0
LINE
  5
23
100
AcDbEntity
  8
0
  6
ByBlock
 62
         0
100
AcDbLine
 10
0.0
 20
0.0
 30
0.0
 11
-1.0
 21
-0.267949
 31
0.0
  0
LINE
  5
24
100
AcDbEntity
  8
0
  6
ByBlock
 62
         0
100
AcDbLine
 10
0.0
 20
0.0
 30
0.0
 11
-1.0
 21
0.0
 31
0.0
  0
ENDBLK
  5
25
100
AcDbEntity
  8
0
  6
ByBlock
 62
         0
100
AcDbBlockEnd
  0
BLOCK
  5
2D
100
AcDbEntity
  8
0
  6
ByBlock
 62
         0
100
AcDbBlockBegin
  2
*D2
 70
         1
 10
0.0
 20
0.0
 30
0.0
  3
*D2
  1

  0
LINE
  5
2E
100
AcDbEntity
  8
0
  6
CONTINUOUS
 62
       110
100
AcDbLine
 10
15.2358941
 20
65.8500438
 30
0.0
 11
20.7358941
 21
65.8500438
 31
0.0
  0
LINE
  5
2F
100
AcDbEntity
  8
0
  6
CONTINUOUS
 62
       110
100
AcDbLine
 10
2.3339195412
 20
65.8500438
 30
0.0
 11
15.2358941
 21
65.8500438
 31
0.0
  0
LINE
  5
30
100
AcDbEntity
  8
0
  6
CONTINUOUS
 62
       110
100
AcDbLine
 10
15.2358941
 20
58.4055204655
 30
0.0
 11
15.2358941
 21
67.8500438
 31
0.0
  0
LINE
  5
31
100
AcDbEntity
  8
0
  6
CONTINUOUS
 62
       110
100
AcDbLine
 10
20.7358941
 20
58.4055204655
 30
0.0
 11
20.7358941
 21
67.8500438
 31
0.0
  0
SOLID
  5
32
100
AcDbEntity
  8
0
  6
CONTINUOUS
 62
       110
100
AcDbTrace
 10
16.2358941298
 20
65.683376795
 30
0.0
 11
16.2358941298
 21
66.016710805
 31
0.0
 12
15.2358941
 22
65.8500438
 32
0.0
 13
15.2358941
 23
65.8500438
 33
0.0
  0
SOLID
  5
33
100
AcDbEntity
  8
0
  6
CONTINUOUS
 62
       110
100
AcDbTrace
 10
19.7358940702
 20
66.016710805
 30
0.0
 11
19.7358940702
 21
65.683376795
 31
0.0
 12
20.7358941
 22
65.8500438
 32
0.0
 13
20.7358941
 23
65.8500438
 33
0.0
  0
MTEXT
  5
35
100
AcDbEntity
  8
0
  6
CONTINUOUS
 62
       110
100
AcDbMText
 10
7.1339196127
 20
68.4500438238
 30
0.0
 40
3.2000000477
 41
0.0
 71
         5
 72
         1
  1
\A1;5.5
  7
MX_DIMTXSTY_2
  0
POINT
  5
36
100
AcDbEntity
  8
DEFPOINTS
  6
CONTINUOUS
 62
         0
100
AcDbPoint
 10
15.2358941
 20
58.3430204655
 30
0.0
  0
POINT
  5
37
100
AcDbEntity
  8
DEFPOINTS
  6
CONTINUOUS
 62
         0
100
AcDbPoint
 10
20.7358941
 20
58.3430204655
 30
0.0
  0
POINT
  5
38
100
AcDbEntity
  8
DEFPOINTS
  6
CONTINUOUS
 62
         0
100
AcDbPoint
 10
20.7358941
 20
65.8500438
 30
0.0
  0
ENDBLK
  5
39
100
AcDbEntity
  8
0
  6
ByBlock
 62
         0
100
AcDbBlockEnd
  0
BLOCK
  5
3C
100
AcDbEntity
  8
0
  6
ByBlock
 62
         0
100
AcDbBlockBegin
  2
*D3
 70
         1
 10
0.0
 20
0.0
 30
0.0
  3
*D3
  1

  0
LINE
  5
3D
100
AcDbEntity
  8
0
  6
CONTINUOUS
 62
       110
100
AcDbLine
 10
15.2358936
 20
72.3908643
 30
0.0
 11
43.2358942
 21
72.3908643
 31
0.0
  0
LINE
  5
3E
100
AcDbEntity
  8
0
  6
CONTINUOUS
 62
       110
100
AcDbLine
 10
15.2358936
 20
58.4055203669
 30
0.0
 11
15.2358936
 21
74.3908643
 31
0.0
  0
LINE
  5
3F
100
AcDbEntity
  8
0
  6
CONTINUOUS
 62
       110
100
AcDbLine
 10
43.2358942
 20
56.4055203669
 30
0.0
 11
43.2358942
 21
74.3908643
 31
0.0
  0
LINE
  5
40
100
AcDbEntity
  8
0
  6
CONTINUOUS
 62
       110
100
AcDbLine
 10
15.2358936
 20
72.3908643
 30
0.0
 11
11.2358936
 21
72.3908643
 31
0.0
  0
LINE
  5
41
100
AcDbEntity
  8
0
  6
CONTINUOUS
 62
       110
100
AcDbLine
 10
43.2358942
 20
72.3908643
 30
0.0
 11
47.2358942
 21
72.3908643
 31
0.0
  0
SOLID
  5
42
100
AcDbEntity
  8
0
  6
CONTINUOUS
 62
       110
100
AcDbTrace
 10
14.2358935702
 20
72.557531305
 30
0.0
 11
14.2358935702
 21
72.224197295
 31
0.0
 12
15.2358936
 22
72.3908643
 32
0.0
 13
15.2358936
 23
72.3908643
 33
0.0
  0
SOLID
  5
43
100
AcDbEntity
  8
0
  6
CONTINUOUS
 62
       110
100
AcDbTrace
 10
44.2358942298
 20
72.224197295
 30
0.0
 11
44.2358942298
 21
72.557531305
 31
0.0
 12
43.2358942
 22
72.3908643
 32
0.0
 13
43.2358942
 23
72.3908643
 33
0.0
  0
MTEXT
  5
44
100
AcDbEntity
  8
0
  6
CONTINUOUS
 62
       110
100
AcDbMText
 10
29.2608941722
 20
74.9908643238
 30
0.0
 40
3.2000000477
 41
0.0
 71
         5
 72
         1
  1
\A1;28
  0
POINT
  5
45
100
AcDbEntity
  8
DEFPOINTS
  6
CONTINUOUS
 62
         0
100
AcDbPoint
 10
15.2358936
 20
58.3430203669
 30
0.0
  0
POINT
  5
46
100
AcDbEntity
  8
DEFPOINTS
  6
CONTINUOUS
 62
         0
100
AcDbPoint
 10
43.2358942
 20
56.3430203669
 30
0.0
  0
POINT
  5
47
100
AcDbEntity
  8
DEFPOINTS
  6
CONTINUOUS
 62
         0
100
AcDbPoint
 10
43.2358942
 20
72.3908643
 30
0.0
  0
ENDBLK
  5
48
100
AcDbEntity
  8
0
  6
ByBlock
 62
         0
100
AcDbBlockEnd
  0
BLOCK
  5
4B
100
AcDbEntity
  8
0
  6
ByBlock
 62
         0
100
AcDbBlockBegin
  2
*D4
 70
         1
 10
0.0
 20
0.0
 30
0.0
  3
*D4
  1

  0
LINE
  5
4C
100
AcDbEntity
  8
0
  6
CONTINUOUS
 62
       110
100
AcDbLine
 10
20.7358941
 20
65.8500438
 30
0.0
 11
43.2358942
 21
65.8500438
 31
0.0
  0
LINE
  5
4D
100
AcDbEntity
  8
0
  6
CONTINUOUS
 62
       110
100
AcDbLine
 10
20.7358941
 20
58.4055204655
 30
0.0
 11
20.7358941
 21
67.8500438
 31
0.0
  0
LINE
  5
4E
100
AcDbEntity
  8
0
  6
CONTINUOUS
 62
       110
100
AcDbLine
 10
43.2358942
 20
55.1555199887
 30
0.0
 11
43.2358942
 21
67.8500438
 31
0.0
  0
LINE
  5
4F
100
AcDbEntity
  8
0
  6
CONTINUOUS
 62
       110
100
AcDbLine
 10
20.7358941
 20
65.8500438
 30
0.0
 11
16.7358941
 21
65.8500438
 31
0.0
  0
LINE
  5
50
100
AcDbEntity
  8
0
  6
CONTINUOUS
 62
       110
100
AcDbLine
 10
43.2358942
 20
65.8500438
 30
0.0
 11
47.2358942
 21
65.8500438
 31
0.0
  0
SOLID
  5
51
100
AcDbEntity
  8
0
  6
CONTINUOUS
 62
       110
100
AcDbTrace
 10
19.7358940702
 20
66.016710805
 30
0.0
 11
19.7358940702
 21
65.683376795
 31
0.0
 12
20.7358941
 22
65.8500438
 32
0.0
 13
20.7358941
 23
65.8500438
 33
0.0
  0
SOLID
  5
52
100
AcDbEntity
  8
0
  6
CONTINUOUS
 62
       110
100
AcDbTrace
 10
44.2358942298
 20
65.683376795
 30
0.0
 11
44.2358942298
 21
66.016710805
 31
0.0
 12
43.2358942
 22
65.8500438
 32
0.0
 13
43.2358942
 23
65.8500438
 33
0.0
  0
MTEXT
  5
54
100
AcDbEntity
  8
0
  6
CONTINUOUS
 62
       110
100
AcDbMText
 10
32.0108946722
 20
68.4500438238
 30
0.0
 40
3.2000000477
 41
0.0
 71
         5
 72
         1
  1
\A1;22.5
  7
MX_DIMTXSTY_3
  0
POINT
  5
55
100
AcDbEntity
  8
DEFPOINTS
  6
CONTINUOUS
 62
         0
100
AcDbPoint
 10
20.7358941
 20
58.3430204655
 30
0.0
  0
POINT
  5
56
100
AcDbEntity
  8
DEFPOINTS
  6
CONTINUOUS
 62
         0
100
AcDbPoint
 10
43.2358942
 20
55.0930199887
 30
0.0
  0
POINT
  5
57
100
AcDbEntity
  8
DEFPOINTS
  6
CONTINUOUS
 62
         0
100
AcDbPoint
 10
43.2358942
 20
65.8500438
 30
0.0
  0
ENDBLK
  5
58
100
AcDbEntity
  8
0
  6
ByBlock
 62
         0
100
AcDbBlockEnd
  0
BLOCK
  5
5B
100
AcDbEntity
  8
0
  6
ByBlock
 62
         0
100
AcDbBlockBegin
  2
*D5
 70
         1
 10
0.0
 20
0.0
 30
0.0
  3
*D5
  1

  0
LINE
  5
5C
100
AcDbEntity
  8
0
  6
CONTINUOUS
 62
       110
100
AcDbLine
 10
26.2358941
 20
59.7032487
 30
0.0
 11
43.2358942
 21
59.7032487
 31
0.0
  0
LINE
  5
5D
100
AcDbEntity
  8
0
  6
CONTINUOUS
 62
       110
100
AcDbLine
 10
26.2358941
 20
56.4055203999
 30
0.0
 11
26.2358941
 21
61.7032487
 31
0.0
  0
LINE
  5
5E
100
AcDbEntity
  8
0
  6
CONTINUOUS
 62
       110
100
AcDbLine
 10
43.2358942
 20
56.4055201615
 30
0.0
 11
43.2358942
 21
61.7032487
 31
0.0
  0
LINE
  5
5F
100
AcDbEntity
  8
0
  6
CONTINUOUS
 62
       110
100
AcDbLine
 10
26.2358941
 20
59.7032487
 30
0.0
 11
22.2358941
 21
59.7032487
 31
0.0
  0
LINE
  5
60
100
AcDbEntity
  8
0
  6
CONTINUOUS
 62
       110
100
AcDbLine
 10
43.2358942
 20
59.7032487
 30
0.0
 11
47.2358942
 21
59.7032487
 31
0.0
  0
SOLID
  5
61
100
AcDbEntity
  8
0
  6
CONTINUOUS
 62
       110
100
AcDbTrace
 10
25.2358940702
 20
59.869915705
 30
0.0
 11
25.2358940702
 21
59.536581695
 31
0.0
 12
26.2358941
 22
59.7032487
 32
0.0
 13
26.2358941
 23
59.7032487
 33
0.0
  0
SOLID
  5
62
100
AcDbEntity
  8
0
  6
CONTINUOUS
 62
       110
100
AcDbTrace
 10
44.2358942298
 20
59.536581695
 30
0.0
 11
44.2358942298
 21
59.869915705
 31
0.0
 12
43.2358942
 22
59.7032487
 32
0.0
 13
43.2358942
 23
59.7032487
 33
0.0
  0
MTEXT
  5
63
100
AcDbEntity
  8
0
  6
CONTINUOUS
 62
       110
100
AcDbMText
 10
34.7608946722
 20
62.3032487238
 30
0.0
 40
3.2000000477
 41
0.0
 71
         5
 72
         1
  1
\A1;17
  7
MX_DIMTXSTY_3
  0
POINT
  5
64
100
AcDbEntity
  8
DEFPOINTS
  6
CONTINUOUS
 62
         0
100
AcDbPoint
 10
26.2358941
 20
56.3430203999
 30
0.0
  0
POINT
  5
65
100
AcDbEntity
  8
DEFPOINTS
  6
CONTINUOUS
 62
         0
100
AcDbPoint
 10
43.2358942
 20
56.3430201615
 30
0.0
  0
POINT
  5
66
100
AcDbEntity
  8
DEFPOINTS
  6
CONTINUOUS
 62
         0
100
AcDbPoint
 10
43.2358942
 20
59.7032487
 30
0.0
  0
ENDBLK
  5
67
100
AcDbEntity
  8
0
  6
ByBlock
 62
         0
100
AcDbBlockEnd
  0
BLOCK
  5
6E
100
AcDbEntity
  8
0
  6
ByBlock
 62
         0
100
AcDbBlockBegin
  2
*D6
 70
         1
 10
0.0
 20
0.0
 30
0.0
  3
*D6
  1

  0
LINE
  5
6F
100
AcDbEntity
  8
0
  6
CONTINUOUS
 62
       110
100
AcDbLine
 10
3.70241114
 20
10.0930201
 30
0.0
 11
3.70241114
 21
52.5930203
 31
0.0
  0
LINE
  5
70
100
AcDbEntity
  8
0
  6
CONTINUOUS
 62
       110
100
AcDbLine
 10
14.1566090236
 20
10.0930201
 30
0.0
 11
1.70241114
 21
10.0930201
 31
0.0
  0
LINE
  5
71
100
AcDbEntity
  8
0
  6
CONTINUOUS
 62
       110
100
AcDbLine
 10
8.912768806
 20
52.5930203
 30
0.0
 11
1.70241114
 21
52.5930203
 31
0.0
  0
LINE
  5
72
100
AcDbEntity
  8
0
  6
CONTINUOUS
 62
       110
100
AcDbLine
 10
3.70241114
 20
10.0930201
 30
0.0
 11
3.70241114
 21
6.0930201
 31
0.0
  0
LINE
  5
73
100
AcDbEntity
  8
0
  6
CONTINUOUS
 62
       110
100
AcDbLine
 10
3.70241114
 20
52.5930203
 30
0.0
 11
3.70241114
 21
56.5930203
 31
0.0
  0
SOLID
  5
74
100
AcDbEntity
  8
0
  6
CONTINUOUS
 62
       110
100
AcDbTrace
 10
3.535744135
 20
9.0930200702
 30
0.0
 11
3.869078145
 21
9.0930200702
 31
0.0
 12
3.70241114
 22
10.0930201
 32
0.0
 13
3.70241114
 23
10.0930201
 33
0.0
  0
SOLID
  5
75
100
AcDbEntity
  8
0
  6
CONTINUOUS
 62
       110
100
AcDbTrace
 10
3.869078145
 20
53.5930203298
 30
0.0
 11
3.535744135
 21
53.5930203298
 31
0.0
 12
3.70241114
 22
52.5930203
 32
0.0
 13
3.70241114
 23
52.5930203
 33
0.0
  0
MTEXT
  5
77
100
AcDbEntity
  8
0
  6
CONTINUOUS
 62
       110
100
AcDbMText
 10
1.1024111162
 20
31.0463549083
 30
0.0
 40
3.2000000477
 41
0.0
 71
         5
 72
         1
  1
\A1;\U+220542.5
  7
MX_DIMTXSTY_4
 11
0.0
 21
1.0
 31
0.0
  0
POINT
  5
78
100
AcDbEntity
  8
DEFPOINTS
  6
CONTINUOUS
 62
         0
100
AcDbPoint
 10
14.2191090236
 20
10.0930201
 30
0.0
  0
POINT
  5
79
100
AcDbEntity
  8
DEFPOINTS
  6
CONTINUOUS
 62
         0
100
AcDbPoint
 10
8.975268806
 20
52.5930203
 30
0.0
  0
POINT
  5
7A
100
AcDbEntity
  8
DEFPOINTS
  6
CONTINUOUS
 62
         0
100
AcDbPoint
 10
3.70241114
 20
52.5930203
 30
0.0
  0
ENDBLK
  5
7B
100
AcDbEntity
  8
0
  6
ByBlock
 62
         0
100
AcDbBlockEnd
  0
BLOCK
  5
7E
100
AcDbEntity
  8
0
  6
ByBlock
 62
         0
100
AcDbBlockBegin
  2
*D7
 70
         1
 10
0.0
 20
0.0
 30
0.0
  3
*D7
  1

  0
LINE
  5
7F
100
AcDbEntity
  8
0
  6
CONTINUOUS
 62
       110
100
AcDbLine
 10
10.235894
 20
78.08701
 30
0.0
 11
43.2358942
 21
78.08701
 31
0.0
  0
LINE
  5
80
100
AcDbEntity
  8
0
  6
CONTINUOUS
 62
       110
100
AcDbLine
 10
10.235894
 20
56.1359067896
 30
0.0
 11
10.235894
 21
80.08701
 31
0.0
  0
LINE
  5
81
100
AcDbEntity
  8
0
  6
CONTINUOUS
 62
       110
100
AcDbLine
 10
43.2358942
 20
56.4055200555
 30
0.0
 11
43.2358942
 21
80.08701
 31
0.0
  0
LINE
  5
82
100
AcDbEntity
  8
0
  6
CONTINUOUS
 62
       110
100
AcDbLine
 10
10.235894
 20
78.08701
 30
0.0
 11
6.235894
 21
78.08701
 31
0.0
  0
LINE
  5
83
100
AcDbEntity
  8
0
  6
CONTINUOUS
 62
       110
100
AcDbLine
 10
43.2358942
 20
78.08701
 30
0.0
 11
47.2358942
 21
78.08701
 31
0.0
  0
SOLID
  5
84
100
AcDbEntity
  8
0
  6
CONTINUOUS
 62
       110
100
AcDbTrace
 10
9.2358939702
 20
78.253677005
 30
0.0
 11
9.2358939702
 21
77.920342995
 31
0.0
 12
10.235894
 22
78.08701
 32
0.0
 13
10.235894
 23
78.08701
 33
0.0
  0
SOLID
  5
85
100
AcDbEntity
  8
0
  6
CONTINUOUS
 62
       110
100
AcDbTrace
 10
44.2358942298
 20
77.920342995
 30
0.0
 11
44.2358942298
 21
78.253677005
 31
0.0
 12
43.2358942
 22
78.08701
 32
0.0
 13
43.2358942
 23
78.08701
 33
0.0
  0
MTEXT
  5
86
100
AcDbEntity
  8
0
  6
CONTINUOUS
 62
       110
100
AcDbMText
 10
26.5726497526
 20
80.6870100238
 30
0.0
 40
3.2000000477
 41
0.0
 71
         5
 72
         1
  1
\A1;33
  0
POINT
  5
87
100
AcDbEntity
  8
DEFPOINTS
  6
CONTINUOUS
 62
         0
100
AcDbPoint
 10
10.235894
 20
56.0734067896
 30
0.0
  0
POINT
  5
88
100
AcDbEntity
  8
DEFPOINTS
  6
CONTINUOUS
 62
         0
100
AcDbPoint
 10
43.2358942
 20
56.3430200555
 30
0.0
  0
POINT
  5
89
100
AcDbEntity
  8
DEFPOINTS
  6
CONTINUOUS
 62
         0
100
AcDbPoint
 10
43.2358942
 20
78.08701
 30
0.0
  0
ENDBLK
  5
8A
100
AcDbEntity
  8
0
  6
ByBlock
 62
         0
100
AcDbBlockEnd
  0
BLOCK
  5
8D
100
AcDbEntity
  8
0
  6
ByBlock
 62
         0
100
AcDbBlockBegin
  2
*D8
 70
         1
 10
0.0
 20
0.0
 30
0.0
  3
*D8
  1

  0
LINE
  5
8E
100
AcDbEntity
  8
0
  6
CONTINUOUS
 62
       110
100
AcDbLine
 10
52.2942254
 20
56.3430203
 30
0.0
 11
52.2942254
 21
6.34302004
 31
0.0
  0
LINE
  5
8F
100
AcDbEntity
  8
0
  6
CONTINUOUS
 62
       110
100
AcDbLine
 10
43.2983939104
 20
56.3430203
 30
0.0
 11
54.2942254
 21
56.3430203
 31
0.0
  0
LINE
  5
90
100
AcDbEntity
  8
0
  6
CONTINUOUS
 62
       110
100
AcDbLine
 10
43.2983939104
 20
6.34302004
 30
0.0
 11
54.2942254
 21
6.34302004
 31
0.0
  0
LINE
  5
91
100
AcDbEntity
  8
0
  6
CONTINUOUS
 62
       110
100
AcDbLine
 10
52.2942254
 20
56.3430203
 30
0.0
 11
52.2942254
 21
60.3430203
 31
0.0
  0
LINE
  5
92
100
AcDbEntity
  8
0
  6
CONTINUOUS
 62
       110
100
AcDbLine
 10
52.2942254
 20
6.34302004
 30
0.0
 11
52.2942254
 21
2.34302004
 31
0.0
  0
SOLID
  5
93
100
AcDbEntity
  8
0
  6
CONTINUOUS
 62
       110
100
AcDbTrace
 10
52.460892405
 20
57.3430203298
 30
0.0
 11
52.127558395
 21
57.3430203298
 31
0.0
 12
52.2942254
 22
56.3430203
 32
0.0
 13
52.2942254
 23
56.3430203
 33
0.0
  0
SOLID
  5
94
100
AcDbEntity
  8
0
  6
CONTINUOUS
 62
       110
100
AcDbTrace
 10
52.127558395
 20
5.3430200102
 30
0.0
 11
52.460892405
 21
5.3430200102
 31
0.0
 12
52.2942254
 22
6.34302004
 32
0.0
 13
52.2942254
 23
6.34302004
 33
0.0
  0
MTEXT
  5
95
100
AcDbEntity
  8
0
  6
CONTINUOUS
 62
       110
100
AcDbMText
 10
49.6942253762
 20
31.0463551083
 30
0.0
 40
3.2000000477
 41
0.0
 71
         5
 72
         1
  1
\A1;\U+220550
 11
0.0
 21
1.0
 31
0.0
  0
POINT
  5
96
100
AcDbEntity
  8
DEFPOINTS
  6
CONTINUOUS
 62
         0
100
AcDbPoint
 10
43.2358939104
 20
56.3430203
 30
0.0
  0
POINT
  5
97
100
AcDbEntity
  8
DEFPOINTS
  6
CONTINUOUS
 62
         0
100
AcDbPoint
 10
43.2358939104
 20
6.34302004
 30
0.0
  0
POINT
  5
98
100
AcDbEntity
  8
DEFPOINTS
  6
CONTINUOUS
 62
         0
100
AcDbPoint
 10
52.2942254
 20
6.34302004
 30
0.0
  0
ENDBLK
  5
99
100
AcDbEntity
  8
0
  6
ByBlock
 62
         0
100
AcDbBlockEnd
  0
BLOCK
  5
9C
100
AcDbEntity
  8
0
  6
ByBlock
 62
         0
100
AcDbBlockBegin
  2
*D9
 70
         1
 10
0.0
 20
0.0
 30
0.0
  3
*D9
  1

  0
LINE
  5
9D
100
AcDbEntity
  8
0
  6
CONTINUOUS
 62
       110
100
AcDbLine
 10
-1.00478139
 20
4.34302003
 30
0.0
 11
-1.00478139
 21
58.3430203
 31
0.0
  0
LINE
  5
9E
100
AcDbEntity
  8
0
  6
CONTINUOUS
 62
       110
100
AcDbLine
 10
15.1733935825
 20
4.34302003
 30
0.0
 11
-3.00478139
 21
4.34302003
 31
0.0
  0
LINE
  5
9F
100
AcDbEntity
  8
0
  6
CONTINUOUS
 62
       110
100
AcDbLine
 10
15.1733935825
 20
58.3430203
 30
0.0
 11
-3.00478139
 21
58.3430203
 31
0.0
  0
LINE
  5
A0
100
AcDbEntity
  8
0
  6
CONTINUOUS
 62
       110
100
AcDbLine
 10
-1.00478139
 20
4.34302003
 30
0.0
 11
-1.00478139
 21
0.34302003
 31
0.0
  0
LINE
  5
A1
100
AcDbEntity
  8
0
  6
CONTINUOUS
 62
       110
100
AcDbLine
 10
-1.00478139
 20
58.3430203
 30
0.0
 11
-1.00478139
 21
62.3430203
 31
0.0
  0
SOLID
  5
A2
100
AcDbEntity
  8
0
  6
CONTINUOUS
 62
       110
100
AcDbTrace
 10
-1.171448395
 20
3.3430200002
 30
0.0
 11
-0.838114385
 21
3.3430200002
 31
0.0
 12
-1.00478139
 22
4.34302003
 32
0.0
 13
-1.00478139
 23
4.34302003
 33
0.0
  0
SOLID
  5
A3
100
AcDbEntity
  8
0
  6
CONTINUOUS
 62
       110
100
AcDbTrace
 10
-0.838114385
 20
59.3430203298
 30
0.0
 11
-1.171448395
 21
59.3430203298
 31
0.0
 12
-1.00478139
 22
58.3430203
 32
0.0
 13
-1.00478139
 23
58.3430203
 33
0.0
  0
MTEXT
  5
A4
100
AcDbEntity
  8
0
  6
CONTINUOUS
 62
       110
100
AcDbMText
 10
-3.6047814138
 20
30.9345021925
 30
0.0
 40
3.2000000477
 41
0.0
 71
         5
 72
         1
  1
\A1;\U+220554
 11
0.0
 21
1.0
 31
0.0
  0
POINT
  5
A5
100
AcDbEntity
  8
DEFPOINTS
  6
CONTINUOUS
 62
         0
100
AcDbPoint
 10
15.2358935825
 20
4.34302003
 30
0.0
  0
POINT
  5
A6
100
AcDbEntity
  8
DEFPOINTS
  6
CONTINUOUS
 62
         0
100
AcDbPoint
 10
15.2358935825
 20
58.3430203
 30
0.0
  0
POINT
  5
A7
100
AcDbEntity
  8
DEFPOINTS
  6
CONTINUOUS
 62
         0
100
AcDbPoint
 10
-1.00478139
 20
58.3430203
 30
0.0
  0
ENDBLK
  5
A8
100
AcDbEntity
  8
0
  6
ByBlock
 62
         0
100
AcDbBlockEnd
  0
BLOCK
  5
AB
100
AcDbEntity
  8
0
  6
ByBlock
 62
         0
100
AcDbBlockBegin
  2
*D10
 70
         1
 10
0.0
 20
0.0
 30
0.0
  3
*D10
  1

  0
LINE
  5
AC
100
AcDbEntity
  8
0
  6
CONTINUOUS
 62
       110
100
AcDbLine
 10
9.04876024
 20
15.3430201
 30
0.0
 11
9.04876024
 21
47.3430202
 31
0.0
  0
LINE
  5
AD
100
AcDbEntity
  8
0
  6
CONTINUOUS
 62
       110
100
AcDbLine
 10
15.1733940291
 20
15.3430201
 30
0.0
 11
7.04876024
 21
15.3430201
 31
0.0
  0
LINE
  5
AE
100
AcDbEntity
  8
0
  6
CONTINUOUS
 62
       110
100
AcDbLine
 10
15.1733940291
 20
47.3430202
 30
0.0
 11
7.04876024
 21
47.3430202
 31
0.0
  0
LINE
  5
AF
100
AcDbEntity
  8
0
  6
CONTINUOUS
 62
       110
100
AcDbLine
 10
9.04876024
 20
15.3430201
 30
0.0
 11
9.04876024
 21
11.3430201
 31
0.0
  0
LINE
  5
B0
100
AcDbEntity
  8
0
  6
CONTINUOUS
 62
       110
100
AcDbLine
 10
9.04876024
 20
47.3430202
 30
0.0
 11
9.04876024
 21
51.3430202
 31
0.0
  0
SOLID
  5
B1
100
AcDbEntity
  8
0
  6
CONTINUOUS
 62
       110
100
AcDbTrace
 10
8.882093235
 20
14.3430200702
 30
0.0
 11
9.215427245
 21
14.3430200702
 31
0.0
 12
9.04876024
 22
15.3430201
 32
0.0
 13
9.04876024
 23
15.3430201
 33
0.0
  0
SOLID
  5
B2
100
AcDbEntity
  8
0
  6
CONTINUOUS
 62
       110
100
AcDbTrace
 10
9.215427245
 20
48.3430202298
 30
0.0
 11
8.882093235
 21
48.3430202298
 31
0.0
 12
9.04876024
 22
47.3430202
 32
0.0
 13
9.04876024
 23
47.3430202
 33
0.0
  0
MTEXT
  5
B3
100
AcDbEntity
  8
0
  6
CONTINUOUS
 62
       110
100
AcDbMText
 10
6.4487602162
 20
31.0463539547
 30
0.0
 40
3.2000000477
 41
0.0
 71
         5
 72
         1
  1
\A1;\U+220532
 11
0.0
 21
1.0
 31
0.0
  0
POINT
  5
B4
100
AcDbEntity
  8
DEFPOINTS
  6
CONTINUOUS
 62
         0
100
AcDbPoint
 10
15.2358940291
 20
15.3430201
 30
0.0
  0
POINT
  5
B5
100
AcDbEntity
  8
DEFPOINTS
  6
CONTINUOUS
 62
         0
100
AcDbPoint
 10
15.2358940291
 20
47.3430202
 30
0.0
  0
POINT
  5
B6
100
AcDbEntity
  8
DEFPOINTS
  6
CONTINUOUS
 62
         0
100
AcDbPoint
 10
9.04876024
 20
47.3430202
 30
0.0
  0
ENDBLK
  5
B7
100
AcDbEntity
  8
0
  6
ByBlock
 62
         0
100
AcDbBlockEnd
  0
ENDSEC
  0
SECTION
  2
ENTITIES
  0
MTEXT
  5
29
100
AcDbEntity
  8
0
  6
CONTINUOUS
 62
       110
100
AcDbMText
 10
-33.2452433171
 20
-51.6473295498
 30
0.0
 40
3.2000000477
 41
0.0
 71
         1
 72
         1
  1
\T1.025;\W1.058;\A1;TSUBAKI
  0
MTEXT
  5
2A
100
AcDbEntity
  8
0
  6
CONTINUOUS
 62
       110
100
AcDbMText
 10
-21.2779498171
 20
-21.7852175498
 30
0.0
 40
3.2000000477
 41
0.0
 71
         1
 72
         1
  1
\T1.025;\W1.058;\A1;TSUBAKI
  0
INSERT
  5
2B
100
AcDbEntity
  8
PV
  6
ByBlock
100
AcDbBlockReference
  2
ARROW
 10
-29.368748
 20
53.8161488
 30
0.0
 50
64.8598205
  0
DIMENSION
  5
3A
100
AcDbEntity
  8
PV
  6
CONTINUOUS
 62
       110
100
AcDbDimension
  2
*D2
 10
20.7358941
 20
65.8500438
 30
0.0
 11
7.1339196127
 21
65.8500438
 31
0.0
 70
       128
  1
\A1;<>
  3
MXDIMSTYLE
100
AcDbAlignedDimension
 13
15.2358941
 23
58.3430204655
 33
0.0
 14
20.7358941
 24
58.3430204655
 34
0.0
100
AcDbRotatedDimension
1001
ACAD
1000
DSTYLE
1002
{
1070
         6
1000
SOLID
1070
         7
1000
SOLID
1070
        41
1040
1.0000000298
1070
        42
1040
0.0625
1070
        44
1040
2.0
1070
       271
1070
         4
1070
       284
1070
         8
1070
       340
1005
34
1070
       343
1005
0
1070
       344
1005
0
1002
}
  0
DIMENSION
  5
49
100
AcDbEntity
  8
PV
  6
CONTINUOUS
 62
       110
100
AcDbDimension
  2
*D3
 10
43.2358942
 20
72.3908643
 30
0.0
 11
29.2608941722
 21
72.3908643
 31
0.0
 70
       128
  1
\A1;<>
  3
MXDIMSTYLE
100
AcDbAlignedDimension
 13
15.2358936
 23
58.3430203669
 33
0.0
 14
43.2358942
 24
56.3430203669
 34
0.0
100
AcDbRotatedDimension
1001
ACAD
1000
DSTYLE
1002
{
1070
         6
1000
SOLID
1070
         7
1000
SOLID
1070
        41
1040
1.0000000298
1070
        42
1040
0.0625
1070
        44
1040
2.0
1070
       271
1070
         4
1070
       284
1070
         8
1070
       343
1005
0
1070
       344
1005
0
1002
}
  0
DIMENSION
  5
59
100
AcDbEntity
  8
PV
  6
CONTINUOUS
 62
       110
100
AcDbDimension
  2
*D4
 10
43.2358942
 20
65.8500438
 30
0.0
 11
32.0108946722
 21
65.8500438
 31
0.0
 70
       128
  1
\A1;<>
  3
MXDIMSTYLE
100
AcDbAlignedDimension
 13
20.7358941
 23
58.3430204655
 33
0.0
 14
43.2358942
 24
55.0930199887
 34
0.0
100
AcDbRotatedDimension
1001
ACAD
1000
DSTYLE
1002
{
1070
         6
1000
SOLID
1070
         7
1000
SOLID
1070
        41
1040
1.0000000298
1070
        42
1040
0.0625
1070
        44
1040
2.0
1070
       271
1070
         4
1070
       284
1070
         8
1070
       340
1005
53
1070
       343
1005
0
1070
       344
1005
0
1002
}
  0
DIMENSION
  5
68
100
AcDbEntity
  8
PV
  6
CONTINUOUS
 62
       110
100
AcDbDimension
  2
*D5
 10
43.2358942
 20
59.7032487
 30
0.0
 11
34.7608946722
 21
59.7032487
 31
0.0
 70
       128
  1
\A1;<>
  3
MXDIMSTYLE
100
AcDbAlignedDimension
 13
26.2358941
 23
56.3430203999
 33
0.0
 14
43.2358942
 24
56.3430201615
 34
0.0
100
AcDbRotatedDimension
1001
ACAD
1000
DSTYLE
1002
{
1070
         6
1000
SOLID
1070
         7
1000
SOLID
1070
        41
1040
1.0000000298
1070
        42
1040
0.0625
1070
        44
1040
2.0
1070
       271
1070
         4
1070
       284
1070
         8
1070
       340
1005
53
1070
       343
1005
0
1070
       344
1005
0
1002
}
  0
MTEXT
  5
69
100
AcDbEntity
  8
PV
  6
CONTINUOUS
 62
       110
100
AcDbMText
 10
-21.3257359088
 20
-27.7852175498
 30
0.0
 40
3.2000000477
 41
0.0
 71
         1
 72
         1
  1
\T1.003;\W1.067;\A1;POWER LOCK
  0
MTEXT
  5
6A
100
AcDbEntity
  8
PV
  6
CONTINUOUS
 62
       110
100
AcDbMText
 10
-21.307961033
 20
-33.7852177882
 30
0.0
 40
3.2000000477
 41
0.0
 71
         1
 72
         1
  1
\W1.048;\A1;PL032X050KE
  0
LINE
  5
6C
100
AcDbEntity
  8
PV
  6
CENTER
 62
         3
100
AcDbLine
 10
-67.9974438
 20
31.3430202
 30
0.0
 11
-5.99744345
 21
31.3430202
 31
0.0
  0
DIMENSION
  5
7C
100
AcDbEntity
  8
PV
  6
CONTINUOUS
 62
       110
100
AcDbDimension
  2
*D6
 10
3.70241114
 20
52.5930203
 30
0.0
 11
3.70241114
 21
31.0463549083
 31
0.0
 70
       128
  1
\A1;\U+2205<>
  3
MXDIMSTYLE
100
AcDbAlignedDimension
 13
14.2191090236
 23
10.0930201
 33
0.0
 14
8.975268806
 24
52.5930203
 34
0.0
 50
90.0
100
AcDbRotatedDimension
1001
ACAD
1000
DSTYLE
1002
{
1070
         6
1000
SOLID
1070
         7
1000
SOLID
1070
        41
1040
1.0000000298
1070
        42
1040
0.0625
1070
        44
1040
2.0
1070
       271
1070
         4
1070
       284
1070
         8
1070
       340
1005
76
1070
       343
1005
0
1070
       344
1005
0
1002
}
  0
DIMENSION
  5
8B
100
AcDbEntity
  8
PV
  6
CONTINUOUS
 62
       110
100
AcDbDimension
  2
*D7
 10
43.2358942
 20
78.08701
 30
0.0
 11
26.5726497526
 21
78.08701
 31
0.0
 70
       128
  1
\A1;<>
  3
MXDIMSTYLE
100
AcDbAlignedDimension
 13
10.235894
 23
56.0734067896
 33
0.0
 14
43.2358942
 24
56.3430200555
 34
0.0
100
AcDbRotatedDimension
1001
ACAD
1000
DSTYLE
1002
{
1070
         6
1000
SOLID
1070
         7
1000
SOLID
1070
        41
1040
1.0000000298
1070
        42
1040
0.0625
1070
        44
1040
2.0
1070
       271
1070
         4
1070
       284
1070
         8
1070
       343
1005
0
1070
       344
1005
0
1002
}
  0
DIMENSION
  5
9A
100
AcDbEntity
  8
PV
  6
CONTINUOUS
 62
       110
100
AcDbDimension
  2
*D8
 10
52.2942254
 20
6.34302004
 30
0.0
 11
52.2942254
 21
31.0463551083
 31
0.0
 70
       128
  1
\A1;\U+2205<>
  3
MXDIMSTYLE
100
AcDbAlignedDimension
 13
43.2358939104
 23
56.3430203
 33
0.0
 14
43.2358939104
 24
6.34302004
 34
0.0
 50
90.0
100
AcDbRotatedDimension
1001
ACAD
1000
DSTYLE
1002
{
1070
         6
1000
SOLID
1070
         7
1000
SOLID
1070
        41
1040
1.0000000298
1070
        42
1040
0.0625
1070
        44
1040
2.0
1070
       271
1070
         4
1070
       284
1070
         8
1070
       343
1005
0
1070
       344
1005
0
1002
}
  0
DIMENSION
  5
A9
100
AcDbEntity
  8
PV
  6
CONTINUOUS
 62
       110
100
AcDbDimension
  2
*D9
 10
-1.00478139
 20
58.3430203
 30
0.0
 11
-1.00478139
 21
30.9345021925
 31
0.0
 70
       128
  1
\A1;\U+2205<>
  3
MXDIMSTYLE
100
AcDbAlignedDimension
 13
15.2358935825
 23
4.34302003
 33
0.0
 14
15.2358935825
 24
58.3430203
 34
0.0
 50
90.0
100
AcDbRotatedDimension
1001
ACAD
1000
DSTYLE
1002
{
1070
         6
1000
SOLID
1070
         7
1000
SOLID
1070
        41
1040
1.0000000298
1070
        42
1040
0.0625
1070
        44
1040
2.0
1070
       271
1070
         4
1070
       284
1070
         8
1070
       343
1005
0
1070
       344
1005
0
1002
}
  0
DIMENSION
  5
B8
100
AcDbEntity
  8
PV
  6
CONTINUOUS
 62
       110
100
AcDbDimension
  2
*D10
 10
9.04876024
 20
47.3430202
 30
0.0
 11
9.04876024
 21
31.0463539547
 31
0.0
 70
       128
  1
\A1;\U+2205<>
  3
MXDIMSTYLE
100
AcDbAlignedDimension
 13
15.2358940291
 23
15.3430201
 33
0.0
 14
15.2358940291
 24
47.3430202
 34
0.0
 50
90.0
100
AcDbRotatedDimension
1001
ACAD
1000
DSTYLE
1002
{
1070
         6
1000
SOLID
1070
         7
1000
SOLID
1070
        41
1040
1.0000000298
1070
        42
1040
0.0625
1070
        44
1040
2.0
1070
       271
1070
         4
1070
       284
1070
         8
1070
       343
1005
0
1070
       344
1005
0
1002
}
  0
CIRCLE
  5
B9
100
AcDbEntity
  8
PV
  6
CONTINUOUS
 62
         3
100
AcDbCircle
 10
-30.4308237
 20
11.1330693
 30
0.0
 40
2.06700008
  0
ARC
  5
BA
100
AcDbEntity
  8
PV
  6
CONTINUOUS
 62
         3
100
AcDbCircle
 10
-30.4308237
 20
11.1330693
 30
0.0
 40
2.50000001
100
AcDbArc
 50
40.761804
 51
177.12567
  0
ARC
  5
BB
100
AcDbEntity
  8
PV
  6
CONTINUOUS
 62
         3
100
AcDbCircle
 10
-30.4308237
 20
11.1330693
 30
0.0
 40
2.50000001
100
AcDbArc
 50
200.435292
 51
12.9165349
  0
CIRCLE
  5
BC
100
AcDbEntity
  8
PV
  6
CONTINUOUS
 62
         3
100
AcDbCircle
 10
-54.1890534
 20
18.8525823
 30
0.0
 40
2.06700008
  0
ARC
  5
BD
100
AcDbEntity
  8
PV
  6
CONTINUOUS
 62
         3
100
AcDbCircle
 10
-54.1890534
 20
18.8525823
 30
0.0
 40
2.50000001
100
AcDbArc
 50
328.761802
 51
105.125675
  0
ARC
  5
BE
100
AcDbEntity
  8
PV
  6
CONTINUOUS
 62
         3
100
AcDbCircle
 10
-54.1890534
 20
18.8525823
 30
0.0
 40
2.50000001
100
AcDbArc
 50
128.435287
 51
300.916524
  0
CIRCLE
  5
BF
100
AcDbEntity
  8
PV
  6
CONTINUOUS
 62
         3
100
AcDbCircle
 10
-54.1890534
 20
43.8334479
 30
0.0
 40
2.06700008
  0
ARC
  5
C0
100
AcDbEntity
  8
PV
  6
CONTINUOUS
 62
         3
100
AcDbCircle
 10
-54.1890534
 20
43.8334479
 30
0.0
 40
2.50000001
100
AcDbArc
 50
256.7618
 51
33.1256764
  0
ARC
  5
C1
100
AcDbEntity
  8
PV
  6
CONTINUOUS
 62
         3
100
AcDbCircle
 10
-54.1890534
 20
43.8334479
 30
0.0
 40
2.50000001
100
AcDbArc
 50
56.4352952
 51
228.916536
  0
CIRCLE
  5
C2
100
AcDbEntity
  8
PV
  6
CONTINUOUS
 62
         3
100
AcDbCircle
 10
-30.4308339
 20
51.552971
 30
0.0
 40
2.06700008
  0
ARC
  5
C3
100
AcDbEntity
  8
PV
  6
CONTINUOUS
 62
         3
100
AcDbCircle
 10
-30.4308339
 20
51.552971
 30
0.0
 40
2.50000001
100
AcDbArc
 50
184.761798
 51
321.125674
  0
ARC
  5
C4
100
AcDbEntity
  8
PV
  6
CONTINUOUS
 62
         3
100
AcDbCircle
 10
-30.4308339
 20
51.552971
 30
0.0
 40
2.50000001
100
AcDbArc
 50
344.435293
 51
156.916534
  0
CIRCLE
  5
C5
100
AcDbEntity
  8
PV
  6
CENTER
 62
         3
100
AcDbCircle
 10
-36.9974436
 20
31.3430202
 30
0.0
 40
21.2500001
  0
ARC
  5
C6
100
AcDbEntity
  8
PV
  6
CONTINUOUS
 62
         3
100
AcDbCircle
 10
-36.9974436
 20
31.3430202
 30
0.0
 40
17.8685914
100
AcDbArc
 50
248.791809
 51
255.208178
  0
ARC
  5
C7
100
AcDbEntity
  8
PV
  6
CONTINUOUS
 62
         3
100
AcDbCircle
 10
-36.9974436
 20
31.3430202
 30
0.0
 40
16.3812842
100
AcDbArc
 50
248.500181
 51
255.499806
  0
ARC
  5
C8
100
AcDbEntity
  8
PV
  6
CONTINUOUS
 62
         3
100
AcDbCircle
 10
-36.9974436
 20
31.3430202
 30
0.0
 40
25.0000001
100
AcDbArc
 50
249.70756
 51
254.292441
  0
ARC
  5
C9
100
AcDbEntity
  8
PV
  6
CONTINUOUS
 62
         3
100
AcDbCircle
 10
-15.7474435
 20
31.3430202
 30
0.0
 40
2.50000001
100
AcDbArc
 50
272.435295
 51
84.9165387
  0
CIRCLE
  5
CA
100
AcDbEntity
  8
PV
  6
CONTINUOUS
 62
         3
100
AcDbCircle
 10
-15.7474435
 20
31.3430202
 30
0.0
 40
2.06700008
  0
ARC
  5
CB
100
AcDbEntity
  8
PV
  6
CONTINUOUS
 62
         3
100
AcDbCircle
 10
-15.7474435
 20
31.3430202
 30
0.0
 40
2.50000001
100
AcDbArc
 50
112.761806
 51
249.125686
  0
ARC
  5
CC
100
AcDbEntity
  8
PV
  6
CONTINUOUS
 62
         3
100
AcDbCircle
 10
15.4358961
 20
55.2930223
 30
0.0
 40
0.199999929
100
AcDbArc
 50
179.999745
 51
270.000001
  0
ARC
  5
CD
100
AcDbEntity
  8
PV
  6
CONTINUOUS
 62
         3
100
AcDbCircle
 10
15.4358961
 20
49.8930182
 30
0.0
 40
0.199998797
100
AcDbArc
 50
89.9999818
 51
180.000237
  0
ARC
  5
CE
100
AcDbEntity
  8
PV
  6
CONTINUOUS
 62
         3
100
AcDbCircle
 10
-36.9974436
 20
31.3430202
 30
0.0
 40
16.0000001
100
AcDbArc
 50
0.0
 51
248.416685
  0
ARC
  5
CF
100
AcDbEntity
  8
PV
  6
CONTINUOUS
 62
         3
100
AcDbCircle
 10
-36.9974436
 20
31.3430202
 30
0.0
 40
16.0000001
100
AcDbArc
 50
255.58334
 51
0.0
  0
ARC
  5
D0
100
AcDbEntity
  8
PV
  6
CONTINUOUS
 62
         3
100
AcDbCircle
 10
-36.9974436
 20
31.3430202
 30
0.0
 40
27.0000001
100
AcDbArc
 50
254.122553
 51
0.0
  0
ARC
  5
D1
100
AcDbEntity
  8
PV
  6
CONTINUOUS
 62
         3
100
AcDbCircle
 10
-36.9974436
 20
31.3430202
 30
0.0
 40
27.0000001
100
AcDbArc
 50
0.0
 51
249.877444
  0
LINE
  5
D2
100
AcDbEntity
  8
PV
  6
CONTINUOUS
 62
         3
100
AcDbLine
 10
26.2358941
 20
50.5260342
 30
0.0
 11
26.2358941
 21
49.2116116
 31
0.0
  0
LINE
  5
D3
100
AcDbEntity
  8
PV
  6
CONTINUOUS
 62
         3
100
AcDbLine
 10
23.7358941
 20
55.0930203
 30
0.0
 11
23.7358941
 21
56.3430203
 31
0.0
  0
LINE
  5
D4
100
AcDbEntity
  8
PV
  6
CONTINUOUS
 62
         3
100
AcDbLine
 10
32.335895
 20
50.09303
 30
0.0
 11
33.2359025
 21
50.9930289
 31
0.0
  0
LINE
  5
D5
100
AcDbEntity
  8
PV
  6
CONTINUOUS
 62
         3
100
AcDbLine
 10
33.2358942
 20
54.1930162
 30
0.0
 11
33.2358942
 21
50.9930243
 31
0.0
  0
LINE
  5
D6
100
AcDbEntity
  8
PV
  6
CONTINUOUS
 62
         3
100
AcDbLine
 10
32.3358886
 20
55.0930243
 30
0.0
 11
33.235896
 21
54.1930254
 31
0.0
  0
LINE
  5
D7
100
AcDbEntity
  8
PV
  6
CONTINUOUS
 62
         3
100
AcDbLine
 10
32.335885
 20
55.0930203
 30
0.0
 11
32.335885
 21
50.0930203
 31
0.0
  0
LINE
  5
D8
100
AcDbEntity
  8
PV
  6
CONTINUOUS
 62
         3
100
AcDbLine
 10
17.2358941
 20
54.6600064
 30
0.0
 11
43.2358942
 21
54.6600064
 31
0.0
  0
LINE
  5
D9
100
AcDbEntity
  8
PV
  6
CONTINUOUS
 62
         3
100
AcDbLine
 10
17.2358804
 20
54.6600125
 30
0.0
 11
16.369859
 21
55.0930232
 31
0.0
  0
LINE
  5
DA
100
AcDbEntity
  8
PV
  6
CONTINUOUS
 62
         3
100
AcDbLine
 10
17.2358941
 20
50.5260342
 30
0.0
 11
43.2358942
 21
50.5260342
 31
0.0
  0
LINE
  5
DB
100
AcDbEntity
  8
PV
  6
CONTINUOUS
 62
         3
100
AcDbLine
 10
17.2358941
 20
55.0930203
 30
0.0
 11
17.2358941
 21
50.0930203
 31
0.0
  0
LINE
  5
DC
100
AcDbEntity
  8
PV
  6
CONTINUOUS
 62
         3
100
AcDbLine
 10
17.235895
 20
50.5260287
 30
0.0
 11
16.369869
 21
50.0930157
 31
0.0
  0
LINE
  5
DD
100
AcDbEntity
  8
PV
  6
CONTINUOUS
 62
         3
100
AcDbLine
 10
43.2358942
 20
50.0930203
 30
0.0
 11
15.4359215
 21
50.0930203
 31
0.0
  0
LINE
  5
DE
100
AcDbEntity
  8
PV
  6
CONTINUOUS
 62
         3
100
AcDbLine
 10
43.2358942
 20
55.0930203
 30
0.0
 11
15.4359215
 21
55.0930203
 31
0.0
  0
LINE
  5
DF
100
AcDbEntity
  8
PV
  6
CONTINUOUS
 62
         3
100
AcDbLine
 10
15.2358941
 20
48.3430202
 30
0.0
 11
10.5358971
 21
48.3430202
 31
0.0
  0
LINE
  5
E0
100
AcDbEntity
  8
PV
  6
CONTINUOUS
 62
         3
100
AcDbLine
 10
10.2358972
 20
48.8626317
 30
0.0
 11
10.5358949
 21
48.3430198
 31
0.0
  0
LINE
  5
E1
100
AcDbEntity
  8
PV
  6
CONTINUOUS
 62
         3
100
AcDbLine
 10
15.2358941
 20
56.8430203
 30
0.0
 11
10.5358971
 21
56.8430203
 31
0.0
  0
LINE
  5
E2
100
AcDbEntity
  8
PV
  6
CONTINUOUS
 62
         3
100
AcDbLine
 10
10.2358925
 20
56.3233947
 30
0.0
 11
10.5358902
 21
56.8430065
 31
0.0
  0
LINE
  5
E3
100
AcDbEntity
  8
PV
  6
CONTINUOUS
 62
         3
100
AcDbLine
 10
10.5358971
 20
56.8430203
 30
0.0
 11
10.5358971
 21
48.3430202
 31
0.0
  0
LINE
  5
E4
100
AcDbEntity
  8
PV
  6
CONTINUOUS
 62
         3
100
AcDbLine
 10
10.235894
 20
56.3234077
 30
0.0
 11
10.235894
 21
48.8626431
 31
0.0
  0
LINE
  5
E5
100
AcDbEntity
  8
PV
  6
CONTINUOUS
 62
         3
100
AcDbLine
 10
-40.9809968
 20
15.8468515
 30
0.0
 11
-44.3841257
 21
5.37309755
 31
0.0
  0
LINE
  5
E6
100
AcDbEntity
  8
PV
  6
CONTINUOUS
 62
         3
100
AcDbLine
 10
-42.8831098
 20
16.4648856
 30
0.0
 11
-46.2862388
 21
5.99113156
 31
0.0
  0
LINE
  5
E7
100
AcDbEntity
  8
PV
  6
CENTER
 62
         3
100
AcDbLine
 10
-32.4801444
 20
17.4402068
 30
0.0
 11
-27.6494338
 21
2.57280844
 31
0.0
  0
LINE
  5
E8
100
AcDbEntity
  8
PV
  6
CENTER
 62
         3
100
AcDbLine
 10
-48.8238912
 20
39.9354343
 30
0.0
 11
-61.4708555
 21
49.1239915
 31
0.0
  0
LINE
  5
E9
100
AcDbEntity
  8
PV
  6
CENTER
 62
         3
100
AcDbLine
 10
-48.8238821
 20
22.7506158
 30
0.0
 11
-61.4708453
 21
13.5620593
 31
0.0
  0
LINE
  5
EA
100
AcDbEntity
  8
PV
  6
CENTER
 62
         3
100
AcDbLine
 10
-45.3471718
 20
42.8354381
 30
0.0
 11
-54.7062336
 21
55.7170818
 31
0.0
  0
LINE
  5
EB
100
AcDbEntity
  8
PV
  6
CENTER
 62
         3
100
AcDbLine
 10
-23.487291
 20
35.732727
 30
0.0
 11
-8.34400789
 21
40.6530775
 31
0.0
  0
LINE
  5
EC
100
AcDbEntity
  8
PV
  6
CENTER
 62
         3
100
AcDbLine
 10
-23.4872957
 20
26.9533093
 30
0.0
 11
-8.34401502
 21
22.0329592
 31
0.0
  0
LINE
  5
ED
100
AcDbEntity
  8
PV
  6
CENTER
 62
         3
100
AcDbLine
 10
-28.647715
 20
19.8506017
 30
0.0
 11
-19.2886532
 21
6.96895799
 31
0.0
  0
LINE
  5
EE
100
AcDbEntity
  8
PV
  6
CENTER
 62
         3
100
AcDbLine
 10
-45.3471818
 20
19.8506
 30
0.0
 11
-54.7062435
 21
6.96895631
 31
0.0
  0
LINE
  5
EF
100
AcDbEntity
  8
PV
  6
CENTER
 62
         3
100
AcDbLine
 10
-50.5075953
 20
26.9533095
 30
0.0
 11
-65.6508759
 21
22.0329598
 31
0.0
  0
LINE
  5
F0
100
AcDbEntity
  8
PV
  6
CENTER
 62
         3
100
AcDbLine
 10
-50.5075992
 20
35.7327381
 30
0.0
 11
-65.6508799
 21
40.6530883
 31
0.0
  0
LINE
  5
F1
100
AcDbEntity
  8
PV
  6
CENTER
 62
         3
100
AcDbLine
 10
-32.4801519
 20
45.2458364
 30
0.0
 11
-27.6494418
 21
60.1132348
 31
0.0
  0
LINE
  5
F2
100
AcDbEntity
  8
PV
  6
CENTER
 62
         3
100
AcDbLine
 10
-28.6477082
 20
42.8354368
 30
0.0
 11
-19.2886464
 21
55.7170805
 31
0.0
  0
LINE
  5
F3
100
AcDbEntity
  8
PV
  6
CENTER
 62
         3
100
AcDbLine
 10
-36.9974436
 20
62.3430203
 30
0.0
 11
-36.9974436
 21
0.34302001
 31
0.0
  0
LINE
  5
F4
100
AcDbEntity
  8
PV
  6
CONTINUOUS
 62
         3
100
AcDbLine
 10
15.2358941
 20
58.3430203
 30
0.0
 11
20.7358941
 21
58.3430203
 31
0.0
  0
LINE
  5
F5
100
AcDbEntity
  8
PV
  6
CONTINUOUS
 62
         3
100
AcDbLine
 10
20.7358941
 20
56.3430203
 30
0.0
 11
23.7358941
 21
56.3430203
 31
0.0
  0
LINE
  5
F6
100
AcDbEntity
  8
PV
  6
CONTINUOUS
 62
         3
100
AcDbLine
 10
23.7358941
 20
49.2553534
 30
0.0
 11
23.7358941
 21
50.0930203
 31
0.0
  0
LINE
  5
F7
100
AcDbEntity
  8
PV
  6
CONTINUOUS
 62
         3
100
AcDbLine
 10
43.2358942
 20
47.7243063
 30
0.0
 11
25.7359023
 21
49.2553573
 31
0.0
  0
LINE
  5
F8
100
AcDbEntity
  8
PV
  6
CONTINUOUS
 62
         3
100
AcDbLine
 10
23.7358941
 20
49.2553534
 30
0.0
 11
25.7358941
 21
49.2553534
 31
0.0
  0
LINE
  5
F9
100
AcDbEntity
  8
PV
  6
CONTINUOUS
 62
         3
100
AcDbLine
 10
43.2358942
 20
56.3430203
 30
0.0
 11
43.2358942
 21
31.3430202
 31
0.0
  0
LINE
  5
FA
100
AcDbEntity
  8
PV
  6
CONTINUOUS
 62
         3
100
AcDbLine
 10
26.2358941
 20
56.3430203
 30
0.0
 11
26.2358941
 21
54.6600064
 31
0.0
  0
LINE
  5
FB
100
AcDbEntity
  8
PV
  6
CONTINUOUS
 62
         3
100
AcDbLine
 10
20.7358941
 20
58.3430203
 30
0.0
 11
20.7358941
 21
56.3430203
 31
0.0
  0
LINE
  5
FC
100
AcDbEntity
  8
PV
  6
CONTINUOUS
 62
         3
100
AcDbLine
 10
26.2358941
 20
56.3430203
 30
0.0
 11
43.2358942
 21
56.3430203
 31
0.0
  0
LINE
  5
FD
100
AcDbEntity
  8
PV
  6
CENTER
 62
         3
100
AcDbLine
 10
8.97526883
 20
52.5930203
 30
0.0
 11
45.4396804
 21
52.5930203
 31
0.0
  0
LINE
  5
FE
100
AcDbEntity
  8
PV
  6
CONTINUOUS
 62
         3
100
AcDbLine
 10
15.2358941
 20
47.3430202
 30
0.0
 11
40.7358942
 21
47.3430202
 31
0.0
  0
LINE
  5
FF
100
AcDbEntity
  8
PV
  6
CONTINUOUS
 62
         3
100
AcDbLine
 10
40.7358942
 20
47.9430264
 30
0.0
 11
40.7358942
 21
31.3430202
 31
0.0
  0
LINE
  5
100
100
AcDbEntity
  8
PV
  6
CONTINUOUS
 62
         3
100
AcDbLine
 10
15.2358941
 20
58.3430203
 30
0.0
 11
15.2358941
 21
31.3430202
 31
0.0
  0
LINE
  5
101
100
AcDbEntity
  8
PV
  6
CONTINUOUS
 62
         3
100
AcDbLine
 10
26.2358941
 20
6.34302004
 30
0.0
 11
43.2358942
 21
6.34302004
 31
0.0
  0
LINE
  5
102
100
AcDbEntity
  8
PV
  6
CONTINUOUS
 62
         3
100
AcDbLine
 10
26.2358941
 20
6.34302004
 30
0.0
 11
26.2358941
 21
13.4744288
 31
0.0
  0
LINE
  5
103
100
AcDbEntity
  8
PV
  6
CONTINUOUS
 62
         3
100
AcDbLine
 10
43.2358942
 20
6.34302004
 30
0.0
 11
43.2358942
 21
31.3430202
 31
0.0
  0
LINE
  5
104
100
AcDbEntity
  8
PV
  6
CONTINUOUS
 62
         3
100
AcDbLine
 10
20.7358941
 20
4.34302003
 30
0.0
 11
20.7358941
 21
6.34302004
 31
0.0
  0
LINE
  5
105
100
AcDbEntity
  8
PV
  6
CONTINUOUS
 62
         3
100
AcDbLine
 10
15.2358941
 20
4.34302003
 30
0.0
 11
20.7358941
 21
4.34302003
 31
0.0
  0
LINE
  5
106
100
AcDbEntity
  8
PV
  6
CONTINUOUS
 62
         3
100
AcDbLine
 10
20.7358941
 20
6.34302004
 30
0.0
 11
23.7358941
 21
6.34302004
 31
0.0
  0
LINE
  5
107
100
AcDbEntity
  8
PV
  6
CONTINUOUS
 62
         3
100
AcDbLine
 10
23.7358941
 20
13.4306869
 30
0.0
 11
23.7358941
 21
6.34302004
 31
0.0
  0
LINE
  5
108
100
AcDbEntity
  8
PV
  6
CONTINUOUS
 62
         3
100
AcDbLine
 10
43.2358941
 20
14.9617386
 30
0.0
 11
25.7359028
 21
13.4306877
 31
0.0
  0
LINE
  5
109
100
AcDbEntity
  8
PV
  6
CONTINUOUS
 62
         3
100
AcDbLine
 10
23.7358941
 20
13.4306869
 30
0.0
 11
25.7358941
 21
13.4306869
 31
0.0
  0
LINE
  5
10A
100
AcDbEntity
  8
PV
  6
CONTINUOUS
 62
         3
100
AcDbLine
 10
15.2358941
 20
8.02602379
 30
0.0
 11
23.7358941
 21
8.02602379
 31
0.0
  0
LINE
  5
10B
100
AcDbEntity
  8
PV
  6
CONTINUOUS
 62
         3
100
AcDbLine
 10
15.2358941
 20
12.1600163
 30
0.0
 11
23.7358941
 21
12.1600163
 31
0.0
  0
LINE
  5
10C
100
AcDbEntity
  8
PV
  6
CONTINUOUS
 62
         3
100
AcDbLine
 10
15.2358941
 20
7.59302005
 30
0.0
 11
23.7358941
 21
7.59302005
 31
0.0
  0
LINE
  5
10D
100
AcDbEntity
  8
PV
  6
CONTINUOUS
 62
         3
100
AcDbLine
 10
15.2358941
 20
12.5930201
 30
0.0
 11
23.7358941
 21
12.5930201
 31
0.0
  0
LINE
  5
10E
100
AcDbEntity
  8
PV
  6
CENTER
 62
         3
100
AcDbLine
 10
14.2191094
 20
10.0930201
 30
0.0
 11
25.0078617
 21
10.0930201
 31
0.0
  0
LINE
  5
10F
100
AcDbEntity
  8
PV
  6
CONTINUOUS
 62
         3
100
AcDbLine
 10
15.2358941
 20
15.3430201
 30
0.0
 11
40.7358942
 21
15.3430201
 31
0.0
  0
LINE
  5
110
100
AcDbEntity
  8
PV
  6
CONTINUOUS
 62
         3
100
AcDbLine
 10
40.7358942
 20
14.743014
 30
0.0
 11
40.7358942
 21
31.3430202
 31
0.0
  0
LINE
  5
111
100
AcDbEntity
  8
PV
  6
CONTINUOUS
 62
         3
100
AcDbLine
 10
15.2358941
 20
4.34302003
 30
0.0
 11
15.2358941
 21
31.3430202
 31
0.0
  0
LINE
  5
112
100
AcDbEntity
  8
PV
  6
CENTER
 62
         3
100
AcDbLine
 10
11.5662773
 20
31.3430202
 30
0.0
 11
45.5714986
 21
31.3430202
 31
0.0
  0
CIRCLE
  5
113
100
AcDbEntity
  8
PV
  6
CONTINUOUS
 62
         3
100
AcDbCircle
 10
-24.5070057
 20
48.53463
 30
0.0
 40
3.73999977
  0
CIRCLE
  5
114
100
AcDbEntity
  8
PV
  6
CONTINUOUS
 62
         3
100
AcDbCircle
 10
-24.5070057
 20
48.53463
 30
0.0
 40
4.25
  0
LINE
  5
115
100
AcDbEntity
  8
PV
  6
CONTINUOUS
 62
         3
100
AcDbLine
 10
-23.5676725
 20
46.4249075
 30
0.0
 11
-25.8644077
 21
46.6663042
 31
0.0
  0
LINE
  5
116
100
AcDbEntity
  8
PV
  6
CONTINUOUS
 62
         3
100
AcDbLine
 10
-25.8644052
 20
46.666299
 30
0.0
 11
-26.8037109
 21
48.7760144
 31
0.0
  0
LINE
  5
117
100
AcDbEntity
  8
PV
  6
CONTINUOUS
 62
         3
100
AcDbLine
 10
-26.8037192
 20
48.7760198
 30
0.0
 11
-25.4462961
 21
50.6443525
 31
0.0
  0
LINE
  5
118
100
AcDbEntity
  8
PV
  6
CONTINUOUS
 62
         3
100
AcDbLine
 10
-25.4463033
 20
50.6443545
 30
0.0
 11
-23.1495833
 21
50.4029594
 31
0.0
  0
LINE
  5
119
100
AcDbEntity
  8
PV
  6
CONTINUOUS
 62
         3
100
AcDbLine
 10
-23.1495636
 20
50.4029445
 30
0.0
 11
-22.2102515
 21
48.2932152
 31
0.0
  0
LINE
  5
11A
100
AcDbEntity
  8
PV
  6
CONTINUOUS
 62
         3
100
AcDbLine
 10
-22.2102638
 20
48.293216
 30
0.0
 11
-23.567678
 21
46.4248956
 31
0.0
  0
CIRCLE
  5
11B
100
AcDbEntity
  8
PV
  6
CONTINUOUS
 62
         3
100
AcDbCircle
 10
-36.9974436
 20
52.5930203
 30
0.0
 40
3.73999977
  0
CIRCLE
  5
11C
100
AcDbEntity
  8
PV
  6
CONTINUOUS
 62
         3
100
AcDbCircle
 10
-36.9974436
 20
52.5930203
 30
0.0
 40
4.25
  0
LINE
  5
11D
100
AcDbEntity
  8
PV
  6
CONTINUOUS
 62
         3
100
AcDbLine
 10
-34.9974433
 20
51.4383451
 30
0.0
 11
-36.9974306
 21
50.2836521
 31
0.0
  0
LINE
  5
11E
100
AcDbEntity
  8
PV
  6
CONTINUOUS
 62
         3
100
AcDbLine
 10
-36.9974255
 20
50.2836494
 30
0.0
 11
-38.9973994
 21
51.438335
 31
0.0
  0
LINE
  5
11F
100
AcDbEntity
  8
PV
  6
CONTINUOUS
 62
         3
100
AcDbLine
 10
-38.9974093
 20
51.4383344
 30
0.0
 11
-38.9974093
 21
53.7477207
 31
0.0
  0
LINE
  5
120
100
AcDbEntity
  8
PV
  6
CONTINUOUS
 62
         3
100
AcDbLine
 10
-38.9974163
 20
53.747718
 30
0.0
 11
-36.9974422
 21
54.9024034
 31
0.0
  0
LINE
  5
121
100
AcDbEntity
  8
PV
  6
CONTINUOUS
 62
         3
100
AcDbLine
 10
-36.9974175
 20
54.902403
 30
0.0
 11
-34.9974304
 21
53.7477098
 31
0.0
  0
LINE
  5
122
100
AcDbEntity
  8
PV
  6
CONTINUOUS
 62
         3
100
AcDbLine
 10
-34.9974407
 20
53.7477033
 30
0.0
 11
-34.9974407
 21
51.4383323
 31
0.0
  0
CIRCLE
  5
123
100
AcDbEntity
  8
PV
  6
CONTINUOUS
 62
         3
100
AcDbCircle
 10
-49.4878815
 20
48.53463
 30
0.0
 40
3.73999977
  0
CIRCLE
  5
124
100
AcDbEntity
  8
PV
  6
CONTINUOUS
 62
         3
100
AcDbCircle
 10
-49.4878815
 20
48.53463
 30
0.0
 40
4.25
  0
LINE
  5
125
100
AcDbEntity
  8
PV
  6
CONTINUOUS
 62
         3
100
AcDbLine
 10
-47.1911462
 20
48.7760488
 30
0.0
 11
-48.1304584
 21
46.6663195
 31
0.0
  0
LINE
  5
126
100
AcDbEntity
  8
PV
  6
CONTINUOUS
 62
         3
100
AcDbLine
 10
-48.1304527
 20
46.6663203
 30
0.0
 11
-50.4271728
 21
46.4249254
 31
0.0
  0
LINE
  5
127
100
AcDbEntity
  8
PV
  6
CONTINUOUS
 62
         3
100
AcDbLine
 10
-50.4271804
 20
46.4249192
 30
0.0
 11
-51.7846036
 21
48.2932519
 31
0.0
  0
LINE
  5
128
100
AcDbEntity
  8
PV
  6
CONTINUOUS
 62
         3
100
AcDbLine
 10
-51.7846077
 20
48.2932456
 30
0.0
 11
-50.8453017
 21
50.402961
 31
0.0
  0
LINE
  5
129
100
AcDbEntity
  8
PV
  6
CONTINUOUS
 62
         3
100
AcDbLine
 10
-50.8452815
 20
50.4029751
 30
0.0
 11
-48.5485463
 21
50.6443717
 31
0.0
  0
LINE
  5
12A
100
AcDbEntity
  8
PV
  6
CONTINUOUS
 62
         3
100
AcDbLine
 10
-48.5485508
 20
50.6443603
 30
0.0
 11
-47.1911366
 21
48.7760399
 31
0.0
  0
CIRCLE
  5
12B
100
AcDbEntity
  8
PV
  6
CONTINUOUS
 62
         3
100
AcDbCircle
 10
-57.2073945
 20
37.9096299
 30
0.0
 40
3.73999977
  0
CIRCLE
  5
12C
100
AcDbEntity
  8
PV
  6
CONTINUOUS
 62
         3
100
AcDbCircle
 10
-57.2073945
 20
37.9096299
 30
0.0
 40
4.25
  0
LINE
  5
12D
100
AcDbEntity
  8
PV
  6
CONTINUOUS
 62
         3
100
AcDbLine
 10
-55.4911991
 20
39.454929
 30
0.0
 11
-55.0110508
 21
37.1960083
 31
0.0
  0
LINE
  5
12E
100
AcDbEntity
  8
PV
  6
CONTINUOUS
 62
         3
100
AcDbLine
 10
-55.0110466
 20
37.1960123
 30
0.0
 11
-56.7272439
 21
35.6507415
 31
0.0
  0
LINE
  5
12F
100
AcDbEntity
  8
PV
  6
CONTINUOUS
 62
         3
100
AcDbLine
 10
-56.7272463
 20
35.650732
 30
0.0
 11
-58.9236032
 21
36.3643716
 31
0.0
  0
LINE
  5
130
100
AcDbEntity
  8
PV
  6
CONTINUOUS
 62
         3
100
AcDbLine
 10
-58.9236028
 20
36.3643641
 30
0.0
 11
-59.4037479
 21
38.6232699
 31
0.0
  0
LINE
  5
131
100
AcDbEntity
  8
PV
  6
CONTINUOUS
 62
         3
100
AcDbLine
 10
-59.4037399
 20
38.6232932
 30
0.0
 11
-57.6875314
 21
40.1685742
 31
0.0
  0
LINE
  5
132
100
AcDbEntity
  8
PV
  6
CONTINUOUS
 62
         3
100
AcDbLine
 10
-57.6875284
 20
40.1685623
 30
0.0
 11
-55.491186
 21
39.4549274
 31
0.0
  0
CIRCLE
  5
133
100
AcDbEntity
  8
PV
  6
CONTINUOUS
 62
         3
100
AcDbCircle
 10
-57.2073945
 20
24.7764104
 30
0.0
 40
3.73999977
  0
CIRCLE
  5
134
100
AcDbEntity
  8
PV
  6
CONTINUOUS
 62
         3
100
AcDbCircle
 10
-57.2073945
 20
24.7764104
 30
0.0
 40
4.25
  0
LINE
  5
135
100
AcDbEntity
  8
PV
  6
CONTINUOUS
 62
         3
100
AcDbLine
 10
-56.7272672
 20
27.035338
 30
0.0
 11
-55.0110589
 21
25.4900568
 31
0.0
  0
LINE
  5
136
100
AcDbEntity
  8
PV
  6
CONTINUOUS
 62
         3
100
AcDbLine
 10
-55.0110578
 20
25.4900625
 30
0.0
 11
-55.4912032
 21
23.2311568
 31
0.0
  0
LINE
  5
137
100
AcDbEntity
  8
PV
  6
CONTINUOUS
 62
         3
100
AcDbLine
 10
-55.4911996
 20
23.2311476
 30
0.0
 11
-57.6875564
 21
22.517508
 31
0.0
  0
LINE
  5
138
100
AcDbEntity
  8
PV
  6
CONTINUOUS
 62
         3
100
AcDbLine
 10
-57.6875517
 20
22.5175022
 30
0.0
 11
-59.4037488
 21
24.0627731
 31
0.0
  0
LINE
  5
139
100
AcDbEntity
  8
PV
  6
CONTINUOUS
 62
         3
100
AcDbLine
 10
-59.403756
 20
24.0627967
 30
0.0
 11
-58.9236076
 21
26.3217173
 31
0.0
  0
LINE
  5
13A
100
AcDbEntity
  8
PV
  6
CONTINUOUS
 62
         3
100
AcDbLine
 10
-58.9235981
 20
26.3217095
 30
0.0
 11
-56.7272558
 21
27.0353444
 31
0.0
  0
CIRCLE
  5
13B
100
AcDbEntity
  8
PV
  6
CONTINUOUS
 62
         3
100
AcDbCircle
 10
-49.4878815
 20
14.1514104
 30
0.0
 40
3.73999977
  0
CIRCLE
  5
13C
100
AcDbEntity
  8
PV
  6
CONTINUOUS
 62
         3
100
AcDbCircle
 10
-49.4878815
 20
14.1514104
 30
0.0
 40
4.25
  0
LINE
  5
13D
100
AcDbEntity
  8
PV
  6
CONTINUOUS
 62
         3
100
AcDbLine
 10
-50.4272147
 20
16.2611329
 30
0.0
 11
-48.1304795
 21
16.0197361
 31
0.0
  0
LINE
  5
13E
100
AcDbEntity
  8
PV
  6
CONTINUOUS
 62
         3
100
AcDbLine
 10
-48.130482
 20
16.0197413
 30
0.0
 11
-47.1911763
 21
13.9100259
 31
0.0
  0
LINE
  5
13F
100
AcDbEntity
  8
PV
  6
CONTINUOUS
 62
         3
100
AcDbLine
 10
-47.191168
 20
13.9100206
 30
0.0
 11
-48.5485911
 21
12.0416878
 31
0.0
  0
LINE
  5
140
100
AcDbEntity
  8
PV
  6
CONTINUOUS
 62
         3
100
AcDbLine
 10
-48.5485839
 20
12.0416859
 30
0.0
 11
-50.8453039
 21
12.283081
 31
0.0
  0
LINE
  5
141
100
AcDbEntity
  8
PV
  6
CONTINUOUS
 62
         3
100
AcDbLine
 10
-50.8453236
 20
12.2830958
 30
0.0
 11
-51.7846357
 21
14.3928251
 31
0.0
  0
LINE
  5
142
100
AcDbEntity
  8
PV
  6
CONTINUOUS
 62
         3
100
AcDbLine
 10
-51.7846234
 20
14.3928244
 30
0.0
 11
-50.4272092
 21
16.2611448
 31
0.0
  0
CIRCLE
  5
143
100
AcDbEntity
  8
PV
  6
CONTINUOUS
 62
         3
100
AcDbCircle
 10
-36.9974436
 20
10.0930201
 30
0.0
 40
3.73999977
  0
CIRCLE
  5
144
100
AcDbEntity
  8
PV
  6
CONTINUOUS
 62
         3
100
AcDbCircle
 10
-36.9974436
 20
10.0930201
 30
0.0
 40
4.25
  0
LINE
  5
145
100
AcDbEntity
  8
PV
  6
CONTINUOUS
 62
         3
100
AcDbLine
 10
-38.9974439
 20
11.2476952
 30
0.0
 11
-36.9974566
 21
12.4023882
 31
0.0
  0
LINE
  5
146
100
AcDbEntity
  8
PV
  6
CONTINUOUS
 62
         3
100
AcDbLine
 10
-36.9974617
 20
12.402391
 30
0.0
 11
-34.9974878
 21
11.2477053
 31
0.0
  0
LINE
  5
147
100
AcDbEntity
  8
PV
  6
CONTINUOUS
 62
         3
100
AcDbLine
 10
-34.9974779
 20
11.2477059
 30
0.0
 11
-34.9974779
 21
8.93831966
 31
0.0
  0
LINE
  5
148
100
AcDbEntity
  8
PV
  6
CONTINUOUS
 62
         3
100
AcDbLine
 10
-34.9974709
 20
8.93832234
 30
0.0
 11
-36.997445
 21
7.78363691
 31
0.0
  0
LINE
  5
149
100
AcDbEntity
  8
PV
  6
CONTINUOUS
 62
         3
100
AcDbLine
 10
-36.9974697
 20
7.78363736
 30
0.0
 11
-38.9974568
 21
8.93833048
 31
0.0
  0
LINE
  5
14A
100
AcDbEntity
  8
PV
  6
CONTINUOUS
 62
         3
100
AcDbLine
 10
-38.9974465
 20
8.93833706
 30
0.0
 11
-38.9974465
 21
11.2477081
 31
0.0
  0
CIRCLE
  5
14B
100
AcDbEntity
  8
PV
  6
CONTINUOUS
 62
         3
100
AcDbCircle
 10
-24.5070057
 20
14.1514104
 30
0.0
 40
3.73999977
  0
CIRCLE
  5
14C
100
AcDbEntity
  8
PV
  6
CONTINUOUS
 62
         3
100
AcDbCircle
 10
-24.5070057
 20
14.1514104
 30
0.0
 40
4.25
  0
LINE
  5
14D
100
AcDbEntity
  8
PV
  6
CONTINUOUS
 62
         3
100
AcDbLine
 10
-26.803741
 20
13.9099915
 30
0.0
 11
-25.8644288
 21
16.0197208
 31
0.0
  0
LINE
  5
14E
100
AcDbEntity
  8
PV
  6
CONTINUOUS
 62
         3
100
AcDbLine
 10
-25.8644345
 20
16.0197201
 30
0.0
 11
-23.5677144
 21
16.2611149
 31
0.0
  0
LINE
  5
14F
100
AcDbEntity
  8
PV
  6
CONTINUOUS
 62
         3
100
AcDbLine
 10
-23.5677068
 20
16.2611212
 30
0.0
 11
-22.2102836
 21
14.3927884
 31
0.0
  0
LINE
  5
150
100
AcDbEntity
  8
PV
  6
CONTINUOUS
 62
         3
100
AcDbLine
 10
-22.2102795
 20
14.3927947
 30
0.0
 11
-23.1495855
 21
12.2830793
 31
0.0
  0
LINE
  5
151
100
AcDbEntity
  8
PV
  6
CONTINUOUS
 62
         3
100
AcDbLine
 10
-23.1496057
 20
12.2830652
 30
0.0
 11
-25.4463409
 21
12.0416686
 31
0.0
  0
LINE
  5
152
100
AcDbEntity
  8
PV
  6
CONTINUOUS
 62
         3
100
AcDbLine
 10
-25.4463364
 20
12.04168
 30
0.0
 11
-26.8037506
 21
13.9100004
 31
0.0
  0
CIRCLE
  5
153
100
AcDbEntity
  8
PV
  6
CONTINUOUS
 62
         3
100
AcDbCircle
 10
-16.7874927
 20
24.7764104
 30
0.0
 40
3.73999977
  0
CIRCLE
  5
154
100
AcDbEntity
  8
PV
  6
CONTINUOUS
 62
         3
100
AcDbCircle
 10
-16.7874927
 20
24.7764104
 30
0.0
 40
4.25
  0
LINE
  5
155
100
AcDbEntity
  8
PV
  6
CONTINUOUS
 62
         3
100
AcDbLine
 10
-18.5036881
 20
23.2311114
 30
0.0
 11
-18.9838364
 21
25.490032
 31
0.0
  0
LINE
  5
156
100
AcDbEntity
  8
PV
  6
CONTINUOUS
 62
         3
100
AcDbLine
 10
-18.9838406
 20
25.4900281
 30
0.0
 11
-17.2676434
 21
27.0352988
 31
0.0
  0
LINE
  5
157
100
AcDbEntity
  8
PV
  6
CONTINUOUS
 62
         3
100
AcDbLine
 10
-17.2676409
 20
27.0353084
 30
0.0
 11
-15.071284
 21
26.3216688
 31
0.0
  0
LINE
  5
158
100
AcDbEntity
  8
PV
  6
CONTINUOUS
 62
         3
100
AcDbLine
 10
-15.0712844
 20
26.3216762
 30
0.0
 11
-14.5911393
 21
24.0627705
 31
0.0
  0
LINE
  5
159
100
AcDbEntity
  8
PV
  6
CONTINUOUS
 62
         3
100
AcDbLine
 10
-14.5911473
 20
24.0627471
 30
0.0
 11
-16.3073558
 21
22.5174661
 31
0.0
  0
LINE
  5
15A
100
AcDbEntity
  8
PV
  6
CONTINUOUS
 62
         3
100
AcDbLine
 10
-16.3073588
 20
22.517478
 30
0.0
 11
-18.5037012
 21
23.2311129
 31
0.0
  0
CIRCLE
  5
15B
100
AcDbEntity
  8
PV
  6
CONTINUOUS
 62
         3
100
AcDbCircle
 10
-16.7874927
 20
37.9096299
 30
0.0
 40
3.73999977
  0
CIRCLE
  5
15C
100
AcDbEntity
  8
PV
  6
CONTINUOUS
 62
         3
100
AcDbCircle
 10
-16.7874927
 20
37.9096299
 30
0.0
 40
4.25
  0
LINE
  5
15D
100
AcDbEntity
  8
PV
  6
CONTINUOUS
 62
         3
100
AcDbLine
 10
-17.26762
 20
35.6507023
 30
0.0
 11
-18.9838283
 21
37.1959835
 31
0.0
  0
LINE
  5
15E
100
AcDbEntity
  8
PV
  6
CONTINUOUS
 62
         3
100
AcDbLine
 10
-18.9838294
 20
37.1959778
 30
0.0
 11
-18.503684
 21
39.4548835
 31
0.0
  0
LINE
  5
15F
100
AcDbEntity
  8
PV
  6
CONTINUOUS
 62
         3
100
AcDbLine
 10
-18.5036876
 20
39.4548927
 30
0.0
 11
-16.3073308
 21
40.1685323
 31
0.0
  0
LINE
  5
160
100
AcDbEntity
  8
PV
  6
CONTINUOUS
 62
         3
100
AcDbLine
 10
-16.3073355
 20
40.1685382
 30
0.0
 11
-14.5911384
 21
38.6232672
 31
0.0
  0
LINE
  5
161
100
AcDbEntity
  8
PV
  6
CONTINUOUS
 62
         3
100
AcDbLine
 10
-14.5911312
 20
38.6232436
 30
0.0
 11
-15.0712796
 21
36.364323
 31
0.0
  0
LINE
  5
162
100
AcDbEntity
  8
PV
  6
CONTINUOUS
 62
         3
100
AcDbLine
 10
-15.0712891
 20
36.3643308
 30
0.0
 11
-17.2676314
 21
35.6506959
 31
0.0
  0
MTEXT
  5
163
100
AcDbEntity
  8
PV
  6
CONTINUOUS
 62
       110
100
AcDbMText
 10
-76.327201662
 20
-105.5323010882
 30
0.0
 40
3.2000000477
 41
0.0
 71
         1
 72
         1
  1
\A1;MASS
  0
MTEXT
  5
164
100
AcDbEntity
  8
PV
  6
CONTINUOUS
 62
       110
100
AcDbMText
 10
110.8581692989
 20
-99.4000000882
 30
0.0
 40
3.2000000477
 41
0.0
 71
         1
 72
         1
  1
\W1.500;\A1;\}
  0
MTEXT
  5
165
100
AcDbEntity
  8
PV
  6
CONTINUOUS
 62
       110
100
AcDbMText
 10
109.7915010206
 20
-99.0000000024
 30
0.0
 40
1.6000000238
 41
0.0
 71
         1
 72
         1
  1
\A1;2
  0
MTEXT
  5
166
100
AcDbEntity
  8
PV
  6
CONTINUOUS
 62
       110
100
AcDbMText
 10
90.751503138
 20
-99.4000000882
 30
0.0
 40
3.2000000477
 41
0.0
 71
         1
 72
         1
  1
\A1;kgf/mm
  0
MTEXT
  5
167
100
AcDbEntity
  8
PV
  6
CONTINUOUS
 62
       110
100
AcDbMText
 10
110.8581692989
 20
-93.4000000882
 30
0.0
 40
3.2000000477
 41
0.0
 71
         1
 72
         1
  1
\W1.500;\A1;\}
  0
MTEXT
  5
168
100
AcDbEntity
  8
PV
  6
CONTINUOUS
 62
       110
100
AcDbMText
 10
109.7915010206
 20
-93.0000002024
 30
0.0
 40
1.6000000238
 41
0.0
 71
         1
 72
         1
  1
\A1;2
  0
MTEXT
  5
169
100
AcDbEntity
  8
PV
  6
CONTINUOUS
 62
       110
100
AcDbMText
 10
90.751503138
 20
-93.4000000882
 30
0.0
 40
3.2000000477
 41
0.0
 71
         1
 72
         1
  1
\A1;kgf/mm
  0
MTEXT
  5
16A
100
AcDbEntity
  8
PV
  6
CONTINUOUS
 62
       110
100
AcDbMText
 10
90.7999879841
 20
-87.4000000882
 30
0.0
 40
3.2000000477
 41
0.0
 71
         1
 72
         1
  1
\W1.091;\A1;kgf\}
  0
MTEXT
  5
16B
100
AcDbEntity
  8
PV
  6
CONTINUOUS
 62
       110
100
AcDbMText
 10
91.284835815
 20
-75.3999998498
 30
0.0
 40
3.2000000477
 41
0.0
 71
         1
 72
         1
  1
\W0.833;\A1;ｋｇｆ・ｍ｝
  0
MTEXT
  5
16C
100
AcDbEntity
  8
PV
  6
CONTINUOUS
 62
       110
100
AcDbMText
 10
91.284835815
 20
-81.3999998498
 30
0.0
 40
3.2000000477
 41
0.0
 71
         1
 72
         1
  1
\W0.833;\A1;ｋｇｆ・ｍ｝
  0
MTEXT
  5
16D
100
AcDbEntity
  8
PV
  6
CONTINUOUS
 62
       110
100
AcDbMText
 10
55.751499338
 20
-105.4000000882
 30
0.0
 40
3.2000000477
 41
0.0
 71
         1
 72
         1
  1
\A1;kg
  0
MTEXT
  5
16E
100
AcDbEntity
  8
PV
  6
CONTINUOUS
 62
       110
100
AcDbMText
 10
55.751499338
 20
-99.4000000882
 30
0.0
 40
3.2000000477
 41
0.0
 71
         1
 72
         1
  1
\A1;MPa
  0
MTEXT
  5
16F
100
AcDbEntity
  8
PV
  6
CONTINUOUS
 62
       110
100
AcDbMText
 10
55.751499338
 20
-93.4000000882
 30
0.0
 40
3.2000000477
 41
0.0
 71
         1
 72
         1
  1
\A1;MPa
  0
MTEXT
  5
170
100
AcDbEntity
  8
PV
  6
CONTINUOUS
 62
       110
100
AcDbMText
 10
55.751499338
 20
-87.4000000882
 30
0.0
 40
3.2000000477
 41
0.0
 71
         1
 72
         1
  1
\A1;kN
  0
MTEXT
  5
171
100
AcDbEntity
  8
PV
  6
CONTINUOUS
 62
       110
100
AcDbMText
 10
56.284832015
 20
-81.3999998498
 30
0.0
 40
3.2000000477
 41
0.0
 71
         1
 72
         1
  1
\W0.833;\A1;Ｎ・ｍ
  0
MTEXT
  5
172
100
AcDbEntity
  8
PV
  6
CONTINUOUS
 62
       110
100
AcDbMText
 10
56.284832015
 20
-75.3999998498
 30
0.0
 40
3.2000000477
 41
0.0
 71
         1
 72
         1
  1
\W0.833;\A1;Ｎ・ｍ
  0
MTEXT
  5
173
100
AcDbEntity
  8
PV
  6
CONTINUOUS
 62
       110
100
AcDbMText
 10
40.6518240194
 20
-105.4000000882
 30
0.0
 40
3.2000000477
 41
0.0
 71
         1
 72
         1
  1
\W1.263;\A1;0.23
  0
MTEXT
  5
174
100
AcDbEntity
  8
PV
  6
CONTINUOUS
 62
       110
100
AcDbMText
 10
43.8181396063
 20
-99.4000000882
 30
0.0
 40
3.2000000477
 41
0.0
 71
         1
 72
         1
  1
\W1.200;\A1;120
  0
MTEXT
  5
175
100
AcDbEntity
  8
PV
  6
CONTINUOUS
 62
       110
100
AcDbMText
 10
43.7781396012
 20
-93.4000000882
 30
0.0
 40
3.2000000477
 41
0.0
 71
         1
 72
         1
  1
\W1.125;\A1;186
  0
MTEXT
  5
176
100
AcDbEntity
  8
PV
  6
CONTINUOUS
 62
       110
100
AcDbMText
 10
40.6181398044
 20
-87.4000000882
 30
0.0
 40
3.2000000477
 41
0.0
 71
         1
 72
         1
  1
\W1.200;\A1;32.4
  0
MTEXT
  5
177
100
AcDbEntity
  8
PV
  6
CONTINUOUS
 62
       110
100
AcDbMText
 10
43.711472938
 20
-81.4000000882
 30
0.0
 40
3.2000000477
 41
0.0
 71
         1
 72
         1
  1
\A1;549
  0
MTEXT
  5
178
100
AcDbEntity
  8
PV
  6
CONTINUOUS
 62
       110
100
AcDbMText
 10
43.8638538897
 20
-75.4000000882
 30
0.0
 40
3.2000000477
 41
0.0
 71
         1
 72
         1
  1
\W1.286;\A1;9.8
  0
MTEXT
  5
179
100
AcDbEntity
  8
PV
  6
CONTINUOUS
 62
       110
100
AcDbMText
 10
58.702895467
 20
-63.4000000882
 30
0.0
 40
3.2000000477
 41
0.0
 71
         1
 72
         1
  1
\W1.048;\A1;PL032X050KE
  0
MTEXT
  5
17A
100
AcDbEntity
  8
PV
  6
CONTINUOUS
 62
       110
100
AcDbMText
 10
-77.2843072285
 20
-63.5323393498
 30
0.0
 40
3.2000000477
 41
0.0
 71
         1
 72
         1
  1
\T1.017;\W1.071;\A1;MODEL NUMBER
  0
MTEXT
  5
17B
100
AcDbEntity
  8
PV
  6
CONTINUOUS
 62
       110
100
AcDbMText
 10
63.5395138412
 20
-69.4000000882
 30
0.0
 40
3.2000000477
 41
0.0
 71
         1
 72
         1
  1
\W1.116;\A1;10-M5X18
  0
MTEXT
  5
17C
100
AcDbEntity
  8
PV
  6
CONTINUOUS
 62
       110
100
AcDbMText
 10
74.8714735467
 20
-75.4000000882
 30
0.0
 40
3.2000000477
 41
0.0
 71
         1
 72
         1
  1
\W1.600;\A1;\{1.0
  0
MTEXT
  5
17D
100
AcDbEntity
  8
PV
  6
CONTINUOUS
 62
       110
100
AcDbMText
 10
71.5137925933
 20
-81.4000000882
 30
0.0
 40
3.2000000477
 41
0.0
 71
         1
 72
         1
  1
\W1.304;\A1;\{56.0
  0
MTEXT
  5
17E
100
AcDbEntity
  8
PV
  6
CONTINUOUS
 62
       110
100
AcDbMText
 10
71.4581404173
 20
-87.4000000882
 30
0.0
 40
3.2000000477
 41
0.0
 71
         1
 72
         1
  1
\W1.200;\A1;\{3310
  0
MTEXT
  5
17F
100
AcDbEntity
  8
PV
  6
CONTINUOUS
 62
       110
100
AcDbMText
 10
71.5800451776
 20
-93.4000000882
 30
0.0
 40
3.2000000477
 41
0.0
 71
         1
 72
         1
  1
\W1.429;\A1;\{19.0
  0
MTEXT
  5
180
100
AcDbEntity
  8
PV
  6
CONTINUOUS
 62
       110
100
AcDbMText
 10
71.5454131391
 20
-99.4000000882
 30
0.0
 40
3.2000000477
 41
0.0
 71
         1
 72
         1
  1
\W1.364;\A1;\{12.2
  0
MTEXT
  5
181
100
AcDbEntity
  8
PV
  6
CONTINUOUS
 62
       110
100
AcDbMText
 10
-77.2519617519
 20
-99.5323388498
 30
0.0
 40
3.2000000477
 41
0.0
 71
         1
 72
         1
  1
\T1.030;\W1.126;\A1;CONTACT PRESSURE OF HUB BORE
  0
MTEXT
  5
182
100
AcDbEntity
  8
PV
  6
CONTINUOUS
 62
       110
100
AcDbMText
 10
-77.264878334
 20
-93.5323393498
 30
0.0
 40
3.2000000477
 41
0.0
 71
         1
 72
         1
  1
\T1.025;\W1.104;\A1;CONTACT PRESSURE OF SHAFT
  0
MTEXT
  5
183
100
AcDbEntity
  8
PV
  6
CONTINUOUS
 62
       110
100
AcDbMText
 10
-77.2608119529
 20
-87.5323393498
 30
0.0
 40
3.2000000477
 41
0.0
 71
         1
 72
         1
  1
\T1.028;\W1.060;\A1;TRANSMISSIBLE THRUST
  0
MTEXT
  5
184
100
AcDbEntity
  8
PV
  6
CONTINUOUS
 62
       110
100
AcDbMText
 10
-77.2608119529
 20
-81.5323393498
 30
0.0
 40
3.2000000477
 41
0.0
 71
         1
 72
         1
  1
\T1.028;\W1.060;\A1;TRANSMISSIBLE TORQUE
  0
MTEXT
  5
185
100
AcDbEntity
  8
PV
  6
CONTINUOUS
 62
       110
100
AcDbMText
 10
-77.2086663764
 20
-69.5323393498
 30
0.0
 40
3.2000000477
 41
0.0
 71
         1
 72
         1
  1
\T1.047;\W1.149;\A1;QUANTITY AND SIZE OF LOCKING BOLTS
  0
MTEXT
  5
186
100
AcDbEntity
  8
PV
  6
CONTINUOUS
 62
       110
100
AcDbMText
 10
-77.2272132173
 20
-75.5323393498
 30
0.0
 40
3.2000000477
 41
0.0
 71
         1
 72
         1
  1
\T1.041;\W1.120;\A1;TIGHTENING TORQUE OF LOCKING BOLTS
  0
MTEXT
  5
187
100
AcDbEntity
  8
PV
  6
CONTINUOUS
 62
       110
100
AcDbMText
 10
-33.2930294088
 20
-57.6473295498
 30
0.0
 40
3.2000000477
 41
0.0
 71
         1
 72
         1
  1
\T1.003;\W1.067;\A1;POWER LOCK
  0
LINE
  5
188
100
AcDbEntity
  8
PV
  6
CONTINUOUS
 62
         3
100
AcDbLine
 10
118.853996
 20
-50.0
 30
0.0
 11
118.853996
 21
-110.0
 31
0.0
  0
LINE
  5
189
100
AcDbEntity
  8
PV
  6
CONTINUOUS
 62
         3
100
AcDbLine
 10
-81.7114716
 20
-50.0
 30
0.0
 11
118.853996
 21
-50.0
 31
0.0
  0
LINE
  5
18A
100
AcDbEntity
  8
PV
  6
CONTINUOUS
 62
         3
100
AcDbLine
 10
-81.7114716
 20
-50.0
 30
0.0
 11
-81.7114716
 21
-110.0
 31
0.0
  0
LINE
  5
18B
100
AcDbEntity
  8
PV
  6
CONTINUOUS
 62
         3
100
AcDbLine
 10
33.0612793
 20
-62.0
 30
0.0
 11
33.0612793
 21
-110.0
 31
0.0
  0
LINE
  5
18C
100
AcDbEntity
  8
PV
  6
CONTINUOUS
 62
         3
100
AcDbLine
 10
-81.7114716
 20
-110.0
 30
0.0
 11
118.853996
 21
-110.0
 31
0.0
  0
LINE
  5
18D
100
AcDbEntity
  8
PV
  6
CONTINUOUS
 62
         3
100
AcDbLine
 10
-81.7114716
 20
-104.0
 30
0.0
 11
118.853996
 21
-104.0
 31
0.0
  0
LINE
  5
18E
100
AcDbEntity
  8
PV
  6
CONTINUOUS
 62
         3
100
AcDbLine
 10
-81.7114716
 20
-98.0
 30
0.0
 11
118.853996
 21
-98.0
 31
0.0
  0
LINE
  5
18F
100
AcDbEntity
  8
PV
  6
CONTINUOUS
 62
         3
100
AcDbLine
 10
-81.7114716
 20
-92.0
 30
0.0
 11
118.853996
 21
-92.0
 31
0.0
  0
LINE
  5
190
100
AcDbEntity
  8
PV
  6
CONTINUOUS
 62
         3
100
AcDbLine
 10
-81.7114716
 20
-86.0
 30
0.0
 11
118.853996
 21
-86.0
 31
0.0
  0
LINE
  5
191
100
AcDbEntity
  8
PV
  6
CONTINUOUS
 62
         3
100
AcDbLine
 10
-81.7114716
 20
-80.0
 30
0.0
 11
118.853996
 21
-80.0
 31
0.0
  0
LINE
  5
192
100
AcDbEntity
  8
PV
  6
CONTINUOUS
 62
         3
100
AcDbLine
 10
-81.7114716
 20
-74.0
 30
0.0
 11
118.853996
 21
-74.0
 31
0.0
  0
LINE
  5
193
100
AcDbEntity
  8
PV
  6
CONTINUOUS
 62
         3
100
AcDbLine
 10
-81.7114716
 20
-68.0
 30
0.0
 11
118.853996
 21
-68.0
 31
0.0
  0
LINE
  5
194
100
AcDbEntity
  8
PV
  6
CONTINUOUS
 62
         3
100
AcDbLine
 10
-81.7114716
 20
-62.0
 30
0.0
 11
118.853996
 21
-62.0
 31
0.0
  0
LINE
  5
195
100
AcDbEntity
  8
PV
  6
CONTINUOUS
 62
         3
100
AcDbLine
 10
-81.7114716
 20
-56.0
 30
0.0
 11
118.853996
 21
-56.0
 31
0.0
  0
LWPOLYLINE
  5
196
100
AcDbEntity
  8
PV
  6
CONTINUOUS
 62
         7
100
AcDbPolyline
 90
        3
 70
         0
 10
-29.368748
 20
53.8161488
 10
-19.1666676
 20
75.5555592
 10
-10.3888897
 20
75.5555592
  0
MTEXT
  5
197
100
AcDbEntity
  8
PV
  6
CONTINUOUS
 62
       110
100
AcDbMText
 10
-16.0888897998
 20
80.5555594502
 30
0.0
 40
3.2000000477
 41
0.0
 71
         1
 72
         1
  1
\W0.937;\A1;M5
  0
ENDSEC
  0
SECTION
  2
OBJECTS
  0
DICTIONARY
  5
19
100
AcDbDictionary
  3
ACAD_GROUP
350
1A
  3
ACAD_MLINESTYLE
350
1B
  0
DICTIONARY
  5
1A
102
{ACAD_REACTORS
330
19
102
}
100
AcDbDictionary
  0
DICTIONARY
  5
1B
102
{ACAD_REACTORS
330
19
102
}
100
AcDbDictionary
  3
STANDARD
350
1C
  0
MLINESTYLE
  5
1C
102
{ACAD_REACTORS
330
1B
102
}
100
AcDbMlineStyle
  2
Standard
 70
         0
  3

 62
         0
 51
90.0
 52
90.0
 71
         2
 49
0.5
 62
       256
  6
ByLayer
 49
-0.5
 62
       256
  6
ByLayer
  0
ENDSEC
  0
EOF
