  0
SECTION
  2
HEADER
  9
$ACADVER
  1
AC1014
  9
$ACADMAINTVER
 70
         0
  9
$DWGCODEPAGE
  3
ANSI_932
  9
$INSBASE
 10
0.0
 20
0.0
 30
0.0
  9
$EXTMIN
 10
-81.711472
 20
-110.0
 30
0.0
  9
$EXTMAX
 10
118.853996
 20
82.5339215316
 30
0.0
  9
$LIMMIN
 10
-81.711472
 20
-110.0
  9
$LIMMAX
 10
118.853996
 20
82.5339215316
  9
$ORTHOMODE
 70
         0
  9
$REGENMODE
 70
         1
  9
$FILLMODE
 70
         1
  9
$QTEXTMODE
 70
         0
  9
$MIRRTEXT
 70
         1
  9
$DRAGMODE
 70
         2
  9
$LTSCALE
 40
1.0
  9
$OSMODE
 70
         0
  9
$ATTMODE
 70
         1
  9
$TEXTSIZE
 40
3.2000000477
  9
$TRACEWID
 40
0.05
  9
$TEXTSTYLE
  7
MX_NOTE_STANDARD
  9
$CLAYER
  8
0
  9
$CELTYPE
  6
CONTINUOUS
  9
$CECOLOR
 62
       256
  9
$CELTSCALE
 40
1.0
  9
$DELOBJ
 70
         1
  9
$DISPSILH
 70
         0
  9
$DIMSCALE
 40
1.0
  9
$DIMASZ
 40
2.5
  9
$DIMEXO
 40
0.0
  9
$DIMDLI
 40
3.75
  9
$DIMRND
 40
0.0
  9
$DIMDLE
 40
0.0
  9
$DIMEXE
 40
2.5
  9
$DIMTP
 40
0.0
  9
$DIMTM
 40
0.0
  9
$DIMTXT
 40
3.2000000477
  9
$DIMCEN
 40
2.5
  9
$DIMTSZ
 40
0.0
  9
$DIMTOL
 70
         0
  9
$DIMLIM
 70
         0
  9
$DIMTIH
 70
         0
  9
$DIMTOH
 70
         0
  9
$DIMSE1
 70
         0
  9
$DIMSE2
 70
         0
  9
$DIMTAD
 70
         1
  9
$DIMZIN
 70
         8
  9
$DIMBLK
  1

  9
$DIMASO
 70
         1
  9
$DIMSHO
 70
         1
  9
$DIMPOST
  1

  9
$DIMAPOST
  1

  9
$DIMALT
 70
         0
  9
$DIMALTD
 70
         4
  9
$DIMALTF
 40
0.0393700787
  9
$DIMLFAC
 40
1.0
  9
$DIMTOFL
 70
         1
  9
$DIMTVP
 40
0.0
  9
$DIMTIX
 70
         0
  9
$DIMSOXD
 70
         0
  9
$DIMSAH
 70
         1
  9
$DIMBLK1
  1
_OPEN30
  9
$DIMBLK2
  1
_OPEN30
  9
$DIMSTYLE
  2
MXDIMSTYLE
  9
$DIMCLRD
 70
         0
  9
$DIMCLRE
 70
         0
  9
$DIMCLRT
 70
         0
  9
$DIMTFAC
 40
1.0
  9
$DIMGAP
 40
1.0
  9
$DIMJUST
 70
         0
  9
$DIMSD1
 70
         0
  9
$DIMSD2
 70
         0
  9
$DIMTOLJ
 70
         0
  9
$DIMTZIN
 70
         0
  9
$DIMALTZ
 70
         0
  9
$DIMALTTZ
 70
         0
  9
$DIMFIT
 70
         3
  9
$DIMUPT
 70
         0
  9
$DIMUNIT
 70
         2
  9
$DIMDEC
 70
         2
  9
$DIMTDEC
 70
         2
  9
$DIMALTU
 70
         2
  9
$DIMALTTD
 70
         4
  9
$DIMTXSTY
  7
MX_NOTE_STANDARD
  9
$DIMAUNIT
 70
         0
  9
$LUNITS
 70
         2
  9
$LUPREC
 70
         4
  9
$SKETCHINC
 40
0.1
  9
$FILLETRAD
 40
0.0
  9
$AUNITS
 70
         0
  9
$AUPREC
 70
         0
  9
$MENU
  1
acad
  9
$ELEVATION
 40
0.0
  9
$PELEVATION
 40
0.0
  9
$THICKNESS
 40
0.0
  9
$LIMCHECK
 70
         0
  9
$BLIPMODE
 70
         1
  9
$CHAMFERA
 40
0.0
  9
$CHAMFERB
 40
0.0
  9
$CHAMFERC
 40
0.0
  9
$CHAMFERD
 40
0.0
  9
$SKPOLY
 70
         0
  9
$TDCREATE
 40
2456603.419189815
  9
$TDUPDATE
 40
2456603.419189815
  9
$TDINDWG
 40
0.0000000000
  9
$TDUSRTIMER
 40
0.0000000000
  9
$USRTIMER
 70
         1
  9
$ANGBASE
 50
0.0
  9
$ANGDIR
 70
         0
  9
$PDMODE
 70
         0
  9
$PDSIZE
 40
0.0
  9
$PLINEWID
 40
0.0
  9
$COORDS
 70
         1
  9
$SPLFRAME
 70
         0
  9
$SPLINETYPE
 70
         6
  9
$SPLINESEGS
 70
         8
  9
$ATTDIA
 70
         0
  9
$ATTREQ
 70
         1
  9
$HANDLING
 70
         1
  9
$HANDSEED
  5
144
  9
$SURFTAB1
 70
         6
  9
$SURFTAB2
 70
         6
  9
$SURFTYPE
 70
         6
  9
$SURFU
 70
         6
  9
$SURFV
 70
         6
  9
$UCSNAME
  2

  9
$UCSORG
 10
0.0
 20
0.0
 30
0.0
  9
$UCSXDIR
 10
1.0
 20
0.0
 30
0.0
  9
$UCSYDIR
 10
0.0
 20
1.0
 30
0.0
  9
$PUCSNAME
  2

  9
$PUCSORG
 10
0.0
 20
0.0
 30
0.0
  9
$PUCSXDIR
 10
1.0
 20
0.0
 30
0.0
  9
$PUCSYDIR
 10
0.0
 20
1.0
 30
0.0
  9
$USERI1
 70
         0
  9
$USERI2
 70
         0
  9
$USERI3
 70
         0
  9
$USERI4
 70
         0
  9
$USERI5
 70
         0
  9
$USERR1
 40
0.0
  9
$USERR2
 40
0.0
  9
$USERR3
 40
0.0
  9
$USERR4
 40
0.0
  9
$USERR5
 40
0.0
  9
$WORLDVIEW
 70
         1
  9
$SHADEDGE
 70
         3
  9
$SHADEDIF
 70
        70
  9
$TILEMODE
 70
         1
  9
$MAXACTVP
 70
        16
  9
$PINSBASE
 10
0.0
 20
0.0
 30
0.0
  9
$PLIMCHECK
 70
         0
  9
$PEXTMIN
 10
1.0000000000E+20
 20
1.0000000000E+20
 30
1.0000000000E+20
  9
$PEXTMAX
 10
-1.0000000000E+20
 20
-1.0000000000E+20
 30
-1.0000000000E+20
  9
$PLIMMIN
 10
0.0
 20
0.0
  9
$PLIMMAX
 10
12.0
 20
9.0
  9
$UNITMODE
 70
         0
  9
$VISRETAIN
 70
         0
  9
$PLINEGEN
 70
         1
  9
$PSLTSCALE
 70
         0
  9
$TREEDEPTH
 70
      3020
  9
$PICKSTYLE
 70
         1
  9
$CMLSTYLE
  2
Standard
  9
$CMLJUST
 70
         0
  9
$CMLSCALE
 40
1.0
  9
$PROXYGRAPHICS
 70
         0
  9
$MEASUREMENT
 70
         1
  0
ENDSEC
  0
SECTION
  2
CLASSES
  0
CLASS
  1
LWPOLYLINE
  2
AcDbPolyline
  3
"AutoCAD"
 90
        0
280
         0
281
         1
  0
CLASS
  1
IMAGE
  2
AcDbRasterImage
  3
ISM
 90
      127
280
         0
281
         1
  0
CLASS
  1
OLE2FRAME
  2
AcDbOle2Frame
  3
""
 90
        0
280
         0
281
         1
  0
CLASS
  1
HATCH
  2
AcDbHatch
  3
"ACAD_SEDONA"
 90
        0
280
         0
281
         1
  0
CLASS
  1
DICTIONARYVAR
  2
AcDbDictionaryVar
  3
"AutoCAD"
 90
        0
280
         0
281
         0
  0
CLASS
  1
RASTERVARIABLES
  2
AcDbRasterVariables
  3
ISM
 90
        0
280
         0
281
         0
  0
CLASS
  1
IMAGEDEF
  2
AcDbRasterImageDef
  3
ISM
 90
        0
280
         0
281
         0
  0
CLASS
  1
IMAGEDEF_REACTOR
  2
AcDbRasterImageDefReactor
  3
ISM
 90
        1
280
         0
281
         0
  0
CLASS
  1
IDBUFFER
  2
AcDbIdBuffer
  3
"Acad"
 90
        0
280
         0
281
         0
  0
CLASS
  1
SPATIAL_FILTER
  2
AcDbSpatialFilter
  3
"Acad"
 90
        0
280
         0
281
         0
  0
CLASS
  1
XRECORD
  2
AcDbXrecord
  3
"<Built In>"
 90
        0
280
         0
281
         0
  0
CLASS
  1
SORTENTSTABLE
  2
AcDbSortentsTable
  3
"AutoCAD"
 90
        0
280
         0
281
         0
  0
CLASS
  1
LAYER_INDEX
  2
AcDbLayerIndex
  3
"Acad"
 90
        0
280
         0
281
         0
  0
CLASS
  1
SPATIAL_INDEX
  2
AcDbSpatialIndex
  3
"Acad"
 90
        0
280
         0
281
         0
  0
CLASS
  1
OBJECT_PTR
  2
CAseDLPNTableRecord
  3
"ASE-LPNTableRecord"
 90
        1
280
         0
281
         0
  0
CLASS
  1
LAYOUT
  2
AcDbLayout
  3
"AutoCAD 2000"
 90
        0
280
         0
281
         0
  0
CLASS
  1
PLOTSETTINGS
  2
AcDbPlotSettings
  3
"AutoCAD 2000"
 90
        0
280
         0
281
         0
  0
CLASS
  1
ACDBDICTIONARYWDFLT
  2
AcDbDictionaryWithDefault
  3
"AutoCAD 2000"
 90
        0
280
         0
281
         0
  0
CLASS
  1
ACDBPLACEHOLDER
  2
AcDbPlaceHolder
  3
"AutoCAD 2000"
 90
        0
280
         0
281
         0
  0
ENDSEC
  0
SECTION
  2
TABLES
  0
TABLE
  2
VPORT
  5
7
100
AcDbSymbolTable
 70
         1
  0
VPORT
  5
15
100
AcDbSymbolTableRecord
100
AcDbViewportTableRecord
  2
*ACTIVE
 70
         0
 10
0.0
 20
0.0
 11
1.0
 21
1.0
 12
18.571262
 22
-13.7330392342
 13
0.0
 23
0.0
 14
1.0
 24
1.0
 15
0.0
 25
0.0
 16
0.0
 26
0.0
 36
1.0
 17
0.0
 27
0.0
 37
0.0
 40
194.4592607469
 41
1.7320508076
 42
50.0
 43
0.0
 44
0.0
 50
0.0
 51
0.0
 71
         0
 72
       100
 73
         1
 74
         1
 75
         0
 76
         0
 77
         0
 78
         0
  0
ENDTAB
  0
TABLE
  2
LTYPE
  5
4
100
AcDbSymbolTable
 70
         4
  0
LTYPE
  5
11
100
AcDbSymbolTableRecord
100
AcDbLinetypeTableRecord
  2
BYBLOCK
 70
        64
  3

 72
        65
 73
         0
 40
0.0
  0
LTYPE
  5
12
100
AcDbSymbolTableRecord
100
AcDbLinetypeTableRecord
  2
BYLAYER
 70
        64
  3

 72
        65
 73
         0
 40
0.0
  0
LTYPE
  5
13
100
AcDbSymbolTableRecord
100
AcDbLinetypeTableRecord
  2
CONTINUOUS
 70
        64
  3
Solid line
 72
        65
 73
         0
 40
0.0
  0
LTYPE
  5
49
100
AcDbSymbolTableRecord
100
AcDbLinetypeTableRecord
  2
CENTER
 70
        64
  3
Center ____ _ ____ _ ____ _ ____ _ ____ _ ____
 72
        65
 73
         4
 40
50.8
 49
31.75
 74
         0
 49
-6.35
 74
         0
 49
6.35
 74
         0
 49
-6.35
 74
         0
  0
ENDTAB
  0
TABLE
  2
LAYER
  5
2
100
AcDbSymbolTable
 70
         3
  0
LAYER
  5
14
100
AcDbSymbolTableRecord
100
AcDbLayerTableRecord
  2
0
 70
         0
 62
         7
  6
CONTINUOUS
  0
LAYER
  5
1D
100
AcDbSymbolTableRecord
100
AcDbLayerTableRecord
  2
DEFPOINTS
 70
         0
 62
         7
  6
CONTINUOUS
  0
LAYER
  5
1E
100
AcDbSymbolTableRecord
100
AcDbLayerTableRecord
  2
PV
 70
         0
 62
         3
  6
CONTINUOUS
  0
ENDTAB
  0
TABLE
  2
STYLE
  5
3
100
AcDbSymbolTable
 70
         4
  0
STYLE
  5
17
100
AcDbSymbolTableRecord
100
AcDbTextStyleTableRecord
  2
MX_NOTE_STANDARD
 70
         0
 40
0.0
 41
1.0
 50
0.0
 71
         0
 42
3.2000000477
  3
txt.shx
  4
extfont.shx
  0
STYLE
  5
85
100
AcDbSymbolTableRecord
100
AcDbTextStyleTableRecord
  2
MX_DIMTXSTY_2
 70
         0
 40
0.0
 41
1.1
 50
0.0
 71
         0
 42
3.2000000477
  3
txt.shx
  4
extfont.shx
  0
STYLE
  5
92
100
AcDbSymbolTableRecord
100
AcDbTextStyleTableRecord
  2
MX_DIMTXSTY_3
 70
         0
 40
0.0
 41
1.2
 50
0.0
 71
         0
 42
3.2000000477
  3
txt.shx
  4
extfont.shx
  0
STYLE
  5
D2
100
AcDbSymbolTableRecord
100
AcDbTextStyleTableRecord
  2
MX_DIMTXSTY_4
 70
         0
 40
0.0
 41
1.3
 50
0.0
 71
         0
 42
3.2000000477
  3
txt.shx
  4
extfont.shx
  0
ENDTAB
  0
TABLE
  2
VIEW
  5
5
100
AcDbSymbolTable
 70
         0
  0
ENDTAB
  0
TABLE
  2
UCS
  5
6
100
AcDbSymbolTable
 70
         0
  0
ENDTAB
  0
TABLE
  2
APPID
  5
8
100
AcDbSymbolTable
 70
         2
  0
APPID
  5
16
100
AcDbSymbolTableRecord
100
AcDbRegAppTableRecord
  2
ACAD
 70
         0
  0
APPID
  5
2C
100
AcDbSymbolTableRecord
100
AcDbRegAppTableRecord
  2
CONTENTBLOCKDESCRIPTION
 70
         0
  0
ENDTAB
  0
TABLE
  2
DIMSTYLE
  5
9
100
AcDbSymbolTable
 70
         1
  0
DIMSTYLE
105
18
100
AcDbSymbolTableRecord
100
AcDbDimStyleTableRecord
  2
MXDIMSTYLE
 70
         0
  3

  4

  5

  6
_OPEN30
  7
_OPEN30
 40
1.0
 41
2.5
 42
0.0
 43
3.75
 44
2.5
 45
0.0
 46
0.0
 47
0.0
 48
0.0
 71
         0
 72
         0
 73
         0
 74
         0
 75
         0
 76
         0
 77
         1
 78
         8
140
3.2000000477
141
2.5
142
0.0
143
0.0393700787
144
1.0
145
0.0
146
1.0
147
1.0
170
         0
171
         4
172
         1
173
         1
174
         0
175
         0
176
         0
177
         0
178
         0
270
         2
271
         2
272
         2
273
         2
274
         4
275
         0
280
         0
281
         0
282
         0
283
         0
284
         0
285
         0
286
         0
287
         3
288
         0
340
17
  0
ENDTAB
  0
TABLE
  2
BLOCK_RECORD
  5
1
100
AcDbSymbolTable
 70
        14
  0
BLOCK_RECORD
  5
A
100
AcDbSymbolTableRecord
100
AcDbBlockTableRecord
  2
*MODEL_SPACE
  0
BLOCK_RECORD
  5
B
100
AcDbSymbolTableRecord
100
AcDbBlockTableRecord
  2
*PAPER_SPACE
  0
BLOCK_RECORD
  5
1F
100
AcDbSymbolTableRecord
100
AcDbBlockTableRecord
  2
ARROW
  0
BLOCK_RECORD
  5
20
100
AcDbSymbolTableRecord
100
AcDbBlockTableRecord
  2
_OPEN30
  0
BLOCK_RECORD
  5
2B
100
AcDbSymbolTableRecord
100
AcDbBlockTableRecord
  2
$SYMTB004-31
1001
CONTENTBLOCKDESCRIPTION
1071
        0
1000
ICAD/MX UserSymbol^M^Jtable_name:SYMTB004^M^Jsymbol_no.: 31
  0
BLOCK_RECORD
  5
36
100
AcDbSymbolTableRecord
100
AcDbBlockTableRecord
  2
$SYMTB004-25
1001
CONTENTBLOCKDESCRIPTION
1071
        0
1000
ICAD/MX UserSymbol^M^Jtable_name:SYMTB004^M^Jsymbol_no.: 25
  0
BLOCK_RECORD
  5
4B
100
AcDbSymbolTableRecord
100
AcDbBlockTableRecord
  2
*D4
  0
BLOCK_RECORD
  5
4F
100
AcDbSymbolTableRecord
100
AcDbBlockTableRecord
  2
_OPEN
  0
BLOCK_RECORD
  5
5D
100
AcDbSymbolTableRecord
100
AcDbBlockTableRecord
  2
*D6
  0
BLOCK_RECORD
  5
7E
100
AcDbSymbolTableRecord
100
AcDbBlockTableRecord
  2
*D7
  0
BLOCK_RECORD
  5
8C
100
AcDbSymbolTableRecord
100
AcDbBlockTableRecord
  2
*D8
  0
BLOCK_RECORD
  5
99
100
AcDbSymbolTableRecord
100
AcDbBlockTableRecord
  2
*D9
  0
BLOCK_RECORD
  5
A5
100
AcDbSymbolTableRecord
100
AcDbBlockTableRecord
  2
*D10
  0
BLOCK_RECORD
  5
B2
100
AcDbSymbolTableRecord
100
AcDbBlockTableRecord
  2
*D11
  0
BLOCK_RECORD
  5
BF
100
AcDbSymbolTableRecord
100
AcDbBlockTableRecord
  2
*D12
  0
BLOCK_RECORD
  5
CC
100
AcDbSymbolTableRecord
100
AcDbBlockTableRecord
  2
*D13
  0
ENDTAB
  0
ENDSEC
  0
SECTION
  2
BLOCKS
  0
BLOCK
  5
D
100
AcDbEntity
  8
0
100
AcDbBlockBegin
  2
*MODEL_SPACE
 70
         0
 10
0.0
 20
0.0
 30
0.0
  3
*MODEL_SPACE
  1

  0
ENDBLK
  5
E
100
AcDbEntity
  8
0
100
AcDbBlockEnd
  0
BLOCK
  5
F
100
AcDbEntity
 67
         1
  8
0
100
AcDbBlockBegin
  2
*PAPER_SPACE
 70
         0
 10
0.0
 20
0.0
 30
0.0
  3
*PAPER_SPACE
  1

  0
ENDBLK
  5
10
100
AcDbEntity
 67
         1
  8
0
100
AcDbBlockEnd
  0
BLOCK
  5
26
100
AcDbEntity
  8
0
100
AcDbBlockBegin
  2
ARROW
 70
         0
 10
0.0
 20
0.0
 30
0.0
  3
ARROW
  1

  0
LWPOLYLINE
  5
27
100
AcDbEntity
  8
0
  6
CONTINUOUS
 62
       251
100
AcDbPolyline
 90
        3
 70
         0
 10
2.38404
 20
0.638802
 10
0.0
 20
0.0
 10
2.38404
 20
-0.638802
  0
ENDBLK
  5
28
100
AcDbEntity
  8
0
100
AcDbBlockEnd
  0
BLOCK
  5
21
100
AcDbEntity
  8
0
  6
ByBlock
 62
         0
100
AcDbBlockBegin
  2
_OPEN30
 70
         2
 10
0.0
 20
0.0
 30
0.0
  3
_OPEN30
  1

  0
LINE
  5
22
100
AcDbEntity
  8
0
  6
ByBlock
 62
         0
100
AcDbLine
 10
-1.0
 20
0.267949
 30
0.0
 11
0.0
 21
0.0
 31
0.0
  0
LINE
  5
23
100
AcDbEntity
  8
0
  6
ByBlock
 62
         0
100
AcDbLine
 10
0.0
 20
0.0
 30
0.0
 11
-1.0
 21
-0.267949
 31
0.0
  0
LINE
  5
24
100
AcDbEntity
  8
0
  6
ByBlock
 62
         0
100
AcDbLine
 10
0.0
 20
0.0
 30
0.0
 11
-1.0
 21
0.0
 31
0.0
  0
ENDBLK
  5
25
100
AcDbEntity
  8
0
  6
ByBlock
 62
         0
100
AcDbBlockEnd
  0
BLOCK
  5
2D
100
AcDbEntity
  8
0
  6
ByBlock
 62
         0
100
AcDbBlockBegin
  2
$SYMTB004-31
 70
         0
 10
0.0
 20
0.0
 30
0.0
  3
$SYMTB004-31
  1

  0
LINE
  5
2E
100
AcDbEntity
  8
0
  6
CONTINUOUS
 62
         0
100
AcDbLine
 10
-4.7055511475
 20
4.25
 30
0.0
 11
-4.7055511475
 21
-4.25
 31
0.0
  0
LINE
  5
2F
100
AcDbEntity
  8
0
  6
CONTINUOUS
 62
         0
100
AcDbLine
 10
-5.0000013258
 20
-3.7400202829
 30
0.0
 11
-4.7055588543
 21
-4.2500237788
 31
0.0
  0
LINE
  5
30
100
AcDbEntity
  8
0
  6
CONTINUOUS
 62
         0
100
AcDbLine
 10
-4.9999881597
 20
3.7399823717
 30
0.0
 11
-4.7055392979
 21
4.2499817153
 31
0.0
  0
LINE
  5
31
100
AcDbEntity
  8
0
  6
CONTINUOUS
 62
         0
100
AcDbLine
 10
-5.0
 20
3.7399902344
 30
0.0
 11
-5.0
 21
-3.7400054932
 31
0.0
  0
LINE
  5
32
100
AcDbEntity
  8
0
  6
CONTINUOUS
 62
         0
100
AcDbLine
 10
-4.7055511475
 20
4.25
 30
0.0
 11
0.0
 21
4.25
 31
0.0
  0
LINE
  5
33
100
AcDbEntity
  8
0
  6
CONTINUOUS
 62
         0
100
AcDbLine
 10
-4.7055664063
 20
-4.25
 30
0.0
 11
0.0
 21
-4.25
 31
0.0
  0
ENDBLK
  5
34
100
AcDbEntity
  8
0
  6
ByBlock
 62
         0
100
AcDbBlockEnd
  0
BLOCK
  5
37
100
AcDbEntity
  8
0
  6
ByBlock
 62
         0
100
AcDbBlockBegin
  2
$SYMTB004-25
 70
         0
 10
0.0
 20
0.0
 30
0.0
  3
$SYMTB004-25
  1

  0
CIRCLE
  5
38
100
AcDbEntity
  8
0
  6
CONTINUOUS
 62
         0
100
AcDbCircle
 10
0.0
 20
0.0
 30
0.0
 40
3.7399997711
  0
CIRCLE
  5
39
100
AcDbEntity
  8
0
  6
CONTINUOUS
 62
         0
100
AcDbCircle
 10
0.0
 20
0.0
 30
0.0
 40
4.25
  0
LINE
  5
3A
100
AcDbEntity
  8
0
  6
CONTINUOUS
 62
         0
100
AcDbLine
 10
2.0000003027
 20
-1.1546751533
 30
0.0
 11
0.0000130384
 21
-2.3093681424
 31
0.0
  0
LINE
  5
3B
100
AcDbEntity
  8
0
  6
CONTINUOUS
 62
         0
100
AcDbLine
 10
0.0000181073
 20
-2.3093709032
 30
0.0
 11
-1.9999558049
 21
-1.1546852683
 31
0.0
  0
LINE
  5
3C
100
AcDbEntity
  8
0
  6
CONTINUOUS
 62
         0
100
AcDbLine
 10
-1.9999656677
 20
-1.1546858549
 30
0.0
 11
-1.9999656677
 21
1.1547003984
 31
0.0
  0
LINE
  5
3D
100
AcDbEntity
  8
0
  6
CONTINUOUS
 62
         0
100
AcDbLine
 10
-1.9999726648
 20
1.1546977173
 30
0.0
 11
0.000001385
 21
2.3093831458
 31
0.0
  0
LINE
  5
3E
100
AcDbEntity
  8
0
  6
CONTINUOUS
 62
         0
100
AcDbLine
 10
0.0000260668
 20
2.3093827028
 30
0.0
 11
2.0000131934
 21
1.1546895761
 31
0.0
  0
LINE
  5
3F
100
AcDbEntity
  8
0
  6
CONTINUOUS
 62
         0
100
AcDbLine
 10
2.000002861
 20
1.1546829939
 30
0.0
 11
2.000002861
 21
-1.1546880007
 31
0.0
  0
ENDBLK
  5
40
100
AcDbEntity
  8
0
  6
ByBlock
 62
         0
100
AcDbBlockEnd
  0
BLOCK
  5
4C
100
AcDbEntity
  8
0
  6
ByBlock
 62
         0
100
AcDbBlockBegin
  2
*D4
 70
         1
 10
0.0
 20
0.0
 30
0.0
  3
*D4
  1

  0
LINE
  5
4D
100
AcDbEntity
  8
0
  6
CONTINUOUS
 62
        80
100
AcDbLine
 10
15.235894
 20
72.917259
 30
0.0
 11
43.235894
 21
72.917259
 31
0.0
  0
LINE
  5
4E
100
AcDbEntity
  8
0
  6
CONTINUOUS
 62
        80
100
AcDbLine
 10
15.235894
 20
58.34302
 30
0.0
 11
15.235894
 21
75.417259
 31
0.0
  0
INSERT
  5
55
100
AcDbEntity
  8
0
  6
CONTINUOUS
 62
        80
100
AcDbBlockReference
  2
_OPEN
 10
15.235894
 20
72.917259
 30
0.0
 41
3.0
 42
3.0
 43
3.0
 50
180.0
  0
INSERT
  5
56
100
AcDbEntity
  8
0
  6
CONTINUOUS
 62
        80
100
AcDbBlockReference
  2
_OPEN
 10
43.235894
 20
72.917259
 30
0.0
 41
3.0
 42
3.0
 43
3.0
  0
MTEXT
  5
57
100
AcDbEntity
  8
0
  6
CONTINUOUS
 62
        80
100
AcDbMText
 10
29.235894
 20
75.5172590238
 30
0.0
 40
3.2000000477
 41
0.0
 71
         5
 72
         1
  1
\A1;28
  0
POINT
  5
58
100
AcDbEntity
  8
DEFPOINTS
  6
CONTINUOUS
 62
         0
100
AcDbPoint
 10
15.235894
 20
58.34302
 30
0.0
  0
POINT
  5
59
100
AcDbEntity
  8
DEFPOINTS
  6
CONTINUOUS
 62
         0
100
AcDbPoint
 10
43.235894
 20
56.34302
 30
0.0
  0
POINT
  5
5A
100
AcDbEntity
  8
DEFPOINTS
  6
CONTINUOUS
 62
         0
100
AcDbPoint
 10
43.235894
 20
72.917259
 30
0.0
  0
ENDBLK
  5
5B
100
AcDbEntity
  8
0
  6
ByBlock
 62
         0
100
AcDbBlockEnd
  0
BLOCK
  5
50
100
AcDbEntity
  8
0
  6
ByBlock
 62
         0
100
AcDbBlockBegin
  2
_OPEN
 70
         2
 10
0.0
 20
0.0
 30
0.0
  3
_OPEN
  1

  0
LINE
  5
51
100
AcDbEntity
  8
0
  6
ByBlock
 62
         0
100
AcDbLine
 10
-1.0
 20
0.166667
 30
0.0
 11
0.0
 21
0.0
 31
0.0
  0
LINE
  5
52
100
AcDbEntity
  8
0
  6
ByBlock
 62
         0
100
AcDbLine
 10
0.0
 20
0.0
 30
0.0
 11
-1.0
 21
-0.166667
 31
0.0
  0
LINE
  5
53
100
AcDbEntity
  8
0
  6
ByBlock
 62
         0
100
AcDbLine
 10
0.0
 20
0.0
 30
0.0
 11
-1.0
 21
0.0
 31
0.0
  0
ENDBLK
  5
54
100
AcDbEntity
  8
0
  6
ByBlock
 62
         0
100
AcDbBlockEnd
  0
BLOCK
  5
5E
100
AcDbEntity
  8
0
  6
ByBlock
 62
         0
100
AcDbBlockBegin
  2
*D6
 70
         1
 10
0.0
 20
0.0
 30
0.0
  3
*D6
  1

  0
LINE
  5
5F
100
AcDbEntity
  8
0
  6
CONTINUOUS
 62
        80
100
AcDbLine
 10
10.235894
 20
77.267255
 30
0.0
 11
43.235894
 21
77.267255
 31
0.0
  0
LINE
  5
60
100
AcDbEntity
  8
0
  6
CONTINUOUS
 62
        80
100
AcDbLine
 10
10.235894
 20
56.073408
 30
0.0
 11
10.235894
 21
79.767255
 31
0.0
  0
LINE
  5
61
100
AcDbEntity
  8
0
  6
CONTINUOUS
 62
        80
100
AcDbLine
 10
43.235894
 20
56.34302
 30
0.0
 11
43.235894
 21
79.767255
 31
0.0
  0
INSERT
  5
62
100
AcDbEntity
  8
0
  6
CONTINUOUS
 62
        80
100
AcDbBlockReference
  2
_OPEN
 10
10.235894
 20
77.267255
 30
0.0
 41
3.0
 42
3.0
 43
3.0
 50
180.0
  0
INSERT
  5
63
100
AcDbEntity
  8
0
  6
CONTINUOUS
 62
        80
100
AcDbBlockReference
  2
_OPEN
 10
43.235894
 20
77.267255
 30
0.0
 41
3.0
 42
3.0
 43
3.0
  0
MTEXT
  5
64
100
AcDbEntity
  8
0
  6
CONTINUOUS
 62
        80
100
AcDbMText
 10
26.735894
 20
79.8672550238
 30
0.0
 40
3.2000000477
 41
0.0
 71
         5
 72
         1
  1
\A1;33
  0
POINT
  5
65
100
AcDbEntity
  8
DEFPOINTS
  6
CONTINUOUS
 62
         0
100
AcDbPoint
 10
10.235894
 20
56.073408
 30
0.0
  0
POINT
  5
66
100
AcDbEntity
  8
DEFPOINTS
  6
CONTINUOUS
 62
         0
100
AcDbPoint
 10
43.235894
 20
56.34302
 30
0.0
  0
POINT
  5
67
100
AcDbEntity
  8
DEFPOINTS
  6
CONTINUOUS
 62
         0
100
AcDbPoint
 10
43.235894
 20
77.267255
 30
0.0
  0
ENDBLK
  5
68
100
AcDbEntity
  8
0
  6
ByBlock
 62
         0
100
AcDbBlockEnd
  0
BLOCK
  5
7F
100
AcDbEntity
  8
0
  6
ByBlock
 62
         0
100
AcDbBlockBegin
  2
*D7
 70
         1
 10
0.0
 20
0.0
 30
0.0
  3
*D7
  1

  0
LINE
  5
80
100
AcDbEntity
  8
0
  6
CONTINUOUS
 62
        80
100
AcDbLine
 10
1.133931
 20
10.09302
 30
0.0
 11
1.133931
 21
52.59302
 31
0.0
  0
LINE
  5
81
100
AcDbEntity
  8
0
  6
CONTINUOUS
 62
        80
100
AcDbLine
 10
14.219109
 20
10.09302
 30
0.0
 11
-1.366069
 21
10.09302
 31
0.0
  0
LINE
  5
82
100
AcDbEntity
  8
0
  6
CONTINUOUS
 62
        80
100
AcDbLine
 10
8.975269
 20
52.59302
 30
0.0
 11
-1.366069
 21
52.59302
 31
0.0
  0
INSERT
  5
83
100
AcDbEntity
  8
0
  6
CONTINUOUS
 62
        80
100
AcDbBlockReference
  2
_OPEN
 10
1.133931
 20
10.09302
 30
0.0
 41
3.0
 42
3.0
 43
3.0
 50
270.0
  0
INSERT
  5
84
100
AcDbEntity
  8
0
  6
CONTINUOUS
 62
        80
100
AcDbBlockReference
  2
_OPEN
 10
1.133931
 20
52.59302
 30
0.0
 41
3.0
 42
3.0
 43
3.0
 50
90.0
  0
MTEXT
  5
86
100
AcDbEntity
  8
0
  6
CONTINUOUS
 62
        80
100
AcDbMText
 10
-1.4660690238
 20
30.2105985065
 30
0.0
 40
3.2000000477
 41
0.0
 71
         5
 72
         1
  1
\A1;\U+220542.5
  7
MX_DIMTXSTY_2
 11
0.0
 21
1.0
 31
0.0
  0
POINT
  5
87
100
AcDbEntity
  8
DEFPOINTS
  6
CONTINUOUS
 62
         0
100
AcDbPoint
 10
14.219109
 20
10.09302
 30
0.0
  0
POINT
  5
88
100
AcDbEntity
  8
DEFPOINTS
  6
CONTINUOUS
 62
         0
100
AcDbPoint
 10
8.975269
 20
52.59302
 30
0.0
  0
POINT
  5
89
100
AcDbEntity
  8
DEFPOINTS
  6
CONTINUOUS
 62
         0
100
AcDbPoint
 10
1.133931
 20
52.59302
 30
0.0
  0
ENDBLK
  5
8A
100
AcDbEntity
  8
0
  6
ByBlock
 62
         0
100
AcDbBlockEnd
  0
BLOCK
  5
8D
100
AcDbEntity
  8
0
  6
ByBlock
 62
         0
100
AcDbBlockBegin
  2
*D8
 70
         1
 10
0.0
 20
0.0
 30
0.0
  3
*D8
  1

  0
LINE
  5
8E
100
AcDbEntity
  8
0
  6
CONTINUOUS
 62
        80
100
AcDbLine
 10
20.735894
 20
68.567263
 30
0.0
 11
43.235894
 21
68.567263
 31
0.0
  0
LINE
  5
8F
100
AcDbEntity
  8
0
  6
CONTINUOUS
 62
        80
100
AcDbLine
 10
20.735894
 20
58.34302
 30
0.0
 11
20.735894
 21
71.067263
 31
0.0
  0
INSERT
  5
90
100
AcDbEntity
  8
0
  6
CONTINUOUS
 62
        80
100
AcDbBlockReference
  2
_OPEN
 10
20.735894
 20
68.567263
 30
0.0
 41
3.0
 42
3.0
 43
3.0
 50
180.0
  0
INSERT
  5
91
100
AcDbEntity
  8
0
  6
CONTINUOUS
 62
        80
100
AcDbBlockReference
  2
_OPEN
 10
43.235894
 20
68.567263
 30
0.0
 41
3.0
 42
3.0
 43
3.0
  0
MTEXT
  5
93
100
AcDbEntity
  8
0
  6
CONTINUOUS
 62
        80
100
AcDbMText
 10
31.985894
 20
71.1672630238
 30
0.0
 40
3.2000000477
 41
0.0
 71
         5
 72
         1
  1
\A1;22.5
  7
MX_DIMTXSTY_3
  0
POINT
  5
94
100
AcDbEntity
  8
DEFPOINTS
  6
CONTINUOUS
 62
         0
100
AcDbPoint
 10
20.735894
 20
58.34302
 30
0.0
  0
POINT
  5
95
100
AcDbEntity
  8
DEFPOINTS
  6
CONTINUOUS
 62
         0
100
AcDbPoint
 10
43.235894
 20
56.34302
 30
0.0
  0
POINT
  5
96
100
AcDbEntity
  8
DEFPOINTS
  6
CONTINUOUS
 62
         0
100
AcDbPoint
 10
43.235894
 20
68.567263
 30
0.0
  0
ENDBLK
  5
97
100
AcDbEntity
  8
0
  6
ByBlock
 62
         0
100
AcDbBlockEnd
  0
BLOCK
  5
9A
100
AcDbEntity
  8
0
  6
ByBlock
 62
         0
100
AcDbBlockBegin
  2
*D9
 70
         1
 10
0.0
 20
0.0
 30
0.0
  3
*D9
  1

  0
LINE
  5
9B
100
AcDbEntity
  8
0
  6
CONTINUOUS
 62
        80
100
AcDbLine
 10
26.235894
 20
64.131655
 30
0.0
 11
43.235894
 21
64.131655
 31
0.0
  0
LINE
  5
9C
100
AcDbEntity
  8
0
  6
CONTINUOUS
 62
        80
100
AcDbLine
 10
26.235894
 20
56.34302
 30
0.0
 11
26.235894
 21
66.631655
 31
0.0
  0
INSERT
  5
9D
100
AcDbEntity
  8
0
  6
CONTINUOUS
 62
        80
100
AcDbBlockReference
  2
_OPEN
 10
26.235894
 20
64.131655
 30
0.0
 41
3.0
 42
3.0
 43
3.0
 50
180.0
  0
INSERT
  5
9E
100
AcDbEntity
  8
0
  6
CONTINUOUS
 62
        80
100
AcDbBlockReference
  2
_OPEN
 10
43.235894
 20
64.131655
 30
0.0
 41
3.0
 42
3.0
 43
3.0
  0
MTEXT
  5
9F
100
AcDbEntity
  8
0
  6
CONTINUOUS
 62
        80
100
AcDbMText
 10
34.1387341375
 20
66.7316550238
 30
0.0
 40
3.2000000477
 41
0.0
 71
         5
 72
         1
  1
\A1;17
  7
MX_DIMTXSTY_3
  0
POINT
  5
A0
100
AcDbEntity
  8
DEFPOINTS
  6
CONTINUOUS
 62
         0
100
AcDbPoint
 10
26.235894
 20
56.34302
 30
0.0
  0
POINT
  5
A1
100
AcDbEntity
  8
DEFPOINTS
  6
CONTINUOUS
 62
         0
100
AcDbPoint
 10
43.235894
 20
56.34302
 30
0.0
  0
POINT
  5
A2
100
AcDbEntity
  8
DEFPOINTS
  6
CONTINUOUS
 62
         0
100
AcDbPoint
 10
43.235894
 20
64.131655
 30
0.0
  0
ENDBLK
  5
A3
100
AcDbEntity
  8
0
  6
ByBlock
 62
         0
100
AcDbBlockEnd
  0
BLOCK
  5
A6
100
AcDbEntity
  8
0
  6
ByBlock
 62
         0
100
AcDbBlockBegin
  2
*D10
 70
         1
 10
0.0
 20
0.0
 30
0.0
  3
*D10
  1

  0
LINE
  5
A7
100
AcDbEntity
  8
0
  6
CONTINUOUS
 62
        80
100
AcDbLine
 10
52.294225
 20
56.34302
 30
0.0
 11
52.294225
 21
6.34302
 31
0.0
  0
LINE
  5
A8
100
AcDbEntity
  8
0
  6
CONTINUOUS
 62
        80
100
AcDbLine
 10
43.235894
 20
56.34302
 30
0.0
 11
54.794225
 21
56.34302
 31
0.0
  0
LINE
  5
A9
100
AcDbEntity
  8
0
  6
CONTINUOUS
 62
        80
100
AcDbLine
 10
43.235894
 20
6.34302
 30
0.0
 11
54.794225
 21
6.34302
 31
0.0
  0
INSERT
  5
AA
100
AcDbEntity
  8
0
  6
CONTINUOUS
 62
        80
100
AcDbBlockReference
  2
_OPEN
 10
52.294225
 20
56.34302
 30
0.0
 41
3.0
 42
3.0
 43
3.0
 50
90.0
  0
INSERT
  5
AB
100
AcDbEntity
  8
0
  6
CONTINUOUS
 62
        80
100
AcDbBlockReference
  2
_OPEN
 10
52.294225
 20
6.34302
 30
0.0
 41
3.0
 42
3.0
 43
3.0
 50
270.0
  0
MTEXT
  5
AC
100
AcDbEntity
  8
0
  6
CONTINUOUS
 62
        80
100
AcDbMText
 10
49.6942249762
 20
31.34302
 30
0.0
 40
3.2000000477
 41
0.0
 71
         5
 72
         1
  1
\A1;\U+220550
 11
0.0
 21
1.0
 31
0.0
  0
POINT
  5
AD
100
AcDbEntity
  8
DEFPOINTS
  6
CONTINUOUS
 62
         0
100
AcDbPoint
 10
43.235894
 20
56.34302
 30
0.0
  0
POINT
  5
AE
100
AcDbEntity
  8
DEFPOINTS
  6
CONTINUOUS
 62
         0
100
AcDbPoint
 10
43.235894
 20
6.34302
 30
0.0
  0
POINT
  5
AF
100
AcDbEntity
  8
DEFPOINTS
  6
CONTINUOUS
 62
         0
100
AcDbPoint
 10
52.294225
 20
6.34302
 30
0.0
  0
ENDBLK
  5
B0
100
AcDbEntity
  8
0
  6
ByBlock
 62
         0
100
AcDbBlockEnd
  0
BLOCK
  5
B3
100
AcDbEntity
  8
0
  6
ByBlock
 62
         0
100
AcDbBlockBegin
  2
*D11
 70
         1
 10
0.0
 20
0.0
 30
0.0
  3
*D11
  1

  0
LINE
  5
B4
100
AcDbEntity
  8
0
  6
CONTINUOUS
 62
        80
100
AcDbLine
 10
-7.552771
 20
4.34302
 30
0.0
 11
-7.552771
 21
58.34302
 31
0.0
  0
LINE
  5
B5
100
AcDbEntity
  8
0
  6
CONTINUOUS
 62
        80
100
AcDbLine
 10
15.235894
 20
4.34302
 30
0.0
 11
-9.2194379846
 21
4.34302
 31
0.0
  0
LINE
  5
B6
100
AcDbEntity
  8
0
  6
CONTINUOUS
 62
        80
100
AcDbLine
 10
15.235894
 20
58.34302
 30
0.0
 11
-9.2194379846
 21
58.34302
 31
0.0
  0
INSERT
  5
B7
100
AcDbEntity
  8
0
  6
CONTINUOUS
 62
        80
100
AcDbBlockReference
  2
_OPEN
 10
-7.552771
 20
4.34302
 30
0.0
 41
3.0
 42
3.0
 43
3.0
 50
270.0
  0
INSERT
  5
B8
100
AcDbEntity
  8
0
  6
CONTINUOUS
 62
        80
100
AcDbBlockReference
  2
_OPEN
 10
-7.552771
 20
58.34302
 30
0.0
 41
3.0
 42
3.0
 43
3.0
 50
90.0
  0
MTEXT
  5
B9
100
AcDbEntity
  8
0
  6
CONTINUOUS
 62
        80
100
AcDbMText
 10
-10.1527710238
 20
31.34302
 30
0.0
 40
3.2000000477
 41
0.0
 71
         5
 72
         1
  1
\A1;\U+220554
 11
0.0
 21
1.0
 31
0.0
  0
POINT
  5
BA
100
AcDbEntity
  8
DEFPOINTS
  6
CONTINUOUS
 62
         0
100
AcDbPoint
 10
15.235894
 20
4.34302
 30
0.0
  0
POINT
  5
BB
100
AcDbEntity
  8
DEFPOINTS
  6
CONTINUOUS
 62
         0
100
AcDbPoint
 10
15.235894
 20
58.34302
 30
0.0
  0
POINT
  5
BC
100
AcDbEntity
  8
DEFPOINTS
  6
CONTINUOUS
 62
         0
100
AcDbPoint
 10
-7.552771
 20
58.34302
 30
0.0
  0
ENDBLK
  5
BD
100
AcDbEntity
  8
0
  6
ByBlock
 62
         0
100
AcDbBlockEnd
  0
BLOCK
  5
C0
100
AcDbEntity
  8
0
  6
ByBlock
 62
         0
100
AcDbBlockBegin
  2
*D12
 70
         1
 10
0.0
 20
0.0
 30
0.0
  3
*D12
  1

  0
LINE
  5
C1
100
AcDbEntity
  8
0
  6
CONTINUOUS
 62
        80
100
AcDbLine
 10
9.04876
 20
15.34302
 30
0.0
 11
9.04876
 21
47.34302
 31
0.0
  0
LINE
  5
C2
100
AcDbEntity
  8
0
  6
CONTINUOUS
 62
        80
100
AcDbLine
 10
15.235894
 20
15.34302
 30
0.0
 11
7.3820930154
 21
15.34302
 31
0.0
  0
LINE
  5
C3
100
AcDbEntity
  8
0
  6
CONTINUOUS
 62
        80
100
AcDbLine
 10
15.235894
 20
47.34302
 30
0.0
 11
7.3820930154
 21
47.34302
 31
0.0
  0
INSERT
  5
C4
100
AcDbEntity
  8
0
  6
CONTINUOUS
 62
        80
100
AcDbBlockReference
  2
_OPEN
 10
9.04876
 20
15.34302
 30
0.0
 41
3.0
 42
3.0
 43
3.0
 50
270.0
  0
INSERT
  5
C5
100
AcDbEntity
  8
0
  6
CONTINUOUS
 62
        80
100
AcDbBlockReference
  2
_OPEN
 10
9.04876
 20
47.34302
 30
0.0
 41
3.0
 42
3.0
 43
3.0
 50
90.0
  0
MTEXT
  5
C6
100
AcDbEntity
  8
0
  6
CONTINUOUS
 62
        80
100
AcDbMText
 10
6.4487599762
 20
31.34302
 30
0.0
 40
3.2000000477
 41
0.0
 71
         5
 72
         1
  1
\A1;\U+220532
 11
0.0
 21
1.0
 31
0.0
  0
POINT
  5
C7
100
AcDbEntity
  8
DEFPOINTS
  6
CONTINUOUS
 62
         0
100
AcDbPoint
 10
15.235894
 20
15.34302
 30
0.0
  0
POINT
  5
C8
100
AcDbEntity
  8
DEFPOINTS
  6
CONTINUOUS
 62
         0
100
AcDbPoint
 10
15.235894
 20
47.34302
 30
0.0
  0
POINT
  5
C9
100
AcDbEntity
  8
DEFPOINTS
  6
CONTINUOUS
 62
         0
100
AcDbPoint
 10
9.04876
 20
47.34302
 30
0.0
  0
ENDBLK
  5
CA
100
AcDbEntity
  8
0
  6
ByBlock
 62
         0
100
AcDbBlockEnd
  0
BLOCK
  5
CD
100
AcDbEntity
  8
0
  6
ByBlock
 62
         0
100
AcDbBlockBegin
  2
*D13
 70
         1
 10
0.0
 20
0.0
 30
0.0
  3
*D13
  1

  0
LINE
  5
CE
100
AcDbEntity
  8
0
  6
CONTINUOUS
 62
        80
100
AcDbLine
 10
15.235894
 20
68.567263
 30
0.0
 11
20.735894
 21
68.567263
 31
0.0
  0
LINE
  5
CF
100
AcDbEntity
  8
0
  6
CONTINUOUS
 62
        80
100
AcDbLine
 10
-0.7522961741
 20
68.567263
 30
0.0
 11
15.235894
 21
68.567263
 31
0.0
  0
INSERT
  5
D0
100
AcDbEntity
  8
0
  6
CONTINUOUS
 62
        80
100
AcDbBlockReference
  2
_OPEN
 10
15.235894
 20
68.567263
 30
0.0
 41
3.0
 42
3.0
 43
3.0
 50
180.0
  0
INSERT
  5
D1
100
AcDbEntity
  8
0
  6
CONTINUOUS
 62
        80
100
AcDbBlockReference
  2
_OPEN
 10
20.735894
 20
68.567263
 30
0.0
 41
3.0
 42
3.0
 43
3.0
  0
MTEXT
  5
D3
100
AcDbEntity
  8
0
  6
CONTINUOUS
 62
        80
100
AcDbMText
 10
4.0487707014
 20
71.1672630238
 30
0.0
 40
3.2000000477
 41
0.0
 71
         5
 72
         1
  1
\A1;5.5
  7
MX_DIMTXSTY_4
  0
POINT
  5
D4
100
AcDbEntity
  8
DEFPOINTS
  6
CONTINUOUS
 62
         0
100
AcDbPoint
 10
15.235894
 20
58.34302
 30
0.0
  0
POINT
  5
D5
100
AcDbEntity
  8
DEFPOINTS
  6
CONTINUOUS
 62
         0
100
AcDbPoint
 10
20.735894
 20
58.34302
 30
0.0
  0
POINT
  5
D6
100
AcDbEntity
  8
DEFPOINTS
  6
CONTINUOUS
 62
         0
100
AcDbPoint
 10
20.735894
 20
68.567263
 30
0.0
  0
ENDBLK
  5
D7
100
AcDbEntity
  8
0
  6
ByBlock
 62
         0
100
AcDbBlockEnd
  0
ENDSEC
  0
SECTION
  2
ENTITIES
  0
MTEXT
  5
29
100
AcDbEntity
  8
0
  6
CONTINUOUS
 62
       110
100
AcDbMText
 10
-21.2355712373
 20
-21.7852178808
 30
0.0
 40
3.2000000477
 41
0.0
 71
         1
 72
         1
  1
\T1.065;\W1.018;\A1;TSUBAKI
  0
MTEXT
  5
2A
100
AcDbEntity
  8
0
  6
CONTINUOUS
 62
       110
100
AcDbMText
 10
-33.2028642373
 20
-51.6473298808
 30
0.0
 40
3.2000000477
 41
0.0
 71
         1
 72
         1
  1
\T1.065;\W1.018;\A1;TSUBAKI
  0
INSERT
  5
35
100
AcDbEntity
  8
0
  6
ByBlock
 62
        80
100
AcDbBlockReference
  2
$SYMTB004-31
 10
15.235894
 20
52.59302
 30
0.0
  0
INSERT
  5
41
100
AcDbEntity
  8
0
  6
ByBlock
 62
        80
100
AcDbBlockReference
  2
$SYMTB004-25
 10
-31.971423
 20
46.369038
 30
0.0
 50
270.0
  0
INSERT
  5
42
100
AcDbEntity
  8
0
  6
ByBlock
 62
        80
100
AcDbBlockReference
  2
$SYMTB004-25
 10
-25.747443
 20
31.343018
 30
0.0
 50
225.0
  0
INSERT
  5
43
100
AcDbEntity
  8
0
  6
ByBlock
 62
        80
100
AcDbBlockReference
  2
$SYMTB004-25
 10
-31.971426
 20
16.317
 30
0.0
 50
180.0
  0
INSERT
  5
44
100
AcDbEntity
  8
0
  6
ByBlock
 62
        80
100
AcDbBlockReference
  2
$SYMTB004-25
 10
-46.997445
 20
10.09302
 30
0.0
 50
135.0
  0
INSERT
  5
45
100
AcDbEntity
  8
0
  6
ByBlock
 62
        80
100
AcDbBlockReference
  2
$SYMTB004-25
 10
-62.023464
 20
16.317002
 30
0.0
 50
90.0
  0
INSERT
  5
46
100
AcDbEntity
  8
0
  6
ByBlock
 62
        80
100
AcDbBlockReference
  2
$SYMTB004-25
 10
-68.247443
 20
31.343022
 30
0.0
 50
45.0
  0
INSERT
  5
47
100
AcDbEntity
  8
0
  6
ByBlock
 62
        80
100
AcDbBlockReference
  2
$SYMTB004-25
 10
-62.023461
 20
46.369041
 30
0.0
  0
INSERT
  5
48
100
AcDbEntity
  8
0
  6
ByBlock
 62
        80
100
AcDbBlockReference
  2
$SYMTB004-25
 10
-46.997443
 20
52.59302
 30
0.0
  0
LINE
  5
4A
100
AcDbEntity
  8
0
  6
CENTER
 62
        80
100
AcDbLine
 10
-77.997443
 20
31.34302
 30
0.0
 11
-15.997443
 21
31.34302
 31
0.0
  0
DIMENSION
  5
5C
100
AcDbEntity
  8
0
  6
CONTINUOUS
 62
        80
100
AcDbDimension
  2
*D4
 10
43.235894
 20
72.917259
 30
0.0
 11
29.235894
 21
72.917259
 31
0.0
 70
       128
  1
\A1;<>
  3
MXDIMSTYLE
100
AcDbAlignedDimension
 13
15.235894
 23
58.34302
 33
0.0
 14
43.235894
 24
56.34302
 34
0.0
100
AcDbRotatedDimension
1001
ACAD
1000
DSTYLE
1002
{
1070
         6
1000
_OPEN
1070
         7
1000
_OPEN
1070
        41
1040
3.0
1070
        76
1070
         1
1070
       271
1070
         0
1070
       284
1070
         8
1070
       343
1005
4F
1070
       344
1005
4F
1002
}
  0
DIMENSION
  5
69
100
AcDbEntity
  8
0
  6
CONTINUOUS
 62
        80
100
AcDbDimension
  2
*D6
 10
43.235894
 20
77.267255
 30
0.0
 11
26.735894
 21
77.267255
 31
0.0
 70
       128
  1
\A1;<>
  3
MXDIMSTYLE
100
AcDbAlignedDimension
 13
10.235894
 23
56.073408
 33
0.0
 14
43.235894
 24
56.34302
 34
0.0
100
AcDbRotatedDimension
1001
ACAD
1000
DSTYLE
1002
{
1070
         6
1000
_OPEN
1070
         7
1000
_OPEN
1070
        41
1040
3.0
1070
       271
1070
         0
1070
       284
1070
         8
1070
       343
1005
4F
1070
       344
1005
4F
1002
}
  0
LINE
  5
6A
100
AcDbEntity
  8
0
  6
CENTER
 62
        80
100
AcDbLine
 10
-36.952701
 20
41.38776
 30
0.0
 11
-25.693732
 21
52.646729
 31
0.0
  0
LINE
  5
6B
100
AcDbEntity
  8
0
  6
CENTER
 62
        80
100
AcDbLine
 10
-36.952704
 20
21.298278
 30
0.0
 11
-25.693735
 21
10.039309
 31
0.0
  0
LINE
  5
6C
100
AcDbEntity
  8
0
  6
CENTER
 62
        80
100
AcDbLine
 10
-57.042185
 20
21.298281
 30
0.0
 11
-68.301155
 21
10.039312
 31
0.0
  0
CIRCLE
  5
6D
100
AcDbEntity
  8
0
  6
CONTINUOUS
 62
         3
100
AcDbCircle
 10
-27.365012
 20
39.475047
 30
0.0
 40
2.067
  0
CIRCLE
  5
6E
100
AcDbEntity
  8
0
  6
CONTINUOUS
 62
        80
100
AcDbCircle
 10
-27.365012
 20
39.475047
 30
0.0
 40
2.5
  0
LINE
  5
6F
100
AcDbEntity
  8
0
  6
CENTER
 62
        80
100
AcDbLine
 10
-33.491904
 20
36.9372
 30
0.0
 11
-19.049351
 21
42.919502
 31
0.0
  0
CIRCLE
  5
70
100
AcDbEntity
  8
0
  6
CONTINUOUS
 62
         3
100
AcDbCircle
 10
-38.865417
 20
11.710589
 30
0.0
 40
2.067
  0
CIRCLE
  5
71
100
AcDbEntity
  8
0
  6
CONTINUOUS
 62
        80
100
AcDbCircle
 10
-38.865417
 20
11.710589
 30
0.0
 40
2.5
  0
LINE
  5
72
100
AcDbEntity
  8
0
  6
CENTER
 62
        80
100
AcDbLine
 10
-41.403263
 20
17.837481
 30
0.0
 11
-35.420961
 21
3.394927
 31
0.0
  0
CIRCLE
  5
73
100
AcDbEntity
  8
0
  6
CONTINUOUS
 62
         3
100
AcDbCircle
 10
-66.629875
 20
23.210994
 30
0.0
 40
2.067
  0
CIRCLE
  5
74
100
AcDbEntity
  8
0
  6
CONTINUOUS
 62
        80
100
AcDbCircle
 10
-66.629875
 20
23.210994
 30
0.0
 40
2.5
  0
LINE
  5
75
100
AcDbEntity
  8
0
  6
CENTER
 62
        80
100
AcDbLine
 10
-60.502983
 20
25.74884
 30
0.0
 11
-74.945536
 21
19.766538
 31
0.0
  0
LINE
  5
76
100
AcDbEntity
  8
0
  6
CONTINUOUS
 62
        80
100
AcDbLine
 10
43.235894
 20
50.09302
 30
0.0
 11
34.335893
 21
50.09302
 31
0.0
  0
LINE
  5
77
100
AcDbEntity
  8
0
  6
CONTINUOUS
 62
         3
100
AcDbLine
 10
34.335893
 20
50.09302
 30
0.0
 11
15.435922
 21
50.09302
 31
0.0
  0
LINE
  5
78
100
AcDbEntity
  8
0
  6
CONTINUOUS
 62
        80
100
AcDbLine
 10
17.235894
 20
50.526034
 30
0.0
 11
34.768911
 21
50.526034
 31
0.0
  0
LINE
  5
79
100
AcDbEntity
  8
0
  6
CONTINUOUS
 62
         3
100
AcDbLine
 10
34.768911
 20
50.526034
 30
0.0
 11
43.235894
 21
50.526034
 31
0.0
  0
LINE
  5
7A
100
AcDbEntity
  8
0
  6
CONTINUOUS
 62
         3
100
AcDbLine
 10
34.768911
 20
54.660006
 30
0.0
 11
43.235894
 21
54.660006
 31
0.0
  0
LINE
  5
7B
100
AcDbEntity
  8
0
  6
CONTINUOUS
 62
         3
100
AcDbLine
 10
34.335893
 20
55.09302
 30
0.0
 11
15.435922
 21
55.09302
 31
0.0
  0
MTEXT
  5
7C
100
AcDbEntity
  8
0
  6
CONTINUOUS
 62
       110
100
AcDbMText
 10
-78.0841589921
 20
70.130335
 30
0.0
 40
3.2000000477
 41
0.0
 71
         4
 72
         1
  1
\W0.937;\A1;M5
  0
LEADER
  5
7D
100
AcDbEntity
  8
0
  6
CONTINUOUS
 62
        80
100
AcDbLeader
  3
MXDIMSTYLE
 73
         3
 74
         0
 75
         0
 40
0.0
 76
         3
 10
-56.559029
 20
53.026393
 30
0.0
 10
-64.868811
 20
66.730335
 30
0.0
 10
-78.084159
 20
66.730335
 30
0.0
 77
        80
1001
ACAD
1000
DSTYLE
1002
{
1070
        41
1040
2.77
1002
}
  0
DIMENSION
  5
8B
100
AcDbEntity
  8
0
  6
CONTINUOUS
 62
        80
100
AcDbDimension
  2
*D7
 10
1.133931
 20
52.59302
 30
0.0
 11
1.133931
 21
30.2105985065
 31
0.0
 70
       128
  1
\A1;\U+2205<>
  3
MXDIMSTYLE
100
AcDbAlignedDimension
 13
14.219109
 23
10.09302
 33
0.0
 14
8.975269
 24
52.59302
 34
0.0
 50
90.0
100
AcDbRotatedDimension
1001
ACAD
1000
DSTYLE
1002
{
1070
         6
1000
_OPEN
1070
         7
1000
_OPEN
1070
        41
1040
3.0
1070
       271
1070
         1
1070
       284
1070
         8
1070
       340
1005
85
1070
       343
1005
4F
1070
       344
1005
4F
1002
}
  0
DIMENSION
  5
98
100
AcDbEntity
  8
0
  6
CONTINUOUS
 62
        80
100
AcDbDimension
  2
*D8
 10
43.235894
 20
68.567263
 30
0.0
 11
31.985894
 21
68.567263
 31
0.0
 70
       128
  1
\A1;<>
  3
MXDIMSTYLE
100
AcDbAlignedDimension
 13
20.735894
 23
58.34302
 33
0.0
 14
43.235894
 24
56.34302
 34
0.0
100
AcDbRotatedDimension
1001
ACAD
1000
DSTYLE
1002
{
1070
         6
1000
_OPEN
1070
         7
1000
_OPEN
1070
        41
1040
3.0
1070
        76
1070
         1
1070
       271
1070
         1
1070
       284
1070
         8
1070
       340
1005
92
1070
       343
1005
4F
1070
       344
1005
4F
1002
}
  0
DIMENSION
  5
A4
100
AcDbEntity
  8
0
  6
CONTINUOUS
 62
        80
100
AcDbDimension
  2
*D9
 10
43.235894
 20
64.131655
 30
0.0
 11
34.1387341375
 21
64.131655
 31
0.0
 70
       128
  1
\A1;<>
  3
MXDIMSTYLE
100
AcDbAlignedDimension
 13
26.235894
 23
56.34302
 33
0.0
 14
43.235894
 24
56.34302
 34
0.0
100
AcDbRotatedDimension
1001
ACAD
1000
DSTYLE
1002
{
1070
         6
1000
_OPEN
1070
         7
1000
_OPEN
1070
        41
1040
3.0
1070
        76
1070
         1
1070
       271
1070
         0
1070
       284
1070
         8
1070
       340
1005
92
1070
       343
1005
4F
1070
       344
1005
4F
1002
}
  0
DIMENSION
  5
B1
100
AcDbEntity
  8
0
  6
CONTINUOUS
 62
        80
100
AcDbDimension
  2
*D10
 10
52.294225
 20
6.34302
 30
0.0
 11
52.294225
 21
31.34302
 31
0.0
 70
       128
  1
\A1;\U+2205<>
  3
MXDIMSTYLE
100
AcDbAlignedDimension
 13
43.235894
 23
56.34302
 33
0.0
 14
43.235894
 24
6.34302
 34
0.0
 50
90.0
100
AcDbRotatedDimension
1001
ACAD
1000
DSTYLE
1002
{
1070
         6
1000
_OPEN
1070
         7
1000
_OPEN
1070
        41
1040
3.0
1070
       271
1070
         0
1070
       284
1070
         8
1070
       343
1005
4F
1070
       344
1005
4F
1002
}
  0
DIMENSION
  5
BE
100
AcDbEntity
  8
0
  6
CONTINUOUS
 62
        80
100
AcDbDimension
  2
*D11
 10
-7.552771
 20
58.34302
 30
0.0
 11
-7.552771
 21
31.34302
 31
0.0
 70
       128
  1
\A1;\U+2205<>
  3
MXDIMSTYLE
100
AcDbAlignedDimension
 13
15.235894
 23
4.34302
 33
0.0
 14
15.235894
 24
58.34302
 34
0.0
 50
90.0
100
AcDbRotatedDimension
1001
ACAD
1000
DSTYLE
1002
{
1070
         6
1000
_OPEN
1070
         7
1000
_OPEN
1070
        41
1040
3.0
1070
        44
1040
1.6666669846
1070
       271
1070
         0
1070
       284
1070
         8
1070
       343
1005
4F
1070
       344
1005
4F
1002
}
  0
DIMENSION
  5
CB
100
AcDbEntity
  8
0
  6
CONTINUOUS
 62
        80
100
AcDbDimension
  2
*D12
 10
9.04876
 20
47.34302
 30
0.0
 11
9.04876
 21
31.34302
 31
0.0
 70
       128
  1
\A1;\U+2205<>
  3
MXDIMSTYLE
100
AcDbAlignedDimension
 13
15.235894
 23
15.34302
 33
0.0
 14
15.235894
 24
47.34302
 34
0.0
 50
90.0
100
AcDbRotatedDimension
1001
ACAD
1000
DSTYLE
1002
{
1070
         6
1000
_OPEN
1070
         7
1000
_OPEN
1070
        41
1040
3.0
1070
        44
1040
1.6666669846
1070
       271
1070
         0
1070
       284
1070
         8
1070
       343
1005
4F
1070
       344
1005
4F
1002
}
  0
DIMENSION
  5
D8
100
AcDbEntity
  8
0
  6
CONTINUOUS
 62
        80
100
AcDbDimension
  2
*D13
 10
20.735894
 20
68.567263
 30
0.0
 11
4.0487707014
 21
68.567263
 31
0.0
 70
       128
  1
\A1;<>
  3
MXDIMSTYLE
100
AcDbAlignedDimension
 13
15.235894
 23
58.34302
 33
0.0
 14
20.735894
 24
58.34302
 34
0.0
100
AcDbRotatedDimension
1001
ACAD
1000
DSTYLE
1002
{
1070
         6
1000
_OPEN
1070
         7
1000
_OPEN
1070
        41
1040
3.0
1070
        75
1070
         1
1070
        76
1070
         1
1070
       271
1070
         1
1070
       284
1070
         8
1070
       340
1005
D2
1070
       343
1005
4F
1070
       344
1005
4F
1002
}
  0
CIRCLE
  5
D9
100
AcDbEntity
  8
0
  6
CONTINUOUS
 62
         3
100
AcDbCircle
 10
-55.12947
 20
50.975452
 30
0.0
 40
2.067
  0
CIRCLE
  5
DA
100
AcDbEntity
  8
0
  6
CONTINUOUS
 62
        80
100
AcDbCircle
 10
-55.12947
 20
50.975452
 30
0.0
 40
2.5
  0
CIRCLE
  5
DB
100
AcDbEntity
  8
0
  6
CENTER
 62
        80
100
AcDbCircle
 10
-46.997443
 20
31.34302
 30
0.0
 40
21.25
  0
ARC
  5
DC
100
AcDbEntity
  8
0
  6
CONTINUOUS
 62
         3
100
AcDbCircle
 10
-46.997443
 20
31.34302
 30
0.0
 40
17.868591
100
AcDbArc
 50
244.291809
 51
250.708178
  0
ARC
  5
DD
100
AcDbEntity
  8
0
  6
CONTINUOUS
 62
         3
100
AcDbCircle
 10
-46.997443
 20
31.34302
 30
0.0
 40
16.381284
100
AcDbArc
 50
244.000181
 51
250.999806
  0
ARC
  5
DE
100
AcDbEntity
  8
0
  6
CONTINUOUS
 62
         3
100
AcDbCircle
 10
-46.997443
 20
31.34302
 30
0.0
 40
25.0
100
AcDbArc
 50
245.20756
 51
249.792441
  0
ARC
  5
DF
100
AcDbEntity
  8
0
  6
CONTINUOUS
 62
         3
100
AcDbCircle
 10
15.435896
 20
55.293022
 30
0.0
 40
0.2
100
AcDbArc
 50
179.999745
 51
270.000001
  0
ARC
  5
E0
100
AcDbEntity
  8
0
  6
CONTINUOUS
 62
         3
100
AcDbCircle
 10
15.435896
 20
49.893018
 30
0.0
 40
0.199999
100
AcDbArc
 50
89.999982
 51
180.000237
  0
ARC
  5
E1
100
AcDbEntity
  8
0
  6
CONTINUOUS
 62
         3
100
AcDbCircle
 10
-46.997443
 20
31.34302
 30
0.0
 40
16.0
100
AcDbArc
 50
251.08334
 51
243.916685
  0
ARC
  5
E2
100
AcDbEntity
  8
0
  6
CONTINUOUS
 62
         3
100
AcDbCircle
 10
-46.997443
 20
31.34302
 30
0.0
 40
27.0
100
AcDbArc
 50
249.622553
 51
245.377444
  0
LINE
  5
E3
100
AcDbEntity
  8
0
  6
CONTINUOUS
 62
         3
100
AcDbLine
 10
26.235894
 20
50.09302
 30
0.0
 11
26.235894
 21
49.211612
 31
0.0
  0
LINE
  5
E4
100
AcDbEntity
  8
0
  6
CONTINUOUS
 62
         3
100
AcDbLine
 10
23.735894
 20
55.09302
 30
0.0
 11
23.735894
 21
56.34302
 31
0.0
  0
LINE
  5
E5
100
AcDbEntity
  8
0
  6
CONTINUOUS
 62
         3
100
AcDbLine
 10
34.335895
 20
50.09303
 30
0.0
 11
35.235902
 21
50.993029
 31
0.0
  0
LINE
  5
E6
100
AcDbEntity
  8
0
  6
CONTINUOUS
 62
         3
100
AcDbLine
 10
35.235894
 20
54.193016
 30
0.0
 11
35.235894
 21
50.993024
 31
0.0
  0
LINE
  5
E7
100
AcDbEntity
  8
0
  6
CONTINUOUS
 62
         3
100
AcDbLine
 10
34.335889
 20
55.093024
 30
0.0
 11
35.235896
 21
54.193025
 31
0.0
  0
LINE
  5
E8
100
AcDbEntity
  8
0
  6
CONTINUOUS
 62
         3
100
AcDbLine
 10
34.335885
 20
55.09302
 30
0.0
 11
34.335885
 21
50.09302
 31
0.0
  0
LINE
  5
E9
100
AcDbEntity
  8
0
  6
CONTINUOUS
 62
        80
100
AcDbLine
 10
17.235894
 20
54.660006
 30
0.0
 11
34.768911
 21
54.660006
 31
0.0
  0
LINE
  5
EA
100
AcDbEntity
  8
0
  6
CONTINUOUS
 62
        80
100
AcDbLine
 10
17.23588
 20
54.660012
 30
0.0
 11
16.369859
 21
55.093023
 31
0.0
  0
LINE
  5
EB
100
AcDbEntity
  8
0
  6
CONTINUOUS
 62
         3
100
AcDbLine
 10
17.235894
 20
55.09302
 30
0.0
 11
17.235894
 21
50.09302
 31
0.0
  0
LINE
  5
EC
100
AcDbEntity
  8
0
  6
CONTINUOUS
 62
        80
100
AcDbLine
 10
17.235895
 20
50.526029
 30
0.0
 11
16.369869
 21
50.093016
 31
0.0
  0
LINE
  5
ED
100
AcDbEntity
  8
0
  6
CONTINUOUS
 62
        80
100
AcDbLine
 10
43.235894
 20
55.09302
 30
0.0
 11
34.335893
 21
55.09302
 31
0.0
  0
LINE
  5
EE
100
AcDbEntity
  8
0
  6
CONTINUOUS
 62
         3
100
AcDbLine
 10
-52.184532
 20
16.207167
 30
0.0
 11
-56.398931
 21
6.032707
 31
0.0
  0
LINE
  5
EF
100
AcDbEntity
  8
0
  6
CONTINUOUS
 62
         3
100
AcDbLine
 10
-54.032291
 20
16.972534
 30
0.0
 11
-58.24669
 21
6.798074
 31
0.0
  0
LINE
  5
F0
100
AcDbEntity
  8
0
  6
CENTER
 62
        80
100
AcDbLine
 10
-52.591623
 20
44.848559
 30
0.0
 11
-58.573925
 21
59.291113
 31
0.0
  0
LINE
  5
F1
100
AcDbEntity
  8
0
  6
CENTER
 62
        80
100
AcDbLine
 10
-57.042183
 20
41.387762
 30
0.0
 11
-68.301152
 21
52.646732
 31
0.0
  0
LINE
  5
F2
100
AcDbEntity
  8
0
  6
CENTER
 62
        80
100
AcDbLine
 10
-46.997443
 20
62.34302
 30
0.0
 11
-46.997443
 21
0.34302
 31
0.0
  0
LINE
  5
F3
100
AcDbEntity
  8
0
  6
CONTINUOUS
 62
         3
100
AcDbLine
 10
15.235894
 20
58.34302
 30
0.0
 11
20.735894
 21
58.34302
 31
0.0
  0
LINE
  5
F4
100
AcDbEntity
  8
0
  6
CONTINUOUS
 62
         3
100
AcDbLine
 10
20.735894
 20
56.34302
 30
0.0
 11
23.735894
 21
56.34302
 31
0.0
  0
LINE
  5
F5
100
AcDbEntity
  8
0
  6
CONTINUOUS
 62
         3
100
AcDbLine
 10
23.735894
 20
49.255353
 30
0.0
 11
23.735894
 21
50.09302
 31
0.0
  0
LINE
  5
F6
100
AcDbEntity
  8
0
  6
CONTINUOUS
 62
         3
100
AcDbLine
 10
43.235894
 20
47.724306
 30
0.0
 11
25.735902
 21
49.255357
 31
0.0
  0
LINE
  5
F7
100
AcDbEntity
  8
0
  6
CONTINUOUS
 62
         3
100
AcDbLine
 10
23.735894
 20
49.255353
 30
0.0
 11
25.735894
 21
49.255353
 31
0.0
  0
LINE
  5
F8
100
AcDbEntity
  8
0
  6
CONTINUOUS
 62
         3
100
AcDbLine
 10
26.235894
 20
56.34302
 30
0.0
 11
26.235894
 21
55.09302
 31
0.0
  0
LINE
  5
F9
100
AcDbEntity
  8
0
  6
CONTINUOUS
 62
         3
100
AcDbLine
 10
20.735894
 20
58.34302
 30
0.0
 11
20.735894
 21
56.34302
 31
0.0
  0
LINE
  5
FA
100
AcDbEntity
  8
0
  6
CONTINUOUS
 62
         3
100
AcDbLine
 10
26.235894
 20
56.34302
 30
0.0
 11
43.235894
 21
56.34302
 31
0.0
  0
LINE
  5
FB
100
AcDbEntity
  8
0
  6
CENTER
 62
        80
100
AcDbLine
 10
8.975269
 20
52.59302
 30
0.0
 11
45.43968
 21
52.59302
 31
0.0
  0
LINE
  5
FC
100
AcDbEntity
  8
0
  6
CONTINUOUS
 62
         3
100
AcDbLine
 10
15.235894
 20
47.34302
 30
0.0
 11
40.735894
 21
47.34302
 31
0.0
  0
LINE
  5
FD
100
AcDbEntity
  8
0
  6
CONTINUOUS
 62
         3
100
AcDbLine
 10
40.735894
 20
14.743014
 30
0.0
 11
40.735894
 21
47.943026
 31
0.0
  0
LINE
  5
FE
100
AcDbEntity
  8
0
  6
CONTINUOUS
 62
         3
100
AcDbLine
 10
15.235894
 20
4.34302
 30
0.0
 11
15.235894
 21
58.34302
 31
0.0
  0
LINE
  5
FF
100
AcDbEntity
  8
0
  6
CONTINUOUS
 62
         3
100
AcDbLine
 10
26.235894
 20
6.34302
 30
0.0
 11
43.235894
 21
6.34302
 31
0.0
  0
LINE
  5
100
100
AcDbEntity
  8
0
  6
CONTINUOUS
 62
         3
100
AcDbLine
 10
26.235894
 20
6.34302
 30
0.0
 11
26.235894
 21
13.474429
 31
0.0
  0
LINE
  5
101
100
AcDbEntity
  8
0
  6
CONTINUOUS
 62
         3
100
AcDbLine
 10
43.235894
 20
6.34302
 30
0.0
 11
43.235894
 21
56.34302
 31
0.0
  0
LINE
  5
102
100
AcDbEntity
  8
0
  6
CONTINUOUS
 62
         3
100
AcDbLine
 10
20.735894
 20
4.34302
 30
0.0
 11
20.735894
 21
6.34302
 31
0.0
  0
LINE
  5
103
100
AcDbEntity
  8
0
  6
CONTINUOUS
 62
         3
100
AcDbLine
 10
15.235894
 20
4.34302
 30
0.0
 11
20.735894
 21
4.34302
 31
0.0
  0
LINE
  5
104
100
AcDbEntity
  8
0
  6
CONTINUOUS
 62
         3
100
AcDbLine
 10
20.735894
 20
6.34302
 30
0.0
 11
23.735894
 21
6.34302
 31
0.0
  0
LINE
  5
105
100
AcDbEntity
  8
0
  6
CONTINUOUS
 62
         3
100
AcDbLine
 10
23.735894
 20
13.430687
 30
0.0
 11
23.735894
 21
6.34302
 31
0.0
  0
LINE
  5
106
100
AcDbEntity
  8
0
  6
CONTINUOUS
 62
         3
100
AcDbLine
 10
43.235894
 20
14.961739
 30
0.0
 11
25.735903
 21
13.430688
 31
0.0
  0
LINE
  5
107
100
AcDbEntity
  8
0
  6
CONTINUOUS
 62
         3
100
AcDbLine
 10
23.735894
 20
13.430687
 30
0.0
 11
25.735894
 21
13.430687
 31
0.0
  0
LINE
  5
108
100
AcDbEntity
  8
0
  6
CONTINUOUS
 62
         3
100
AcDbLine
 10
15.235894
 20
8.026024
 30
0.0
 11
23.735894
 21
8.026024
 31
0.0
  0
LINE
  5
109
100
AcDbEntity
  8
0
  6
CONTINUOUS
 62
         3
100
AcDbLine
 10
15.235894
 20
12.160016
 30
0.0
 11
23.735894
 21
12.160016
 31
0.0
  0
LINE
  5
10A
100
AcDbEntity
  8
0
  6
CONTINUOUS
 62
        80
100
AcDbLine
 10
15.235894
 20
7.59302
 30
0.0
 11
23.735894
 21
7.59302
 31
0.0
  0
LINE
  5
10B
100
AcDbEntity
  8
0
  6
CONTINUOUS
 62
        80
100
AcDbLine
 10
15.235894
 20
12.59302
 30
0.0
 11
23.735894
 21
12.59302
 31
0.0
  0
LINE
  5
10C
100
AcDbEntity
  8
0
  6
CENTER
 62
        80
100
AcDbLine
 10
14.219109
 20
10.09302
 30
0.0
 11
25.007862
 21
10.09302
 31
0.0
  0
LINE
  5
10D
100
AcDbEntity
  8
0
  6
CONTINUOUS
 62
         3
100
AcDbLine
 10
15.235894
 20
15.34302
 30
0.0
 11
40.735894
 21
15.34302
 31
0.0
  0
LINE
  5
10E
100
AcDbEntity
  8
0
  6
CENTER
 62
        80
100
AcDbLine
 10
11.566277
 20
31.34302
 30
0.0
 11
45.571498
 21
31.34302
 31
0.0
  0
LINE
  5
10F
100
AcDbEntity
  8
PV
  6
CONTINUOUS
 62
         3
100
AcDbLine
 10
-81.711472
 20
-56.0
 30
0.0
 11
118.853996
 21
-56.0
 31
0.0
  0
LINE
  5
110
100
AcDbEntity
  8
PV
  6
CONTINUOUS
 62
         3
100
AcDbLine
 10
-81.711472
 20
-62.0
 30
0.0
 11
118.853996
 21
-62.0
 31
0.0
  0
LINE
  5
111
100
AcDbEntity
  8
PV
  6
CONTINUOUS
 62
         3
100
AcDbLine
 10
-81.711472
 20
-68.0
 30
0.0
 11
118.853996
 21
-68.0
 31
0.0
  0
LINE
  5
112
100
AcDbEntity
  8
PV
  6
CONTINUOUS
 62
         3
100
AcDbLine
 10
-81.711472
 20
-74.0
 30
0.0
 11
118.853996
 21
-74.0
 31
0.0
  0
LINE
  5
113
100
AcDbEntity
  8
PV
  6
CONTINUOUS
 62
         3
100
AcDbLine
 10
-81.711472
 20
-80.0
 30
0.0
 11
118.853996
 21
-80.0
 31
0.0
  0
LINE
  5
114
100
AcDbEntity
  8
PV
  6
CONTINUOUS
 62
         3
100
AcDbLine
 10
-81.711472
 20
-86.0
 30
0.0
 11
118.853996
 21
-86.0
 31
0.0
  0
LINE
  5
115
100
AcDbEntity
  8
PV
  6
CONTINUOUS
 62
         3
100
AcDbLine
 10
-81.711472
 20
-92.0
 30
0.0
 11
118.853996
 21
-92.0
 31
0.0
  0
LINE
  5
116
100
AcDbEntity
  8
PV
  6
CONTINUOUS
 62
         3
100
AcDbLine
 10
-81.711472
 20
-98.0
 30
0.0
 11
118.853996
 21
-98.0
 31
0.0
  0
LINE
  5
117
100
AcDbEntity
  8
PV
  6
CONTINUOUS
 62
         3
100
AcDbLine
 10
-81.711472
 20
-104.0
 30
0.0
 11
118.853996
 21
-104.0
 31
0.0
  0
LINE
  5
118
100
AcDbEntity
  8
PV
  6
CONTINUOUS
 62
         3
100
AcDbLine
 10
-81.711472
 20
-110.0
 30
0.0
 11
118.853996
 21
-110.0
 31
0.0
  0
LINE
  5
119
100
AcDbEntity
  8
PV
  6
CONTINUOUS
 62
         3
100
AcDbLine
 10
33.061279
 20
-62.0
 30
0.0
 11
33.061279
 21
-110.0
 31
0.0
  0
LINE
  5
11A
100
AcDbEntity
  8
PV
  6
CONTINUOUS
 62
         3
100
AcDbLine
 10
-81.711472
 20
-50.0
 30
0.0
 11
-81.711472
 21
-110.0
 31
0.0
  0
LINE
  5
11B
100
AcDbEntity
  8
PV
  6
CONTINUOUS
 62
         3
100
AcDbLine
 10
-81.711472
 20
-50.0
 30
0.0
 11
118.853996
 21
-50.0
 31
0.0
  0
LINE
  5
11C
100
AcDbEntity
  8
PV
  6
CONTINUOUS
 62
         3
100
AcDbLine
 10
118.853996
 20
-50.0
 30
0.0
 11
118.853996
 21
-110.0
 31
0.0
  0
MTEXT
  5
11D
100
AcDbEntity
  8
PV
  6
CONTINUOUS
 62
       110
100
AcDbMText
 10
-33.2892289227
 20
-57.6473298808
 30
0.0
 40
3.2000000477
 41
0.0
 71
         1
 72
         1
  1
\T1.006;\W1.063;\A1;POWER LOCK
  0
MTEXT
  5
11E
100
AcDbEntity
  8
PV
  6
CONTINUOUS
 62
       110
100
AcDbMText
 10
-77.1806262653
 20
-75.5323388808
 30
0.0
 40
3.2000000477
 41
0.0
 71
         1
 72
         1
  1
\T1.083;\W1.076;\A1;TIGHTENING TORQUE OF LOCKING BOLTS
  0
MTEXT
  5
11F
100
AcDbEntity
  8
PV
  6
CONTINUOUS
 62
       110
100
AcDbMText
 10
-77.1533469399
 20
-69.5323388808
 30
0.0
 40
3.2000000477
 41
0.0
 71
         1
 72
         1
  1
\T1.096;\W1.097;\A1;QUANTITY AND SIZE OF LOCKING BOLTS
  0
MTEXT
  5
120
100
AcDbEntity
  8
PV
  6
CONTINUOUS
 62
       110
100
AcDbMText
 10
-77.2302478301
 20
-81.5323388808
 30
0.0
 40
3.2000000477
 41
0.0
 71
         1
 72
         1
  1
\T1.057;\W1.031;\A1;TRANSMISSIBLE TORQUE
  0
MTEXT
  5
121
100
AcDbEntity
  8
PV
  6
CONTINUOUS
 62
       110
100
AcDbMText
 10
-77.2302478301
 20
-87.5323388808
 30
0.0
 40
3.2000000477
 41
0.0
 71
         1
 72
         1
  1
\T1.057;\W1.031;\A1;TRANSMISSIBLE THRUST
  0
MTEXT
  5
122
100
AcDbEntity
  8
PV
  6
CONTINUOUS
 62
       110
100
AcDbMText
 10
-77.2362680229
 20
-93.5323388808
 30
0.0
 40
3.2000000477
 41
0.0
 71
         1
 72
         1
  1
\T1.051;\W1.077;\A1;CONTACT PRESSURE OF SHAFT
  0
MTEXT
  5
123
100
AcDbEntity
  8
PV
  6
CONTINUOUS
 62
       110
100
AcDbMText
 10
-77.2171409758
 20
-99.5323388808
 30
0.0
 40
3.2000000477
 41
0.0
 71
         1
 72
         1
  1
\T1.061;\W1.093;\A1;CONTACT PRESSURE OF HUB BORE
  0
MTEXT
  5
124
100
AcDbEntity
  8
PV
  6
CONTINUOUS
 62
       110
100
AcDbMText
 10
73.2155610429
 20
-99.3999998808
 30
0.0
 40
3.2000000477
 41
0.0
 71
         1
 72
         1
  1
\W1.412;\A1;\{8.0
  0
MTEXT
  5
125
100
AcDbEntity
  8
PV
  6
CONTINUOUS
 62
       110
100
AcDbMText
 10
73.2495710566
 20
-93.3999998808
 30
0.0
 40
3.2000000477
 41
0.0
 71
         1
 72
         1
  1
\W1.333;\A1;\{7.8
  0
MTEXT
  5
126
100
AcDbEntity
  8
PV
  6
CONTINUOUS
 62
       110
100
AcDbMText
 10
70.284807
 20
-87.3999998808
 30
0.0
 40
3.2000000477
 41
0.0
 71
         1
 72
         1
  1
\W1.250;\A1;\{1818
  0
MTEXT
  5
127
100
AcDbEntity
  8
PV
  6
CONTINUOUS
 62
       110
100
AcDbMText
 10
70.2619519859
 20
-81.3999998808
 30
0.0
 40
3.2000000477
 41
0.0
 71
         1
 72
         1
  1
\W1.304;\A1;\{30.8
  0
MTEXT
  5
128
100
AcDbEntity
  8
PV
  6
CONTINUOUS
 62
       110
100
AcDbMText
 10
73.4619519859
 20
-75.3999998808
 30
0.0
 40
3.2000000477
 41
0.0
 71
         1
 72
         1
  1
\W1.304;\A1;\{0.54
  0
MTEXT
  5
129
100
AcDbEntity
  8
PV
  6
CONTINUOUS
 62
       110
100
AcDbMText
 10
63.4905059861
 20
-69.3999998808
 30
0.0
 40
3.2000000477
 41
0.0
 71
         1
 72
         1
  1
\W1.024;\A1;8-M5X20
  0
MTEXT
  5
12A
100
AcDbEntity
  8
PV
  6
CONTINUOUS
 62
       110
100
AcDbMText
 10
-77.2651056348
 20
-63.5323388808
 30
0.0
 40
3.2000000477
 41
0.0
 71
         1
 72
         1
  1
\T1.034;\W1.053;\A1;MODEL NUMBER
  0
MTEXT
  5
12B
100
AcDbEntity
  8
PV
  6
CONTINUOUS
 62
       110
100
AcDbMText
 10
58.6972510154
 20
-63.3999998808
 30
0.0
 40
3.2000000477
 41
0.0
 71
         1
 72
         1
  1
\W1.037;\A1;PL032X050KE-SS
  0
MTEXT
  5
12C
100
AcDbEntity
  8
PV
  6
CONTINUOUS
 62
       110
100
AcDbMText
 10
43.8638540198
 20
-75.3999998808
 30
0.0
 40
3.2000000477
 41
0.0
 71
         1
 72
         1
  1
\W1.286;\A1;5.3
  0
MTEXT
  5
12D
100
AcDbEntity
  8
PV
  6
CONTINUOUS
 62
       110
100
AcDbMText
 10
43.7428449638
 20
-81.3999998808
 30
0.0
 40
3.2000000477
 41
0.0
 71
         1
 72
         1
  1
\W1.059;\A1;302
  0
MTEXT
  5
12E
100
AcDbEntity
  8
PV
  6
CONTINUOUS
 62
       110
100
AcDbMText
 10
40.6892510035
 20
-87.3999998808
 30
0.0
 40
3.2000000477
 41
0.0
 71
         1
 72
         1
  1
\W1.333;\A1;17.8
  0
MTEXT
  5
12F
100
AcDbEntity
  8
PV
  6
CONTINUOUS
 62
       110
100
AcDbMText
 10
46.7114730079
 20
-93.3999998808
 30
0.0
 40
3.2000000477
 41
0.0
 71
         1
 72
         1
  1
\A1;77
  0
MTEXT
  5
130
100
AcDbEntity
  8
PV
  6
CONTINUOUS
 62
       110
100
AcDbMText
 10
46.7114730079
 20
-99.3999998808
 30
0.0
 40
3.2000000477
 41
0.0
 71
         1
 72
         1
  1
\A1;49
  0
MTEXT
  5
131
100
AcDbEntity
  8
PV
  6
CONTINUOUS
 62
       110
100
AcDbMText
 10
40.6518239921
 20
-105.4000001192
 30
0.0
 40
3.2000000477
 41
0.0
 71
         1
 72
         1
  1
\W1.263;\A1;0.23
  0
MTEXT
  5
132
100
AcDbEntity
  8
PV
  6
CONTINUOUS
 62
       110
100
AcDbMText
 10
56.2848320102
 20
-75.3999998808
 30
0.0
 40
3.2000000477
 41
0.0
 71
         1
 72
         1
  1
\W0.833;\A1;Ｎ・ｍ
  0
MTEXT
  5
133
100
AcDbEntity
  8
PV
  6
CONTINUOUS
 62
       110
100
AcDbMText
 10
56.2848320102
 20
-81.3999998808
 30
0.0
 40
3.2000000477
 41
0.0
 71
         1
 72
         1
  1
\W0.833;\A1;Ｎ・ｍ
  0
MTEXT
  5
134
100
AcDbEntity
  8
PV
  6
CONTINUOUS
 62
       110
100
AcDbMText
 10
55.7514990079
 20
-87.3999998808
 30
0.0
 40
3.2000000477
 41
0.0
 71
         1
 72
         1
  1
\A1;kN
  0
MTEXT
  5
135
100
AcDbEntity
  8
PV
  6
CONTINUOUS
 62
       110
100
AcDbMText
 10
55.7514990079
 20
-93.3999998808
 30
0.0
 40
3.2000000477
 41
0.0
 71
         1
 72
         1
  1
\A1;MPa
  0
MTEXT
  5
136
100
AcDbEntity
  8
PV
  6
CONTINUOUS
 62
       110
100
AcDbMText
 10
55.7514990079
 20
-99.3999998808
 30
0.0
 40
3.2000000477
 41
0.0
 71
         1
 72
         1
  1
\A1;MPa
  0
MTEXT
  5
137
100
AcDbEntity
  8
PV
  6
CONTINUOUS
 62
       110
100
AcDbMText
 10
55.7514990079
 20
-105.3999998808
 30
0.0
 40
3.2000000477
 41
0.0
 71
         1
 72
         1
  1
\A1;kg
  0
MTEXT
  5
138
100
AcDbEntity
  8
PV
  6
CONTINUOUS
 62
       110
100
AcDbMText
 10
91.2848360102
 20
-81.3999998808
 30
0.0
 40
3.2000000477
 41
0.0
 71
         1
 72
         1
  1
\W0.833;\A1;ｋｇｆ・ｍ｝
  0
MTEXT
  5
139
100
AcDbEntity
  8
PV
  6
CONTINUOUS
 62
       110
100
AcDbMText
 10
91.2848360102
 20
-75.3999998808
 30
0.0
 40
3.2000000477
 41
0.0
 71
         1
 72
         1
  1
\W0.833;\A1;ｋｇｆ・ｍ｝
  0
MTEXT
  5
13A
100
AcDbEntity
  8
PV
  6
CONTINUOUS
 62
       110
100
AcDbMText
 10
90.7999880055
 20
-87.3999998808
 30
0.0
 40
3.2000000477
 41
0.0
 71
         1
 72
         1
  1
\W1.091;\A1;kgf\}
  0
MTEXT
  5
13B
100
AcDbEntity
  8
PV
  6
CONTINUOUS
 62
       110
100
AcDbMText
 10
90.7515030079
 20
-93.3999998808
 30
0.0
 40
3.2000000477
 41
0.0
 71
         1
 72
         1
  1
\A1;kgf/mm
  0
MTEXT
  5
13C
100
AcDbEntity
  8
PV
  6
CONTINUOUS
 62
       110
100
AcDbMText
 10
109.791501004
 20
-92.9999999404
 30
0.0
 40
1.6000000238
 41
0.0
 71
         1
 72
         1
  1
\A1;2
  0
MTEXT
  5
13D
100
AcDbEntity
  8
PV
  6
CONTINUOUS
 62
       110
100
AcDbMText
 10
109.4181689881
 20
-93.3999998808
 30
0.0
 40
3.2000000477
 41
0.0
 71
         1
 72
         1
  1
\W1.500;\A1;\}
  0
MTEXT
  5
13E
100
AcDbEntity
  8
PV
  6
CONTINUOUS
 62
       110
100
AcDbMText
 10
90.7515030079
 20
-99.3999998808
 30
0.0
 40
3.2000000477
 41
0.0
 71
         1
 72
         1
  1
\A1;kgf/mm
  0
MTEXT
  5
13F
100
AcDbEntity
  8
PV
  6
CONTINUOUS
 62
       110
100
AcDbMText
 10
109.791501004
 20
-98.9999999404
 30
0.0
 40
1.6000000238
 41
0.0
 71
         1
 72
         1
  1
\A1;2
  0
MTEXT
  5
140
100
AcDbEntity
  8
PV
  6
CONTINUOUS
 62
       110
100
AcDbMText
 10
109.4181689881
 20
-99.3999998808
 30
0.0
 40
3.2000000477
 41
0.0
 71
         1
 72
         1
  1
\W1.500;\A1;\}
  0
MTEXT
  5
141
100
AcDbEntity
  8
PV
  6
CONTINUOUS
 62
       110
100
AcDbMText
 10
-76.3272019921
 20
-105.5323008808
 30
0.0
 40
3.2000000477
 41
0.0
 71
         1
 72
         1
  1
\A1;MASS
  0
MTEXT
  5
142
100
AcDbEntity
  8
PV
  6
CONTINUOUS
 62
       110
100
AcDbMText
 10
-21.3136049846
 20
-33.7852178808
 30
0.0
 40
3.2000000477
 41
0.0
 71
         1
 72
         1
  1
\W1.037;\A1;PL032X050KE-SS
  0
MTEXT
  5
143
100
AcDbEntity
  8
PV
  6
CONTINUOUS
 62
       110
100
AcDbMText
 10
-21.3219359227
 20
-27.7852178808
 30
0.0
 40
3.2000000477
 41
0.0
 71
         1
 72
         1
  1
\T1.006;\W1.063;\A1;POWER LOCK
  0
ENDSEC
  0
SECTION
  2
OBJECTS
  0
DICTIONARY
  5
19
100
AcDbDictionary
  3
ACAD_GROUP
350
1A
  3
ACAD_MLINESTYLE
350
1B
  0
DICTIONARY
  5
1A
102
{ACAD_REACTORS
330
19
102
}
100
AcDbDictionary
  0
DICTIONARY
  5
1B
102
{ACAD_REACTORS
330
19
102
}
100
AcDbDictionary
  3
STANDARD
350
1C
  0
MLINESTYLE
  5
1C
102
{ACAD_REACTORS
330
1B
102
}
100
AcDbMlineStyle
  2
Standard
 70
         0
  3

 62
         0
 51
90.0
 52
90.0
 71
         2
 49
0.5
 62
       256
  6
ByLayer
 49
-0.5
 62
       256
  6
ByLayer
  0
ENDSEC
  0
EOF
