  0
SECTION
  2
HEADER
  9
$ACADVER
  1
AC1014
  9
$ACADMAINTVER
 70
         0
  9
$DWGCODEPAGE
  3
ANSI_932
  9
$INSBASE
 10
0.0
 20
0.0
 30
0.0
  9
$EXTMIN
 10
-81.712
 20
-110.0
 30
0.0
  9
$EXTMAX
 10
116.711
 20
63.5075140316
 30
0.0
  9
$LIMMIN
 10
-81.712
 20
-110.0
  9
$LIMMAX
 10
116.711
 20
63.5075140316
  9
$ORTHOMODE
 70
         0
  9
$REGENMODE
 70
         1
  9
$FILLMODE
 70
         1
  9
$QTEXTMODE
 70
         0
  9
$MIRRTEXT
 70
         1
  9
$DRAGMODE
 70
         2
  9
$LTSCALE
 40
1.0
  9
$OSMODE
 70
         0
  9
$ATTMODE
 70
         1
  9
$TEXTSIZE
 40
3.2000000477
  9
$TRACEWID
 40
0.05
  9
$TEXTSTYLE
  7
MX_NOTE_STANDARD
  9
$CLAYER
  8
0
  9
$CELTYPE
  6
CONTINUOUS
  9
$CECOLOR
 62
       256
  9
$CELTSCALE
 40
1.0
  9
$DELOBJ
 70
         1
  9
$DISPSILH
 70
         0
  9
$DIMSCALE
 40
1.0
  9
$DIMASZ
 40
2.5
  9
$DIMEXO
 40
0.0
  9
$DIMDLI
 40
3.75
  9
$DIMRND
 40
0.0
  9
$DIMDLE
 40
0.0
  9
$DIMEXE
 40
2.5
  9
$DIMTP
 40
0.0
  9
$DIMTM
 40
0.0
  9
$DIMTXT
 40
3.2000000477
  9
$DIMCEN
 40
2.5
  9
$DIMTSZ
 40
0.0
  9
$DIMTOL
 70
         0
  9
$DIMLIM
 70
         0
  9
$DIMTIH
 70
         0
  9
$DIMTOH
 70
         0
  9
$DIMSE1
 70
         0
  9
$DIMSE2
 70
         0
  9
$DIMTAD
 70
         1
  9
$DIMZIN
 70
         8
  9
$DIMBLK
  1

  9
$DIMASO
 70
         1
  9
$DIMSHO
 70
         1
  9
$DIMPOST
  1

  9
$DIMAPOST
  1

  9
$DIMALT
 70
         0
  9
$DIMALTD
 70
         4
  9
$DIMALTF
 40
0.0393700787
  9
$DIMLFAC
 40
1.0
  9
$DIMTOFL
 70
         1
  9
$DIMTVP
 40
0.0
  9
$DIMTIX
 70
         0
  9
$DIMSOXD
 70
         0
  9
$DIMSAH
 70
         1
  9
$DIMBLK1
  1
_OPEN30
  9
$DIMBLK2
  1
_OPEN30
  9
$DIMSTYLE
  2
MXDIMSTYLE
  9
$DIMCLRD
 70
         0
  9
$DIMCLRE
 70
         0
  9
$DIMCLRT
 70
         0
  9
$DIMTFAC
 40
1.0
  9
$DIMGAP
 40
1.0
  9
$DIMJUST
 70
         0
  9
$DIMSD1
 70
         0
  9
$DIMSD2
 70
         0
  9
$DIMTOLJ
 70
         0
  9
$DIMTZIN
 70
         0
  9
$DIMALTZ
 70
         0
  9
$DIMALTTZ
 70
         0
  9
$DIMFIT
 70
         3
  9
$DIMUPT
 70
         0
  9
$DIMUNIT
 70
         2
  9
$DIMDEC
 70
         2
  9
$DIMTDEC
 70
         2
  9
$DIMALTU
 70
         2
  9
$DIMALTTD
 70
         4
  9
$DIMTXSTY
  7
MX_NOTE_STANDARD
  9
$DIMAUNIT
 70
         0
  9
$LUNITS
 70
         2
  9
$LUPREC
 70
         4
  9
$SKETCHINC
 40
0.1
  9
$FILLETRAD
 40
0.0
  9
$AUNITS
 70
         0
  9
$AUPREC
 70
         0
  9
$MENU
  1
acad
  9
$ELEVATION
 40
0.0
  9
$PELEVATION
 40
0.0
  9
$THICKNESS
 40
0.0
  9
$LIMCHECK
 70
         0
  9
$BLIPMODE
 70
         1
  9
$CHAMFERA
 40
0.0
  9
$CHAMFERB
 40
0.0
  9
$CHAMFERC
 40
0.0
  9
$CHAMFERD
 40
0.0
  9
$SKPOLY
 70
         0
  9
$TDCREATE
 40
2456603.419178241
  9
$TDUPDATE
 40
2456603.419178241
  9
$TDINDWG
 40
0.0000000000
  9
$TDUSRTIMER
 40
0.0000000000
  9
$USRTIMER
 70
         1
  9
$ANGBASE
 50
0.0
  9
$ANGDIR
 70
         0
  9
$PDMODE
 70
         0
  9
$PDSIZE
 40
0.0
  9
$PLINEWID
 40
0.0
  9
$COORDS
 70
         1
  9
$SPLFRAME
 70
         0
  9
$SPLINETYPE
 70
         6
  9
$SPLINESEGS
 70
         8
  9
$ATTDIA
 70
         0
  9
$ATTREQ
 70
         1
  9
$HANDLING
 70
         1
  9
$HANDSEED
  5
BF
  9
$SURFTAB1
 70
         6
  9
$SURFTAB2
 70
         6
  9
$SURFTYPE
 70
         6
  9
$SURFU
 70
         6
  9
$SURFV
 70
         6
  9
$UCSNAME
  2

  9
$UCSORG
 10
0.0
 20
0.0
 30
0.0
  9
$UCSXDIR
 10
1.0
 20
0.0
 30
0.0
  9
$UCSYDIR
 10
0.0
 20
1.0
 30
0.0
  9
$PUCSNAME
  2

  9
$PUCSORG
 10
0.0
 20
0.0
 30
0.0
  9
$PUCSXDIR
 10
1.0
 20
0.0
 30
0.0
  9
$PUCSYDIR
 10
0.0
 20
1.0
 30
0.0
  9
$USERI1
 70
         0
  9
$USERI2
 70
         0
  9
$USERI3
 70
         0
  9
$USERI4
 70
         0
  9
$USERI5
 70
         0
  9
$USERR1
 40
0.0
  9
$USERR2
 40
0.0
  9
$USERR3
 40
0.0
  9
$USERR4
 40
0.0
  9
$USERR5
 40
0.0
  9
$WORLDVIEW
 70
         1
  9
$SHADEDGE
 70
         3
  9
$SHADEDIF
 70
        70
  9
$TILEMODE
 70
         1
  9
$MAXACTVP
 70
        16
  9
$PINSBASE
 10
0.0
 20
0.0
 30
0.0
  9
$PLIMCHECK
 70
         0
  9
$PEXTMIN
 10
1.0000000000E+20
 20
1.0000000000E+20
 30
1.0000000000E+20
  9
$PEXTMAX
 10
-1.0000000000E+20
 20
-1.0000000000E+20
 30
-1.0000000000E+20
  9
$PLIMMIN
 10
0.0
 20
0.0
  9
$PLIMMAX
 10
12.0
 20
9.0
  9
$UNITMODE
 70
         0
  9
$VISRETAIN
 70
         0
  9
$PLINEGEN
 70
         1
  9
$PSLTSCALE
 70
         0
  9
$TREEDEPTH
 70
      3020
  9
$PICKSTYLE
 70
         1
  9
$CMLSTYLE
  2
Standard
  9
$CMLJUST
 70
         0
  9
$CMLSCALE
 40
1.0
  9
$PROXYGRAPHICS
 70
         0
  9
$MEASUREMENT
 70
         1
  0
ENDSEC
  0
SECTION
  2
CLASSES
  0
CLASS
  1
LWPOLYLINE
  2
AcDbPolyline
  3
"AutoCAD"
 90
        0
280
         0
281
         1
  0
CLASS
  1
IMAGE
  2
AcDbRasterImage
  3
ISM
 90
      127
280
         0
281
         1
  0
CLASS
  1
OLE2FRAME
  2
AcDbOle2Frame
  3
""
 90
        0
280
         0
281
         1
  0
CLASS
  1
HATCH
  2
AcDbHatch
  3
"ACAD_SEDONA"
 90
        0
280
         0
281
         1
  0
CLASS
  1
DICTIONARYVAR
  2
AcDbDictionaryVar
  3
"AutoCAD"
 90
        0
280
         0
281
         0
  0
CLASS
  1
RASTERVARIABLES
  2
AcDbRasterVariables
  3
ISM
 90
        0
280
         0
281
         0
  0
CLASS
  1
IMAGEDEF
  2
AcDbRasterImageDef
  3
ISM
 90
        0
280
         0
281
         0
  0
CLASS
  1
IMAGEDEF_REACTOR
  2
AcDbRasterImageDefReactor
  3
ISM
 90
        1
280
         0
281
         0
  0
CLASS
  1
IDBUFFER
  2
AcDbIdBuffer
  3
"Acad"
 90
        0
280
         0
281
         0
  0
CLASS
  1
SPATIAL_FILTER
  2
AcDbSpatialFilter
  3
"Acad"
 90
        0
280
         0
281
         0
  0
CLASS
  1
XRECORD
  2
AcDbXrecord
  3
"<Built In>"
 90
        0
280
         0
281
         0
  0
CLASS
  1
SORTENTSTABLE
  2
AcDbSortentsTable
  3
"AutoCAD"
 90
        0
280
         0
281
         0
  0
CLASS
  1
LAYER_INDEX
  2
AcDbLayerIndex
  3
"Acad"
 90
        0
280
         0
281
         0
  0
CLASS
  1
SPATIAL_INDEX
  2
AcDbSpatialIndex
  3
"Acad"
 90
        0
280
         0
281
         0
  0
CLASS
  1
OBJECT_PTR
  2
CAseDLPNTableRecord
  3
"ASE-LPNTableRecord"
 90
        1
280
         0
281
         0
  0
CLASS
  1
LAYOUT
  2
AcDbLayout
  3
"AutoCAD 2000"
 90
        0
280
         0
281
         0
  0
CLASS
  1
PLOTSETTINGS
  2
AcDbPlotSettings
  3
"AutoCAD 2000"
 90
        0
280
         0
281
         0
  0
CLASS
  1
ACDBDICTIONARYWDFLT
  2
AcDbDictionaryWithDefault
  3
"AutoCAD 2000"
 90
        0
280
         0
281
         0
  0
CLASS
  1
ACDBPLACEHOLDER
  2
AcDbPlaceHolder
  3
"AutoCAD 2000"
 90
        0
280
         0
281
         0
  0
ENDSEC
  0
SECTION
  2
TABLES
  0
TABLE
  2
VPORT
  5
7
100
AcDbSymbolTable
 70
         1
  0
VPORT
  5
15
100
AcDbSymbolTableRecord
100
AcDbViewportTableRecord
  2
*ACTIVE
 70
         0
 10
0.0
 20
0.0
 11
1.0
 21
1.0
 12
17.4995
 22
-23.2462429842
 13
0.0
 23
0.0
 14
1.0
 24
1.0
 15
0.0
 25
0.0
 16
0.0
 26
0.0
 36
1.0
 17
0.0
 27
0.0
 37
0.0
 40
175.2425891719
 41
1.7320508076
 42
50.0
 43
0.0
 44
0.0
 50
0.0
 51
0.0
 71
         0
 72
       100
 73
         1
 74
         1
 75
         0
 76
         0
 77
         0
 78
         0
  0
ENDTAB
  0
TABLE
  2
LTYPE
  5
4
100
AcDbSymbolTable
 70
         4
  0
LTYPE
  5
11
100
AcDbSymbolTableRecord
100
AcDbLinetypeTableRecord
  2
BYBLOCK
 70
        64
  3

 72
        65
 73
         0
 40
0.0
  0
LTYPE
  5
12
100
AcDbSymbolTableRecord
100
AcDbLinetypeTableRecord
  2
BYLAYER
 70
        64
  3

 72
        65
 73
         0
 40
0.0
  0
LTYPE
  5
13
100
AcDbSymbolTableRecord
100
AcDbLinetypeTableRecord
  2
CONTINUOUS
 70
        64
  3
Solid line
 72
        65
 73
         0
 40
0.0
  0
LTYPE
  5
2B
100
AcDbSymbolTableRecord
100
AcDbLinetypeTableRecord
  2
CENTER
 70
        64
  3
Center ____ _ ____ _ ____ _ ____ _ ____ _ ____
 72
        65
 73
         4
 40
50.8
 49
31.75
 74
         0
 49
-6.35
 74
         0
 49
6.35
 74
         0
 49
-6.35
 74
         0
  0
ENDTAB
  0
TABLE
  2
LAYER
  5
2
100
AcDbSymbolTable
 70
         3
  0
LAYER
  5
14
100
AcDbSymbolTableRecord
100
AcDbLayerTableRecord
  2
0
 70
         0
 62
         7
  6
CONTINUOUS
  0
LAYER
  5
1D
100
AcDbSymbolTableRecord
100
AcDbLayerTableRecord
  2
PV
 70
         0
 62
         3
  6
CONTINUOUS
  0
LAYER
  5
1E
100
AcDbSymbolTableRecord
100
AcDbLayerTableRecord
  2
DEFPOINTS
 70
         0
 62
         7
  6
CONTINUOUS
  0
ENDTAB
  0
TABLE
  2
STYLE
  5
3
100
AcDbSymbolTable
 70
         2
  0
STYLE
  5
17
100
AcDbSymbolTableRecord
100
AcDbTextStyleTableRecord
  2
MX_NOTE_STANDARD
 70
         0
 40
0.0
 41
1.0
 50
0.0
 71
         0
 42
3.2000000477
  3
txt.shx
  4
extfont.shx
  0
STYLE
  5
7E
100
AcDbSymbolTableRecord
100
AcDbTextStyleTableRecord
  2
MX_DIMTXSTY_2
 70
         0
 40
0.0
 41
1.3
 50
0.0
 71
         0
 42
3.2000000477
  3
txt.shx
  4
extfont.shx
  0
ENDTAB
  0
TABLE
  2
VIEW
  5
5
100
AcDbSymbolTable
 70
         0
  0
ENDTAB
  0
TABLE
  2
UCS
  5
6
100
AcDbSymbolTable
 70
         0
  0
ENDTAB
  0
TABLE
  2
APPID
  5
8
100
AcDbSymbolTable
 70
         1
  0
APPID
  5
16
100
AcDbSymbolTableRecord
100
AcDbRegAppTableRecord
  2
ACAD
 70
         0
  0
ENDTAB
  0
TABLE
  2
DIMSTYLE
  5
9
100
AcDbSymbolTable
 70
         1
  0
DIMSTYLE
105
18
100
AcDbSymbolTableRecord
100
AcDbDimStyleTableRecord
  2
MXDIMSTYLE
 70
         0
  3

  4

  5

  6
_OPEN30
  7
_OPEN30
 40
1.0
 41
2.5
 42
0.0
 43
3.75
 44
2.5
 45
0.0
 46
0.0
 47
0.0
 48
0.0
 71
         0
 72
         0
 73
         0
 74
         0
 75
         0
 76
         0
 77
         1
 78
         8
140
3.2000000477
141
2.5
142
0.0
143
0.0393700787
144
1.0
145
0.0
146
1.0
147
1.0
170
         0
171
         4
172
         1
173
         1
174
         0
175
         0
176
         0
177
         0
178
         0
270
         2
271
         2
272
         2
273
         2
274
         4
275
         0
280
         0
281
         0
282
         0
283
         0
284
         0
285
         0
286
         0
287
         3
288
         0
340
17
  0
ENDTAB
  0
TABLE
  2
BLOCK_RECORD
  5
1
100
AcDbSymbolTable
 70
         7
  0
BLOCK_RECORD
  5
A
100
AcDbSymbolTableRecord
100
AcDbBlockTableRecord
  2
*MODEL_SPACE
  0
BLOCK_RECORD
  5
B
100
AcDbSymbolTableRecord
100
AcDbBlockTableRecord
  2
*PAPER_SPACE
  0
BLOCK_RECORD
  5
1F
100
AcDbSymbolTableRecord
100
AcDbBlockTableRecord
  2
ARROW
  0
BLOCK_RECORD
  5
20
100
AcDbSymbolTableRecord
100
AcDbBlockTableRecord
  2
_OPEN30
  0
BLOCK_RECORD
  5
76
100
AcDbSymbolTableRecord
100
AcDbBlockTableRecord
  2
*D2
  0
BLOCK_RECORD
  5
85
100
AcDbSymbolTableRecord
100
AcDbBlockTableRecord
  2
*D3
  0
BLOCK_RECORD
  5
93
100
AcDbSymbolTableRecord
100
AcDbBlockTableRecord
  2
*D4
  0
BLOCK_RECORD
  5
A2
100
AcDbSymbolTableRecord
100
AcDbBlockTableRecord
  2
*D5
  0
BLOCK_RECORD
  5
B1
100
AcDbSymbolTableRecord
100
AcDbBlockTableRecord
  2
*D6
  0
ENDTAB
  0
ENDSEC
  0
SECTION
  2
BLOCKS
  0
BLOCK
  5
D
100
AcDbEntity
  8
0
100
AcDbBlockBegin
  2
*MODEL_SPACE
 70
         0
 10
0.0
 20
0.0
 30
0.0
  3
*MODEL_SPACE
  1

  0
ENDBLK
  5
E
100
AcDbEntity
  8
0
100
AcDbBlockEnd
  0
BLOCK
  5
F
100
AcDbEntity
 67
         1
  8
0
100
AcDbBlockBegin
  2
*PAPER_SPACE
 70
         0
 10
0.0
 20
0.0
 30
0.0
  3
*PAPER_SPACE
  1

  0
ENDBLK
  5
10
100
AcDbEntity
 67
         1
  8
0
100
AcDbBlockEnd
  0
BLOCK
  5
26
100
AcDbEntity
  8
0
100
AcDbBlockBegin
  2
ARROW
 70
         0
 10
0.0
 20
0.0
 30
0.0
  3
ARROW
  1

  0
LWPOLYLINE
  5
27
100
AcDbEntity
  8
0
  6
CONTINUOUS
 62
       193
100
AcDbPolyline
 90
        3
 70
         0
 10
2.39968819
 20
0.642994514
 10
0.0
 20
0.0
 10
2.39968819
 20
-0.642994514
  0
ENDBLK
  5
28
100
AcDbEntity
  8
0
100
AcDbBlockEnd
  0
BLOCK
  5
21
100
AcDbEntity
  8
0
  6
ByBlock
 62
         0
100
AcDbBlockBegin
  2
_OPEN30
 70
         2
 10
0.0
 20
0.0
 30
0.0
  3
_OPEN30
  1

  0
LINE
  5
22
100
AcDbEntity
  8
0
  6
ByBlock
 62
         0
100
AcDbLine
 10
-1.0
 20
0.267949
 30
0.0
 11
0.0
 21
0.0
 31
0.0
  0
LINE
  5
23
100
AcDbEntity
  8
0
  6
ByBlock
 62
         0
100
AcDbLine
 10
0.0
 20
0.0
 30
0.0
 11
-1.0
 21
-0.267949
 31
0.0
  0
LINE
  5
24
100
AcDbEntity
  8
0
  6
ByBlock
 62
         0
100
AcDbLine
 10
0.0
 20
0.0
 30
0.0
 11
-1.0
 21
0.0
 31
0.0
  0
ENDBLK
  5
25
100
AcDbEntity
  8
0
  6
ByBlock
 62
         0
100
AcDbBlockEnd
  0
BLOCK
  5
77
100
AcDbEntity
  8
0
  6
ByBlock
 62
         0
100
AcDbBlockBegin
  2
*D2
 70
         1
 10
0.0
 20
0.0
 30
0.0
  3
*D2
  1

  0
LINE
  5
78
100
AcDbEntity
  8
0
  6
CONTINUOUS
 62
       110
100
AcDbLine
 10
59.0848762
 20
50.4287729
 30
0.0
 11
64.3848762
 21
50.4287729
 31
0.0
  0
LINE
  5
79
100
AcDbEntity
  8
0
  6
CONTINUOUS
 62
       110
100
AcDbLine
 10
64.3848762
 20
50.4287729
 30
0.0
 11
77.1153373921
 21
50.4287729
 31
0.0
  0
LINE
  5
7A
100
AcDbEntity
  8
0
  6
CONTINUOUS
 62
       110
100
AcDbLine
 10
59.0848762
 20
42.0146217083
 30
0.0
 11
59.0848762
 21
52.4287729
 31
0.0
  0
LINE
  5
7B
100
AcDbEntity
  8
0
  6
CONTINUOUS
 62
       110
100
AcDbLine
 10
64.3848762
 20
42.0146217083
 30
0.0
 11
64.3848762
 21
52.4287729
 31
0.0
  0
SOLID
  5
7C
100
AcDbEntity
  8
0
  6
CONTINUOUS
 62
       110
100
AcDbTrace
 10
60.0848762298
 20
50.262105895
 30
0.0
 11
60.0848762298
 21
50.595439905
 31
0.0
 12
59.0848762
 22
50.4287729
 32
0.0
 13
59.0848762
 23
50.4287729
 33
0.0
  0
SOLID
  5
7D
100
AcDbEntity
  8
0
  6
CONTINUOUS
 62
       110
100
AcDbTrace
 10
63.3848761702
 20
50.595439905
 30
0.0
 11
63.3848761702
 21
50.262105895
 31
0.0
 12
64.3848762
 22
50.4287729
 32
0.0
 13
64.3848762
 23
50.4287729
 33
0.0
  0
MTEXT
  5
7F
100
AcDbEntity
  8
0
  6
CONTINUOUS
 62
       110
100
AcDbMText
 10
72.3153373206
 20
53.0287729238
 30
0.0
 40
3.2000000477
 41
0.0
 71
         5
 72
         1
  1
\A1;5.3
  7
MX_DIMTXSTY_2
  0
POINT
  5
80
100
AcDbEntity
  8
DEFPOINTS
  6
CONTINUOUS
 62
         0
100
AcDbPoint
 10
59.0848762
 20
41.9521217083
 30
0.0
  0
POINT
  5
81
100
AcDbEntity
  8
DEFPOINTS
  6
CONTINUOUS
 62
         0
100
AcDbPoint
 10
64.3848762
 20
41.9521217083
 30
0.0
  0
POINT
  5
82
100
AcDbEntity
  8
DEFPOINTS
  6
CONTINUOUS
 62
         0
100
AcDbPoint
 10
64.3848762
 20
50.4287729
 30
0.0
  0
ENDBLK
  5
83
100
AcDbEntity
  8
0
  6
ByBlock
 62
         0
100
AcDbBlockEnd
  0
BLOCK
  5
86
100
AcDbEntity
  8
0
  6
ByBlock
 62
         0
100
AcDbBlockBegin
  2
*D3
 70
         1
 10
0.0
 20
0.0
 30
0.0
  3
*D3
  1

  0
LINE
  5
87
100
AcDbEntity
  8
0
  6
CONTINUOUS
 62
       110
100
AcDbLine
 10
58.0848762
 20
58.2408475
 30
0.0
 11
64.3848762
 21
58.2408475
 31
0.0
  0
LINE
  5
88
100
AcDbEntity
  8
0
  6
CONTINUOUS
 62
       110
100
AcDbLine
 10
64.3848762
 20
58.2408475
 30
0.0
 11
77.665483495
 21
58.2408475
 31
0.0
  0
LINE
  5
89
100
AcDbEntity
  8
0
  6
CONTINUOUS
 62
       110
100
AcDbLine
 10
58.0848762
 20
41.9643944818
 30
0.0
 11
58.0848762
 21
60.2408475
 31
0.0
  0
LINE
  5
8A
100
AcDbEntity
  8
0
  6
CONTINUOUS
 62
       110
100
AcDbLine
 10
64.3848762
 20
42.0146226007
 30
0.0
 11
64.3848762
 21
60.2408475
 31
0.0
  0
SOLID
  5
8B
100
AcDbEntity
  8
0
  6
CONTINUOUS
 62
       110
100
AcDbTrace
 10
59.0848762298
 20
58.074180495
 30
0.0
 11
59.0848762298
 21
58.407514505
 31
0.0
 12
58.0848762
 22
58.2408475
 32
0.0
 13
58.0848762
 23
58.2408475
 33
0.0
  0
SOLID
  5
8C
100
AcDbEntity
  8
0
  6
CONTINUOUS
 62
       110
100
AcDbTrace
 10
63.3848761702
 20
58.407514505
 30
0.0
 11
63.3848761702
 21
58.074180495
 31
0.0
 12
64.3848762
 22
58.2408475
 32
0.0
 13
64.3848762
 23
58.2408475
 33
0.0
  0
MTEXT
  5
8D
100
AcDbEntity
  8
0
  6
CONTINUOUS
 62
       110
100
AcDbMText
 10
72.8654834235
 20
60.8408475238
 30
0.0
 40
3.2000000477
 41
0.0
 71
         5
 72
         1
  1
\A1;6.3
  7
MX_DIMTXSTY_2
  0
POINT
  5
8E
100
AcDbEntity
  8
DEFPOINTS
  6
CONTINUOUS
 62
         0
100
AcDbPoint
 10
58.0848762
 20
41.9018944818
 30
0.0
  0
POINT
  5
8F
100
AcDbEntity
  8
DEFPOINTS
  6
CONTINUOUS
 62
         0
100
AcDbPoint
 10
64.3848762
 20
41.9521226007
 30
0.0
  0
POINT
  5
90
100
AcDbEntity
  8
DEFPOINTS
  6
CONTINUOUS
 62
         0
100
AcDbPoint
 10
64.3848762
 20
58.2408475
 30
0.0
  0
ENDBLK
  5
91
100
AcDbEntity
  8
0
  6
ByBlock
 62
         0
100
AcDbBlockEnd
  0
BLOCK
  5
94
100
AcDbEntity
  8
0
  6
ByBlock
 62
         0
100
AcDbBlockBegin
  2
*D4
 70
         1
 10
0.0
 20
0.0
 30
0.0
  3
*D4
  1

  0
LINE
  5
95
100
AcDbEntity
  8
0
  6
CONTINUOUS
 62
       110
100
AcDbLine
 10
45.6415109
 20
11.9521219
 30
0.0
 11
45.6415109
 21
39.9521219
 31
0.0
  0
LINE
  5
96
100
AcDbEntity
  8
0
  6
CONTINUOUS
 62
       110
100
AcDbLine
 10
58.022375997
 20
11.9521219
 30
0.0
 11
43.6415109
 21
11.9521219
 31
0.0
  0
LINE
  5
97
100
AcDbEntity
  8
0
  6
CONTINUOUS
 62
       110
100
AcDbLine
 10
58.022375997
 20
39.9521219
 30
0.0
 11
43.6415109
 21
39.9521219
 31
0.0
  0
LINE
  5
98
100
AcDbEntity
  8
0
  6
CONTINUOUS
 62
       110
100
AcDbLine
 10
45.6415109
 20
11.9521219
 30
0.0
 11
45.6415109
 21
7.9521219
 31
0.0
  0
LINE
  5
99
100
AcDbEntity
  8
0
  6
CONTINUOUS
 62
       110
100
AcDbLine
 10
45.6415109
 20
39.9521219
 30
0.0
 11
45.6415109
 21
43.9521219
 31
0.0
  0
SOLID
  5
9A
100
AcDbEntity
  8
0
  6
CONTINUOUS
 62
       110
100
AcDbTrace
 10
45.474843895
 20
10.9521218702
 30
0.0
 11
45.808177905
 21
10.9521218702
 31
0.0
 12
45.6415109
 22
11.9521219
 32
0.0
 13
45.6415109
 23
11.9521219
 33
0.0
  0
SOLID
  5
9B
100
AcDbEntity
  8
0
  6
CONTINUOUS
 62
       110
100
AcDbTrace
 10
45.808177905
 20
40.9521219298
 30
0.0
 11
45.474843895
 21
40.9521219298
 31
0.0
 12
45.6415109
 22
39.9521219
 32
0.0
 13
45.6415109
 23
39.9521219
 33
0.0
  0
MTEXT
  5
9C
100
AcDbEntity
  8
0
  6
CONTINUOUS
 62
       110
100
AcDbMText
 10
43.0415108762
 20
25.6687890753
 30
0.0
 40
3.2000000477
 41
0.0
 71
         5
 72
         1
  1
\A1;\U+220528
 11
0.0
 21
1.0
 31
0.0
  0
POINT
  5
9D
100
AcDbEntity
  8
DEFPOINTS
  6
CONTINUOUS
 62
         0
100
AcDbPoint
 10
58.084875997
 20
11.9521219
 30
0.0
  0
POINT
  5
9E
100
AcDbEntity
  8
DEFPOINTS
  6
CONTINUOUS
 62
         0
100
AcDbPoint
 10
58.084875997
 20
39.9521219
 30
0.0
  0
POINT
  5
9F
100
AcDbEntity
  8
DEFPOINTS
  6
CONTINUOUS
 62
         0
100
AcDbPoint
 10
45.6415109
 20
39.9521219
 30
0.0
  0
ENDBLK
  5
A0
100
AcDbEntity
  8
0
  6
ByBlock
 62
         0
100
AcDbBlockEnd
  0
BLOCK
  5
A3
100
AcDbEntity
  8
0
  6
ByBlock
 62
         0
100
AcDbBlockBegin
  2
*D5
 70
         1
 10
0.0
 20
0.0
 30
0.0
  3
*D5
  1

  0
LINE
  5
A4
100
AcDbEntity
  8
0
  6
CONTINUOUS
 62
       110
100
AcDbLine
 10
79.9706275
 20
41.9521219
 30
0.0
 11
79.9706275
 21
9.95212191
 31
0.0
  0
LINE
  5
A5
100
AcDbEntity
  8
0
  6
CONTINUOUS
 62
       110
100
AcDbLine
 10
64.4473759665
 20
41.9521219
 30
0.0
 11
81.9706275
 21
41.9521219
 31
0.0
  0
LINE
  5
A6
100
AcDbEntity
  8
0
  6
CONTINUOUS
 62
       110
100
AcDbLine
 10
64.4473759665
 20
9.95212191
 30
0.0
 11
81.9706275
 21
9.95212191
 31
0.0
  0
LINE
  5
A7
100
AcDbEntity
  8
0
  6
CONTINUOUS
 62
       110
100
AcDbLine
 10
79.9706275
 20
41.9521219
 30
0.0
 11
79.9706275
 21
45.9521219
 31
0.0
  0
LINE
  5
A8
100
AcDbEntity
  8
0
  6
CONTINUOUS
 62
       110
100
AcDbLine
 10
79.9706275
 20
9.95212191
 30
0.0
 11
79.9706275
 21
5.95212191
 31
0.0
  0
SOLID
  5
A9
100
AcDbEntity
  8
0
  6
CONTINUOUS
 62
       110
100
AcDbTrace
 10
80.137294505
 20
42.9521219298
 30
0.0
 11
79.803960495
 21
42.9521219298
 31
0.0
 12
79.9706275
 22
41.9521219
 32
0.0
 13
79.9706275
 23
41.9521219
 33
0.0
  0
SOLID
  5
AA
100
AcDbEntity
  8
0
  6
CONTINUOUS
 62
       110
100
AcDbTrace
 10
79.803960495
 20
8.9521218802
 30
0.0
 11
80.137294505
 21
8.9521218802
 31
0.0
 12
79.9706275
 22
9.95212191
 32
0.0
 13
79.9706275
 23
9.95212191
 33
0.0
  0
MTEXT
  5
AB
100
AcDbEntity
  8
0
  6
CONTINUOUS
 62
       110
100
AcDbMText
 10
77.3706274762
 20
25.6687890753
 30
0.0
 40
3.2000000477
 41
0.0
 71
         5
 72
         1
  1
\A1;\U+220532
 11
0.0
 21
1.0
 31
0.0
  0
POINT
  5
AC
100
AcDbEntity
  8
DEFPOINTS
  6
CONTINUOUS
 62
         0
100
AcDbPoint
 10
64.3848759665
 20
41.9521219
 30
0.0
  0
POINT
  5
AD
100
AcDbEntity
  8
DEFPOINTS
  6
CONTINUOUS
 62
         0
100
AcDbPoint
 10
64.3848759665
 20
9.95212191
 30
0.0
  0
POINT
  5
AE
100
AcDbEntity
  8
DEFPOINTS
  6
CONTINUOUS
 62
         0
100
AcDbPoint
 10
79.9706275
 20
9.95212191
 30
0.0
  0
ENDBLK
  5
AF
100
AcDbEntity
  8
0
  6
ByBlock
 62
         0
100
AcDbBlockEnd
  0
BLOCK
  5
B2
100
AcDbEntity
  8
0
  6
ByBlock
 62
         0
100
AcDbBlockBegin
  2
*D6
 70
         1
 10
0.0
 20
0.0
 30
0.0
  3
*D6
  1

  0
LINE
  5
B3
100
AcDbEntity
  8
0
  6
CONTINUOUS
 62
       110
100
AcDbLine
 10
63.3848762
 20
1.2457115
 30
0.0
 11
58.0848762
 21
1.2457115
 31
0.0
  0
LINE
  5
B4
100
AcDbEntity
  8
0
  6
CONTINUOUS
 62
       110
100
AcDbLine
 10
58.0848762
 20
1.2457115
 30
0.0
 11
46.1696682656
 21
1.2457115
 31
0.0
  0
LINE
  5
B5
100
AcDbEntity
  8
0
  6
CONTINUOUS
 62
       110
100
AcDbLine
 10
63.3848762
 20
11.5294668024
 30
0.0
 11
63.3848762
 21
-0.7542885
 31
0.0
  0
LINE
  5
B6
100
AcDbEntity
  8
0
  6
CONTINUOUS
 62
       110
100
AcDbLine
 10
58.0848762
 20
9.9398500269
 30
0.0
 11
58.0848762
 21
-0.7542885
 31
0.0
  0
SOLID
  5
B7
100
AcDbEntity
  8
0
  6
CONTINUOUS
 62
       110
100
AcDbTrace
 10
62.3848761702
 20
1.412378505
 30
0.0
 11
62.3848761702
 21
1.079044495
 31
0.0
 12
63.3848762
 22
1.2457115
 32
0.0
 13
63.3848762
 23
1.2457115
 33
0.0
  0
SOLID
  5
B8
100
AcDbEntity
  8
0
  6
CONTINUOUS
 62
       110
100
AcDbTrace
 10
59.0848762298
 20
1.079044495
 30
0.0
 11
59.0848762298
 21
1.412378505
 31
0.0
 12
58.0848762
 22
1.2457115
 32
0.0
 13
58.0848762
 23
1.2457115
 33
0.0
  0
MTEXT
  5
B9
100
AcDbEntity
  8
0
  6
CONTINUOUS
 62
       110
100
AcDbMText
 10
50.9696683371
 20
3.8457115238
 30
0.0
 40
3.2000000477
 41
0.0
 71
         5
 72
         1
  1
\A1;5.3
  7
MX_DIMTXSTY_2
 11
1.0
 21
0.0
 31
0.0
  0
POINT
  5
BA
100
AcDbEntity
  8
DEFPOINTS
  6
CONTINUOUS
 62
         0
100
AcDbPoint
 10
63.3848762
 20
11.5919668024
 30
0.0
  0
POINT
  5
BB
100
AcDbEntity
  8
DEFPOINTS
  6
CONTINUOUS
 62
         0
100
AcDbPoint
 10
58.0848762
 20
10.0023500269
 30
0.0
  0
POINT
  5
BC
100
AcDbEntity
  8
DEFPOINTS
  6
CONTINUOUS
 62
         0
100
AcDbPoint
 10
58.0848762
 20
1.2457115
 30
0.0
  0
ENDBLK
  5
BD
100
AcDbEntity
  8
0
  6
ByBlock
 62
         0
100
AcDbBlockEnd
  0
ENDSEC
  0
SECTION
  2
ENTITIES
  0
MTEXT
  5
29
100
AcDbEntity
  8
0
  6
CONTINUOUS
 62
       110
100
AcDbMText
 10
-33.2989252171
 20
-51.6469998498
 30
0.0
 40
3.2000000477
 41
0.0
 71
         1
 72
         1
  1
\T1.025;\W1.058;\A1;TSUBAKI
  0
MTEXT
  5
2A
100
AcDbEntity
  8
0
  6
CONTINUOUS
 62
       110
100
AcDbMText
 10
9.7530748429
 20
-20.7689998498
 30
0.0
 40
3.2000000477
 41
0.0
 71
         1
 72
         1
  1
\T1.025;\W1.058;\A1;TSUBAKI
  0
LINE
  5
2C
100
AcDbEntity
  8
PV
  6
CENTER
 62
         3
100
AcDbLine
 10
-11.9151238
 20
44.2181219
 30
0.0
 11
-11.9151238
 21
7.41612191
 31
0.0
  0
LINE
  5
2D
100
AcDbEntity
  8
PV
  6
CENTER
 62
         3
100
AcDbLine
 10
-28.6931238
 20
25.9521219
 30
0.0
 11
5.02987621
 21
25.9521219
 31
0.0
  0
CIRCLE
  5
2E
100
AcDbEntity
  8
PV
  6
CONTINUOUS
 62
         3
100
AcDbCircle
 10
-11.9151238
 20
25.9521219
 30
0.0
 40
15.846
  0
LINE
  5
2F
100
AcDbEntity
  8
PV
  6
CENTER
 62
         3
100
AcDbLine
 10
55.9258762
 20
25.9521219
 30
0.0
 11
65.7748762
 21
25.9521219
 31
0.0
  0
LINE
  5
30
100
AcDbEntity
  8
PV
  6
CONTINUOUS
 62
         3
100
AcDbLine
 10
59.0848762
 20
41.7521219
 30
0.0
 11
59.0848762
 21
41.7511219
 31
0.0
  0
LINE
  5
31
100
AcDbEntity
  8
PV
  6
CONTINUOUS
 62
         3
100
AcDbLine
 10
-81.712
 20
-56.0
 30
0.0
 11
116.711
 21
-56.0
 31
0.0
  0
LINE
  5
32
100
AcDbEntity
  8
PV
  6
CONTINUOUS
 62
         3
100
AcDbLine
 10
-81.712
 20
-62.0
 30
0.0
 11
116.711
 21
-62.0
 31
0.0
  0
LINE
  5
33
100
AcDbEntity
  8
PV
  6
CONTINUOUS
 62
         3
100
AcDbLine
 10
-81.712
 20
-68.0
 30
0.0
 11
116.711
 21
-68.0
 31
0.0
  0
LINE
  5
34
100
AcDbEntity
  8
PV
  6
CONTINUOUS
 62
         3
100
AcDbLine
 10
-81.712
 20
-74.0
 30
0.0
 11
116.711
 21
-74.0
 31
0.0
  0
LINE
  5
35
100
AcDbEntity
  8
PV
  6
CONTINUOUS
 62
         3
100
AcDbLine
 10
-81.712
 20
-80.0
 30
0.0
 11
116.711
 21
-80.0
 31
0.0
  0
LINE
  5
36
100
AcDbEntity
  8
PV
  6
CONTINUOUS
 62
         3
100
AcDbLine
 10
-81.712
 20
-86.0
 30
0.0
 11
116.711
 21
-86.0
 31
0.0
  0
LINE
  5
37
100
AcDbEntity
  8
PV
  6
CONTINUOUS
 62
         3
100
AcDbLine
 10
-81.712
 20
-92.0
 30
0.0
 11
116.711
 21
-92.0
 31
0.0
  0
LINE
  5
38
100
AcDbEntity
  8
PV
  6
CONTINUOUS
 62
         3
100
AcDbLine
 10
-81.712
 20
-98.0
 30
0.0
 11
116.711
 21
-98.0
 31
0.0
  0
LINE
  5
39
100
AcDbEntity
  8
PV
  6
CONTINUOUS
 62
         3
100
AcDbLine
 10
-81.712
 20
-104.0
 30
0.0
 11
116.711
 21
-104.0
 31
0.0
  0
LINE
  5
3A
100
AcDbEntity
  8
PV
  6
CONTINUOUS
 62
         3
100
AcDbLine
 10
-81.712
 20
-110.0
 30
0.0
 11
116.711
 21
-110.0
 31
0.0
  0
LINE
  5
3B
100
AcDbEntity
  8
PV
  6
CONTINUOUS
 62
         3
100
AcDbLine
 10
-81.712
 20
-50.0
 30
0.0
 11
-81.712
 21
-110.0
 31
0.0
  0
LINE
  5
3C
100
AcDbEntity
  8
PV
  6
CONTINUOUS
 62
         3
100
AcDbLine
 10
-81.712
 20
-50.0
 30
0.0
 11
116.711
 21
-50.0
 31
0.0
  0
LINE
  5
3D
100
AcDbEntity
  8
PV
  6
CONTINUOUS
 62
         3
100
AcDbLine
 10
23.061
 20
-62.0
 30
0.0
 11
23.061
 21
-110.0
 31
0.0
  0
LINE
  5
3E
100
AcDbEntity
  8
PV
  6
CONTINUOUS
 62
         3
100
AcDbLine
 10
116.711
 20
-50.0
 30
0.0
 11
116.711
 21
-110.0
 31
0.0
  0
CIRCLE
  5
3F
100
AcDbEntity
  8
PV
  6
CONTINUOUS
 62
         3
100
AcDbCircle
 10
-11.9151238
 20
25.9521219
 30
0.0
 40
14.0
  0
CIRCLE
  5
40
100
AcDbEntity
  8
PV
  6
CONTINUOUS
 62
         3
100
AcDbCircle
 10
-11.9151238
 20
25.9521219
 30
0.0
 40
16.0
  0
LINE
  5
41
100
AcDbEntity
  8
PV
  6
CONTINUOUS
 62
         3
100
AcDbLine
 10
58.0848762
 20
39.9521219
 30
0.0
 11
63.3848762
 21
39.9521219
 31
0.0
  0
LINE
  5
42
100
AcDbEntity
  8
PV
  6
CONTINUOUS
 62
         3
100
AcDbLine
 10
59.0848762
 20
41.9521219
 30
0.0
 11
64.3848762
 21
41.9521219
 31
0.0
  0
LINE
  5
43
100
AcDbEntity
  8
PV
  6
CONTINUOUS
 62
         3
100
AcDbLine
 10
63.3848762
 20
40.1631219
 30
0.0
 11
63.3848762
 21
40.1521219
 31
0.0
  0
LINE
  5
44
100
AcDbEntity
  8
PV
  6
CONTINUOUS
 62
         3
100
AcDbLine
 10
58.0848762
 20
41.901894
 30
0.0
 11
64.3848762
 21
40.0123498
 31
0.0
  0
LINE
  5
45
100
AcDbEntity
  8
PV
  6
CONTINUOUS
 62
         3
100
AcDbLine
 10
58.0848762
 20
41.901894
 30
0.0
 11
58.0848762
 21
10.0023498
 31
0.0
  0
LINE
  5
46
100
AcDbEntity
  8
PV
  6
CONTINUOUS
 62
         3
100
AcDbLine
 10
63.3848762
 20
40.3122775
 30
0.0
 11
63.3848762
 21
11.5919663
 31
0.0
  0
LINE
  5
47
100
AcDbEntity
  8
PV
  6
CONTINUOUS
 62
         3
100
AcDbLine
 10
64.3848762
 20
41.9521219
 30
0.0
 11
64.3848762
 21
9.95212191
 31
0.0
  0
LINE
  5
48
100
AcDbEntity
  8
PV
  6
CONTINUOUS
 62
         3
100
AcDbLine
 10
63.3848762
 20
11.9521219
 30
0.0
 11
58.0848762
 21
11.9521219
 31
0.0
  0
LINE
  5
49
100
AcDbEntity
  8
PV
  6
CONTINUOUS
 62
         3
100
AcDbLine
 10
64.3848762
 20
9.95212191
 30
0.0
 11
59.0848762
 21
9.95212191
 31
0.0
  0
LINE
  5
4A
100
AcDbEntity
  8
PV
  6
CONTINUOUS
 62
         3
100
AcDbLine
 10
59.0848762
 20
10.1531219
 30
0.0
 11
59.0848762
 21
10.1521219
 31
0.0
  0
LINE
  5
4B
100
AcDbEntity
  8
PV
  6
CONTINUOUS
 62
         3
100
AcDbLine
 10
64.3848762
 20
11.891894
 30
0.0
 11
58.0848762
 21
10.0023498
 31
0.0
  0
MTEXT
  5
4C
100
AcDbEntity
  8
PV
  6
CONTINUOUS
 62
       110
100
AcDbMText
 10
9.7052887512
 20
-26.7689998498
 30
0.0
 40
3.2000000477
 41
0.0
 71
         1
 72
         1
  1
\T1.003;\W1.067;\A1;POWER LOCK
  0
MTEXT
  5
4D
100
AcDbEntity
  8
PV
  6
CONTINUOUS
 62
       110
100
AcDbMText
 10
9.7160576052
 20
-32.7690000882
 30
0.0
 40
3.2000000477
 41
0.0
 71
         1
 72
         1
  1
\W1.034;\A1;PL028X032E
  0
MTEXT
  5
4E
100
AcDbEntity
  8
PV
  6
CONTINUOUS
 62
       110
100
AcDbMText
 10
-33.3467113088
 20
-57.6469998498
 30
0.0
 40
3.2000000477
 41
0.0
 71
         1
 72
         1
  1
\T1.003;\W1.067;\A1;POWER LOCK
  0
MTEXT
  5
4F
100
AcDbEntity
  8
PV
  6
CONTINUOUS
 62
       110
100
AcDbMText
 10
-77.3076711572
 20
-75.5319998498
 30
0.0
 40
3.2000000477
 41
0.0
 71
         1
 72
         1
  1
\T1.030;\W1.095;\A1;ACTUAL LOCKING FORCE
  0
MTEXT
  5
50
100
AcDbEntity
  8
PV
  6
CONTINUOUS
 62
       110
100
AcDbMText
 10
-77.376333262
 20
-69.5320000882
 30
0.0
 40
3.2000000477
 41
0.0
 71
         1
 72
         1
  1
\A1;PRELOAD
  0
MTEXT
  5
51
100
AcDbEntity
  8
PV
  6
CONTINUOUS
 62
       110
100
AcDbMText
 10
-77.3139566529
 20
-81.5319998498
 30
0.0
 40
3.2000000477
 41
0.0
 71
         1
 72
         1
  1
\T1.028;\W1.060;\A1;TRANSMISSIBLE TORQUE
  0
MTEXT
  5
52
100
AcDbEntity
  8
PV
  6
CONTINUOUS
 62
       110
100
AcDbMText
 10
-77.3139566529
 20
-87.5319998498
 30
0.0
 40
3.2000000477
 41
0.0
 71
         1
 72
         1
  1
\T1.028;\W1.060;\A1;TRANSMISSIBLE THRUST
  0
MTEXT
  5
53
100
AcDbEntity
  8
PV
  6
CONTINUOUS
 62
       110
100
AcDbMText
 10
-77.318023034
 20
-93.5319998498
 30
0.0
 40
3.2000000477
 41
0.0
 71
         1
 72
         1
  1
\T1.025;\W1.104;\A1;CONTACT PRESSURE OF SHAFT
  0
MTEXT
  5
54
100
AcDbEntity
  8
PV
  6
CONTINUOUS
 62
       110
100
AcDbMText
 10
-77.3051064519
 20
-99.5319998498
 30
0.0
 40
3.2000000477
 41
0.0
 71
         1
 72
         1
  1
\T1.030;\W1.126;\A1;CONTACT PRESSURE OF HUB BORE
  0
MTEXT
  5
55
100
AcDbEntity
  8
PV
  6
CONTINUOUS
 62
       110
100
AcDbMText
 10
41.2380176194
 20
-105.4000000882
 30
0.0
 40
3.2000000477
 41
0.0
 71
         1
 72
         1
  1
\W1.263;\A1;9.05
  0
MTEXT
  5
56
100
AcDbEntity
  8
PV
  6
CONTINUOUS
 62
       110
100
AcDbMText
 10
75.3164449255
 20
-99.4000000882
 30
0.0
 40
3.2000000477
 41
0.0
 71
         1
 72
         1
  1
\W1.333;\A1;\{8.8
  0
MTEXT
  5
57
100
AcDbEntity
  8
PV
  6
CONTINUOUS
 62
       110
100
AcDbMText
 10
73.6121309076
 20
-93.3999998498
 30
0.0
 40
3.2000000477
 41
0.0
 71
         1
 72
         1
  1
\T1.219;\W1.604;\A1;  \{10
  0
MTEXT
  5
58
100
AcDbEntity
  8
PV
  6
CONTINUOUS
 62
       110
100
AcDbMText
 10
75.2148576295
 20
-87.4000000882
 30
0.0
 40
3.2000000477
 41
0.0
 71
         1
 72
         1
  1
\W1.143;\A1;\{560
  0
MTEXT
  5
59
100
AcDbEntity
  8
PV
  6
CONTINUOUS
 62
       110
100
AcDbMText
 10
72.3009859933
 20
-81.4000000882
 30
0.0
 40
3.2000000477
 41
0.0
 71
         1
 72
         1
  1
\W1.304;\A1;\{7.80
  0
MTEXT
  5
5A
100
AcDbEntity
  8
PV
  6
CONTINUOUS
 62
       110
100
AcDbMText
 10
71.9969264123
 20
-75.4000000882
 30
0.0
 40
3.2000000477
 41
0.0
 71
         1
 72
         1
  1
\W1.111;\A1;\{2520
  0
MTEXT
  5
5B
100
AcDbEntity
  8
PV
  6
CONTINUOUS
 62
       110
100
AcDbMText
 10
-77.3374519285
 20
-63.5319998498
 30
0.0
 40
3.2000000477
 41
0.0
 71
         1
 72
         1
  1
\T1.017;\W1.071;\A1;MODEL NUMBER
  0
MTEXT
  5
5C
100
AcDbEntity
  8
PV
  6
CONTINUOUS
 62
       110
100
AcDbMText
 10
54.4860575452
 20
-63.4000000882
 30
0.0
 40
3.2000000477
 41
0.0
 71
         1
 72
         1
  1
\W1.034;\A1;PL028X032E
  0
MTEXT
  5
5D
100
AcDbEntity
  8
PV
  6
CONTINUOUS
 62
       110
100
AcDbMText
 10
75.2148576295
 20
-69.4000000882
 30
0.0
 40
3.2000000477
 41
0.0
 71
         1
 72
         1
  1
\W1.143;\A1;\{730
  0
MTEXT
  5
5E
100
AcDbEntity
  8
PV
  6
CONTINUOUS
 62
       110
100
AcDbMText
 10
55.697666738
 20
-69.4000000882
 30
0.0
 40
3.2000000477
 41
0.0
 71
         1
 72
         1
  1
\A1;kN
  0
MTEXT
  5
5F
100
AcDbEntity
  8
PV
  6
CONTINUOUS
 62
       110
100
AcDbMText
 10
55.697666738
 20
-75.4000000882
 30
0.0
 40
3.2000000477
 41
0.0
 71
         1
 72
         1
  1
\A1;kN
  0
MTEXT
  5
60
100
AcDbEntity
  8
PV
  6
CONTINUOUS
 62
       110
100
AcDbMText
 10
56.230999515
 20
-81.3999998498
 30
0.0
 40
3.2000000477
 41
0.0
 71
         1
 72
         1
  1
\W0.833;\A1;Ｎ・ｍ
  0
MTEXT
  5
61
100
AcDbEntity
  8
PV
  6
CONTINUOUS
 62
       110
100
AcDbMText
 10
55.697666738
 20
-87.4000000882
 30
0.0
 40
3.2000000477
 41
0.0
 71
         1
 72
         1
  1
\A1;kN
  0
MTEXT
  5
62
100
AcDbEntity
  8
PV
  6
CONTINUOUS
 62
       110
100
AcDbMText
 10
55.697666738
 20
-93.4000000882
 30
0.0
 40
3.2000000477
 41
0.0
 71
         1
 72
         1
  1
\A1;MPa
  0
MTEXT
  5
63
100
AcDbEntity
  8
PV
  6
CONTINUOUS
 62
       110
100
AcDbMText
 10
55.697666738
 20
-99.4000000882
 30
0.0
 40
3.2000000477
 41
0.0
 71
         1
 72
         1
  1
\A1;MPa
  0
MTEXT
  5
64
100
AcDbEntity
  8
PV
  6
CONTINUOUS
 62
       110
100
AcDbMText
 10
55.697666738
 20
-105.4000000882
 30
0.0
 40
3.2000000477
 41
0.0
 71
         1
 72
         1
  1
\A1;g
  0
MTEXT
  5
65
100
AcDbEntity
  8
PV
  6
CONTINUOUS
 62
       110
100
AcDbMText
 10
90.7471515841
 20
-69.4000000882
 30
0.0
 40
3.2000000477
 41
0.0
 71
         1
 72
         1
  1
\W1.091;\A1;kgf\}
  0
MTEXT
  5
66
100
AcDbEntity
  8
PV
  6
CONTINUOUS
 62
       110
100
AcDbMText
 10
90.7471515841
 20
-75.4000000882
 30
0.0
 40
3.2000000477
 41
0.0
 71
         1
 72
         1
  1
\W1.091;\A1;kgf\}
  0
MTEXT
  5
67
100
AcDbEntity
  8
PV
  6
CONTINUOUS
 62
       110
100
AcDbMText
 10
91.231999515
 20
-81.3999998498
 30
0.0
 40
3.2000000477
 41
0.0
 71
         1
 72
         1
  1
\W0.833;\A1;ｋｇｆ・ｍ｝
  0
MTEXT
  5
68
100
AcDbEntity
  8
PV
  6
CONTINUOUS
 62
       110
100
AcDbMText
 10
90.7471515841
 20
-87.4000000882
 30
0.0
 40
3.2000000477
 41
0.0
 71
         1
 72
         1
  1
\W1.091;\A1;kgf\}
  0
MTEXT
  5
69
100
AcDbEntity
  8
PV
  6
CONTINUOUS
 62
       110
100
AcDbMText
 10
91.231999515
 20
-93.3999998498
 30
0.0
 40
3.2000000477
 41
0.0
 71
         1
 72
         1
  1
\W0.833;\A1;ｋｇｆ・ｍｍ　｝
  0
MTEXT
  5
6A
100
AcDbEntity
  8
PV
  6
CONTINUOUS
 62
       110
100
AcDbMText
 10
109.605333119
 20
-93.0000000424
 30
0.0
 40
1.6000000238
 41
0.0
 71
         1
 72
         1
  1
\A1;2
  0
MTEXT
  5
6B
100
AcDbEntity
  8
PV
  6
CONTINUOUS
 62
       110
100
AcDbMText
 10
91.231999515
 20
-99.3999998498
 30
0.0
 40
3.2000000477
 41
0.0
 71
         1
 72
         1
  1
\W0.833;\A1;ｋｇｆ・ｍｍ　｝
  0
MTEXT
  5
6C
100
AcDbEntity
  8
PV
  6
CONTINUOUS
 62
       110
100
AcDbMText
 10
109.605333119
 20
-99.0000000424
 30
0.0
 40
1.6000000238
 41
0.0
 71
         1
 72
         1
  1
\A1;2
  0
MTEXT
  5
6D
100
AcDbEntity
  8
PV
  6
CONTINUOUS
 62
       110
100
AcDbMText
 10
-77.380333262
 20
-105.5320000882
 30
0.0
 40
3.2000000477
 41
0.0
 71
         1
 72
         1
  1
\A1;MASS
  0
MTEXT
  5
6E
100
AcDbEntity
  8
PV
  6
CONTINUOUS
 62
       110
100
AcDbMText
 10
44.4500476897
 20
-69.4000000882
 30
0.0
 40
3.2000000477
 41
0.0
 71
         1
 72
         1
  1
\W1.286;\A1;7.2
  0
MTEXT
  5
6F
100
AcDbEntity
  8
PV
  6
CONTINUOUS
 62
       110
100
AcDbMText
 10
41.2043334044
 20
-75.4000000882
 30
0.0
 40
3.2000000477
 41
0.0
 71
         1
 72
         1
  1
\W1.200;\A1;24.7
  0
MTEXT
  5
70
100
AcDbEntity
  8
PV
  6
CONTINUOUS
 62
       110
100
AcDbMText
 10
41.6043334044
 20
-81.4000000882
 30
0.0
 40
3.2000000477
 41
0.0
 71
         1
 72
         1
  1
\W1.200;\A1;76.4
  0
MTEXT
  5
71
100
AcDbEntity
  8
PV
  6
CONTINUOUS
 62
       110
100
AcDbMText
 10
41.2043334044
 20
-87.4000000882
 30
0.0
 40
3.2000000477
 41
0.0
 71
         1
 72
         1
  1
\W1.200;\A1;5.49
  0
MTEXT
  5
72
100
AcDbEntity
  8
PV
  6
CONTINUOUS
 62
       110
100
AcDbMText
 10
47.497666738
 20
-93.4000000882
 30
0.0
 40
3.2000000477
 41
0.0
 71
         1
 72
         1
  1
\A1;98
  0
MTEXT
  5
73
100
AcDbEntity
  8
PV
  6
CONTINUOUS
 62
       110
100
AcDbMText
 10
47.497666738
 20
-99.4000000882
 30
0.0
 40
3.2000000477
 41
0.0
 71
         1
 72
         1
  1
\A1;86
  0
LINE
  5
74
100
AcDbEntity
  8
PV
  6
CONTINUOUS
 62
         3
100
AcDbLine
 10
59.0848762
 20
41.9521219
 30
0.0
 11
59.0848762
 21
41.6019663
 31
0.0
  0
LINE
  5
75
100
AcDbEntity
  8
PV
  6
CONTINUOUS
 62
         3
100
AcDbLine
 10
59.0848762
 20
9.95212191
 30
0.0
 11
59.0848762
 21
10.3022775
 31
0.0
  0
DIMENSION
  5
84
100
AcDbEntity
  8
PV
  6
CONTINUOUS
 62
       110
100
AcDbDimension
  2
*D2
 10
64.3848762
 20
50.4287729
 30
0.0
 11
72.3153373206
 21
50.4287729
 31
0.0
 70
       128
  1
\A1;<>
  3
MXDIMSTYLE
100
AcDbAlignedDimension
 13
59.0848762
 23
41.9521217083
 33
0.0
 14
64.3848762
 24
41.9521217083
 34
0.0
100
AcDbRotatedDimension
1001
ACAD
1000
DSTYLE
1002
{
1070
         6
1000
SOLID
1070
         7
1000
SOLID
1070
        41
1040
1.0000000298
1070
        42
1040
0.0625
1070
        44
1040
2.0
1070
       271
1070
         4
1070
       284
1070
         8
1070
       340
1005
7E
1070
       343
1005
0
1070
       344
1005
0
1002
}
  0
DIMENSION
  5
92
100
AcDbEntity
  8
PV
  6
CONTINUOUS
 62
       110
100
AcDbDimension
  2
*D3
 10
64.3848762
 20
58.2408475
 30
0.0
 11
72.8654834235
 21
58.2408475
 31
0.0
 70
       128
  1
\A1;<>
  3
MXDIMSTYLE
100
AcDbAlignedDimension
 13
58.0848762
 23
41.9018944818
 33
0.0
 14
64.3848762
 24
41.9521226007
 34
0.0
100
AcDbRotatedDimension
1001
ACAD
1000
DSTYLE
1002
{
1070
         6
1000
SOLID
1070
         7
1000
SOLID
1070
        41
1040
1.0000000298
1070
        42
1040
0.0625
1070
        44
1040
2.0
1070
       271
1070
         4
1070
       284
1070
         8
1070
       340
1005
7E
1070
       343
1005
0
1070
       344
1005
0
1002
}
  0
DIMENSION
  5
A1
100
AcDbEntity
  8
PV
  6
CONTINUOUS
 62
       110
100
AcDbDimension
  2
*D4
 10
45.6415109
 20
39.9521219
 30
0.0
 11
45.6415109
 21
25.6687890753
 31
0.0
 70
       128
  1
\A1;\U+2205<>
  3
MXDIMSTYLE
100
AcDbAlignedDimension
 13
58.084875997
 23
11.9521219
 33
0.0
 14
58.084875997
 24
39.9521219
 34
0.0
 50
90.0
100
AcDbRotatedDimension
1001
ACAD
1000
DSTYLE
1002
{
1070
         6
1000
SOLID
1070
         7
1000
SOLID
1070
        41
1040
1.0000000298
1070
        42
1040
0.0625
1070
        44
1040
2.0
1070
       271
1070
         4
1070
       284
1070
         8
1070
       343
1005
0
1070
       344
1005
0
1002
}
  0
DIMENSION
  5
B0
100
AcDbEntity
  8
PV
  6
CONTINUOUS
 62
       110
100
AcDbDimension
  2
*D5
 10
79.9706275
 20
9.95212191
 30
0.0
 11
79.9706275
 21
25.6687890753
 31
0.0
 70
       128
  1
\A1;\U+2205<>
  3
MXDIMSTYLE
100
AcDbAlignedDimension
 13
64.3848759665
 23
41.9521219
 33
0.0
 14
64.3848759665
 24
9.95212191
 34
0.0
 50
90.0
100
AcDbRotatedDimension
1001
ACAD
1000
DSTYLE
1002
{
1070
         6
1000
SOLID
1070
         7
1000
SOLID
1070
        41
1040
1.0000000298
1070
        42
1040
0.0625
1070
        44
1040
2.0
1070
       271
1070
         4
1070
       284
1070
         8
1070
       343
1005
0
1070
       344
1005
0
1002
}
  0
DIMENSION
  5
BE
100
AcDbEntity
  8
PV
  6
CONTINUOUS
 62
       110
100
AcDbDimension
  2
*D6
 10
58.0848762
 20
1.2457115
 30
0.0
 11
50.9696683371
 21
1.2457115
 31
0.0
 70
       128
  1
\A1;<>
  3
MXDIMSTYLE
100
AcDbAlignedDimension
 13
63.3848762
 23
11.5919668024
 33
0.0
 14
58.0848762
 24
10.0023500269
 34
0.0
100
AcDbRotatedDimension
1001
ACAD
1000
DSTYLE
1002
{
1070
         6
1000
SOLID
1070
         7
1000
SOLID
1070
        41
1040
1.0000000298
1070
        42
1040
0.0625
1070
        44
1040
2.0
1070
       271
1070
         4
1070
       284
1070
         8
1070
       340
1005
7E
1070
       343
1005
0
1070
       344
1005
0
1002
}
  0
ENDSEC
  0
SECTION
  2
OBJECTS
  0
DICTIONARY
  5
19
100
AcDbDictionary
  3
ACAD_GROUP
350
1A
  3
ACAD_MLINESTYLE
350
1B
  0
DICTIONARY
  5
1A
102
{ACAD_REACTORS
330
19
102
}
100
AcDbDictionary
  0
DICTIONARY
  5
1B
102
{ACAD_REACTORS
330
19
102
}
100
AcDbDictionary
  3
STANDARD
350
1C
  0
MLINESTYLE
  5
1C
102
{ACAD_REACTORS
330
1B
102
}
100
AcDbMlineStyle
  2
Standard
 70
         0
  3

 62
         0
 51
90.0
 52
90.0
 71
         2
 49
0.5
 62
       256
  6
ByLayer
 49
-0.5
 62
       256
  6
ByLayer
  0
ENDSEC
  0
EOF
