  0
SECTION
  2
HEADER
  9
$ACADVER
  1
AC1015
  9
$ACADMAINTVER
 70
     6
  9
$DWGCODEPAGE
  3
ANSI_932
  9
$INSBASE
 10
0.0
 20
0.0
 30
0.0
  9
$EXTMIN
 10
-23.061178
 20
-22.968903
 30
0.0
  9
$EXTMAX
 10
90.508525
 20
83.694702
 30
0.0
  9
$LIMMIN
 10
-23.061178
 20
-22.968903
  9
$LIMMAX
 10
90.508525
 20
83.694702
  9
$ORTHOMODE
 70
     0
  9
$REGENMODE
 70
     1
  9
$FILLMODE
 70
     1
  9
$QTEXTMODE
 70
     0
  9
$MIRRTEXT
 70
     1
  9
$LTSCALE
 40
1.0
  9
$ATTMODE
 70
     1
  9
$TEXTSIZE
 40
3.15
  9
$TRACEWID
 40
0.05
  9
$TEXTSTYLE
  7
MX_NOTE_STANDARD
  9
$CLAYER
  8
LY_1
  9
$CELTYPE
  6
CONTINUOUS
  9
$CECOLOR
 62
   256
  9
$CELTSCALE
 40
1.0
  9
$DISPSILH
 70
     0
  9
$DIMSCALE
 40
1.0
  9
$DIMASZ
 40
2.5
  9
$DIMEXO
 40
1.0
  9
$DIMDLI
 40
3.75
  9
$DIMRND
 40
0.0
  9
$DIMDLE
 40
0.0
  9
$DIMEXE
 40
2.0
  9
$DIMTP
 40
0.0
  9
$DIMTM
 40
0.0
  9
$DIMTXT
 40
3.15
  9
$DIMCEN
 40
2.5
  9
$DIMTSZ
 40
0.0
  9
$DIMTOL
 70
     0
  9
$DIMLIM
 70
     0
  9
$DIMTIH
 70
     0
  9
$DIMTOH
 70
     0
  9
$DIMSE1
 70
     0
  9
$DIMSE2
 70
     0
  9
$DIMTAD
 70
     1
  9
$DIMZIN
 70
     8
  9
$DIMBLK
  1

  9
$DIMASO
 70
     1
  9
$DIMSHO
 70
     1
  9
$DIMPOST
  1

  9
$DIMAPOST
  1

  9
$DIMALT
 70
     0
  9
$DIMALTD
 70
     4
  9
$DIMALTF
 40
0.03937
  9
$DIMLFAC
 40
1.0
  9
$DIMTOFL
 70
     1
  9
$DIMTVP
 40
0.0
  9
$DIMTIX
 70
     0
  9
$DIMSOXD
 70
     0
  9
$DIMSAH
 70
     1
  9
$DIMBLK1
  1
_OPEN30
  9
$DIMBLK2
  1
_OPEN30
  9
$DIMSTYLE
  2
MXDIMSTYLE
  9
$DIMCLRD
 70
     0
  9
$DIMCLRE
 70
     0
  9
$DIMCLRT
 70
     0
  9
$DIMTFAC
 40
1.0
  9
$DIMGAP
 40
1.0
  9
$DIMJUST
 70
     0
  9
$DIMSD1
 70
     0
  9
$DIMSD2
 70
     0
  9
$DIMTOLJ
 70
     0
  9
$DIMTZIN
 70
     0
  9
$DIMALTZ
 70
     0
  9
$DIMALTTZ
 70
     0
  9
$DIMUPT
 70
     0
  9
$DIMDEC
 70
     2
  9
$DIMTDEC
 70
     2
  9
$DIMALTU
 70
     2
  9
$DIMALTTD
 70
     4
  9
$DIMTXSTY
  7
MX_NOTE_STANDARD
  9
$DIMAUNIT
 70
     0
  9
$DIMADEC
 70
     0
  9
$DIMALTRND
 40
0.0
  9
$DIMAZIN
 70
     0
  9
$DIMDSEP
 70
    46
  9
$DIMATFIT
 70
     3
  9
$DIMFRAC
 70
     0
  9
$DIMLDRBLK
  1
_OPEN30
  9
$DIMLUNIT
 70
     2
  9
$DIMLWD
 70
    -2
  9
$DIMLWE
 70
    -2
  9
$DIMTMOVE
 70
     0
  9
$LUNITS
 70
     2
  9
$LUPREC
 70
     4
  9
$SKETCHINC
 40
0.1
  9
$FILLETRAD
 40
0.0
  9
$AUNITS
 70
     0
  9
$AUPREC
 70
     0
  9
$MENU
  1
acad
  9
$ELEVATION
 40
0.0
  9
$PELEVATION
 40
0.0
  9
$THICKNESS
 40
0.0
  9
$LIMCHECK
 70
     0
  9
$CHAMFERA
 40
0.0
  9
$CHAMFERB
 40
0.0
  9
$CHAMFERC
 40
0.0
  9
$CHAMFERD
 40
0.0
  9
$SKPOLY
 70
     0
  9
$TDCREATE
 40
2457367.498449074
  9
$TDUCREATE
 40
0.000000000
  9
$TDUPDATE
 40
2457367.498449074
  9
$TDUUPDATE
 40
0.000000000
  9
$TDINDWG
 40
0.0000000000
  9
$TDUSRTIMER
 40
0.0000000000
  9
$USRTIMER
 70
     1
  9
$ANGBASE
 50
0.0
  9
$ANGDIR
 70
     0
  9
$PDMODE
 70
     0
  9
$PDSIZE
 40
0.0
  9
$PLINEWID
 40
0.0
  9
$SPLFRAME
 70
     0
  9
$SPLINETYPE
 70
     6
  9
$SPLINESEGS
 70
     8
  9
$HANDSEED
  5
12C
  9
$SURFTAB1
 70
     6
  9
$SURFTAB2
 70
     6
  9
$SURFTYPE
 70
     6
  9
$SURFU
 70
     6
  9
$SURFV
 70
     6
  9
$UCSBASE
  2

  9
$UCSNAME
  2

  9
$UCSORG
 10
0.0
 20
0.0
 30
0.0
  9
$UCSXDIR
 10
1.0
 20
0.0
 30
0.0
  9
$UCSYDIR
 10
0.0
 20
1.0
 30
0.0
  9
$UCSORTHOREF
  2

  9
$UCSORTHOVIEW
 70
     0
  9
$UCSORGTOP
 10
0.0
 20
0.0
 30
0.0
  9
$UCSORGBOTTOM
 10
0.0
 20
0.0
 30
0.0
  9
$UCSORGLEFT
 10
0.0
 20
0.0
 30
0.0
  9
$UCSORGRIGHT
 10
0.0
 20
0.0
 30
0.0
  9
$UCSORGFRONT
 10
0.0
 20
0.0
 30
0.0
  9
$UCSORGBACK
 10
0.0
 20
0.0
 30
0.0
  9
$PUCSBASE
  2

  9
$PUCSNAME
  2

  9
$PUCSORG
 10
0.0
 20
0.0
 30
0.0
  9
$PUCSXDIR
 10
1.0
 20
0.0
 30
0.0
  9
$PUCSYDIR
 10
0.0
 20
1.0
 30
0.0
  9
$PUCSORTHOREF
  2

  9
$PUCSORTHOVIEW
 70
     0
  9
$PUCSORGTOP
 10
0.0
 20
0.0
 30
0.0
  9
$PUCSORGBOTTOM
 10
0.0
 20
0.0
 30
0.0
  9
$PUCSORGLEFT
 10
0.0
 20
0.0
 30
0.0
  9
$PUCSORGRIGHT
 10
0.0
 20
0.0
 30
0.0
  9
$PUCSORGFRONT
 10
0.0
 20
0.0
 30
0.0
  9
$PUCSORGBACK
 10
0.0
 20
0.0
 30
0.0
  9
$USERI1
 70
     0
  9
$USERI2
 70
     0
  9
$USERI3
 70
     0
  9
$USERI4
 70
     0
  9
$USERI5
 70
     0
  9
$USERR1
 40
0.0
  9
$USERR2
 40
0.0
  9
$USERR3
 40
0.0
  9
$USERR4
 40
0.0
  9
$USERR5
 40
0.0
  9
$WORLDVIEW
 70
     1
  9
$SHADEDGE
 70
     3
  9
$SHADEDIF
 70
    70
  9
$TILEMODE
 70
     1
  9
$MAXACTVP
 70
    16
  9
$PINSBASE
 10
0.0
 20
0.0
 30
0.0
  9
$PLIMCHECK
 70
     0
  9
$PEXTMIN
 10
1.000000E+20
 20
1.000000E+20
 30
1.000000E+20
  9
$PEXTMAX
 10
-1.000000E+20
 20
-1.000000E+20
 30
-1.000000E+20
  9
$PLIMMIN
 10
0.0
 20
0.0
  9
$PLIMMAX
 10
12.0
 20
9.0
  9
$UNITMODE
 70
     0
  9
$VISRETAIN
 70
     0
  9
$PLINEGEN
 70
     1
  9
$PSLTSCALE
 70
     0
  9
$TREEDEPTH
 70
  3020
  9
$CMLSTYLE
  2
Standard
  9
$CMLJUST
 70
     0
  9
$CMLSCALE
 40
1.0
  9
$PROXYGRAPHICS
 70
     0
  9
$MEASUREMENT
 70
     1
  9
$CELWEIGHT
370
     0
  9
$ENDCAPS
280
     0
  9
$JOINSTYLE
280
     0
  9
$LWDISPLAY
290
     0
  9
$INSUNITS
 70
     0
  9
$HYPERLINKBASE
  1

  9
$STYLESHEET
  1

  9
$XEDIT
290
     1
  9
$CEPSNTYPE
380
     0
  9
$PSTYLEMODE
290
     1
  9
$FINGERPRINTGUID
  2

  9
$VERSIONGUID
  2

  9
$EXTNAMES
290
     1
  9
$PSVPSCALE
 40
0.0
  0
ENDSEC
  0
SECTION
  2
CLASSES
  0
CLASS
  1
LWPOLYLINE
  2
AcDbPolyline
  3
AutoCAD 2000
 90
        0
280
     0
281
     1
  0
CLASS
  1
IMAGE
  2
AcDbRasterImage
  3
ISM
 90
      127
280
     0
281
     1
  0
CLASS
  1
OLE2FRAME
  2
AcDbOle2Frame
  3
AutoCAD 2000
 90
        0
280
     0
281
     1
  0
CLASS
  1
HATCH
  2
AcDbHatch
  3
AutoCAD 2000
 90
        0
280
     0
281
     1
  0
CLASS
  1
DICTIONARYVAR
  2
AcDbDictionaryVar
  3
AutoCAD 2000
 90
        0
280
     0
281
     0
  0
CLASS
  1
RASTERVARIABLES
  2
AcDbRasterVariables
  3
ISM
 90
        0
280
     0
281
     0
  0
CLASS
  1
IMAGEDEF
  2
AcDbRasterImageDef
  3
ISM
 90
        0
280
     0
281
     0
  0
CLASS
  1
IMAGEDEF_REACTOR
  2
AcDbRasterImageDefReactor
  3
ISM
 90
        1
280
     0
281
     0
  0
CLASS
  1
IDBUFFER
  2
AcDbIdBuffer
  3
AutoCAD 2000
 90
        0
280
     0
281
     0
  0
CLASS
  1
SPATIAL_FILTER
  2
AcDbSpatialFilter
  3
AutoCAD 2000
 90
        0
280
     0
281
     0
  0
CLASS
  1
XRECORD
  2
AcDbXrecord
  3
AutoCAD 2000
 90
        0
280
     0
281
     0
  0
CLASS
  1
SORTENTSTABLE
  2
AcDbSortentsTable
  3
AutoCAD 2000
 90
        0
280
     0
281
     0
  0
CLASS
  1
LAYER_INDEX
  2
AcDbLayerIndex
  3
AutoCAD 2000
 90
        0
280
     0
281
     0
  0
CLASS
  1
SPATIAL_INDEX
  2
AcDbSpatialIndex
  3
AutoCAD 2000
 90
        0
280
     0
281
     0
  0
CLASS
  1
OBJECT_PTR
  2
CAseDLPNTableRecord
  3
"ASE-LPNTableRecord"
 90
        1
280
     0
281
     0
  0
CLASS
  1
LAYOUT
  2
AcDbLayout
  3
AutoCAD 2000
 90
        0
280
     0
281
     0
  0
CLASS
  1
PLOTSETTINGS
  2
AcDbPlotSettings
  3
AutoCAD 2000
 90
        0
280
     0
281
     0
  0
CLASS
  1
ACDBDICTIONARYWDFLT
  2
AcDbDictionaryWithDefault
  3
AutoCAD 2000
 90
        0
280
     0
281
     0
  0
CLASS
  1
ACDBPLACEHOLDER
  2
AcDbPlaceHolder
  3
AutoCAD 2000
 90
        0
280
     0
281
     0
  0
ENDSEC
  0
SECTION
  2
TABLES
  0
TABLE
  2
VPORT
  5
7
100
AcDbSymbolTable
 70
     1
  0
VPORT
  5
15
100
AcDbSymbolTableRecord
100
AcDbViewportTableRecord
  2
*ACTIVE
 70
     0
 10
0.0
 20
0.0
 11
1.0
 21
1.0
 12
33.723674
 22
30.3629
 13
0.0
 23
0.0
 14
1.0
 24
1.0
 15
0.0
 25
0.0
 16
0.0
 26
0.0
 36
1.0
 17
0.0
 27
0.0
 37
0.0
 40
107.730241
 41
1.732051
 42
50.0
 43
0.0
 44
0.0
 50
0.0
 51
0.0
 71
     0
 72
   100
 73
     1
 74
     1
 75
     0
 76
     0
 77
     0
 78
     0
281
     0
 65
     0
110
0.0
120
0.0
130
0.0
111
1.0
121
0.0
131
0.0
112
0.0
122
1.0
132
0.0
345
0
346
0
 79
     0
146
0.0
  0
ENDTAB
  0
TABLE
  2
LTYPE
  5
4
100
AcDbSymbolTable
 70
     4
  0
LTYPE
  5
11
100
AcDbSymbolTableRecord
100
AcDbLinetypeTableRecord
  2
BYBLOCK
 70
    64
  3

 72
    65
 73
     0
 40
0.0
  0
LTYPE
  5
12
100
AcDbSymbolTableRecord
100
AcDbLinetypeTableRecord
  2
BYLAYER
 70
    64
  3

 72
    65
 73
     0
 40
0.0
  0
LTYPE
  5
13
100
AcDbSymbolTableRecord
100
AcDbLinetypeTableRecord
  2
CONTINUOUS
 70
    64
  3
Solid line
 72
    65
 73
     0
 40
0.0
  0
LTYPE
  5
42
100
AcDbSymbolTableRecord
100
AcDbLinetypeTableRecord
  2
CENTER
 70
    64
  3
Center ____ _ ____ _ ____ _ ____ _ ____ _ ____
 72
    65
 73
     4
 40
50.8
 49
31.75
 74
     0
 49
-6.35
 74
     0
 49
6.35
 74
     0
 49
-6.35
 74
     0
  0
ENDTAB
  0
TABLE
  2
LAYER
  5
2
100
AcDbSymbolTable
 70
     3
  0
LAYER
  5
14
100
AcDbSymbolTableRecord
100
AcDbLayerTableRecord
  2
0
 70
     0
 62
     7
  6
CONTINUOUS
290
     1
370
    -3
390
1D
  0
LAYER
  5
23
100
AcDbSymbolTableRecord
100
AcDbLayerTableRecord
  2
LY_1
 70
     0
 62
     7
  6
CONTINUOUS
290
     1
370
    -3
390
1D
  0
LAYER
  5
24
100
AcDbSymbolTableRecord
100
AcDbLayerTableRecord
  2
DEFPOINTS
 70
     0
 62
     7
  6
CONTINUOUS
290
     0
370
    -3
390
1D
  0
ENDTAB
  0
TABLE
  2
STYLE
  5
3
100
AcDbSymbolTable
 70
     6
  0
STYLE
  5
17
100
AcDbSymbolTableRecord
100
AcDbTextStyleTableRecord
  2
MX_NOTE_STANDARD
 70
     0
 40
0.0
 41
1.0
 50
0.0
 71
     0
 42
3.15
  3
txt.shx
  4
extfont.shx
  0
STYLE
  5
3B
100
AcDbSymbolTableRecord
100
AcDbTextStyleTableRecord
  2
MX_DIMTXSTY_2
 70
     0
 40
0.0
 41
1.3
 50
0.0
 71
     0
 42
3.15
  3
txt.shx
  4
extfont.shx
  0
STYLE
  5
C2
100
AcDbSymbolTableRecord
100
AcDbTextStyleTableRecord
  2
MX_DIMTXSTY_3
 70
     0
 40
0.0
 41
1.2
 50
0.0
 71
     0
 42
3.15
  3
txt.shx
  4
extfont.shx
  0
STYLE
  5
D0
100
AcDbSymbolTableRecord
100
AcDbTextStyleTableRecord
  2
MX_DIMTXSTY_4
 70
     0
 40
0.0
 41
0.95
 50
0.0
 71
     0
 42
3.15
  3
txt.shx
  4
extfont.shx
  0
STYLE
  5
108
100
AcDbSymbolTableRecord
100
AcDbTextStyleTableRecord
  2
MX_DIMTXSTY_5
 70
     0
 40
0.0
 41
1.1
 50
0.0
 71
     0
 42
3.15
  3
txt.shx
  4
extfont.shx
  0
STYLE
  5
121
100
AcDbSymbolTableRecord
100
AcDbTextStyleTableRecord
  2
MX_DIMTXSTY_6
 70
     0
 40
0.0
 41
1.25
 50
0.0
 71
     0
 42
3.15
  3
txt.shx
  4
extfont.shx
  0
ENDTAB
  0
TABLE
  2
VIEW
  5
5
100
AcDbSymbolTable
 70
     0
  0
ENDTAB
  0
TABLE
  2
UCS
  5
6
100
AcDbSymbolTable
 70
     0
  0
ENDTAB
  0
TABLE
  2
APPID
  5
8
100
AcDbSymbolTable
 70
     1
  0
APPID
  5
16
100
AcDbSymbolTableRecord
100
AcDbRegAppTableRecord
  2
ACAD
 70
     0
  0
ENDTAB
  0
TABLE
  2
DIMSTYLE
  5
9
100
AcDbSymbolTable
 70
     1
100
AcDbDimStyleTable
 71
     0
  0
DIMSTYLE
105
18
100
AcDbSymbolTableRecord
100
AcDbDimStyleTableRecord
  2
MXDIMSTYLE
 70
     0
  3

  4

 40
1.0
 41
2.5
 42
1.0
 43
3.75
 44
2.0
 45
0.0
 46
0.0
 47
0.0
 48
0.0
 71
     0
 72
     0
 73
     0
 74
     0
 75
     0
 76
     0
 77
     1
 78
     8
 79
     0
140
3.15
141
2.5
142
0.0
143
0.03937
144
1.0
145
0.0
146
1.0
147
1.0
148
0.0
170
     0
171
     4
172
     1
173
     1
174
     0
175
     0
176
     0
177
     0
178
     0
179
     0
271
     2
272
     2
273
     2
274
     4
275
     0
276
     0
277
     2
278
    46
279
     0
280
     0
281
     0
282
     0
283
     0
284
     0
285
     0
286
     0
288
     0
289
     3
340
17
341
25
342
0
343
25
344
25
371
    -2
372
    -2
  0
ENDTAB
  0
TABLE
  2
BLOCK_RECORD
  5
1
100
AcDbSymbolTable
 70
    12
  0
BLOCK_RECORD
  5
A
100
AcDbSymbolTableRecord
100
AcDbBlockTableRecord
  2
*MODEL_SPACE
340
20
  0
BLOCK_RECORD
  5
B
100
AcDbSymbolTableRecord
100
AcDbBlockTableRecord
  2
*PAPER_SPACE
340
21
  0
BLOCK_RECORD
  5
25
100
AcDbSymbolTableRecord
100
AcDbBlockTableRecord
  2
_OPEN30
340
0
102
{BLKREFS
331
F2
102
}
  0
BLOCK_RECORD
  5
2B
100
AcDbSymbolTableRecord
100
AcDbBlockTableRecord
  2
*D1
340
0
  0
BLOCK_RECORD
  5
30
100
AcDbSymbolTableRecord
100
AcDbBlockTableRecord
  2
_OPEN
340
0
102
{BLKREFS
331
36
331
C0
331
C1
331
CE
331
CF
331
DC
331
DD
331
E9
331
EA
331
F9
331
FA
331
106
331
107
331
113
331
114
331
11F
331
120
102
}
  0
BLOCK_RECORD
  5
37
100
AcDbSymbolTableRecord
100
AcDbBlockTableRecord
  2
_NONE
340
0
  0
BLOCK_RECORD
  5
BC
100
AcDbSymbolTableRecord
100
AcDbBlockTableRecord
  2
*D4
340
0
  0
BLOCK_RECORD
  5
C9
100
AcDbSymbolTableRecord
100
AcDbBlockTableRecord
  2
*D5
340
0
  0
BLOCK_RECORD
  5
D7
100
AcDbSymbolTableRecord
100
AcDbBlockTableRecord
  2
*D6
340
0
  0
BLOCK_RECORD
  5
E4
100
AcDbSymbolTableRecord
100
AcDbBlockTableRecord
  2
*D7
340
0
  0
BLOCK_RECORD
  5
F4
100
AcDbSymbolTableRecord
100
AcDbBlockTableRecord
  2
*D8
340
0
  0
BLOCK_RECORD
  5
101
100
AcDbSymbolTableRecord
100
AcDbBlockTableRecord
  2
*D9
340
0
  0
BLOCK_RECORD
  5
10F
100
AcDbSymbolTableRecord
100
AcDbBlockTableRecord
  2
*D10
340
0
  0
BLOCK_RECORD
  5
11B
100
AcDbSymbolTableRecord
100
AcDbBlockTableRecord
  2
*D11
340
0
  0
ENDTAB
  0
ENDSEC
  0
SECTION
  2
BLOCKS
  0
BLOCK
  5
D
100
AcDbEntity
  8
0
390
0
100
AcDbBlockBegin
  2
*MODEL_SPACE
 70
     0
 10
0.0
 20
0.0
 30
0.0
  3
*MODEL_SPACE
  1

  0
ENDBLK
  5
E
100
AcDbEntity
  8
0
390
0
100
AcDbBlockEnd
  0
BLOCK
  5
F
100
AcDbEntity
 67
     1
  8
0
390
0
100
AcDbBlockBegin
  2
*PAPER_SPACE
 70
     0
 10
0.0
 20
0.0
 30
0.0
  3
*PAPER_SPACE
  1

  0
ENDBLK
  5
10
100
AcDbEntity
 67
     1
  8
0
390
0
100
AcDbBlockEnd
  0
BLOCK
  5
26
100
AcDbEntity
  8
0
370
    -2
390
0
  6
ByBlock
 62
     0
100
AcDbBlockBegin
  2
_OPEN30
 70
     2
 10
0.0
 20
0.0
 30
0.0
  3
_OPEN30
  1

  0
LINE
  5
27
100
AcDbEntity
  8
0
370
    -2
390
0
  6
ByBlock
 62
     0
100
AcDbLine
 10
-1.0
 20
0.267949
 30
0.0
 11
0.0
 21
0.0
 31
0.0
  0
LINE
  5
28
100
AcDbEntity
  8
0
370
    -2
390
0
  6
ByBlock
 62
     0
100
AcDbLine
 10
0.0
 20
0.0
 30
0.0
 11
-1.0
 21
-0.267949
 31
0.0
  0
LINE
  5
29
100
AcDbEntity
  8
0
370
    -2
390
0
  6
ByBlock
 62
     0
100
AcDbLine
 10
0.0
 20
0.0
 30
0.0
 11
-1.0
 21
0.0
 31
0.0
  0
ENDBLK
  5
2A
100
AcDbEntity
  8
0
370
    -2
390
0
  6
ByBlock
 62
     0
100
AcDbBlockEnd
  0
BLOCK
  5
2C
100
AcDbEntity
  8
0
370
    -2
390
0
  6
ByBlock
 62
     0
100
AcDbBlockBegin
  2
*D1
 70
     1
 10
0.0
 20
0.0
 30
0.0
  3
*D1
  1

  0
LINE
  5
2D
100
AcDbEntity
  8
0
390
0
  6
CONTINUOUS
 62
     7
100
AcDbLine
 10
52.233337
 20
33.559092
 30
0.0
 11
56.733337
 21
33.559092
 31
0.0
  0
LINE
  5
2E
100
AcDbEntity
  8
0
390
0
  6
CONTINUOUS
 62
     7
100
AcDbLine
 10
37.364586
 20
33.559092
 30
0.0
 11
52.233337
 21
33.559092
 31
0.0
  0
LINE
  5
2F
100
AcDbEntity
  8
0
390
0
  6
CONTINUOUS
 62
     7
100
AcDbLine
 10
52.233337
 20
33.559092
 30
0.0
 11
47.233337
 21
33.559092
 31
0.0
  0
INSERT
  5
36
100
AcDbEntity
  8
0
390
0
  6
CONTINUOUS
 62
     7
100
AcDbBlockReference
  2
_OPEN
 10
52.233337
 20
33.559092
 30
0.0
 41
3.0
 42
3.0
 43
3.0
  0
MTEXT
  5
3C
100
AcDbEntity
  8
0
390
0
  6
CONTINUOUS
 62
     7
100
AcDbMText
 10
42.164586
 20
36.159092
 30
0.0
 40
3.2
 41
0.0
 71
     5
 72
     1
  1
\A1;4.5
  7
MX_DIMTXSTY_2
 73
     1
 44
0.9
  0
POINT
  5
3D
100
AcDbEntity
  8
DEFPOINTS
390
0
  6
CONTINUOUS
 62
     0
100
AcDbPoint
 10
52.233337
 20
22.0
 30
0.0
  0
POINT
  5
3E
100
AcDbEntity
  8
DEFPOINTS
390
0
  6
CONTINUOUS
 62
     0
100
AcDbPoint
 10
56.733337
 20
22.0
 30
0.0
  0
POINT
  5
3F
100
AcDbEntity
  8
DEFPOINTS
390
0
  6
CONTINUOUS
 62
     0
100
AcDbPoint
 10
56.733337
 20
33.559092
 30
0.0
  0
ENDBLK
  5
40
100
AcDbEntity
  8
0
370
    -2
390
0
  6
ByBlock
 62
     0
100
AcDbBlockEnd
  0
BLOCK
  5
31
100
AcDbEntity
  8
0
370
    -2
390
0
  6
ByBlock
 62
     0
100
AcDbBlockBegin
  2
_OPEN
 70
     2
 10
0.0
 20
0.0
 30
0.0
  3
_OPEN
  1

  0
LINE
  5
32
100
AcDbEntity
  8
0
370
    -2
390
0
  6
ByBlock
 62
     0
100
AcDbLine
 10
-1.0
 20
0.166667
 30
0.0
 11
0.0
 21
0.0
 31
0.0
  0
LINE
  5
33
100
AcDbEntity
  8
0
370
    -2
390
0
  6
ByBlock
 62
     0
100
AcDbLine
 10
0.0
 20
0.0
 30
0.0
 11
-1.0
 21
-0.166667
 31
0.0
  0
LINE
  5
34
100
AcDbEntity
  8
0
370
    -2
390
0
  6
ByBlock
 62
     0
100
AcDbLine
 10
0.0
 20
0.0
 30
0.0
 11
-1.0
 21
0.0
 31
0.0
  0
ENDBLK
  5
35
100
AcDbEntity
  8
0
370
    -2
390
0
  6
ByBlock
 62
     0
100
AcDbBlockEnd
  0
BLOCK
  5
38
100
AcDbEntity
  8
0
370
    -2
390
0
  6
ByBlock
 62
     0
100
AcDbBlockBegin
  2
_NONE
 70
     2
 10
0.0
 20
0.0
 30
0.0
  3
_NONE
  1

  0
CIRCLE
  5
39
100
AcDbEntity
  8
0
370
    -2
390
0
  6
ByBlock
 62
     0
100
AcDbCircle
 10
0.0
 20
0.0
 30
0.0
 40
0.25
  0
ENDBLK
  5
3A
100
AcDbEntity
  8
0
370
    -2
390
0
  6
ByBlock
 62
     0
100
AcDbBlockEnd
  0
BLOCK
  5
BD
100
AcDbEntity
  8
0
370
    -2
390
0
  6
ByBlock
 62
     0
100
AcDbBlockBegin
  2
*D4
 70
     1
 10
0.0
 20
0.0
 30
0.0
  3
*D4
  1

  0
LINE
  5
BE
100
AcDbEntity
  8
0
390
0
  6
CONTINUOUS
 62
     7
100
AcDbLine
 10
62.233337
 20
28.0
 30
0.0
 11
77.233337
 21
28.0
 31
0.0
  0
LINE
  5
BF
100
AcDbEntity
  8
0
390
0
  6
CONTINUOUS
 62
     7
100
AcDbLine
 10
62.233337
 20
20.0
 30
0.0
 11
62.233337
 21
30.5
 31
0.0
  0
INSERT
  5
C0
100
AcDbEntity
  8
0
390
0
  6
CONTINUOUS
 62
     7
100
AcDbBlockReference
  2
_OPEN
 10
62.233337
 20
28.0
 30
0.0
 41
3.0
 42
3.0
 43
3.0
 50
180.0
  0
INSERT
  5
C1
100
AcDbEntity
  8
0
390
0
  6
CONTINUOUS
 62
     7
100
AcDbBlockReference
  2
_OPEN
 10
77.233337
 20
28.0
 30
0.0
 41
3.0
 42
3.0
 43
3.0
  0
MTEXT
  5
C3
100
AcDbEntity
  8
0
390
0
  6
CONTINUOUS
 62
     7
100
AcDbMText
 10
69.883337
 20
30.6
 30
0.0
 40
3.2
 41
0.0
 71
     5
 72
     1
  1
\A1;15
  7
MX_DIMTXSTY_3
 73
     1
 44
0.9
  0
POINT
  5
C4
100
AcDbEntity
  8
DEFPOINTS
390
0
  6
CONTINUOUS
 62
     0
100
AcDbPoint
 10
62.233337
 20
20.0
 30
0.0
  0
POINT
  5
C5
100
AcDbEntity
  8
DEFPOINTS
390
0
  6
CONTINUOUS
 62
     0
100
AcDbPoint
 10
77.233337
 20
20.0
 30
0.0
  0
POINT
  5
C6
100
AcDbEntity
  8
DEFPOINTS
390
0
  6
CONTINUOUS
 62
     0
100
AcDbPoint
 10
77.233337
 20
28.0
 30
0.0
  0
ENDBLK
  5
C7
100
AcDbEntity
  8
0
370
    -2
390
0
  6
ByBlock
 62
     0
100
AcDbBlockEnd
  0
BLOCK
  5
CA
100
AcDbEntity
  8
0
370
    -2
390
0
  6
ByBlock
 62
     0
100
AcDbBlockBegin
  2
*D5
 70
     1
 10
0.0
 20
0.0
 30
0.0
  3
*D5
  1

  0
LINE
  5
CB
100
AcDbEntity
  8
0
390
0
  6
CONTINUOUS
 62
     7
100
AcDbLine
 10
46.938594
 20
11.0
 30
0.0
 11
46.938594
 21
-11.0
 31
0.0
  0
LINE
  5
CC
100
AcDbEntity
  8
0
390
0
  6
CONTINUOUS
 62
     7
100
AcDbLine
 10
52.233337
 20
11.0
 30
0.0
 11
45.271927
 21
11.0
 31
0.0
  0
LINE
  5
CD
100
AcDbEntity
  8
0
390
0
  6
CONTINUOUS
 62
     7
100
AcDbLine
 10
52.233337
 20
-11.0
 30
0.0
 11
45.271927
 21
-11.0
 31
0.0
  0
INSERT
  5
CE
100
AcDbEntity
  8
0
390
0
  6
CONTINUOUS
 62
     7
100
AcDbBlockReference
  2
_OPEN
 10
46.938594
 20
11.0
 30
0.0
 41
3.0
 42
3.0
 43
3.0
 50
90.0
  0
INSERT
  5
CF
100
AcDbEntity
  8
0
390
0
  6
CONTINUOUS
 62
     7
100
AcDbBlockReference
  2
_OPEN
 10
46.938594
 20
-11.0
 30
0.0
 41
3.0
 42
3.0
 43
3.0
 50
270.0
  0
MTEXT
  5
D1
100
AcDbEntity
  8
0
390
0
  6
CONTINUOUS
 62
     7
100
AcDbMText
 10
44.338594
 20
0.0
 30
0.0
 40
3.2
 41
0.0
 71
     5
 72
     1
  1
\A1;\U+220522
  7
MX_DIMTXSTY_4
 11
0.0
 21
1.0
 31
0.0
 73
     1
 44
0.9
  0
POINT
  5
D2
100
AcDbEntity
  8
DEFPOINTS
390
0
  6
CONTINUOUS
 62
     0
100
AcDbPoint
 10
52.233337
 20
11.0
 30
0.0
  0
POINT
  5
D3
100
AcDbEntity
  8
DEFPOINTS
390
0
  6
CONTINUOUS
 62
     0
100
AcDbPoint
 10
52.233337
 20
-11.0
 30
0.0
  0
POINT
  5
D4
100
AcDbEntity
  8
DEFPOINTS
390
0
  6
CONTINUOUS
 62
     0
100
AcDbPoint
 10
46.938594
 20
-11.0
 30
0.0
  0
ENDBLK
  5
D5
100
AcDbEntity
  8
0
370
    -2
390
0
  6
ByBlock
 62
     0
100
AcDbBlockEnd
  0
BLOCK
  5
D8
100
AcDbEntity
  8
0
370
    -2
390
0
  6
ByBlock
 62
     0
100
AcDbBlockBegin
  2
*D6
 70
     1
 10
0.0
 20
0.0
 30
0.0
  3
*D6
  1

  0
LINE
  5
D9
100
AcDbEntity
  8
0
390
0
  6
CONTINUOUS
 62
     7
100
AcDbLine
 10
35.871928
 20
22.0
 30
0.0
 11
35.871928
 21
-22.0
 31
0.0
  0
LINE
  5
DA
100
AcDbEntity
  8
0
390
0
  6
CONTINUOUS
 62
     7
100
AcDbLine
 10
52.233337
 20
22.0
 30
0.0
 11
34.205261
 21
22.0
 31
0.0
  0
LINE
  5
DB
100
AcDbEntity
  8
0
390
0
  6
CONTINUOUS
 62
     7
100
AcDbLine
 10
52.233337
 20
-22.0
 30
0.0
 11
34.205261
 21
-22.0
 31
0.0
  0
INSERT
  5
DC
100
AcDbEntity
  8
0
390
0
  6
CONTINUOUS
 62
     7
100
AcDbBlockReference
  2
_OPEN
 10
35.871928
 20
22.0
 30
0.0
 41
3.0
 42
3.0
 43
3.0
 50
90.0
  0
INSERT
  5
DD
100
AcDbEntity
  8
0
390
0
  6
CONTINUOUS
 62
     7
100
AcDbBlockReference
  2
_OPEN
 10
35.871928
 20
-22.0
 30
0.0
 41
3.0
 42
3.0
 43
3.0
 50
270.0
  0
MTEXT
  5
DE
100
AcDbEntity
  8
0
390
0
  6
CONTINUOUS
 62
     7
100
AcDbMText
 10
33.271928
 20
0.0
 30
0.0
 40
3.2
 41
0.0
 71
     5
 72
     1
  1
\A1;\U+220544
  7
MX_DIMTXSTY_4
 11
0.0
 21
1.0
 31
0.0
 73
     1
 44
0.9
  0
POINT
  5
DF
100
AcDbEntity
  8
DEFPOINTS
390
0
  6
CONTINUOUS
 62
     0
100
AcDbPoint
 10
52.233337
 20
22.0
 30
0.0
  0
POINT
  5
E0
100
AcDbEntity
  8
DEFPOINTS
390
0
  6
CONTINUOUS
 62
     0
100
AcDbPoint
 10
52.233337
 20
-22.0
 30
0.0
  0
POINT
  5
E1
100
AcDbEntity
  8
DEFPOINTS
390
0
  6
CONTINUOUS
 62
     0
100
AcDbPoint
 10
35.871928
 20
-22.0
 30
0.0
  0
ENDBLK
  5
E2
100
AcDbEntity
  8
0
370
    -2
390
0
  6
ByBlock
 62
     0
100
AcDbBlockEnd
  0
BLOCK
  5
E5
100
AcDbEntity
  8
0
370
    -2
390
0
  6
ByBlock
 62
     0
100
AcDbBlockBegin
  2
*D7
 70
     1
 10
0.0
 20
0.0
 30
0.0
  3
*D7
  1

  0
LINE
  5
E6
100
AcDbEntity
  8
0
390
0
  6
CONTINUOUS
 62
     7
100
AcDbLine
 10
41.13209
 20
-16.0
 30
0.0
 11
41.13209
 21
16.0
 31
0.0
  0
LINE
  5
E7
100
AcDbEntity
  8
0
390
0
  6
CONTINUOUS
 62
     7
100
AcDbLine
 10
50.751938
 20
-16.0
 30
0.0
 11
38.63209
 21
-16.0
 31
0.0
  0
LINE
  5
E8
100
AcDbEntity
  8
0
390
0
  6
CONTINUOUS
 62
     7
100
AcDbLine
 10
45.712504
 20
16.0
 30
0.0
 11
38.63209
 21
16.0
 31
0.0
  0
INSERT
  5
E9
100
AcDbEntity
  8
0
390
0
  6
CONTINUOUS
 62
     7
100
AcDbBlockReference
  2
_OPEN
 10
41.13209
 20
-16.0
 30
0.0
 41
3.0
 42
3.0
 43
3.0
 50
270.0
  0
INSERT
  5
EA
100
AcDbEntity
  8
0
390
0
  6
CONTINUOUS
 62
     7
100
AcDbBlockReference
  2
_OPEN
 10
41.13209
 20
16.0
 30
0.0
 41
3.0
 42
3.0
 43
3.0
 50
90.0
  0
MTEXT
  5
EB
100
AcDbEntity
  8
0
390
0
  6
CONTINUOUS
 62
     7
100
AcDbMText
 10
38.53209
 20
0.512096
 30
0.0
 40
3.2
 41
0.0
 71
     5
 72
     1
  1
\A1;\U+220532
  7
MX_DIMTXSTY_4
 11
0.0
 21
1.0
 31
0.0
 73
     1
 44
0.9
  0
POINT
  5
EC
100
AcDbEntity
  8
DEFPOINTS
390
0
  6
CONTINUOUS
 62
     0
100
AcDbPoint
 10
50.751938
 20
-16.0
 30
0.0
  0
POINT
  5
ED
100
AcDbEntity
  8
DEFPOINTS
390
0
  6
CONTINUOUS
 62
     0
100
AcDbPoint
 10
45.712504
 20
16.0
 30
0.0
  0
POINT
  5
EE
100
AcDbEntity
  8
DEFPOINTS
390
0
  6
CONTINUOUS
 62
     0
100
AcDbPoint
 10
41.13209
 20
16.0
 30
0.0
  0
ENDBLK
  5
EF
100
AcDbEntity
  8
0
370
    -2
390
0
  6
ByBlock
 62
     0
100
AcDbBlockEnd
  0
BLOCK
  5
F5
100
AcDbEntity
  8
0
370
    -2
390
0
  6
ByBlock
 62
     0
100
AcDbBlockBegin
  2
*D8
 70
     1
 10
0.0
 20
0.0
 30
0.0
  3
*D8
  1

  0
LINE
  5
F6
100
AcDbEntity
  8
0
390
0
  6
CONTINUOUS
 62
     7
100
AcDbLine
 10
88.008525
 20
20.0
 30
0.0
 11
88.008525
 21
-20.0
 31
0.0
  0
LINE
  5
F7
100
AcDbEntity
  8
0
390
0
  6
CONTINUOUS
 62
     7
100
AcDbLine
 10
77.233337
 20
20.0
 30
0.0
 11
90.508525
 21
20.0
 31
0.0
  0
LINE
  5
F8
100
AcDbEntity
  8
0
390
0
  6
CONTINUOUS
 62
     7
100
AcDbLine
 10
77.233337
 20
-20.0
 30
0.0
 11
90.508525
 21
-20.0
 31
0.0
  0
INSERT
  5
F9
100
AcDbEntity
  8
0
390
0
  6
CONTINUOUS
 62
     7
100
AcDbBlockReference
  2
_OPEN
 10
88.008525
 20
20.0
 30
0.0
 41
3.0
 42
3.0
 43
3.0
 50
90.0
  0
INSERT
  5
FA
100
AcDbEntity
  8
0
390
0
  6
CONTINUOUS
 62
     7
100
AcDbBlockReference
  2
_OPEN
 10
88.008525
 20
-20.0
 30
0.0
 41
3.0
 42
3.0
 43
3.0
 50
270.0
  0
MTEXT
  5
FB
100
AcDbEntity
  8
0
390
0
  6
CONTINUOUS
 62
     7
100
AcDbMText
 10
85.408525
 20
0.0
 30
0.0
 40
3.2
 41
0.0
 71
     5
 72
     1
  1
\A1;\U+220540
 11
0.0
 21
1.0
 31
0.0
 73
     1
 44
0.9
  0
POINT
  5
FC
100
AcDbEntity
  8
DEFPOINTS
390
0
  6
CONTINUOUS
 62
     0
100
AcDbPoint
 10
77.233337
 20
20.0
 30
0.0
  0
POINT
  5
FD
100
AcDbEntity
  8
DEFPOINTS
390
0
  6
CONTINUOUS
 62
     0
100
AcDbPoint
 10
77.233337
 20
-20.0
 30
0.0
  0
POINT
  5
FE
100
AcDbEntity
  8
DEFPOINTS
390
0
  6
CONTINUOUS
 62
     0
100
AcDbPoint
 10
88.008525
 20
-20.0
 30
0.0
  0
ENDBLK
  5
FF
100
AcDbEntity
  8
0
370
    -2
390
0
  6
ByBlock
 62
     0
100
AcDbBlockEnd
  0
BLOCK
  5
102
100
AcDbEntity
  8
0
370
    -2
390
0
  6
ByBlock
 62
     0
100
AcDbBlockBegin
  2
*D9
 70
     1
 10
0.0
 20
0.0
 30
0.0
  3
*D9
  1

  0
LINE
  5
103
100
AcDbEntity
  8
0
390
0
  6
CONTINUOUS
 62
     7
100
AcDbLine
 10
47.233337
 20
42.843933
 30
0.0
 11
77.233337
 21
42.843933
 31
0.0
  0
LINE
  5
104
100
AcDbEntity
  8
0
390
0
  6
CONTINUOUS
 62
     7
100
AcDbLine
 10
47.233337
 20
19.480387
 30
0.0
 11
47.233337
 21
45.343933
 31
0.0
  0
LINE
  5
105
100
AcDbEntity
  8
0
390
0
  6
CONTINUOUS
 62
     7
100
AcDbLine
 10
77.233337
 20
20.0
 30
0.0
 11
77.233337
 21
45.343933
 31
0.0
  0
INSERT
  5
106
100
AcDbEntity
  8
0
390
0
  6
CONTINUOUS
 62
     7
100
AcDbBlockReference
  2
_OPEN
 10
47.233337
 20
42.843933
 30
0.0
 41
3.0
 42
3.0
 43
3.0
 50
180.0
  0
INSERT
  5
107
100
AcDbEntity
  8
0
390
0
  6
CONTINUOUS
 62
     7
100
AcDbBlockReference
  2
_OPEN
 10
77.233337
 20
42.843933
 30
0.0
 41
3.0
 42
3.0
 43
3.0
  0
MTEXT
  5
109
100
AcDbEntity
  8
0
390
0
  6
CONTINUOUS
 62
     7
100
AcDbMText
 10
62.233337
 20
45.443933
 30
0.0
 40
3.2
 41
0.0
 71
     5
 72
     1
  1
\A1;30
  7
MX_DIMTXSTY_5
 73
     1
 44
0.9
  0
POINT
  5
10A
100
AcDbEntity
  8
DEFPOINTS
390
0
  6
CONTINUOUS
 62
     0
100
AcDbPoint
 10
47.233337
 20
19.480387
 30
0.0
  0
POINT
  5
10B
100
AcDbEntity
  8
DEFPOINTS
390
0
  6
CONTINUOUS
 62
     0
100
AcDbPoint
 10
77.233337
 20
20.0
 30
0.0
  0
POINT
  5
10C
100
AcDbEntity
  8
DEFPOINTS
390
0
  6
CONTINUOUS
 62
     0
100
AcDbPoint
 10
77.233337
 20
42.843933
 30
0.0
  0
ENDBLK
  5
10D
100
AcDbEntity
  8
0
370
    -2
390
0
  6
ByBlock
 62
     0
100
AcDbBlockEnd
  0
BLOCK
  5
110
100
AcDbEntity
  8
0
370
    -2
390
0
  6
ByBlock
 62
     0
100
AcDbBlockBegin
  2
*D10
 70
     1
 10
0.0
 20
0.0
 30
0.0
  3
*D10
  1

  0
LINE
  5
111
100
AcDbEntity
  8
0
390
0
  6
CONTINUOUS
 62
     7
100
AcDbLine
 10
52.233337
 20
38.201518
 30
0.0
 11
77.233337
 21
38.201518
 31
0.0
  0
LINE
  5
112
100
AcDbEntity
  8
0
390
0
  6
CONTINUOUS
 62
     7
100
AcDbLine
 10
52.233337
 20
22.0
 30
0.0
 11
52.233337
 21
40.701518
 31
0.0
  0
INSERT
  5
113
100
AcDbEntity
  8
0
390
0
  6
CONTINUOUS
 62
     7
100
AcDbBlockReference
  2
_OPEN
 10
52.233337
 20
38.201518
 30
0.0
 41
3.0
 42
3.0
 43
3.0
 50
180.0
  0
INSERT
  5
114
100
AcDbEntity
  8
0
390
0
  6
CONTINUOUS
 62
     7
100
AcDbBlockReference
  2
_OPEN
 10
77.233337
 20
38.201518
 30
0.0
 41
3.0
 42
3.0
 43
3.0
  0
MTEXT
  5
115
100
AcDbEntity
  8
0
390
0
  6
CONTINUOUS
 62
     7
100
AcDbMText
 10
64.733337
 20
40.801518
 30
0.0
 40
3.2
 41
0.0
 71
     5
 72
     1
  1
\A1;25
 73
     1
 44
0.9
  0
POINT
  5
116
100
AcDbEntity
  8
DEFPOINTS
390
0
  6
CONTINUOUS
 62
     0
100
AcDbPoint
 10
52.233337
 20
22.0
 30
0.0
  0
POINT
  5
117
100
AcDbEntity
  8
DEFPOINTS
390
0
  6
CONTINUOUS
 62
     0
100
AcDbPoint
 10
77.233337
 20
20.0
 30
0.0
  0
POINT
  5
118
100
AcDbEntity
  8
DEFPOINTS
390
0
  6
CONTINUOUS
 62
     0
100
AcDbPoint
 10
77.233337
 20
38.201518
 30
0.0
  0
ENDBLK
  5
119
100
AcDbEntity
  8
0
370
    -2
390
0
  6
ByBlock
 62
     0
100
AcDbBlockEnd
  0
BLOCK
  5
11C
100
AcDbEntity
  8
0
370
    -2
390
0
  6
ByBlock
 62
     0
100
AcDbBlockBegin
  2
*D11
 70
     1
 10
0.0
 20
0.0
 30
0.0
  3
*D11
  1

  0
LINE
  5
11D
100
AcDbEntity
  8
0
390
0
  6
CONTINUOUS
 62
     7
100
AcDbLine
 10
56.733337
 20
33.559092
 30
0.0
 11
77.233337
 21
33.559092
 31
0.0
  0
LINE
  5
11E
100
AcDbEntity
  8
0
390
0
  6
CONTINUOUS
 62
     7
100
AcDbLine
 10
56.733337
 20
22.0
 30
0.0
 11
56.733337
 21
36.059077
 31
0.0
  0
INSERT
  5
11F
100
AcDbEntity
  8
0
390
0
  6
CONTINUOUS
 62
     7
100
AcDbBlockReference
  2
_OPEN
 10
56.733337
 20
33.559092
 30
0.0
 41
3.0
 42
3.0
 43
3.0
 50
180.0
  0
INSERT
  5
120
100
AcDbEntity
  8
0
390
0
  6
CONTINUOUS
 62
     7
100
AcDbBlockReference
  2
_OPEN
 10
77.233337
 20
33.559092
 30
0.0
 41
3.0
 42
3.0
 43
3.0
  0
MTEXT
  5
122
100
AcDbEntity
  8
0
390
0
  6
CONTINUOUS
 62
     7
100
AcDbMText
 10
66.983337
 20
36.159092
 30
0.0
 40
3.2
 41
0.0
 71
     5
 72
     1
  1
\A1;20.5
  7
MX_DIMTXSTY_6
 73
     1
 44
0.9
  0
POINT
  5
123
100
AcDbEntity
  8
DEFPOINTS
390
0
  6
CONTINUOUS
 62
     0
100
AcDbPoint
 10
56.733337
 20
22.0
 30
0.0
  0
POINT
  5
124
100
AcDbEntity
  8
DEFPOINTS
390
0
  6
CONTINUOUS
 62
     0
100
AcDbPoint
 10
77.233337
 20
20.0
 30
0.0
  0
POINT
  5
125
100
AcDbEntity
  8
DEFPOINTS
390
0
  6
CONTINUOUS
 62
     0
100
AcDbPoint
 10
77.233337
 20
33.559092
 30
0.0
  0
ENDBLK
  5
126
100
AcDbEntity
  8
0
370
    -2
390
0
  6
ByBlock
 62
     0
100
AcDbBlockEnd
  0
ENDSEC
  0
SECTION
  2
ENTITIES
  0
DIMENSION
  5
41
100
AcDbEntity
  8
LY_1
390
0
  6
CONTINUOUS
 62
     7
100
AcDbDimension
  2
*D1
 10
56.733337
 20
33.559092
 30
0.0
 11
42.164586
 21
33.559092
 31
0.0
 70
   128
 71
     5
 72
     1
 41
0.9
 42
4.5
  1
\A1;<>
  3
MXDIMSTYLE
100
AcDbAlignedDimension
 13
52.233337
 23
22.0
 33
0.0
 14
56.733337
 24
22.0
 34
0.0
100
AcDbRotatedDimension
1001
ACAD
1000
DSTYLE
1002
{
1070
     6
1000
_OPEN
1070
     7
1000
_NONE
1070
    41
1040
3.0
1070
    75
1070
     1
1070
    76
1070
     1
1070
   140
1040
3.2
1070
   271
1070
     1
1070
   284
1070
     8
1070
   340
1005
3B
1070
   343
1005
30
1070
   344
1005
37
1002
}
  0
LINE
  5
43
100
AcDbEntity
  8
LY_1
390
0
  6
CENTER
 62
     7
100
AcDbLine
 10
49.612503
 20
0.0
 30
0.0
 11
80.31951
 21
0.0
 31
0.0
  0
LINE
  5
44
100
AcDbEntity
  8
LY_1
390
0
  6
CONTINUOUS
 62
   254
100
AcDbLine
 10
74.733337
 20
-11.5
 30
0.0
 11
74.733337
 21
11.5
 31
0.0
  0
LINE
  5
45
100
AcDbEntity
  8
LY_1
390
0
  6
CONTINUOUS
 62
   254
100
AcDbLine
 10
52.233337
 20
-11.0
 30
0.0
 11
74.733337
 21
-11.0
 31
0.0
  0
LINE
  5
46
100
AcDbEntity
  8
LY_1
390
0
  6
CENTER
 62
     7
100
AcDbLine
 10
50.751938
 20
-16.0
 30
0.0
 11
60.36557
 21
-16.0
 31
0.0
  0
LINE
  5
47
100
AcDbEntity
  8
LY_1
390
0
  6
CONTINUOUS
 62
     7
100
AcDbLine
 10
52.233337
 20
-13.5
 30
0.0
 11
59.733337
 21
-13.5
 31
0.0
  0
LINE
  5
48
100
AcDbEntity
  8
LY_1
390
0
  6
CONTINUOUS
 62
     7
100
AcDbLine
 10
52.233337
 20
-18.5
 30
0.0
 11
59.733337
 21
-18.5
 31
0.0
  0
LINE
  5
49
100
AcDbEntity
  8
LY_1
390
0
  6
CONTINUOUS
 62
   254
100
AcDbLine
 10
52.233337
 20
-13.933004
 30
0.0
 11
59.733337
 21
-13.933004
 31
0.0
  0
LINE
  5
4A
100
AcDbEntity
  8
LY_1
390
0
  6
CONTINUOUS
 62
   254
100
AcDbLine
 10
52.233337
 20
-18.066996
 30
0.0
 11
59.733337
 21
-18.066996
 31
0.0
  0
LINE
  5
4B
100
AcDbEntity
  8
LY_1
390
0
  6
CONTINUOUS
 62
   254
100
AcDbLine
 10
59.733337
 20
-12.63736
 30
0.0
 11
59.733337
 21
-20.0
 31
0.0
  0
LINE
  5
4C
100
AcDbEntity
  8
LY_1
390
0
  6
CONTINUOUS
 62
   254
100
AcDbLine
 10
56.733337
 20
-20.0
 30
0.0
 11
59.733337
 21
-20.0
 31
0.0
  0
LINE
  5
4D
100
AcDbEntity
  8
LY_1
390
0
  6
CONTINUOUS
 62
   254
100
AcDbLine
 10
52.233337
 20
-22.0
 30
0.0
 11
56.733337
 21
-22.0
 31
0.0
  0
LINE
  5
4E
100
AcDbEntity
  8
LY_1
390
0
  6
CONTINUOUS
 62
   254
100
AcDbLine
 10
56.733337
 20
-22.0
 30
0.0
 11
56.733337
 21
-20.0
 31
0.0
  0
LINE
  5
4F
100
AcDbEntity
  8
LY_1
390
0
  6
CONTINUOUS
 62
   254
100
AcDbLine
 10
59.733337
 20
-12.63736
 30
0.0
 11
61.733337
 21
-12.63736
 31
0.0
  0
LINE
  5
50
100
AcDbEntity
  8
LY_1
390
0
  6
CONTINUOUS
 62
   254
100
AcDbLine
 10
77.233337
 20
-11.28128
 30
0.0
 11
61.733333
 21
-12.637355
 31
0.0
  0
LINE
  5
51
100
AcDbEntity
  8
LY_1
390
0
  6
CONTINUOUS
 62
   254
100
AcDbLine
 10
62.233337
 20
-20.0
 30
0.0
 11
62.233337
 21
-12.593618
 31
0.0
  0
LINE
  5
52
100
AcDbEntity
  8
LY_1
390
0
  6
CONTINUOUS
 62
   254
100
AcDbLine
 10
62.233337
 20
-20.0
 30
0.0
 11
77.233337
 21
-20.0
 31
0.0
  0
LINE
  5
53
100
AcDbEntity
  8
LY_1
390
0
  6
CONTINUOUS
 62
   254
100
AcDbLine
 10
52.233337
 20
-22.0
 30
0.0
 11
52.233337
 21
22.0
 31
0.0
  0
LINE
  5
54
100
AcDbEntity
  8
LY_1
390
0
  6
CONTINUOUS
 62
   254
100
AcDbLine
 10
52.233337
 20
11.0
 30
0.0
 11
74.733337
 21
11.0
 31
0.0
  0
LINE
  5
55
100
AcDbEntity
  8
LY_1
390
0
  6
CENTER
 62
     7
100
AcDbLine
 10
45.712504
 20
16.0
 30
0.0
 11
79.739207
 21
16.0
 31
0.0
  0
LINE
  5
56
100
AcDbEntity
  8
LY_1
390
0
  6
CONTINUOUS
 62
   254
100
AcDbLine
 10
62.233337
 20
20.0
 30
0.0
 11
77.233337
 21
20.0
 31
0.0
  0
LINE
  5
57
100
AcDbEntity
  8
LY_1
390
0
  6
CONTINUOUS
 62
   254
100
AcDbLine
 10
77.233337
 20
11.281285
 30
0.0
 11
61.733332
 21
12.63736
 31
0.0
  0
LINE
  5
58
100
AcDbEntity
  8
LY_1
390
0
  6
CONTINUOUS
 62
   254
100
AcDbLine
 10
62.233337
 20
20.0
 30
0.0
 11
62.233337
 21
18.066986
 31
0.0
  0
LINE
  5
59
100
AcDbEntity
  8
LY_1
390
0
  6
CONTINUOUS
 62
   254
100
AcDbLine
 10
77.233337
 20
-20.0
 30
0.0
 11
77.233337
 21
20.0
 31
0.0
  0
LINE
  5
5A
100
AcDbEntity
  8
LY_1
390
0
  6
CONTINUOUS
 62
   254
100
AcDbLine
 10
59.733337
 20
12.63736
 30
0.0
 11
59.733337
 21
13.5
 31
0.0
  0
LINE
  5
5B
100
AcDbEntity
  8
LY_1
390
0
  6
CONTINUOUS
 62
   254
100
AcDbLine
 10
56.733337
 20
20.0
 30
0.0
 11
59.733337
 21
20.0
 31
0.0
  0
LINE
  5
5C
100
AcDbEntity
  8
LY_1
390
0
  6
CONTINUOUS
 62
   254
100
AcDbLine
 10
52.233337
 20
22.0
 30
0.0
 11
56.733337
 21
22.0
 31
0.0
  0
LINE
  5
5D
100
AcDbEntity
  8
LY_1
390
0
  6
CONTINUOUS
 62
   254
100
AcDbLine
 10
56.733337
 20
22.0
 30
0.0
 11
56.733337
 21
20.0
 31
0.0
  0
LINE
  5
5E
100
AcDbEntity
  8
LY_1
390
0
  6
CONTINUOUS
 62
   254
100
AcDbLine
 10
59.733337
 20
12.63736
 30
0.0
 11
61.733337
 21
12.63736
 31
0.0
  0
LINE
  5
5F
100
AcDbEntity
  8
LY_1
390
0
  6
CENTER
 62
     7
100
AcDbLine
 10
-23.061178
 20
0.0
 30
0.0
 11
23.373479
 21
0.0
 31
0.0
  0
LINE
  5
60
100
AcDbEntity
  8
LY_1
390
0
  6
CENTER
 62
     7
100
AcDbLine
 10
0.0
 20
23.003713
 30
0.0
 11
0.0
 21
-22.968903
 31
0.0
  0
LINE
  5
61
100
AcDbEntity
  8
LY_1
390
0
  6
CENTER
 62
     7
100
AcDbLine
 10
8.460117
 20
4.884449
 30
0.0
 11
19.66544
 21
11.353845
 31
0.0
  0
LINE
  5
62
100
AcDbEntity
  8
LY_1
390
0
  6
CENTER
 62
     7
100
AcDbLine
 10
-7.562245
 20
-4.366066
 30
0.0
 11
-20.124408
 21
-11.618834
 31
0.0
  0
LINE
  5
63
100
AcDbEntity
  8
LY_1
390
0
  6
CENTER
 62
     7
100
AcDbLine
 10
8.656066
 20
-4.997581
 30
0.0
 11
19.969888
 21
-11.529619
 31
0.0
  0
LINE
  5
64
100
AcDbEntity
  8
LY_1
390
0
  6
CENTER
 62
     7
100
AcDbLine
 10
-8.469968
 20
4.89014
 30
0.0
 11
-20.046653
 21
11.573942
 31
0.0
  0
LINE
  5
65
100
AcDbEntity
  8
LY_1
390
0
  6
CENTER
 62
     7
100
AcDbLine
 10
5.163921
 20
8.944161
 30
0.0
 11
11.576269
 21
20.050674
 31
0.0
  0
LINE
  5
66
100
AcDbEntity
  8
LY_1
390
0
  6
CENTER
 62
     7
100
AcDbLine
 10
4.963135
 20
-8.596403
 30
0.0
 11
11.485479
 21
-19.893434
 31
0.0
  0
LINE
  5
67
100
AcDbEntity
  8
LY_1
390
0
  6
CONTINUOUS
 62
   254
100
AcDbLine
 10
-4.972196
 20
-9.8121
 30
0.0
 11
-10.476293
 21
-19.345476
 31
0.0
  0
LINE
  5
68
100
AcDbEntity
  8
LY_1
390
0
  6
CONTINUOUS
 62
   254
100
AcDbLine
 10
-6.011428
 20
-9.212099
 30
0.0
 11
-11.515525
 21
-18.745475
 31
0.0
  0
LINE
  5
69
100
AcDbEntity
  8
LY_1
390
0
  6
CONTINUOUS
 62
   254
100
AcDbLine
 10
47.233337
 20
19.730387
 30
0.0
 11
47.233337
 21
12.269623
 31
0.0
  0
LINE
  5
6A
100
AcDbEntity
  8
LY_1
390
0
  6
CONTINUOUS
 62
   254
100
AcDbLine
 10
47.53334
 20
20.25
 30
0.0
 11
47.53334
 21
11.75
 31
0.0
  0
LINE
  5
6B
100
AcDbEntity
  8
LY_1
390
0
  6
CONTINUOUS
 62
   254
100
AcDbLine
 10
47.233331
 20
19.730382
 30
0.0
 11
47.533328
 21
20.249994
 31
0.0
  0
LINE
  5
6C
100
AcDbEntity
  8
LY_1
390
0
  6
CONTINUOUS
 62
   254
100
AcDbLine
 10
52.233337
 20
20.25
 30
0.0
 11
47.53334
 21
20.25
 31
0.0
  0
LINE
  5
6D
100
AcDbEntity
  8
LY_1
390
0
  6
CONTINUOUS
 62
   254
100
AcDbLine
 10
47.233344
 20
12.269606
 30
0.0
 11
47.533342
 21
11.749994
 31
0.0
  0
LINE
  5
6E
100
AcDbEntity
  8
LY_1
390
0
  6
CONTINUOUS
 62
   254
100
AcDbLine
 10
52.233337
 20
11.75
 30
0.0
 11
47.53334
 21
11.75
 31
0.0
  0
LINE
  5
6F
100
AcDbEntity
  8
LY_1
390
0
  6
CONTINUOUS
 62
   254
100
AcDbLine
 10
77.233337
 20
18.5
 30
0.0
 11
52.433365
 21
18.5
 31
0.0
  0
LINE
  5
70
100
AcDbEntity
  8
LY_1
390
0
  6
CONTINUOUS
 62
   254
100
AcDbLine
 10
77.233337
 20
13.5
 30
0.0
 11
52.433365
 21
13.5
 31
0.0
  0
LINE
  5
71
100
AcDbEntity
  8
LY_1
390
0
  6
CONTINUOUS
 62
     7
100
AcDbLine
 10
54.233338
 20
13.933012
 30
0.0
 11
53.367312
 21
13.499999
 31
0.0
  0
LINE
  5
72
100
AcDbEntity
  8
LY_1
390
0
  6
CONTINUOUS
 62
   254
100
AcDbLine
 10
54.233337
 20
18.5
 30
0.0
 11
54.233337
 21
13.5
 31
0.0
  0
LINE
  5
73
100
AcDbEntity
  8
LY_1
390
0
  6
CONTINUOUS
 62
     7
100
AcDbLine
 10
54.233337
 20
13.933014
 30
0.0
 11
77.233337
 21
13.933014
 31
0.0
  0
LINE
  5
74
100
AcDbEntity
  8
LY_1
390
0
  6
CONTINUOUS
 62
     7
100
AcDbLine
 10
54.233319
 20
18.066986
 30
0.0
 11
53.367298
 21
18.499997
 31
0.0
  0
LINE
  5
75
100
AcDbEntity
  8
LY_1
390
0
  6
CONTINUOUS
 62
     7
100
AcDbLine
 10
54.233337
 20
18.066986
 30
0.0
 11
77.233337
 21
18.066986
 31
0.0
  0
LINE
  5
76
100
AcDbEntity
  8
LY_1
390
0
  6
CONTINUOUS
 62
   254
100
AcDbLine
 10
69.333328
 20
18.5
 30
0.0
 11
69.333328
 21
13.5
 31
0.0
  0
LINE
  5
77
100
AcDbEntity
  8
LY_1
390
0
  6
CONTINUOUS
 62
   254
100
AcDbLine
 10
69.333328
 20
18.500004
 30
0.0
 11
70.233336
 21
17.600005
 31
0.0
  0
LINE
  5
78
100
AcDbEntity
  8
LY_1
390
0
  6
CONTINUOUS
 62
   254
100
AcDbLine
 10
70.233337
 20
17.599996
 30
0.0
 11
70.233337
 21
14.400004
 31
0.0
  0
LINE
  5
79
100
AcDbEntity
  8
LY_1
390
0
  6
CONTINUOUS
 62
   254
100
AcDbLine
 10
69.333335
 20
13.500002
 30
0.0
 11
70.233342
 21
14.400001
 31
0.0
  0
LINE
  5
7A
100
AcDbEntity
  8
LY_1
390
0
  6
CONTINUOUS
 62
   254
100
AcDbLine
 10
59.733337
 20
18.5
 30
0.0
 11
59.733337
 21
20.0
 31
0.0
  0
LINE
  5
7B
100
AcDbEntity
  8
LY_1
390
0
  6
CONTINUOUS
 62
   254
100
AcDbLine
 10
62.233337
 20
13.933014
 30
0.0
 11
62.233337
 21
12.593608
 31
0.0
  0
ARC
  5
7C
100
AcDbEntity
  8
LY_1
390
0
  6
CONTINUOUS
 62
   254
100
AcDbCircle
 10
0.0
 20
0.0
 30
0.0
 40
22.0
100
AcDbArc
 50
241.562799
 51
0.0
  0
ARC
  5
7D
100
AcDbEntity
  8
LY_1
390
0
  6
CONTINUOUS
 62
   254
100
AcDbCircle
 10
0.0
 20
0.0
 30
0.0
 40
22.0
100
AcDbArc
 50
0.0
 51
238.437205
  0
ARC
  5
7E
100
AcDbEntity
  8
LY_1
390
0
  6
CONTINUOUS
 62
   254
100
AcDbCircle
 10
0.0
 20
0.0
 30
0.0
 40
11.0
100
AcDbArc
 50
0.0
 51
236.873228
  0
CIRCLE
  5
7F
100
AcDbEntity
  8
LY_1
390
0
  6
CONTINUOUS
 62
     7
100
AcDbCircle
 10
8.0
 20
-13.856405
 30
0.0
 40
2.5
  0
CIRCLE
  5
80
100
AcDbEntity
  8
LY_1
390
0
  6
CONTINUOUS
 62
   254
100
AcDbCircle
 10
8.0
 20
-13.856405
 30
0.0
 40
2.067
  0
ARC
  5
81
100
AcDbEntity
  8
LY_1
390
0
  6
CONTINUOUS
 62
   254
100
AcDbCircle
 10
0.0
 20
0.0
 30
0.0
 40
11.0
100
AcDbArc
 50
243.126775
 51
0.0
  0
ARC
  5
82
100
AcDbEntity
  8
LY_1
390
0
  6
CONTINUOUS
 62
   254
100
AcDbCircle
 10
52.433339
 20
13.299998
 30
0.0
 40
0.199999
100
AcDbArc
 50
89.999982
 51
180.000237
  0
ARC
  5
83
100
AcDbEntity
  8
LY_1
390
0
  6
CONTINUOUS
 62
   254
100
AcDbCircle
 10
52.433339
 20
18.700002
 30
0.0
 40
0.2
100
AcDbArc
 50
179.999745
 51
270.000001
  0
ARC
  5
84
100
AcDbEntity
  8
LY_1
390
0
  6
CONTINUOUS
 62
   254
100
AcDbCircle
 10
0.0
 20
0.0
 30
0.0
 40
20.0
100
AcDbArc
 50
238.280879
 51
241.719128
  0
ARC
  5
85
100
AcDbEntity
  8
LY_1
390
0
  6
CONTINUOUS
 62
   254
100
AcDbCircle
 10
0.0
 20
0.0
 30
0.0
 40
11.281283
100
AcDbArc
 50
236.951246
 51
243.048734
  0
ARC
  5
86
100
AcDbEntity
  8
LY_1
390
0
  6
CONTINUOUS
 62
   254
100
AcDbCircle
 10
0.0
 20
0.0
 30
0.0
 40
12.593613
100
AcDbArc
 50
237.269205
 51
242.730788
  0
CIRCLE
  5
87
100
AcDbEntity
  8
LY_1
390
0
  6
CENTER
 62
     7
100
AcDbCircle
 10
0.0
 20
0.0
 30
0.0
 40
16.0
  0
CIRCLE
  5
88
100
AcDbEntity
  8
LY_1
390
0
  6
CONTINUOUS
 62
     7
100
AcDbCircle
 10
8.0
 20
13.856405
 30
0.0
 40
2.5
  0
CIRCLE
  5
89
100
AcDbEntity
  8
LY_1
390
0
  6
CONTINUOUS
 62
   254
100
AcDbCircle
 10
8.0
 20
13.856405
 30
0.0
 40
2.067
  0
CIRCLE
  5
8A
100
AcDbEntity
  8
LY_1
390
0
  6
CONTINUOUS
 62
     7
100
AcDbCircle
 10
-16.0
 20
0.0
 30
0.0
 40
2.5
  0
CIRCLE
  5
8B
100
AcDbEntity
  8
LY_1
390
0
  6
CONTINUOUS
 62
   254
100
AcDbCircle
 10
-16.0
 20
0.0
 30
0.0
 40
2.067
  0
CIRCLE
  5
8C
100
AcDbEntity
  8
LY_1
390
0
  6
CONTINUOUS
 62
   254
100
AcDbCircle
 10
13.856405
 20
8.0
 30
0.0
 40
3.74
  0
CIRCLE
  5
8D
100
AcDbEntity
  8
LY_1
390
0
  6
CONTINUOUS
 62
   254
100
AcDbCircle
 10
13.856405
 20
8.0
 30
0.0
 40
4.25
  0
LINE
  5
8E
100
AcDbEntity
  8
LY_1
390
0
  6
CONTINUOUS
 62
   254
100
AcDbLine
 10
13.856427
 20
5.690611
 30
0.0
 11
11.85644
 21
6.845305
 31
0.0
  0
LINE
  5
8F
100
AcDbEntity
  8
LY_1
390
0
  6
CONTINUOUS
 62
   254
100
AcDbLine
 10
11.85644
 20
6.845299
 30
0.0
 11
11.85644
 21
9.15467
 31
0.0
  0
LINE
  5
90
100
AcDbEntity
  8
LY_1
390
0
  6
CONTINUOUS
 62
   254
100
AcDbLine
 10
11.856434
 20
9.154678
 30
0.0
 11
13.856422
 21
10.309371
 31
0.0
  0
LINE
  5
91
100
AcDbEntity
  8
LY_1
390
0
  6
CONTINUOUS
 62
   254
100
AcDbLine
 10
13.856416
 20
10.309376
 30
0.0
 11
15.85639
 21
9.15469
 31
0.0
  0
LINE
  5
92
100
AcDbEntity
  8
LY_1
390
0
  6
CONTINUOUS
 62
   254
100
AcDbLine
 10
15.856402
 20
9.154669
 30
0.0
 11
15.856402
 21
6.845283
 31
0.0
  0
LINE
  5
93
100
AcDbEntity
  8
LY_1
390
0
  6
CONTINUOUS
 62
   254
100
AcDbLine
 10
15.856391
 20
6.845288
 30
0.0
 11
13.856417
 21
5.690603
 31
0.0
  0
CIRCLE
  5
94
100
AcDbEntity
  8
LY_1
390
0
  6
CONTINUOUS
 62
   254
100
AcDbCircle
 10
0.0
 20
16.0
 30
0.0
 40
3.74
  0
CIRCLE
  5
95
100
AcDbEntity
  8
LY_1
390
0
  6
CONTINUOUS
 62
   254
100
AcDbCircle
 10
0.0
 20
16.0
 30
0.0
 40
4.25
  0
LINE
  5
96
100
AcDbEntity
  8
LY_1
390
0
  6
CONTINUOUS
 62
   254
100
AcDbLine
 10
2.0
 20
14.845325
 30
0.0
 11
0.000013
 21
13.690632
 31
0.0
  0
LINE
  5
97
100
AcDbEntity
  8
LY_1
390
0
  6
CONTINUOUS
 62
   254
100
AcDbLine
 10
0.000018
 20
13.690629
 30
0.0
 11
-1.999956
 21
14.845315
 31
0.0
  0
LINE
  5
98
100
AcDbEntity
  8
LY_1
390
0
  6
CONTINUOUS
 62
   254
100
AcDbLine
 10
-1.999966
 20
14.845314
 30
0.0
 11
-1.999966
 21
17.1547
 31
0.0
  0
LINE
  5
99
100
AcDbEntity
  8
LY_1
390
0
  6
CONTINUOUS
 62
   254
100
AcDbLine
 10
-1.999973
 20
17.154698
 30
0.0
 11
0.000001
 21
18.309383
 31
0.0
  0
LINE
  5
9A
100
AcDbEntity
  8
LY_1
390
0
  6
CONTINUOUS
 62
   254
100
AcDbLine
 10
0.000026
 20
18.309383
 30
0.0
 11
2.000013
 21
17.15469
 31
0.0
  0
LINE
  5
9B
100
AcDbEntity
  8
LY_1
390
0
  6
CONTINUOUS
 62
   254
100
AcDbLine
 10
2.000003
 20
17.154683
 30
0.0
 11
2.000003
 21
14.845312
 31
0.0
  0
CIRCLE
  5
9C
100
AcDbEntity
  8
LY_1
390
0
  6
CONTINUOUS
 62
   254
100
AcDbCircle
 10
-13.856405
 20
8.0
 30
0.0
 40
3.74
  0
CIRCLE
  5
9D
100
AcDbEntity
  8
LY_1
390
0
  6
CONTINUOUS
 62
   254
100
AcDbCircle
 10
-13.856405
 20
8.0
 30
0.0
 40
4.25
  0
LINE
  5
9E
100
AcDbEntity
  8
LY_1
390
0
  6
CONTINUOUS
 62
   254
100
AcDbLine
 10
-11.856426
 20
9.154713
 30
0.0
 11
-11.856427
 21
6.845327
 31
0.0
  0
LINE
  5
9F
100
AcDbEntity
  8
LY_1
390
0
  6
CONTINUOUS
 62
   254
100
AcDbLine
 10
-11.856422
 20
6.84533
 30
0.0
 11
-13.856396
 21
5.690645
 31
0.0
  0
LINE
  5
A0
100
AcDbEntity
  8
LY_1
390
0
  6
CONTINUOUS
 62
   254
100
AcDbLine
 10
-13.8564
 20
5.690636
 30
0.0
 11
-15.856387
 21
6.845329
 31
0.0
  0
LINE
  5
A1
100
AcDbEntity
  8
LY_1
390
0
  6
CONTINUOUS
 62
   254
100
AcDbLine
 10
-15.856389
 20
6.845322
 30
0.0
 11
-15.856388
 21
9.154693
 31
0.0
  0
LINE
  5
A2
100
AcDbEntity
  8
LY_1
390
0
  6
CONTINUOUS
 62
   254
100
AcDbLine
 10
-15.856376
 20
9.154714
 30
0.0
 11
-13.856389
 21
10.309407
 31
0.0
  0
LINE
  5
A3
100
AcDbEntity
  8
LY_1
390
0
  6
CONTINUOUS
 62
   254
100
AcDbLine
 10
-13.856388
 20
10.309395
 30
0.0
 11
-11.856414
 21
9.154709
 31
0.0
  0
CIRCLE
  5
A4
100
AcDbEntity
  8
LY_1
390
0
  6
CONTINUOUS
 62
   254
100
AcDbCircle
 10
-13.856405
 20
-8.0
 30
0.0
 40
3.74
  0
CIRCLE
  5
A5
100
AcDbEntity
  8
LY_1
390
0
  6
CONTINUOUS
 62
   254
100
AcDbCircle
 10
-13.856405
 20
-8.0
 30
0.0
 40
4.25
  0
LINE
  5
A6
100
AcDbEntity
  8
LY_1
390
0
  6
CONTINUOUS
 62
   254
100
AcDbLine
 10
-13.856427
 20
-5.690611
 30
0.0
 11
-11.85644
 21
-6.845305
 31
0.0
  0
LINE
  5
A7
100
AcDbEntity
  8
LY_1
390
0
  6
CONTINUOUS
 62
   254
100
AcDbLine
 10
-11.85644
 20
-6.845299
 30
0.0
 11
-11.85644
 21
-9.15467
 31
0.0
  0
LINE
  5
A8
100
AcDbEntity
  8
LY_1
390
0
  6
CONTINUOUS
 62
   254
100
AcDbLine
 10
-11.856434
 20
-9.154678
 30
0.0
 11
-13.856422
 21
-10.309371
 31
0.0
  0
LINE
  5
A9
100
AcDbEntity
  8
LY_1
390
0
  6
CONTINUOUS
 62
   254
100
AcDbLine
 10
-13.856416
 20
-10.309376
 30
0.0
 11
-15.85639
 21
-9.15469
 31
0.0
  0
LINE
  5
AA
100
AcDbEntity
  8
LY_1
390
0
  6
CONTINUOUS
 62
   254
100
AcDbLine
 10
-15.856402
 20
-9.154669
 30
0.0
 11
-15.856402
 21
-6.845283
 31
0.0
  0
LINE
  5
AB
100
AcDbEntity
  8
LY_1
390
0
  6
CONTINUOUS
 62
   254
100
AcDbLine
 10
-15.856391
 20
-6.845288
 30
0.0
 11
-13.856417
 21
-5.690603
 31
0.0
  0
CIRCLE
  5
AC
100
AcDbEntity
  8
LY_1
390
0
  6
CONTINUOUS
 62
   254
100
AcDbCircle
 10
0.0
 20
-16.0
 30
0.0
 40
3.74
  0
CIRCLE
  5
AD
100
AcDbEntity
  8
LY_1
390
0
  6
CONTINUOUS
 62
   254
100
AcDbCircle
 10
0.0
 20
-16.0
 30
0.0
 40
4.25
  0
LINE
  5
AE
100
AcDbEntity
  8
LY_1
390
0
  6
CONTINUOUS
 62
   254
100
AcDbLine
 10
-2.0
 20
-14.845325
 30
0.0
 11
-0.000013
 21
-13.690632
 31
0.0
  0
LINE
  5
AF
100
AcDbEntity
  8
LY_1
390
0
  6
CONTINUOUS
 62
   254
100
AcDbLine
 10
-0.000018
 20
-13.690629
 30
0.0
 11
1.999956
 21
-14.845315
 31
0.0
  0
LINE
  5
B0
100
AcDbEntity
  8
LY_1
390
0
  6
CONTINUOUS
 62
   254
100
AcDbLine
 10
1.999966
 20
-14.845314
 30
0.0
 11
1.999966
 21
-17.1547
 31
0.0
  0
LINE
  5
B1
100
AcDbEntity
  8
LY_1
390
0
  6
CONTINUOUS
 62
   254
100
AcDbLine
 10
1.999973
 20
-17.154698
 30
0.0
 11
-0.000001
 21
-18.309383
 31
0.0
  0
LINE
  5
B2
100
AcDbEntity
  8
LY_1
390
0
  6
CONTINUOUS
 62
   254
100
AcDbLine
 10
-0.000026
 20
-18.309383
 30
0.0
 11
-2.000013
 21
-17.15469
 31
0.0
  0
LINE
  5
B3
100
AcDbEntity
  8
LY_1
390
0
  6
CONTINUOUS
 62
   254
100
AcDbLine
 10
-2.000003
 20
-17.154683
 30
0.0
 11
-2.000003
 21
-14.845312
 31
0.0
  0
CIRCLE
  5
B4
100
AcDbEntity
  8
LY_1
390
0
  6
CONTINUOUS
 62
   254
100
AcDbCircle
 10
13.856405
 20
-8.0
 30
0.0
 40
3.74
  0
CIRCLE
  5
B5
100
AcDbEntity
  8
LY_1
390
0
  6
CONTINUOUS
 62
   254
100
AcDbCircle
 10
13.856405
 20
-8.0
 30
0.0
 40
4.25
  0
LINE
  5
B6
100
AcDbEntity
  8
LY_1
390
0
  6
CONTINUOUS
 62
   254
100
AcDbLine
 10
11.856426
 20
-9.154713
 30
0.0
 11
11.856427
 21
-6.845327
 31
0.0
  0
LINE
  5
B7
100
AcDbEntity
  8
LY_1
390
0
  6
CONTINUOUS
 62
   254
100
AcDbLine
 10
11.856422
 20
-6.84533
 30
0.0
 11
13.856396
 21
-5.690645
 31
0.0
  0
LINE
  5
B8
100
AcDbEntity
  8
LY_1
390
0
  6
CONTINUOUS
 62
   254
100
AcDbLine
 10
13.8564
 20
-5.690636
 30
0.0
 11
15.856387
 21
-6.845329
 31
0.0
  0
LINE
  5
B9
100
AcDbEntity
  8
LY_1
390
0
  6
CONTINUOUS
 62
   254
100
AcDbLine
 10
15.856389
 20
-6.845322
 30
0.0
 11
15.856388
 21
-9.154693
 31
0.0
  0
LINE
  5
BA
100
AcDbEntity
  8
LY_1
390
0
  6
CONTINUOUS
 62
   254
100
AcDbLine
 10
15.856376
 20
-9.154714
 30
0.0
 11
13.856389
 21
-10.309407
 31
0.0
  0
LINE
  5
BB
100
AcDbEntity
  8
LY_1
390
0
  6
CONTINUOUS
 62
   254
100
AcDbLine
 10
13.856388
 20
-10.309395
 30
0.0
 11
11.856414
 21
-9.154709
 31
0.0
  0
DIMENSION
  5
C8
100
AcDbEntity
  8
LY_1
390
0
  6
CONTINUOUS
 62
     7
100
AcDbDimension
  2
*D4
 10
77.233337
 20
28.0
 30
0.0
 11
69.883337
 21
28.0
 31
0.0
 70
   128
 71
     5
 72
     1
 41
0.9
 42
15.0
  1
\A1;<>
  3
MXDIMSTYLE
100
AcDbAlignedDimension
 13
62.233337
 23
20.0
 33
0.0
 14
77.233337
 24
20.0
 34
0.0
100
AcDbRotatedDimension
1001
ACAD
1000
DSTYLE
1002
{
1070
     6
1000
_OPEN
1070
     7
1000
_OPEN
1070
    41
1040
3.0
1070
    44
1040
2.5
1070
    76
1070
     1
1070
   140
1040
3.2
1070
   271
1070
     0
1070
   284
1070
     8
1070
   340
1005
C2
1070
   343
1005
30
1070
   344
1005
30
1002
}
  0
DIMENSION
  5
D6
100
AcDbEntity
  8
LY_1
390
0
  6
CONTINUOUS
 62
     7
100
AcDbDimension
  2
*D5
 10
46.938594
 20
-11.0
 30
0.0
 11
46.938594
 21
0.0
 31
0.0
 70
   128
 71
     5
 72
     1
 41
0.9
 42
22.0
  1
\A1;\U+2205<>
  3
MXDIMSTYLE
100
AcDbAlignedDimension
 13
52.233337
 23
11.0
 33
0.0
 14
52.233337
 24
-11.0
 34
0.0
 50
90.0
100
AcDbRotatedDimension
1001
ACAD
1000
DSTYLE
1002
{
1070
     6
1000
_OPEN
1070
     7
1000
_OPEN
1070
    41
1040
3.0
1070
    44
1040
1.666667
1070
   140
1040
3.2
1070
   271
1070
     0
1070
   284
1070
     8
1070
   340
1005
D0
1070
   343
1005
30
1070
   344
1005
30
1002
}
  0
DIMENSION
  5
E3
100
AcDbEntity
  8
LY_1
390
0
  6
CONTINUOUS
 62
     7
100
AcDbDimension
  2
*D6
 10
35.871928
 20
-22.0
 30
0.0
 11
35.871928
 21
0.0
 31
0.0
 70
   128
 71
     5
 72
     1
 41
0.9
 42
44.0
  1
\A1;\U+2205<>
  3
MXDIMSTYLE
100
AcDbAlignedDimension
 13
52.233337
 23
22.0
 33
0.0
 14
52.233337
 24
-22.0
 34
0.0
 50
90.0
100
AcDbRotatedDimension
1001
ACAD
1000
DSTYLE
1002
{
1070
     6
1000
_OPEN
1070
     7
1000
_OPEN
1070
    41
1040
3.0
1070
    44
1040
1.666667
1070
   140
1040
3.2
1070
   271
1070
     0
1070
   284
1070
     8
1070
   340
1005
D0
1070
   343
1005
30
1070
   344
1005
30
1002
}
  0
DIMENSION
  5
F0
100
AcDbEntity
  8
LY_1
390
0
  6
CONTINUOUS
 62
     7
100
AcDbDimension
  2
*D7
 10
41.13209
 20
16.0
 30
0.0
 11
41.13209
 21
0.512096
 31
0.0
 70
   128
 71
     5
 72
     1
 41
0.9
 42
32.0
  1
\A1;\U+2205<>
  3
MXDIMSTYLE
100
AcDbAlignedDimension
 13
50.751938
 23
-16.0
 33
0.0
 14
45.712504
 24
16.0
 34
0.0
 50
90.0
100
AcDbRotatedDimension
1001
ACAD
1000
DSTYLE
1002
{
1070
     6
1000
_OPEN
1070
     7
1000
_OPEN
1070
    41
1040
3.0
1070
    44
1040
2.5
1070
   140
1040
3.2
1070
   271
1070
     0
1070
   284
1070
     8
1070
   340
1005
D0
1070
   343
1005
30
1070
   344
1005
30
1002
}
  0
LWPOLYLINE
  5
F1
100
AcDbEntity
  8
LY_1
390
0
  6
CONTINUOUS
 62
     7
100
AcDbPolyline
 90
        3
 70
     0
 10
8.0
 20
16.356405
 10
12.299291
 20
34.586274
 10
19.09732
 20
34.586274
  0
INSERT
  5
F2
100
AcDbEntity
  8
LY_1
390
0
  6
CONTINUOUS
 62
     7
100
AcDbBlockReference
  2
_OPEN30
 10
8.0
 20
16.356405
 30
0.0
 41
2.77
 42
2.77
 43
2.77
 50
256.729971
  0
MTEXT
  5
F3
100
AcDbEntity
  8
LY_1
390
0
  6
CONTINUOUS
 62
     7
100
AcDbMText
 10
13.09732
 20
37.986274
 30
0.0
 40
3.2
 41
0.0
 71
     4
 72
     1
  1
\W0.937;\A1;M5
 73
     1
 44
0.9
  0
DIMENSION
  5
100
100
AcDbEntity
  8
LY_1
390
0
  6
CONTINUOUS
 62
     7
100
AcDbDimension
  2
*D8
 10
88.008525
 20
-20.0
 30
0.0
 11
88.008525
 21
0.0
 31
0.0
 70
   128
 71
     5
 72
     1
 41
0.9
 42
40.0
  1
\A1;\U+2205<>
  3
MXDIMSTYLE
100
AcDbAlignedDimension
 13
77.233337
 23
20.0
 33
0.0
 14
77.233337
 24
-20.0
 34
0.0
 50
90.0
100
AcDbRotatedDimension
1001
ACAD
1000
DSTYLE
1002
{
1070
     6
1000
_OPEN
1070
     7
1000
_OPEN
1070
    41
1040
3.0
1070
    44
1040
2.5
1070
   140
1040
3.2
1070
   271
1070
     0
1070
   284
1070
     8
1070
   343
1005
30
1070
   344
1005
30
1002
}
  0
DIMENSION
  5
10E
100
AcDbEntity
  8
LY_1
390
0
  6
CONTINUOUS
 62
     7
100
AcDbDimension
  2
*D9
 10
77.233337
 20
42.843933
 30
0.0
 11
62.233337
 21
42.843933
 31
0.0
 70
   128
 71
     5
 72
     1
 41
0.9
 42
30.0
  1
\A1;<>
  3
MXDIMSTYLE
100
AcDbAlignedDimension
 13
47.233337
 23
19.480387
 33
0.0
 14
77.233337
 24
20.0
 34
0.0
100
AcDbRotatedDimension
1001
ACAD
1000
DSTYLE
1002
{
1070
     6
1000
_OPEN
1070
     7
1000
_OPEN
1070
    41
1040
3.0
1070
    44
1040
2.5
1070
   140
1040
3.2
1070
   271
1070
     0
1070
   284
1070
     8
1070
   340
1005
108
1070
   343
1005
30
1070
   344
1005
30
1002
}
  0
DIMENSION
  5
11A
100
AcDbEntity
  8
LY_1
390
0
  6
CONTINUOUS
 62
     7
100
AcDbDimension
  2
*D10
 10
77.233337
 20
38.201518
 30
0.0
 11
64.733337
 21
38.201518
 31
0.0
 70
   128
 71
     5
 72
     1
 41
0.9
 42
25.0
  1
\A1;<>
  3
MXDIMSTYLE
100
AcDbAlignedDimension
 13
52.233337
 23
22.0
 33
0.0
 14
77.233337
 24
20.0
 34
0.0
100
AcDbRotatedDimension
1001
ACAD
1000
DSTYLE
1002
{
1070
     6
1000
_OPEN
1070
     7
1000
_OPEN
1070
    41
1040
3.0
1070
    44
1040
2.5
1070
    76
1070
     1
1070
   140
1040
3.2
1070
   271
1070
     0
1070
   284
1070
     8
1070
   343
1005
30
1070
   344
1005
30
1002
}
  0
DIMENSION
  5
127
100
AcDbEntity
  8
LY_1
390
0
  6
CONTINUOUS
 62
     7
100
AcDbDimension
  2
*D11
 10
77.233337
 20
33.559092
 30
0.0
 11
66.983337
 21
33.559092
 31
0.0
 70
   128
 71
     5
 72
     1
 41
0.9
 42
20.5
  1
\A1;<>
  3
MXDIMSTYLE
100
AcDbAlignedDimension
 13
56.733337
 23
22.0
 33
0.0
 14
77.233337
 24
20.0
 34
0.0
100
AcDbRotatedDimension
1001
ACAD
1000
DSTYLE
1002
{
1070
     6
1000
_OPEN
1070
     7
1000
_OPEN
1070
    41
1040
3.0
1070
    44
1040
2.499985
1070
    76
1070
     1
1070
   140
1040
3.2
1070
   271
1070
     1
1070
   284
1070
     8
1070
   340
1005
121
1070
   343
1005
30
1070
   344
1005
30
1002
}
  0
POINT
  5
128
100
AcDbEntity
  8
LY_1
390
0
  6
CONTINUOUS
 62
    20
100
AcDbPoint
 10
0.0
 20
0.0
 30
0.0
  0
MTEXT
  5
129
100
AcDbEntity
  8
LY_1
390
0
  6
CONTINUOUS
 62
     7
100
AcDbMText
 10
-12.134368
 20
60.321319
 30
0.0
 40
7.0
 41
0.0
 71
     1
 72
     1
  1
\W0.833;\A1;ＰＬ０２２Ｘ０４０ＫＥ－ＬＰ
 73
     1
 44
0.6
  0
MTEXT
  5
12A
100
AcDbEntity
  8
LY_1
390
0
  6
CONTINUOUS
 62
     7
100
AcDbMText
 10
12.365632
 20
83.694702
 30
0.0
 40
7.0
 41
0.0
 71
     1
 72
     1
  1
\W0.833;\A1;ＴＳＵＢＡＫＩ
 73
     1
 44
0.6
  0
MTEXT
  5
12B
100
AcDbEntity
  8
LY_1
390
0
  6
CONTINUOUS
 62
     7
100
AcDbMText
 10
1.865632
 20
71.504314
 30
0.0
 40
7.0
 41
0.0
 71
     1
 72
     1
  1
\W0.833;\A1;ＰＯＷＥＲ　ＬＯＣＫ
 73
     1
 44
0.6
  0
ENDSEC
  0
SECTION
  2
OBJECTS
  0
DICTIONARY
  5
19
100
AcDbDictionary
280
     0
281
     1
  3
ACAD_GROUP
350
1A
  3
ACAD_MLINESTYLE
350
1B
  3
ACAD_LAYOUT
350
1E
  3
ACAD_PLOTSETTINGS
350
22
  3
ACAD_PLOTSTYLENAME
350
1F
  0
DICTIONARY
  5
1A
102
{ACAD_REACTORS
330
19
102
}
100
AcDbDictionary
280
     0
281
     1
  0
DICTIONARY
  5
1B
102
{ACAD_REACTORS
330
19
102
}
100
AcDbDictionary
280
     0
281
     1
  3
Standard
350
1C
  0
MLINESTYLE
  5
1C
102
{ACAD_REACTORS
330
1B
102
}
100
AcDbMlineStyle
  2
Standard
 70
     0
  3

 62
     0
 51
90.0
 52
90.0
 71
     2
 49
0.5
 62
   256
  6
ByLayer
 49
-0.5
 62
   256
  6
ByLayer
  0
ACDBDICTIONARYWDFLT
  5
1F
102
{ACAD_REACTORS
330
19
102
}
100
AcDbDictionary
281
     1
  3
Normal
350
1D
100
AcDbDictionaryWithDefault
340
1D
  0
ACDBPLACEHOLDER
  5
1D
102
{ACAD_REACTORS
330
1F
102
}
  0
LAYOUT
  5
20
102
{ACAD_REACTORS
330
1E
102
}
100
AcDbPlotSettings
  1

  2

  4

  6

 40
0.0
 41
0.0
 42
0.0
 43
0.0
 44
0.0
 45
0.0
 46
0.0
 47
0.0
 48
0.0
 49
0.0
140
0.0
141
0.0
142
1.0
143
1.0
 70
  1024
 72
     0
 73
     0
 74
     0
  7

 75
     0
147
1.0
148
0.0
149
0.0
100
AcDbLayout
  1
Model
 70
     0
 71
     0
 10
0.0
 20
0.0
 11
0.0
 21
0.0
 12
0.0
 22
0.0
 32
0.0
 14
0.0
 24
0.0
 34
0.0
 15
0.0
 25
0.0
 35
0.0
146
0.0
 13
0.0
 23
0.0
 33
0.0
 16
0.0
 26
0.0
 36
0.0
 17
0.0
 27
0.0
 37
0.0
 76
     0
330
A
331
0
345
0
346
0
  0
LAYOUT
  5
21
102
{ACAD_REACTORS
330
1E
102
}
100
AcDbPlotSettings
  1

  2

  4

  6

 40
0.0
 41
0.0
 42
0.0
 43
0.0
 44
0.0
 45
0.0
 46
0.0
 47
0.0
 48
0.0
 49
0.0
140
0.0
141
0.0
142
1.0
143
1.0
 70
     0
 72
     0
 73
     0
 74
     0
  7

 75
     0
147
1.0
148
0.0
149
0.0
100
AcDbLayout
  1
Layout1
 70
     0
 71
     0
 10
0.0
 20
0.0
 11
0.0
 21
0.0
 12
0.0
 22
0.0
 32
0.0
 14
0.0
 24
0.0
 34
0.0
 15
0.0
 25
0.0
 35
0.0
146
0.0
 13
0.0
 23
0.0
 33
0.0
 16
0.0
 26
0.0
 36
0.0
 17
0.0
 27
0.0
 37
0.0
 76
     0
330
B
331
0
345
0
346
0
  0
DICTIONARY
  5
1E
102
{ACAD_REACTORS
330
19
102
}
100
AcDbDictionary
280
     0
281
     1
  3
Layout1
350
21
  3
Model
350
20
  0
DICTIONARY
  5
22
102
{ACAD_REACTORS
330
19
102
}
100
AcDbDictionary
280
     0
281
     1
  0
ENDSEC
  0
EOF
