  0
SECTION
  2
HEADER
  9
$ACADVER
  1
AC1015
  9
$ACADMAINTVER
 70
     6
  9
$DWGCODEPAGE
  3
ANSI_932
  9
$INSBASE
 10
0.0
 20
0.0
 30
0.0
  9
$EXTMIN
 10
-21.04799
 20
-21.0
 30
0.0
  9
$EXTMAX
 10
77.330513
 20
70.162231
 30
0.0
  9
$LIMMIN
 10
-21.04799
 20
-21.0
  9
$LIMMAX
 10
77.330513
 20
70.162231
  9
$ORTHOMODE
 70
     0
  9
$REGENMODE
 70
     1
  9
$FILLMODE
 70
     1
  9
$QTEXTMODE
 70
     0
  9
$MIRRTEXT
 70
     1
  9
$LTSCALE
 40
1.0
  9
$ATTMODE
 70
     1
  9
$TEXTSIZE
 40
3.15
  9
$TRACEWID
 40
0.05
  9
$TEXTSTYLE
  7
MX_NOTE_STANDARD
  9
$CLAYER
  8
LY_1
  9
$CELTYPE
  6
CONTINUOUS
  9
$CECOLOR
 62
   256
  9
$CELTSCALE
 40
1.0
  9
$DISPSILH
 70
     0
  9
$DIMSCALE
 40
1.0
  9
$DIMASZ
 40
2.5
  9
$DIMEXO
 40
1.0
  9
$DIMDLI
 40
3.75
  9
$DIMRND
 40
0.0
  9
$DIMDLE
 40
0.0
  9
$DIMEXE
 40
2.0
  9
$DIMTP
 40
0.0
  9
$DIMTM
 40
0.0
  9
$DIMTXT
 40
3.15
  9
$DIMCEN
 40
2.5
  9
$DIMTSZ
 40
0.0
  9
$DIMTOL
 70
     0
  9
$DIMLIM
 70
     0
  9
$DIMTIH
 70
     0
  9
$DIMTOH
 70
     0
  9
$DIMSE1
 70
     0
  9
$DIMSE2
 70
     0
  9
$DIMTAD
 70
     1
  9
$DIMZIN
 70
     8
  9
$DIMBLK
  1

  9
$DIMASO
 70
     1
  9
$DIMSHO
 70
     1
  9
$DIMPOST
  1

  9
$DIMAPOST
  1

  9
$DIMALT
 70
     0
  9
$DIMALTD
 70
     4
  9
$DIMALTF
 40
0.03937
  9
$DIMLFAC
 40
1.0
  9
$DIMTOFL
 70
     1
  9
$DIMTVP
 40
0.0
  9
$DIMTIX
 70
     0
  9
$DIMSOXD
 70
     0
  9
$DIMSAH
 70
     1
  9
$DIMBLK1
  1
_OPEN30
  9
$DIMBLK2
  1
_OPEN30
  9
$DIMSTYLE
  2
MXDIMSTYLE
  9
$DIMCLRD
 70
     0
  9
$DIMCLRE
 70
     0
  9
$DIMCLRT
 70
     0
  9
$DIMTFAC
 40
1.0
  9
$DIMGAP
 40
1.0
  9
$DIMJUST
 70
     0
  9
$DIMSD1
 70
     0
  9
$DIMSD2
 70
     0
  9
$DIMTOLJ
 70
     0
  9
$DIMTZIN
 70
     0
  9
$DIMALTZ
 70
     0
  9
$DIMALTTZ
 70
     0
  9
$DIMUPT
 70
     0
  9
$DIMDEC
 70
     2
  9
$DIMTDEC
 70
     2
  9
$DIMALTU
 70
     2
  9
$DIMALTTD
 70
     4
  9
$DIMTXSTY
  7
MX_NOTE_STANDARD
  9
$DIMAUNIT
 70
     0
  9
$DIMADEC
 70
     0
  9
$DIMALTRND
 40
0.0
  9
$DIMAZIN
 70
     0
  9
$DIMDSEP
 70
    46
  9
$DIMATFIT
 70
     3
  9
$DIMFRAC
 70
     0
  9
$DIMLDRBLK
  1
_OPEN30
  9
$DIMLUNIT
 70
     2
  9
$DIMLWD
 70
    -2
  9
$DIMLWE
 70
    -2
  9
$DIMTMOVE
 70
     0
  9
$LUNITS
 70
     2
  9
$LUPREC
 70
     4
  9
$SKETCHINC
 40
0.1
  9
$FILLETRAD
 40
0.0
  9
$AUNITS
 70
     0
  9
$AUPREC
 70
     0
  9
$MENU
  1
acad
  9
$ELEVATION
 40
0.0
  9
$PELEVATION
 40
0.0
  9
$THICKNESS
 40
0.0
  9
$LIMCHECK
 70
     0
  9
$CHAMFERA
 40
0.0
  9
$CHAMFERB
 40
0.0
  9
$CHAMFERC
 40
0.0
  9
$CHAMFERD
 40
0.0
  9
$SKPOLY
 70
     0
  9
$TDCREATE
 40
2457367.490914352
  9
$TDUCREATE
 40
0.000000000
  9
$TDUPDATE
 40
2457367.490914352
  9
$TDUUPDATE
 40
0.000000000
  9
$TDINDWG
 40
0.0000000000
  9
$TDUSRTIMER
 40
0.0000000000
  9
$USRTIMER
 70
     1
  9
$ANGBASE
 50
0.0
  9
$ANGDIR
 70
     0
  9
$PDMODE
 70
     0
  9
$PDSIZE
 40
0.0
  9
$PLINEWID
 40
0.0
  9
$SPLFRAME
 70
     0
  9
$SPLINETYPE
 70
     6
  9
$SPLINESEGS
 70
     8
  9
$HANDSEED
  5
12E
  9
$SURFTAB1
 70
     6
  9
$SURFTAB2
 70
     6
  9
$SURFTYPE
 70
     6
  9
$SURFU
 70
     6
  9
$SURFV
 70
     6
  9
$UCSBASE
  2

  9
$UCSNAME
  2

  9
$UCSORG
 10
0.0
 20
0.0
 30
0.0
  9
$UCSXDIR
 10
1.0
 20
0.0
 30
0.0
  9
$UCSYDIR
 10
0.0
 20
1.0
 30
0.0
  9
$UCSORTHOREF
  2

  9
$UCSORTHOVIEW
 70
     0
  9
$UCSORGTOP
 10
0.0
 20
0.0
 30
0.0
  9
$UCSORGBOTTOM
 10
0.0
 20
0.0
 30
0.0
  9
$UCSORGLEFT
 10
0.0
 20
0.0
 30
0.0
  9
$UCSORGRIGHT
 10
0.0
 20
0.0
 30
0.0
  9
$UCSORGFRONT
 10
0.0
 20
0.0
 30
0.0
  9
$UCSORGBACK
 10
0.0
 20
0.0
 30
0.0
  9
$PUCSBASE
  2

  9
$PUCSNAME
  2

  9
$PUCSORG
 10
0.0
 20
0.0
 30
0.0
  9
$PUCSXDIR
 10
1.0
 20
0.0
 30
0.0
  9
$PUCSYDIR
 10
0.0
 20
1.0
 30
0.0
  9
$PUCSORTHOREF
  2

  9
$PUCSORTHOVIEW
 70
     0
  9
$PUCSORGTOP
 10
0.0
 20
0.0
 30
0.0
  9
$PUCSORGBOTTOM
 10
0.0
 20
0.0
 30
0.0
  9
$PUCSORGLEFT
 10
0.0
 20
0.0
 30
0.0
  9
$PUCSORGRIGHT
 10
0.0
 20
0.0
 30
0.0
  9
$PUCSORGFRONT
 10
0.0
 20
0.0
 30
0.0
  9
$PUCSORGBACK
 10
0.0
 20
0.0
 30
0.0
  9
$USERI1
 70
     0
  9
$USERI2
 70
     0
  9
$USERI3
 70
     0
  9
$USERI4
 70
     0
  9
$USERI5
 70
     0
  9
$USERR1
 40
0.0
  9
$USERR2
 40
0.0
  9
$USERR3
 40
0.0
  9
$USERR4
 40
0.0
  9
$USERR5
 40
0.0
  9
$WORLDVIEW
 70
     1
  9
$SHADEDGE
 70
     3
  9
$SHADEDIF
 70
    70
  9
$TILEMODE
 70
     1
  9
$MAXACTVP
 70
    16
  9
$PINSBASE
 10
0.0
 20
0.0
 30
0.0
  9
$PLIMCHECK
 70
     0
  9
$PEXTMIN
 10
1.000000E+20
 20
1.000000E+20
 30
1.000000E+20
  9
$PEXTMAX
 10
-1.000000E+20
 20
-1.000000E+20
 30
-1.000000E+20
  9
$PLIMMIN
 10
0.0
 20
0.0
  9
$PLIMMAX
 10
12.0
 20
9.0
  9
$UNITMODE
 70
     0
  9
$VISRETAIN
 70
     0
  9
$PLINEGEN
 70
     1
  9
$PSLTSCALE
 70
     0
  9
$TREEDEPTH
 70
  3020
  9
$CMLSTYLE
  2
Standard
  9
$CMLJUST
 70
     0
  9
$CMLSCALE
 40
1.0
  9
$PROXYGRAPHICS
 70
     0
  9
$MEASUREMENT
 70
     1
  9
$CELWEIGHT
370
     0
  9
$ENDCAPS
280
     0
  9
$JOINSTYLE
280
     0
  9
$LWDISPLAY
290
     0
  9
$INSUNITS
 70
     0
  9
$HYPERLINKBASE
  1

  9
$STYLESHEET
  1

  9
$XEDIT
290
     1
  9
$CEPSNTYPE
380
     0
  9
$PSTYLEMODE
290
     1
  9
$FINGERPRINTGUID
  2

  9
$VERSIONGUID
  2

  9
$EXTNAMES
290
     1
  9
$PSVPSCALE
 40
0.0
  0
ENDSEC
  0
SECTION
  2
CLASSES
  0
CLASS
  1
LWPOLYLINE
  2
AcDbPolyline
  3
AutoCAD 2000
 90
        0
280
     0
281
     1
  0
CLASS
  1
IMAGE
  2
AcDbRasterImage
  3
ISM
 90
      127
280
     0
281
     1
  0
CLASS
  1
OLE2FRAME
  2
AcDbOle2Frame
  3
AutoCAD 2000
 90
        0
280
     0
281
     1
  0
CLASS
  1
HATCH
  2
AcDbHatch
  3
AutoCAD 2000
 90
        0
280
     0
281
     1
  0
CLASS
  1
DICTIONARYVAR
  2
AcDbDictionaryVar
  3
AutoCAD 2000
 90
        0
280
     0
281
     0
  0
CLASS
  1
RASTERVARIABLES
  2
AcDbRasterVariables
  3
ISM
 90
        0
280
     0
281
     0
  0
CLASS
  1
IMAGEDEF
  2
AcDbRasterImageDef
  3
ISM
 90
        0
280
     0
281
     0
  0
CLASS
  1
IMAGEDEF_REACTOR
  2
AcDbRasterImageDefReactor
  3
ISM
 90
        1
280
     0
281
     0
  0
CLASS
  1
IDBUFFER
  2
AcDbIdBuffer
  3
AutoCAD 2000
 90
        0
280
     0
281
     0
  0
CLASS
  1
SPATIAL_FILTER
  2
AcDbSpatialFilter
  3
AutoCAD 2000
 90
        0
280
     0
281
     0
  0
CLASS
  1
XRECORD
  2
AcDbXrecord
  3
AutoCAD 2000
 90
        0
280
     0
281
     0
  0
CLASS
  1
SORTENTSTABLE
  2
AcDbSortentsTable
  3
AutoCAD 2000
 90
        0
280
     0
281
     0
  0
CLASS
  1
LAYER_INDEX
  2
AcDbLayerIndex
  3
AutoCAD 2000
 90
        0
280
     0
281
     0
  0
CLASS
  1
SPATIAL_INDEX
  2
AcDbSpatialIndex
  3
AutoCAD 2000
 90
        0
280
     0
281
     0
  0
CLASS
  1
OBJECT_PTR
  2
CAseDLPNTableRecord
  3
"ASE-LPNTableRecord"
 90
        1
280
     0
281
     0
  0
CLASS
  1
LAYOUT
  2
AcDbLayout
  3
AutoCAD 2000
 90
        0
280
     0
281
     0
  0
CLASS
  1
PLOTSETTINGS
  2
AcDbPlotSettings
  3
AutoCAD 2000
 90
        0
280
     0
281
     0
  0
CLASS
  1
ACDBDICTIONARYWDFLT
  2
AcDbDictionaryWithDefault
  3
AutoCAD 2000
 90
        0
280
     0
281
     0
  0
CLASS
  1
ACDBPLACEHOLDER
  2
AcDbPlaceHolder
  3
AutoCAD 2000
 90
        0
280
     0
281
     0
  0
ENDSEC
  0
SECTION
  2
TABLES
  0
TABLE
  2
VPORT
  5
7
100
AcDbSymbolTable
 70
     1
  0
VPORT
  5
15
100
AcDbSymbolTableRecord
100
AcDbViewportTableRecord
  2
*ACTIVE
 70
     0
 10
0.0
 20
0.0
 11
1.0
 21
1.0
 12
28.141261
 22
24.581116
 13
0.0
 23
0.0
 14
1.0
 24
1.0
 15
0.0
 25
0.0
 16
0.0
 26
0.0
 36
1.0
 17
0.0
 27
0.0
 37
0.0
 40
92.073853
 41
1.732051
 42
50.0
 43
0.0
 44
0.0
 50
0.0
 51
0.0
 71
     0
 72
   100
 73
     1
 74
     1
 75
     0
 76
     0
 77
     0
 78
     0
281
     0
 65
     0
110
0.0
120
0.0
130
0.0
111
1.0
121
0.0
131
0.0
112
0.0
122
1.0
132
0.0
345
0
346
0
 79
     0
146
0.0
  0
ENDTAB
  0
TABLE
  2
LTYPE
  5
4
100
AcDbSymbolTable
 70
     4
  0
LTYPE
  5
11
100
AcDbSymbolTableRecord
100
AcDbLinetypeTableRecord
  2
BYBLOCK
 70
    64
  3

 72
    65
 73
     0
 40
0.0
  0
LTYPE
  5
12
100
AcDbSymbolTableRecord
100
AcDbLinetypeTableRecord
  2
BYLAYER
 70
    64
  3

 72
    65
 73
     0
 40
0.0
  0
LTYPE
  5
13
100
AcDbSymbolTableRecord
100
AcDbLinetypeTableRecord
  2
CONTINUOUS
 70
    64
  3
Solid line
 72
    65
 73
     0
 40
0.0
  0
LTYPE
  5
42
100
AcDbSymbolTableRecord
100
AcDbLinetypeTableRecord
  2
CENTER
 70
    64
  3
Center ____ _ ____ _ ____ _ ____ _ ____ _ ____
 72
    65
 73
     4
 40
50.8
 49
31.75
 74
     0
 49
-6.35
 74
     0
 49
6.35
 74
     0
 49
-6.35
 74
     0
  0
ENDTAB
  0
TABLE
  2
LAYER
  5
2
100
AcDbSymbolTable
 70
     3
  0
LAYER
  5
14
100
AcDbSymbolTableRecord
100
AcDbLayerTableRecord
  2
0
 70
     0
 62
     7
  6
CONTINUOUS
290
     1
370
    -3
390
1D
  0
LAYER
  5
23
100
AcDbSymbolTableRecord
100
AcDbLayerTableRecord
  2
LY_1
 70
     0
 62
     7
  6
CONTINUOUS
290
     1
370
    -3
390
1D
  0
LAYER
  5
24
100
AcDbSymbolTableRecord
100
AcDbLayerTableRecord
  2
DEFPOINTS
 70
     0
 62
     7
  6
CONTINUOUS
290
     0
370
    -3
390
1D
  0
ENDTAB
  0
TABLE
  2
STYLE
  5
3
100
AcDbSymbolTable
 70
     7
  0
STYLE
  5
17
100
AcDbSymbolTableRecord
100
AcDbTextStyleTableRecord
  2
MX_NOTE_STANDARD
 70
     0
 40
0.0
 41
1.0
 50
0.0
 71
     0
 42
3.15
  3
txt.shx
  4
extfont.shx
  0
STYLE
  5
3B
100
AcDbSymbolTableRecord
100
AcDbTextStyleTableRecord
  2
MX_DIMTXSTY_2
 70
     0
 40
0.0
 41
1.3
 50
0.0
 71
     0
 42
3.15
  3
txt.shx
  4
extfont.shx
  0
STYLE
  5
C3
100
AcDbSymbolTableRecord
100
AcDbTextStyleTableRecord
  2
MX_DIMTXSTY_3
 70
     0
 40
0.0
 41
1.05
 50
0.0
 71
     0
 42
3.15
  3
txt.shx
  4
extfont.shx
  0
STYLE
  5
D1
100
AcDbSymbolTableRecord
100
AcDbTextStyleTableRecord
  2
MX_DIMTXSTY_4
 70
     0
 40
0.0
 41
0.95
 50
0.0
 71
     0
 42
3.15
  3
txt.shx
  4
extfont.shx
  0
STYLE
  5
DF
100
AcDbSymbolTableRecord
100
AcDbTextStyleTableRecord
  2
MX_DIMTXSTY_5
 70
     0
 40
0.0
 41
1.1
 50
0.0
 71
     0
 42
3.15
  3
txt.shx
  4
extfont.shx
  0
STYLE
  5
108
100
AcDbSymbolTableRecord
100
AcDbTextStyleTableRecord
  2
MX_DIMTXSTY_6
 70
     0
 40
0.0
 41
1.35
 50
0.0
 71
     0
 42
3.15
  3
txt.shx
  4
extfont.shx
  0
STYLE
  5
122
100
AcDbSymbolTableRecord
100
AcDbTextStyleTableRecord
  2
MX_DIMTXSTY_7
 70
     0
 40
0.0
 41
1.2
 50
0.0
 71
     0
 42
3.15
  3
txt.shx
  4
extfont.shx
  0
ENDTAB
  0
TABLE
  2
VIEW
  5
5
100
AcDbSymbolTable
 70
     0
  0
ENDTAB
  0
TABLE
  2
UCS
  5
6
100
AcDbSymbolTable
 70
     0
  0
ENDTAB
  0
TABLE
  2
APPID
  5
8
100
AcDbSymbolTable
 70
     1
  0
APPID
  5
16
100
AcDbSymbolTableRecord
100
AcDbRegAppTableRecord
  2
ACAD
 70
     0
  0
ENDTAB
  0
TABLE
  2
DIMSTYLE
  5
9
100
AcDbSymbolTable
 70
     1
100
AcDbDimStyleTable
 71
     0
  0
DIMSTYLE
105
18
100
AcDbSymbolTableRecord
100
AcDbDimStyleTableRecord
  2
MXDIMSTYLE
 70
     0
  3

  4

 40
1.0
 41
2.5
 42
1.0
 43
3.75
 44
2.0
 45
0.0
 46
0.0
 47
0.0
 48
0.0
 71
     0
 72
     0
 73
     0
 74
     0
 75
     0
 76
     0
 77
     1
 78
     8
 79
     0
140
3.15
141
2.5
142
0.0
143
0.03937
144
1.0
145
0.0
146
1.0
147
1.0
148
0.0
170
     0
171
     4
172
     1
173
     1
174
     0
175
     0
176
     0
177
     0
178
     0
179
     0
271
     2
272
     2
273
     2
274
     4
275
     0
276
     0
277
     2
278
    46
279
     0
280
     0
281
     0
282
     0
283
     0
284
     0
285
     0
286
     0
288
     0
289
     3
340
17
341
25
342
0
343
25
344
25
371
    -2
372
    -2
  0
ENDTAB
  0
TABLE
  2
BLOCK_RECORD
  5
1
100
AcDbSymbolTable
 70
    12
  0
BLOCK_RECORD
  5
A
100
AcDbSymbolTableRecord
100
AcDbBlockTableRecord
  2
*MODEL_SPACE
340
20
  0
BLOCK_RECORD
  5
B
100
AcDbSymbolTableRecord
100
AcDbBlockTableRecord
  2
*PAPER_SPACE
340
21
  0
BLOCK_RECORD
  5
25
100
AcDbSymbolTableRecord
100
AcDbBlockTableRecord
  2
_OPEN30
340
0
  0
BLOCK_RECORD
  5
2B
100
AcDbSymbolTableRecord
100
AcDbBlockTableRecord
  2
*D1
340
0
  0
BLOCK_RECORD
  5
30
100
AcDbSymbolTableRecord
100
AcDbBlockTableRecord
  2
_OPEN
340
0
102
{BLKREFS
331
36
331
C1
331
C2
331
CF
331
D0
331
DD
331
DE
331
E7
331
EE
331
EF
331
FA
331
FB
331
106
331
107
331
114
331
115
331
120
331
121
102
}
  0
BLOCK_RECORD
  5
37
100
AcDbSymbolTableRecord
100
AcDbBlockTableRecord
  2
_NONE
340
0
  0
BLOCK_RECORD
  5
BC
100
AcDbSymbolTableRecord
100
AcDbBlockTableRecord
  2
*D4
340
0
  0
BLOCK_RECORD
  5
CA
100
AcDbSymbolTableRecord
100
AcDbBlockTableRecord
  2
*D5
340
0
  0
BLOCK_RECORD
  5
D8
100
AcDbSymbolTableRecord
100
AcDbBlockTableRecord
  2
*D6
340
0
  0
BLOCK_RECORD
  5
E9
100
AcDbSymbolTableRecord
100
AcDbBlockTableRecord
  2
*D7
340
0
  0
BLOCK_RECORD
  5
F6
100
AcDbSymbolTableRecord
100
AcDbBlockTableRecord
  2
*D8
340
0
  0
BLOCK_RECORD
  5
102
100
AcDbSymbolTableRecord
100
AcDbBlockTableRecord
  2
*D9
340
0
  0
BLOCK_RECORD
  5
10F
100
AcDbSymbolTableRecord
100
AcDbBlockTableRecord
  2
*D10
340
0
  0
BLOCK_RECORD
  5
11C
100
AcDbSymbolTableRecord
100
AcDbBlockTableRecord
  2
*D11
340
0
  0
ENDTAB
  0
ENDSEC
  0
SECTION
  2
BLOCKS
  0
BLOCK
  5
D
100
AcDbEntity
  8
0
390
0
100
AcDbBlockBegin
  2
*MODEL_SPACE
 70
     0
 10
0.0
 20
0.0
 30
0.0
  3
*MODEL_SPACE
  1

  0
ENDBLK
  5
E
100
AcDbEntity
  8
0
390
0
100
AcDbBlockEnd
  0
BLOCK
  5
F
100
AcDbEntity
 67
     1
  8
0
390
0
100
AcDbBlockBegin
  2
*PAPER_SPACE
 70
     0
 10
0.0
 20
0.0
 30
0.0
  3
*PAPER_SPACE
  1

  0
ENDBLK
  5
10
100
AcDbEntity
 67
     1
  8
0
390
0
100
AcDbBlockEnd
  0
BLOCK
  5
26
100
AcDbEntity
  8
0
370
    -2
390
0
  6
ByBlock
 62
     0
100
AcDbBlockBegin
  2
_OPEN30
 70
     2
 10
0.0
 20
0.0
 30
0.0
  3
_OPEN30
  1

  0
LINE
  5
27
100
AcDbEntity
  8
0
370
    -2
390
0
  6
ByBlock
 62
     0
100
AcDbLine
 10
-1.0
 20
0.267949
 30
0.0
 11
0.0
 21
0.0
 31
0.0
  0
LINE
  5
28
100
AcDbEntity
  8
0
370
    -2
390
0
  6
ByBlock
 62
     0
100
AcDbLine
 10
0.0
 20
0.0
 30
0.0
 11
-1.0
 21
-0.267949
 31
0.0
  0
LINE
  5
29
100
AcDbEntity
  8
0
370
    -2
390
0
  6
ByBlock
 62
     0
100
AcDbLine
 10
0.0
 20
0.0
 30
0.0
 11
-1.0
 21
0.0
 31
0.0
  0
ENDBLK
  5
2A
100
AcDbEntity
  8
0
370
    -2
390
0
  6
ByBlock
 62
     0
100
AcDbBlockEnd
  0
BLOCK
  5
2C
100
AcDbEntity
  8
0
370
    -2
390
0
  6
ByBlock
 62
     0
100
AcDbBlockBegin
  2
*D1
 70
     1
 10
0.0
 20
0.0
 30
0.0
  3
*D1
  1

  0
LINE
  5
2D
100
AcDbEntity
  8
0
390
0
  6
CONTINUOUS
 62
     7
100
AcDbLine
 10
46.825001
 20
25.0
 30
0.0
 11
49.325001
 21
25.0
 31
0.0
  0
LINE
  5
2E
100
AcDbEntity
  8
0
390
0
  6
CONTINUOUS
 62
     7
100
AcDbLine
 10
33.823715
 20
25.0
 30
0.0
 11
46.825001
 21
25.0
 31
0.0
  0
LINE
  5
2F
100
AcDbEntity
  8
0
390
0
  6
CONTINUOUS
 62
     7
100
AcDbLine
 10
46.825001
 20
25.0
 30
0.0
 11
41.825001
 21
25.0
 31
0.0
  0
INSERT
  5
36
100
AcDbEntity
  8
0
390
0
  6
CONTINUOUS
 62
     7
100
AcDbBlockReference
  2
_OPEN
 10
46.825001
 20
25.0
 30
0.0
 41
3.0
 42
3.0
 43
3.0
  0
MTEXT
  5
3C
100
AcDbEntity
  8
0
390
0
  6
CONTINUOUS
 62
     7
100
AcDbMText
 10
38.623714
 20
27.6
 30
0.0
 40
3.2
 41
0.0
 71
     5
 72
     1
  1
\A1;2.5
  7
MX_DIMTXSTY_2
 73
     1
 44
0.9
  0
POINT
  5
3D
100
AcDbEntity
  8
DEFPOINTS
390
0
  6
CONTINUOUS
 62
     0
100
AcDbPoint
 10
46.825001
 20
16.25
 30
0.0
  0
POINT
  5
3E
100
AcDbEntity
  8
DEFPOINTS
390
0
  6
CONTINUOUS
 62
     0
100
AcDbPoint
 10
49.325001
 20
16.25
 30
0.0
  0
POINT
  5
3F
100
AcDbEntity
  8
DEFPOINTS
390
0
  6
CONTINUOUS
 62
     0
100
AcDbPoint
 10
49.325001
 20
25.0
 30
0.0
  0
ENDBLK
  5
40
100
AcDbEntity
  8
0
370
    -2
390
0
  6
ByBlock
 62
     0
100
AcDbBlockEnd
  0
BLOCK
  5
31
100
AcDbEntity
  8
0
370
    -2
390
0
  6
ByBlock
 62
     0
100
AcDbBlockBegin
  2
_OPEN
 70
     2
 10
0.0
 20
0.0
 30
0.0
  3
_OPEN
  1

  0
LINE
  5
32
100
AcDbEntity
  8
0
370
    -2
390
0
  6
ByBlock
 62
     0
100
AcDbLine
 10
-1.0
 20
0.166667
 30
0.0
 11
0.0
 21
0.0
 31
0.0
  0
LINE
  5
33
100
AcDbEntity
  8
0
370
    -2
390
0
  6
ByBlock
 62
     0
100
AcDbLine
 10
0.0
 20
0.0
 30
0.0
 11
-1.0
 21
-0.166667
 31
0.0
  0
LINE
  5
34
100
AcDbEntity
  8
0
370
    -2
390
0
  6
ByBlock
 62
     0
100
AcDbLine
 10
0.0
 20
0.0
 30
0.0
 11
-1.0
 21
0.0
 31
0.0
  0
ENDBLK
  5
35
100
AcDbEntity
  8
0
370
    -2
390
0
  6
ByBlock
 62
     0
100
AcDbBlockEnd
  0
BLOCK
  5
38
100
AcDbEntity
  8
0
370
    -2
390
0
  6
ByBlock
 62
     0
100
AcDbBlockBegin
  2
_NONE
 70
     2
 10
0.0
 20
0.0
 30
0.0
  3
_NONE
  1

  0
CIRCLE
  5
39
100
AcDbEntity
  8
0
370
    -2
390
0
  6
ByBlock
 62
     0
100
AcDbCircle
 10
0.0
 20
0.0
 30
0.0
 40
0.25
  0
ENDBLK
  5
3A
100
AcDbEntity
  8
0
370
    -2
390
0
  6
ByBlock
 62
     0
100
AcDbBlockEnd
  0
BLOCK
  5
BD
100
AcDbEntity
  8
0
370
    -2
390
0
  6
ByBlock
 62
     0
100
AcDbBlockBegin
  2
*D4
 70
     1
 10
0.0
 20
0.0
 30
0.0
  3
*D4
  1

  0
LINE
  5
BE
100
AcDbEntity
  8
0
390
0
  6
CONTINUOUS
 62
     7
100
AcDbLine
 10
42.216511
 20
8.0
 30
0.0
 11
42.216511
 21
-8.0
 31
0.0
  0
LINE
  5
BF
100
AcDbEntity
  8
0
390
0
  6
CONTINUOUS
 62
     7
100
AcDbLine
 10
46.825001
 20
8.0
 30
0.0
 11
40.966511
 21
8.0
 31
0.0
  0
LINE
  5
C0
100
AcDbEntity
  8
0
390
0
  6
CONTINUOUS
 62
     7
100
AcDbLine
 10
46.825001
 20
-8.0
 30
0.0
 11
40.966511
 21
-8.0
 31
0.0
  0
INSERT
  5
C1
100
AcDbEntity
  8
0
390
0
  6
CONTINUOUS
 62
     7
100
AcDbBlockReference
  2
_OPEN
 10
42.216511
 20
8.0
 30
0.0
 41
3.0
 42
3.0
 43
3.0
 50
90.0
  0
INSERT
  5
C2
100
AcDbEntity
  8
0
390
0
  6
CONTINUOUS
 62
     7
100
AcDbBlockReference
  2
_OPEN
 10
42.216511
 20
-8.0
 30
0.0
 41
3.0
 42
3.0
 43
3.0
 50
270.0
  0
MTEXT
  5
C4
100
AcDbEntity
  8
0
390
0
  6
CONTINUOUS
 62
     7
100
AcDbMText
 10
39.616511
 20
0.0
 30
0.0
 40
3.2
 41
0.0
 71
     5
 72
     1
  1
\A1;\U+220516
  7
MX_DIMTXSTY_3
 11
0.0
 21
1.0
 31
0.0
 73
     1
 44
0.9
  0
POINT
  5
C5
100
AcDbEntity
  8
DEFPOINTS
390
0
  6
CONTINUOUS
 62
     0
100
AcDbPoint
 10
46.825001
 20
8.0
 30
0.0
  0
POINT
  5
C6
100
AcDbEntity
  8
DEFPOINTS
390
0
  6
CONTINUOUS
 62
     0
100
AcDbPoint
 10
46.825001
 20
-8.0
 30
0.0
  0
POINT
  5
C7
100
AcDbEntity
  8
DEFPOINTS
390
0
  6
CONTINUOUS
 62
     0
100
AcDbPoint
 10
42.216511
 20
-8.0
 30
0.0
  0
ENDBLK
  5
C8
100
AcDbEntity
  8
0
370
    -2
390
0
  6
ByBlock
 62
     0
100
AcDbBlockEnd
  0
BLOCK
  5
CB
100
AcDbEntity
  8
0
370
    -2
390
0
  6
ByBlock
 62
     0
100
AcDbBlockBegin
  2
*D5
 70
     1
 10
0.0
 20
0.0
 30
0.0
  3
*D5
  1

  0
LINE
  5
CC
100
AcDbEntity
  8
0
390
0
  6
CONTINUOUS
 62
     7
100
AcDbLine
 10
37.216511
 20
-12.0
 30
0.0
 11
37.216511
 21
12.0
 31
0.0
  0
LINE
  5
CD
100
AcDbEntity
  8
0
390
0
  6
CONTINUOUS
 62
     7
100
AcDbLine
 10
45.616669
 20
-12.0
 30
0.0
 11
35.966511
 21
-12.0
 31
0.0
  0
LINE
  5
CE
100
AcDbEntity
  8
0
390
0
  6
CONTINUOUS
 62
     7
100
AcDbLine
 10
41.602417
 20
12.0
 30
0.0
 11
35.966511
 21
12.0
 31
0.0
  0
INSERT
  5
CF
100
AcDbEntity
  8
0
390
0
  6
CONTINUOUS
 62
     7
100
AcDbBlockReference
  2
_OPEN
 10
37.216511
 20
-12.0
 30
0.0
 41
3.0
 42
3.0
 43
3.0
 50
270.0
  0
INSERT
  5
D0
100
AcDbEntity
  8
0
390
0
  6
CONTINUOUS
 62
     7
100
AcDbBlockReference
  2
_OPEN
 10
37.216511
 20
12.0
 30
0.0
 41
3.0
 42
3.0
 43
3.0
 50
90.0
  0
MTEXT
  5
D2
100
AcDbEntity
  8
0
390
0
  6
CONTINUOUS
 62
     7
100
AcDbMText
 10
34.616511
 20
0.0
 30
0.0
 40
3.2
 41
0.0
 71
     5
 72
     1
  1
\A1;\U+220524
  7
MX_DIMTXSTY_4
 11
0.0
 21
1.0
 31
0.0
 73
     1
 44
0.9
  0
POINT
  5
D3
100
AcDbEntity
  8
DEFPOINTS
390
0
  6
CONTINUOUS
 62
     0
100
AcDbPoint
 10
45.616669
 20
-12.0
 30
0.0
  0
POINT
  5
D4
100
AcDbEntity
  8
DEFPOINTS
390
0
  6
CONTINUOUS
 62
     0
100
AcDbPoint
 10
41.602417
 20
12.0
 30
0.0
  0
POINT
  5
D5
100
AcDbEntity
  8
DEFPOINTS
390
0
  6
CONTINUOUS
 62
     0
100
AcDbPoint
 10
37.216511
 20
12.0
 30
0.0
  0
ENDBLK
  5
D6
100
AcDbEntity
  8
0
370
    -2
390
0
  6
ByBlock
 62
     0
100
AcDbBlockEnd
  0
BLOCK
  5
D9
100
AcDbEntity
  8
0
370
    -2
390
0
  6
ByBlock
 62
     0
100
AcDbBlockBegin
  2
*D6
 70
     1
 10
0.0
 20
0.0
 30
0.0
  3
*D6
  1

  0
LINE
  5
DA
100
AcDbEntity
  8
0
390
0
  6
CONTINUOUS
 62
     7
100
AcDbLine
 10
32.216511
 20
-16.25
 30
0.0
 11
32.216511
 21
16.25
 31
0.0
  0
LINE
  5
DB
100
AcDbEntity
  8
0
390
0
  6
CONTINUOUS
 62
     7
100
AcDbLine
 10
46.825001
 20
-16.25
 30
0.0
 11
30.966511
 21
-16.25
 31
0.0
  0
LINE
  5
DC
100
AcDbEntity
  8
0
390
0
  6
CONTINUOUS
 62
     7
100
AcDbLine
 10
46.825001
 20
16.25
 30
0.0
 11
30.966511
 21
16.25
 31
0.0
  0
INSERT
  5
DD
100
AcDbEntity
  8
0
390
0
  6
CONTINUOUS
 62
     7
100
AcDbBlockReference
  2
_OPEN
 10
32.216511
 20
-16.25
 30
0.0
 41
3.0
 42
3.0
 43
3.0
 50
270.0
  0
INSERT
  5
DE
100
AcDbEntity
  8
0
390
0
  6
CONTINUOUS
 62
     7
100
AcDbBlockReference
  2
_OPEN
 10
32.216511
 20
16.25
 30
0.0
 41
3.0
 42
3.0
 43
3.0
 50
90.0
  0
MTEXT
  5
E0
100
AcDbEntity
  8
0
390
0
  6
CONTINUOUS
 62
     7
100
AcDbMText
 10
29.616511
 20
0.0
 30
0.0
 40
3.2
 41
0.0
 71
     5
 72
     1
  1
\A1;\U+220532.5
  7
MX_DIMTXSTY_5
 11
0.0
 21
1.0
 31
0.0
 73
     1
 44
0.9
  0
POINT
  5
E1
100
AcDbEntity
  8
DEFPOINTS
390
0
  6
CONTINUOUS
 62
     0
100
AcDbPoint
 10
46.825001
 20
-16.25
 30
0.0
  0
POINT
  5
E2
100
AcDbEntity
  8
DEFPOINTS
390
0
  6
CONTINUOUS
 62
     0
100
AcDbPoint
 10
46.825001
 20
16.25
 30
0.0
  0
POINT
  5
E3
100
AcDbEntity
  8
DEFPOINTS
390
0
  6
CONTINUOUS
 62
     0
100
AcDbPoint
 10
32.216511
 20
16.25
 30
0.0
  0
ENDBLK
  5
E4
100
AcDbEntity
  8
0
370
    -2
390
0
  6
ByBlock
 62
     0
100
AcDbBlockEnd
  0
BLOCK
  5
EA
100
AcDbEntity
  8
0
370
    -2
390
0
  6
ByBlock
 62
     0
100
AcDbBlockBegin
  2
*D7
 70
     1
 10
0.0
 20
0.0
 30
0.0
  3
*D7
  1

  0
LINE
  5
EB
100
AcDbEntity
  8
0
390
0
  6
CONTINUOUS
 62
     7
100
AcDbLine
 10
42.825001
 20
35.0
 30
0.0
 11
66.825001
 21
35.0
 31
0.0
  0
LINE
  5
EC
100
AcDbEntity
  8
0
390
0
  6
CONTINUOUS
 62
     7
100
AcDbLine
 10
42.825001
 20
14.980469
 30
0.0
 11
42.825001
 21
37.5
 31
0.0
  0
LINE
  5
ED
100
AcDbEntity
  8
0
390
0
  6
CONTINUOUS
 62
     7
100
AcDbLine
 10
66.825001
 20
15.0
 30
0.0
 11
66.825001
 21
37.5
 31
0.0
  0
INSERT
  5
EE
100
AcDbEntity
  8
0
390
0
  6
CONTINUOUS
 62
     7
100
AcDbBlockReference
  2
_OPEN
 10
42.825001
 20
35.0
 30
0.0
 41
3.0
 42
3.0
 43
3.0
 50
180.0
  0
INSERT
  5
EF
100
AcDbEntity
  8
0
390
0
  6
CONTINUOUS
 62
     7
100
AcDbBlockReference
  2
_OPEN
 10
66.825001
 20
35.0
 30
0.0
 41
3.0
 42
3.0
 43
3.0
  0
MTEXT
  5
F0
100
AcDbEntity
  8
0
390
0
  6
CONTINUOUS
 62
     7
100
AcDbMText
 10
54.825001
 20
37.6
 30
0.0
 40
3.2
 41
0.0
 71
     5
 72
     1
  1
\A1;24
 73
     1
 44
0.9
  0
POINT
  5
F1
100
AcDbEntity
  8
DEFPOINTS
390
0
  6
CONTINUOUS
 62
     0
100
AcDbPoint
 10
42.825001
 20
14.980469
 30
0.0
  0
POINT
  5
F2
100
AcDbEntity
  8
DEFPOINTS
390
0
  6
CONTINUOUS
 62
     0
100
AcDbPoint
 10
66.825001
 20
15.0
 30
0.0
  0
POINT
  5
F3
100
AcDbEntity
  8
DEFPOINTS
390
0
  6
CONTINUOUS
 62
     0
100
AcDbPoint
 10
66.825001
 20
35.0
 30
0.0
  0
ENDBLK
  5
F4
100
AcDbEntity
  8
0
370
    -2
390
0
  6
ByBlock
 62
     0
100
AcDbBlockEnd
  0
BLOCK
  5
F7
100
AcDbEntity
  8
0
370
    -2
390
0
  6
ByBlock
 62
     0
100
AcDbBlockBegin
  2
*D8
 70
     1
 10
0.0
 20
0.0
 30
0.0
  3
*D8
  1

  0
LINE
  5
F8
100
AcDbEntity
  8
0
390
0
  6
CONTINUOUS
 62
     7
100
AcDbLine
 10
46.825001
 20
30.0
 30
0.0
 11
66.825001
 21
30.0
 31
0.0
  0
LINE
  5
F9
100
AcDbEntity
  8
0
390
0
  6
CONTINUOUS
 62
     7
100
AcDbLine
 10
46.825001
 20
16.25
 30
0.0
 11
46.825001
 21
32.5
 31
0.0
  0
INSERT
  5
FA
100
AcDbEntity
  8
0
390
0
  6
CONTINUOUS
 62
     7
100
AcDbBlockReference
  2
_OPEN
 10
46.825001
 20
30.0
 30
0.0
 41
3.0
 42
3.0
 43
3.0
 50
180.0
  0
INSERT
  5
FB
100
AcDbEntity
  8
0
390
0
  6
CONTINUOUS
 62
     7
100
AcDbBlockReference
  2
_OPEN
 10
66.825001
 20
30.0
 30
0.0
 41
3.0
 42
3.0
 43
3.0
  0
MTEXT
  5
FC
100
AcDbEntity
  8
0
390
0
  6
CONTINUOUS
 62
     7
100
AcDbMText
 10
56.825001
 20
32.6
 30
0.0
 40
3.2
 41
0.0
 71
     5
 72
     1
  1
\A1;20
  7
MX_DIMTXSTY_5
 73
     1
 44
0.9
  0
POINT
  5
FD
100
AcDbEntity
  8
DEFPOINTS
390
0
  6
CONTINUOUS
 62
     0
100
AcDbPoint
 10
46.825001
 20
16.25
 30
0.0
  0
POINT
  5
FE
100
AcDbEntity
  8
DEFPOINTS
390
0
  6
CONTINUOUS
 62
     0
100
AcDbPoint
 10
66.825001
 20
15.0
 30
0.0
  0
POINT
  5
FF
100
AcDbEntity
  8
DEFPOINTS
390
0
  6
CONTINUOUS
 62
     0
100
AcDbPoint
 10
66.825001
 20
30.0
 30
0.0
  0
ENDBLK
  5
100
100
AcDbEntity
  8
0
370
    -2
390
0
  6
ByBlock
 62
     0
100
AcDbBlockEnd
  0
BLOCK
  5
103
100
AcDbEntity
  8
0
370
    -2
390
0
  6
ByBlock
 62
     0
100
AcDbBlockBegin
  2
*D9
 70
     1
 10
0.0
 20
0.0
 30
0.0
  3
*D9
  1

  0
LINE
  5
104
100
AcDbEntity
  8
0
390
0
  6
CONTINUOUS
 62
     7
100
AcDbLine
 10
49.325001
 20
25.0
 30
0.0
 11
66.825001
 21
25.0
 31
0.0
  0
LINE
  5
105
100
AcDbEntity
  8
0
390
0
  6
CONTINUOUS
 62
     7
100
AcDbLine
 10
49.325001
 20
16.25
 30
0.0
 11
49.325001
 21
27.5
 31
0.0
  0
INSERT
  5
106
100
AcDbEntity
  8
0
390
0
  6
CONTINUOUS
 62
     7
100
AcDbBlockReference
  2
_OPEN
 10
49.325001
 20
25.0
 30
0.0
 41
3.0
 42
3.0
 43
3.0
 50
180.0
  0
INSERT
  5
107
100
AcDbEntity
  8
0
390
0
  6
CONTINUOUS
 62
     7
100
AcDbBlockReference
  2
_OPEN
 10
66.825001
 20
25.0
 30
0.0
 41
3.0
 42
3.0
 43
3.0
  0
MTEXT
  5
109
100
AcDbEntity
  8
0
390
0
  6
CONTINUOUS
 62
     7
100
AcDbMText
 10
58.075001
 20
27.6
 30
0.0
 40
3.2
 41
0.0
 71
     5
 72
     1
  1
\A1;17.5
  7
MX_DIMTXSTY_6
 73
     1
 44
0.9
  0
POINT
  5
10A
100
AcDbEntity
  8
DEFPOINTS
390
0
  6
CONTINUOUS
 62
     0
100
AcDbPoint
 10
49.325001
 20
16.25
 30
0.0
  0
POINT
  5
10B
100
AcDbEntity
  8
DEFPOINTS
390
0
  6
CONTINUOUS
 62
     0
100
AcDbPoint
 10
66.825001
 20
15.0
 30
0.0
  0
POINT
  5
10C
100
AcDbEntity
  8
DEFPOINTS
390
0
  6
CONTINUOUS
 62
     0
100
AcDbPoint
 10
66.825001
 20
25.0
 30
0.0
  0
ENDBLK
  5
10D
100
AcDbEntity
  8
0
370
    -2
390
0
  6
ByBlock
 62
     0
100
AcDbBlockEnd
  0
BLOCK
  5
110
100
AcDbEntity
  8
0
370
    -2
390
0
  6
ByBlock
 62
     0
100
AcDbBlockBegin
  2
*D10
 70
     1
 10
0.0
 20
0.0
 30
0.0
  3
*D10
  1

  0
LINE
  5
111
100
AcDbEntity
  8
0
390
0
  6
CONTINUOUS
 62
     7
100
AcDbLine
 10
74.830513
 20
15.0
 30
0.0
 11
74.830513
 21
-15.0
 31
0.0
  0
LINE
  5
112
100
AcDbEntity
  8
0
390
0
  6
CONTINUOUS
 62
     7
100
AcDbLine
 10
66.825001
 20
15.0
 30
0.0
 11
77.330513
 21
15.0
 31
0.0
  0
LINE
  5
113
100
AcDbEntity
  8
0
390
0
  6
CONTINUOUS
 62
     7
100
AcDbLine
 10
66.825001
 20
-15.0
 30
0.0
 11
77.330513
 21
-15.0
 31
0.0
  0
INSERT
  5
114
100
AcDbEntity
  8
0
390
0
  6
CONTINUOUS
 62
     7
100
AcDbBlockReference
  2
_OPEN
 10
74.830513
 20
15.0
 30
0.0
 41
3.0
 42
3.0
 43
3.0
 50
90.0
  0
INSERT
  5
115
100
AcDbEntity
  8
0
390
0
  6
CONTINUOUS
 62
     7
100
AcDbBlockReference
  2
_OPEN
 10
74.830513
 20
-15.0
 30
0.0
 41
3.0
 42
3.0
 43
3.0
 50
270.0
  0
MTEXT
  5
116
100
AcDbEntity
  8
0
390
0
  6
CONTINUOUS
 62
     7
100
AcDbMText
 10
72.230513
 20
0.0
 30
0.0
 40
3.2
 41
0.0
 71
     5
 72
     1
  1
\A1;\U+220530
 11
0.0
 21
1.0
 31
0.0
 73
     1
 44
0.9
  0
POINT
  5
117
100
AcDbEntity
  8
DEFPOINTS
390
0
  6
CONTINUOUS
 62
     0
100
AcDbPoint
 10
66.825001
 20
15.0
 30
0.0
  0
POINT
  5
118
100
AcDbEntity
  8
DEFPOINTS
390
0
  6
CONTINUOUS
 62
     0
100
AcDbPoint
 10
66.825001
 20
-15.0
 30
0.0
  0
POINT
  5
119
100
AcDbEntity
  8
DEFPOINTS
390
0
  6
CONTINUOUS
 62
     0
100
AcDbPoint
 10
74.830513
 20
-15.0
 30
0.0
  0
ENDBLK
  5
11A
100
AcDbEntity
  8
0
370
    -2
390
0
  6
ByBlock
 62
     0
100
AcDbBlockEnd
  0
BLOCK
  5
11D
100
AcDbEntity
  8
0
370
    -2
390
0
  6
ByBlock
 62
     0
100
AcDbBlockBegin
  2
*D11
 70
     1
 10
0.0
 20
0.0
 30
0.0
  3
*D11
  1

  0
LINE
  5
11E
100
AcDbEntity
  8
0
390
0
  6
CONTINUOUS
 62
     7
100
AcDbLine
 10
54.825001
 20
20.0
 30
0.0
 11
66.825001
 21
20.0
 31
0.0
  0
LINE
  5
11F
100
AcDbEntity
  8
0
390
0
  6
CONTINUOUS
 62
     7
100
AcDbLine
 10
54.825001
 20
15.0
 30
0.0
 11
54.825001
 21
22.5
 31
0.0
  0
INSERT
  5
120
100
AcDbEntity
  8
0
390
0
  6
CONTINUOUS
 62
     7
100
AcDbBlockReference
  2
_OPEN
 10
54.825001
 20
20.0
 30
0.0
 41
3.0
 42
3.0
 43
3.0
 50
180.0
  0
INSERT
  5
121
100
AcDbEntity
  8
0
390
0
  6
CONTINUOUS
 62
     7
100
AcDbBlockReference
  2
_OPEN
 10
66.825001
 20
20.0
 30
0.0
 41
3.0
 42
3.0
 43
3.0
  0
MTEXT
  5
123
100
AcDbEntity
  8
0
390
0
  6
CONTINUOUS
 62
     7
100
AcDbMText
 10
61.119162
 20
22.6
 30
0.0
 40
3.2
 41
0.0
 71
     5
 72
     1
  1
\A1;12
  7
MX_DIMTXSTY_7
 73
     1
 44
0.9
  0
POINT
  5
124
100
AcDbEntity
  8
DEFPOINTS
390
0
  6
CONTINUOUS
 62
     0
100
AcDbPoint
 10
54.825001
 20
15.0
 30
0.0
  0
POINT
  5
125
100
AcDbEntity
  8
DEFPOINTS
390
0
  6
CONTINUOUS
 62
     0
100
AcDbPoint
 10
66.825001
 20
15.0
 30
0.0
  0
POINT
  5
126
100
AcDbEntity
  8
DEFPOINTS
390
0
  6
CONTINUOUS
 62
     0
100
AcDbPoint
 10
66.825001
 20
20.0
 30
0.0
  0
ENDBLK
  5
127
100
AcDbEntity
  8
0
370
    -2
390
0
  6
ByBlock
 62
     0
100
AcDbBlockEnd
  0
ENDSEC
  0
SECTION
  2
ENTITIES
  0
DIMENSION
  5
41
100
AcDbEntity
  8
LY_1
390
0
  6
CONTINUOUS
 62
     7
100
AcDbDimension
  2
*D1
 10
49.325001
 20
25.0
 30
0.0
 11
38.623714
 21
25.0
 31
0.0
 70
   128
 71
     5
 72
     1
 41
0.9
 42
2.5
  1
\A1;<>
  3
MXDIMSTYLE
100
AcDbAlignedDimension
 13
46.825001
 23
16.25
 33
0.0
 14
49.325001
 24
16.25
 34
0.0
100
AcDbRotatedDimension
1001
ACAD
1000
DSTYLE
1002
{
1070
     6
1000
_OPEN
1070
     7
1000
_NONE
1070
    41
1040
3.0
1070
    75
1070
     1
1070
    76
1070
     1
1070
   140
1040
3.2
1070
   271
1070
     1
1070
   284
1070
     8
1070
   340
1005
3B
1070
   343
1005
30
1070
   344
1005
37
1002
}
  0
LINE
  5
43
100
AcDbEntity
  8
LY_1
390
0
  6
CENTER
 62
     7
100
AcDbLine
 10
44.491669
 20
0.0
 30
0.0
 11
69.28997
 21
0.0
 31
0.0
  0
LINE
  5
44
100
AcDbEntity
  8
LY_1
390
0
  6
CONTINUOUS
 62
   254
100
AcDbLine
 10
46.825001
 20
-16.25
 30
0.0
 11
46.825001
 21
16.25
 31
0.0
  0
LINE
  5
45
100
AcDbEntity
  8
LY_1
390
0
  6
CONTINUOUS
 62
   254
100
AcDbLine
 10
46.825001
 20
-8.0
 30
0.0
 11
64.325001
 21
-8.0
 31
0.0
  0
LINE
  5
46
100
AcDbEntity
  8
LY_1
390
0
  6
CENTER
 62
     7
100
AcDbLine
 10
45.616669
 20
-12.0
 30
0.0
 11
53.607573
 21
-12.0
 31
0.0
  0
LINE
  5
47
100
AcDbEntity
  8
LY_1
390
0
  6
CONTINUOUS
 62
   254
100
AcDbLine
 10
46.825001
 20
-10.379997
 30
0.0
 11
52.325001
 21
-10.379997
 31
0.0
  0
LINE
  5
48
100
AcDbEntity
  8
LY_1
390
0
  6
CONTINUOUS
 62
   254
100
AcDbLine
 10
46.825001
 20
-13.620003
 30
0.0
 11
52.325001
 21
-13.620003
 31
0.0
  0
LINE
  5
49
100
AcDbEntity
  8
LY_1
390
0
  6
CONTINUOUS
 62
     7
100
AcDbLine
 10
46.825001
 20
-10.0
 30
0.0
 11
52.325001
 21
-10.0
 31
0.0
  0
LINE
  5
4A
100
AcDbEntity
  8
LY_1
390
0
  6
CONTINUOUS
 62
     7
100
AcDbLine
 10
46.825001
 20
-14.0
 30
0.0
 11
52.325001
 21
-14.0
 31
0.0
  0
LINE
  5
4B
100
AcDbEntity
  8
LY_1
390
0
  6
CONTINUOUS
 62
   254
100
AcDbLine
 10
52.325001
 20
-9.374886
 30
0.0
 11
52.325001
 21
-15.0
 31
0.0
  0
LINE
  5
4C
100
AcDbEntity
  8
LY_1
390
0
  6
CONTINUOUS
 62
   254
100
AcDbLine
 10
46.825001
 20
-16.25
 30
0.0
 11
49.325001
 21
-16.25
 31
0.0
  0
LINE
  5
4D
100
AcDbEntity
  8
LY_1
390
0
  6
CONTINUOUS
 62
   254
100
AcDbLine
 10
49.325001
 20
-15.0
 30
0.0
 11
52.325001
 21
-15.0
 31
0.0
  0
LINE
  5
4E
100
AcDbEntity
  8
LY_1
390
0
  6
CONTINUOUS
 62
   254
100
AcDbLine
 10
49.325001
 20
-16.25
 30
0.0
 11
49.325001
 21
-15.0
 31
0.0
  0
LINE
  5
4F
100
AcDbEntity
  8
LY_1
390
0
  6
CONTINUOUS
 62
   254
100
AcDbLine
 10
52.325001
 20
-9.374886
 30
0.0
 11
54.325001
 21
-9.374886
 31
0.0
  0
LINE
  5
50
100
AcDbEntity
  8
LY_1
390
0
  6
CONTINUOUS
 62
   254
100
AcDbLine
 10
66.825
 20
-8.281276
 30
0.0
 11
54.324999
 21
-9.374884
 31
0.0
  0
LINE
  5
51
100
AcDbEntity
  8
LY_1
390
0
  6
CONTINUOUS
 62
   254
100
AcDbLine
 10
66.825001
 20
-15.0
 30
0.0
 11
66.825001
 21
15.0
 31
0.0
  0
LINE
  5
52
100
AcDbEntity
  8
LY_1
390
0
  6
CONTINUOUS
 62
   254
100
AcDbLine
 10
54.825001
 20
-15.0
 30
0.0
 11
54.825001
 21
-9.331139
 31
0.0
  0
LINE
  5
53
100
AcDbEntity
  8
LY_1
390
0
  6
CONTINUOUS
 62
   254
100
AcDbLine
 10
54.825001
 20
-15.0
 30
0.0
 11
66.825001
 21
-15.0
 31
0.0
  0
LINE
  5
54
100
AcDbEntity
  8
LY_1
390
0
  6
CONTINUOUS
 62
   254
100
AcDbLine
 10
64.325001
 20
-8.5
 30
0.0
 11
64.325001
 21
8.5
 31
0.0
  0
LINE
  5
55
100
AcDbEntity
  8
LY_1
390
0
  6
CONTINUOUS
 62
   254
100
AcDbLine
 10
46.825001
 20
8.0
 30
0.0
 11
64.325001
 21
8.0
 31
0.0
  0
LINE
  5
56
100
AcDbEntity
  8
LY_1
390
0
  6
CENTER
 62
     7
100
AcDbLine
 10
41.602417
 20
12.0
 30
0.0
 11
69.032271
 21
12.0
 31
0.0
  0
LINE
  5
57
100
AcDbEntity
  8
LY_1
390
0
  6
CONTINUOUS
 62
   254
100
AcDbLine
 10
54.825001
 20
15.0
 30
0.0
 11
54.825001
 21
13.621094
 31
0.0
  0
LINE
  5
58
100
AcDbEntity
  8
LY_1
390
0
  6
CONTINUOUS
 62
   254
100
AcDbLine
 10
54.825001
 20
15.0
 30
0.0
 11
66.825001
 21
15.0
 31
0.0
  0
LINE
  5
59
100
AcDbEntity
  8
LY_1
390
0
  6
CONTINUOUS
 62
   254
100
AcDbLine
 10
66.825
 20
8.28128
 30
0.0
 11
54.324999
 21
9.374888
 31
0.0
  0
LINE
  5
5A
100
AcDbEntity
  8
LY_1
390
0
  6
CONTINUOUS
 62
   254
100
AcDbLine
 10
52.325001
 20
9.374886
 30
0.0
 11
52.325001
 21
10.0
 31
0.0
  0
LINE
  5
5B
100
AcDbEntity
  8
LY_1
390
0
  6
CONTINUOUS
 62
   254
100
AcDbLine
 10
46.825001
 20
16.25
 30
0.0
 11
49.325001
 21
16.25
 31
0.0
  0
LINE
  5
5C
100
AcDbEntity
  8
LY_1
390
0
  6
CONTINUOUS
 62
   254
100
AcDbLine
 10
49.325001
 20
15.0
 30
0.0
 11
52.325001
 21
15.0
 31
0.0
  0
LINE
  5
5D
100
AcDbEntity
  8
LY_1
390
0
  6
CONTINUOUS
 62
   254
100
AcDbLine
 10
49.325001
 20
16.25
 30
0.0
 11
49.325001
 21
15.0
 31
0.0
  0
LINE
  5
5E
100
AcDbEntity
  8
LY_1
390
0
  6
CONTINUOUS
 62
   254
100
AcDbLine
 10
52.325001
 20
9.374886
 30
0.0
 11
54.325001
 21
9.374886
 31
0.0
  0
LINE
  5
5F
100
AcDbEntity
  8
LY_1
390
0
  6
CENTER
 62
     7
100
AcDbLine
 10
-21.0
 20
0.0
 30
0.0
 11
21.0
 21
0.0
 31
0.0
  0
LINE
  5
60
100
AcDbEntity
  8
LY_1
390
0
  6
CENTER
 62
     7
100
AcDbLine
 10
6.062178
 20
3.499999
 30
0.0
 11
14.722432
 21
8.499999
 31
0.0
  0
LINE
  5
61
100
AcDbEntity
  8
LY_1
390
0
  6
CENTER
 62
     7
100
AcDbLine
 10
-6.062177
 20
-3.500001
 30
0.0
 11
-14.722431
 21
-8.500001
 31
0.0
  0
LINE
  5
62
100
AcDbEntity
  8
LY_1
390
0
  6
CENTER
 62
     7
100
AcDbLine
 10
6.062182
 20
-3.500002
 30
0.0
 11
14.722436
 21
-8.500002
 31
0.0
  0
LINE
  5
63
100
AcDbEntity
  8
LY_1
390
0
  6
CENTER
 62
     7
100
AcDbLine
 10
-6.062173
 20
3.499998
 30
0.0
 11
-14.722427
 21
8.499998
 31
0.0
  0
LINE
  5
64
100
AcDbEntity
  8
LY_1
390
0
  6
CENTER
 62
     7
100
AcDbLine
 10
3.500004
 20
6.062176
 30
0.0
 11
8.500004
 21
14.72243
 31
0.0
  0
LINE
  5
65
100
AcDbEntity
  8
LY_1
390
0
  6
CENTER
 62
     7
100
AcDbLine
 10
3.5
 20
-6.062179
 30
0.0
 11
8.5
 21
-14.722433
 31
0.0
  0
LINE
  5
66
100
AcDbEntity
  8
LY_1
390
0
  6
CONTINUOUS
 62
   254
100
AcDbLine
 10
-3.469117
 20
-7.208693
 30
0.0
 11
-7.599843
 21
-14.36332
 31
0.0
  0
LINE
  5
67
100
AcDbEntity
  8
LY_1
390
0
  6
CONTINUOUS
 62
   254
100
AcDbLine
 10
-4.508351
 20
-6.60869
 30
0.0
 11
-8.639077
 21
-13.763317
 31
0.0
  0
LINE
  5
68
100
AcDbEntity
  8
LY_1
390
0
  6
CONTINUOUS
 62
   254
100
AcDbLine
 10
42.824396
 20
14.980789
 30
0.0
 11
43.124399
 21
15.500409
 31
0.0
  0
LINE
  5
69
100
AcDbEntity
  8
LY_1
390
0
  6
CONTINUOUS
 62
   254
100
AcDbLine
 10
42.825001
 20
14.980469
 30
0.0
 11
42.825001
 21
9.019531
 31
0.0
  0
LINE
  5
6A
100
AcDbEntity
  8
LY_1
390
0
  6
CONTINUOUS
 62
   254
100
AcDbLine
 10
43.12505
 20
15.5
 30
0.0
 11
43.12505
 21
8.5
 31
0.0
  0
LINE
  5
6B
100
AcDbEntity
  8
LY_1
390
0
  6
CONTINUOUS
 62
   254
100
AcDbLine
 10
42.824857
 20
9.019894
 30
0.0
 11
43.124906
 21
8.500194
 31
0.0
  0
LINE
  5
6C
100
AcDbEntity
  8
LY_1
390
0
  6
CONTINUOUS
 62
   254
100
AcDbLine
 10
46.825001
 20
8.5
 30
0.0
 11
43.12505
 21
8.5
 31
0.0
  0
LINE
  5
6D
100
AcDbEntity
  8
LY_1
390
0
  6
CONTINUOUS
 62
   254
100
AcDbLine
 10
46.825001
 20
15.5
 30
0.0
 11
43.12505
 21
15.5
 31
0.0
  0
LINE
  5
6E
100
AcDbEntity
  8
LY_1
390
0
  6
CONTINUOUS
 62
   254
100
AcDbLine
 10
66.825001
 20
14.0
 30
0.0
 11
47.024952
 21
14.0
 31
0.0
  0
LINE
  5
6F
100
AcDbEntity
  8
LY_1
390
0
  6
CONTINUOUS
 62
     7
100
AcDbLine
 10
48.825376
 20
13.620899
 30
0.0
 11
48.067645
 21
13.999764
 31
0.0
  0
LINE
  5
70
100
AcDbEntity
  8
LY_1
390
0
  6
CONTINUOUS
 62
   254
100
AcDbLine
 10
48.825001
 20
14.0
 30
0.0
 11
48.825001
 21
10.0
 31
0.0
  0
LINE
  5
71
100
AcDbEntity
  8
LY_1
390
0
  6
CONTINUOUS
 62
     7
100
AcDbLine
 10
48.825001
 20
13.621094
 30
0.0
 11
66.825001
 21
13.621094
 31
0.0
  0
LINE
  5
72
100
AcDbEntity
  8
LY_1
390
0
  6
CONTINUOUS
 62
     7
100
AcDbLine
 10
48.825001
 20
10.378906
 30
0.0
 11
66.825001
 21
10.378906
 31
0.0
  0
LINE
  5
73
100
AcDbEntity
  8
LY_1
390
0
  6
CONTINUOUS
 62
     7
100
AcDbLine
 10
48.824983
 20
10.379069
 30
0.0
 11
48.067212
 21
10.000184
 31
0.0
  0
LINE
  5
74
100
AcDbEntity
  8
LY_1
390
0
  6
CONTINUOUS
 62
   254
100
AcDbLine
 10
66.825001
 20
10.0
 30
0.0
 11
47.024952
 21
10.0
 31
0.0
  0
LINE
  5
75
100
AcDbEntity
  8
LY_1
390
0
  6
CONTINUOUS
 62
   254
100
AcDbLine
 10
60.024952
 20
14.0
 30
0.0
 11
60.024952
 21
10.0
 31
0.0
  0
LINE
  5
76
100
AcDbEntity
  8
LY_1
390
0
  6
CONTINUOUS
 62
   254
100
AcDbLine
 10
60.025913
 20
13.99912
 30
0.0
 11
60.826069
 21
13.198963
 31
0.0
  0
LINE
  5
77
100
AcDbEntity
  8
LY_1
390
0
  6
CONTINUOUS
 62
   254
100
AcDbLine
 10
60.825001
 20
13.199951
 30
0.0
 11
60.825001
 21
10.800049
 31
0.0
  0
LINE
  5
78
100
AcDbEntity
  8
LY_1
390
0
  6
CONTINUOUS
 62
   254
100
AcDbLine
 10
60.025792
 20
9.99921
 30
0.0
 11
60.825794
 21
10.799213
 31
0.0
  0
LINE
  5
79
100
AcDbEntity
  8
LY_1
390
0
  6
CONTINUOUS
 62
   254
100
AcDbLine
 10
52.325001
 20
14.0
 30
0.0
 11
52.325001
 21
15.0
 31
0.0
  0
LINE
  5
7A
100
AcDbEntity
  8
LY_1
390
0
  6
CONTINUOUS
 62
   254
100
AcDbLine
 10
54.825001
 20
10.378906
 30
0.0
 11
54.825001
 21
9.331139
 31
0.0
  0
LINE
  5
7B
100
AcDbEntity
  8
LY_1
390
0
  6
CONTINUOUS
 62
   254
100
AcDbLine
 10
11.892353
 20
6.866028
 30
0.0
 11
11.892353
 21
5.13398
 31
0.0
  0
LINE
  5
7C
100
AcDbEntity
  8
LY_1
390
0
  6
CONTINUOUS
 62
   254
100
AcDbLine
 10
11.892303
 20
6.866024
 30
0.0
 11
10.392306
 21
7.732048
 31
0.0
  0
LINE
  5
7D
100
AcDbEntity
  8
LY_1
390
0
  6
CONTINUOUS
 62
   254
100
AcDbLine
 10
10.392307
 20
7.732051
 30
0.0
 11
8.892308
 21
6.866026
 31
0.0
  0
LINE
  5
7E
100
AcDbEntity
  8
LY_1
390
0
  6
CONTINUOUS
 62
   254
100
AcDbLine
 10
8.892353
 20
5.13398
 30
0.0
 11
8.892353
 21
6.866028
 31
0.0
  0
LINE
  5
7F
100
AcDbEntity
  8
LY_1
390
0
  6
CONTINUOUS
 62
   254
100
AcDbLine
 10
8.892311
 20
5.133983
 30
0.0
 11
10.392308
 21
4.267958
 31
0.0
  0
LINE
  5
80
100
AcDbEntity
  8
LY_1
390
0
  6
CONTINUOUS
 62
   254
100
AcDbLine
 10
11.892307
 20
5.133974
 30
0.0
 11
10.392308
 21
4.26795
 31
0.0
  0
LINE
  5
81
100
AcDbEntity
  8
LY_1
390
0
  6
CONTINUOUS
 62
   254
100
AcDbLine
 10
-8.892309
 20
5.133974
 30
0.0
 11
-10.392308
 21
4.267948
 31
0.0
  0
LINE
  5
82
100
AcDbEntity
  8
LY_1
390
0
  6
CONTINUOUS
 62
   254
100
AcDbLine
 10
-11.892302
 20
5.133974
 30
0.0
 11
-10.392305
 21
4.26795
 31
0.0
  0
LINE
  5
83
100
AcDbEntity
  8
LY_1
390
0
  6
CONTINUOUS
 62
   254
100
AcDbLine
 10
-11.892296
 20
6.866028
 30
0.0
 11
-11.892296
 21
5.133972
 31
0.0
  0
LINE
  5
84
100
AcDbEntity
  8
LY_1
390
0
  6
CONTINUOUS
 62
   254
100
AcDbLine
 10
-11.892309
 20
6.866024
 30
0.0
 11
-10.39231
 21
7.732049
 31
0.0
  0
LINE
  5
85
100
AcDbEntity
  8
LY_1
390
0
  6
CONTINUOUS
 62
   254
100
AcDbLine
 10
-10.392302
 20
7.73205
 30
0.0
 11
-8.892305
 21
6.866026
 31
0.0
  0
LINE
  5
86
100
AcDbEntity
  8
LY_1
390
0
  6
CONTINUOUS
 62
   254
100
AcDbLine
 10
-8.892311
 20
5.133972
 30
0.0
 11
-8.892311
 21
6.866028
 31
0.0
  0
LINE
  5
87
100
AcDbEntity
  8
LY_1
390
0
  6
CONTINUOUS
 62
   254
100
AcDbLine
 10
-8.892349
 20
-5.13398
 30
0.0
 11
-8.892349
 21
-6.866028
 31
0.0
  0
LINE
  5
88
100
AcDbEntity
  8
LY_1
390
0
  6
CONTINUOUS
 62
   254
100
AcDbLine
 10
-10.392306
 20
-7.732053
 30
0.0
 11
-8.892309
 21
-6.866029
 31
0.0
  0
LINE
  5
89
100
AcDbEntity
  8
LY_1
390
0
  6
CONTINUOUS
 62
   254
100
AcDbLine
 10
-11.8923
 20
-6.866017
 30
0.0
 11
-10.392303
 21
-7.732042
 31
0.0
  0
LINE
  5
8A
100
AcDbEntity
  8
LY_1
390
0
  6
CONTINUOUS
 62
   254
100
AcDbLine
 10
-11.892349
 20
-6.866028
 30
0.0
 11
-11.892349
 21
-5.13398
 31
0.0
  0
LINE
  5
8B
100
AcDbEntity
  8
LY_1
390
0
  6
CONTINUOUS
 62
   254
100
AcDbLine
 10
-11.892306
 20
-5.133977
 30
0.0
 11
-10.392309
 21
-4.267953
 31
0.0
  0
LINE
  5
8C
100
AcDbEntity
  8
LY_1
390
0
  6
CONTINUOUS
 62
   254
100
AcDbLine
 10
-8.892309
 20
-5.133979
 30
0.0
 11
-10.392307
 21
-4.267955
 31
0.0
  0
LINE
  5
8D
100
AcDbEntity
  8
LY_1
390
0
  6
CONTINUOUS
 62
   254
100
AcDbLine
 10
0.000003
 20
-10.267949
 30
0.0
 11
1.500001
 21
-11.133972
 31
0.0
  0
LINE
  5
8E
100
AcDbEntity
  8
LY_1
390
0
  6
CONTINUOUS
 62
   254
100
AcDbLine
 10
1.5
 20
-12.866028
 30
0.0
 11
1.5
 21
-11.13398
 31
0.0
  0
LINE
  5
8F
100
AcDbEntity
  8
LY_1
390
0
  6
CONTINUOUS
 62
   254
100
AcDbLine
 10
-0.000006
 20
-13.73204
 30
0.0
 11
1.499994
 21
-12.866015
 31
0.0
  0
LINE
  5
90
100
AcDbEntity
  8
LY_1
390
0
  6
CONTINUOUS
 62
   254
100
AcDbLine
 10
0.000002
 20
-13.732049
 30
0.0
 11
-1.499996
 21
-12.866026
 31
0.0
  0
LINE
  5
91
100
AcDbEntity
  8
LY_1
390
0
  6
CONTINUOUS
 62
   254
100
AcDbLine
 10
-1.5
 20
-12.866028
 30
0.0
 11
-1.5
 21
-11.13398
 31
0.0
  0
LINE
  5
92
100
AcDbEntity
  8
LY_1
390
0
  6
CONTINUOUS
 62
   254
100
AcDbLine
 10
0.000001
 20
-10.267953
 30
0.0
 11
-1.499999
 21
-11.133977
 31
0.0
  0
LINE
  5
93
100
AcDbEntity
  8
LY_1
390
0
  6
CONTINUOUS
 62
   254
100
AcDbLine
 10
8.892305
 20
-5.133974
 30
0.0
 11
10.392304
 21
-4.267948
 31
0.0
  0
LINE
  5
94
100
AcDbEntity
  8
LY_1
390
0
  6
CONTINUOUS
 62
   254
100
AcDbLine
 10
11.892311
 20
-5.133977
 30
0.0
 11
10.392307
 21
-4.26795
 31
0.0
  0
LINE
  5
95
100
AcDbEntity
  8
LY_1
390
0
  6
CONTINUOUS
 62
   254
100
AcDbLine
 10
11.892296
 20
-6.866028
 30
0.0
 11
11.892296
 21
-5.133972
 31
0.0
  0
LINE
  5
96
100
AcDbEntity
  8
LY_1
390
0
  6
CONTINUOUS
 62
   254
100
AcDbLine
 10
11.892305
 20
-6.866024
 30
0.0
 11
10.392306
 21
-7.732049
 31
0.0
  0
LINE
  5
97
100
AcDbEntity
  8
LY_1
390
0
  6
CONTINUOUS
 62
   254
100
AcDbLine
 10
10.392311
 20
-7.732054
 30
0.0
 11
8.892307
 21
-6.866026
 31
0.0
  0
LINE
  5
98
100
AcDbEntity
  8
LY_1
390
0
  6
CONTINUOUS
 62
   254
100
AcDbLine
 10
8.892307
 20
-5.133972
 30
0.0
 11
8.892307
 21
-6.866028
 31
0.0
  0
LINE
  5
99
100
AcDbEntity
  8
LY_1
390
0
  6
CONTINUOUS
 62
   254
100
AcDbLine
 10
-0.000005
 20
10.267956
 30
0.0
 11
-1.500003
 21
11.133979
 31
0.0
  0
LINE
  5
9A
100
AcDbEntity
  8
LY_1
390
0
  6
CONTINUOUS
 62
   254
100
AcDbLine
 10
-1.5
 20
12.866028
 30
0.0
 11
-1.5
 21
11.13398
 31
0.0
  0
LINE
  5
9B
100
AcDbEntity
  8
LY_1
390
0
  6
CONTINUOUS
 62
   254
100
AcDbLine
 10
0.000001
 20
13.732049
 30
0.0
 11
-1.499999
 21
12.866024
 31
0.0
  0
LINE
  5
9C
100
AcDbEntity
  8
LY_1
390
0
  6
CONTINUOUS
 62
   254
100
AcDbLine
 10
-0.000006
 20
13.732053
 30
0.0
 11
1.499992
 21
12.86603
 31
0.0
  0
LINE
  5
9D
100
AcDbEntity
  8
LY_1
390
0
  6
CONTINUOUS
 62
   254
100
AcDbLine
 10
1.5
 20
12.866028
 30
0.0
 11
1.5
 21
11.13398
 31
0.0
  0
LINE
  5
9E
100
AcDbEntity
  8
LY_1
390
0
  6
CONTINUOUS
 62
   254
100
AcDbLine
 10
-0.000006
 20
10.267961
 30
0.0
 11
1.499993
 21
11.133985
 31
0.0
  0
ARC
  5
9F
100
AcDbEntity
  8
LY_1
390
0
  6
CONTINUOUS
 62
   254
100
AcDbCircle
 10
0.0
 20
0.0
 30
0.0
 40
8.0
100
AcDbArc
 50
244.301226
 51
0.0
  0
ARC
  5
A0
100
AcDbEntity
  8
LY_1
390
0
  6
CONTINUOUS
 62
   254
100
AcDbCircle
 10
0.0
 20
0.0
 30
0.0
 40
8.0
100
AcDbArc
 50
0.0
 51
235.698791
  0
ARC
  5
A1
100
AcDbEntity
  8
LY_1
390
0
  6
CONTINUOUS
 62
   254
100
AcDbCircle
 10
0.0
 20
0.0
 30
0.0
 40
16.25
100
AcDbArc
 50
0.0
 51
237.883987
  0
ARC
  5
A2
100
AcDbEntity
  8
LY_1
390
0
  6
CONTINUOUS
 62
   254
100
AcDbCircle
 10
0.0
 20
0.0
 30
0.0
 40
16.25
100
AcDbArc
 50
242.116017
 51
0.0
  0
CIRCLE
  5
A3
100
AcDbEntity
  8
LY_1
390
0
  6
CENTER
 62
     7
100
AcDbCircle
 10
0.0
 20
0.0
 30
0.0
 40
12.0
  0
CIRCLE
  5
A4
100
AcDbEntity
  8
LY_1
390
0
  6
CONTINUOUS
 62
     7
100
AcDbCircle
 10
6.0
 20
10.392303
 30
0.0
 40
2.0
  0
CIRCLE
  5
A5
100
AcDbEntity
  8
LY_1
390
0
  6
CONTINUOUS
 62
   254
100
AcDbCircle
 10
6.0
 20
10.392303
 30
0.0
 40
1.621125
  0
CIRCLE
  5
A6
100
AcDbEntity
  8
LY_1
390
0
  6
CONTINUOUS
 62
     7
100
AcDbCircle
 10
6.0
 20
-10.392303
 30
0.0
 40
2.0
  0
CIRCLE
  5
A7
100
AcDbEntity
  8
LY_1
390
0
  6
CONTINUOUS
 62
   254
100
AcDbCircle
 10
6.0
 20
-10.392303
 30
0.0
 40
1.621125
  0
CIRCLE
  5
A8
100
AcDbEntity
  8
LY_1
390
0
  6
CONTINUOUS
 62
     7
100
AcDbCircle
 10
-12.0
 20
0.0
 30
0.0
 40
2.0
  0
CIRCLE
  5
A9
100
AcDbEntity
  8
LY_1
390
0
  6
CONTINUOUS
 62
   254
100
AcDbCircle
 10
-12.0
 20
0.0
 30
0.0
 40
1.621125
  0
CIRCLE
  5
AA
100
AcDbEntity
  8
LY_1
390
0
  6
CONTINUOUS
 62
   254
100
AcDbCircle
 10
10.392307
 20
-6.0
 30
0.0
 40
2.15
  0
ARC
  5
AB
100
AcDbEntity
  8
LY_1
390
0
  6
CONTINUOUS
 62
   254
100
AcDbCircle
 10
47.024952
 20
14.199951
 30
0.0
 40
0.2
100
AcDbArc
 50
179.999745
 51
270.000001
  0
ARC
  5
AC
100
AcDbEntity
  8
LY_1
390
0
  6
CONTINUOUS
 62
   254
100
AcDbCircle
 10
47.024952
 20
9.800049
 30
0.0
 40
0.199999
100
AcDbArc
 50
89.999982
 51
180.000237
  0
CIRCLE
  5
AD
100
AcDbEntity
  8
LY_1
390
0
  6
CONTINUOUS
 62
   254
100
AcDbCircle
 10
10.392303
 20
6.0
 30
0.0
 40
2.980384
  0
CIRCLE
  5
AE
100
AcDbEntity
  8
LY_1
390
0
  6
CONTINUOUS
 62
   254
100
AcDbCircle
 10
10.392303
 20
6.0
 30
0.0
 40
3.5
  0
CIRCLE
  5
AF
100
AcDbEntity
  8
LY_1
390
0
  6
CONTINUOUS
 62
   254
100
AcDbCircle
 10
-10.392303
 20
6.0
 30
0.0
 40
3.5
  0
CIRCLE
  5
B0
100
AcDbEntity
  8
LY_1
390
0
  6
CONTINUOUS
 62
   254
100
AcDbCircle
 10
-10.392303
 20
6.0
 30
0.0
 40
2.980384
  0
CIRCLE
  5
B1
100
AcDbEntity
  8
LY_1
390
0
  6
CONTINUOUS
 62
   254
100
AcDbCircle
 10
-10.392303
 20
-6.0
 30
0.0
 40
3.5
  0
CIRCLE
  5
B2
100
AcDbEntity
  8
LY_1
390
0
  6
CONTINUOUS
 62
   254
100
AcDbCircle
 10
-10.392303
 20
-6.0
 30
0.0
 40
2.980384
  0
CIRCLE
  5
B3
100
AcDbEntity
  8
LY_1
390
0
  6
CONTINUOUS
 62
   254
100
AcDbCircle
 10
0.0
 20
-12.0
 30
0.0
 40
3.5
  0
CIRCLE
  5
B4
100
AcDbEntity
  8
LY_1
390
0
  6
CONTINUOUS
 62
   254
100
AcDbCircle
 10
0.0
 20
-12.0
 30
0.0
 40
2.980384
  0
CIRCLE
  5
B5
100
AcDbEntity
  8
LY_1
390
0
  6
CONTINUOUS
 62
   254
100
AcDbCircle
 10
10.392303
 20
-6.0
 30
0.0
 40
3.5
  0
CIRCLE
  5
B6
100
AcDbEntity
  8
LY_1
390
0
  6
CONTINUOUS
 62
   254
100
AcDbCircle
 10
10.392303
 20
-6.0
 30
0.0
 40
2.980384
  0
CIRCLE
  5
B7
100
AcDbEntity
  8
LY_1
390
0
  6
CONTINUOUS
 62
   254
100
AcDbCircle
 10
0.0
 20
12.0
 30
0.0
 40
3.5
  0
CIRCLE
  5
B8
100
AcDbEntity
  8
LY_1
390
0
  6
CONTINUOUS
 62
   254
100
AcDbCircle
 10
0.0
 20
12.0
 30
0.0
 40
2.980384
  0
ARC
  5
B9
100
AcDbEntity
  8
LY_1
390
0
  6
CONTINUOUS
 62
   254
100
AcDbCircle
 10
0.0
 20
0.0
 30
0.0
 40
15.0
100
AcDbArc
 50
237.707553
 51
242.292454
  0
ARC
  5
BA
100
AcDbEntity
  8
LY_1
390
0
  6
CONTINUOUS
 62
   254
100
AcDbCircle
 10
0.0
 20
0.0
 30
0.0
 40
8.281279
100
AcDbArc
 50
235.845111
 51
244.154883
  0
ARC
  5
BB
100
AcDbEntity
  8
LY_1
390
0
  6
CONTINUOUS
 62
   254
100
AcDbCircle
 10
0.0
 20
0.0
 30
0.0
 40
9.331142
100
AcDbArc
 50
236.313265
 51
243.686714
  0
DIMENSION
  5
C9
100
AcDbEntity
  8
LY_1
390
0
  6
CONTINUOUS
 62
     7
100
AcDbDimension
  2
*D4
 10
42.216511
 20
-8.0
 30
0.0
 11
42.216511
 21
0.0
 31
0.0
 70
   128
 71
     5
 72
     1
 41
0.9
 42
16.0
  1
\A1;\U+2205<>
  3
MXDIMSTYLE
100
AcDbAlignedDimension
 13
46.825001
 23
8.0
 33
0.0
 14
46.825001
 24
-8.0
 34
0.0
 50
90.0
100
AcDbRotatedDimension
1001
ACAD
1000
DSTYLE
1002
{
1070
     6
1000
_OPEN
1070
     7
1000
_OPEN
1070
    41
1040
3.0
1070
    44
1040
1.25
1070
   140
1040
3.2
1070
   271
1070
     0
1070
   284
1070
     8
1070
   340
1005
C3
1070
   343
1005
30
1070
   344
1005
30
1002
}
  0
DIMENSION
  5
D7
100
AcDbEntity
  8
LY_1
390
0
  6
CONTINUOUS
 62
     7
100
AcDbDimension
  2
*D5
 10
37.216511
 20
12.0
 30
0.0
 11
37.216511
 21
0.0
 31
0.0
 70
   128
 71
     5
 72
     1
 41
0.9
 42
24.0
  1
\A1;\U+2205<>
  3
MXDIMSTYLE
100
AcDbAlignedDimension
 13
45.616669
 23
-12.0
 33
0.0
 14
41.602417
 24
12.0
 34
0.0
 50
90.0
100
AcDbRotatedDimension
1001
ACAD
1000
DSTYLE
1002
{
1070
     6
1000
_OPEN
1070
     7
1000
_OPEN
1070
    41
1040
3.0
1070
    44
1040
1.25
1070
   140
1040
3.2
1070
   271
1070
     0
1070
   284
1070
     8
1070
   340
1005
D1
1070
   343
1005
30
1070
   344
1005
30
1002
}
  0
DIMENSION
  5
E5
100
AcDbEntity
  8
LY_1
390
0
  6
CONTINUOUS
 62
     7
100
AcDbDimension
  2
*D6
 10
32.216511
 20
16.25
 30
0.0
 11
32.216511
 21
0.0
 31
0.0
 70
   128
 71
     5
 72
     1
 41
0.9
 42
32.5
  1
\A1;\U+2205<>
  3
MXDIMSTYLE
100
AcDbAlignedDimension
 13
46.825001
 23
-16.25
 33
0.0
 14
46.825001
 24
16.25
 34
0.0
 50
90.0
100
AcDbRotatedDimension
1001
ACAD
1000
DSTYLE
1002
{
1070
     6
1000
_OPEN
1070
     7
1000
_OPEN
1070
    41
1040
3.0
1070
    44
1040
1.25
1070
   140
1040
3.2
1070
   271
1070
     1
1070
   284
1070
     8
1070
   340
1005
DF
1070
   343
1005
30
1070
   344
1005
30
1002
}
  0
LWPOLYLINE
  5
E6
100
AcDbEntity
  8
LY_1
390
0
  6
CONTINUOUS
 62
     7
100
AcDbPolyline
 90
        3
 70
     0
 10
6.0
 20
12.392303
 10
7.962624
 20
24.758668
 10
15.015789
 20
24.758668
  0
INSERT
  5
E7
100
AcDbEntity
  8
LY_1
390
0
  6
CONTINUOUS
 62
     7
100
AcDbBlockReference
  2
_OPEN
 10
6.0
 20
12.392303
 30
0.0
 41
3.0
 42
3.0
 43
3.0
 50
260.981994
  0
MTEXT
  5
E8
100
AcDbEntity
  8
LY_1
390
0
  6
CONTINUOUS
 62
     7
100
AcDbMText
 10
9.015789
 20
28.158668
 30
0.0
 40
3.2
 41
0.0
 71
     4
 72
     1
  1
\W0.937;\A1;M4
 73
     1
 44
0.9
  0
DIMENSION
  5
F5
100
AcDbEntity
  8
LY_1
390
0
  6
CONTINUOUS
 62
     7
100
AcDbDimension
  2
*D7
 10
66.825001
 20
35.0
 30
0.0
 11
54.825001
 21
35.0
 31
0.0
 70
   128
 71
     5
 72
     1
 41
0.9
 42
24.0
  1
\A1;<>
  3
MXDIMSTYLE
100
AcDbAlignedDimension
 13
42.825001
 23
14.980469
 33
0.0
 14
66.825001
 24
15.0
 34
0.0
100
AcDbRotatedDimension
1001
ACAD
1000
DSTYLE
1002
{
1070
     6
1000
_OPEN
1070
     7
1000
_OPEN
1070
    41
1040
3.0
1070
    44
1040
2.5
1070
   140
1040
3.2
1070
   271
1070
     0
1070
   284
1070
     8
1070
   343
1005
30
1070
   344
1005
30
1002
}
  0
DIMENSION
  5
101
100
AcDbEntity
  8
LY_1
390
0
  6
CONTINUOUS
 62
     7
100
AcDbDimension
  2
*D8
 10
66.825001
 20
30.0
 30
0.0
 11
56.825001
 21
30.0
 31
0.0
 70
   128
 71
     5
 72
     1
 41
0.9
 42
20.0
  1
\A1;<>
  3
MXDIMSTYLE
100
AcDbAlignedDimension
 13
46.825001
 23
16.25
 33
0.0
 14
66.825001
 24
15.0
 34
0.0
100
AcDbRotatedDimension
1001
ACAD
1000
DSTYLE
1002
{
1070
     6
1000
_OPEN
1070
     7
1000
_OPEN
1070
    41
1040
3.0
1070
    44
1040
2.5
1070
    76
1070
     1
1070
   140
1040
3.2
1070
   271
1070
     0
1070
   284
1070
     8
1070
   340
1005
DF
1070
   343
1005
30
1070
   344
1005
30
1002
}
  0
DIMENSION
  5
10E
100
AcDbEntity
  8
LY_1
390
0
  6
CONTINUOUS
 62
     7
100
AcDbDimension
  2
*D9
 10
66.825001
 20
25.0
 30
0.0
 11
58.075001
 21
25.0
 31
0.0
 70
   128
 71
     5
 72
     1
 41
0.9
 42
17.5
  1
\A1;<>
  3
MXDIMSTYLE
100
AcDbAlignedDimension
 13
49.325001
 23
16.25
 33
0.0
 14
66.825001
 24
15.0
 34
0.0
100
AcDbRotatedDimension
1001
ACAD
1000
DSTYLE
1002
{
1070
     6
1000
_OPEN
1070
     7
1000
_OPEN
1070
    41
1040
3.0
1070
    44
1040
2.5
1070
    76
1070
     1
1070
   140
1040
3.2
1070
   271
1070
     1
1070
   284
1070
     8
1070
   340
1005
108
1070
   343
1005
30
1070
   344
1005
30
1002
}
  0
DIMENSION
  5
11B
100
AcDbEntity
  8
LY_1
390
0
  6
CONTINUOUS
 62
     7
100
AcDbDimension
  2
*D10
 10
74.830513
 20
-15.0
 30
0.0
 11
74.830513
 21
0.0
 31
0.0
 70
   128
 71
     5
 72
     1
 41
0.9
 42
30.0
  1
\A1;\U+2205<>
  3
MXDIMSTYLE
100
AcDbAlignedDimension
 13
66.825001
 23
15.0
 33
0.0
 14
66.825001
 24
-15.0
 34
0.0
 50
90.0
100
AcDbRotatedDimension
1001
ACAD
1000
DSTYLE
1002
{
1070
     6
1000
_OPEN
1070
     7
1000
_OPEN
1070
    41
1040
3.0
1070
    44
1040
2.5
1070
   140
1040
3.2
1070
   271
1070
     0
1070
   284
1070
     8
1070
   343
1005
30
1070
   344
1005
30
1002
}
  0
DIMENSION
  5
128
100
AcDbEntity
  8
LY_1
390
0
  6
CONTINUOUS
 62
     7
100
AcDbDimension
  2
*D11
 10
66.825001
 20
20.0
 30
0.0
 11
61.119162
 21
20.0
 31
0.0
 70
   128
 71
     5
 72
     1
 41
0.9
 42
12.0
  1
\A1;<>
  3
MXDIMSTYLE
100
AcDbAlignedDimension
 13
54.825001
 23
15.0
 33
0.0
 14
66.825001
 24
15.0
 34
0.0
100
AcDbRotatedDimension
1001
ACAD
1000
DSTYLE
1002
{
1070
     6
1000
_OPEN
1070
     7
1000
_OPEN
1070
    41
1040
3.0
1070
    44
1040
2.5
1070
    76
1070
     1
1070
   140
1040
3.2
1070
   271
1070
     0
1070
   284
1070
     8
1070
   340
1005
122
1070
   343
1005
30
1070
   344
1005
30
1002
}
  0
LINE
  5
129
100
AcDbEntity
  8
LY_1
390
0
  6
CENTER
 62
     7
100
AcDbLine
 10
0.0
 20
21.0
 30
0.0
 11
0.0
 21
-21.0
 31
0.0
  0
POINT
  5
12A
100
AcDbEntity
  8
LY_1
390
0
  6
CONTINUOUS
 62
    20
100
AcDbPoint
 10
0.0
 20
0.0
 30
0.0
  0
MTEXT
  5
12B
100
AcDbEntity
  8
LY_1
390
0
  6
CONTINUOUS
 62
     7
100
AcDbMText
 10
-20.075768
 20
49.817097
 30
0.0
 40
7.0
 41
0.0
 71
     1
 72
     1
  1
\W0.833;\A1;ＰＬ０１６Ｘ０３０ＫＥ－ＬＰ
 73
     1
 44
0.6
  0
MTEXT
  5
12C
100
AcDbEntity
  8
LY_1
390
0
  6
CONTINUOUS
 62
     7
100
AcDbMText
 10
4.424232
 20
70.162231
 30
0.0
 40
7.0
 41
0.0
 71
     1
 72
     1
  1
\W0.833;\A1;ＴＳＵＢＡＫＩ
 73
     1
 44
0.6
  0
MTEXT
  5
12D
100
AcDbEntity
  8
LY_1
390
0
  6
CONTINUOUS
 62
     7
100
AcDbMText
 10
-6.075768
 20
60.396326
 30
0.0
 40
7.0
 41
0.0
 71
     1
 72
     1
  1
\W0.833;\A1;ＰＯＷＥＲ　ＬＯＣＫ
 73
     1
 44
0.6
  0
ENDSEC
  0
SECTION
  2
OBJECTS
  0
DICTIONARY
  5
19
100
AcDbDictionary
280
     0
281
     1
  3
ACAD_GROUP
350
1A
  3
ACAD_MLINESTYLE
350
1B
  3
ACAD_LAYOUT
350
1E
  3
ACAD_PLOTSETTINGS
350
22
  3
ACAD_PLOTSTYLENAME
350
1F
  0
DICTIONARY
  5
1A
102
{ACAD_REACTORS
330
19
102
}
100
AcDbDictionary
280
     0
281
     1
  0
DICTIONARY
  5
1B
102
{ACAD_REACTORS
330
19
102
}
100
AcDbDictionary
280
     0
281
     1
  3
Standard
350
1C
  0
MLINESTYLE
  5
1C
102
{ACAD_REACTORS
330
1B
102
}
100
AcDbMlineStyle
  2
Standard
 70
     0
  3

 62
     0
 51
90.0
 52
90.0
 71
     2
 49
0.5
 62
   256
  6
ByLayer
 49
-0.5
 62
   256
  6
ByLayer
  0
ACDBDICTIONARYWDFLT
  5
1F
102
{ACAD_REACTORS
330
19
102
}
100
AcDbDictionary
281
     1
  3
Normal
350
1D
100
AcDbDictionaryWithDefault
340
1D
  0
ACDBPLACEHOLDER
  5
1D
102
{ACAD_REACTORS
330
1F
102
}
  0
LAYOUT
  5
20
102
{ACAD_REACTORS
330
1E
102
}
100
AcDbPlotSettings
  1

  2

  4

  6

 40
0.0
 41
0.0
 42
0.0
 43
0.0
 44
0.0
 45
0.0
 46
0.0
 47
0.0
 48
0.0
 49
0.0
140
0.0
141
0.0
142
1.0
143
1.0
 70
  1024
 72
     0
 73
     0
 74
     0
  7

 75
     0
147
1.0
148
0.0
149
0.0
100
AcDbLayout
  1
Model
 70
     0
 71
     0
 10
0.0
 20
0.0
 11
0.0
 21
0.0
 12
0.0
 22
0.0
 32
0.0
 14
0.0
 24
0.0
 34
0.0
 15
0.0
 25
0.0
 35
0.0
146
0.0
 13
0.0
 23
0.0
 33
0.0
 16
0.0
 26
0.0
 36
0.0
 17
0.0
 27
0.0
 37
0.0
 76
     0
330
A
331
0
345
0
346
0
  0
LAYOUT
  5
21
102
{ACAD_REACTORS
330
1E
102
}
100
AcDbPlotSettings
  1

  2

  4

  6

 40
0.0
 41
0.0
 42
0.0
 43
0.0
 44
0.0
 45
0.0
 46
0.0
 47
0.0
 48
0.0
 49
0.0
140
0.0
141
0.0
142
1.0
143
1.0
 70
     0
 72
     0
 73
     0
 74
     0
  7

 75
     0
147
1.0
148
0.0
149
0.0
100
AcDbLayout
  1
Layout1
 70
     0
 71
     0
 10
0.0
 20
0.0
 11
0.0
 21
0.0
 12
0.0
 22
0.0
 32
0.0
 14
0.0
 24
0.0
 34
0.0
 15
0.0
 25
0.0
 35
0.0
146
0.0
 13
0.0
 23
0.0
 33
0.0
 16
0.0
 26
0.0
 36
0.0
 17
0.0
 27
0.0
 37
0.0
 76
     0
330
B
331
0
345
0
346
0
  0
DICTIONARY
  5
1E
102
{ACAD_REACTORS
330
19
102
}
100
AcDbDictionary
280
     0
281
     1
  3
Layout1
350
21
  3
Model
350
20
  0
DICTIONARY
  5
22
102
{ACAD_REACTORS
330
19
102
}
100
AcDbDictionary
280
     0
281
     1
  0
ENDSEC
  0
EOF
