  0
SECTION
  2
HEADER
  9
$ACADVER
  1
AC1014
  9
$ACADMAINTVER
 70
         0
  9
$DWGCODEPAGE
  3
ANSI_932
  9
$INSBASE
 10
0.0
 20
0.0
 30
0.0
  9
$EXTMIN
 10
-81.7114716
 20
-110.0
 30
0.0
  9
$EXTMAX
 10
118.853996
 20
60.8483952316
 30
0.0
  9
$LIMMIN
 10
-81.7114716
 20
-110.0
  9
$LIMMAX
 10
118.853996
 20
60.8483952316
  9
$ORTHOMODE
 70
         0
  9
$REGENMODE
 70
         1
  9
$FILLMODE
 70
         1
  9
$QTEXTMODE
 70
         0
  9
$MIRRTEXT
 70
         1
  9
$DRAGMODE
 70
         2
  9
$LTSCALE
 40
1.0
  9
$OSMODE
 70
         0
  9
$ATTMODE
 70
         1
  9
$TEXTSIZE
 40
3.2000000477
  9
$TRACEWID
 40
0.05
  9
$TEXTSTYLE
  7
MX_NOTE_STANDARD
  9
$CLAYER
  8
0
  9
$CELTYPE
  6
CONTINUOUS
  9
$CECOLOR
 62
       256
  9
$CELTSCALE
 40
1.0
  9
$DELOBJ
 70
         1
  9
$DISPSILH
 70
         0
  9
$DIMSCALE
 40
1.0
  9
$DIMASZ
 40
2.5
  9
$DIMEXO
 40
0.0
  9
$DIMDLI
 40
3.75
  9
$DIMRND
 40
0.0
  9
$DIMDLE
 40
0.0
  9
$DIMEXE
 40
2.5
  9
$DIMTP
 40
0.0
  9
$DIMTM
 40
0.0
  9
$DIMTXT
 40
3.2000000477
  9
$DIMCEN
 40
2.5
  9
$DIMTSZ
 40
0.0
  9
$DIMTOL
 70
         0
  9
$DIMLIM
 70
         0
  9
$DIMTIH
 70
         0
  9
$DIMTOH
 70
         0
  9
$DIMSE1
 70
         0
  9
$DIMSE2
 70
         0
  9
$DIMTAD
 70
         1
  9
$DIMZIN
 70
         8
  9
$DIMBLK
  1

  9
$DIMASO
 70
         1
  9
$DIMSHO
 70
         1
  9
$DIMPOST
  1

  9
$DIMAPOST
  1

  9
$DIMALT
 70
         0
  9
$DIMALTD
 70
         4
  9
$DIMALTF
 40
0.0393700787
  9
$DIMLFAC
 40
1.0
  9
$DIMTOFL
 70
         1
  9
$DIMTVP
 40
0.0
  9
$DIMTIX
 70
         0
  9
$DIMSOXD
 70
         0
  9
$DIMSAH
 70
         1
  9
$DIMBLK1
  1
_OPEN30
  9
$DIMBLK2
  1
_OPEN30
  9
$DIMSTYLE
  2
MXDIMSTYLE
  9
$DIMCLRD
 70
         0
  9
$DIMCLRE
 70
         0
  9
$DIMCLRT
 70
         0
  9
$DIMTFAC
 40
1.0
  9
$DIMGAP
 40
1.0
  9
$DIMJUST
 70
         0
  9
$DIMSD1
 70
         0
  9
$DIMSD2
 70
         0
  9
$DIMTOLJ
 70
         0
  9
$DIMTZIN
 70
         0
  9
$DIMALTZ
 70
         0
  9
$DIMALTTZ
 70
         0
  9
$DIMFIT
 70
         3
  9
$DIMUPT
 70
         0
  9
$DIMUNIT
 70
         2
  9
$DIMDEC
 70
         2
  9
$DIMTDEC
 70
         2
  9
$DIMALTU
 70
         2
  9
$DIMALTTD
 70
         4
  9
$DIMTXSTY
  7
MX_NOTE_STANDARD
  9
$DIMAUNIT
 70
         0
  9
$LUNITS
 70
         2
  9
$LUPREC
 70
         4
  9
$SKETCHINC
 40
0.1
  9
$FILLETRAD
 40
0.0
  9
$AUNITS
 70
         0
  9
$AUPREC
 70
         0
  9
$MENU
  1
acad
  9
$ELEVATION
 40
0.0
  9
$PELEVATION
 40
0.0
  9
$THICKNESS
 40
0.0
  9
$LIMCHECK
 70
         0
  9
$BLIPMODE
 70
         1
  9
$CHAMFERA
 40
0.0
  9
$CHAMFERB
 40
0.0
  9
$CHAMFERC
 40
0.0
  9
$CHAMFERD
 40
0.0
  9
$SKPOLY
 70
         0
  9
$TDCREATE
 40
2456603.419120370
  9
$TDUPDATE
 40
2456603.419120370
  9
$TDINDWG
 40
0.0000000000
  9
$TDUSRTIMER
 40
0.0000000000
  9
$USRTIMER
 70
         1
  9
$ANGBASE
 50
0.0
  9
$ANGDIR
 70
         0
  9
$PDMODE
 70
         0
  9
$PDSIZE
 40
0.0
  9
$PLINEWID
 40
0.0
  9
$COORDS
 70
         1
  9
$SPLFRAME
 70
         0
  9
$SPLINETYPE
 70
         6
  9
$SPLINESEGS
 70
         8
  9
$ATTDIA
 70
         0
  9
$ATTREQ
 70
         1
  9
$HANDLING
 70
         1
  9
$HANDSEED
  5
164
  9
$SURFTAB1
 70
         6
  9
$SURFTAB2
 70
         6
  9
$SURFTYPE
 70
         6
  9
$SURFU
 70
         6
  9
$SURFV
 70
         6
  9
$UCSNAME
  2

  9
$UCSORG
 10
0.0
 20
0.0
 30
0.0
  9
$UCSXDIR
 10
1.0
 20
0.0
 30
0.0
  9
$UCSYDIR
 10
0.0
 20
1.0
 30
0.0
  9
$PUCSNAME
  2

  9
$PUCSORG
 10
0.0
 20
0.0
 30
0.0
  9
$PUCSXDIR
 10
1.0
 20
0.0
 30
0.0
  9
$PUCSYDIR
 10
0.0
 20
1.0
 30
0.0
  9
$USERI1
 70
         0
  9
$USERI2
 70
         0
  9
$USERI3
 70
         0
  9
$USERI4
 70
         0
  9
$USERI5
 70
         0
  9
$USERR1
 40
0.0
  9
$USERR2
 40
0.0
  9
$USERR3
 40
0.0
  9
$USERR4
 40
0.0
  9
$USERR5
 40
0.0
  9
$WORLDVIEW
 70
         1
  9
$SHADEDGE
 70
         3
  9
$SHADEDIF
 70
        70
  9
$TILEMODE
 70
         1
  9
$MAXACTVP
 70
        16
  9
$PINSBASE
 10
0.0
 20
0.0
 30
0.0
  9
$PLIMCHECK
 70
         0
  9
$PEXTMIN
 10
1.0000000000E+20
 20
1.0000000000E+20
 30
1.0000000000E+20
  9
$PEXTMAX
 10
-1.0000000000E+20
 20
-1.0000000000E+20
 30
-1.0000000000E+20
  9
$PLIMMIN
 10
0.0
 20
0.0
  9
$PLIMMAX
 10
12.0
 20
9.0
  9
$UNITMODE
 70
         0
  9
$VISRETAIN
 70
         0
  9
$PLINEGEN
 70
         1
  9
$PSLTSCALE
 70
         0
  9
$TREEDEPTH
 70
      3020
  9
$PICKSTYLE
 70
         1
  9
$CMLSTYLE
  2
Standard
  9
$CMLJUST
 70
         0
  9
$CMLSCALE
 40
1.0
  9
$PROXYGRAPHICS
 70
         0
  9
$MEASUREMENT
 70
         1
  0
ENDSEC
  0
SECTION
  2
CLASSES
  0
CLASS
  1
LWPOLYLINE
  2
AcDbPolyline
  3
"AutoCAD"
 90
        0
280
         0
281
         1
  0
CLASS
  1
IMAGE
  2
AcDbRasterImage
  3
ISM
 90
      127
280
         0
281
         1
  0
CLASS
  1
OLE2FRAME
  2
AcDbOle2Frame
  3
""
 90
        0
280
         0
281
         1
  0
CLASS
  1
HATCH
  2
AcDbHatch
  3
"ACAD_SEDONA"
 90
        0
280
         0
281
         1
  0
CLASS
  1
DICTIONARYVAR
  2
AcDbDictionaryVar
  3
"AutoCAD"
 90
        0
280
         0
281
         0
  0
CLASS
  1
RASTERVARIABLES
  2
AcDbRasterVariables
  3
ISM
 90
        0
280
         0
281
         0
  0
CLASS
  1
IMAGEDEF
  2
AcDbRasterImageDef
  3
ISM
 90
        0
280
         0
281
         0
  0
CLASS
  1
IMAGEDEF_REACTOR
  2
AcDbRasterImageDefReactor
  3
ISM
 90
        1
280
         0
281
         0
  0
CLASS
  1
IDBUFFER
  2
AcDbIdBuffer
  3
"Acad"
 90
        0
280
         0
281
         0
  0
CLASS
  1
SPATIAL_FILTER
  2
AcDbSpatialFilter
  3
"Acad"
 90
        0
280
         0
281
         0
  0
CLASS
  1
XRECORD
  2
AcDbXrecord
  3
"<Built In>"
 90
        0
280
         0
281
         0
  0
CLASS
  1
SORTENTSTABLE
  2
AcDbSortentsTable
  3
"AutoCAD"
 90
        0
280
         0
281
         0
  0
CLASS
  1
LAYER_INDEX
  2
AcDbLayerIndex
  3
"Acad"
 90
        0
280
         0
281
         0
  0
CLASS
  1
SPATIAL_INDEX
  2
AcDbSpatialIndex
  3
"Acad"
 90
        0
280
         0
281
         0
  0
CLASS
  1
OBJECT_PTR
  2
CAseDLPNTableRecord
  3
"ASE-LPNTableRecord"
 90
        1
280
         0
281
         0
  0
CLASS
  1
LAYOUT
  2
AcDbLayout
  3
"AutoCAD 2000"
 90
        0
280
         0
281
         0
  0
CLASS
  1
PLOTSETTINGS
  2
AcDbPlotSettings
  3
"AutoCAD 2000"
 90
        0
280
         0
281
         0
  0
CLASS
  1
ACDBDICTIONARYWDFLT
  2
AcDbDictionaryWithDefault
  3
"AutoCAD 2000"
 90
        0
280
         0
281
         0
  0
CLASS
  1
ACDBPLACEHOLDER
  2
AcDbPlaceHolder
  3
"AutoCAD 2000"
 90
        0
280
         0
281
         0
  0
ENDSEC
  0
SECTION
  2
TABLES
  0
TABLE
  2
VPORT
  5
7
100
AcDbSymbolTable
 70
         1
  0
VPORT
  5
15
100
AcDbSymbolTableRecord
100
AcDbViewportTableRecord
  2
*ACTIVE
 70
         0
 10
0.0
 20
0.0
 11
1.0
 21
1.0
 12
18.5712622
 22
-24.5758023842
 13
0.0
 23
0.0
 14
1.0
 24
1.0
 15
0.0
 25
0.0
 16
0.0
 26
0.0
 36
1.0
 17
0.0
 27
0.0
 37
0.0
 40
172.5568791839
 41
1.7320508076
 42
50.0
 43
0.0
 44
0.0
 50
0.0
 51
0.0
 71
         0
 72
       100
 73
         1
 74
         1
 75
         0
 76
         0
 77
         0
 78
         0
  0
ENDTAB
  0
TABLE
  2
LTYPE
  5
4
100
AcDbSymbolTable
 70
         4
  0
LTYPE
  5
11
100
AcDbSymbolTableRecord
100
AcDbLinetypeTableRecord
  2
BYBLOCK
 70
        64
  3

 72
        65
 73
         0
 40
0.0
  0
LTYPE
  5
12
100
AcDbSymbolTableRecord
100
AcDbLinetypeTableRecord
  2
BYLAYER
 70
        64
  3

 72
        65
 73
         0
 40
0.0
  0
LTYPE
  5
13
100
AcDbSymbolTableRecord
100
AcDbLinetypeTableRecord
  2
CONTINUOUS
 70
        64
  3
Solid line
 72
        65
 73
         0
 40
0.0
  0
LTYPE
  5
51
100
AcDbSymbolTableRecord
100
AcDbLinetypeTableRecord
  2
CENTER
 70
        64
  3
Center ____ _ ____ _ ____ _ ____ _ ____ _ ____
 72
        65
 73
         4
 40
50.8
 49
31.75
 74
         0
 49
-6.35
 74
         0
 49
6.35
 74
         0
 49
-6.35
 74
         0
  0
ENDTAB
  0
TABLE
  2
LAYER
  5
2
100
AcDbSymbolTable
 70
         3
  0
LAYER
  5
14
100
AcDbSymbolTableRecord
100
AcDbLayerTableRecord
  2
0
 70
         0
 62
         7
  6
CONTINUOUS
  0
LAYER
  5
1D
100
AcDbSymbolTableRecord
100
AcDbLayerTableRecord
  2
PV
 70
         0
 62
         3
  6
CONTINUOUS
  0
LAYER
  5
1E
100
AcDbSymbolTableRecord
100
AcDbLayerTableRecord
  2
DEFPOINTS
 70
         0
 62
         7
  6
CONTINUOUS
  0
ENDTAB
  0
TABLE
  2
STYLE
  5
3
100
AcDbSymbolTable
 70
         7
  0
STYLE
  5
17
100
AcDbSymbolTableRecord
100
AcDbTextStyleTableRecord
  2
MX_NOTE_STANDARD
 70
         0
 40
0.0
 41
1.0
 50
0.0
 71
         0
 42
3.2000000477
  3
txt.shx
  4
extfont.shx
  0
STYLE
  5
BB
100
AcDbSymbolTableRecord
100
AcDbTextStyleTableRecord
  2
MX_DIMTXSTY_2
 70
         0
 40
0.0
 41
1.2
 50
0.0
 71
         0
 42
3.2000000477
  3
txt.shx
  4
extfont.shx
  0
STYLE
  5
CB
100
AcDbSymbolTableRecord
100
AcDbTextStyleTableRecord
  2
MX_DIMTXSTY_3
 70
         0
 40
0.0
 41
1.35
 50
0.0
 71
         0
 42
3.2000000477
  3
txt.shx
  4
extfont.shx
  0
STYLE
  5
DA
100
AcDbSymbolTableRecord
100
AcDbTextStyleTableRecord
  2
MX_DIMTXSTY_4
 70
         0
 40
0.0
 41
1.3
 50
0.0
 71
         0
 42
3.2000000477
  3
txt.shx
  4
extfont.shx
  0
STYLE
  5
EA
100
AcDbSymbolTableRecord
100
AcDbTextStyleTableRecord
  2
MX_DIMTXSTY_5
 70
         0
 40
0.0
 41
1.1
 50
0.0
 71
         0
 42
3.2000000477
  3
txt.shx
  4
extfont.shx
  0
STYLE
  5
109
100
AcDbSymbolTableRecord
100
AcDbTextStyleTableRecord
  2
MX_DIMTXSTY_6
 70
         0
 40
0.0
 41
1.05
 50
0.0
 71
         0
 42
3.2000000477
  3
txt.shx
  4
extfont.shx
  0
STYLE
  5
128
100
AcDbSymbolTableRecord
100
AcDbTextStyleTableRecord
  2
MX_DIMTXSTY_7
 70
         0
 40
0.0
 41
1.15
 50
0.0
 71
         0
 42
3.2000000477
  3
txt.shx
  4
extfont.shx
  0
ENDTAB
  0
TABLE
  2
VIEW
  5
5
100
AcDbSymbolTable
 70
         0
  0
ENDTAB
  0
TABLE
  2
UCS
  5
6
100
AcDbSymbolTable
 70
         0
  0
ENDTAB
  0
TABLE
  2
APPID
  5
8
100
AcDbSymbolTable
 70
         1
  0
APPID
  5
16
100
AcDbSymbolTableRecord
100
AcDbRegAppTableRecord
  2
ACAD
 70
         0
  0
ENDTAB
  0
TABLE
  2
DIMSTYLE
  5
9
100
AcDbSymbolTable
 70
         1
  0
DIMSTYLE
105
18
100
AcDbSymbolTableRecord
100
AcDbDimStyleTableRecord
  2
MXDIMSTYLE
 70
         0
  3

  4

  5

  6
_OPEN30
  7
_OPEN30
 40
1.0
 41
2.5
 42
0.0
 43
3.75
 44
2.5
 45
0.0
 46
0.0
 47
0.0
 48
0.0
 71
         0
 72
         0
 73
         0
 74
         0
 75
         0
 76
         0
 77
         1
 78
         8
140
3.2000000477
141
2.5
142
0.0
143
0.0393700787
144
1.0
145
0.0
146
1.0
147
1.0
170
         0
171
         4
172
         1
173
         1
174
         0
175
         0
176
         0
177
         0
178
         0
270
         2
271
         2
272
         2
273
         2
274
         4
275
         0
280
         0
281
         0
282
         0
283
         0
284
         0
285
         0
286
         0
287
         3
288
         0
340
17
  0
ENDTAB
  0
TABLE
  2
BLOCK_RECORD
  5
1
100
AcDbSymbolTable
 70
        11
  0
BLOCK_RECORD
  5
A
100
AcDbSymbolTableRecord
100
AcDbBlockTableRecord
  2
*MODEL_SPACE
  0
BLOCK_RECORD
  5
B
100
AcDbSymbolTableRecord
100
AcDbBlockTableRecord
  2
*PAPER_SPACE
  0
BLOCK_RECORD
  5
1F
100
AcDbSymbolTableRecord
100
AcDbBlockTableRecord
  2
ARROW
  0
BLOCK_RECORD
  5
20
100
AcDbSymbolTableRecord
100
AcDbBlockTableRecord
  2
_OPEN30
  0
BLOCK_RECORD
  5
2E
100
AcDbSymbolTableRecord
100
AcDbBlockTableRecord
  2
*D2
  0
BLOCK_RECORD
  5
B2
100
AcDbSymbolTableRecord
100
AcDbBlockTableRecord
  2
*D3
  0
BLOCK_RECORD
  5
C2
100
AcDbSymbolTableRecord
100
AcDbBlockTableRecord
  2
*D4
  0
BLOCK_RECORD
  5
D2
100
AcDbSymbolTableRecord
100
AcDbBlockTableRecord
  2
*D5
  0
BLOCK_RECORD
  5
E1
100
AcDbSymbolTableRecord
100
AcDbBlockTableRecord
  2
*D6
  0
BLOCK_RECORD
  5
F1
100
AcDbSymbolTableRecord
100
AcDbBlockTableRecord
  2
*D7
  0
BLOCK_RECORD
  5
100
100
AcDbSymbolTableRecord
100
AcDbBlockTableRecord
  2
*D8
  0
BLOCK_RECORD
  5
110
100
AcDbSymbolTableRecord
100
AcDbBlockTableRecord
  2
*D9
  0
BLOCK_RECORD
  5
11F
100
AcDbSymbolTableRecord
100
AcDbBlockTableRecord
  2
*D10
  0
ENDTAB
  0
ENDSEC
  0
SECTION
  2
BLOCKS
  0
BLOCK
  5
D
100
AcDbEntity
  8
0
100
AcDbBlockBegin
  2
*MODEL_SPACE
 70
         0
 10
0.0
 20
0.0
 30
0.0
  3
*MODEL_SPACE
  1

  0
ENDBLK
  5
E
100
AcDbEntity
  8
0
100
AcDbBlockEnd
  0
BLOCK
  5
F
100
AcDbEntity
 67
         1
  8
0
100
AcDbBlockBegin
  2
*PAPER_SPACE
 70
         0
 10
0.0
 20
0.0
 30
0.0
  3
*PAPER_SPACE
  1

  0
ENDBLK
  5
10
100
AcDbEntity
 67
         1
  8
0
100
AcDbBlockEnd
  0
BLOCK
  5
26
100
AcDbEntity
  8
0
100
AcDbBlockBegin
  2
ARROW
 70
         0
 10
0.0
 20
0.0
 30
0.0
  3
ARROW
  1

  0
LWPOLYLINE
  5
27
100
AcDbEntity
  8
0
  6
CONTINUOUS
 62
       254
100
AcDbPolyline
 90
        3
 70
         0
 10
2.3840404
 20
0.638801701
 10
0.0
 20
0.0
 10
2.3840404
 20
-0.638801701
  0
ENDBLK
  5
28
100
AcDbEntity
  8
0
100
AcDbBlockEnd
  0
BLOCK
  5
21
100
AcDbEntity
  8
0
  6
ByBlock
 62
         0
100
AcDbBlockBegin
  2
_OPEN30
 70
         2
 10
0.0
 20
0.0
 30
0.0
  3
_OPEN30
  1

  0
LINE
  5
22
100
AcDbEntity
  8
0
  6
ByBlock
 62
         0
100
AcDbLine
 10
-1.0
 20
0.267949
 30
0.0
 11
0.0
 21
0.0
 31
0.0
  0
LINE
  5
23
100
AcDbEntity
  8
0
  6
ByBlock
 62
         0
100
AcDbLine
 10
0.0
 20
0.0
 30
0.0
 11
-1.0
 21
-0.267949
 31
0.0
  0
LINE
  5
24
100
AcDbEntity
  8
0
  6
ByBlock
 62
         0
100
AcDbLine
 10
0.0
 20
0.0
 30
0.0
 11
-1.0
 21
0.0
 31
0.0
  0
ENDBLK
  5
25
100
AcDbEntity
  8
0
  6
ByBlock
 62
         0
100
AcDbBlockEnd
  0
BLOCK
  5
2F
100
AcDbEntity
  8
0
  6
ByBlock
 62
         0
100
AcDbBlockBegin
  2
*D2
 70
         1
 10
0.0
 20
0.0
 30
0.0
  3
*D2
  1

  0
LINE
  5
30
100
AcDbEntity
  8
0
  6
CONTINUOUS
 62
       110
100
AcDbLine
 10
48.5018665
 20
33.7737449
 30
0.0
 11
48.5018665
 21
5.77374488
 31
0.0
  0
LINE
  5
31
100
AcDbEntity
  8
0
  6
CONTINUOUS
 62
       110
100
AcDbLine
 10
39.5817615195
 20
33.7737449
 30
0.0
 11
50.5018665
 21
33.7737449
 31
0.0
  0
LINE
  5
32
100
AcDbEntity
  8
0
  6
CONTINUOUS
 62
       110
100
AcDbLine
 10
39.5817615195
 20
5.77374488
 30
0.0
 11
50.5018665
 21
5.77374488
 31
0.0
  0
LINE
  5
33
100
AcDbEntity
  8
0
  6
CONTINUOUS
 62
       110
100
AcDbLine
 10
48.5018665
 20
33.7737449
 30
0.0
 11
48.5018665
 21
37.7737449
 31
0.0
  0
LINE
  5
34
100
AcDbEntity
  8
0
  6
CONTINUOUS
 62
       110
100
AcDbLine
 10
48.5018665
 20
5.77374488
 30
0.0
 11
48.5018665
 21
1.77374488
 31
0.0
  0
SOLID
  5
35
100
AcDbEntity
  8
0
  6
CONTINUOUS
 62
       110
100
AcDbTrace
 10
48.668533505
 20
34.7737449298
 30
0.0
 11
48.335199495
 21
34.7737449298
 31
0.0
 12
48.5018665
 22
33.7737449
 32
0.0
 13
48.5018665
 23
33.7737449
 33
0.0
  0
SOLID
  5
36
100
AcDbEntity
  8
0
  6
CONTINUOUS
 62
       110
100
AcDbTrace
 10
48.335199495
 20
4.7737448502
 30
0.0
 11
48.668533505
 21
4.7737448502
 31
0.0
 12
48.5018665
 22
5.77374488
 32
0.0
 13
48.5018665
 23
5.77374488
 33
0.0
  0
MTEXT
  5
37
100
AcDbEntity
  8
0
  6
CONTINUOUS
 62
       110
100
AcDbMText
 10
45.9018664762
 20
19.4872716258
 30
0.0
 40
3.2000000477
 41
0.0
 71
         5
 72
         1
  1
\A1;\U+220528
 11
0.0
 21
1.0
 31
0.0
  0
POINT
  5
38
100
AcDbEntity
  8
DEFPOINTS
  6
CONTINUOUS
 62
         0
100
AcDbPoint
 10
39.5192615195
 20
33.7737449
 30
0.0
  0
POINT
  5
39
100
AcDbEntity
  8
DEFPOINTS
  6
CONTINUOUS
 62
         0
100
AcDbPoint
 10
39.5192615195
 20
5.77374488
 30
0.0
  0
POINT
  5
3A
100
AcDbEntity
  8
DEFPOINTS
  6
CONTINUOUS
 62
         0
100
AcDbPoint
 10
48.5018665
 20
5.77374488
 30
0.0
  0
ENDBLK
  5
3B
100
AcDbEntity
  8
0
  6
ByBlock
 62
         0
100
AcDbBlockEnd
  0
BLOCK
  5
B3
100
AcDbEntity
  8
0
  6
ByBlock
 62
         0
100
AcDbBlockBegin
  2
*D3
 70
         1
 10
0.0
 20
0.0
 30
0.0
  3
*D3
  1

  0
LINE
  5
B4
100
AcDbEntity
  8
0
  6
CONTINUOUS
 62
       110
100
AcDbLine
 10
27.5192611
 20
38.0636609
 30
0.0
 11
39.5192611
 21
38.0636609
 31
0.0
  0
LINE
  5
B5
100
AcDbEntity
  8
0
  6
CONTINUOUS
 62
       110
100
AcDbLine
 10
27.5192611
 20
33.8362448615
 30
0.0
 11
27.5192611
 21
40.0636609
 31
0.0
  0
LINE
  5
B6
100
AcDbEntity
  8
0
  6
CONTINUOUS
 62
       110
100
AcDbLine
 10
39.5192611
 20
33.8362448615
 30
0.0
 11
39.5192611
 21
40.0636609
 31
0.0
  0
LINE
  5
B7
100
AcDbEntity
  8
0
  6
CONTINUOUS
 62
       110
100
AcDbLine
 10
27.5192611
 20
38.0636609
 30
0.0
 11
23.5192611
 21
38.0636609
 31
0.0
  0
LINE
  5
B8
100
AcDbEntity
  8
0
  6
CONTINUOUS
 62
       110
100
AcDbLine
 10
39.5192611
 20
38.0636609
 30
0.0
 11
43.5192611
 21
38.0636609
 31
0.0
  0
SOLID
  5
B9
100
AcDbEntity
  8
0
  6
CONTINUOUS
 62
       110
100
AcDbTrace
 10
26.5192610702
 20
38.230327905
 30
0.0
 11
26.5192610702
 21
37.896993895
 31
0.0
 12
27.5192611
 22
38.0636609
 32
0.0
 13
27.5192611
 23
38.0636609
 33
0.0
  0
SOLID
  5
BA
100
AcDbEntity
  8
0
  6
CONTINUOUS
 62
       110
100
AcDbTrace
 10
40.5192611298
 20
37.896993895
 30
0.0
 11
40.5192611298
 21
38.230327905
 31
0.0
 12
39.5192611
 22
38.0636609
 32
0.0
 13
39.5192611
 23
38.0636609
 33
0.0
  0
MTEXT
  5
BC
100
AcDbEntity
  8
0
  6
CONTINUOUS
 62
       110
100
AcDbMText
 10
33.2359277985
 20
40.6636609238
 30
0.0
 40
3.2000000477
 41
0.0
 71
         5
 72
         1
  1
\A1;12
  7
MX_DIMTXSTY_2
  0
POINT
  5
BD
100
AcDbEntity
  8
DEFPOINTS
  6
CONTINUOUS
 62
         0
100
AcDbPoint
 10
27.5192611
 20
33.7737448615
 30
0.0
  0
POINT
  5
BE
100
AcDbEntity
  8
DEFPOINTS
  6
CONTINUOUS
 62
         0
100
AcDbPoint
 10
39.5192611
 20
33.7737448615
 30
0.0
  0
POINT
  5
BF
100
AcDbEntity
  8
DEFPOINTS
  6
CONTINUOUS
 62
         0
100
AcDbPoint
 10
39.5192611
 20
38.0636609
 30
0.0
  0
ENDBLK
  5
C0
100
AcDbEntity
  8
0
  6
ByBlock
 62
         0
100
AcDbBlockEnd
  0
BLOCK
  5
C3
100
AcDbEntity
  8
0
  6
ByBlock
 62
         0
100
AcDbBlockBegin
  2
*D4
 70
         1
 10
0.0
 20
0.0
 30
0.0
  3
*D4
  1

  0
LINE
  5
C4
100
AcDbEntity
  8
0
  6
CONTINUOUS
 62
       110
100
AcDbLine
 10
22.0192611
 20
43.2683042
 30
0.0
 11
39.5192611
 21
43.2683042
 31
0.0
  0
LINE
  5
C5
100
AcDbEntity
  8
0
  6
CONTINUOUS
 62
       110
100
AcDbLine
 10
22.0192611
 20
35.086244912
 30
0.0
 11
22.0192611
 21
45.2683042
 31
0.0
  0
LINE
  5
C6
100
AcDbEntity
  8
0
  6
CONTINUOUS
 62
       110
100
AcDbLine
 10
39.5192611
 20
33.836244912
 30
0.0
 11
39.5192611
 21
45.2683042
 31
0.0
  0
LINE
  5
C7
100
AcDbEntity
  8
0
  6
CONTINUOUS
 62
       110
100
AcDbLine
 10
22.0192611
 20
43.2683042
 30
0.0
 11
18.0192611
 21
43.2683042
 31
0.0
  0
LINE
  5
C8
100
AcDbEntity
  8
0
  6
CONTINUOUS
 62
       110
100
AcDbLine
 10
39.5192611
 20
43.2683042
 30
0.0
 11
43.5192611
 21
43.2683042
 31
0.0
  0
SOLID
  5
C9
100
AcDbEntity
  8
0
  6
CONTINUOUS
 62
       110
100
AcDbTrace
 10
21.0192610702
 20
43.434971205
 30
0.0
 11
21.0192610702
 21
43.101637195
 31
0.0
 12
22.0192611
 22
43.2683042
 32
0.0
 13
22.0192611
 23
43.2683042
 33
0.0
  0
SOLID
  5
CA
100
AcDbEntity
  8
0
  6
CONTINUOUS
 62
       110
100
AcDbTrace
 10
40.5192611298
 20
43.101637195
 30
0.0
 11
40.5192611298
 21
43.434971205
 31
0.0
 12
39.5192611
 22
43.2683042
 32
0.0
 13
39.5192611
 23
43.2683042
 33
0.0
  0
MTEXT
  5
CC
100
AcDbEntity
  8
0
  6
CONTINUOUS
 62
       110
100
AcDbMText
 10
30.4859282753
 20
45.8683042238
 30
0.0
 40
3.2000000477
 41
0.0
 71
         5
 72
         1
  1
\A1;17.5
  7
MX_DIMTXSTY_3
  0
POINT
  5
CD
100
AcDbEntity
  8
DEFPOINTS
  6
CONTINUOUS
 62
         0
100
AcDbPoint
 10
22.0192611
 20
35.023744912
 30
0.0
  0
POINT
  5
CE
100
AcDbEntity
  8
DEFPOINTS
  6
CONTINUOUS
 62
         0
100
AcDbPoint
 10
39.5192611
 20
33.773744912
 30
0.0
  0
POINT
  5
CF
100
AcDbEntity
  8
DEFPOINTS
  6
CONTINUOUS
 62
         0
100
AcDbPoint
 10
39.5192611
 20
43.2683042
 30
0.0
  0
ENDBLK
  5
D0
100
AcDbEntity
  8
0
  6
ByBlock
 62
         0
100
AcDbBlockEnd
  0
BLOCK
  5
D3
100
AcDbEntity
  8
0
  6
ByBlock
 62
         0
100
AcDbBlockBegin
  2
*D5
 70
         1
 10
0.0
 20
0.0
 30
0.0
  3
*D5
  1

  0
LINE
  5
D4
100
AcDbEntity
  8
0
  6
CONTINUOUS
 62
       110
100
AcDbLine
 10
19.5192611
 20
43.2683042
 30
0.0
 11
22.0192611
 21
43.2683042
 31
0.0
  0
LINE
  5
D5
100
AcDbEntity
  8
0
  6
CONTINUOUS
 62
       110
100
AcDbLine
 10
3.0508125803
 20
43.2683042
 30
0.0
 11
19.5192611
 21
43.2683042
 31
0.0
  0
LINE
  5
D6
100
AcDbEntity
  8
0
  6
CONTINUOUS
 62
       110
100
AcDbLine
 10
19.5192611
 20
35.086244912
 30
0.0
 11
19.5192611
 21
45.2683042
 31
0.0
  0
LINE
  5
D7
100
AcDbEntity
  8
0
  6
CONTINUOUS
 62
       110
100
AcDbLine
 10
22.0192611
 20
35.086244912
 30
0.0
 11
22.0192611
 21
45.2683042
 31
0.0
  0
SOLID
  5
D8
100
AcDbEntity
  8
0
  6
CONTINUOUS
 62
       110
100
AcDbTrace
 10
20.5192611298
 20
43.101637195
 30
0.0
 11
20.5192611298
 21
43.434971205
 31
0.0
 12
19.5192611
 22
43.2683042
 32
0.0
 13
19.5192611
 23
43.2683042
 33
0.0
  0
SOLID
  5
D9
100
AcDbEntity
  8
0
  6
CONTINUOUS
 62
       110
100
AcDbTrace
 10
21.0192610702
 20
43.434971205
 30
0.0
 11
21.0192610702
 21
43.101637195
 31
0.0
 12
22.0192611
 22
43.2683042
 32
0.0
 13
22.0192611
 23
43.2683042
 33
0.0
  0
MTEXT
  5
DB
100
AcDbEntity
  8
0
  6
CONTINUOUS
 62
       110
100
AcDbMText
 10
7.8508126518
 20
45.8683042238
 30
0.0
 40
3.2000000477
 41
0.0
 71
         5
 72
         1
  1
\A1;2.5
  7
MX_DIMTXSTY_4
  0
POINT
  5
DC
100
AcDbEntity
  8
DEFPOINTS
  6
CONTINUOUS
 62
         0
100
AcDbPoint
 10
19.5192611
 20
35.023744912
 30
0.0
  0
POINT
  5
DD
100
AcDbEntity
  8
DEFPOINTS
  6
CONTINUOUS
 62
         0
100
AcDbPoint
 10
22.0192611
 20
35.023744912
 30
0.0
  0
POINT
  5
DE
100
AcDbEntity
  8
DEFPOINTS
  6
CONTINUOUS
 62
         0
100
AcDbPoint
 10
22.0192611
 20
43.2683042
 30
0.0
  0
ENDBLK
  5
DF
100
AcDbEntity
  8
0
  6
ByBlock
 62
         0
100
AcDbBlockEnd
  0
BLOCK
  5
E2
100
AcDbEntity
  8
0
  6
ByBlock
 62
         0
100
AcDbBlockBegin
  2
*D6
 70
         1
 10
0.0
 20
0.0
 30
0.0
  3
*D6
  1

  0
LINE
  5
E3
100
AcDbEntity
  8
0
  6
CONTINUOUS
 62
       110
100
AcDbLine
 10
19.5192611
 20
49.6154302
 30
0.0
 11
39.5192611
 21
49.6154302
 31
0.0
  0
LINE
  5
E4
100
AcDbEntity
  8
0
  6
CONTINUOUS
 62
       110
100
AcDbLine
 10
19.5192611
 20
35.0862449049
 30
0.0
 11
19.5192611
 21
51.6154302
 31
0.0
  0
LINE
  5
E5
100
AcDbEntity
  8
0
  6
CONTINUOUS
 62
       110
100
AcDbLine
 10
39.5192611
 20
33.8362449049
 30
0.0
 11
39.5192611
 21
51.6154302
 31
0.0
  0
LINE
  5
E6
100
AcDbEntity
  8
0
  6
CONTINUOUS
 62
       110
100
AcDbLine
 10
19.5192611
 20
49.6154302
 30
0.0
 11
15.5192611
 21
49.6154302
 31
0.0
  0
LINE
  5
E7
100
AcDbEntity
  8
0
  6
CONTINUOUS
 62
       110
100
AcDbLine
 10
39.5192611
 20
49.6154302
 30
0.0
 11
43.5192611
 21
49.6154302
 31
0.0
  0
SOLID
  5
E8
100
AcDbEntity
  8
0
  6
CONTINUOUS
 62
       110
100
AcDbTrace
 10
18.5192610702
 20
49.782097205
 30
0.0
 11
18.5192610702
 21
49.448763195
 31
0.0
 12
19.5192611
 22
49.6154302
 32
0.0
 13
19.5192611
 23
49.6154302
 33
0.0
  0
SOLID
  5
E9
100
AcDbEntity
  8
0
  6
CONTINUOUS
 62
       110
100
AcDbTrace
 10
40.5192611298
 20
49.448763195
 30
0.0
 11
40.5192611298
 21
49.782097205
 31
0.0
 12
39.5192611
 22
49.6154302
 32
0.0
 13
39.5192611
 23
49.6154302
 33
0.0
  0
MTEXT
  5
EB
100
AcDbEntity
  8
0
  6
CONTINUOUS
 62
       110
100
AcDbMText
 10
29.2359282753
 20
52.2154302238
 30
0.0
 40
3.2000000477
 41
0.0
 71
         5
 72
         1
  1
\A1;20
  7
MX_DIMTXSTY_5
  0
POINT
  5
EC
100
AcDbEntity
  8
DEFPOINTS
  6
CONTINUOUS
 62
         0
100
AcDbPoint
 10
19.5192611
 20
35.0237449049
 30
0.0
  0
POINT
  5
ED
100
AcDbEntity
  8
DEFPOINTS
  6
CONTINUOUS
 62
         0
100
AcDbPoint
 10
39.5192611
 20
33.7737449049
 30
0.0
  0
POINT
  5
EE
100
AcDbEntity
  8
DEFPOINTS
  6
CONTINUOUS
 62
         0
100
AcDbPoint
 10
39.5192611
 20
49.6154302
 30
0.0
  0
ENDBLK
  5
EF
100
AcDbEntity
  8
0
  6
ByBlock
 62
         0
100
AcDbBlockEnd
  0
BLOCK
  5
F2
100
AcDbEntity
  8
0
  6
ByBlock
 62
         0
100
AcDbBlockBegin
  2
*D7
 70
         1
 10
0.0
 20
0.0
 30
0.0
  3
*D7
  1

  0
LINE
  5
F3
100
AcDbEntity
  8
0
  6
CONTINUOUS
 62
       110
100
AcDbLine
 10
15.5192611
 20
55.5817287
 30
0.0
 11
39.5192611
 21
55.5817287
 31
0.0
  0
LINE
  5
F4
100
AcDbEntity
  8
0
  6
CONTINUOUS
 62
       110
100
AcDbLine
 10
15.5192611
 20
33.8167140516
 30
0.0
 11
15.5192611
 21
57.5817287
 31
0.0
  0
LINE
  5
F5
100
AcDbEntity
  8
0
  6
CONTINUOUS
 62
       110
100
AcDbLine
 10
39.5192611
 20
33.8362453016
 30
0.0
 11
39.5192611
 21
57.5817287
 31
0.0
  0
LINE
  5
F6
100
AcDbEntity
  8
0
  6
CONTINUOUS
 62
       110
100
AcDbLine
 10
15.5192611
 20
55.5817287
 30
0.0
 11
11.5192611
 21
55.5817287
 31
0.0
  0
LINE
  5
F7
100
AcDbEntity
  8
0
  6
CONTINUOUS
 62
       110
100
AcDbLine
 10
39.5192611
 20
55.5817287
 30
0.0
 11
43.5192611
 21
55.5817287
 31
0.0
  0
SOLID
  5
F8
100
AcDbEntity
  8
0
  6
CONTINUOUS
 62
       110
100
AcDbTrace
 10
14.5192610702
 20
55.748395705
 30
0.0
 11
14.5192610702
 21
55.415061695
 31
0.0
 12
15.5192611
 22
55.5817287
 32
0.0
 13
15.5192611
 23
55.5817287
 33
0.0
  0
SOLID
  5
F9
100
AcDbEntity
  8
0
  6
CONTINUOUS
 62
       110
100
AcDbTrace
 10
40.5192611298
 20
55.415061695
 30
0.0
 11
40.5192611298
 21
55.748395705
 31
0.0
 12
39.5192611
 22
55.5817287
 32
0.0
 13
39.5192611
 23
55.5817287
 33
0.0
  0
MTEXT
  5
FA
100
AcDbEntity
  8
0
  6
CONTINUOUS
 62
       110
100
AcDbMText
 10
27.2359282753
 20
58.1817287238
 30
0.0
 40
3.2000000477
 41
0.0
 71
         5
 72
         1
  1
\A1;24
  0
POINT
  5
FB
100
AcDbEntity
  8
DEFPOINTS
  6
CONTINUOUS
 62
         0
100
AcDbPoint
 10
15.5192611
 20
33.7542140516
 30
0.0
  0
POINT
  5
FC
100
AcDbEntity
  8
DEFPOINTS
  6
CONTINUOUS
 62
         0
100
AcDbPoint
 10
39.5192611
 20
33.7737453016
 30
0.0
  0
POINT
  5
FD
100
AcDbEntity
  8
DEFPOINTS
  6
CONTINUOUS
 62
         0
100
AcDbPoint
 10
39.5192611
 20
55.5817287
 30
0.0
  0
ENDBLK
  5
FE
100
AcDbEntity
  8
0
  6
ByBlock
 62
         0
100
AcDbBlockEnd
  0
BLOCK
  5
101
100
AcDbEntity
  8
0
  6
ByBlock
 62
         0
100
AcDbBlockBegin
  2
*D8
 70
         1
 10
0.0
 20
0.0
 30
0.0
  3
*D8
  1

  0
LINE
  5
102
100
AcDbEntity
  8
0
  6
CONTINUOUS
 62
       110
100
AcDbLine
 10
12.0201216
 20
12.7737449
 30
0.0
 11
12.0201216
 21
26.7737449
 31
0.0
  0
LINE
  5
103
100
AcDbEntity
  8
0
  6
CONTINUOUS
 62
       110
100
AcDbLine
 10
19.4567609089
 20
12.7737449
 30
0.0
 11
10.0201216
 21
12.7737449
 31
0.0
  0
LINE
  5
104
100
AcDbEntity
  8
0
  6
CONTINUOUS
 62
       110
100
AcDbLine
 10
19.4567609089
 20
26.7737449
 30
0.0
 11
10.0201216
 21
26.7737449
 31
0.0
  0
LINE
  5
105
100
AcDbEntity
  8
0
  6
CONTINUOUS
 62
       110
100
AcDbLine
 10
12.0201216
 20
12.7737449
 30
0.0
 11
12.0201216
 21
8.7737449
 31
0.0
  0
LINE
  5
106
100
AcDbEntity
  8
0
  6
CONTINUOUS
 62
       110
100
AcDbLine
 10
12.0201216
 20
26.7737449
 30
0.0
 11
12.0201216
 21
30.7737449
 31
0.0
  0
SOLID
  5
107
100
AcDbEntity
  8
0
  6
CONTINUOUS
 62
       110
100
AcDbTrace
 10
11.853454595
 20
11.7737448702
 30
0.0
 11
12.186788605
 21
11.7737448702
 31
0.0
 12
12.0201216
 22
12.7737449
 32
0.0
 13
12.0201216
 23
12.7737449
 33
0.0
  0
SOLID
  5
108
100
AcDbEntity
  8
0
  6
CONTINUOUS
 62
       110
100
AcDbTrace
 10
12.186788605
 20
27.7737449298
 30
0.0
 11
11.853454595
 21
27.7737449298
 31
0.0
 12
12.0201216
 22
26.7737449
 32
0.0
 13
12.0201216
 23
26.7737449
 33
0.0
  0
MTEXT
  5
10A
100
AcDbEntity
  8
0
  6
CONTINUOUS
 62
       110
100
AcDbMText
 10
9.4201215762
 20
19.4904111216
 30
0.0
 40
3.2000000477
 41
0.0
 71
         5
 72
         1
  1
\A1;\U+220514
  7
MX_DIMTXSTY_6
 11
0.0
 21
1.0
 31
0.0
  0
POINT
  5
10B
100
AcDbEntity
  8
DEFPOINTS
  6
CONTINUOUS
 62
         0
100
AcDbPoint
 10
19.5192609089
 20
12.7737449
 30
0.0
  0
POINT
  5
10C
100
AcDbEntity
  8
DEFPOINTS
  6
CONTINUOUS
 62
         0
100
AcDbPoint
 10
19.5192609089
 20
26.7737449
 30
0.0
  0
POINT
  5
10D
100
AcDbEntity
  8
DEFPOINTS
  6
CONTINUOUS
 62
         0
100
AcDbPoint
 10
12.0201216
 20
26.7737449
 30
0.0
  0
ENDBLK
  5
10E
100
AcDbEntity
  8
0
  6
ByBlock
 62
         0
100
AcDbBlockEnd
  0
BLOCK
  5
111
100
AcDbEntity
  8
0
  6
ByBlock
 62
         0
100
AcDbBlockBegin
  2
*D9
 70
         1
 10
0.0
 20
0.0
 30
0.0
  3
*D9
  1

  0
LINE
  5
112
100
AcDbEntity
  8
0
  6
CONTINUOUS
 62
       110
100
AcDbLine
 10
6.8154783
 20
8.77374488
 30
0.0
 11
6.8154783
 21
30.7737449
 31
0.0
  0
LINE
  5
113
100
AcDbEntity
  8
0
  6
CONTINUOUS
 62
       110
100
AcDbLine
 10
18.2230462779
 20
8.77374488
 30
0.0
 11
4.8154783
 21
8.77374488
 31
0.0
  0
LINE
  5
114
100
AcDbEntity
  8
0
  6
CONTINUOUS
 62
       110
100
AcDbLine
 10
14.5433511485
 20
30.7737449
 30
0.0
 11
4.8154783
 21
30.7737449
 31
0.0
  0
LINE
  5
115
100
AcDbEntity
  8
0
  6
CONTINUOUS
 62
       110
100
AcDbLine
 10
6.8154783
 20
8.77374488
 30
0.0
 11
6.8154783
 21
4.77374488
 31
0.0
  0
LINE
  5
116
100
AcDbEntity
  8
0
  6
CONTINUOUS
 62
       110
100
AcDbLine
 10
6.8154783
 20
30.7737449
 30
0.0
 11
6.8154783
 21
34.7737449
 31
0.0
  0
SOLID
  5
117
100
AcDbEntity
  8
0
  6
CONTINUOUS
 62
       110
100
AcDbTrace
 10
6.648811295
 20
7.7737448502
 30
0.0
 11
6.982145305
 21
7.7737448502
 31
0.0
 12
6.8154783
 22
8.77374488
 32
0.0
 13
6.8154783
 23
8.77374488
 33
0.0
  0
SOLID
  5
118
100
AcDbEntity
  8
0
  6
CONTINUOUS
 62
       110
100
AcDbTrace
 10
6.982145305
 20
31.7737449298
 30
0.0
 11
6.648811295
 21
31.7737449298
 31
0.0
 12
6.8154783
 22
30.7737449
 32
0.0
 13
6.8154783
 23
30.7737449
 33
0.0
  0
MTEXT
  5
119
100
AcDbEntity
  8
0
  6
CONTINUOUS
 62
       110
100
AcDbMText
 10
4.2154782762
 20
19.4904120553
 30
0.0
 40
3.2000000477
 41
0.0
 71
         5
 72
         1
  1
\A1;\U+220522
 11
0.0
 21
1.0
 31
0.0
  0
POINT
  5
11A
100
AcDbEntity
  8
DEFPOINTS
  6
CONTINUOUS
 62
         0
100
AcDbPoint
 10
18.2855462779
 20
8.77374488
 30
0.0
  0
POINT
  5
11B
100
AcDbEntity
  8
DEFPOINTS
  6
CONTINUOUS
 62
         0
100
AcDbPoint
 10
14.6058511485
 20
30.7737449
 30
0.0
  0
POINT
  5
11C
100
AcDbEntity
  8
DEFPOINTS
  6
CONTINUOUS
 62
         0
100
AcDbPoint
 10
6.8154783
 20
30.7737449
 30
0.0
  0
ENDBLK
  5
11D
100
AcDbEntity
  8
0
  6
ByBlock
 62
         0
100
AcDbBlockEnd
  0
BLOCK
  5
120
100
AcDbEntity
  8
0
  6
ByBlock
 62
         0
100
AcDbBlockBegin
  2
*D10
 70
         1
 10
0.0
 20
0.0
 30
0.0
  3
*D10
  1

  0
LINE
  5
121
100
AcDbEntity
  8
0
  6
CONTINUOUS
 62
       110
100
AcDbLine
 10
1.99166255
 20
4.52374488
 30
0.0
 11
1.99166255
 21
35.0237449
 31
0.0
  0
LINE
  5
122
100
AcDbEntity
  8
0
  6
CONTINUOUS
 62
       110
100
AcDbLine
 10
19.4567618847
 20
4.52374488
 30
0.0
 11
-0.00833745
 21
4.52374488
 31
0.0
  0
LINE
  5
123
100
AcDbEntity
  8
0
  6
CONTINUOUS
 62
       110
100
AcDbLine
 10
19.4567618847
 20
35.0237449
 30
0.0
 11
-0.00833745
 21
35.0237449
 31
0.0
  0
LINE
  5
124
100
AcDbEntity
  8
0
  6
CONTINUOUS
 62
       110
100
AcDbLine
 10
1.99166255
 20
4.52374488
 30
0.0
 11
1.99166255
 21
0.52374488
 31
0.0
  0
LINE
  5
125
100
AcDbEntity
  8
0
  6
CONTINUOUS
 62
       110
100
AcDbLine
 10
1.99166255
 20
35.0237449
 30
0.0
 11
1.99166255
 21
39.0237449
 31
0.0
  0
SOLID
  5
126
100
AcDbEntity
  8
0
  6
CONTINUOUS
 62
       110
100
AcDbTrace
 10
1.824995545
 20
3.5237448502
 30
0.0
 11
2.158329555
 21
3.5237448502
 31
0.0
 12
1.99166255
 22
4.52374488
 32
0.0
 13
1.99166255
 23
4.52374488
 33
0.0
  0
SOLID
  5
127
100
AcDbEntity
  8
0
  6
CONTINUOUS
 62
       110
100
AcDbTrace
 10
2.158329555
 20
36.0237449298
 30
0.0
 11
1.824995545
 21
36.0237449298
 31
0.0
 12
1.99166255
 22
35.0237449
 32
0.0
 13
1.99166255
 23
35.0237449
 33
0.0
  0
MTEXT
  5
129
100
AcDbEntity
  8
0
  6
CONTINUOUS
 62
       110
100
AcDbMText
 10
-0.6083374738
 20
19.4904120553
 30
0.0
 40
3.2000000477
 41
0.0
 71
         5
 72
         1
  1
\A1;\U+220530.5
  7
MX_DIMTXSTY_7
 11
0.0
 21
1.0
 31
0.0
  0
POINT
  5
12A
100
AcDbEntity
  8
DEFPOINTS
  6
CONTINUOUS
 62
         0
100
AcDbPoint
 10
19.5192618847
 20
4.52374488
 30
0.0
  0
POINT
  5
12B
100
AcDbEntity
  8
DEFPOINTS
  6
CONTINUOUS
 62
         0
100
AcDbPoint
 10
19.5192618847
 20
35.0237449
 30
0.0
  0
POINT
  5
12C
100
AcDbEntity
  8
DEFPOINTS
  6
CONTINUOUS
 62
         0
100
AcDbPoint
 10
1.99166255
 20
35.0237449
 30
0.0
  0
ENDBLK
  5
12D
100
AcDbEntity
  8
0
  6
ByBlock
 62
         0
100
AcDbBlockEnd
  0
ENDSEC
  0
SECTION
  2
ENTITIES
  0
MTEXT
  5
29
100
AcDbEntity
  8
0
  6
CONTINUOUS
 62
       110
100
AcDbMText
 10
-33.2452433171
 20
-51.6473295498
 30
0.0
 40
3.2000000477
 41
0.0
 71
         1
 72
         1
  1
\T1.025;\W1.058;\A1;TSUBAKI
  0
MTEXT
  5
2A
100
AcDbEntity
  8
0
  6
CONTINUOUS
 62
       110
100
AcDbMText
 10
-2.3582771971
 20
-23.1219619498
 30
0.0
 40
3.2000000477
 41
0.0
 71
         1
 72
         1
  1
\T1.025;\W1.058;\A1;TSUBAKI
  0
INSERT
  5
2B
100
AcDbEntity
  8
PV
  6
ByBlock
100
AcDbBlockReference
  2
ARROW
 10
-28.7713769
 20
30.6729301
 30
0.0
 50
107.826539
  0
MTEXT
  5
2C
100
AcDbEntity
  8
PV
  6
CONTINUOUS
 62
       110
100
AcDbMText
 10
-2.4060632888
 20
-29.1219619498
 30
0.0
 40
3.2000000477
 41
0.0
 71
         1
 72
         1
  1
\T1.003;\W1.067;\A1;POWER LOCK
  0
MTEXT
  5
2D
100
AcDbEntity
  8
PV
  6
CONTINUOUS
 62
       110
100
AcDbMText
 10
-2.3792766382
 20
-35.1219621882
 30
0.0
 40
3.2000000477
 41
0.0
 71
         1
 72
         1
  1
\W1.065;\A1;PL014X028KE
  0
DIMENSION
  5
3C
100
AcDbEntity
  8
PV
  6
CONTINUOUS
 62
       110
100
AcDbDimension
  2
*D2
 10
48.5018665
 20
5.77374488
 30
0.0
 11
48.5018665
 21
19.4872716258
 31
0.0
 70
       128
  1
\A1;\U+2205<>
  3
MXDIMSTYLE
100
AcDbAlignedDimension
 13
39.5192615195
 23
33.7737449
 33
0.0
 14
39.5192615195
 24
5.77374488
 34
0.0
 50
90.0
100
AcDbRotatedDimension
1001
ACAD
1000
DSTYLE
1002
{
1070
         6
1000
SOLID
1070
         7
1000
SOLID
1070
        41
1040
1.0000000298
1070
        42
1040
0.0625
1070
        44
1040
2.0
1070
       271
1070
         4
1070
       284
1070
         8
1070
       343
1005
0
1070
       344
1005
0
1002
}
  0
ARC
  5
3D
100
AcDbEntity
  8
PV
  6
CONTINUOUS
 62
         3
100
AcDbCircle
 10
-22.3057396
 20
19.7737449
 30
0.0
 40
8.33114433
100
AcDbArc
 50
193.870046
 51
202.129945
  0
ARC
  5
3E
100
AcDbEntity
  8
PV
  6
CONTINUOUS
 62
         3
100
AcDbCircle
 10
-22.3057396
 20
19.7737449
 30
0.0
 40
7.28128004
100
AcDbArc
 50
193.273293
 51
202.726698
  0
ARC
  5
3F
100
AcDbEntity
  8
PV
  6
CONTINUOUS
 62
         3
100
AcDbCircle
 10
-22.3057396
 20
19.7737449
 30
0.0
 40
14.0
100
AcDbArc
 50
195.543716
 51
200.456275
  0
ARC
  5
40
100
AcDbEntity
  8
PV
  6
CONTINUOUS
 62
         3
100
AcDbCircle
 10
19.7192123
 20
28.5737937
 30
0.0
 40
0.199998796
100
AcDbArc
 50
89.9999818
 51
180.000237
  0
ARC
  5
41
100
AcDbEntity
  8
PV
  6
CONTINUOUS
 62
         3
100
AcDbCircle
 10
19.7192123
 20
32.9736961
 30
0.0
 40
0.199999928
100
AcDbArc
 50
179.999745
 51
270.000001
  0
CIRCLE
  5
42
100
AcDbEntity
  8
PV
  6
CONTINUOUS
 62
         3
100
AcDbCircle
 10
-15.8401024
 20
10.8745597
 30
0.0
 40
2.98038387
  0
CIRCLE
  5
43
100
AcDbEntity
  8
PV
  6
CONTINUOUS
 62
         3
100
AcDbCircle
 10
-15.8401024
 20
10.8745597
 30
0.0
 40
3.5
  0
CIRCLE
  5
44
100
AcDbEntity
  8
PV
  6
CONTINUOUS
 62
         3
100
AcDbCircle
 10
-28.7713769
 20
10.8745597
 30
0.0
 40
2.98038387
  0
CIRCLE
  5
45
100
AcDbEntity
  8
PV
  6
CONTINUOUS
 62
         3
100
AcDbCircle
 10
-28.7713769
 20
10.8745597
 30
0.0
 40
3.5
  0
CIRCLE
  5
46
100
AcDbEntity
  8
PV
  6
CONTINUOUS
 62
         3
100
AcDbCircle
 10
-32.7673638
 20
23.1729301
 30
0.0
 40
2.98038387
  0
CIRCLE
  5
47
100
AcDbEntity
  8
PV
  6
CONTINUOUS
 62
         3
100
AcDbCircle
 10
-32.7673638
 20
23.1729301
 30
0.0
 40
3.5
  0
CIRCLE
  5
48
100
AcDbEntity
  8
PV
  6
CONTINUOUS
 62
         3
100
AcDbCircle
 10
-22.3057396
 20
30.7737449
 30
0.0
 40
2.98038387
  0
CIRCLE
  5
49
100
AcDbEntity
  8
PV
  6
CONTINUOUS
 62
         3
100
AcDbCircle
 10
-22.3057396
 20
30.7737449
 30
0.0
 40
3.5
  0
CIRCLE
  5
4A
100
AcDbEntity
  8
PV
  6
CONTINUOUS
 62
         3
100
AcDbCircle
 10
-11.8441193
 20
23.1729301
 30
0.0
 40
3.5
  0
CIRCLE
  5
4B
100
AcDbEntity
  8
PV
  6
CONTINUOUS
 62
         3
100
AcDbCircle
 10
-11.8441193
 20
23.1729301
 30
0.0
 40
2.98038387
  0
CIRCLE
  5
4C
100
AcDbEntity
  8
PV
  6
CONTINUOUS
 62
         3
100
AcDbCircle
 10
-15.8401024
 20
28.6729301
 30
0.0
 40
1.6211251
  0
ARC
  5
4D
100
AcDbEntity
  8
PV
  6
CONTINUOUS
 62
         3
100
AcDbCircle
 10
-22.3057396
 20
19.7737449
 30
0.0
 40
7.0
100
AcDbArc
 50
0.0
 51
193.082904
  0
ARC
  5
4E
100
AcDbEntity
  8
PV
  6
CONTINUOUS
 62
         3
100
AcDbCircle
 10
-22.3057396
 20
19.7737449
 30
0.0
 40
15.25
100
AcDbArc
 50
0.0
 51
195.745162
  0
CIRCLE
  5
4F
100
AcDbEntity
  8
PV
  6
CONTINUOUS
 62
         3
100
AcDbCircle
 10
-22.3057396
 20
8.77374488
 30
0.0
 40
1.6211251
  0
CIRCLE
  5
50
100
AcDbEntity
  8
PV
  6
CONTINUOUS
 62
         3
100
AcDbCircle
 10
-22.3057396
 20
8.77374488
 30
0.0
 40
2.0
  0
CIRCLE
  5
52
100
AcDbEntity
  8
PV
  6
CENTER
 62
         3
100
AcDbCircle
 10
-22.3057396
 20
19.7737449
 30
0.0
 40
11.0
  0
ARC
  5
53
100
AcDbEntity
  8
PV
  6
CONTINUOUS
 62
         3
100
AcDbCircle
 10
-22.3057396
 20
19.7737449
 30
0.0
 40
7.0
100
AcDbArc
 50
202.917083
 51
0.0
  0
ARC
  5
54
100
AcDbEntity
  8
PV
  6
CONTINUOUS
 62
         3
100
AcDbCircle
 10
-22.3057396
 20
19.7737449
 30
0.0
 40
15.25
100
AcDbArc
 50
200.254839
 51
0.0
  0
CIRCLE
  5
55
100
AcDbEntity
  8
PV
  6
CONTINUOUS
 62
         3
100
AcDbCircle
 10
-15.8401024
 20
28.6729301
 30
0.0
 40
2.0
  0
CIRCLE
  5
56
100
AcDbEntity
  8
PV
  6
CONTINUOUS
 62
         3
100
AcDbCircle
 10
-28.7713769
 20
28.6729301
 30
0.0
 40
1.6211251
  0
CIRCLE
  5
57
100
AcDbEntity
  8
PV
  6
CONTINUOUS
 62
         3
100
AcDbCircle
 10
-28.7713769
 20
28.6729301
 30
0.0
 40
2.0
  0
LINE
  5
58
100
AcDbEntity
  8
PV
  6
CONTINUOUS
 62
         3
100
AcDbLine
 10
27.5192611
 20
29.1526511
 30
0.0
 11
27.5192611
 21
28.1048911
 31
0.0
  0
LINE
  5
59
100
AcDbEntity
  8
PV
  6
CONTINUOUS
 62
         3
100
AcDbLine
 10
32.7200528
 20
28.7729542
 30
0.0
 11
33.5200575
 21
29.5729598
 31
0.0
  0
LINE
  5
5A
100
AcDbEntity
  8
PV
  6
CONTINUOUS
 62
         3
100
AcDbLine
 10
33.5192611
 20
31.9736961
 30
0.0
 11
33.5192611
 21
29.5737937
 31
0.0
  0
LINE
  5
5B
100
AcDbEntity
  8
PV
  6
CONTINUOUS
 62
         3
100
AcDbLine
 10
32.7201731
 20
32.7728638
 30
0.0
 11
33.5203288
 21
31.9727071
 31
0.0
  0
LINE
  5
5C
100
AcDbEntity
  8
PV
  6
CONTINUOUS
 62
         3
100
AcDbLine
 10
32.7192123
 20
32.7737449
 30
0.0
 11
32.7192123
 21
28.7737449
 31
0.0
  0
LINE
  5
5D
100
AcDbEntity
  8
PV
  6
CONTINUOUS
 62
         3
100
AcDbLine
 10
39.5192611
 20
28.7737449
 30
0.0
 11
19.7192123
 21
28.7737449
 31
0.0
  0
LINE
  5
5E
100
AcDbEntity
  8
PV
  6
CONTINUOUS
 62
         3
100
AcDbLine
 10
21.5192447
 20
29.1528093
 30
0.0
 11
20.7614737
 21
28.7739239
 31
0.0
  0
LINE
  5
5F
100
AcDbEntity
  8
PV
  6
CONTINUOUS
 62
         3
100
AcDbLine
 10
21.5192611
 20
29.1526511
 30
0.0
 11
39.5192611
 21
29.1526511
 31
0.0
  0
LINE
  5
60
100
AcDbEntity
  8
PV
  6
CONTINUOUS
 62
         3
100
AcDbLine
 10
21.5192611
 20
32.3948386
 30
0.0
 11
39.5192611
 21
32.3948386
 31
0.0
  0
LINE
  5
61
100
AcDbEntity
  8
PV
  6
CONTINUOUS
 62
         3
100
AcDbLine
 10
21.5192611
 20
32.7737449
 30
0.0
 11
21.5192611
 21
28.7737449
 31
0.0
  0
LINE
  5
62
100
AcDbEntity
  8
PV
  6
CONTINUOUS
 62
         3
100
AcDbLine
 10
21.519636
 20
32.394647
 30
0.0
 11
20.7619059
 21
32.773512
 31
0.0
  0
LINE
  5
63
100
AcDbEntity
  8
PV
  6
CONTINUOUS
 62
         3
100
AcDbLine
 10
39.5192611
 20
32.7737449
 30
0.0
 11
19.7192123
 21
32.7737449
 31
0.0
  0
LINE
  5
64
100
AcDbEntity
  8
PV
  6
CONTINUOUS
 62
         3
100
AcDbLine
 10
19.5192611
 20
34.2737449
 30
0.0
 11
15.8193099
 21
34.2737449
 31
0.0
  0
LINE
  5
65
100
AcDbEntity
  8
PV
  6
CONTINUOUS
 62
         3
100
AcDbLine
 10
19.5192611
 20
27.2737449
 30
0.0
 11
15.8193099
 21
27.2737449
 31
0.0
  0
LINE
  5
66
100
AcDbEntity
  8
PV
  6
CONTINUOUS
 62
         3
100
AcDbLine
 10
15.5191142
 20
27.7936436
 30
0.0
 11
15.8191628
 21
27.2739437
 31
0.0
  0
LINE
  5
67
100
AcDbEntity
  8
PV
  6
CONTINUOUS
 62
         3
100
AcDbLine
 10
15.8193099
 20
34.2737449
 30
0.0
 11
15.8193099
 21
27.2737449
 31
0.0
  0
LINE
  5
68
100
AcDbEntity
  8
PV
  6
CONTINUOUS
 62
         3
100
AcDbLine
 10
15.5192611
 20
33.7542136
 30
0.0
 11
15.5192611
 21
27.7932761
 31
0.0
  0
LINE
  5
69
100
AcDbEntity
  8
PV
  6
CONTINUOUS
 62
         3
100
AcDbLine
 10
15.5186559
 20
33.7545314
 30
0.0
 11
15.8186587
 21
34.274152
 31
0.0
  0
LINE
  5
6A
100
AcDbEntity
  8
PV
  6
CONTINUOUS
 62
         3
100
AcDbLine
 10
22.0192611
 20
33.7737449
 30
0.0
 11
25.0192611
 21
33.7737449
 31
0.0
  0
LINE
  5
6B
100
AcDbEntity
  8
PV
  6
CONTINUOUS
 62
         3
100
AcDbLine
 10
19.5192611
 20
35.0237449
 30
0.0
 11
22.0192611
 21
35.0237449
 31
0.0
  0
LINE
  5
6C
100
AcDbEntity
  8
PV
  6
CONTINUOUS
 62
         3
100
AcDbLine
 10
39.519261
 20
27.0550262
 30
0.0
 11
27.019262
 21
28.1486344
 31
0.0
  0
LINE
  5
6D
100
AcDbEntity
  8
PV
  6
CONTINUOUS
 62
         3
100
AcDbLine
 10
25.0192611
 20
28.1486304
 30
0.0
 11
27.0192611
 21
28.1486304
 31
0.0
  0
LINE
  5
6E
100
AcDbEntity
  8
PV
  6
CONTINUOUS
 62
         3
100
AcDbLine
 10
22.0192611
 20
35.0237449
 30
0.0
 11
22.0192611
 21
33.7737449
 31
0.0
  0
LINE
  5
6F
100
AcDbEntity
  8
PV
  6
CONTINUOUS
 62
         3
100
AcDbLine
 10
27.5192611
 20
33.7737449
 30
0.0
 11
39.5192611
 21
33.7737449
 31
0.0
  0
LINE
  5
70
100
AcDbEntity
  8
PV
  6
CONTINUOUS
 62
         3
100
AcDbLine
 10
39.5192611
 20
33.7737449
 30
0.0
 11
39.5192611
 21
19.7737449
 31
0.0
  0
LINE
  5
71
100
AcDbEntity
  8
PV
  6
CONTINUOUS
 62
         3
100
AcDbLine
 10
27.5192611
 20
33.7737449
 30
0.0
 11
27.5192611
 21
32.3948386
 31
0.0
  0
LINE
  5
72
100
AcDbEntity
  8
PV
  6
CENTER
 62
         3
100
AcDbLine
 10
14.6058509
 20
30.7737449
 30
0.0
 11
42.3790348
 21
30.7737449
 31
0.0
  0
LINE
  5
73
100
AcDbEntity
  8
PV
  6
CONTINUOUS
 62
         3
100
AcDbLine
 10
19.5192611
 20
26.7737449
 30
0.0
 11
37.0192611
 21
26.7737449
 31
0.0
  0
LINE
  5
74
100
AcDbEntity
  8
PV
  6
CONTINUOUS
 62
         3
100
AcDbLine
 10
37.0192611
 20
27.2737449
 30
0.0
 11
37.0192611
 21
19.7737449
 31
0.0
  0
LINE
  5
75
100
AcDbEntity
  8
PV
  6
CONTINUOUS
 62
         3
100
AcDbLine
 10
25.0192611
 20
28.1486304
 30
0.0
 11
25.0192611
 21
28.7737449
 31
0.0
  0
LINE
  5
76
100
AcDbEntity
  8
PV
  6
CONTINUOUS
 62
         3
100
AcDbLine
 10
19.5192611
 20
35.0237449
 30
0.0
 11
19.5192611
 21
19.7737449
 31
0.0
  0
LINE
  5
77
100
AcDbEntity
  8
PV
  6
CONTINUOUS
 62
         3
100
AcDbLine
 10
27.5192611
 20
5.77374488
 30
0.0
 11
39.5192611
 21
5.77374488
 31
0.0
  0
LINE
  5
78
100
AcDbEntity
  8
PV
  6
CONTINUOUS
 62
         3
100
AcDbLine
 10
27.5192611
 20
5.77374488
 30
0.0
 11
27.5192611
 21
11.4425986
 31
0.0
  0
LINE
  5
79
100
AcDbEntity
  8
PV
  6
CONTINUOUS
 62
         3
100
AcDbLine
 10
39.5192611
 20
5.77374488
 30
0.0
 11
39.5192611
 21
19.7737449
 31
0.0
  0
LINE
  5
7A
100
AcDbEntity
  8
PV
  6
CONTINUOUS
 62
         3
100
AcDbLine
 10
22.0192611
 20
4.52374488
 30
0.0
 11
22.0192611
 21
5.77374488
 31
0.0
  0
LINE
  5
7B
100
AcDbEntity
  8
PV
  6
CONTINUOUS
 62
         3
100
AcDbLine
 10
22.0192611
 20
5.77374488
 30
0.0
 11
25.0192611
 21
5.77374488
 31
0.0
  0
LINE
  5
7C
100
AcDbEntity
  8
PV
  6
CONTINUOUS
 62
         3
100
AcDbLine
 10
19.5192611
 20
4.52374488
 30
0.0
 11
22.0192611
 21
4.52374488
 31
0.0
  0
LINE
  5
7D
100
AcDbEntity
  8
PV
  6
CONTINUOUS
 62
         3
100
AcDbLine
 10
39.5192609
 20
12.492467
 30
0.0
 11
27.0192624
 21
11.3988589
 31
0.0
  0
LINE
  5
7E
100
AcDbEntity
  8
PV
  6
CONTINUOUS
 62
         3
100
AcDbLine
 10
25.0192611
 20
11.3988593
 30
0.0
 11
27.0192611
 21
11.3988593
 31
0.0
  0
LINE
  5
7F
100
AcDbEntity
  8
PV
  6
CONTINUOUS
 62
         3
100
AcDbLine
 10
19.5192611
 20
6.77374488
 30
0.0
 11
25.0192611
 21
6.77374488
 31
0.0
  0
LINE
  5
80
100
AcDbEntity
  8
PV
  6
CONTINUOUS
 62
         3
100
AcDbLine
 10
19.5192611
 20
10.7737449
 30
0.0
 11
25.0192611
 21
10.7737449
 31
0.0
  0
LINE
  5
81
100
AcDbEntity
  8
PV
  6
CONTINUOUS
 62
         3
100
AcDbLine
 10
19.5192611
 20
7.15374213
 30
0.0
 11
25.0192611
 21
7.15374213
 31
0.0
  0
LINE
  5
82
100
AcDbEntity
  8
PV
  6
CONTINUOUS
 62
         3
100
AcDbLine
 10
19.5192611
 20
10.3937476
 30
0.0
 11
25.0192611
 21
10.3937476
 31
0.0
  0
LINE
  5
83
100
AcDbEntity
  8
PV
  6
CENTER
 62
         3
100
AcDbLine
 10
18.2855461
 20
8.77374488
 30
0.0
 11
25.9099777
 21
8.77374488
 31
0.0
  0
LINE
  5
84
100
AcDbEntity
  8
PV
  6
CONTINUOUS
 62
         3
100
AcDbLine
 10
19.5192611
 20
12.7737449
 30
0.0
 11
37.0192611
 21
12.7737449
 31
0.0
  0
LINE
  5
85
100
AcDbEntity
  8
PV
  6
CONTINUOUS
 62
         3
100
AcDbLine
 10
37.0192611
 20
12.2737449
 30
0.0
 11
37.0192611
 21
19.7737449
 31
0.0
  0
LINE
  5
86
100
AcDbEntity
  8
PV
  6
CONTINUOUS
 62
         3
100
AcDbLine
 10
25.0192611
 20
11.3988593
 30
0.0
 11
25.0192611
 21
5.77374488
 31
0.0
  0
LINE
  5
87
100
AcDbEntity
  8
PV
  6
CONTINUOUS
 62
         3
100
AcDbLine
 10
19.5192611
 20
4.52374488
 30
0.0
 11
19.5192611
 21
19.7737449
 31
0.0
  0
LINE
  5
88
100
AcDbEntity
  8
PV
  6
CENTER
 62
         3
100
AcDbLine
 10
17.2165153
 20
19.7737449
 30
0.0
 11
42.6341493
 21
19.7737449
 31
0.0
  0
LINE
  5
89
100
AcDbEntity
  8
PV
  6
CONTINUOUS
 62
         3
100
AcDbLine
 10
25.0192611
 20
32.7737449
 30
0.0
 11
25.0192611
 21
33.7737449
 31
0.0
  0
LINE
  5
8A
100
AcDbEntity
  8
PV
  6
CONTINUOUS
 62
         3
100
AcDbLine
 10
-16.54459
 20
9.29225249
 30
0.0
 11
-17.5626623
 21
10.6935088
 31
0.0
  0
LINE
  5
8B
100
AcDbEntity
  8
PV
  6
CONTINUOUS
 62
         3
100
AcDbLine
 10
-14.8220251
 20
9.47330297
 30
0.0
 11
-16.5445885
 21
9.29225357
 31
0.0
  0
LINE
  5
8C
100
AcDbEntity
  8
PV
  6
CONTINUOUS
 62
         3
100
AcDbLine
 10
-16.8581695
 20
12.2758108
 30
0.0
 11
-17.5626576
 21
10.6935065
 31
0.0
  0
LINE
  5
8D
100
AcDbEntity
  8
PV
  6
CONTINUOUS
 62
         3
100
AcDbLine
 10
-16.8581751
 20
12.2758191
 30
0.0
 11
-15.1356116
 21
12.4568685
 31
0.0
  0
LINE
  5
8E
100
AcDbEntity
  8
PV
  6
CONTINUOUS
 62
         3
100
AcDbLine
 10
-14.117539
 20
11.0556082
 30
0.0
 11
-15.1356113
 21
12.4568645
 31
0.0
  0
LINE
  5
8F
100
AcDbEntity
  8
PV
  6
CONTINUOUS
 62
         3
100
AcDbLine
 10
-14.8220356
 20
9.47330168
 30
0.0
 11
-14.117546
 21
11.0556095
 31
0.0
  0
LINE
  5
90
100
AcDbEntity
  8
PV
  6
CONTINUOUS
 62
         3
100
AcDbLine
 10
-30.4939453
 20
11.0556054
 30
0.0
 11
-29.4758719
 21
12.4568633
 31
0.0
  0
LINE
  5
91
100
AcDbEntity
  8
PV
  6
CONTINUOUS
 62
         3
100
AcDbLine
 10
-29.789449
 20
9.47329792
 30
0.0
 11
-30.493937
 21
11.0556023
 31
0.0
  0
LINE
  5
92
100
AcDbEntity
  8
PV
  6
CONTINUOUS
 62
         3
100
AcDbLine
 10
-27.7533036
 20
12.2758102
 30
0.0
 11
-29.4758632
 21
12.4568592
 31
0.0
  0
LINE
  5
93
100
AcDbEntity
  8
PV
  6
CONTINUOUS
 62
         3
100
AcDbLine
 10
-27.7533011
 20
12.2758133
 30
0.0
 11
-27.0488131
 21
10.6935089
 31
0.0
  0
LINE
  5
94
100
AcDbEntity
  8
PV
  6
CONTINUOUS
 62
         3
100
AcDbLine
 10
-28.0668943
 20
9.29224968
 30
0.0
 11
-27.0488209
 21
10.6935075
 31
0.0
  0
LINE
  5
95
100
AcDbEntity
  8
PV
  6
CONTINUOUS
 62
         3
100
AcDbLine
 10
-29.7894482
 20
9.47330876
 30
0.0
 11
-28.0668886
 21
9.29225976
 31
0.0
  0
LINE
  5
96
100
AcDbEntity
  8
PV
  6
CONTINUOUS
 62
         3
100
AcDbLine
 10
-33.1274804
 20
24.8671367
 30
0.0
 11
-31.4802048
 21
24.3319044
 31
0.0
  0
LINE
  5
97
100
AcDbEntity
  8
PV
  6
CONTINUOUS
 62
         3
100
AcDbLine
 10
-34.414644
 20
23.7081647
 30
0.0
 11
-33.1274805
 21
24.8671328
 31
0.0
  0
LINE
  5
98
100
AcDbEntity
  8
PV
  6
CONTINUOUS
 62
         3
100
AcDbLine
 10
-31.1200897
 20
22.6377015
 30
0.0
 11
-31.4802021
 21
24.3319002
 31
0.0
  0
LINE
  5
99
100
AcDbEntity
  8
PV
  6
CONTINUOUS
 62
         3
100
AcDbLine
 10
-31.1200878
 20
22.6376991
 30
0.0
 11
-32.4072513
 21
21.478731
 31
0.0
  0
LINE
  5
9A
100
AcDbEntity
  8
PV
  6
CONTINUOUS
 62
         3
100
AcDbLine
 10
-34.0545314
 20
22.0139671
 30
0.0
 11
-32.4072558
 21
21.4787348
 31
0.0
  0
LINE
  5
9B
100
AcDbEntity
  8
PV
  6
CONTINUOUS
 62
         3
100
AcDbLine
 10
-34.4146339
 20
23.7081687
 30
0.0
 11
-34.05452
 21
22.0139625
 31
0.0
  0
LINE
  5
9C
100
AcDbEntity
  8
PV
  6
CONTINUOUS
 62
         3
100
AcDbLine
 10
-20.8057396
 20
31.6397727
 30
0.0
 11
-20.8057396
 21
29.9077247
 31
0.0
  0
LINE
  5
9D
100
AcDbEntity
  8
PV
  6
CONTINUOUS
 62
         3
100
AcDbLine
 10
-22.3057442
 20
32.505799
 30
0.0
 11
-20.8057462
 21
31.6397756
 31
0.0
  0
LINE
  5
9E
100
AcDbEntity
  8
PV
  6
CONTINUOUS
 62
         3
100
AcDbLine
 10
-22.3057452
 20
29.0417038
 30
0.0
 11
-20.8057456
 21
29.9077282
 31
0.0
  0
LINE
  5
9F
100
AcDbEntity
  8
PV
  6
CONTINUOUS
 62
         3
100
AcDbLine
 10
-22.3057452
 20
29.0416987
 30
0.0
 11
-23.8057432
 21
29.9077221
 31
0.0
  0
LINE
  5
A0
100
AcDbEntity
  8
PV
  6
CONTINUOUS
 62
         3
100
AcDbLine
 10
-23.8057396
 20
31.6397727
 30
0.0
 11
-23.8057396
 21
29.9077247
 31
0.0
  0
LINE
  5
A1
100
AcDbEntity
  8
PV
  6
CONTINUOUS
 62
         3
100
AcDbLine
 10
-22.3057374
 20
32.5057916
 30
0.0
 11
-23.805737
 21
31.6397672
 31
0.0
  0
LINE
  5
A2
100
AcDbEntity
  8
PV
  6
CONTINUOUS
 62
         3
100
AcDbLine
 10
-10.5569524
 20
22.0139664
 30
0.0
 11
-12.2042299
 21
21.4787335
 31
0.0
  0
LINE
  5
A3
100
AcDbEntity
  8
PV
  6
CONTINUOUS
 62
         3
100
AcDbLine
 10
-13.4913931
 20
22.6377068
 30
0.0
 11
-12.204231
 21
21.4787399
 31
0.0
  0
LINE
  5
A4
100
AcDbEntity
  8
PV
  6
CONTINUOUS
 62
         3
100
AcDbLine
 10
-13.4913955
 20
22.6376995
 30
0.0
 11
-13.1312831
 21
24.3318983
 31
0.0
  0
LINE
  5
A5
100
AcDbEntity
  8
PV
  6
CONTINUOUS
 62
         3
100
AcDbLine
 10
-11.4840034
 20
24.867136
 30
0.0
 11
-13.1312809
 21
24.3319031
 31
0.0
  0
LINE
  5
A6
100
AcDbEntity
  8
PV
  6
CONTINUOUS
 62
         3
100
AcDbLine
 10
-10.1968459
 20
23.7081652
 30
0.0
 11
-11.484008
 21
24.8671321
 31
0.0
  0
LINE
  5
A7
100
AcDbEntity
  8
PV
  6
CONTINUOUS
 62
         3
100
AcDbLine
 10
-10.1968401
 20
23.7081644
 30
0.0
 11
-10.5569524
 21
22.0139656
 31
0.0
  0
LINE
  5
A8
100
AcDbEntity
  8
PV
  6
CENTER
 62
         3
100
AcDbLine
 10
-18.77903
 20
14.919646
 30
0.0
 11
-12.9011776
 21
6.82947594
 31
0.0
  0
LINE
  5
A9
100
AcDbEntity
  8
PV
  6
CENTER
 62
         3
100
AcDbLine
 10
-25.8324491
 20
14.9196393
 30
0.0
 11
-31.7103004
 21
6.82947083
 31
0.0
  0
LINE
  5
AA
100
AcDbEntity
  8
PV
  6
CENTER
 62
         3
100
AcDbLine
 10
-28.0120818
 20
21.6278496
 30
0.0
 11
-37.7133635
 21
24.7799871
 31
0.0
  0
LINE
  5
AB
100
AcDbEntity
  8
PV
  6
CENTER
 62
         3
100
AcDbLine
 10
-25.8324528
 20
24.6278501
 30
0.0
 11
-31.7103053
 21
32.7180201
 31
0.0
  0
LINE
  5
AC
100
AcDbEntity
  8
PV
  6
CENTER
 62
         3
100
AcDbLine
 10
-18.7790261
 20
24.6278433
 30
0.0
 11
-12.9011737
 21
32.7180134
 31
0.0
  0
LINE
  5
AD
100
AcDbEntity
  8
PV
  6
CONTINUOUS
 62
         3
100
AcDbLine
 10
-29.1240416
 20
18.1892227
 30
0.0
 11
-36.9835365
 21
15.6355182
 31
0.0
  0
LINE
  5
AE
100
AcDbEntity
  8
PV
  6
CONTINUOUS
 62
         3
100
AcDbLine
 10
-28.7532258
 20
17.0479565
 30
0.0
 11
-36.6127171
 21
14.4942533
 31
0.0
  0
LINE
  5
AF
100
AcDbEntity
  8
PV
  6
CENTER
 62
         3
100
AcDbLine
 10
-16.5994021
 20
21.6278488
 30
0.0
 11
-7.08883667
 21
24.7180189
 31
0.0
  0
LINE
  5
B0
100
AcDbEntity
  8
PV
  6
CENTER
 62
         3
100
AcDbLine
 10
-22.3057396
 20
37.0237449
 30
0.0
 11
-22.3057396
 21
2.37374335
 31
0.0
  0
LINE
  5
B1
100
AcDbEntity
  8
PV
  6
CENTER
 62
         3
100
AcDbLine
 10
-39.5117409
 20
19.7737449
 30
0.0
 11
-4.65066076
 21
19.7737449
 31
0.0
  0
DIMENSION
  5
C1
100
AcDbEntity
  8
PV
  6
CONTINUOUS
 62
       110
100
AcDbDimension
  2
*D3
 10
39.5192611
 20
38.0636609
 30
0.0
 11
33.2359277985
 21
38.0636609
 31
0.0
 70
       128
  1
\A1;<>
  3
MXDIMSTYLE
100
AcDbAlignedDimension
 13
27.5192611
 23
33.7737448615
 33
0.0
 14
39.5192611
 24
33.7737448615
 34
0.0
100
AcDbRotatedDimension
1001
ACAD
1000
DSTYLE
1002
{
1070
         6
1000
SOLID
1070
         7
1000
SOLID
1070
        41
1040
1.0000000298
1070
        42
1040
0.0625
1070
        44
1040
2.0
1070
       271
1070
         4
1070
       284
1070
         8
1070
       340
1005
BB
1070
       343
1005
0
1070
       344
1005
0
1002
}
  0
DIMENSION
  5
D1
100
AcDbEntity
  8
PV
  6
CONTINUOUS
 62
       110
100
AcDbDimension
  2
*D4
 10
39.5192611
 20
43.2683042
 30
0.0
 11
30.4859282753
 21
43.2683042
 31
0.0
 70
       128
  1
\A1;<>
  3
MXDIMSTYLE
100
AcDbAlignedDimension
 13
22.0192611
 23
35.023744912
 33
0.0
 14
39.5192611
 24
33.773744912
 34
0.0
100
AcDbRotatedDimension
1001
ACAD
1000
DSTYLE
1002
{
1070
         6
1000
SOLID
1070
         7
1000
SOLID
1070
        41
1040
1.0000000298
1070
        42
1040
0.0625
1070
        44
1040
2.0
1070
       271
1070
         4
1070
       284
1070
         8
1070
       340
1005
CB
1070
       343
1005
0
1070
       344
1005
0
1002
}
  0
DIMENSION
  5
E0
100
AcDbEntity
  8
PV
  6
CONTINUOUS
 62
       110
100
AcDbDimension
  2
*D5
 10
22.0192611
 20
43.2683042
 30
0.0
 11
7.8508126518
 21
43.2683042
 31
0.0
 70
       128
  1
\A1;<>
  3
MXDIMSTYLE
100
AcDbAlignedDimension
 13
19.5192611
 23
35.023744912
 33
0.0
 14
22.0192611
 24
35.023744912
 34
0.0
100
AcDbRotatedDimension
1001
ACAD
1000
DSTYLE
1002
{
1070
         6
1000
SOLID
1070
         7
1000
SOLID
1070
        41
1040
1.0000000298
1070
        42
1040
0.0625
1070
        44
1040
2.0
1070
       271
1070
         4
1070
       284
1070
         8
1070
       340
1005
DA
1070
       343
1005
0
1070
       344
1005
0
1002
}
  0
DIMENSION
  5
F0
100
AcDbEntity
  8
PV
  6
CONTINUOUS
 62
       110
100
AcDbDimension
  2
*D6
 10
39.5192611
 20
49.6154302
 30
0.0
 11
29.2359282753
 21
49.6154302
 31
0.0
 70
       128
  1
\A1;<>
  3
MXDIMSTYLE
100
AcDbAlignedDimension
 13
19.5192611
 23
35.0237449049
 33
0.0
 14
39.5192611
 24
33.7737449049
 34
0.0
100
AcDbRotatedDimension
1001
ACAD
1000
DSTYLE
1002
{
1070
         6
1000
SOLID
1070
         7
1000
SOLID
1070
        41
1040
1.0000000298
1070
        42
1040
0.0625
1070
        44
1040
2.0
1070
       271
1070
         4
1070
       284
1070
         8
1070
       340
1005
EA
1070
       343
1005
0
1070
       344
1005
0
1002
}
  0
DIMENSION
  5
FF
100
AcDbEntity
  8
PV
  6
CONTINUOUS
 62
       110
100
AcDbDimension
  2
*D7
 10
39.5192611
 20
55.5817287
 30
0.0
 11
27.2359282753
 21
55.5817287
 31
0.0
 70
       128
  1
\A1;<>
  3
MXDIMSTYLE
100
AcDbAlignedDimension
 13
15.5192611
 23
33.7542140516
 33
0.0
 14
39.5192611
 24
33.7737453016
 34
0.0
100
AcDbRotatedDimension
1001
ACAD
1000
DSTYLE
1002
{
1070
         6
1000
SOLID
1070
         7
1000
SOLID
1070
        41
1040
1.0000000298
1070
        42
1040
0.0625
1070
        44
1040
2.0
1070
       271
1070
         4
1070
       284
1070
         8
1070
       343
1005
0
1070
       344
1005
0
1002
}
  0
DIMENSION
  5
10F
100
AcDbEntity
  8
PV
  6
CONTINUOUS
 62
       110
100
AcDbDimension
  2
*D8
 10
12.0201216
 20
26.7737449
 30
0.0
 11
12.0201216
 21
19.4904111216
 31
0.0
 70
       128
  1
\A1;\U+2205<>
  3
MXDIMSTYLE
100
AcDbAlignedDimension
 13
19.5192609089
 23
12.7737449
 33
0.0
 14
19.5192609089
 24
26.7737449
 34
0.0
 50
90.0
100
AcDbRotatedDimension
1001
ACAD
1000
DSTYLE
1002
{
1070
         6
1000
SOLID
1070
         7
1000
SOLID
1070
        41
1040
1.0000000298
1070
        42
1040
0.0625
1070
        44
1040
2.0
1070
       271
1070
         4
1070
       284
1070
         8
1070
       340
1005
109
1070
       343
1005
0
1070
       344
1005
0
1002
}
  0
DIMENSION
  5
11E
100
AcDbEntity
  8
PV
  6
CONTINUOUS
 62
       110
100
AcDbDimension
  2
*D9
 10
6.8154783
 20
30.7737449
 30
0.0
 11
6.8154783
 21
19.4904120553
 31
0.0
 70
       128
  1
\A1;\U+2205<>
  3
MXDIMSTYLE
100
AcDbAlignedDimension
 13
18.2855462779
 23
8.77374488
 33
0.0
 14
14.6058511485
 24
30.7737449
 34
0.0
 50
90.0
100
AcDbRotatedDimension
1001
ACAD
1000
DSTYLE
1002
{
1070
         6
1000
SOLID
1070
         7
1000
SOLID
1070
        41
1040
1.0000000298
1070
        42
1040
0.0625
1070
        44
1040
2.0
1070
       271
1070
         4
1070
       284
1070
         8
1070
       343
1005
0
1070
       344
1005
0
1002
}
  0
DIMENSION
  5
12E
100
AcDbEntity
  8
PV
  6
CONTINUOUS
 62
       110
100
AcDbDimension
  2
*D10
 10
1.99166255
 20
35.0237449
 30
0.0
 11
1.99166255
 21
19.4904120553
 31
0.0
 70
       128
  1
\A1;\U+2205<>
  3
MXDIMSTYLE
100
AcDbAlignedDimension
 13
19.5192618847
 23
4.52374488
 33
0.0
 14
19.5192618847
 24
35.0237449
 34
0.0
 50
90.0
100
AcDbRotatedDimension
1001
ACAD
1000
DSTYLE
1002
{
1070
         6
1000
SOLID
1070
         7
1000
SOLID
1070
        41
1040
1.0000000298
1070
        42
1040
0.0625
1070
        44
1040
2.0
1070
       271
1070
         4
1070
       284
1070
         8
1070
       340
1005
128
1070
       343
1005
0
1070
       344
1005
0
1002
}
  0
MTEXT
  5
12F
100
AcDbEntity
  8
PV
  6
CONTINUOUS
 62
       110
100
AcDbMText
 10
-76.327201662
 20
-105.5323010882
 30
0.0
 40
3.2000000477
 41
0.0
 71
         1
 72
         1
  1
\A1;MASS
  0
MTEXT
  5
130
100
AcDbEntity
  8
PV
  6
CONTINUOUS
 62
       110
100
AcDbMText
 10
110.8581692989
 20
-99.4000000882
 30
0.0
 40
3.2000000477
 41
0.0
 71
         1
 72
         1
  1
\W1.500;\A1;\}
  0
MTEXT
  5
131
100
AcDbEntity
  8
PV
  6
CONTINUOUS
 62
       110
100
AcDbMText
 10
109.7915010206
 20
-99.0000000024
 30
0.0
 40
1.6000000238
 41
0.0
 71
         1
 72
         1
  1
\A1;2
  0
MTEXT
  5
132
100
AcDbEntity
  8
PV
  6
CONTINUOUS
 62
       110
100
AcDbMText
 10
90.751503138
 20
-99.4000000882
 30
0.0
 40
3.2000000477
 41
0.0
 71
         1
 72
         1
  1
\A1;kgf/mm
  0
MTEXT
  5
133
100
AcDbEntity
  8
PV
  6
CONTINUOUS
 62
       110
100
AcDbMText
 10
110.8581692989
 20
-93.4000000882
 30
0.0
 40
3.2000000477
 41
0.0
 71
         1
 72
         1
  1
\W1.500;\A1;\}
  0
MTEXT
  5
134
100
AcDbEntity
  8
PV
  6
CONTINUOUS
 62
       110
100
AcDbMText
 10
109.7915010206
 20
-93.0000002024
 30
0.0
 40
1.6000000238
 41
0.0
 71
         1
 72
         1
  1
\A1;2
  0
MTEXT
  5
135
100
AcDbEntity
  8
PV
  6
CONTINUOUS
 62
       110
100
AcDbMText
 10
90.751503138
 20
-93.4000000882
 30
0.0
 40
3.2000000477
 41
0.0
 71
         1
 72
         1
  1
\A1;kgf/mm
  0
MTEXT
  5
136
100
AcDbEntity
  8
PV
  6
CONTINUOUS
 62
       110
100
AcDbMText
 10
90.7999879841
 20
-87.4000000882
 30
0.0
 40
3.2000000477
 41
0.0
 71
         1
 72
         1
  1
\W1.091;\A1;kgf\}
  0
MTEXT
  5
137
100
AcDbEntity
  8
PV
  6
CONTINUOUS
 62
       110
100
AcDbMText
 10
91.284835815
 20
-75.3999998498
 30
0.0
 40
3.2000000477
 41
0.0
 71
         1
 72
         1
  1
\W0.833;\A1;ｋｇｆ・ｍ｝
  0
MTEXT
  5
138
100
AcDbEntity
  8
PV
  6
CONTINUOUS
 62
       110
100
AcDbMText
 10
91.284835815
 20
-81.3999998498
 30
0.0
 40
3.2000000477
 41
0.0
 71
         1
 72
         1
  1
\W0.833;\A1;ｋｇｆ・ｍ｝
  0
MTEXT
  5
139
100
AcDbEntity
  8
PV
  6
CONTINUOUS
 62
       110
100
AcDbMText
 10
55.751499338
 20
-105.4000000882
 30
0.0
 40
3.2000000477
 41
0.0
 71
         1
 72
         1
  1
\A1;kg
  0
MTEXT
  5
13A
100
AcDbEntity
  8
PV
  6
CONTINUOUS
 62
       110
100
AcDbMText
 10
55.751499338
 20
-99.4000000882
 30
0.0
 40
3.2000000477
 41
0.0
 71
         1
 72
         1
  1
\A1;MPa
  0
MTEXT
  5
13B
100
AcDbEntity
  8
PV
  6
CONTINUOUS
 62
       110
100
AcDbMText
 10
55.751499338
 20
-93.4000000882
 30
0.0
 40
3.2000000477
 41
0.0
 71
         1
 72
         1
  1
\A1;MPa
  0
MTEXT
  5
13C
100
AcDbEntity
  8
PV
  6
CONTINUOUS
 62
       110
100
AcDbMText
 10
55.751499338
 20
-87.4000000882
 30
0.0
 40
3.2000000477
 41
0.0
 71
         1
 72
         1
  1
\A1;kN
  0
MTEXT
  5
13D
100
AcDbEntity
  8
PV
  6
CONTINUOUS
 62
       110
100
AcDbMText
 10
56.284832015
 20
-81.3999998498
 30
0.0
 40
3.2000000477
 41
0.0
 71
         1
 72
         1
  1
\W0.833;\A1;Ｎ・ｍ
  0
MTEXT
  5
13E
100
AcDbEntity
  8
PV
  6
CONTINUOUS
 62
       110
100
AcDbMText
 10
56.284832015
 20
-75.3999998498
 30
0.0
 40
3.2000000477
 41
0.0
 71
         1
 72
         1
  1
\W0.833;\A1;Ｎ・ｍ
  0
MTEXT
  5
13F
100
AcDbEntity
  8
PV
  6
CONTINUOUS
 62
       110
100
AcDbMText
 10
40.6892509255
 20
-105.4000000882
 30
0.0
 40
3.2000000477
 41
0.0
 71
         1
 72
         1
  1
\W1.333;\A1;0.06
  0
MTEXT
  5
140
100
AcDbEntity
  8
PV
  6
CONTINUOUS
 62
       110
100
AcDbMText
 10
46.911472738
 20
-99.4000000882
 30
0.0
 40
3.2000000477
 41
0.0
 71
         1
 72
         1
  1
\A1;92
  0
MTEXT
  5
141
100
AcDbEntity
  8
PV
  6
CONTINUOUS
 62
       110
100
AcDbMText
 10
43.7781396012
 20
-93.4000000882
 30
0.0
 40
3.2000000477
 41
0.0
 71
         1
 72
         1
  1
\W1.125;\A1;184
  0
MTEXT
  5
142
100
AcDbEntity
  8
PV
  6
CONTINUOUS
 62
       110
100
AcDbMText
 10
40.6518240194
 20
-87.4000000882
 30
0.0
 40
3.2000000477
 41
0.0
 71
         1
 72
         1
  1
\W1.263;\A1;9.90
  0
MTEXT
  5
143
100
AcDbEntity
  8
PV
  6
CONTINUOUS
 62
       110
100
AcDbMText
 10
40.6181398044
 20
-81.4000000882
 30
0.0
 40
3.2000000477
 41
0.0
 71
         1
 72
         1
  1
\W1.200;\A1;73.5
  0
MTEXT
  5
144
100
AcDbEntity
  8
PV
  6
CONTINUOUS
 62
       110
100
AcDbMText
 10
43.8638538897
 20
-75.4000000882
 30
0.0
 40
3.2000000477
 41
0.0
 71
         1
 72
         1
  1
\W1.286;\A1;4.8
  0
MTEXT
  5
145
100
AcDbEntity
  8
PV
  6
CONTINUOUS
 62
       110
100
AcDbMText
 10
58.7119072418
 20
-63.4000000882
 30
0.0
 40
3.2000000477
 41
0.0
 71
         1
 72
         1
  1
\W1.065;\A1;PL014X028KE
  0
MTEXT
  5
146
100
AcDbEntity
  8
PV
  6
CONTINUOUS
 62
       110
100
AcDbMText
 10
-77.2843072285
 20
-63.5323393498
 30
0.0
 40
3.2000000477
 41
0.0
 71
         1
 72
         1
  1
\T1.017;\W1.071;\A1;MODEL NUMBER
  0
MTEXT
  5
147
100
AcDbEntity
  8
PV
  6
CONTINUOUS
 62
       110
100
AcDbMText
 10
65.1041649034
 20
-69.4000000882
 30
0.0
 40
3.2000000477
 41
0.0
 71
         1
 72
         1
  1
\W1.050;\A1;5-M4X14
  0
MTEXT
  5
148
100
AcDbEntity
  8
PV
  6
CONTINUOUS
 62
       110
100
AcDbMText
 10
71.5137925933
 20
-75.4000000882
 30
0.0
 40
3.2000000477
 41
0.0
 71
         1
 72
         1
  1
\W1.304;\A1;\{0.49
  0
MTEXT
  5
149
100
AcDbEntity
  8
PV
  6
CONTINUOUS
 62
       110
100
AcDbMText
 10
74.7292513255
 20
-81.4000000882
 30
0.0
 40
3.2000000477
 41
0.0
 71
         1
 72
         1
  1
\W1.333;\A1;\{7.5
  0
MTEXT
  5
14A
100
AcDbEntity
  8
PV
  6
CONTINUOUS
 62
       110
100
AcDbMText
 10
71.545413145
 20
-87.4000000882
 30
0.0
 40
3.2000000477
 41
0.0
 71
         1
 72
         1
  1
\W1.364;\A1;\{1010
  0
MTEXT
  5
14B
100
AcDbEntity
  8
PV
  6
CONTINUOUS
 62
       110
100
AcDbMText
 10
71.5454131391
 20
-93.4000000882
 30
0.0
 40
3.2000000477
 41
0.0
 71
         1
 72
         1
  1
\W1.364;\A1;\{18.8
  0
MTEXT
  5
14C
100
AcDbEntity
  8
PV
  6
CONTINUOUS
 62
       110
100
AcDbMText
 10
74.7292513255
 20
-99.4000000882
 30
0.0
 40
3.2000000477
 41
0.0
 71
         1
 72
         1
  1
\W1.333;\A1;\{9.4
  0
MTEXT
  5
14D
100
AcDbEntity
  8
PV
  6
CONTINUOUS
 62
       110
100
AcDbMText
 10
-77.2519617519
 20
-99.5323388498
 30
0.0
 40
3.2000000477
 41
0.0
 71
         1
 72
         1
  1
\T1.030;\W1.126;\A1;CONTACT PRESSURE OF HUB BORE
  0
MTEXT
  5
14E
100
AcDbEntity
  8
PV
  6
CONTINUOUS
 62
       110
100
AcDbMText
 10
-77.264878334
 20
-93.5323393498
 30
0.0
 40
3.2000000477
 41
0.0
 71
         1
 72
         1
  1
\T1.025;\W1.104;\A1;CONTACT PRESSURE OF SHAFT
  0
MTEXT
  5
14F
100
AcDbEntity
  8
PV
  6
CONTINUOUS
 62
       110
100
AcDbMText
 10
-77.2608119529
 20
-87.5323393498
 30
0.0
 40
3.2000000477
 41
0.0
 71
         1
 72
         1
  1
\T1.028;\W1.060;\A1;TRANSMISSIBLE THRUST
  0
MTEXT
  5
150
100
AcDbEntity
  8
PV
  6
CONTINUOUS
 62
       110
100
AcDbMText
 10
-77.2608119529
 20
-81.5323393498
 30
0.0
 40
3.2000000477
 41
0.0
 71
         1
 72
         1
  1
\T1.028;\W1.060;\A1;TRANSMISSIBLE TORQUE
  0
MTEXT
  5
151
100
AcDbEntity
  8
PV
  6
CONTINUOUS
 62
       110
100
AcDbMText
 10
-77.2086663764
 20
-69.5323393498
 30
0.0
 40
3.2000000477
 41
0.0
 71
         1
 72
         1
  1
\T1.047;\W1.149;\A1;QUANTITY AND SIZE OF LOCKING BOLTS
  0
MTEXT
  5
152
100
AcDbEntity
  8
PV
  6
CONTINUOUS
 62
       110
100
AcDbMText
 10
-77.2272132173
 20
-75.5323393498
 30
0.0
 40
3.2000000477
 41
0.0
 71
         1
 72
         1
  1
\T1.041;\W1.120;\A1;TIGHTENING TORQUE OF LOCKING BOLTS
  0
MTEXT
  5
153
100
AcDbEntity
  8
PV
  6
CONTINUOUS
 62
       110
100
AcDbMText
 10
-33.2930294088
 20
-57.6473295498
 30
0.0
 40
3.2000000477
 41
0.0
 71
         1
 72
         1
  1
\T1.003;\W1.067;\A1;POWER LOCK
  0
LINE
  5
154
100
AcDbEntity
  8
PV
  6
CONTINUOUS
 62
         3
100
AcDbLine
 10
118.853996
 20
-50.0
 30
0.0
 11
118.853996
 21
-110.0
 31
0.0
  0
LINE
  5
155
100
AcDbEntity
  8
PV
  6
CONTINUOUS
 62
         3
100
AcDbLine
 10
-81.7114716
 20
-50.0
 30
0.0
 11
118.853996
 21
-50.0
 31
0.0
  0
LINE
  5
156
100
AcDbEntity
  8
PV
  6
CONTINUOUS
 62
         3
100
AcDbLine
 10
-81.7114716
 20
-50.0
 30
0.0
 11
-81.7114716
 21
-110.0
 31
0.0
  0
LINE
  5
157
100
AcDbEntity
  8
PV
  6
CONTINUOUS
 62
         3
100
AcDbLine
 10
33.0612793
 20
-62.0
 30
0.0
 11
33.0612793
 21
-110.0
 31
0.0
  0
LINE
  5
158
100
AcDbEntity
  8
PV
  6
CONTINUOUS
 62
         3
100
AcDbLine
 10
-81.7114716
 20
-110.0
 30
0.0
 11
118.853996
 21
-110.0
 31
0.0
  0
LINE
  5
159
100
AcDbEntity
  8
PV
  6
CONTINUOUS
 62
         3
100
AcDbLine
 10
-81.7114716
 20
-104.0
 30
0.0
 11
118.853996
 21
-104.0
 31
0.0
  0
LINE
  5
15A
100
AcDbEntity
  8
PV
  6
CONTINUOUS
 62
         3
100
AcDbLine
 10
-81.7114716
 20
-98.0
 30
0.0
 11
118.853996
 21
-98.0
 31
0.0
  0
LINE
  5
15B
100
AcDbEntity
  8
PV
  6
CONTINUOUS
 62
         3
100
AcDbLine
 10
-81.7114716
 20
-92.0
 30
0.0
 11
118.853996
 21
-92.0
 31
0.0
  0
LINE
  5
15C
100
AcDbEntity
  8
PV
  6
CONTINUOUS
 62
         3
100
AcDbLine
 10
-81.7114716
 20
-86.0
 30
0.0
 11
118.853996
 21
-86.0
 31
0.0
  0
LINE
  5
15D
100
AcDbEntity
  8
PV
  6
CONTINUOUS
 62
         3
100
AcDbLine
 10
-81.7114716
 20
-80.0
 30
0.0
 11
118.853996
 21
-80.0
 31
0.0
  0
LINE
  5
15E
100
AcDbEntity
  8
PV
  6
CONTINUOUS
 62
         3
100
AcDbLine
 10
-81.7114716
 20
-74.0
 30
0.0
 11
118.853996
 21
-74.0
 31
0.0
  0
LINE
  5
15F
100
AcDbEntity
  8
PV
  6
CONTINUOUS
 62
         3
100
AcDbLine
 10
-81.7114716
 20
-68.0
 30
0.0
 11
118.853996
 21
-68.0
 31
0.0
  0
LINE
  5
160
100
AcDbEntity
  8
PV
  6
CONTINUOUS
 62
         3
100
AcDbLine
 10
-81.7114716
 20
-62.0
 30
0.0
 11
118.853996
 21
-62.0
 31
0.0
  0
LINE
  5
161
100
AcDbEntity
  8
PV
  6
CONTINUOUS
 62
         3
100
AcDbLine
 10
-81.7114716
 20
-56.0
 30
0.0
 11
118.853996
 21
-56.0
 31
0.0
  0
LWPOLYLINE
  5
162
100
AcDbEntity
  8
PV
  6
CONTINUOUS
 62
         7
100
AcDbPolyline
 90
        3
 70
         0
 10
-28.7713769
 20
30.6729301
 10
-33.7761521
 20
46.236209
 10
-40.7165248
 20
46.236209
  0
MTEXT
  5
163
100
AcDbEntity
  8
PV
  6
CONTINUOUS
 62
       110
100
AcDbMText
 10
-40.4165248998
 20
51.2362092502
 30
0.0
 40
3.2000000477
 41
0.0
 71
         1
 72
         1
  1
\W0.937;\A1;M4
  0
ENDSEC
  0
SECTION
  2
OBJECTS
  0
DICTIONARY
  5
19
100
AcDbDictionary
  3
ACAD_GROUP
350
1A
  3
ACAD_MLINESTYLE
350
1B
  0
DICTIONARY
  5
1A
102
{ACAD_REACTORS
330
19
102
}
100
AcDbDictionary
  0
DICTIONARY
  5
1B
102
{ACAD_REACTORS
330
19
102
}
100
AcDbDictionary
  3
STANDARD
350
1C
  0
MLINESTYLE
  5
1C
102
{ACAD_REACTORS
330
1B
102
}
100
AcDbMlineStyle
  2
Standard
 70
         0
  3

 62
         0
 51
90.0
 52
90.0
 71
         2
 49
0.5
 62
       256
  6
ByLayer
 49
-0.5
 62
       256
  6
ByLayer
  0
ENDSEC
  0
EOF
