  0
SECTION
  2
HEADER
  9
$ACADVER
  1
AC1015
  9
$ACADMAINTVER
 70
     6
  9
$DWGCODEPAGE
  3
ANSI_932
  9
$INSBASE
 10
0.0
 20
0.0
 30
0.0
  9
$EXTMIN
 10
-22.975677
 20
-17.400002
 30
0.0
  9
$EXTMAX
 10
77.325001
 20
69.21781
 30
0.0
  9
$LIMMIN
 10
-22.975677
 20
-17.400002
  9
$LIMMAX
 10
77.325001
 20
69.21781
  9
$ORTHOMODE
 70
     0
  9
$REGENMODE
 70
     1
  9
$FILLMODE
 70
     1
  9
$QTEXTMODE
 70
     0
  9
$MIRRTEXT
 70
     1
  9
$LTSCALE
 40
1.0
  9
$ATTMODE
 70
     1
  9
$TEXTSIZE
 40
3.15
  9
$TRACEWID
 40
0.05
  9
$TEXTSTYLE
  7
MX_NOTE_STANDARD
  9
$CLAYER
  8
LY_1
  9
$CELTYPE
  6
CONTINUOUS
  9
$CECOLOR
 62
   256
  9
$CELTSCALE
 40
1.0
  9
$DISPSILH
 70
     0
  9
$DIMSCALE
 40
1.0
  9
$DIMASZ
 40
2.5
  9
$DIMEXO
 40
1.0
  9
$DIMDLI
 40
3.75
  9
$DIMRND
 40
0.0
  9
$DIMDLE
 40
0.0
  9
$DIMEXE
 40
2.0
  9
$DIMTP
 40
0.0
  9
$DIMTM
 40
0.0
  9
$DIMTXT
 40
3.15
  9
$DIMCEN
 40
2.5
  9
$DIMTSZ
 40
0.0
  9
$DIMTOL
 70
     0
  9
$DIMLIM
 70
     0
  9
$DIMTIH
 70
     0
  9
$DIMTOH
 70
     0
  9
$DIMSE1
 70
     0
  9
$DIMSE2
 70
     0
  9
$DIMTAD
 70
     1
  9
$DIMZIN
 70
     8
  9
$DIMBLK
  1

  9
$DIMASO
 70
     1
  9
$DIMSHO
 70
     1
  9
$DIMPOST
  1

  9
$DIMAPOST
  1

  9
$DIMALT
 70
     0
  9
$DIMALTD
 70
     4
  9
$DIMALTF
 40
0.03937
  9
$DIMLFAC
 40
1.0
  9
$DIMTOFL
 70
     1
  9
$DIMTVP
 40
0.0
  9
$DIMTIX
 70
     0
  9
$DIMSOXD
 70
     0
  9
$DIMSAH
 70
     1
  9
$DIMBLK1
  1
_OPEN30
  9
$DIMBLK2
  1
_OPEN30
  9
$DIMSTYLE
  2
MXDIMSTYLE
  9
$DIMCLRD
 70
     0
  9
$DIMCLRE
 70
     0
  9
$DIMCLRT
 70
     0
  9
$DIMTFAC
 40
1.0
  9
$DIMGAP
 40
1.0
  9
$DIMJUST
 70
     0
  9
$DIMSD1
 70
     0
  9
$DIMSD2
 70
     0
  9
$DIMTOLJ
 70
     0
  9
$DIMTZIN
 70
     0
  9
$DIMALTZ
 70
     0
  9
$DIMALTTZ
 70
     0
  9
$DIMUPT
 70
     0
  9
$DIMDEC
 70
     2
  9
$DIMTDEC
 70
     2
  9
$DIMALTU
 70
     2
  9
$DIMALTTD
 70
     4
  9
$DIMTXSTY
  7
MX_NOTE_STANDARD
  9
$DIMAUNIT
 70
     0
  9
$DIMADEC
 70
     0
  9
$DIMALTRND
 40
0.0
  9
$DIMAZIN
 70
     0
  9
$DIMDSEP
 70
    46
  9
$DIMATFIT
 70
     3
  9
$DIMFRAC
 70
     0
  9
$DIMLDRBLK
  1
_OPEN30
  9
$DIMLUNIT
 70
     2
  9
$DIMLWD
 70
    -2
  9
$DIMLWE
 70
    -2
  9
$DIMTMOVE
 70
     0
  9
$LUNITS
 70
     2
  9
$LUPREC
 70
     4
  9
$SKETCHINC
 40
0.1
  9
$FILLETRAD
 40
0.0
  9
$AUNITS
 70
     0
  9
$AUPREC
 70
     0
  9
$MENU
  1
acad
  9
$ELEVATION
 40
0.0
  9
$PELEVATION
 40
0.0
  9
$THICKNESS
 40
0.0
  9
$LIMCHECK
 70
     0
  9
$CHAMFERA
 40
0.0
  9
$CHAMFERB
 40
0.0
  9
$CHAMFERC
 40
0.0
  9
$CHAMFERD
 40
0.0
  9
$SKPOLY
 70
     0
  9
$TDCREATE
 40
2457367.482581019
  9
$TDUCREATE
 40
0.000000000
  9
$TDUPDATE
 40
2457367.482581019
  9
$TDUUPDATE
 40
0.000000000
  9
$TDINDWG
 40
0.0000000000
  9
$TDUSRTIMER
 40
0.0000000000
  9
$USRTIMER
 70
     1
  9
$ANGBASE
 50
0.0
  9
$ANGDIR
 70
     0
  9
$PDMODE
 70
     0
  9
$PDSIZE
 40
0.0
  9
$PLINEWID
 40
0.0
  9
$SPLFRAME
 70
     0
  9
$SPLINETYPE
 70
     6
  9
$SPLINESEGS
 70
     8
  9
$HANDSEED
  5
126
  9
$SURFTAB1
 70
     6
  9
$SURFTAB2
 70
     6
  9
$SURFTYPE
 70
     6
  9
$SURFU
 70
     6
  9
$SURFV
 70
     6
  9
$UCSBASE
  2

  9
$UCSNAME
  2

  9
$UCSORG
 10
0.0
 20
0.0
 30
0.0
  9
$UCSXDIR
 10
1.0
 20
0.0
 30
0.0
  9
$UCSYDIR
 10
0.0
 20
1.0
 30
0.0
  9
$UCSORTHOREF
  2

  9
$UCSORTHOVIEW
 70
     0
  9
$UCSORGTOP
 10
0.0
 20
0.0
 30
0.0
  9
$UCSORGBOTTOM
 10
0.0
 20
0.0
 30
0.0
  9
$UCSORGLEFT
 10
0.0
 20
0.0
 30
0.0
  9
$UCSORGRIGHT
 10
0.0
 20
0.0
 30
0.0
  9
$UCSORGFRONT
 10
0.0
 20
0.0
 30
0.0
  9
$UCSORGBACK
 10
0.0
 20
0.0
 30
0.0
  9
$PUCSBASE
  2

  9
$PUCSNAME
  2

  9
$PUCSORG
 10
0.0
 20
0.0
 30
0.0
  9
$PUCSXDIR
 10
1.0
 20
0.0
 30
0.0
  9
$PUCSYDIR
 10
0.0
 20
1.0
 30
0.0
  9
$PUCSORTHOREF
  2

  9
$PUCSORTHOVIEW
 70
     0
  9
$PUCSORGTOP
 10
0.0
 20
0.0
 30
0.0
  9
$PUCSORGBOTTOM
 10
0.0
 20
0.0
 30
0.0
  9
$PUCSORGLEFT
 10
0.0
 20
0.0
 30
0.0
  9
$PUCSORGRIGHT
 10
0.0
 20
0.0
 30
0.0
  9
$PUCSORGFRONT
 10
0.0
 20
0.0
 30
0.0
  9
$PUCSORGBACK
 10
0.0
 20
0.0
 30
0.0
  9
$USERI1
 70
     0
  9
$USERI2
 70
     0
  9
$USERI3
 70
     0
  9
$USERI4
 70
     0
  9
$USERI5
 70
     0
  9
$USERR1
 40
0.0
  9
$USERR2
 40
0.0
  9
$USERR3
 40
0.0
  9
$USERR4
 40
0.0
  9
$USERR5
 40
0.0
  9
$WORLDVIEW
 70
     1
  9
$SHADEDGE
 70
     3
  9
$SHADEDIF
 70
    70
  9
$TILEMODE
 70
     1
  9
$MAXACTVP
 70
    16
  9
$PINSBASE
 10
0.0
 20
0.0
 30
0.0
  9
$PLIMCHECK
 70
     0
  9
$PEXTMIN
 10
1.000000E+20
 20
1.000000E+20
 30
1.000000E+20
  9
$PEXTMAX
 10
-1.000000E+20
 20
-1.000000E+20
 30
-1.000000E+20
  9
$PLIMMIN
 10
0.0
 20
0.0
  9
$PLIMMAX
 10
12.0
 20
9.0
  9
$UNITMODE
 70
     0
  9
$VISRETAIN
 70
     0
  9
$PLINEGEN
 70
     1
  9
$PSLTSCALE
 70
     0
  9
$TREEDEPTH
 70
  3020
  9
$CMLSTYLE
  2
Standard
  9
$CMLJUST
 70
     0
  9
$CMLSCALE
 40
1.0
  9
$PROXYGRAPHICS
 70
     0
  9
$MEASUREMENT
 70
     1
  9
$CELWEIGHT
370
     0
  9
$ENDCAPS
280
     0
  9
$JOINSTYLE
280
     0
  9
$LWDISPLAY
290
     0
  9
$INSUNITS
 70
     0
  9
$HYPERLINKBASE
  1

  9
$STYLESHEET
  1

  9
$XEDIT
290
     1
  9
$CEPSNTYPE
380
     0
  9
$PSTYLEMODE
290
     1
  9
$FINGERPRINTGUID
  2

  9
$VERSIONGUID
  2

  9
$EXTNAMES
290
     1
  9
$PSVPSCALE
 40
0.0
  0
ENDSEC
  0
SECTION
  2
CLASSES
  0
CLASS
  1
LWPOLYLINE
  2
AcDbPolyline
  3
AutoCAD 2000
 90
        0
280
     0
281
     1
  0
CLASS
  1
IMAGE
  2
AcDbRasterImage
  3
ISM
 90
      127
280
     0
281
     1
  0
CLASS
  1
OLE2FRAME
  2
AcDbOle2Frame
  3
AutoCAD 2000
 90
        0
280
     0
281
     1
  0
CLASS
  1
HATCH
  2
AcDbHatch
  3
AutoCAD 2000
 90
        0
280
     0
281
     1
  0
CLASS
  1
DICTIONARYVAR
  2
AcDbDictionaryVar
  3
AutoCAD 2000
 90
        0
280
     0
281
     0
  0
CLASS
  1
RASTERVARIABLES
  2
AcDbRasterVariables
  3
ISM
 90
        0
280
     0
281
     0
  0
CLASS
  1
IMAGEDEF
  2
AcDbRasterImageDef
  3
ISM
 90
        0
280
     0
281
     0
  0
CLASS
  1
IMAGEDEF_REACTOR
  2
AcDbRasterImageDefReactor
  3
ISM
 90
        1
280
     0
281
     0
  0
CLASS
  1
IDBUFFER
  2
AcDbIdBuffer
  3
AutoCAD 2000
 90
        0
280
     0
281
     0
  0
CLASS
  1
SPATIAL_FILTER
  2
AcDbSpatialFilter
  3
AutoCAD 2000
 90
        0
280
     0
281
     0
  0
CLASS
  1
XRECORD
  2
AcDbXrecord
  3
AutoCAD 2000
 90
        0
280
     0
281
     0
  0
CLASS
  1
SORTENTSTABLE
  2
AcDbSortentsTable
  3
AutoCAD 2000
 90
        0
280
     0
281
     0
  0
CLASS
  1
LAYER_INDEX
  2
AcDbLayerIndex
  3
AutoCAD 2000
 90
        0
280
     0
281
     0
  0
CLASS
  1
SPATIAL_INDEX
  2
AcDbSpatialIndex
  3
AutoCAD 2000
 90
        0
280
     0
281
     0
  0
CLASS
  1
OBJECT_PTR
  2
CAseDLPNTableRecord
  3
"ASE-LPNTableRecord"
 90
        1
280
     0
281
     0
  0
CLASS
  1
LAYOUT
  2
AcDbLayout
  3
AutoCAD 2000
 90
        0
280
     0
281
     0
  0
CLASS
  1
PLOTSETTINGS
  2
AcDbPlotSettings
  3
AutoCAD 2000
 90
        0
280
     0
281
     0
  0
CLASS
  1
ACDBDICTIONARYWDFLT
  2
AcDbDictionaryWithDefault
  3
AutoCAD 2000
 90
        0
280
     0
281
     0
  0
CLASS
  1
ACDBPLACEHOLDER
  2
AcDbPlaceHolder
  3
AutoCAD 2000
 90
        0
280
     0
281
     0
  0
ENDSEC
  0
SECTION
  2
TABLES
  0
TABLE
  2
VPORT
  5
7
100
AcDbSymbolTable
 70
     1
  0
VPORT
  5
15
100
AcDbSymbolTableRecord
100
AcDbViewportTableRecord
  2
*ACTIVE
 70
     0
 10
0.0
 20
0.0
 11
1.0
 21
1.0
 12
27.174662
 22
25.908904
 13
0.0
 23
0.0
 14
1.0
 24
1.0
 15
0.0
 25
0.0
 16
0.0
 26
0.0
 36
1.0
 17
0.0
 27
0.0
 37
0.0
 40
87.48399
 41
1.732051
 42
50.0
 43
0.0
 44
0.0
 50
0.0
 51
0.0
 71
     0
 72
   100
 73
     1
 74
     1
 75
     0
 76
     0
 77
     0
 78
     0
281
     0
 65
     0
110
0.0
120
0.0
130
0.0
111
1.0
121
0.0
131
0.0
112
0.0
122
1.0
132
0.0
345
0
346
0
 79
     0
146
0.0
  0
ENDTAB
  0
TABLE
  2
LTYPE
  5
4
100
AcDbSymbolTable
 70
     4
  0
LTYPE
  5
11
100
AcDbSymbolTableRecord
100
AcDbLinetypeTableRecord
  2
BYBLOCK
 70
    64
  3

 72
    65
 73
     0
 40
0.0
  0
LTYPE
  5
12
100
AcDbSymbolTableRecord
100
AcDbLinetypeTableRecord
  2
BYLAYER
 70
    64
  3

 72
    65
 73
     0
 40
0.0
  0
LTYPE
  5
13
100
AcDbSymbolTableRecord
100
AcDbLinetypeTableRecord
  2
CONTINUOUS
 70
    64
  3
Solid line
 72
    65
 73
     0
 40
0.0
  0
LTYPE
  5
B0
100
AcDbSymbolTableRecord
100
AcDbLinetypeTableRecord
  2
CENTER
 70
    64
  3
Center ____ _ ____ _ ____ _ ____ _ ____ _ ____
 72
    65
 73
     4
 40
50.8
 49
31.75
 74
     0
 49
-6.35
 74
     0
 49
6.35
 74
     0
 49
-6.35
 74
     0
  0
ENDTAB
  0
TABLE
  2
LAYER
  5
2
100
AcDbSymbolTable
 70
     3
  0
LAYER
  5
14
100
AcDbSymbolTableRecord
100
AcDbLayerTableRecord
  2
0
 70
     0
 62
     7
  6
CONTINUOUS
290
     1
370
    -3
390
1D
  0
LAYER
  5
23
100
AcDbSymbolTableRecord
100
AcDbLayerTableRecord
  2
LY_1
 70
     0
 62
     7
  6
CONTINUOUS
290
     1
370
    -3
390
1D
  0
LAYER
  5
24
100
AcDbSymbolTableRecord
100
AcDbLayerTableRecord
  2
DEFPOINTS
 70
     0
 62
     7
  6
CONTINUOUS
290
     0
370
    -3
390
1D
  0
ENDTAB
  0
TABLE
  2
STYLE
  5
3
100
AcDbSymbolTable
 70
     8
  0
STYLE
  5
17
100
AcDbSymbolTableRecord
100
AcDbTextStyleTableRecord
  2
MX_NOTE_STANDARD
 70
     0
 40
0.0
 41
1.0
 50
0.0
 71
     0
 42
3.15
  3
txt.shx
  4
extfont.shx
  0
STYLE
  5
3B
100
AcDbSymbolTableRecord
100
AcDbTextStyleTableRecord
  2
MX_DIMTXSTY_2
 70
     0
 40
0.0
 41
1.15
 50
0.0
 71
     0
 42
3.15
  3
txt.shx
  4
extfont.shx
  0
STYLE
  5
49
100
AcDbSymbolTableRecord
100
AcDbTextStyleTableRecord
  2
MX_DIMTXSTY_3
 70
     0
 40
0.0
 41
0.95
 50
0.0
 71
     0
 42
3.15
  3
txt.shx
  4
extfont.shx
  0
STYLE
  5
57
100
AcDbSymbolTableRecord
100
AcDbTextStyleTableRecord
  2
MX_DIMTXSTY_4
 70
     0
 40
0.0
 41
1.05
 50
0.0
 71
     0
 42
3.15
  3
txt.shx
  4
extfont.shx
  0
STYLE
  5
7E
100
AcDbSymbolTableRecord
100
AcDbTextStyleTableRecord
  2
MX_DIMTXSTY_5
 70
     0
 40
0.0
 41
1.1
 50
0.0
 71
     0
 42
3.15
  3
txt.shx
  4
extfont.shx
  0
STYLE
  5
8B
100
AcDbSymbolTableRecord
100
AcDbTextStyleTableRecord
  2
MX_DIMTXSTY_6
 70
     0
 40
0.0
 41
1.35
 50
0.0
 71
     0
 42
3.15
  3
txt.shx
  4
extfont.shx
  0
STYLE
  5
9C
100
AcDbSymbolTableRecord
100
AcDbTextStyleTableRecord
  2
MX_DIMTXSTY_7
 70
     0
 40
0.0
 41
1.3
 50
0.0
 71
     0
 42
3.15
  3
txt.shx
  4
extfont.shx
  0
STYLE
  5
A9
100
AcDbSymbolTableRecord
100
AcDbTextStyleTableRecord
  2
MX_DIMTXSTY_8
 70
     0
 40
0.0
 41
1.2
 50
0.0
 71
     0
 42
3.15
  3
txt.shx
  4
extfont.shx
  0
ENDTAB
  0
TABLE
  2
VIEW
  5
5
100
AcDbSymbolTable
 70
     0
  0
ENDTAB
  0
TABLE
  2
UCS
  5
6
100
AcDbSymbolTable
 70
     0
  0
ENDTAB
  0
TABLE
  2
APPID
  5
8
100
AcDbSymbolTable
 70
     1
  0
APPID
  5
16
100
AcDbSymbolTableRecord
100
AcDbRegAppTableRecord
  2
ACAD
 70
     0
  0
ENDTAB
  0
TABLE
  2
DIMSTYLE
  5
9
100
AcDbSymbolTable
 70
     1
100
AcDbDimStyleTable
 71
     0
  0
DIMSTYLE
105
18
100
AcDbSymbolTableRecord
100
AcDbDimStyleTableRecord
  2
MXDIMSTYLE
 70
     0
  3

  4

 40
1.0
 41
2.5
 42
1.0
 43
3.75
 44
2.0
 45
0.0
 46
0.0
 47
0.0
 48
0.0
 71
     0
 72
     0
 73
     0
 74
     0
 75
     0
 76
     0
 77
     1
 78
     8
 79
     0
140
3.15
141
2.5
142
0.0
143
0.03937
144
1.0
145
0.0
146
1.0
147
1.0
148
0.0
170
     0
171
     4
172
     1
173
     1
174
     0
175
     0
176
     0
177
     0
178
     0
179
     0
271
     2
272
     2
273
     2
274
     4
275
     0
276
     0
277
     2
278
    46
279
     0
280
     0
281
     0
282
     0
283
     0
284
     0
285
     0
286
     0
288
     0
289
     3
340
17
341
25
342
0
343
25
344
25
371
    -2
372
    -2
  0
ENDTAB
  0
TABLE
  2
BLOCK_RECORD
  5
1
100
AcDbSymbolTable
 70
    12
  0
BLOCK_RECORD
  5
A
100
AcDbSymbolTableRecord
100
AcDbBlockTableRecord
  2
*MODEL_SPACE
340
20
  0
BLOCK_RECORD
  5
B
100
AcDbSymbolTableRecord
100
AcDbBlockTableRecord
  2
*PAPER_SPACE
340
21
  0
BLOCK_RECORD
  5
25
100
AcDbSymbolTableRecord
100
AcDbBlockTableRecord
  2
_OPEN30
340
0
  0
BLOCK_RECORD
  5
2B
100
AcDbSymbolTableRecord
100
AcDbBlockTableRecord
  2
_OPEN
340
0
102
{BLKREFS
331
32
331
39
331
3A
331
47
331
48
331
55
331
56
331
63
331
64
331
70
331
71
331
7C
331
7D
331
89
331
8A
331
97
331
A7
331
A8
102
}
  0
BLOCK_RECORD
  5
34
100
AcDbSymbolTableRecord
100
AcDbBlockTableRecord
  2
*D2
340
0
  0
BLOCK_RECORD
  5
42
100
AcDbSymbolTableRecord
100
AcDbBlockTableRecord
  2
*D3
340
0
  0
BLOCK_RECORD
  5
50
100
AcDbSymbolTableRecord
100
AcDbBlockTableRecord
  2
*D4
340
0
  0
BLOCK_RECORD
  5
5E
100
AcDbSymbolTableRecord
100
AcDbBlockTableRecord
  2
*D5
340
0
  0
BLOCK_RECORD
  5
6B
100
AcDbSymbolTableRecord
100
AcDbBlockTableRecord
  2
*D6
340
0
  0
BLOCK_RECORD
  5
78
100
AcDbSymbolTableRecord
100
AcDbBlockTableRecord
  2
*D7
340
0
  0
BLOCK_RECORD
  5
85
100
AcDbSymbolTableRecord
100
AcDbBlockTableRecord
  2
*D8
340
0
  0
BLOCK_RECORD
  5
92
100
AcDbSymbolTableRecord
100
AcDbBlockTableRecord
  2
*D9
340
0
  0
BLOCK_RECORD
  5
98
100
AcDbSymbolTableRecord
100
AcDbBlockTableRecord
  2
_NONE
340
0
  0
BLOCK_RECORD
  5
A3
100
AcDbSymbolTableRecord
100
AcDbBlockTableRecord
  2
*D11
340
0
  0
ENDTAB
  0
ENDSEC
  0
SECTION
  2
BLOCKS
  0
BLOCK
  5
D
100
AcDbEntity
  8
0
390
0
100
AcDbBlockBegin
  2
*MODEL_SPACE
 70
     0
 10
0.0
 20
0.0
 30
0.0
  3
*MODEL_SPACE
  1

  0
ENDBLK
  5
E
100
AcDbEntity
  8
0
390
0
100
AcDbBlockEnd
  0
BLOCK
  5
F
100
AcDbEntity
 67
     1
  8
0
390
0
100
AcDbBlockBegin
  2
*PAPER_SPACE
 70
     0
 10
0.0
 20
0.0
 30
0.0
  3
*PAPER_SPACE
  1

  0
ENDBLK
  5
10
100
AcDbEntity
 67
     1
  8
0
390
0
100
AcDbBlockEnd
  0
BLOCK
  5
26
100
AcDbEntity
  8
0
370
    -2
390
0
  6
ByBlock
 62
     0
100
AcDbBlockBegin
  2
_OPEN30
 70
     2
 10
0.0
 20
0.0
 30
0.0
  3
_OPEN30
  1

  0
LINE
  5
27
100
AcDbEntity
  8
0
370
    -2
390
0
  6
ByBlock
 62
     0
100
AcDbLine
 10
-1.0
 20
0.267949
 30
0.0
 11
0.0
 21
0.0
 31
0.0
  0
LINE
  5
28
100
AcDbEntity
  8
0
370
    -2
390
0
  6
ByBlock
 62
     0
100
AcDbLine
 10
0.0
 20
0.0
 30
0.0
 11
-1.0
 21
-0.267949
 31
0.0
  0
LINE
  5
29
100
AcDbEntity
  8
0
370
    -2
390
0
  6
ByBlock
 62
     0
100
AcDbLine
 10
0.0
 20
0.0
 30
0.0
 11
-1.0
 21
0.0
 31
0.0
  0
ENDBLK
  5
2A
100
AcDbEntity
  8
0
370
    -2
390
0
  6
ByBlock
 62
     0
100
AcDbBlockEnd
  0
BLOCK
  5
2C
100
AcDbEntity
  8
0
370
    -2
390
0
  6
ByBlock
 62
     0
100
AcDbBlockBegin
  2
_OPEN
 70
     2
 10
0.0
 20
0.0
 30
0.0
  3
_OPEN
  1

  0
LINE
  5
2D
100
AcDbEntity
  8
0
370
    -2
390
0
  6
ByBlock
 62
     0
100
AcDbLine
 10
-1.0
 20
0.166667
 30
0.0
 11
0.0
 21
0.0
 31
0.0
  0
LINE
  5
2E
100
AcDbEntity
  8
0
370
    -2
390
0
  6
ByBlock
 62
     0
100
AcDbLine
 10
0.0
 20
0.0
 30
0.0
 11
-1.0
 21
-0.166667
 31
0.0
  0
LINE
  5
2F
100
AcDbEntity
  8
0
370
    -2
390
0
  6
ByBlock
 62
     0
100
AcDbLine
 10
0.0
 20
0.0
 30
0.0
 11
-1.0
 21
0.0
 31
0.0
  0
ENDBLK
  5
30
100
AcDbEntity
  8
0
370
    -2
390
0
  6
ByBlock
 62
     0
100
AcDbBlockEnd
  0
BLOCK
  5
35
100
AcDbEntity
  8
0
370
    -2
390
0
  6
ByBlock
 62
     0
100
AcDbBlockBegin
  2
*D2
 70
     1
 10
0.0
 20
0.0
 30
0.0
  3
*D2
  1

  0
LINE
  5
36
100
AcDbEntity
  8
0
390
0
  6
CONTINUOUS
 62
     7
100
AcDbLine
 10
32.544521
 20
-15.25
 30
0.0
 11
32.544521
 21
15.25
 31
0.0
  0
LINE
  5
37
100
AcDbEntity
  8
0
390
0
  6
CONTINUOUS
 62
     7
100
AcDbLine
 10
46.825001
 20
-15.25
 30
0.0
 11
31.294521
 21
-15.25
 31
0.0
  0
LINE
  5
38
100
AcDbEntity
  8
0
390
0
  6
CONTINUOUS
 62
     7
100
AcDbLine
 10
46.825001
 20
15.25
 30
0.0
 11
31.294521
 21
15.25
 31
0.0
  0
INSERT
  5
39
100
AcDbEntity
  8
0
390
0
  6
CONTINUOUS
 62
     7
100
AcDbBlockReference
  2
_OPEN
 10
32.544521
 20
-15.25
 30
0.0
 41
3.0
 42
3.0
 43
3.0
 50
270.0
  0
INSERT
  5
3A
100
AcDbEntity
  8
0
390
0
  6
CONTINUOUS
 62
     7
100
AcDbBlockReference
  2
_OPEN
 10
32.544521
 20
15.25
 30
0.0
 41
3.0
 42
3.0
 43
3.0
 50
90.0
  0
MTEXT
  5
3C
100
AcDbEntity
  8
0
390
0
  6
CONTINUOUS
 62
     7
100
AcDbMText
 10
29.944521
 20
0.0
 30
0.0
 40
3.2
 41
0.0
 71
     5
 72
     1
  1
\A1;\U+220530.5
  7
MX_DIMTXSTY_2
 11
0.0
 21
1.0
 31
0.0
 73
     1
 44
0.9
  0
POINT
  5
3D
100
AcDbEntity
  8
DEFPOINTS
390
0
  6
CONTINUOUS
 62
     0
100
AcDbPoint
 10
46.825001
 20
-15.25
 30
0.0
  0
POINT
  5
3E
100
AcDbEntity
  8
DEFPOINTS
390
0
  6
CONTINUOUS
 62
     0
100
AcDbPoint
 10
46.825001
 20
15.25
 30
0.0
  0
POINT
  5
3F
100
AcDbEntity
  8
DEFPOINTS
390
0
  6
CONTINUOUS
 62
     0
100
AcDbPoint
 10
32.544521
 20
15.25
 30
0.0
  0
ENDBLK
  5
40
100
AcDbEntity
  8
0
370
    -2
390
0
  6
ByBlock
 62
     0
100
AcDbBlockEnd
  0
BLOCK
  5
43
100
AcDbEntity
  8
0
370
    -2
390
0
  6
ByBlock
 62
     0
100
AcDbBlockBegin
  2
*D3
 70
     1
 10
0.0
 20
0.0
 30
0.0
  3
*D3
  1

  0
LINE
  5
44
100
AcDbEntity
  8
0
390
0
  6
CONTINUOUS
 62
     7
100
AcDbLine
 10
37.544521
 20
-11.0
 30
0.0
 11
37.544521
 21
11.0
 31
0.0
  0
LINE
  5
45
100
AcDbEntity
  8
0
390
0
  6
CONTINUOUS
 62
     7
100
AcDbLine
 10
45.591286
 20
-11.0
 30
0.0
 11
36.294521
 21
-11.0
 31
0.0
  0
LINE
  5
46
100
AcDbEntity
  8
0
390
0
  6
CONTINUOUS
 62
     7
100
AcDbLine
 10
41.911591
 20
11.0
 30
0.0
 11
36.294521
 21
11.0
 31
0.0
  0
INSERT
  5
47
100
AcDbEntity
  8
0
390
0
  6
CONTINUOUS
 62
     7
100
AcDbBlockReference
  2
_OPEN
 10
37.544521
 20
-11.0
 30
0.0
 41
3.0
 42
3.0
 43
3.0
 50
270.0
  0
INSERT
  5
48
100
AcDbEntity
  8
0
390
0
  6
CONTINUOUS
 62
     7
100
AcDbBlockReference
  2
_OPEN
 10
37.544521
 20
11.0
 30
0.0
 41
3.0
 42
3.0
 43
3.0
 50
90.0
  0
MTEXT
  5
4A
100
AcDbEntity
  8
0
390
0
  6
CONTINUOUS
 62
     7
100
AcDbMText
 10
34.944521
 20
0.0
 30
0.0
 40
3.2
 41
0.0
 71
     5
 72
     1
  1
\A1;\U+220522
  7
MX_DIMTXSTY_3
 11
0.0
 21
1.0
 31
0.0
 73
     1
 44
0.9
  0
POINT
  5
4B
100
AcDbEntity
  8
DEFPOINTS
390
0
  6
CONTINUOUS
 62
     0
100
AcDbPoint
 10
45.591286
 20
-11.0
 30
0.0
  0
POINT
  5
4C
100
AcDbEntity
  8
DEFPOINTS
390
0
  6
CONTINUOUS
 62
     0
100
AcDbPoint
 10
41.911591
 20
11.0
 30
0.0
  0
POINT
  5
4D
100
AcDbEntity
  8
DEFPOINTS
390
0
  6
CONTINUOUS
 62
     0
100
AcDbPoint
 10
37.544521
 20
11.0
 30
0.0
  0
ENDBLK
  5
4E
100
AcDbEntity
  8
0
370
    -2
390
0
  6
ByBlock
 62
     0
100
AcDbBlockEnd
  0
BLOCK
  5
51
100
AcDbEntity
  8
0
370
    -2
390
0
  6
ByBlock
 62
     0
100
AcDbBlockBegin
  2
*D4
 70
     1
 10
0.0
 20
0.0
 30
0.0
  3
*D4
  1

  0
LINE
  5
52
100
AcDbEntity
  8
0
390
0
  6
CONTINUOUS
 62
     7
100
AcDbLine
 10
42.544521
 20
7.0
 30
0.0
 11
42.544521
 21
-7.0
 31
0.0
  0
LINE
  5
53
100
AcDbEntity
  8
0
390
0
  6
CONTINUOUS
 62
     7
100
AcDbLine
 10
46.825001
 20
7.0
 30
0.0
 11
41.294521
 21
7.0
 31
0.0
  0
LINE
  5
54
100
AcDbEntity
  8
0
390
0
  6
CONTINUOUS
 62
     7
100
AcDbLine
 10
46.825001
 20
-7.0
 30
0.0
 11
41.294521
 21
-7.0
 31
0.0
  0
INSERT
  5
55
100
AcDbEntity
  8
0
390
0
  6
CONTINUOUS
 62
     7
100
AcDbBlockReference
  2
_OPEN
 10
42.544521
 20
7.0
 30
0.0
 41
3.0
 42
3.0
 43
3.0
 50
90.0
  0
INSERT
  5
56
100
AcDbEntity
  8
0
390
0
  6
CONTINUOUS
 62
     7
100
AcDbBlockReference
  2
_OPEN
 10
42.544521
 20
-7.0
 30
0.0
 41
3.0
 42
3.0
 43
3.0
 50
270.0
  0
MTEXT
  5
58
100
AcDbEntity
  8
0
390
0
  6
CONTINUOUS
 62
     7
100
AcDbMText
 10
39.944521
 20
0.0
 30
0.0
 40
3.2
 41
0.0
 71
     5
 72
     1
  1
\A1;\U+220514
  7
MX_DIMTXSTY_4
 11
0.0
 21
1.0
 31
0.0
 73
     1
 44
0.9
  0
POINT
  5
59
100
AcDbEntity
  8
DEFPOINTS
390
0
  6
CONTINUOUS
 62
     0
100
AcDbPoint
 10
46.825001
 20
7.0
 30
0.0
  0
POINT
  5
5A
100
AcDbEntity
  8
DEFPOINTS
390
0
  6
CONTINUOUS
 62
     0
100
AcDbPoint
 10
46.825001
 20
-7.0
 30
0.0
  0
POINT
  5
5B
100
AcDbEntity
  8
DEFPOINTS
390
0
  6
CONTINUOUS
 62
     0
100
AcDbPoint
 10
42.544521
 20
-7.0
 30
0.0
  0
ENDBLK
  5
5C
100
AcDbEntity
  8
0
370
    -2
390
0
  6
ByBlock
 62
     0
100
AcDbBlockEnd
  0
BLOCK
  5
5F
100
AcDbEntity
  8
0
370
    -2
390
0
  6
ByBlock
 62
     0
100
AcDbBlockBegin
  2
*D5
 70
     1
 10
0.0
 20
0.0
 30
0.0
  3
*D5
  1

  0
LINE
  5
60
100
AcDbEntity
  8
0
390
0
  6
CONTINUOUS
 62
     7
100
AcDbLine
 10
74.825001
 20
14.0
 30
0.0
 11
74.825001
 21
-14.0
 31
0.0
  0
LINE
  5
61
100
AcDbEntity
  8
0
390
0
  6
CONTINUOUS
 62
     7
100
AcDbLine
 10
66.825001
 20
14.0
 30
0.0
 11
77.325001
 21
14.0
 31
0.0
  0
LINE
  5
62
100
AcDbEntity
  8
0
390
0
  6
CONTINUOUS
 62
     7
100
AcDbLine
 10
66.825001
 20
-14.0
 30
0.0
 11
77.325001
 21
-14.0
 31
0.0
  0
INSERT
  5
63
100
AcDbEntity
  8
0
390
0
  6
CONTINUOUS
 62
     7
100
AcDbBlockReference
  2
_OPEN
 10
74.825001
 20
14.0
 30
0.0
 41
3.0
 42
3.0
 43
3.0
 50
90.0
  0
INSERT
  5
64
100
AcDbEntity
  8
0
390
0
  6
CONTINUOUS
 62
     7
100
AcDbBlockReference
  2
_OPEN
 10
74.825001
 20
-14.0
 30
0.0
 41
3.0
 42
3.0
 43
3.0
 50
270.0
  0
MTEXT
  5
65
100
AcDbEntity
  8
0
390
0
  6
CONTINUOUS
 62
     7
100
AcDbMText
 10
72.225001
 20
0.0
 30
0.0
 40
3.2
 41
0.0
 71
     5
 72
     1
  1
\A1;\U+220528
  7
MX_DIMTXSTY_3
 11
0.0
 21
1.0
 31
0.0
 73
     1
 44
0.9
  0
POINT
  5
66
100
AcDbEntity
  8
DEFPOINTS
390
0
  6
CONTINUOUS
 62
     0
100
AcDbPoint
 10
66.825001
 20
14.0
 30
0.0
  0
POINT
  5
67
100
AcDbEntity
  8
DEFPOINTS
390
0
  6
CONTINUOUS
 62
     0
100
AcDbPoint
 10
66.825001
 20
-14.0
 30
0.0
  0
POINT
  5
68
100
AcDbEntity
  8
DEFPOINTS
390
0
  6
CONTINUOUS
 62
     0
100
AcDbPoint
 10
74.825001
 20
-14.0
 30
0.0
  0
ENDBLK
  5
69
100
AcDbEntity
  8
0
370
    -2
390
0
  6
ByBlock
 62
     0
100
AcDbBlockEnd
  0
BLOCK
  5
6C
100
AcDbEntity
  8
0
370
    -2
390
0
  6
ByBlock
 62
     0
100
AcDbBlockBegin
  2
*D6
 70
     1
 10
0.0
 20
0.0
 30
0.0
  3
*D6
  1

  0
LINE
  5
6D
100
AcDbEntity
  8
0
390
0
  6
CONTINUOUS
 62
     7
100
AcDbLine
 10
42.825001
 20
34.0
 30
0.0
 11
66.825001
 21
34.0
 31
0.0
  0
LINE
  5
6E
100
AcDbEntity
  8
0
390
0
  6
CONTINUOUS
 62
     7
100
AcDbLine
 10
42.825001
 20
13.980469
 30
0.0
 11
42.825001
 21
36.5
 31
0.0
  0
LINE
  5
6F
100
AcDbEntity
  8
0
390
0
  6
CONTINUOUS
 62
     7
100
AcDbLine
 10
66.825001
 20
14.0
 30
0.0
 11
66.825001
 21
36.5
 31
0.0
  0
INSERT
  5
70
100
AcDbEntity
  8
0
390
0
  6
CONTINUOUS
 62
     7
100
AcDbBlockReference
  2
_OPEN
 10
42.825001
 20
34.0
 30
0.0
 41
3.0
 42
3.0
 43
3.0
 50
180.0
  0
INSERT
  5
71
100
AcDbEntity
  8
0
390
0
  6
CONTINUOUS
 62
     7
100
AcDbBlockReference
  2
_OPEN
 10
66.825001
 20
34.0
 30
0.0
 41
3.0
 42
3.0
 43
3.0
  0
MTEXT
  5
72
100
AcDbEntity
  8
0
390
0
  6
CONTINUOUS
 62
     7
100
AcDbMText
 10
54.825001
 20
36.6
 30
0.0
 40
3.2
 41
0.0
 71
     5
 72
     1
  1
\A1;24
 73
     1
 44
0.9
  0
POINT
  5
73
100
AcDbEntity
  8
DEFPOINTS
390
0
  6
CONTINUOUS
 62
     0
100
AcDbPoint
 10
42.825001
 20
13.980469
 30
0.0
  0
POINT
  5
74
100
AcDbEntity
  8
DEFPOINTS
390
0
  6
CONTINUOUS
 62
     0
100
AcDbPoint
 10
66.825001
 20
14.0
 30
0.0
  0
POINT
  5
75
100
AcDbEntity
  8
DEFPOINTS
390
0
  6
CONTINUOUS
 62
     0
100
AcDbPoint
 10
66.825001
 20
34.0
 30
0.0
  0
ENDBLK
  5
76
100
AcDbEntity
  8
0
370
    -2
390
0
  6
ByBlock
 62
     0
100
AcDbBlockEnd
  0
BLOCK
  5
79
100
AcDbEntity
  8
0
370
    -2
390
0
  6
ByBlock
 62
     0
100
AcDbBlockBegin
  2
*D7
 70
     1
 10
0.0
 20
0.0
 30
0.0
  3
*D7
  1

  0
LINE
  5
7A
100
AcDbEntity
  8
0
390
0
  6
CONTINUOUS
 62
     7
100
AcDbLine
 10
46.825001
 20
29.0
 30
0.0
 11
66.825001
 21
29.0
 31
0.0
  0
LINE
  5
7B
100
AcDbEntity
  8
0
390
0
  6
CONTINUOUS
 62
     7
100
AcDbLine
 10
46.825001
 20
15.25
 30
0.0
 11
46.825001
 21
31.5
 31
0.0
  0
INSERT
  5
7C
100
AcDbEntity
  8
0
390
0
  6
CONTINUOUS
 62
     7
100
AcDbBlockReference
  2
_OPEN
 10
46.825001
 20
29.0
 30
0.0
 41
3.0
 42
3.0
 43
3.0
 50
180.0
  0
INSERT
  5
7D
100
AcDbEntity
  8
0
390
0
  6
CONTINUOUS
 62
     7
100
AcDbBlockReference
  2
_OPEN
 10
66.825001
 20
29.0
 30
0.0
 41
3.0
 42
3.0
 43
3.0
  0
MTEXT
  5
7F
100
AcDbEntity
  8
0
390
0
  6
CONTINUOUS
 62
     7
100
AcDbMText
 10
56.825001
 20
31.6
 30
0.0
 40
3.2
 41
0.0
 71
     5
 72
     1
  1
\A1;20
  7
MX_DIMTXSTY_5
 73
     1
 44
0.9
  0
POINT
  5
80
100
AcDbEntity
  8
DEFPOINTS
390
0
  6
CONTINUOUS
 62
     0
100
AcDbPoint
 10
46.825001
 20
15.25
 30
0.0
  0
POINT
  5
81
100
AcDbEntity
  8
DEFPOINTS
390
0
  6
CONTINUOUS
 62
     0
100
AcDbPoint
 10
66.825001
 20
14.0
 30
0.0
  0
POINT
  5
82
100
AcDbEntity
  8
DEFPOINTS
390
0
  6
CONTINUOUS
 62
     0
100
AcDbPoint
 10
66.825001
 20
29.0
 30
0.0
  0
ENDBLK
  5
83
100
AcDbEntity
  8
0
370
    -2
390
0
  6
ByBlock
 62
     0
100
AcDbBlockEnd
  0
BLOCK
  5
86
100
AcDbEntity
  8
0
370
    -2
390
0
  6
ByBlock
 62
     0
100
AcDbBlockBegin
  2
*D8
 70
     1
 10
0.0
 20
0.0
 30
0.0
  3
*D8
  1

  0
LINE
  5
87
100
AcDbEntity
  8
0
390
0
  6
CONTINUOUS
 62
     7
100
AcDbLine
 10
49.325001
 20
24.0
 30
0.0
 11
66.825001
 21
24.0
 31
0.0
  0
LINE
  5
88
100
AcDbEntity
  8
0
390
0
  6
CONTINUOUS
 62
     7
100
AcDbLine
 10
49.325001
 20
15.25
 30
0.0
 11
49.325001
 21
26.500015
 31
0.0
  0
INSERT
  5
89
100
AcDbEntity
  8
0
390
0
  6
CONTINUOUS
 62
     7
100
AcDbBlockReference
  2
_OPEN
 10
49.325001
 20
24.0
 30
0.0
 41
3.0
 42
3.0
 43
3.0
 50
180.0
  0
INSERT
  5
8A
100
AcDbEntity
  8
0
390
0
  6
CONTINUOUS
 62
     7
100
AcDbBlockReference
  2
_OPEN
 10
66.825001
 20
24.0
 30
0.0
 41
3.0
 42
3.0
 43
3.0
  0
MTEXT
  5
8C
100
AcDbEntity
  8
0
390
0
  6
CONTINUOUS
 62
     7
100
AcDbMText
 10
58.075001
 20
26.6
 30
0.0
 40
3.2
 41
0.0
 71
     5
 72
     1
  1
\A1;17.5
  7
MX_DIMTXSTY_6
 73
     1
 44
0.9
  0
POINT
  5
8D
100
AcDbEntity
  8
DEFPOINTS
390
0
  6
CONTINUOUS
 62
     0
100
AcDbPoint
 10
49.325001
 20
15.25
 30
0.0
  0
POINT
  5
8E
100
AcDbEntity
  8
DEFPOINTS
390
0
  6
CONTINUOUS
 62
     0
100
AcDbPoint
 10
66.825001
 20
14.0
 30
0.0
  0
POINT
  5
8F
100
AcDbEntity
  8
DEFPOINTS
390
0
  6
CONTINUOUS
 62
     0
100
AcDbPoint
 10
66.825001
 20
24.0
 30
0.0
  0
ENDBLK
  5
90
100
AcDbEntity
  8
0
370
    -2
390
0
  6
ByBlock
 62
     0
100
AcDbBlockEnd
  0
BLOCK
  5
93
100
AcDbEntity
  8
0
370
    -2
390
0
  6
ByBlock
 62
     0
100
AcDbBlockBegin
  2
*D9
 70
     1
 10
0.0
 20
0.0
 30
0.0
  3
*D9
  1

  0
LINE
  5
94
100
AcDbEntity
  8
0
390
0
  6
CONTINUOUS
 62
     7
100
AcDbLine
 10
46.825001
 20
24.0
 30
0.0
 11
49.325001
 21
24.0
 31
0.0
  0
LINE
  5
95
100
AcDbEntity
  8
0
390
0
  6
CONTINUOUS
 62
     7
100
AcDbLine
 10
33.018352
 20
24.0
 30
0.0
 11
46.825001
 21
24.0
 31
0.0
  0
LINE
  5
96
100
AcDbEntity
  8
0
390
0
  6
CONTINUOUS
 62
     7
100
AcDbLine
 10
46.825001
 20
24.0
 30
0.0
 11
41.825001
 21
24.0
 31
0.0
  0
INSERT
  5
97
100
AcDbEntity
  8
0
390
0
  6
CONTINUOUS
 62
     7
100
AcDbBlockReference
  2
_OPEN
 10
46.825001
 20
24.0
 30
0.0
 41
3.0
 42
3.0
 43
3.0
  0
MTEXT
  5
9D
100
AcDbEntity
  8
0
390
0
  6
CONTINUOUS
 62
     7
100
AcDbMText
 10
37.818352
 20
26.6
 30
0.0
 40
3.2
 41
0.0
 71
     5
 72
     1
  1
\A1;2.5
  7
MX_DIMTXSTY_7
 73
     1
 44
0.9
  0
POINT
  5
9E
100
AcDbEntity
  8
DEFPOINTS
390
0
  6
CONTINUOUS
 62
     0
100
AcDbPoint
 10
46.825001
 20
15.25
 30
0.0
  0
POINT
  5
9F
100
AcDbEntity
  8
DEFPOINTS
390
0
  6
CONTINUOUS
 62
     0
100
AcDbPoint
 10
49.325001
 20
15.25
 30
0.0
  0
POINT
  5
A0
100
AcDbEntity
  8
DEFPOINTS
390
0
  6
CONTINUOUS
 62
     0
100
AcDbPoint
 10
49.325001
 20
24.0
 30
0.0
  0
ENDBLK
  5
A1
100
AcDbEntity
  8
0
370
    -2
390
0
  6
ByBlock
 62
     0
100
AcDbBlockEnd
  0
BLOCK
  5
99
100
AcDbEntity
  8
0
370
    -2
390
0
  6
ByBlock
 62
     0
100
AcDbBlockBegin
  2
_NONE
 70
     2
 10
0.0
 20
0.0
 30
0.0
  3
_NONE
  1

  0
CIRCLE
  5
9A
100
AcDbEntity
  8
0
370
    -2
390
0
  6
ByBlock
 62
     0
100
AcDbCircle
 10
0.0
 20
0.0
 30
0.0
 40
0.25
  0
ENDBLK
  5
9B
100
AcDbEntity
  8
0
370
    -2
390
0
  6
ByBlock
 62
     0
100
AcDbBlockEnd
  0
BLOCK
  5
A4
100
AcDbEntity
  8
0
370
    -2
390
0
  6
ByBlock
 62
     0
100
AcDbBlockBegin
  2
*D11
 70
     1
 10
0.0
 20
0.0
 30
0.0
  3
*D11
  1

  0
LINE
  5
A5
100
AcDbEntity
  8
0
390
0
  6
CONTINUOUS
 62
     7
100
AcDbLine
 10
54.825001
 20
19.0
 30
0.0
 11
66.825001
 21
19.0
 31
0.0
  0
LINE
  5
A6
100
AcDbEntity
  8
0
390
0
  6
CONTINUOUS
 62
     7
100
AcDbLine
 10
54.825001
 20
14.0
 30
0.0
 11
54.825001
 21
21.5
 31
0.0
  0
INSERT
  5
A7
100
AcDbEntity
  8
0
390
0
  6
CONTINUOUS
 62
     7
100
AcDbBlockReference
  2
_OPEN
 10
54.825001
 20
19.0
 30
0.0
 41
3.0
 42
3.0
 43
3.0
 50
180.0
  0
INSERT
  5
A8
100
AcDbEntity
  8
0
390
0
  6
CONTINUOUS
 62
     7
100
AcDbBlockReference
  2
_OPEN
 10
66.825001
 20
19.0
 30
0.0
 41
3.0
 42
3.0
 43
3.0
  0
MTEXT
  5
AA
100
AcDbEntity
  8
0
390
0
  6
CONTINUOUS
 62
     7
100
AcDbMText
 10
60.527416
 20
21.6
 30
0.0
 40
3.2
 41
0.0
 71
     5
 72
     1
  1
\A1;12
  7
MX_DIMTXSTY_8
 73
     1
 44
0.9
  0
POINT
  5
AB
100
AcDbEntity
  8
DEFPOINTS
390
0
  6
CONTINUOUS
 62
     0
100
AcDbPoint
 10
54.825001
 20
14.0
 30
0.0
  0
POINT
  5
AC
100
AcDbEntity
  8
DEFPOINTS
390
0
  6
CONTINUOUS
 62
     0
100
AcDbPoint
 10
66.825001
 20
14.0
 30
0.0
  0
POINT
  5
AD
100
AcDbEntity
  8
DEFPOINTS
390
0
  6
CONTINUOUS
 62
     0
100
AcDbPoint
 10
66.825001
 20
19.0
 30
0.0
  0
ENDBLK
  5
AE
100
AcDbEntity
  8
0
370
    -2
390
0
  6
ByBlock
 62
     0
100
AcDbBlockEnd
  0
ENDSEC
  0
SECTION
  2
ENTITIES
  0
LWPOLYLINE
  5
31
100
AcDbEntity
  8
LY_1
390
0
  6
CONTINUOUS
 62
     7
100
AcDbPolyline
 90
        3
 70
     0
 10
6.465637
 20
10.899185
 10
9.262488
 20
20.614994
 10
15.262488
 20
20.614994
  0
INSERT
  5
32
100
AcDbEntity
  8
LY_1
390
0
  6
CONTINUOUS
 62
     7
100
AcDbBlockReference
  2
_OPEN
 10
6.465637
 20
10.899185
 30
0.0
 41
3.0
 42
3.0
 43
3.0
 50
253.940689
  0
MTEXT
  5
33
100
AcDbEntity
  8
LY_1
390
0
  6
CONTINUOUS
 62
     7
100
AcDbMText
 10
9.262488
 20
24.014995
 30
0.0
 40
3.2
 41
0.0
 71
     4
 72
     1
  1
\W0.937;\A1;M4
 73
     1
 44
0.9
  0
DIMENSION
  5
41
100
AcDbEntity
  8
LY_1
390
0
  6
CONTINUOUS
 62
     7
100
AcDbDimension
  2
*D2
 10
32.544521
 20
15.25
 30
0.0
 11
32.544521
 21
0.0
 31
0.0
 70
   128
 71
     5
 72
     1
 41
0.9
 42
30.5
  1
\A1;\U+2205<>
  3
MXDIMSTYLE
100
AcDbAlignedDimension
 13
46.825001
 23
-15.25
 33
0.0
 14
46.825001
 24
15.25
 34
0.0
 50
90.0
100
AcDbRotatedDimension
1001
ACAD
1000
DSTYLE
1002
{
1070
     6
1000
_OPEN
1070
     7
1000
_OPEN
1070
    41
1040
3.0
1070
    44
1040
1.25
1070
   140
1040
3.2
1070
   271
1070
     1
1070
   284
1070
     8
1070
   340
1005
3B
1070
   343
1005
2B
1070
   344
1005
2B
1002
}
  0
DIMENSION
  5
4F
100
AcDbEntity
  8
LY_1
390
0
  6
CONTINUOUS
 62
     7
100
AcDbDimension
  2
*D3
 10
37.544521
 20
11.0
 30
0.0
 11
37.544521
 21
0.0
 31
0.0
 70
   128
 71
     5
 72
     1
 41
0.9
 42
22.0
  1
\A1;\U+2205<>
  3
MXDIMSTYLE
100
AcDbAlignedDimension
 13
45.591286
 23
-11.0
 33
0.0
 14
41.911591
 24
11.0
 34
0.0
 50
90.0
100
AcDbRotatedDimension
1001
ACAD
1000
DSTYLE
1002
{
1070
     6
1000
_OPEN
1070
     7
1000
_OPEN
1070
    41
1040
3.0
1070
    44
1040
1.25
1070
   140
1040
3.2
1070
   271
1070
     0
1070
   284
1070
     8
1070
   340
1005
49
1070
   343
1005
2B
1070
   344
1005
2B
1002
}
  0
DIMENSION
  5
5D
100
AcDbEntity
  8
LY_1
390
0
  6
CONTINUOUS
 62
     7
100
AcDbDimension
  2
*D4
 10
42.544521
 20
-7.0
 30
0.0
 11
42.544521
 21
0.0
 31
0.0
 70
   128
 71
     5
 72
     1
 41
0.9
 42
14.0
  1
\A1;\U+2205<>
  3
MXDIMSTYLE
100
AcDbAlignedDimension
 13
46.825001
 23
7.0
 33
0.0
 14
46.825001
 24
-7.0
 34
0.0
 50
90.0
100
AcDbRotatedDimension
1001
ACAD
1000
DSTYLE
1002
{
1070
     6
1000
_OPEN
1070
     7
1000
_OPEN
1070
    41
1040
3.0
1070
    44
1040
1.25
1070
   140
1040
3.2
1070
   271
1070
     0
1070
   284
1070
     8
1070
   340
1005
57
1070
   343
1005
2B
1070
   344
1005
2B
1002
}
  0
DIMENSION
  5
6A
100
AcDbEntity
  8
LY_1
390
0
  6
CONTINUOUS
 62
     7
100
AcDbDimension
  2
*D5
 10
74.825001
 20
-14.0
 30
0.0
 11
74.825001
 21
0.0
 31
0.0
 70
   128
 71
     5
 72
     1
 41
0.9
 42
28.0
  1
\A1;\U+2205<>
  3
MXDIMSTYLE
100
AcDbAlignedDimension
 13
66.825001
 23
14.0
 33
0.0
 14
66.825001
 24
-14.0
 34
0.0
 50
90.0
100
AcDbRotatedDimension
1001
ACAD
1000
DSTYLE
1002
{
1070
     6
1000
_OPEN
1070
     7
1000
_OPEN
1070
    41
1040
3.0
1070
    44
1040
2.5
1070
   140
1040
3.2
1070
   271
1070
     0
1070
   284
1070
     8
1070
   340
1005
49
1070
   343
1005
2B
1070
   344
1005
2B
1002
}
  0
DIMENSION
  5
77
100
AcDbEntity
  8
LY_1
390
0
  6
CONTINUOUS
 62
     7
100
AcDbDimension
  2
*D6
 10
66.825001
 20
34.0
 30
0.0
 11
54.825001
 21
34.0
 31
0.0
 70
   128
 71
     5
 72
     1
 41
0.9
 42
24.0
  1
\A1;<>
  3
MXDIMSTYLE
100
AcDbAlignedDimension
 13
42.825001
 23
13.980469
 33
0.0
 14
66.825001
 24
14.0
 34
0.0
100
AcDbRotatedDimension
1001
ACAD
1000
DSTYLE
1002
{
1070
     6
1000
_OPEN
1070
     7
1000
_OPEN
1070
    41
1040
3.0
1070
    44
1040
2.5
1070
   140
1040
3.2
1070
   271
1070
     0
1070
   284
1070
     8
1070
   343
1005
2B
1070
   344
1005
2B
1002
}
  0
DIMENSION
  5
84
100
AcDbEntity
  8
LY_1
390
0
  6
CONTINUOUS
 62
     7
100
AcDbDimension
  2
*D7
 10
66.825001
 20
29.0
 30
0.0
 11
56.825001
 21
29.0
 31
0.0
 70
   128
 71
     5
 72
     1
 41
0.9
 42
20.0
  1
\A1;<>
  3
MXDIMSTYLE
100
AcDbAlignedDimension
 13
46.825001
 23
15.25
 33
0.0
 14
66.825001
 24
14.0
 34
0.0
100
AcDbRotatedDimension
1001
ACAD
1000
DSTYLE
1002
{
1070
     6
1000
_OPEN
1070
     7
1000
_OPEN
1070
    41
1040
3.0
1070
    44
1040
2.5
1070
    76
1070
     1
1070
   140
1040
3.2
1070
   271
1070
     0
1070
   284
1070
     8
1070
   340
1005
7E
1070
   343
1005
2B
1070
   344
1005
2B
1002
}
  0
DIMENSION
  5
91
100
AcDbEntity
  8
LY_1
390
0
  6
CONTINUOUS
 62
     7
100
AcDbDimension
  2
*D8
 10
66.825001
 20
24.0
 30
0.0
 11
58.075001
 21
24.0
 31
0.0
 70
   128
 71
     5
 72
     1
 41
0.9
 42
17.5
  1
\A1;<>
  3
MXDIMSTYLE
100
AcDbAlignedDimension
 13
49.325001
 23
15.25
 33
0.0
 14
66.825001
 24
14.0
 34
0.0
100
AcDbRotatedDimension
1001
ACAD
1000
DSTYLE
1002
{
1070
     6
1000
_OPEN
1070
     7
1000
_OPEN
1070
    41
1040
3.0
1070
    44
1040
2.500015
1070
    76
1070
     1
1070
   140
1040
3.2
1070
   271
1070
     1
1070
   284
1070
     8
1070
   340
1005
8B
1070
   343
1005
2B
1070
   344
1005
2B
1002
}
  0
DIMENSION
  5
A2
100
AcDbEntity
  8
LY_1
390
0
  6
CONTINUOUS
 62
     7
100
AcDbDimension
  2
*D9
 10
49.325001
 20
24.0
 30
0.0
 11
37.818352
 21
24.0
 31
0.0
 70
   128
 71
     5
 72
     1
 41
0.9
 42
2.5
  1
\A1;<>
  3
MXDIMSTYLE
100
AcDbAlignedDimension
 13
46.825001
 23
15.25
 33
0.0
 14
49.325001
 24
15.25
 34
0.0
100
AcDbRotatedDimension
1001
ACAD
1000
DSTYLE
1002
{
1070
     6
1000
_OPEN
1070
     7
1000
_NONE
1070
    41
1040
3.0
1070
    75
1070
     1
1070
    76
1070
     1
1070
   140
1040
3.2
1070
   271
1070
     1
1070
   284
1070
     8
1070
   340
1005
9C
1070
   343
1005
2B
1070
   344
1005
98
1002
}
  0
DIMENSION
  5
AF
100
AcDbEntity
  8
LY_1
390
0
  6
CONTINUOUS
 62
     7
100
AcDbDimension
  2
*D11
 10
66.825001
 20
19.0
 30
0.0
 11
60.527416
 21
19.0
 31
0.0
 70
   128
 71
     5
 72
     1
 41
0.9
 42
12.0
  1
\A1;<>
  3
MXDIMSTYLE
100
AcDbAlignedDimension
 13
54.825001
 23
14.0
 33
0.0
 14
66.825001
 24
14.0
 34
0.0
100
AcDbRotatedDimension
1001
ACAD
1000
DSTYLE
1002
{
1070
     6
1000
_OPEN
1070
     7
1000
_OPEN
1070
    41
1040
3.0
1070
    44
1040
2.5
1070
    76
1070
     1
1070
   140
1040
3.2
1070
   271
1070
     0
1070
   284
1070
     8
1070
   340
1005
A9
1070
   343
1005
2B
1070
   344
1005
2B
1002
}
  0
LINE
  5
B1
100
AcDbEntity
  8
LY_1
390
0
  6
CENTER
 62
     7
100
AcDbLine
 10
-17.206001
 20
0.0
 30
0.0
 11
17.655079
 21
0.0
 31
0.0
  0
LINE
  5
B2
100
AcDbEntity
  8
LY_1
390
0
  6
CENTER
 62
     7
100
AcDbLine
 10
0.0
 20
17.25
 30
0.0
 11
0.0
 21
-17.400002
 31
0.0
  0
LINE
  5
B3
100
AcDbEntity
  8
LY_1
390
0
  6
CENTER
 62
     7
100
AcDbLine
 10
5.706338
 20
1.854104
 30
0.0
 11
15.216903
 21
4.944274
 31
0.0
  0
LINE
  5
B4
100
AcDbEntity
  8
LY_1
390
0
  6
CONTINUOUS
 62
   254
100
AcDbLine
 10
-6.447486
 20
-2.725788
 30
0.0
 11
-14.306977
 21
-5.279492
 31
0.0
  0
LINE
  5
B5
100
AcDbEntity
  8
LY_1
390
0
  6
CONTINUOUS
 62
   254
100
AcDbLine
 10
-6.818302
 20
-1.584522
 30
0.0
 11
-14.677797
 21
-4.138227
 31
0.0
  0
LINE
  5
B6
100
AcDbEntity
  8
LY_1
390
0
  6
CENTER
 62
     7
100
AcDbLine
 10
3.526714
 20
4.854098
 30
0.0
 11
9.404566
 21
12.944268
 31
0.0
  0
LINE
  5
B7
100
AcDbEntity
  8
LY_1
390
0
  6
CENTER
 62
     7
100
AcDbLine
 10
-3.526713
 20
4.854105
 30
0.0
 11
-9.404566
 21
12.944275
 31
0.0
  0
LINE
  5
B8
100
AcDbEntity
  8
LY_1
390
0
  6
CENTER
 62
     7
100
AcDbLine
 10
-5.706342
 20
1.854105
 30
0.0
 11
-15.407624
 21
5.006242
 31
0.0
  0
LINE
  5
B9
100
AcDbEntity
  8
LY_1
390
0
  6
CENTER
 62
     7
100
AcDbLine
 10
-3.526709
 20
-4.854106
 30
0.0
 11
-9.404561
 21
-12.944274
 31
0.0
  0
LINE
  5
BA
100
AcDbEntity
  8
LY_1
390
0
  6
CENTER
 62
     7
100
AcDbLine
 10
3.52671
 20
-4.854099
 30
0.0
 11
9.404562
 21
-12.944269
 31
0.0
  0
LINE
  5
BB
100
AcDbEntity
  8
LY_1
390
0
  6
CONTINUOUS
 62
   254
100
AcDbLine
 10
12.1089
 20
3.93442
 30
0.0
 11
11.748787
 21
2.240221
 31
0.0
  0
LINE
  5
BC
100
AcDbEntity
  8
LY_1
390
0
  6
CONTINUOUS
 62
   254
100
AcDbLine
 10
12.108894
 20
3.93442
 30
0.0
 11
10.821732
 21
5.093387
 31
0.0
  0
LINE
  5
BD
100
AcDbEntity
  8
LY_1
390
0
  6
CONTINUOUS
 62
   254
100
AcDbLine
 10
10.821736
 20
5.093391
 30
0.0
 11
9.174459
 21
4.558158
 31
0.0
  0
LINE
  5
BE
100
AcDbEntity
  8
LY_1
390
0
  6
CONTINUOUS
 62
   254
100
AcDbLine
 10
8.814344
 20
2.863955
 30
0.0
 11
9.174457
 21
4.558153
 31
0.0
  0
LINE
  5
BF
100
AcDbEntity
  8
LY_1
390
0
  6
CONTINUOUS
 62
   254
100
AcDbLine
 10
8.814347
 20
2.863962
 30
0.0
 11
10.101509
 21
1.704995
 31
0.0
  0
LINE
  5
C0
100
AcDbEntity
  8
LY_1
390
0
  6
CONTINUOUS
 62
   254
100
AcDbLine
 10
11.748787
 20
2.240221
 30
0.0
 11
10.10151
 21
1.704989
 31
0.0
  0
LINE
  5
C1
100
AcDbEntity
  8
LY_1
390
0
  6
CONTINUOUS
 62
   254
100
AcDbLine
 10
0.000002
 20
12.732047
 30
0.0
 11
-1.499997
 21
11.866022
 31
0.0
  0
LINE
  5
C2
100
AcDbEntity
  8
LY_1
390
0
  6
CONTINUOUS
 62
   254
100
AcDbLine
 10
-1.5
 20
11.866028
 30
0.0
 11
-1.5
 21
10.13398
 31
0.0
  0
LINE
  5
C3
100
AcDbEntity
  8
LY_1
390
0
  6
CONTINUOUS
 62
   254
100
AcDbLine
 10
-0.000006
 20
9.267954
 30
0.0
 11
-1.500004
 21
10.133977
 31
0.0
  0
LINE
  5
C4
100
AcDbEntity
  8
LY_1
390
0
  6
CONTINUOUS
 62
   254
100
AcDbLine
 10
-0.000006
 20
9.267959
 30
0.0
 11
1.499994
 21
10.133983
 31
0.0
  0
LINE
  5
C5
100
AcDbEntity
  8
LY_1
390
0
  6
CONTINUOUS
 62
   254
100
AcDbLine
 10
-0.000005
 20
12.732054
 30
0.0
 11
1.499993
 21
11.866031
 31
0.0
  0
LINE
  5
C6
100
AcDbEntity
  8
LY_1
390
0
  6
CONTINUOUS
 62
   254
100
AcDbLine
 10
1.5
 20
11.866028
 30
0.0
 11
1.5
 21
10.13398
 31
0.0
  0
LINE
  5
C7
100
AcDbEntity
  8
LY_1
390
0
  6
CONTINUOUS
 62
   254
100
AcDbLine
 10
-12.108894
 20
3.934424
 30
0.0
 11
-11.74878
 21
2.240218
 31
0.0
  0
LINE
  5
C8
100
AcDbEntity
  8
LY_1
390
0
  6
CONTINUOUS
 62
   254
100
AcDbLine
 10
-11.748792
 20
2.240222
 30
0.0
 11
-10.101516
 21
1.70499
 31
0.0
  0
LINE
  5
C9
100
AcDbEntity
  8
LY_1
390
0
  6
CONTINUOUS
 62
   254
100
AcDbLine
 10
-8.814348
 20
2.863954
 30
0.0
 11
-10.101512
 21
1.704986
 31
0.0
  0
LINE
  5
CA
100
AcDbEntity
  8
LY_1
390
0
  6
CONTINUOUS
 62
   254
100
AcDbLine
 10
-8.81435
 20
2.863957
 30
0.0
 11
-9.174462
 21
4.558155
 31
0.0
  0
LINE
  5
CB
100
AcDbEntity
  8
LY_1
390
0
  6
CONTINUOUS
 62
   254
100
AcDbLine
 10
-12.108904
 20
3.93442
 30
0.0
 11
-10.821741
 21
5.093388
 31
0.0
  0
LINE
  5
CC
100
AcDbEntity
  8
LY_1
390
0
  6
CONTINUOUS
 62
   254
100
AcDbLine
 10
-10.821741
 20
5.093392
 30
0.0
 11
-9.174465
 21
4.55816
 31
0.0
  0
LINE
  5
CD
100
AcDbEntity
  8
LY_1
390
0
  6
CONTINUOUS
 62
   254
100
AcDbLine
 10
-7.483709
 20
-10.300436
 30
0.0
 11
-5.761149
 21
-10.481485
 31
0.0
  0
LINE
  5
CE
100
AcDbEntity
  8
LY_1
390
0
  6
CONTINUOUS
 62
   254
100
AcDbLine
 10
-5.761155
 20
-10.481495
 30
0.0
 11
-4.743081
 21
-9.080237
 31
0.0
  0
LINE
  5
CF
100
AcDbEntity
  8
LY_1
390
0
  6
CONTINUOUS
 62
   254
100
AcDbLine
 10
-5.447561
 20
-7.497932
 30
0.0
 11
-4.743073
 21
-9.080236
 31
0.0
  0
LINE
  5
D0
100
AcDbEntity
  8
LY_1
390
0
  6
CONTINUOUS
 62
   254
100
AcDbLine
 10
-5.447564
 20
-7.497935
 30
0.0
 11
-7.170124
 21
-7.316886
 31
0.0
  0
LINE
  5
D1
100
AcDbEntity
  8
LY_1
390
0
  6
CONTINUOUS
 62
   254
100
AcDbLine
 10
-7.483709
 20
-10.300447
 30
0.0
 11
-8.188197
 21
-8.718143
 31
0.0
  0
LINE
  5
D2
100
AcDbEntity
  8
LY_1
390
0
  6
CONTINUOUS
 62
   254
100
AcDbLine
 10
-8.188206
 20
-8.718139
 30
0.0
 11
-7.170132
 21
-7.316882
 31
0.0
  0
LINE
  5
D3
100
AcDbEntity
  8
LY_1
390
0
  6
CONTINUOUS
 62
   254
100
AcDbLine
 10
7.483704
 20
-10.300443
 30
0.0
 11
8.188194
 21
-8.718135
 31
0.0
  0
LINE
  5
D4
100
AcDbEntity
  8
LY_1
390
0
  6
CONTINUOUS
 62
   254
100
AcDbLine
 10
8.188201
 20
-8.718137
 30
0.0
 11
7.170128
 21
-7.31688
 31
0.0
  0
LINE
  5
D5
100
AcDbEntity
  8
LY_1
390
0
  6
CONTINUOUS
 62
   254
100
AcDbLine
 10
5.447565
 20
-7.497926
 30
0.0
 11
7.170128
 21
-7.316876
 31
0.0
  0
LINE
  5
D6
100
AcDbEntity
  8
LY_1
390
0
  6
CONTINUOUS
 62
   254
100
AcDbLine
 10
5.44757
 20
-7.497934
 30
0.0
 11
4.743082
 21
-9.080238
 31
0.0
  0
LINE
  5
D7
100
AcDbEntity
  8
LY_1
390
0
  6
CONTINUOUS
 62
   254
100
AcDbLine
 10
7.483715
 20
-10.300442
 30
0.0
 11
5.761151
 21
-10.481491
 31
0.0
  0
LINE
  5
D8
100
AcDbEntity
  8
LY_1
390
0
  6
CONTINUOUS
 62
   254
100
AcDbLine
 10
5.76115
 20
-10.481492
 30
0.0
 11
4.743077
 21
-9.080236
 31
0.0
  0
LINE
  5
D9
100
AcDbEntity
  8
LY_1
390
0
  6
CONTINUOUS
 62
   254
100
AcDbLine
 10
52.325001
 20
13.0
 30
0.0
 11
52.325001
 21
14.0
 31
0.0
  0
LINE
  5
DA
100
AcDbEntity
  8
LY_1
390
0
  6
CONTINUOUS
 62
   254
100
AcDbLine
 10
52.325001
 20
-8.374886
 30
0.0
 11
52.325001
 21
-14.0
 31
0.0
  0
LINE
  5
DB
100
AcDbEntity
  8
LY_1
390
0
  6
CONTINUOUS
 62
   254
100
AcDbLine
 10
64.325001
 20
-7.5
 30
0.0
 11
64.325001
 21
7.5
 31
0.0
  0
LINE
  5
DC
100
AcDbEntity
  8
LY_1
390
0
  6
CONTINUOUS
 62
   254
100
AcDbLine
 10
46.825001
 20
-7.0
 30
0.0
 11
64.325001
 21
-7.0
 31
0.0
  0
LINE
  5
DD
100
AcDbEntity
  8
LY_1
390
0
  6
CENTER
 62
     7
100
AcDbLine
 10
45.591286
 20
-11.0
 30
0.0
 11
53.215717
 21
-11.0
 31
0.0
  0
LINE
  5
DE
100
AcDbEntity
  8
LY_1
390
0
  6
CONTINUOUS
 62
   254
100
AcDbLine
 10
46.825001
 20
-9.379997
 30
0.0
 11
52.325001
 21
-9.379997
 31
0.0
  0
LINE
  5
DF
100
AcDbEntity
  8
LY_1
390
0
  6
CONTINUOUS
 62
   254
100
AcDbLine
 10
46.825001
 20
-12.620003
 30
0.0
 11
52.325001
 21
-12.620003
 31
0.0
  0
LINE
  5
E0
100
AcDbEntity
  8
LY_1
390
0
  6
CONTINUOUS
 62
     7
100
AcDbLine
 10
46.825001
 20
-9.0
 30
0.0
 11
52.325001
 21
-9.0
 31
0.0
  0
LINE
  5
E1
100
AcDbEntity
  8
LY_1
390
0
  6
CONTINUOUS
 62
     7
100
AcDbLine
 10
46.825001
 20
-13.0
 30
0.0
 11
52.325001
 21
-13.0
 31
0.0
  0
LINE
  5
E2
100
AcDbEntity
  8
LY_1
390
0
  6
CONTINUOUS
 62
   254
100
AcDbLine
 10
52.325001
 20
-8.374886
 30
0.0
 11
54.325001
 21
-8.374886
 31
0.0
  0
LINE
  5
E3
100
AcDbEntity
  8
LY_1
390
0
  6
CONTINUOUS
 62
   254
100
AcDbLine
 10
66.825001
 20
-7.281278
 30
0.0
 11
54.325002
 21
-8.374886
 31
0.0
  0
LINE
  5
E4
100
AcDbEntity
  8
LY_1
390
0
  6
CONTINUOUS
 62
   254
100
AcDbLine
 10
46.825001
 20
-15.25
 30
0.0
 11
49.325001
 21
-15.25
 31
0.0
  0
LINE
  5
E5
100
AcDbEntity
  8
LY_1
390
0
  6
CONTINUOUS
 62
   254
100
AcDbLine
 10
49.325001
 20
-14.0
 30
0.0
 11
52.325001
 21
-14.0
 31
0.0
  0
LINE
  5
E6
100
AcDbEntity
  8
LY_1
390
0
  6
CONTINUOUS
 62
   254
100
AcDbLine
 10
49.325001
 20
-15.25
 30
0.0
 11
49.325001
 21
-14.0
 31
0.0
  0
LINE
  5
E7
100
AcDbEntity
  8
LY_1
390
0
  6
CONTINUOUS
 62
   254
100
AcDbLine
 10
54.825001
 20
-14.0
 30
0.0
 11
54.825001
 21
-8.331146
 31
0.0
  0
LINE
  5
E8
100
AcDbEntity
  8
LY_1
390
0
  6
CONTINUOUS
 62
   254
100
AcDbLine
 10
54.825001
 20
-14.0
 30
0.0
 11
66.825001
 21
-14.0
 31
0.0
  0
LINE
  5
E9
100
AcDbEntity
  8
LY_1
390
0
  6
CONTINUOUS
 62
   254
100
AcDbLine
 10
46.825001
 20
-15.25
 30
0.0
 11
46.825001
 21
15.25
 31
0.0
  0
LINE
  5
EA
100
AcDbEntity
  8
LY_1
390
0
  6
CONTINUOUS
 62
   254
100
AcDbLine
 10
52.325001
 20
8.374886
 30
0.0
 11
52.325001
 21
9.0
 31
0.0
  0
LINE
  5
EB
100
AcDbEntity
  8
LY_1
390
0
  6
CONTINUOUS
 62
   254
100
AcDbLine
 10
46.825001
 20
7.0
 30
0.0
 11
64.325001
 21
7.0
 31
0.0
  0
LINE
  5
EC
100
AcDbEntity
  8
LY_1
390
0
  6
CONTINUOUS
 62
   254
100
AcDbLine
 10
54.825001
 20
14.0
 30
0.0
 11
54.825001
 21
12.621094
 31
0.0
  0
LINE
  5
ED
100
AcDbEntity
  8
LY_1
390
0
  6
CONTINUOUS
 62
   254
100
AcDbLine
 10
66.825001
 20
-14.0
 30
0.0
 11
66.825001
 21
14.0
 31
0.0
  0
LINE
  5
EE
100
AcDbEntity
  8
LY_1
390
0
  6
CONTINUOUS
 62
   254
100
AcDbLine
 10
54.825001
 20
14.0
 30
0.0
 11
66.825001
 21
14.0
 31
0.0
  0
LINE
  5
EF
100
AcDbEntity
  8
LY_1
390
0
  6
CONTINUOUS
 62
   254
100
AcDbLine
 10
49.325001
 20
15.25
 30
0.0
 11
49.325001
 21
14.0
 31
0.0
  0
LINE
  5
F0
100
AcDbEntity
  8
LY_1
390
0
  6
CONTINUOUS
 62
   254
100
AcDbLine
 10
52.325001
 20
8.374886
 30
0.0
 11
54.325001
 21
8.374886
 31
0.0
  0
LINE
  5
F1
100
AcDbEntity
  8
LY_1
390
0
  6
CONTINUOUS
 62
   254
100
AcDbLine
 10
66.825001
 20
7.281281
 30
0.0
 11
54.325002
 21
8.37489
 31
0.0
  0
LINE
  5
F2
100
AcDbEntity
  8
LY_1
390
0
  6
CONTINUOUS
 62
   254
100
AcDbLine
 10
46.825001
 20
15.25
 30
0.0
 11
49.325001
 21
15.25
 31
0.0
  0
LINE
  5
F3
100
AcDbEntity
  8
LY_1
390
0
  6
CONTINUOUS
 62
   254
100
AcDbLine
 10
49.325001
 20
14.0
 30
0.0
 11
52.325001
 21
14.0
 31
0.0
  0
LINE
  5
F4
100
AcDbEntity
  8
LY_1
390
0
  6
CONTINUOUS
 62
   254
100
AcDbLine
 10
42.824396
 20
13.980787
 30
0.0
 11
43.124398
 21
14.500407
 31
0.0
  0
LINE
  5
F5
100
AcDbEntity
  8
LY_1
390
0
  6
CONTINUOUS
 62
   254
100
AcDbLine
 10
42.825001
 20
13.980469
 30
0.0
 11
42.825001
 21
8.019531
 31
0.0
  0
LINE
  5
F6
100
AcDbEntity
  8
LY_1
390
0
  6
CONTINUOUS
 62
   254
100
AcDbLine
 10
43.12505
 20
14.5
 30
0.0
 11
43.12505
 21
7.5
 31
0.0
  0
LINE
  5
F7
100
AcDbEntity
  8
LY_1
390
0
  6
CONTINUOUS
 62
   254
100
AcDbLine
 10
42.824854
 20
8.019899
 30
0.0
 11
43.124902
 21
7.500199
 31
0.0
  0
LINE
  5
F8
100
AcDbEntity
  8
LY_1
390
0
  6
CONTINUOUS
 62
   254
100
AcDbLine
 10
46.825001
 20
7.5
 30
0.0
 11
43.12505
 21
7.5
 31
0.0
  0
LINE
  5
F9
100
AcDbEntity
  8
LY_1
390
0
  6
CONTINUOUS
 62
   254
100
AcDbLine
 10
46.825001
 20
14.5
 30
0.0
 11
43.12505
 21
14.5
 31
0.0
  0
LINE
  5
FA
100
AcDbEntity
  8
LY_1
390
0
  6
CONTINUOUS
 62
   254
100
AcDbLine
 10
66.825001
 20
13.0
 30
0.0
 11
47.024952
 21
13.0
 31
0.0
  0
LINE
  5
FB
100
AcDbEntity
  8
LY_1
390
0
  6
CONTINUOUS
 62
     7
100
AcDbLine
 10
48.825376
 20
12.620902
 30
0.0
 11
48.067646
 21
12.999767
 31
0.0
  0
LINE
  5
FC
100
AcDbEntity
  8
LY_1
390
0
  6
CONTINUOUS
 62
   254
100
AcDbLine
 10
48.825001
 20
13.0
 30
0.0
 11
48.825001
 21
9.0
 31
0.0
  0
LINE
  5
FD
100
AcDbEntity
  8
LY_1
390
0
  6
CONTINUOUS
 62
     7
100
AcDbLine
 10
48.825001
 20
12.621094
 30
0.0
 11
66.825001
 21
12.621094
 31
0.0
  0
LINE
  5
FE
100
AcDbEntity
  8
LY_1
390
0
  6
CONTINUOUS
 62
     7
100
AcDbLine
 10
48.825001
 20
9.378906
 30
0.0
 11
66.825001
 21
9.378906
 31
0.0
  0
LINE
  5
FF
100
AcDbEntity
  8
LY_1
390
0
  6
CONTINUOUS
 62
     7
100
AcDbLine
 10
48.824984
 20
9.379064
 30
0.0
 11
48.067213
 21
9.000179
 31
0.0
  0
LINE
  5
100
100
AcDbEntity
  8
LY_1
390
0
  6
CONTINUOUS
 62
   254
100
AcDbLine
 10
66.825001
 20
9.0
 30
0.0
 11
47.024952
 21
9.0
 31
0.0
  0
LINE
  5
101
100
AcDbEntity
  8
LY_1
390
0
  6
CONTINUOUS
 62
   254
100
AcDbLine
 10
60.024952
 20
13.0
 30
0.0
 11
60.024952
 21
9.0
 31
0.0
  0
LINE
  5
102
100
AcDbEntity
  8
LY_1
390
0
  6
CONTINUOUS
 62
   254
100
AcDbLine
 10
60.025913
 20
12.999119
 30
0.0
 11
60.826068
 21
12.198962
 31
0.0
  0
LINE
  5
103
100
AcDbEntity
  8
LY_1
390
0
  6
CONTINUOUS
 62
   254
100
AcDbLine
 10
60.825001
 20
12.199951
 30
0.0
 11
60.825001
 21
9.800049
 31
0.0
  0
LINE
  5
104
100
AcDbEntity
  8
LY_1
390
0
  6
CONTINUOUS
 62
   254
100
AcDbLine
 10
60.025792
 20
8.999209
 30
0.0
 11
60.825797
 21
9.799215
 31
0.0
  0
LINE
  5
105
100
AcDbEntity
  8
LY_1
390
0
  6
CONTINUOUS
 62
   254
100
AcDbLine
 10
54.825001
 20
9.378906
 30
0.0
 11
54.825001
 21
8.331146
 31
0.0
  0
CIRCLE
  5
106
100
AcDbEntity
  8
LY_1
390
0
  6
CONTINUOUS
 62
     7
100
AcDbCircle
 10
-6.465637
 20
8.899185
 30
0.0
 40
2.0
  0
CIRCLE
  5
107
100
AcDbEntity
  8
LY_1
390
0
  6
CONTINUOUS
 62
   254
100
AcDbCircle
 10
-6.465637
 20
8.899185
 30
0.0
 40
1.621125
  0
CIRCLE
  5
108
100
AcDbEntity
  8
LY_1
390
0
  6
CONTINUOUS
 62
     7
100
AcDbCircle
 10
6.465637
 20
8.899185
 30
0.0
 40
2.0
  0
ARC
  5
109
100
AcDbEntity
  8
LY_1
390
0
  6
CONTINUOUS
 62
   254
100
AcDbCircle
 10
0.0
 20
0.0
 30
0.0
 40
15.25
100
AcDbArc
 50
200.254839
 51
0.0
  0
ARC
  5
10A
100
AcDbEntity
  8
LY_1
390
0
  6
CONTINUOUS
 62
   254
100
AcDbCircle
 10
0.0
 20
0.0
 30
0.0
 40
7.0
100
AcDbArc
 50
202.917083
 51
0.0
  0
CIRCLE
  5
10B
100
AcDbEntity
  8
LY_1
390
0
  6
CENTER
 62
     7
100
AcDbCircle
 10
0.0
 20
0.0
 30
0.0
 40
11.0
  0
CIRCLE
  5
10C
100
AcDbEntity
  8
LY_1
390
0
  6
CONTINUOUS
 62
     7
100
AcDbCircle
 10
0.0
 20
-11.0
 30
0.0
 40
2.0
  0
CIRCLE
  5
10D
100
AcDbEntity
  8
LY_1
390
0
  6
CONTINUOUS
 62
   254
100
AcDbCircle
 10
0.0
 20
-11.0
 30
0.0
 40
1.621125
  0
ARC
  5
10E
100
AcDbEntity
  8
LY_1
390
0
  6
CONTINUOUS
 62
   254
100
AcDbCircle
 10
0.0
 20
0.0
 30
0.0
 40
15.25
100
AcDbArc
 50
0.0
 51
195.745162
  0
ARC
  5
10F
100
AcDbEntity
  8
LY_1
390
0
  6
CONTINUOUS
 62
   254
100
AcDbCircle
 10
0.0
 20
0.0
 30
0.0
 40
7.0
100
AcDbArc
 50
0.0
 51
193.082905
  0
CIRCLE
  5
110
100
AcDbEntity
  8
LY_1
390
0
  6
CONTINUOUS
 62
   254
100
AcDbCircle
 10
6.465637
 20
8.899185
 30
0.0
 40
1.621125
  0
CIRCLE
  5
111
100
AcDbEntity
  8
LY_1
390
0
  6
CONTINUOUS
 62
   254
100
AcDbCircle
 10
10.46162
 20
3.399185
 30
0.0
 40
2.980384
  0
CIRCLE
  5
112
100
AcDbEntity
  8
LY_1
390
0
  6
CONTINUOUS
 62
   254
100
AcDbCircle
 10
10.46162
 20
3.399185
 30
0.0
 40
3.5
  0
CIRCLE
  5
113
100
AcDbEntity
  8
LY_1
390
0
  6
CONTINUOUS
 62
   254
100
AcDbCircle
 10
0.0
 20
11.0
 30
0.0
 40
3.5
  0
CIRCLE
  5
114
100
AcDbEntity
  8
LY_1
390
0
  6
CONTINUOUS
 62
   254
100
AcDbCircle
 10
0.0
 20
11.0
 30
0.0
 40
2.980384
  0
CIRCLE
  5
115
100
AcDbEntity
  8
LY_1
390
0
  6
CONTINUOUS
 62
   254
100
AcDbCircle
 10
-10.461624
 20
3.399185
 30
0.0
 40
3.5
  0
CIRCLE
  5
116
100
AcDbEntity
  8
LY_1
390
0
  6
CONTINUOUS
 62
   254
100
AcDbCircle
 10
-10.461624
 20
3.399185
 30
0.0
 40
2.980384
  0
CIRCLE
  5
117
100
AcDbEntity
  8
LY_1
390
0
  6
CONTINUOUS
 62
   254
100
AcDbCircle
 10
-6.465637
 20
-8.899185
 30
0.0
 40
3.5
  0
CIRCLE
  5
118
100
AcDbEntity
  8
LY_1
390
0
  6
CONTINUOUS
 62
   254
100
AcDbCircle
 10
-6.465637
 20
-8.899185
 30
0.0
 40
2.980384
  0
CIRCLE
  5
119
100
AcDbEntity
  8
LY_1
390
0
  6
CONTINUOUS
 62
   254
100
AcDbCircle
 10
6.465637
 20
-8.899185
 30
0.0
 40
3.5
  0
CIRCLE
  5
11A
100
AcDbEntity
  8
LY_1
390
0
  6
CONTINUOUS
 62
   254
100
AcDbCircle
 10
6.465637
 20
-8.899185
 30
0.0
 40
2.980384
  0
ARC
  5
11B
100
AcDbEntity
  8
LY_1
390
0
  6
CONTINUOUS
 62
   254
100
AcDbCircle
 10
47.024952
 20
13.199951
 30
0.0
 40
0.2
100
AcDbArc
 50
179.999745
 51
270.000001
  0
ARC
  5
11C
100
AcDbEntity
  8
LY_1
390
0
  6
CONTINUOUS
 62
   254
100
AcDbCircle
 10
47.024952
 20
8.800049
 30
0.0
 40
0.199999
100
AcDbArc
 50
89.999982
 51
180.000237
  0
ARC
  5
11D
100
AcDbEntity
  8
LY_1
390
0
  6
CONTINUOUS
 62
   254
100
AcDbCircle
 10
0.0
 20
0.0
 30
0.0
 40
14.0
100
AcDbArc
 50
195.543716
 51
200.456275
  0
ARC
  5
11E
100
AcDbEntity
  8
LY_1
390
0
  6
CONTINUOUS
 62
   254
100
AcDbCircle
 10
0.0
 20
0.0
 30
0.0
 40
7.28128
100
AcDbArc
 50
193.273293
 51
202.726698
  0
ARC
  5
11F
100
AcDbEntity
  8
LY_1
390
0
  6
CONTINUOUS
 62
   254
100
AcDbCircle
 10
0.0
 20
0.0
 30
0.0
 40
8.331144
100
AcDbArc
 50
193.870046
 51
202.129945
  0
LINE
  5
120
100
AcDbEntity
  8
LY_1
390
0
  6
CENTER
 62
     7
100
AcDbLine
 10
41.911591
 20
11.0
 30
0.0
 11
69.684774
 21
11.0
 31
0.0
  0
LINE
  5
121
100
AcDbEntity
  8
LY_1
390
0
  6
CENTER
 62
     7
100
AcDbLine
 10
44.825001
 20
0.0
 30
0.0
 11
68.825001
 21
0.0
 31
0.0
  0
POINT
  5
122
100
AcDbEntity
  8
LY_1
390
0
  6
CONTINUOUS
 62
    20
100
AcDbPoint
 10
0.0
 20
0.0
 30
0.0
  0
MTEXT
  5
123
100
AcDbEntity
  8
LY_1
390
0
  6
CONTINUOUS
 62
     7
100
AcDbMText
 10
-22.003455
 20
50.438425
 30
0.0
 40
7.0
 41
0.0
 71
     1
 72
     1
  1
\W0.833;\A1;ＰＬ０１４Ｘ０２８ＫＥ－ＬＰ
 73
     1
 44
0.6
  0
MTEXT
  5
124
100
AcDbEntity
  8
LY_1
390
0
  6
CONTINUOUS
 62
     7
100
AcDbMText
 10
2.496545
 20
69.21781
 30
0.0
 40
7.0
 41
0.0
 71
     1
 72
     1
  1
\W0.833;\A1;ＴＳＵＢＡＫＩ
 73
     1
 44
0.6
  0
MTEXT
  5
125
100
AcDbEntity
  8
LY_1
390
0
  6
CONTINUOUS
 62
     7
100
AcDbMText
 10
-8.003455
 20
59.915821
 30
0.0
 40
7.0
 41
0.0
 71
     1
 72
     1
  1
\W0.833;\A1;ＰＯＷＥＲ　ＬＯＣＫ
 73
     1
 44
0.6
  0
ENDSEC
  0
SECTION
  2
OBJECTS
  0
DICTIONARY
  5
19
100
AcDbDictionary
280
     0
281
     1
  3
ACAD_GROUP
350
1A
  3
ACAD_MLINESTYLE
350
1B
  3
ACAD_LAYOUT
350
1E
  3
ACAD_PLOTSETTINGS
350
22
  3
ACAD_PLOTSTYLENAME
350
1F
  0
DICTIONARY
  5
1A
102
{ACAD_REACTORS
330
19
102
}
100
AcDbDictionary
280
     0
281
     1
  0
DICTIONARY
  5
1B
102
{ACAD_REACTORS
330
19
102
}
100
AcDbDictionary
280
     0
281
     1
  3
Standard
350
1C
  0
MLINESTYLE
  5
1C
102
{ACAD_REACTORS
330
1B
102
}
100
AcDbMlineStyle
  2
Standard
 70
     0
  3

 62
     0
 51
90.0
 52
90.0
 71
     2
 49
0.5
 62
   256
  6
ByLayer
 49
-0.5
 62
   256
  6
ByLayer
  0
ACDBDICTIONARYWDFLT
  5
1F
102
{ACAD_REACTORS
330
19
102
}
100
AcDbDictionary
281
     1
  3
Normal
350
1D
100
AcDbDictionaryWithDefault
340
1D
  0
ACDBPLACEHOLDER
  5
1D
102
{ACAD_REACTORS
330
1F
102
}
  0
LAYOUT
  5
20
102
{ACAD_REACTORS
330
1E
102
}
100
AcDbPlotSettings
  1

  2

  4

  6

 40
0.0
 41
0.0
 42
0.0
 43
0.0
 44
0.0
 45
0.0
 46
0.0
 47
0.0
 48
0.0
 49
0.0
140
0.0
141
0.0
142
1.0
143
1.0
 70
  1024
 72
     0
 73
     0
 74
     0
  7

 75
     0
147
1.0
148
0.0
149
0.0
100
AcDbLayout
  1
Model
 70
     0
 71
     0
 10
0.0
 20
0.0
 11
0.0
 21
0.0
 12
0.0
 22
0.0
 32
0.0
 14
0.0
 24
0.0
 34
0.0
 15
0.0
 25
0.0
 35
0.0
146
0.0
 13
0.0
 23
0.0
 33
0.0
 16
0.0
 26
0.0
 36
0.0
 17
0.0
 27
0.0
 37
0.0
 76
     0
330
A
331
0
345
0
346
0
  0
LAYOUT
  5
21
102
{ACAD_REACTORS
330
1E
102
}
100
AcDbPlotSettings
  1

  2

  4

  6

 40
0.0
 41
0.0
 42
0.0
 43
0.0
 44
0.0
 45
0.0
 46
0.0
 47
0.0
 48
0.0
 49
0.0
140
0.0
141
0.0
142
1.0
143
1.0
 70
     0
 72
     0
 73
     0
 74
     0
  7

 75
     0
147
1.0
148
0.0
149
0.0
100
AcDbLayout
  1
Layout1
 70
     0
 71
     0
 10
0.0
 20
0.0
 11
0.0
 21
0.0
 12
0.0
 22
0.0
 32
0.0
 14
0.0
 24
0.0
 34
0.0
 15
0.0
 25
0.0
 35
0.0
146
0.0
 13
0.0
 23
0.0
 33
0.0
 16
0.0
 26
0.0
 36
0.0
 17
0.0
 27
0.0
 37
0.0
 76
     0
330
B
331
0
345
0
346
0
  0
DICTIONARY
  5
1E
102
{ACAD_REACTORS
330
19
102
}
100
AcDbDictionary
280
     0
281
     1
  3
Layout1
350
21
  3
Model
350
20
  0
DICTIONARY
  5
22
102
{ACAD_REACTORS
330
19
102
}
100
AcDbDictionary
280
     0
281
     1
  0
ENDSEC
  0
EOF
