  0
SECTION
  2
HEADER
  9
$ACADVER
  1
AC1014
  9
$ACADMAINTVER
 70
         0
  9
$DWGCODEPAGE
  3
ANSI_932
  9
$INSBASE
 10
0.0
 20
0.0
 30
0.0
  9
$EXTMIN
 10
-81.712
 20
-104.0
 30
0.0
  9
$EXTMAX
 10
120.7795659828
 20
56.97234187
 30
0.0
  9
$LIMMIN
 10
-81.712
 20
-104.0
  9
$LIMMAX
 10
120.7795659828
 20
56.97234187
  9
$ORTHOMODE
 70
         0
  9
$REGENMODE
 70
         1
  9
$FILLMODE
 70
         1
  9
$QTEXTMODE
 70
         0
  9
$MIRRTEXT
 70
         1
  9
$DRAGMODE
 70
         2
  9
$LTSCALE
 40
1.0
  9
$OSMODE
 70
         0
  9
$ATTMODE
 70
         1
  9
$TEXTSIZE
 40
3.2000000477
  9
$TRACEWID
 40
0.05
  9
$TEXTSTYLE
  7
MX_NOTE_STANDARD
  9
$CLAYER
  8
0
  9
$CELTYPE
  6
CONTINUOUS
  9
$CECOLOR
 62
       256
  9
$CELTSCALE
 40
1.0
  9
$DELOBJ
 70
         1
  9
$DISPSILH
 70
         0
  9
$DIMSCALE
 40
1.0
  9
$DIMASZ
 40
2.5
  9
$DIMEXO
 40
0.0
  9
$DIMDLI
 40
3.75
  9
$DIMRND
 40
0.0
  9
$DIMDLE
 40
0.0
  9
$DIMEXE
 40
2.5
  9
$DIMTP
 40
0.0
  9
$DIMTM
 40
0.0
  9
$DIMTXT
 40
3.2000000477
  9
$DIMCEN
 40
2.5
  9
$DIMTSZ
 40
0.0
  9
$DIMTOL
 70
         0
  9
$DIMLIM
 70
         0
  9
$DIMTIH
 70
         0
  9
$DIMTOH
 70
         0
  9
$DIMSE1
 70
         0
  9
$DIMSE2
 70
         0
  9
$DIMTAD
 70
         1
  9
$DIMZIN
 70
         8
  9
$DIMBLK
  1

  9
$DIMASO
 70
         1
  9
$DIMSHO
 70
         1
  9
$DIMPOST
  1

  9
$DIMAPOST
  1

  9
$DIMALT
 70
         0
  9
$DIMALTD
 70
         4
  9
$DIMALTF
 40
0.0393700787
  9
$DIMLFAC
 40
1.0
  9
$DIMTOFL
 70
         1
  9
$DIMTVP
 40
0.0
  9
$DIMTIX
 70
         0
  9
$DIMSOXD
 70
         0
  9
$DIMSAH
 70
         1
  9
$DIMBLK1
  1
_OPEN30
  9
$DIMBLK2
  1
_OPEN30
  9
$DIMSTYLE
  2
MXDIMSTYLE
  9
$DIMCLRD
 70
         0
  9
$DIMCLRE
 70
         0
  9
$DIMCLRT
 70
         0
  9
$DIMTFAC
 40
1.0
  9
$DIMGAP
 40
1.0
  9
$DIMJUST
 70
         0
  9
$DIMSD1
 70
         0
  9
$DIMSD2
 70
         0
  9
$DIMTOLJ
 70
         0
  9
$DIMTZIN
 70
         0
  9
$DIMALTZ
 70
         0
  9
$DIMALTTZ
 70
         0
  9
$DIMFIT
 70
         3
  9
$DIMUPT
 70
         0
  9
$DIMUNIT
 70
         2
  9
$DIMDEC
 70
         2
  9
$DIMTDEC
 70
         2
  9
$DIMALTU
 70
         2
  9
$DIMALTTD
 70
         4
  9
$DIMTXSTY
  7
MX_NOTE_STANDARD
  9
$DIMAUNIT
 70
         0
  9
$LUNITS
 70
         2
  9
$LUPREC
 70
         4
  9
$SKETCHINC
 40
0.1
  9
$FILLETRAD
 40
0.0
  9
$AUNITS
 70
         0
  9
$AUPREC
 70
         0
  9
$MENU
  1
acad
  9
$ELEVATION
 40
0.0
  9
$PELEVATION
 40
0.0
  9
$THICKNESS
 40
0.0
  9
$LIMCHECK
 70
         0
  9
$BLIPMODE
 70
         1
  9
$CHAMFERA
 40
0.0
  9
$CHAMFERB
 40
0.0
  9
$CHAMFERC
 40
0.0
  9
$CHAMFERD
 40
0.0
  9
$SKPOLY
 70
         0
  9
$TDCREATE
 40
2456603.419097222
  9
$TDUPDATE
 40
2456603.419097222
  9
$TDINDWG
 40
0.0000000000
  9
$TDUSRTIMER
 40
0.0000000000
  9
$USRTIMER
 70
         1
  9
$ANGBASE
 50
0.0
  9
$ANGDIR
 70
         0
  9
$PDMODE
 70
         0
  9
$PDSIZE
 40
0.0
  9
$PLINEWID
 40
0.0
  9
$COORDS
 70
         1
  9
$SPLFRAME
 70
         0
  9
$SPLINETYPE
 70
         6
  9
$SPLINESEGS
 70
         8
  9
$ATTDIA
 70
         0
  9
$ATTREQ
 70
         1
  9
$HANDLING
 70
         1
  9
$HANDSEED
  5
115
  9
$SURFTAB1
 70
         6
  9
$SURFTAB2
 70
         6
  9
$SURFTYPE
 70
         6
  9
$SURFU
 70
         6
  9
$SURFV
 70
         6
  9
$UCSNAME
  2

  9
$UCSORG
 10
0.0
 20
0.0
 30
0.0
  9
$UCSXDIR
 10
1.0
 20
0.0
 30
0.0
  9
$UCSYDIR
 10
0.0
 20
1.0
 30
0.0
  9
$PUCSNAME
  2

  9
$PUCSORG
 10
0.0
 20
0.0
 30
0.0
  9
$PUCSXDIR
 10
1.0
 20
0.0
 30
0.0
  9
$PUCSYDIR
 10
0.0
 20
1.0
 30
0.0
  9
$USERI1
 70
         0
  9
$USERI2
 70
         0
  9
$USERI3
 70
         0
  9
$USERI4
 70
         0
  9
$USERI5
 70
         0
  9
$USERR1
 40
0.0
  9
$USERR2
 40
0.0
  9
$USERR3
 40
0.0
  9
$USERR4
 40
0.0
  9
$USERR5
 40
0.0
  9
$WORLDVIEW
 70
         1
  9
$SHADEDGE
 70
         3
  9
$SHADEDIF
 70
        70
  9
$TILEMODE
 70
         1
  9
$MAXACTVP
 70
        16
  9
$PINSBASE
 10
0.0
 20
0.0
 30
0.0
  9
$PLIMCHECK
 70
         0
  9
$PEXTMIN
 10
1.0000000000E+20
 20
1.0000000000E+20
 30
1.0000000000E+20
  9
$PEXTMAX
 10
-1.0000000000E+20
 20
-1.0000000000E+20
 30
-1.0000000000E+20
  9
$PLIMMIN
 10
0.0
 20
0.0
  9
$PLIMMAX
 10
12.0
 20
9.0
  9
$UNITMODE
 70
         0
  9
$VISRETAIN
 70
         0
  9
$PLINEGEN
 70
         1
  9
$PSLTSCALE
 70
         0
  9
$TREEDEPTH
 70
      3020
  9
$PICKSTYLE
 70
         1
  9
$CMLSTYLE
  2
Standard
  9
$CMLJUST
 70
         0
  9
$CMLSCALE
 40
1.0
  9
$PROXYGRAPHICS
 70
         0
  9
$MEASUREMENT
 70
         1
  0
ENDSEC
  0
SECTION
  2
CLASSES
  0
CLASS
  1
LWPOLYLINE
  2
AcDbPolyline
  3
"AutoCAD"
 90
        0
280
         0
281
         1
  0
CLASS
  1
IMAGE
  2
AcDbRasterImage
  3
ISM
 90
      127
280
         0
281
         1
  0
CLASS
  1
OLE2FRAME
  2
AcDbOle2Frame
  3
""
 90
        0
280
         0
281
         1
  0
CLASS
  1
HATCH
  2
AcDbHatch
  3
"ACAD_SEDONA"
 90
        0
280
         0
281
         1
  0
CLASS
  1
DICTIONARYVAR
  2
AcDbDictionaryVar
  3
"AutoCAD"
 90
        0
280
         0
281
         0
  0
CLASS
  1
RASTERVARIABLES
  2
AcDbRasterVariables
  3
ISM
 90
        0
280
         0
281
         0
  0
CLASS
  1
IMAGEDEF
  2
AcDbRasterImageDef
  3
ISM
 90
        0
280
         0
281
         0
  0
CLASS
  1
IMAGEDEF_REACTOR
  2
AcDbRasterImageDefReactor
  3
ISM
 90
        1
280
         0
281
         0
  0
CLASS
  1
IDBUFFER
  2
AcDbIdBuffer
  3
"Acad"
 90
        0
280
         0
281
         0
  0
CLASS
  1
SPATIAL_FILTER
  2
AcDbSpatialFilter
  3
"Acad"
 90
        0
280
         0
281
         0
  0
CLASS
  1
XRECORD
  2
AcDbXrecord
  3
"<Built In>"
 90
        0
280
         0
281
         0
  0
CLASS
  1
SORTENTSTABLE
  2
AcDbSortentsTable
  3
"AutoCAD"
 90
        0
280
         0
281
         0
  0
CLASS
  1
LAYER_INDEX
  2
AcDbLayerIndex
  3
"Acad"
 90
        0
280
         0
281
         0
  0
CLASS
  1
SPATIAL_INDEX
  2
AcDbSpatialIndex
  3
"Acad"
 90
        0
280
         0
281
         0
  0
CLASS
  1
OBJECT_PTR
  2
CAseDLPNTableRecord
  3
"ASE-LPNTableRecord"
 90
        1
280
         0
281
         0
  0
CLASS
  1
LAYOUT
  2
AcDbLayout
  3
"AutoCAD 2000"
 90
        0
280
         0
281
         0
  0
CLASS
  1
PLOTSETTINGS
  2
AcDbPlotSettings
  3
"AutoCAD 2000"
 90
        0
280
         0
281
         0
  0
CLASS
  1
ACDBDICTIONARYWDFLT
  2
AcDbDictionaryWithDefault
  3
"AutoCAD 2000"
 90
        0
280
         0
281
         0
  0
CLASS
  1
ACDBPLACEHOLDER
  2
AcDbPlaceHolder
  3
"AutoCAD 2000"
 90
        0
280
         0
281
         0
  0
ENDSEC
  0
SECTION
  2
TABLES
  0
TABLE
  2
VPORT
  5
7
100
AcDbSymbolTable
 70
         1
  0
VPORT
  5
15
100
AcDbSymbolTableRecord
100
AcDbViewportTableRecord
  2
*ACTIVE
 70
         0
 10
0.0
 20
0.0
 11
1.0
 21
1.0
 12
19.5337829914
 22
-23.513829065
 13
0.0
 23
0.0
 14
1.0
 24
1.0
 15
0.0
 25
0.0
 16
0.0
 26
0.0
 36
1.0
 17
0.0
 27
0.0
 37
0.0
 40
162.5820652887
 41
1.7320508076
 42
50.0
 43
0.0
 44
0.0
 50
0.0
 51
0.0
 71
         0
 72
       100
 73
         1
 74
         1
 75
         0
 76
         0
 77
         0
 78
         0
  0
ENDTAB
  0
TABLE
  2
LTYPE
  5
4
100
AcDbSymbolTable
 70
         4
  0
LTYPE
  5
11
100
AcDbSymbolTableRecord
100
AcDbLinetypeTableRecord
  2
BYBLOCK
 70
        64
  3

 72
        65
 73
         0
 40
0.0
  0
LTYPE
  5
12
100
AcDbSymbolTableRecord
100
AcDbLinetypeTableRecord
  2
BYLAYER
 70
        64
  3

 72
        65
 73
         0
 40
0.0
  0
LTYPE
  5
13
100
AcDbSymbolTableRecord
100
AcDbLinetypeTableRecord
  2
CONTINUOUS
 70
        64
  3
Solid line
 72
        65
 73
         0
 40
0.0
  0
LTYPE
  5
2B
100
AcDbSymbolTableRecord
100
AcDbLinetypeTableRecord
  2
CENTER
 70
        64
  3
Center ____ _ ____ _ ____ _ ____ _ ____ _ ____
 72
        65
 73
         4
 40
50.8
 49
31.75
 74
         0
 49
-6.35
 74
         0
 49
6.35
 74
         0
 49
-6.35
 74
         0
  0
ENDTAB
  0
TABLE
  2
LAYER
  5
2
100
AcDbSymbolTable
 70
         3
  0
LAYER
  5
14
100
AcDbSymbolTableRecord
100
AcDbLayerTableRecord
  2
0
 70
         0
 62
         7
  6
CONTINUOUS
  0
LAYER
  5
1D
100
AcDbSymbolTableRecord
100
AcDbLayerTableRecord
  2
PV
 70
         0
 62
         3
  6
CONTINUOUS
  0
LAYER
  5
1E
100
AcDbSymbolTableRecord
100
AcDbLayerTableRecord
  2
DEFPOINTS
 70
         0
 62
         7
  6
CONTINUOUS
  0
ENDTAB
  0
TABLE
  2
STYLE
  5
3
100
AcDbSymbolTable
 70
         4
  0
STYLE
  5
17
100
AcDbSymbolTableRecord
100
AcDbTextStyleTableRecord
  2
MX_NOTE_STANDARD
 70
         0
 40
0.0
 41
1.0
 50
0.0
 71
         0
 42
3.2000000477
  3
txt.shx
  4
extfont.shx
  0
STYLE
  5
A7
100
AcDbSymbolTableRecord
100
AcDbTextStyleTableRecord
  2
MX_DIMTXSTY_2
 70
         0
 40
0.0
 41
1.1
 50
0.0
 71
         0
 42
3.2000000477
  3
txt.shx
  4
extfont.shx
  0
STYLE
  5
C4
100
AcDbSymbolTableRecord
100
AcDbTextStyleTableRecord
  2
MX_DIMTXSTY_3
 70
         0
 40
0.0
 41
1.25
 50
0.0
 71
         0
 42
3.2000000477
  3
txt.shx
  4
extfont.shx
  0
STYLE
  5
F0
100
AcDbSymbolTableRecord
100
AcDbTextStyleTableRecord
  2
MX_DIMTXSTY_4
 70
         0
 40
0.0
 41
0.85
 50
0.0
 71
         0
 42
3.2000000477
  3
txt.shx
  4
extfont.shx
  0
ENDTAB
  0
TABLE
  2
VIEW
  5
5
100
AcDbSymbolTable
 70
         0
  0
ENDTAB
  0
TABLE
  2
UCS
  5
6
100
AcDbSymbolTable
 70
         0
  0
ENDTAB
  0
TABLE
  2
APPID
  5
8
100
AcDbSymbolTable
 70
         1
  0
APPID
  5
16
100
AcDbSymbolTableRecord
100
AcDbRegAppTableRecord
  2
ACAD
 70
         0
  0
ENDTAB
  0
TABLE
  2
DIMSTYLE
  5
9
100
AcDbSymbolTable
 70
         1
  0
DIMSTYLE
105
18
100
AcDbSymbolTableRecord
100
AcDbDimStyleTableRecord
  2
MXDIMSTYLE
 70
         0
  3

  4

  5

  6
_OPEN30
  7
_OPEN30
 40
1.0
 41
2.5
 42
0.0
 43
3.75
 44
2.5
 45
0.0
 46
0.0
 47
0.0
 48
0.0
 71
         0
 72
         0
 73
         0
 74
         0
 75
         0
 76
         0
 77
         1
 78
         8
140
3.2000000477
141
2.5
142
0.0
143
0.0393700787
144
1.0
145
0.0
146
1.0
147
1.0
170
         0
171
         4
172
         1
173
         1
174
         0
175
         0
176
         0
177
         0
178
         0
270
         2
271
         2
272
         2
273
         2
274
         4
275
         0
280
         0
281
         0
282
         0
283
         0
284
         0
285
         0
286
         0
287
         3
288
         0
340
17
  0
ENDTAB
  0
TABLE
  2
BLOCK_RECORD
  5
1
100
AcDbSymbolTable
 70
        10
  0
BLOCK_RECORD
  5
A
100
AcDbSymbolTableRecord
100
AcDbBlockTableRecord
  2
*MODEL_SPACE
  0
BLOCK_RECORD
  5
B
100
AcDbSymbolTableRecord
100
AcDbBlockTableRecord
  2
*PAPER_SPACE
  0
BLOCK_RECORD
  5
1F
100
AcDbSymbolTableRecord
100
AcDbBlockTableRecord
  2
ARROW
  0
BLOCK_RECORD
  5
20
100
AcDbSymbolTableRecord
100
AcDbBlockTableRecord
  2
_OPEN30
  0
BLOCK_RECORD
  5
9E
100
AcDbSymbolTableRecord
100
AcDbBlockTableRecord
  2
*D2
  0
BLOCK_RECORD
  5
AE
100
AcDbSymbolTableRecord
100
AcDbBlockTableRecord
  2
*D3
  0
BLOCK_RECORD
  5
BB
100
AcDbSymbolTableRecord
100
AcDbBlockTableRecord
  2
*D4
  0
BLOCK_RECORD
  5
CB
100
AcDbSymbolTableRecord
100
AcDbBlockTableRecord
  2
*D5
  0
BLOCK_RECORD
  5
DA
100
AcDbSymbolTableRecord
100
AcDbBlockTableRecord
  2
*D6
  0
BLOCK_RECORD
  5
E9
100
AcDbSymbolTableRecord
100
AcDbBlockTableRecord
  2
*D7
  0
BLOCK_RECORD
  5
F7
100
AcDbSymbolTableRecord
100
AcDbBlockTableRecord
  2
*D8
  0
BLOCK_RECORD
  5
106
100
AcDbSymbolTableRecord
100
AcDbBlockTableRecord
  2
*D9
  0
ENDTAB
  0
ENDSEC
  0
SECTION
  2
BLOCKS
  0
BLOCK
  5
D
100
AcDbEntity
  8
0
100
AcDbBlockBegin
  2
*MODEL_SPACE
 70
         0
 10
0.0
 20
0.0
 30
0.0
  3
*MODEL_SPACE
  1

  0
ENDBLK
  5
E
100
AcDbEntity
  8
0
100
AcDbBlockEnd
  0
BLOCK
  5
F
100
AcDbEntity
 67
         1
  8
0
100
AcDbBlockBegin
  2
*PAPER_SPACE
 70
         0
 10
0.0
 20
0.0
 30
0.0
  3
*PAPER_SPACE
  1

  0
ENDBLK
  5
10
100
AcDbEntity
 67
         1
  8
0
100
AcDbBlockEnd
  0
BLOCK
  5
26
100
AcDbEntity
  8
0
100
AcDbBlockBegin
  2
ARROW
 70
         0
 10
0.0
 20
0.0
 30
0.0
  3
ARROW
  1

  0
LWPOLYLINE
  5
27
100
AcDbEntity
  8
0
  6
CONTINUOUS
 62
       193
100
AcDbPolyline
 90
        3
 70
         0
 10
2.3992387
 20
0.642874073
 10
0.0
 20
0.0
 10
2.3992387
 20
-0.642874073
  0
ENDBLK
  5
28
100
AcDbEntity
  8
0
100
AcDbBlockEnd
  0
BLOCK
  5
21
100
AcDbEntity
  8
0
  6
ByBlock
 62
         0
100
AcDbBlockBegin
  2
_OPEN30
 70
         2
 10
0.0
 20
0.0
 30
0.0
  3
_OPEN30
  1

  0
LINE
  5
22
100
AcDbEntity
  8
0
  6
ByBlock
 62
         0
100
AcDbLine
 10
-1.0
 20
0.267949
 30
0.0
 11
0.0
 21
0.0
 31
0.0
  0
LINE
  5
23
100
AcDbEntity
  8
0
  6
ByBlock
 62
         0
100
AcDbLine
 10
0.0
 20
0.0
 30
0.0
 11
-1.0
 21
-0.267949
 31
0.0
  0
LINE
  5
24
100
AcDbEntity
  8
0
  6
ByBlock
 62
         0
100
AcDbLine
 10
0.0
 20
0.0
 30
0.0
 11
-1.0
 21
0.0
 31
0.0
  0
ENDBLK
  5
25
100
AcDbEntity
  8
0
  6
ByBlock
 62
         0
100
AcDbBlockEnd
  0
BLOCK
  5
9F
100
AcDbEntity
  8
0
  6
ByBlock
 62
         0
100
AcDbBlockBegin
  2
*D2
 70
         1
 10
0.0
 20
0.0
 30
0.0
  3
*D2
  1

  0
LINE
  5
A0
100
AcDbEntity
  8
0
  6
CONTINUOUS
 62
       110
100
AcDbLine
 10
-58.5
 20
47.4001474
 30
0.0
 11
-41.5
 21
47.4001474
 31
0.0
  0
LINE
  5
A1
100
AcDbEntity
  8
0
  6
CONTINUOUS
 62
       110
100
AcDbLine
 10
-58.5
 20
34.939499817
 30
0.0
 11
-58.5
 21
49.9001474
 31
0.0
  0
LINE
  5
A2
100
AcDbEntity
  8
0
  6
CONTINUOUS
 62
       110
100
AcDbLine
 10
-41.5
 20
34.939499817
 30
0.0
 11
-41.5
 21
49.9001474
 31
0.0
  0
LINE
  5
A3
100
AcDbEntity
  8
0
  6
CONTINUOUS
 62
       110
100
AcDbLine
 10
-58.5
 20
47.4001474
 30
0.0
 11
-62.5
 21
47.4001474
 31
0.0
  0
LINE
  5
A4
100
AcDbEntity
  8
0
  6
CONTINUOUS
 62
       110
100
AcDbLine
 10
-41.5
 20
47.4001474
 30
0.0
 11
-37.5
 21
47.4001474
 31
0.0
  0
SOLID
  5
A5
100
AcDbEntity
  8
0
  6
CONTINUOUS
 62
       110
100
AcDbTrace
 10
-59.5000000298
 20
47.566814405
 30
0.0
 11
-59.5000000298
 21
47.233480395
 31
0.0
 12
-58.5
 22
47.4001474
 32
0.0
 13
-58.5
 23
47.4001474
 33
0.0
  0
SOLID
  5
A6
100
AcDbEntity
  8
0
  6
CONTINUOUS
 62
       110
100
AcDbTrace
 10
-40.4999999702
 20
47.233480395
 30
0.0
 11
-40.4999999702
 21
47.566814405
 31
0.0
 12
-41.5
 22
47.4001474
 32
0.0
 13
-41.5
 23
47.4001474
 33
0.0
  0
MTEXT
  5
A8
100
AcDbEntity
  8
0
  6
CONTINUOUS
 62
       110
100
AcDbMText
 10
-49.6999998093
 20
50.0001474238
 30
0.0
 40
3.2000000477
 41
0.0
 71
         5
 72
         1
  1
\A1;17
  7
MX_DIMTXSTY_2
  0
POINT
  5
A9
100
AcDbEntity
  8
DEFPOINTS
  6
CONTINUOUS
 62
         0
100
AcDbPoint
 10
-58.5
 20
34.876999817
 30
0.0
  0
POINT
  5
AA
100
AcDbEntity
  8
DEFPOINTS
  6
CONTINUOUS
 62
         0
100
AcDbPoint
 10
-41.5
 20
34.876999817
 30
0.0
  0
POINT
  5
AB
100
AcDbEntity
  8
DEFPOINTS
  6
CONTINUOUS
 62
         0
100
AcDbPoint
 10
-41.5
 20
47.4001474
 30
0.0
  0
ENDBLK
  5
AC
100
AcDbEntity
  8
0
  6
ByBlock
 62
         0
100
AcDbBlockEnd
  0
BLOCK
  5
AF
100
AcDbEntity
  8
0
  6
ByBlock
 62
         0
100
AcDbBlockBegin
  2
*D3
 70
         1
 10
0.0
 20
0.0
 30
0.0
  3
*D3
  1

  0
LINE
  5
B0
100
AcDbEntity
  8
0
  6
CONTINUOUS
 62
       110
100
AcDbLine
 10
30.0
 20
44.6172364
 30
0.0
 11
35.0
 21
44.6172364
 31
0.0
  0
LINE
  5
B1
100
AcDbEntity
  8
0
  6
CONTINUOUS
 62
       110
100
AcDbLine
 10
30.0
 20
37.5624997858
 30
0.0
 11
30.0
 21
47.1172364
 31
0.0
  0
LINE
  5
B2
100
AcDbEntity
  8
0
  6
CONTINUOUS
 62
       110
100
AcDbLine
 10
35.0
 20
39.8624999765
 30
0.0
 11
35.0
 21
47.1172364
 31
0.0
  0
SOLID
  5
B3
100
AcDbEntity
  8
0
  6
CONTINUOUS
 62
       110
100
AcDbTrace
 10
31.0000000298
 20
44.450569395
 30
0.0
 11
31.0000000298
 21
44.783903405
 31
0.0
 12
30.0
 22
44.6172364
 32
0.0
 13
30.0
 23
44.6172364
 33
0.0
  0
SOLID
  5
B4
100
AcDbEntity
  8
0
  6
CONTINUOUS
 62
       110
100
AcDbTrace
 10
33.9999999702
 20
44.783903405
 30
0.0
 11
33.9999999702
 21
44.450569395
 31
0.0
 12
35.0
 22
44.6172364
 32
0.0
 13
35.0
 23
44.6172364
 33
0.0
  0
MTEXT
  5
B5
100
AcDbEntity
  8
0
  6
CONTINUOUS
 62
       110
100
AcDbMText
 10
32.7999999523
 20
47.2172364238
 30
0.0
 40
3.2000000477
 41
0.0
 71
         5
 72
         1
  1
\A1;5
  0
POINT
  5
B6
100
AcDbEntity
  8
DEFPOINTS
  6
CONTINUOUS
 62
         0
100
AcDbPoint
 10
30.0
 20
37.4999997858
 30
0.0
  0
POINT
  5
B7
100
AcDbEntity
  8
DEFPOINTS
  6
CONTINUOUS
 62
         0
100
AcDbPoint
 10
35.0
 20
39.7999999765
 30
0.0
  0
POINT
  5
B8
100
AcDbEntity
  8
DEFPOINTS
  6
CONTINUOUS
 62
         0
100
AcDbPoint
 10
35.0
 20
44.6172364
 30
0.0
  0
ENDBLK
  5
B9
100
AcDbEntity
  8
0
  6
ByBlock
 62
         0
100
AcDbBlockEnd
  0
BLOCK
  5
BC
100
AcDbEntity
  8
0
  6
ByBlock
 62
         0
100
AcDbBlockBegin
  2
*D4
 70
         1
 10
0.0
 20
0.0
 30
0.0
  3
*D4
  1

  0
LINE
  5
BD
100
AcDbEntity
  8
0
  6
CONTINUOUS
 62
       110
100
AcDbLine
 10
35.0
 20
44.6172364
 30
0.0
 11
45.0
 21
44.6172364
 31
0.0
  0
LINE
  5
BE
100
AcDbEntity
  8
0
  6
CONTINUOUS
 62
       110
100
AcDbLine
 10
35.0
 20
39.8624999765
 30
0.0
 11
35.0
 21
47.1172364
 31
0.0
  0
LINE
  5
BF
100
AcDbEntity
  8
0
  6
CONTINUOUS
 62
       110
100
AcDbLine
 10
45.0
 20
37.7625000719
 30
0.0
 11
45.0
 21
47.1172364
 31
0.0
  0
LINE
  5
C0
100
AcDbEntity
  8
0
  6
CONTINUOUS
 62
       110
100
AcDbLine
 10
35.0
 20
44.6172364
 30
0.0
 11
31.0
 21
44.6172364
 31
0.0
  0
LINE
  5
C1
100
AcDbEntity
  8
0
  6
CONTINUOUS
 62
       110
100
AcDbLine
 10
45.0
 20
44.6172364
 30
0.0
 11
49.0
 21
44.6172364
 31
0.0
  0
SOLID
  5
C2
100
AcDbEntity
  8
0
  6
CONTINUOUS
 62
       110
100
AcDbTrace
 10
33.9999999702
 20
44.783903405
 30
0.0
 11
33.9999999702
 21
44.450569395
 31
0.0
 12
35.0
 22
44.6172364
 32
0.0
 13
35.0
 23
44.6172364
 33
0.0
  0
SOLID
  5
C3
100
AcDbEntity
  8
0
  6
CONTINUOUS
 62
       110
100
AcDbTrace
 10
46.0000000298
 20
44.450569395
 30
0.0
 11
46.0000000298
 21
44.783903405
 31
0.0
 12
45.0
 22
44.6172364
 32
0.0
 13
45.0
 23
44.6172364
 33
0.0
  0
MTEXT
  5
C5
100
AcDbEntity
  8
0
  6
CONTINUOUS
 62
       110
100
AcDbMText
 10
40.3000001907
 20
47.2172364238
 30
0.0
 40
3.2000000477
 41
0.0
 71
         5
 72
         1
  1
\A1;10
  7
MX_DIMTXSTY_3
  0
POINT
  5
C6
100
AcDbEntity
  8
DEFPOINTS
  6
CONTINUOUS
 62
         0
100
AcDbPoint
 10
35.0
 20
39.7999999765
 30
0.0
  0
POINT
  5
C7
100
AcDbEntity
  8
DEFPOINTS
  6
CONTINUOUS
 62
         0
100
AcDbPoint
 10
45.0
 20
37.7000000719
 30
0.0
  0
POINT
  5
C8
100
AcDbEntity
  8
DEFPOINTS
  6
CONTINUOUS
 62
         0
100
AcDbPoint
 10
45.0
 20
44.6172364
 30
0.0
  0
ENDBLK
  5
C9
100
AcDbEntity
  8
0
  6
ByBlock
 62
         0
100
AcDbBlockEnd
  0
BLOCK
  5
CC
100
AcDbEntity
  8
0
  6
ByBlock
 62
         0
100
AcDbBlockBegin
  2
*D5
 70
         1
 10
0.0
 20
0.0
 30
0.0
  3
*D5
  1

  0
LINE
  5
CD
100
AcDbEntity
  8
0
  6
CONTINUOUS
 62
       110
100
AcDbLine
 10
30.0
 20
51.7056751
 30
0.0
 11
45.0
 21
51.7056751
 31
0.0
  0
LINE
  5
CE
100
AcDbEntity
  8
0
  6
CONTINUOUS
 62
       110
100
AcDbLine
 10
30.0
 20
37.5624999749
 30
0.0
 11
30.0
 21
54.2056751
 31
0.0
  0
LINE
  5
CF
100
AcDbEntity
  8
0
  6
CONTINUOUS
 62
       110
100
AcDbLine
 10
45.0
 20
37.7624997841
 30
0.0
 11
45.0
 21
54.2056751
 31
0.0
  0
LINE
  5
D0
100
AcDbEntity
  8
0
  6
CONTINUOUS
 62
       110
100
AcDbLine
 10
30.0
 20
51.7056751
 30
0.0
 11
26.0
 21
51.7056751
 31
0.0
  0
LINE
  5
D1
100
AcDbEntity
  8
0
  6
CONTINUOUS
 62
       110
100
AcDbLine
 10
45.0
 20
51.7056751
 30
0.0
 11
49.0
 21
51.7056751
 31
0.0
  0
SOLID
  5
D2
100
AcDbEntity
  8
0
  6
CONTINUOUS
 62
       110
100
AcDbTrace
 10
28.9999999702
 20
51.872342105
 30
0.0
 11
28.9999999702
 21
51.539008095
 31
0.0
 12
30.0
 22
51.7056751
 32
0.0
 13
30.0
 23
51.7056751
 33
0.0
  0
SOLID
  5
D3
100
AcDbEntity
  8
0
  6
CONTINUOUS
 62
       110
100
AcDbTrace
 10
46.0000000298
 20
51.539008095
 30
0.0
 11
46.0000000298
 21
51.872342105
 31
0.0
 12
45.0
 22
51.7056751
 32
0.0
 13
45.0
 23
51.7056751
 33
0.0
  0
MTEXT
  5
D4
100
AcDbEntity
  8
0
  6
CONTINUOUS
 62
       110
100
AcDbMText
 10
37.8000001907
 20
54.3056751238
 30
0.0
 40
3.2000000477
 41
0.0
 71
         5
 72
         1
  1
\A1;15
  7
MX_DIMTXSTY_2
  0
POINT
  5
D5
100
AcDbEntity
  8
DEFPOINTS
  6
CONTINUOUS
 62
         0
100
AcDbPoint
 10
30.0
 20
37.4999999749
 30
0.0
  0
POINT
  5
D6
100
AcDbEntity
  8
DEFPOINTS
  6
CONTINUOUS
 62
         0
100
AcDbPoint
 10
45.0
 20
37.6999997841
 30
0.0
  0
POINT
  5
D7
100
AcDbEntity
  8
DEFPOINTS
  6
CONTINUOUS
 62
         0
100
AcDbPoint
 10
45.0
 20
51.7056751
 30
0.0
  0
ENDBLK
  5
D8
100
AcDbEntity
  8
0
  6
ByBlock
 62
         0
100
AcDbBlockEnd
  0
BLOCK
  5
DB
100
AcDbEntity
  8
0
  6
ByBlock
 62
         0
100
AcDbBlockBegin
  2
*D6
 70
         1
 10
0.0
 20
0.0
 30
0.0
  3
*D6
  1

  0
LINE
  5
DC
100
AcDbEntity
  8
0
  6
CONTINUOUS
 62
       110
100
AcDbLine
 10
45.0
 20
14.3941129
 30
0.0
 11
31.0
 21
14.3941129
 31
0.0
  0
LINE
  5
DD
100
AcDbEntity
  8
0
  6
CONTINUOUS
 62
       110
100
AcDbLine
 10
45.0
 20
22.2375000269
 30
0.0
 11
45.0
 21
11.8941129
 31
0.0
  0
LINE
  5
DE
100
AcDbEntity
  8
0
  6
CONTINUOUS
 62
       110
100
AcDbLine
 10
31.0
 20
24.937500313
 30
0.0
 11
31.0
 21
11.8941129
 31
0.0
  0
LINE
  5
DF
100
AcDbEntity
  8
0
  6
CONTINUOUS
 62
       110
100
AcDbLine
 10
45.0
 20
14.3941129
 30
0.0
 11
49.0
 21
14.3941129
 31
0.0
  0
LINE
  5
E0
100
AcDbEntity
  8
0
  6
CONTINUOUS
 62
       110
100
AcDbLine
 10
31.0
 20
14.3941129
 30
0.0
 11
27.0
 21
14.3941129
 31
0.0
  0
SOLID
  5
E1
100
AcDbEntity
  8
0
  6
CONTINUOUS
 62
       110
100
AcDbTrace
 10
46.0000000298
 20
14.227445895
 30
0.0
 11
46.0000000298
 21
14.560779905
 31
0.0
 12
45.0
 22
14.3941129
 32
0.0
 13
45.0
 23
14.3941129
 33
0.0
  0
SOLID
  5
E2
100
AcDbEntity
  8
0
  6
CONTINUOUS
 62
       110
100
AcDbTrace
 10
29.9999999702
 20
14.560779905
 30
0.0
 11
29.9999999702
 21
14.227445895
 31
0.0
 12
31.0
 22
14.3941129
 32
0.0
 13
31.0
 23
14.3941129
 33
0.0
  0
MTEXT
  5
E3
100
AcDbEntity
  8
0
  6
CONTINUOUS
 62
       110
100
AcDbMText
 10
38.3000001907
 20
16.9941129238
 30
0.0
 40
3.2000000477
 41
0.0
 71
         5
 72
         1
  1
\A1;14
  7
MX_DIMTXSTY_2
 11
1.0
 21
0.0
 31
0.0
  0
POINT
  5
E4
100
AcDbEntity
  8
DEFPOINTS
  6
CONTINUOUS
 62
         0
100
AcDbPoint
 10
45.0
 20
22.3000000269
 30
0.0
  0
POINT
  5
E5
100
AcDbEntity
  8
DEFPOINTS
  6
CONTINUOUS
 62
         0
100
AcDbPoint
 10
31.0
 20
25.000000313
 30
0.0
  0
POINT
  5
E6
100
AcDbEntity
  8
DEFPOINTS
  6
CONTINUOUS
 62
         0
100
AcDbPoint
 10
31.0
 20
14.3941129
 30
0.0
  0
ENDBLK
  5
E7
100
AcDbEntity
  8
0
  6
ByBlock
 62
         0
100
AcDbBlockEnd
  0
BLOCK
  5
EA
100
AcDbEntity
  8
0
  6
ByBlock
 62
         0
100
AcDbBlockBegin
  2
*D7
 70
         1
 10
0.0
 20
0.0
 30
0.0
  3
*D7
  1

  0
LINE
  5
EB
100
AcDbEntity
  8
0
  6
CONTINUOUS
 62
       110
100
AcDbLine
 10
52.727617
 20
33.0
 30
0.0
 11
52.727617
 21
27.0
 31
0.0
  0
LINE
  5
EC
100
AcDbEntity
  8
0
  6
CONTINUOUS
 62
       110
100
AcDbLine
 10
44.0624997362
 20
33.0
 30
0.0
 11
55.227617
 21
33.0
 31
0.0
  0
LINE
  5
ED
100
AcDbEntity
  8
0
  6
CONTINUOUS
 62
       110
100
AcDbLine
 10
44.0624997362
 20
27.0
 30
0.0
 11
55.227617
 21
27.0
 31
0.0
  0
SOLID
  5
EE
100
AcDbEntity
  8
0
  6
CONTINUOUS
 62
       110
100
AcDbTrace
 10
52.560949995
 20
31.9999999702
 30
0.0
 11
52.894284005
 21
31.9999999702
 31
0.0
 12
52.727617
 22
33.0
 32
0.0
 13
52.727617
 23
33.0
 33
0.0
  0
SOLID
  5
EF
100
AcDbEntity
  8
0
  6
CONTINUOUS
 62
       110
100
AcDbTrace
 10
52.894284005
 20
28.0000000298
 30
0.0
 11
52.560949995
 21
28.0000000298
 31
0.0
 12
52.727617
 22
27.0
 32
0.0
 13
52.727617
 23
27.0
 33
0.0
  0
MTEXT
  5
F1
100
AcDbEntity
  8
0
  6
CONTINUOUS
 62
       110
100
AcDbMText
 10
50.1276169762
 20
30.2999999523
 30
0.0
 40
3.2000000477
 41
0.0
 71
         5
 72
         1
  1
\A1;\U+22056
  7
MX_DIMTXSTY_4
 11
0.0
 21
1.0
 31
0.0
  0
POINT
  5
F2
100
AcDbEntity
  8
DEFPOINTS
  6
CONTINUOUS
 62
         0
100
AcDbPoint
 10
43.9999997362
 20
33.0
 30
0.0
  0
POINT
  5
F3
100
AcDbEntity
  8
DEFPOINTS
  6
CONTINUOUS
 62
         0
100
AcDbPoint
 10
43.9999997362
 20
27.0
 30
0.0
  0
POINT
  5
F4
100
AcDbEntity
  8
DEFPOINTS
  6
CONTINUOUS
 62
         0
100
AcDbPoint
 10
52.727617
 20
27.0
 30
0.0
  0
ENDBLK
  5
F5
100
AcDbEntity
  8
0
  6
ByBlock
 62
         0
100
AcDbBlockEnd
  0
BLOCK
  5
F8
100
AcDbEntity
  8
0
  6
ByBlock
 62
         0
100
AcDbBlockBegin
  2
*D8
 70
         1
 10
0.0
 20
0.0
 30
0.0
  3
*D8
  1

  0
LINE
  5
F9
100
AcDbEntity
  8
0
  6
CONTINUOUS
 62
       110
100
AcDbLine
 10
59.1910373
 20
38.0
 30
0.0
 11
59.1910373
 21
22.0
 31
0.0
  0
LINE
  5
FA
100
AcDbEntity
  8
0
  6
CONTINUOUS
 62
       110
100
AcDbLine
 10
44.7624999312
 20
38.0
 30
0.0
 11
61.6910373
 21
38.0
 31
0.0
  0
LINE
  5
FB
100
AcDbEntity
  8
0
  6
CONTINUOUS
 62
       110
100
AcDbLine
 10
44.7624999312
 20
22.0
 30
0.0
 11
61.6910373
 21
22.0
 31
0.0
  0
LINE
  5
FC
100
AcDbEntity
  8
0
  6
CONTINUOUS
 62
       110
100
AcDbLine
 10
59.1910373
 20
38.0
 30
0.0
 11
59.1910373
 21
42.0
 31
0.0
  0
LINE
  5
FD
100
AcDbEntity
  8
0
  6
CONTINUOUS
 62
       110
100
AcDbLine
 10
59.1910373
 20
22.0
 30
0.0
 11
59.1910373
 21
18.0
 31
0.0
  0
SOLID
  5
FE
100
AcDbEntity
  8
0
  6
CONTINUOUS
 62
       110
100
AcDbTrace
 10
59.357704305
 20
39.0000000298
 30
0.0
 11
59.024370295
 21
39.0000000298
 31
0.0
 12
59.1910373
 22
38.0
 32
0.0
 13
59.1910373
 23
38.0
 33
0.0
  0
SOLID
  5
FF
100
AcDbEntity
  8
0
  6
CONTINUOUS
 62
       110
100
AcDbTrace
 10
59.024370295
 20
20.9999999702
 30
0.0
 11
59.357704305
 21
20.9999999702
 31
0.0
 12
59.1910373
 22
22.0
 32
0.0
 13
59.1910373
 23
22.0
 33
0.0
  0
MTEXT
  5
100
100
AcDbEntity
  8
0
  6
CONTINUOUS
 62
       110
100
AcDbMText
 10
56.5910372762
 20
30.2999997139
 30
0.0
 40
3.2000000477
 41
0.0
 71
         5
 72
         1
  1
\A1;\U+220516
 11
0.0
 21
1.0
 31
0.0
  0
POINT
  5
101
100
AcDbEntity
  8
DEFPOINTS
  6
CONTINUOUS
 62
         0
100
AcDbPoint
 10
44.6999999312
 20
38.0
 30
0.0
  0
POINT
  5
102
100
AcDbEntity
  8
DEFPOINTS
  6
CONTINUOUS
 62
         0
100
AcDbPoint
 10
44.6999999312
 20
22.0
 30
0.0
  0
POINT
  5
103
100
AcDbEntity
  8
DEFPOINTS
  6
CONTINUOUS
 62
         0
100
AcDbPoint
 10
59.1910373
 20
22.0
 30
0.0
  0
ENDBLK
  5
104
100
AcDbEntity
  8
0
  6
ByBlock
 62
         0
100
AcDbBlockEnd
  0
BLOCK
  5
107
100
AcDbEntity
  8
0
  6
ByBlock
 62
         0
100
AcDbBlockBegin
  2
*D9
 70
         1
 10
0.0
 20
0.0
 30
0.0
  3
*D9
  1

  0
LINE
  5
108
100
AcDbEntity
  8
0
  6
CONTINUOUS
 62
       110
100
AcDbLine
 10
24.7439454
 20
20.2
 30
0.0
 11
24.7439454
 21
39.8
 31
0.0
  0
LINE
  5
109
100
AcDbEntity
  8
0
  6
CONTINUOUS
 62
       110
100
AcDbLine
 10
31.2654998701
 20
20.2
 30
0.0
 11
22.2439454
 21
20.2
 31
0.0
  0
LINE
  5
10A
100
AcDbEntity
  8
0
  6
CONTINUOUS
 62
       110
100
AcDbLine
 10
31.2654998701
 20
39.8
 30
0.0
 11
22.2439454
 21
39.8
 31
0.0
  0
LINE
  5
10B
100
AcDbEntity
  8
0
  6
CONTINUOUS
 62
       110
100
AcDbLine
 10
24.7439454
 20
20.2
 30
0.0
 11
24.7439454
 21
16.2
 31
0.0
  0
LINE
  5
10C
100
AcDbEntity
  8
0
  6
CONTINUOUS
 62
       110
100
AcDbLine
 10
24.7439454
 20
39.8
 30
0.0
 11
24.7439454
 21
43.8
 31
0.0
  0
SOLID
  5
10D
100
AcDbEntity
  8
0
  6
CONTINUOUS
 62
       110
100
AcDbTrace
 10
24.577278395
 20
19.1999999702
 30
0.0
 11
24.910612405
 21
19.1999999702
 31
0.0
 12
24.7439454
 22
20.2
 32
0.0
 13
24.7439454
 23
20.2
 33
0.0
  0
SOLID
  5
10E
100
AcDbEntity
  8
0
  6
CONTINUOUS
 62
       110
100
AcDbTrace
 10
24.910612405
 20
40.8000000298
 30
0.0
 11
24.577278395
 21
40.8000000298
 31
0.0
 12
24.7439454
 22
39.8
 32
0.0
 13
24.7439454
 23
39.8
 33
0.0
  0
MTEXT
  5
10F
100
AcDbEntity
  8
0
  6
CONTINUOUS
 62
       110
100
AcDbMText
 10
22.1439453762
 20
30.3000003815
 30
0.0
 40
3.2000000477
 41
0.0
 71
         5
 72
         1
  1
\A1;19.6
  7
MX_DIMTXSTY_3
 11
0.0
 21
1.0
 31
0.0
  0
POINT
  5
110
100
AcDbEntity
  8
DEFPOINTS
  6
CONTINUOUS
 62
         0
100
AcDbPoint
 10
31.3279998701
 20
20.2
 30
0.0
  0
POINT
  5
111
100
AcDbEntity
  8
DEFPOINTS
  6
CONTINUOUS
 62
         0
100
AcDbPoint
 10
31.3279998701
 20
39.8
 30
0.0
  0
POINT
  5
112
100
AcDbEntity
  8
DEFPOINTS
  6
CONTINUOUS
 62
         0
100
AcDbPoint
 10
24.7439454
 20
39.8
 30
0.0
  0
ENDBLK
  5
113
100
AcDbEntity
  8
0
  6
ByBlock
 62
         0
100
AcDbBlockEnd
  0
ENDSEC
  0
SECTION
  2
ENTITIES
  0
MTEXT
  5
29
100
AcDbEntity
  8
0
  6
CONTINUOUS
 62
       110
100
AcDbMText
 10
-33.2989252171
 20
-51.6469998498
 30
0.0
 40
3.2000000477
 41
0.0
 71
         1
 72
         1
  1
\T1.025;\W1.058;\A1;TSUBAKI
  0
MTEXT
  5
2A
100
AcDbEntity
  8
0
  6
CONTINUOUS
 62
       110
100
AcDbMText
 10
-2.1615286171
 20
-17.8119191498
 30
0.0
 40
3.2000000477
 41
0.0
 71
         1
 72
         1
  1
\T1.025;\W1.058;\A1;TSUBAKI
  0
LINE
  5
2C
100
AcDbEntity
  8
PV
  6
CENTER
 62
         3
100
AcDbLine
 10
-50.0
 20
42.392
 30
0.0
 11
-50.0
 21
17.414
 31
0.0
  0
LINE
  5
2D
100
AcDbEntity
  8
PV
  6
CENTER
 62
         3
100
AcDbLine
 10
-62.735
 20
30.0
 30
0.0
 11
-39.244
 21
30.0
 31
0.0
  0
LINE
  5
2E
100
AcDbEntity
  8
PV
  6
CONTINUOUS
 62
         3
100
AcDbLine
 10
-50.5
 20
27.042
 30
0.0
 11
-50.5
 21
25.025
 31
0.0
  0
LINE
  5
2F
100
AcDbEntity
  8
PV
  6
CONTINUOUS
 62
         3
100
AcDbLine
 10
-49.5
 20
27.042
 30
0.0
 11
-49.5
 21
25.025
 31
0.0
  0
CIRCLE
  5
30
100
AcDbEntity
  8
PV
  6
CONTINUOUS
 62
         3
100
AcDbCircle
 10
-50.0
 20
30.0
 30
0.0
 40
7.5
  0
CIRCLE
  5
31
100
AcDbEntity
  8
PV
  6
CONTINUOUS
 62
         3
100
AcDbCircle
 10
-50.0
 20
30.0
 30
0.0
 40
5.0
  0
CIRCLE
  5
32
100
AcDbEntity
  8
PV
  6
CONTINUOUS
 62
         3
100
AcDbCircle
 10
-50.0
 20
30.0
 30
0.0
 40
4.5
  0
LINE
  5
33
100
AcDbEntity
  8
PV
  6
CENTER
 62
         3
100
AcDbLine
 10
28.641
 20
30.0
 30
0.0
 11
46.561
 21
30.0
 31
0.0
  0
LINE
  5
34
100
AcDbEntity
  8
PV
  6
CONTINUOUS
 62
         3
100
AcDbLine
 10
42.0
 20
38.0
 30
0.0
 11
42.0
 21
37.0
 31
0.0
  0
LINE
  5
35
100
AcDbEntity
  8
PV
  6
CONTINUOUS
 62
         3
100
AcDbLine
 10
41.0
 20
38.0
 30
0.0
 11
41.0
 21
37.0
 31
0.0
  0
LINE
  5
36
100
AcDbEntity
  8
PV
  6
CONTINUOUS
 62
         3
100
AcDbLine
 10
41.0
 20
37.0
 30
0.0
 11
42.0
 21
37.0
 31
0.0
  0
LINE
  5
37
100
AcDbEntity
  8
PV
  6
CONTINUOUS
 62
         3
100
AcDbLine
 10
39.0
 20
37.0
 30
0.0
 11
39.0
 21
35.45
 31
0.0
  0
LINE
  5
38
100
AcDbEntity
  8
PV
  6
CONTINUOUS
 62
         3
100
AcDbLine
 10
39.0
 20
35.45
 30
0.0
 11
45.0
 21
35.75
 31
0.0
  0
LINE
  5
39
100
AcDbEntity
  8
PV
  6
CONTINUOUS
 62
         3
100
AcDbLine
 10
36.8
 20
37.0
 30
0.0
 11
36.8
 21
36.2
 31
0.0
  0
LINE
  5
3A
100
AcDbEntity
  8
PV
  6
CONTINUOUS
 62
         3
100
AcDbLine
 10
35.0
 20
36.2
 30
0.0
 11
36.8
 21
36.2
 31
0.0
  0
LINE
  5
3B
100
AcDbEntity
  8
PV
  6
CONTINUOUS
 62
         3
100
AcDbLine
 10
35.6
 20
35.65
 30
0.0
 11
35.6
 21
34.5
 31
0.0
  0
LINE
  5
3C
100
AcDbEntity
  8
PV
  6
CONTINUOUS
 62
         3
100
AcDbLine
 10
35.6
 20
35.65
 30
0.0
 11
39.0
 21
35.65
 31
0.0
  0
LINE
  5
3D
100
AcDbEntity
  8
PV
  6
CONTINUOUS
 62
         3
100
AcDbLine
 10
36.8
 20
37.0
 30
0.0
 11
39.0
 21
37.0
 31
0.0
  0
LINE
  5
3E
100
AcDbEntity
  8
PV
  6
CONTINUOUS
 62
         3
100
AcDbLine
 10
30.0
 20
35.0
 30
0.0
 11
39.0
 21
35.0
 31
0.0
  0
LINE
  5
3F
100
AcDbEntity
  8
PV
  6
CONTINUOUS
 62
         3
100
AcDbLine
 10
30.0
 20
34.5
 30
0.0
 11
39.0
 21
34.5
 31
0.0
  0
LINE
  5
40
100
AcDbEntity
  8
PV
  6
CONTINUOUS
 62
         3
100
AcDbLine
 10
39.0
 20
35.45
 30
0.0
 11
39.0
 21
34.5
 31
0.0
  0
LINE
  5
41
100
AcDbEntity
  8
PV
  6
CONTINUOUS
 62
         3
100
AcDbLine
 10
31.0
 20
35.0
 30
0.0
 11
31.0
 21
25.0
 31
0.0
  0
LINE
  5
42
100
AcDbEntity
  8
PV
  6
CONTINUOUS
 62
         3
100
AcDbLine
 10
35.0
 20
23.8
 30
0.0
 11
35.0
 21
22.0
 31
0.0
  0
LINE
  5
43
100
AcDbEntity
  8
PV
  6
CONTINUOUS
 62
         3
100
AcDbLine
 10
42.0
 20
23.0
 30
0.0
 11
42.0
 21
22.0
 31
0.0
  0
LINE
  5
44
100
AcDbEntity
  8
PV
  6
CONTINUOUS
 62
         3
100
AcDbLine
 10
41.0
 20
23.0
 30
0.0
 11
41.0
 21
22.0
 31
0.0
  0
LINE
  5
45
100
AcDbEntity
  8
PV
  6
CONTINUOUS
 62
         3
100
AcDbLine
 10
42.0
 20
23.0
 30
0.0
 11
41.0
 21
23.0
 31
0.0
  0
LINE
  5
46
100
AcDbEntity
  8
PV
  6
CONTINUOUS
 62
         3
100
AcDbLine
 10
45.0
 20
24.25
 30
0.0
 11
39.0
 21
24.55
 31
0.0
  0
LINE
  5
47
100
AcDbEntity
  8
PV
  6
CONTINUOUS
 62
         3
100
AcDbLine
 10
39.0
 20
25.0
 30
0.0
 11
30.0
 21
25.0
 31
0.0
  0
LINE
  5
48
100
AcDbEntity
  8
PV
  6
CONTINUOUS
 62
         3
100
AcDbLine
 10
39.0
 20
25.5
 30
0.0
 11
30.0
 21
25.5
 31
0.0
  0
LINE
  5
49
100
AcDbEntity
  8
PV
  6
CONTINUOUS
 62
         3
100
AcDbLine
 10
39.0
 20
25.5
 30
0.0
 11
39.0
 21
24.55
 31
0.0
  0
LINE
  5
4A
100
AcDbEntity
  8
PV
  6
CONTINUOUS
 62
         3
100
AcDbLine
 10
34.0
 20
33.0
 30
0.0
 11
34.0
 21
35.0
 31
0.0
  0
LINE
  5
4B
100
AcDbEntity
  8
PV
  6
CONTINUOUS
 62
         3
100
AcDbLine
 10
35.6
 20
35.65
 30
0.0
 11
35.6
 21
34.5
 31
0.0
  0
LINE
  5
4C
100
AcDbEntity
  8
PV
  6
CONTINUOUS
 62
         3
100
AcDbLine
 10
39.0
 20
23.0
 30
0.0
 11
39.0
 21
24.55
 31
0.0
  0
LINE
  5
4D
100
AcDbEntity
  8
PV
  6
CONTINUOUS
 62
         3
100
AcDbLine
 10
36.8
 20
23.0
 30
0.0
 11
36.8
 21
23.8
 31
0.0
  0
LINE
  5
4E
100
AcDbEntity
  8
PV
  6
CONTINUOUS
 62
         3
100
AcDbLine
 10
35.0
 20
23.8
 30
0.0
 11
36.8
 21
23.8
 31
0.0
  0
LINE
  5
4F
100
AcDbEntity
  8
PV
  6
CONTINUOUS
 62
         3
100
AcDbLine
 10
35.6
 20
24.35
 30
0.0
 11
35.6
 21
25.5
 31
0.0
  0
LINE
  5
50
100
AcDbEntity
  8
PV
  6
CONTINUOUS
 62
         3
100
AcDbLine
 10
35.6
 20
24.35
 30
0.0
 11
39.0
 21
24.35
 31
0.0
  0
LINE
  5
51
100
AcDbEntity
  8
PV
  6
CONTINUOUS
 62
         3
100
AcDbLine
 10
36.8
 20
23.0
 30
0.0
 11
39.0
 21
23.0
 31
0.0
  0
LINE
  5
52
100
AcDbEntity
  8
PV
  6
CONTINUOUS
 62
         3
100
AcDbLine
 10
35.6
 20
24.35
 30
0.0
 11
35.6
 21
25.5
 31
0.0
  0
LINE
  5
53
100
AcDbEntity
  8
PV
  6
CONTINUOUS
 62
         3
100
AcDbLine
 10
35.0
 20
38.0
 30
0.0
 11
35.0
 21
36.2
 31
0.0
  0
CIRCLE
  5
54
100
AcDbEntity
  8
PV
  6
CONTINUOUS
 62
         3
100
AcDbCircle
 10
41.5
 20
37.35
 30
0.0
 40
0.35
  0
CIRCLE
  5
55
100
AcDbEntity
  8
PV
  6
CONTINUOUS
 62
         3
100
AcDbCircle
 10
41.5
 20
22.65
 30
0.0
 40
0.35
  0
LINE
  5
56
100
AcDbEntity
  8
PV
  6
CONTINUOUS
 62
         3
100
AcDbLine
 10
-81.712
 20
-56.0
 30
0.0
 11
118.854
 21
-56.0
 31
0.0
  0
LINE
  5
57
100
AcDbEntity
  8
PV
  6
CONTINUOUS
 62
         3
100
AcDbLine
 10
-81.712
 20
-62.0
 30
0.0
 11
118.854
 21
-62.0
 31
0.0
  0
LINE
  5
58
100
AcDbEntity
  8
PV
  6
CONTINUOUS
 62
         3
100
AcDbLine
 10
-81.712
 20
-68.0
 30
0.0
 11
118.854
 21
-68.0
 31
0.0
  0
LINE
  5
59
100
AcDbEntity
  8
PV
  6
CONTINUOUS
 62
         3
100
AcDbLine
 10
-81.712
 20
-74.0
 30
0.0
 11
118.854
 21
-74.0
 31
0.0
  0
LINE
  5
5A
100
AcDbEntity
  8
PV
  6
CONTINUOUS
 62
         3
100
AcDbLine
 10
-81.712
 20
-80.0
 30
0.0
 11
118.854
 21
-80.0
 31
0.0
  0
LINE
  5
5B
100
AcDbEntity
  8
PV
  6
CONTINUOUS
 62
         3
100
AcDbLine
 10
-81.712
 20
-86.0
 30
0.0
 11
118.854
 21
-86.0
 31
0.0
  0
LINE
  5
5C
100
AcDbEntity
  8
PV
  6
CONTINUOUS
 62
         3
100
AcDbLine
 10
-81.712
 20
-92.0
 30
0.0
 11
118.854
 21
-92.0
 31
0.0
  0
LINE
  5
5D
100
AcDbEntity
  8
PV
  6
CONTINUOUS
 62
         3
100
AcDbLine
 10
-81.712
 20
-98.0
 30
0.0
 11
118.854
 21
-98.0
 31
0.0
  0
LINE
  5
5E
100
AcDbEntity
  8
PV
  6
CONTINUOUS
 62
         3
100
AcDbLine
 10
-81.712
 20
-104.0
 30
0.0
 11
118.854
 21
-104.0
 31
0.0
  0
LINE
  5
5F
100
AcDbEntity
  8
PV
  6
CONTINUOUS
 62
         3
100
AcDbLine
 10
33.061
 20
-62.0
 30
0.0
 11
33.061
 21
-104.0
 31
0.0
  0
LINE
  5
60
100
AcDbEntity
  8
PV
  6
CONTINUOUS
 62
         3
100
AcDbLine
 10
-81.712
 20
-50.0
 30
0.0
 11
-81.712
 21
-104.0
 31
0.0
  0
LINE
  5
61
100
AcDbEntity
  8
PV
  6
CONTINUOUS
 62
         3
100
AcDbLine
 10
-81.712
 20
-50.0
 30
0.0
 11
118.854
 21
-50.0
 31
0.0
  0
LINE
  5
62
100
AcDbEntity
  8
PV
  6
CONTINUOUS
 62
         3
100
AcDbLine
 10
118.854
 20
-50.0
 30
0.0
 11
118.854
 21
-104.0
 31
0.0
  0
LINE
  5
63
100
AcDbEntity
  8
PV
  6
CONTINUOUS
 62
         3
100
AcDbLine
 10
-41.526
 20
25.078
 30
0.0
 11
-49.974
 21
20.2
 31
0.0
  0
LINE
  5
64
100
AcDbEntity
  8
PV
  6
CONTINUOUS
 62
         3
100
AcDbLine
 10
-41.5
 20
34.877
 30
0.0
 11
-41.5
 21
25.123
 31
0.0
  0
LINE
  5
65
100
AcDbEntity
  8
PV
  6
CONTINUOUS
 62
         3
100
AcDbLine
 10
-49.974
 20
39.8
 30
0.0
 11
-41.526
 21
34.922
 31
0.0
  0
LINE
  5
66
100
AcDbEntity
  8
PV
  6
CONTINUOUS
 62
         3
100
AcDbLine
 10
-58.474
 20
34.922
 30
0.0
 11
-50.026
 21
39.8
 31
0.0
  0
LINE
  5
67
100
AcDbEntity
  8
PV
  6
CONTINUOUS
 62
         3
100
AcDbLine
 10
-58.5
 20
25.123
 30
0.0
 11
-58.5
 21
34.877
 31
0.0
  0
LINE
  5
68
100
AcDbEntity
  8
PV
  6
CONTINUOUS
 62
         3
100
AcDbLine
 10
-50.026
 20
20.2
 30
0.0
 11
-58.474
 21
25.078
 31
0.0
  0
ARC
  5
69
100
AcDbEntity
  8
PV
  6
CONTINUOUS
 62
         3
100
AcDbCircle
 10
-50.0
 20
30.0
 30
0.0
 40
3.0
100
AcDbArc
 50
0.0
 51
270.0
  0
ARC
  5
6A
100
AcDbEntity
  8
PV
  6
CONTINUOUS
 62
         3
100
AcDbCircle
 10
-50.0
 20
30.0
 30
0.0
 40
3.0
100
AcDbArc
 50
270.0
 51
0.0
  0
LINE
  5
6B
100
AcDbEntity
  8
PV
  6
CONTINUOUS
 62
         3
100
AcDbLine
 10
45.0
 20
37.7
 30
0.0
 11
45.0
 21
22.3
 31
0.0
  0
LINE
  5
6C
100
AcDbEntity
  8
PV
  6
CONTINUOUS
 62
         3
100
AcDbLine
 10
30.0
 20
33.0
 30
0.0
 11
44.0
 21
33.0
 31
0.0
  0
LINE
  5
6D
100
AcDbEntity
  8
PV
  6
CONTINUOUS
 62
         3
100
AcDbLine
 10
35.0
 20
39.8
 30
0.0
 11
35.0
 21
38.0
 31
0.0
  0
LINE
  5
6E
100
AcDbEntity
  8
PV
  6
CONTINUOUS
 62
         3
100
AcDbLine
 10
31.328
 20
39.8
 30
0.0
 11
35.0
 21
39.8
 31
0.0
  0
LINE
  5
6F
100
AcDbEntity
  8
PV
  6
CONTINUOUS
 62
         3
100
AcDbLine
 10
35.0
 20
38.0
 30
0.0
 11
44.7
 21
38.0
 31
0.0
  0
LINE
  5
70
100
AcDbEntity
  8
PV
  6
CONTINUOUS
 62
         3
100
AcDbLine
 10
44.7
 20
38.0
 30
0.0
 11
45.0
 21
37.7
 31
0.0
  0
LINE
  5
71
100
AcDbEntity
  8
PV
  6
CONTINUOUS
 62
         3
100
AcDbLine
 10
30.0
 20
37.5
 30
0.0
 11
31.328
 21
39.8
 31
0.0
  0
LINE
  5
72
100
AcDbEntity
  8
PV
  6
CONTINUOUS
 62
         3
100
AcDbLine
 10
44.0
 20
27.0
 30
0.0
 11
30.0
 21
27.0
 31
0.0
  0
LINE
  5
73
100
AcDbEntity
  8
PV
  6
CONTINUOUS
 62
         3
100
AcDbLine
 10
35.0
 20
20.2
 30
0.0
 11
31.328
 21
20.2
 31
0.0
  0
LINE
  5
74
100
AcDbEntity
  8
PV
  6
CONTINUOUS
 62
         3
100
AcDbLine
 10
44.7
 20
22.0
 30
0.0
 11
35.0
 21
22.0
 31
0.0
  0
LINE
  5
75
100
AcDbEntity
  8
PV
  6
CONTINUOUS
 62
         3
100
AcDbLine
 10
45.0
 20
22.3
 30
0.0
 11
44.7
 21
22.0
 31
0.0
  0
LINE
  5
76
100
AcDbEntity
  8
PV
  6
CONTINUOUS
 62
         3
100
AcDbLine
 10
31.328
 20
20.2
 30
0.0
 11
30.0
 21
22.5
 31
0.0
  0
LINE
  5
77
100
AcDbEntity
  8
PV
  6
CONTINUOUS
 62
         3
100
AcDbLine
 10
30.0
 20
37.5
 30
0.0
 11
30.0
 21
22.5
 31
0.0
  0
LINE
  5
78
100
AcDbEntity
  8
PV
  6
CONTINUOUS
 62
         3
100
AcDbLine
 10
35.0
 20
22.0
 30
0.0
 11
35.0
 21
20.2
 31
0.0
  0
ARC
  5
79
100
AcDbEntity
  8
PV
  6
CONTINUOUS
 62
         3
100
AcDbCircle
 10
44.0
 20
34.0
 30
0.0
 40
1.0
100
AcDbArc
 50
270.0
 51
0.0
  0
ARC
  5
7A
100
AcDbEntity
  8
PV
  6
CONTINUOUS
 62
         3
100
AcDbCircle
 10
44.0
 20
26.0
 30
0.0
 40
1.0
100
AcDbArc
 50
0.0
 51
90.0000002
  0
MTEXT
  5
7B
100
AcDbEntity
  8
PV
  6
CONTINUOUS
 62
       110
100
AcDbMText
 10
-2.2093147088
 20
-23.8119191498
 30
0.0
 40
3.2000000477
 41
0.0
 71
         1
 72
         1
  1
\T1.003;\W1.067;\A1;POWER LOCK
  0
MTEXT
  5
7C
100
AcDbEntity
  8
PV
  6
CONTINUOUS
 62
       110
100
AcDbMText
 10
-2.1684518103
 20
-29.8119193882
 30
0.0
 40
3.2000000477
 41
0.0
 71
         1
 72
         1
  1
\W1.091;\A1;PL006X016M
  0
MTEXT
  5
7D
100
AcDbEntity
  8
PV
  6
CONTINUOUS
 62
       110
100
AcDbMText
 10
-33.3467113088
 20
-57.6469998498
 30
0.0
 40
3.2000000477
 41
0.0
 71
         1
 72
         1
  1
\T1.003;\W1.067;\A1;POWER LOCK
  0
MTEXT
  5
7E
100
AcDbEntity
  8
PV
  6
CONTINUOUS
 62
       110
100
AcDbMText
 10
-77.2780955239
 20
-69.5319998498
 30
0.0
 40
3.2000000477
 41
0.0
 71
         1
 72
         1
  1
\T1.041;\W1.126;\A1;TIGHTENING TORQUE OF NUT
  0
MTEXT
  5
7F
100
AcDbEntity
  8
PV
  6
CONTINUOUS
 62
       110
100
AcDbMText
 10
-77.3139566529
 20
-75.5319998498
 30
0.0
 40
3.2000000477
 41
0.0
 71
         1
 72
         1
  1
\T1.028;\W1.060;\A1;TRANSMISSIBLE TORQUE
  0
MTEXT
  5
80
100
AcDbEntity
  8
PV
  6
CONTINUOUS
 62
       110
100
AcDbMText
 10
-77.3139566529
 20
-81.5319998498
 30
0.0
 40
3.2000000477
 41
0.0
 71
         1
 72
         1
  1
\T1.028;\W1.060;\A1;TRANSMISSIBLE THRUST
  0
MTEXT
  5
81
100
AcDbEntity
  8
PV
  6
CONTINUOUS
 62
       110
100
AcDbMText
 10
-77.318023034
 20
-87.5319998498
 30
0.0
 40
3.2000000477
 41
0.0
 71
         1
 72
         1
  1
\T1.025;\W1.104;\A1;CONTACT PRESSURE OF SHAFT
  0
MTEXT
  5
82
100
AcDbEntity
  8
PV
  6
CONTINUOUS
 62
       110
100
AcDbMText
 10
-77.3051064519
 20
-93.5319998498
 30
0.0
 40
3.2000000477
 41
0.0
 71
         1
 72
         1
  1
\T1.030;\W1.126;\A1;CONTACT PRESSURE OF HUB BORE
  0
MTEXT
  5
83
100
AcDbEntity
  8
PV
  6
CONTINUOUS
 62
       110
100
AcDbMText
 10
47.6043333986
 20
-99.4000000882
 30
0.0
 40
3.2000000477
 41
0.0
 71
         1
 72
         1
  1
\W1.200;\A1;19
  0
MTEXT
  5
84
100
AcDbEntity
  8
PV
  6
CONTINUOUS
 62
       110
100
AcDbMText
 10
75.3164449255
 20
-93.4000000882
 30
0.0
 40
3.2000000477
 41
0.0
 71
         1
 72
         1
  1
\W1.333;\A1;\{4.6
  0
MTEXT
  5
85
100
AcDbEntity
  8
PV
  6
CONTINUOUS
 62
       110
100
AcDbMText
 10
72.1316065391
 20
-87.4000000882
 30
0.0
 40
3.2000000477
 41
0.0
 71
         1
 72
         1
  1
\W1.364;\A1;\{16.4
  0
MTEXT
  5
86
100
AcDbEntity
  8
PV
  6
CONTINUOUS
 62
       110
100
AcDbMText
 10
75.2148576295
 20
-81.4000000882
 30
0.0
 40
3.2000000477
 41
0.0
 71
         1
 72
         1
  1
\W1.143;\A1;\{270
  0
MTEXT
  5
87
100
AcDbEntity
  8
PV
  6
CONTINUOUS
 62
       110
100
AcDbMText
 10
72.0999859933
 20
-75.4000000882
 30
0.0
 40
3.2000000477
 41
0.0
 71
         1
 72
         1
  1
\W1.304;\A1;\{0.83
  0
MTEXT
  5
88
100
AcDbEntity
  8
PV
  6
CONTINUOUS
 62
       110
100
AcDbMText
 10
72.0999859933
 20
-69.4000000882
 30
0.0
 40
3.2000000477
 41
0.0
 71
         1
 72
         1
  1
\W1.304;\A1;\{0.55
  0
MTEXT
  5
89
100
AcDbEntity
  8
PV
  6
CONTINUOUS
 62
       110
100
AcDbMText
 10
-77.3374519285
 20
-63.5319998498
 30
0.0
 40
3.2000000477
 41
0.0
 71
         1
 72
         1
  1
\T1.017;\W1.071;\A1;MODEL NUMBER
  0
MTEXT
  5
8A
100
AcDbEntity
  8
PV
  6
CONTINUOUS
 62
       110
100
AcDbMText
 10
60.5931515897
 20
-63.4000000882
 30
0.0
 40
3.2000000477
 41
0.0
 71
         1
 72
         1
  1
\W1.091;\A1;PL006X016M
  0
MTEXT
  5
8B
100
AcDbEntity
  8
PV
  6
CONTINUOUS
 62
       110
100
AcDbMText
 10
55.697666515
 20
-69.3999998498
 30
0.0
 40
3.2000000477
 41
0.0
 71
         1
 72
         1
  1
\W0.833;\A1;Ｎ・ｍ
  0
MTEXT
  5
8C
100
AcDbEntity
  8
PV
  6
CONTINUOUS
 62
       110
100
AcDbMText
 10
55.697666515
 20
-75.3999998498
 30
0.0
 40
3.2000000477
 41
0.0
 71
         1
 72
         1
  1
\W0.833;\A1;Ｎ・ｍ
  0
MTEXT
  5
8D
100
AcDbEntity
  8
PV
  6
CONTINUOUS
 62
       110
100
AcDbMText
 10
55.697666738
 20
-81.4000000882
 30
0.0
 40
3.2000000477
 41
0.0
 71
         1
 72
         1
  1
\A1;kN
  0
MTEXT
  5
8E
100
AcDbEntity
  8
PV
  6
CONTINUOUS
 62
       110
100
AcDbMText
 10
55.697666738
 20
-87.4000000882
 30
0.0
 40
3.2000000477
 41
0.0
 71
         1
 72
         1
  1
\A1;MPa
  0
MTEXT
  5
8F
100
AcDbEntity
  8
PV
  6
CONTINUOUS
 62
       110
100
AcDbMText
 10
55.697666738
 20
-93.4000000882
 30
0.0
 40
3.2000000477
 41
0.0
 71
         1
 72
         1
  1
\A1;MPa
  0
MTEXT
  5
90
100
AcDbEntity
  8
PV
  6
CONTINUOUS
 62
       110
100
AcDbMText
 10
55.697666738
 20
-99.4000000882
 30
0.0
 40
3.2000000477
 41
0.0
 71
         1
 72
         1
  1
\A1;g
  0
MTEXT
  5
91
100
AcDbEntity
  8
PV
  6
CONTINUOUS
 62
       110
100
AcDbMText
 10
90.698666515
 20
-69.3999998498
 30
0.0
 40
3.2000000477
 41
0.0
 71
         1
 72
         1
  1
\W0.833;\A1;ｋｇｆ・ｍ｝
  0
MTEXT
  5
92
100
AcDbEntity
  8
PV
  6
CONTINUOUS
 62
       110
100
AcDbMText
 10
90.698666515
 20
-75.3999998498
 30
0.0
 40
3.2000000477
 41
0.0
 71
         1
 72
         1
  1
\W0.833;\A1;ｋｇｆ・ｍ｝
  0
MTEXT
  5
93
100
AcDbEntity
  8
PV
  6
CONTINUOUS
 62
       110
100
AcDbMText
 10
90.7471515841
 20
-81.4000000882
 30
0.0
 40
3.2000000477
 41
0.0
 71
         1
 72
         1
  1
\W1.091;\A1;kgf\}
  0
MTEXT
  5
94
100
AcDbEntity
  8
PV
  6
CONTINUOUS
 62
       110
100
AcDbMText
 10
90.7470890074
 20
-87.3999998498
 30
0.0
 40
3.2000000477
 41
0.0
 71
         1
 72
         1
  1
\T1.070;\W1.143;\A1;kgf/ mm \}
  0
MTEXT
  5
95
100
AcDbEntity
  8
PV
  6
CONTINUOUS
 62
       110
100
AcDbMText
 10
109.605333119
 20
-87.0000000424
 30
0.0
 40
1.6000000238
 41
0.0
 71
         1
 72
         1
  1
\A1;2
  0
MTEXT
  5
96
100
AcDbEntity
  8
PV
  6
CONTINUOUS
 62
       110
100
AcDbMText
 10
90.7470890074
 20
-93.3999998498
 30
0.0
 40
3.2000000477
 41
0.0
 71
         1
 72
         1
  1
\T1.070;\W1.143;\A1;kgf/ mm \}
  0
MTEXT
  5
97
100
AcDbEntity
  8
PV
  6
CONTINUOUS
 62
       110
100
AcDbMText
 10
109.605333119
 20
-93.0000000424
 30
0.0
 40
1.6000000238
 41
0.0
 71
         1
 72
         1
  1
\A1;2
  0
MTEXT
  5
98
100
AcDbEntity
  8
PV
  6
CONTINUOUS
 62
       110
100
AcDbMText
 10
-76.380333262
 20
-99.5320000882
 30
0.0
 40
3.2000000477
 41
0.0
 71
         1
 72
         1
  1
\A1;MASS
  0
MTEXT
  5
99
100
AcDbEntity
  8
PV
  6
CONTINUOUS
 62
       110
100
AcDbMText
 10
41.2043334044
 20
-69.4000000882
 30
0.0
 40
3.2000000477
 41
0.0
 71
         1
 72
         1
  1
\W1.200;\A1;5.39
  0
MTEXT
  5
9A
100
AcDbEntity
  8
PV
  6
CONTINUOUS
 62
       110
100
AcDbMText
 10
41.2754445114
 20
-75.4000000882
 30
0.0
 40
3.2000000477
 41
0.0
 71
         1
 72
         1
  1
\W1.333;\A1;8.13
  0
MTEXT
  5
9B
100
AcDbEntity
  8
PV
  6
CONTINUOUS
 62
       110
100
AcDbMText
 10
41.2043334044
 20
-81.4000000882
 30
0.0
 40
3.2000000477
 41
0.0
 71
         1
 72
         1
  1
\W1.200;\A1;2.65
  0
MTEXT
  5
9C
100
AcDbEntity
  8
PV
  6
CONTINUOUS
 62
       110
100
AcDbMText
 10
44.450047681
 20
-87.4000000882
 30
0.0
 40
3.2000000477
 41
0.0
 71
         1
 72
         1
  1
\W1.286;\A1;161
  0
MTEXT
  5
9D
100
AcDbEntity
  8
PV
  6
CONTINUOUS
 62
       110
100
AcDbMText
 10
47.497666738
 20
-93.4000000882
 30
0.0
 40
3.2000000477
 41
0.0
 71
         1
 72
         1
  1
\A1;45
  0
DIMENSION
  5
AD
100
AcDbEntity
  8
PV
  6
CONTINUOUS
 62
       110
100
AcDbDimension
  2
*D2
 10
-41.5
 20
47.4001474
 30
0.0
 11
-49.6999998093
 21
47.4001474
 31
0.0
 70
       128
  1
\A1;<>
  3
MXDIMSTYLE
100
AcDbAlignedDimension
 13
-58.5
 23
34.876999817
 33
0.0
 14
-41.5
 24
34.876999817
 34
0.0
100
AcDbRotatedDimension
1001
ACAD
1000
DSTYLE
1002
{
1070
         6
1000
SOLID
1070
         7
1000
SOLID
1070
        41
1040
1.0000000298
1070
        42
1040
0.0625
1070
       271
1070
         4
1070
       284
1070
         8
1070
       340
1005
A7
1070
       343
1005
0
1070
       344
1005
0
1002
}
  0
DIMENSION
  5
BA
100
AcDbEntity
  8
PV
  6
CONTINUOUS
 62
       110
100
AcDbDimension
  2
*D3
 10
35.0
 20
44.6172364
 30
0.0
 11
32.7999999523
 21
44.6172364
 31
0.0
 70
       128
  1
\A1;<>
  3
MXDIMSTYLE
100
AcDbAlignedDimension
 13
30.0
 23
37.4999997858
 33
0.0
 14
35.0
 24
39.7999999765
 34
0.0
100
AcDbRotatedDimension
1001
ACAD
1000
DSTYLE
1002
{
1070
         6
1000
SOLID
1070
         7
1000
SOLID
1070
        41
1040
1.0000000298
1070
        42
1040
0.0625
1070
       271
1070
         4
1070
       284
1070
         8
1070
       343
1005
0
1070
       344
1005
0
1002
}
  0
DIMENSION
  5
CA
100
AcDbEntity
  8
PV
  6
CONTINUOUS
 62
       110
100
AcDbDimension
  2
*D4
 10
45.0
 20
44.6172364
 30
0.0
 11
40.3000001907
 21
44.6172364
 31
0.0
 70
       128
  1
\A1;<>
  3
MXDIMSTYLE
100
AcDbAlignedDimension
 13
35.0
 23
39.7999999765
 33
0.0
 14
45.0
 24
37.7000000719
 34
0.0
100
AcDbRotatedDimension
1001
ACAD
1000
DSTYLE
1002
{
1070
         6
1000
SOLID
1070
         7
1000
SOLID
1070
        41
1040
1.0000000298
1070
        42
1040
0.0625
1070
       271
1070
         4
1070
       284
1070
         8
1070
       340
1005
C4
1070
       343
1005
0
1070
       344
1005
0
1002
}
  0
DIMENSION
  5
D9
100
AcDbEntity
  8
PV
  6
CONTINUOUS
 62
       110
100
AcDbDimension
  2
*D5
 10
45.0
 20
51.7056751
 30
0.0
 11
37.8000001907
 21
51.7056751
 31
0.0
 70
       128
  1
\A1;<>
  3
MXDIMSTYLE
100
AcDbAlignedDimension
 13
30.0
 23
37.4999999749
 33
0.0
 14
45.0
 24
37.6999997841
 34
0.0
100
AcDbRotatedDimension
1001
ACAD
1000
DSTYLE
1002
{
1070
         6
1000
SOLID
1070
         7
1000
SOLID
1070
        41
1040
1.0000000298
1070
        42
1040
0.0625
1070
       271
1070
         4
1070
       284
1070
         8
1070
       340
1005
A7
1070
       343
1005
0
1070
       344
1005
0
1002
}
  0
DIMENSION
  5
E8
100
AcDbEntity
  8
PV
  6
CONTINUOUS
 62
       110
100
AcDbDimension
  2
*D6
 10
31.0
 20
14.3941129
 30
0.0
 11
38.3000001907
 21
14.3941129
 31
0.0
 70
       128
  1
\A1;<>
  3
MXDIMSTYLE
100
AcDbAlignedDimension
 13
45.0
 23
22.3000000269
 33
0.0
 14
31.0
 24
25.000000313
 34
0.0
100
AcDbRotatedDimension
1001
ACAD
1000
DSTYLE
1002
{
1070
         6
1000
SOLID
1070
         7
1000
SOLID
1070
        41
1040
1.0000000298
1070
        42
1040
0.0625
1070
       271
1070
         4
1070
       284
1070
         8
1070
       340
1005
A7
1070
       343
1005
0
1070
       344
1005
0
1002
}
  0
DIMENSION
  5
F6
100
AcDbEntity
  8
PV
  6
CONTINUOUS
 62
       110
100
AcDbDimension
  2
*D7
 10
52.727617
 20
27.0
 30
0.0
 11
52.727617
 21
30.2999999523
 31
0.0
 70
       128
  1
\A1;\U+2205<>
  3
MXDIMSTYLE
100
AcDbAlignedDimension
 13
43.9999997362
 23
33.0
 33
0.0
 14
43.9999997362
 24
27.0
 34
0.0
 50
90.0
100
AcDbRotatedDimension
1001
ACAD
1000
DSTYLE
1002
{
1070
         6
1000
SOLID
1070
         7
1000
SOLID
1070
        41
1040
1.0000000298
1070
        42
1040
0.0625
1070
       271
1070
         4
1070
       284
1070
         8
1070
       340
1005
F0
1070
       343
1005
0
1070
       344
1005
0
1002
}
  0
DIMENSION
  5
105
100
AcDbEntity
  8
PV
  6
CONTINUOUS
 62
       110
100
AcDbDimension
  2
*D8
 10
59.1910373
 20
22.0
 30
0.0
 11
59.1910373
 21
30.2999997139
 31
0.0
 70
       128
  1
\A1;\U+2205<>
  3
MXDIMSTYLE
100
AcDbAlignedDimension
 13
44.6999999312
 23
38.0
 33
0.0
 14
44.6999999312
 24
22.0
 34
0.0
 50
90.0
100
AcDbRotatedDimension
1001
ACAD
1000
DSTYLE
1002
{
1070
         6
1000
SOLID
1070
         7
1000
SOLID
1070
        41
1040
1.0000000298
1070
        42
1040
0.0625
1070
       271
1070
         4
1070
       284
1070
         8
1070
       343
1005
0
1070
       344
1005
0
1002
}
  0
DIMENSION
  5
114
100
AcDbEntity
  8
PV
  6
CONTINUOUS
 62
       110
100
AcDbDimension
  2
*D9
 10
24.7439454
 20
39.8
 30
0.0
 11
24.7439454
 21
30.3000003815
 31
0.0
 70
       128
  1
\A1;<>
  3
MXDIMSTYLE
100
AcDbAlignedDimension
 13
31.3279998701
 23
20.2
 33
0.0
 14
31.3279998701
 24
39.8
 34
0.0
 50
90.0
100
AcDbRotatedDimension
1001
ACAD
1000
DSTYLE
1002
{
1070
         6
1000
SOLID
1070
         7
1000
SOLID
1070
        41
1040
1.0000000298
1070
        42
1040
0.0625
1070
       271
1070
         4
1070
       284
1070
         8
1070
       340
1005
C4
1070
       343
1005
0
1070
       344
1005
0
1002
}
  0
ENDSEC
  0
SECTION
  2
OBJECTS
  0
DICTIONARY
  5
19
100
AcDbDictionary
  3
ACAD_GROUP
350
1A
  3
ACAD_MLINESTYLE
350
1B
  0
DICTIONARY
  5
1A
102
{ACAD_REACTORS
330
19
102
}
100
AcDbDictionary
  0
DICTIONARY
  5
1B
102
{ACAD_REACTORS
330
19
102
}
100
AcDbDictionary
  3
STANDARD
350
1C
  0
MLINESTYLE
  5
1C
102
{ACAD_REACTORS
330
1B
102
}
100
AcDbMlineStyle
  2
Standard
 70
         0
  3

 62
         0
 51
90.0
 52
90.0
 71
         2
 49
0.5
 62
       256
  6
ByLayer
 49
-0.5
 62
       256
  6
ByLayer
  0
ENDSEC
  0
EOF
