  0
SECTION
  2
HEADER
  9
$ACADVER
  1
AC1015
  9
$ACADMAINTVER
 70
     6
  9
$DWGCODEPAGE
  3
ANSI_932
  9
$INSBASE
 10
0.0
 20
0.0
 30
0.0
  9
$EXTMIN
 10
-377.654848
 20
74.0
 30
0.0
  9
$EXTMAX
 10
-14.0
 20
279.218302
 30
0.0
  9
$LIMMIN
 10
-420.0
 20
0.0
  9
$LIMMAX
 10
0.0
 20
297.0
  9
$ORTHOMODE
 70
     0
  9
$REGENMODE
 70
     1
  9
$FILLMODE
 70
     1
  9
$QTEXTMODE
 70
     0
  9
$MIRRTEXT
 70
     1
  9
$LTSCALE
 40
1.0
  9
$ATTMODE
 70
     1
  9
$TEXTSIZE
 40
3.2
  9
$TRACEWID
 40
0.05
  9
$TEXTSTYLE
  7
MX_NOTE_STANDARD
  9
$CLAYER
  8
LY_1
  9
$CELTYPE
  6
CONTINUOUS
  9
$CECOLOR
 62
   256
  9
$CELTSCALE
 40
1.0
  9
$DISPSILH
 70
     0
  9
$DIMSCALE
 40
1.0
  9
$DIMASZ
 40
2.5
  9
$DIMEXO
 40
0.0
  9
$DIMDLI
 40
3.75
  9
$DIMRND
 40
0.0
  9
$DIMDLE
 40
0.0
  9
$DIMEXE
 40
2.5
  9
$DIMTP
 40
0.0
  9
$DIMTM
 40
0.0
  9
$DIMTXT
 40
3.2
  9
$DIMCEN
 40
2.5
  9
$DIMTSZ
 40
0.0
  9
$DIMTOL
 70
     0
  9
$DIMLIM
 70
     0
  9
$DIMTIH
 70
     0
  9
$DIMTOH
 70
     0
  9
$DIMSE1
 70
     0
  9
$DIMSE2
 70
     0
  9
$DIMTAD
 70
     1
  9
$DIMZIN
 70
     8
  9
$DIMBLK
  1

  9
$DIMASO
 70
     1
  9
$DIMSHO
 70
     1
  9
$DIMPOST
  1

  9
$DIMAPOST
  1

  9
$DIMALT
 70
     0
  9
$DIMALTD
 70
     4
  9
$DIMALTF
 40
0.03937
  9
$DIMLFAC
 40
1.0
  9
$DIMTOFL
 70
     1
  9
$DIMTVP
 40
0.0
  9
$DIMTIX
 70
     0
  9
$DIMSOXD
 70
     0
  9
$DIMSAH
 70
     1
  9
$DIMBLK1
  1
_OPEN30
  9
$DIMBLK2
  1
_OPEN30
  9
$DIMSTYLE
  2
MXDIMSTYLE
  9
$DIMCLRD
 70
     0
  9
$DIMCLRE
 70
     0
  9
$DIMCLRT
 70
     0
  9
$DIMTFAC
 40
1.0
  9
$DIMGAP
 40
1.0
  9
$DIMJUST
 70
     0
  9
$DIMSD1
 70
     0
  9
$DIMSD2
 70
     0
  9
$DIMTOLJ
 70
     0
  9
$DIMTZIN
 70
     0
  9
$DIMALTZ
 70
     0
  9
$DIMALTTZ
 70
     0
  9
$DIMUPT
 70
     0
  9
$DIMDEC
 70
     2
  9
$DIMTDEC
 70
     2
  9
$DIMALTU
 70
     2
  9
$DIMALTTD
 70
     4
  9
$DIMTXSTY
  7
MX_NOTE_STANDARD
  9
$DIMAUNIT
 70
     0
  9
$DIMADEC
 70
     0
  9
$DIMALTRND
 40
0.0
  9
$DIMAZIN
 70
     0
  9
$DIMDSEP
 70
    46
  9
$DIMATFIT
 70
     3
  9
$DIMFRAC
 70
     0
  9
$DIMLDRBLK
  1
_OPEN30
  9
$DIMLUNIT
 70
     2
  9
$DIMLWD
 70
    -2
  9
$DIMLWE
 70
    -2
  9
$DIMTMOVE
 70
     0
  9
$LUNITS
 70
     2
  9
$LUPREC
 70
     4
  9
$SKETCHINC
 40
0.1
  9
$FILLETRAD
 40
0.0
  9
$AUNITS
 70
     0
  9
$AUPREC
 70
     0
  9
$MENU
  1
acad
  9
$ELEVATION
 40
0.0
  9
$PELEVATION
 40
0.0
  9
$THICKNESS
 40
0.0
  9
$LIMCHECK
 70
     0
  9
$CHAMFERA
 40
0.0
  9
$CHAMFERB
 40
0.0
  9
$CHAMFERC
 40
0.0
  9
$CHAMFERD
 40
0.0
  9
$SKPOLY
 70
     0
  9
$TDCREATE
 40
2455678.689803241
  9
$TDUCREATE
 40
0.000000000
  9
$TDUPDATE
 40
2455678.689803241
  9
$TDUUPDATE
 40
0.000000000
  9
$TDINDWG
 40
0.0000000000
  9
$TDUSRTIMER
 40
0.0000000000
  9
$USRTIMER
 70
     1
  9
$ANGBASE
 50
0.0
  9
$ANGDIR
 70
     0
  9
$PDMODE
 70
     0
  9
$PDSIZE
 40
0.0
  9
$PLINEWID
 40
0.0
  9
$SPLFRAME
 70
     0
  9
$SPLINETYPE
 70
     6
  9
$SPLINESEGS
 70
     8
  9
$HANDSEED
  5
7A3
  9
$SURFTAB1
 70
     6
  9
$SURFTAB2
 70
     6
  9
$SURFTYPE
 70
     6
  9
$SURFU
 70
     6
  9
$SURFV
 70
     6
  9
$UCSBASE
  2

  9
$UCSNAME
  2

  9
$UCSORG
 10
0.0
 20
0.0
 30
0.0
  9
$UCSXDIR
 10
1.0
 20
0.0
 30
0.0
  9
$UCSYDIR
 10
0.0
 20
1.0
 30
0.0
  9
$UCSORTHOREF
  2

  9
$UCSORTHOVIEW
 70
     0
  9
$UCSORGTOP
 10
0.0
 20
0.0
 30
0.0
  9
$UCSORGBOTTOM
 10
0.0
 20
0.0
 30
0.0
  9
$UCSORGLEFT
 10
0.0
 20
0.0
 30
0.0
  9
$UCSORGRIGHT
 10
0.0
 20
0.0
 30
0.0
  9
$UCSORGFRONT
 10
0.0
 20
0.0
 30
0.0
  9
$UCSORGBACK
 10
0.0
 20
0.0
 30
0.0
  9
$PUCSBASE
  2

  9
$PUCSNAME
  2

  9
$PUCSORG
 10
0.0
 20
0.0
 30
0.0
  9
$PUCSXDIR
 10
1.0
 20
0.0
 30
0.0
  9
$PUCSYDIR
 10
0.0
 20
1.0
 30
0.0
  9
$PUCSORTHOREF
  2

  9
$PUCSORTHOVIEW
 70
     0
  9
$PUCSORGTOP
 10
0.0
 20
0.0
 30
0.0
  9
$PUCSORGBOTTOM
 10
0.0
 20
0.0
 30
0.0
  9
$PUCSORGLEFT
 10
0.0
 20
0.0
 30
0.0
  9
$PUCSORGRIGHT
 10
0.0
 20
0.0
 30
0.0
  9
$PUCSORGFRONT
 10
0.0
 20
0.0
 30
0.0
  9
$PUCSORGBACK
 10
0.0
 20
0.0
 30
0.0
  9
$USERI1
 70
     0
  9
$USERI2
 70
     0
  9
$USERI3
 70
     0
  9
$USERI4
 70
     0
  9
$USERI5
 70
     0
  9
$USERR1
 40
0.0
  9
$USERR2
 40
0.0
  9
$USERR3
 40
0.0
  9
$USERR4
 40
0.0
  9
$USERR5
 40
0.0
  9
$WORLDVIEW
 70
     1
  9
$SHADEDGE
 70
     3
  9
$SHADEDIF
 70
    70
  9
$TILEMODE
 70
     1
  9
$MAXACTVP
 70
    16
  9
$PINSBASE
 10
0.0
 20
0.0
 30
0.0
  9
$PLIMCHECK
 70
     0
  9
$PEXTMIN
 10
1.000000E+20
 20
1.000000E+20
 30
1.000000E+20
  9
$PEXTMAX
 10
-1.000000E+20
 20
-1.000000E+20
 30
-1.000000E+20
  9
$PLIMMIN
 10
0.0
 20
0.0
  9
$PLIMMAX
 10
12.0
 20
9.0
  9
$UNITMODE
 70
     0
  9
$VISRETAIN
 70
     0
  9
$PLINEGEN
 70
     1
  9
$PSLTSCALE
 70
     0
  9
$TREEDEPTH
 70
  3020
  9
$CMLSTYLE
  2
Standard
  9
$CMLJUST
 70
     0
  9
$CMLSCALE
 40
1.0
  9
$PROXYGRAPHICS
 70
     0
  9
$MEASUREMENT
 70
     1
  9
$CELWEIGHT
370
     0
  9
$ENDCAPS
280
     0
  9
$JOINSTYLE
280
     0
  9
$LWDISPLAY
290
     0
  9
$INSUNITS
 70
     0
  9
$HYPERLINKBASE
  1

  9
$STYLESHEET
  1

  9
$XEDIT
290
     1
  9
$CEPSNTYPE
380
     0
  9
$PSTYLEMODE
290
     1
  9
$FINGERPRINTGUID
  2

  9
$VERSIONGUID
  2

  9
$EXTNAMES
290
     1
  9
$PSVPSCALE
 40
0.0
  0
ENDSEC
  0
SECTION
  2
CLASSES
  0
CLASS
  1
LWPOLYLINE
  2
AcDbPolyline
  3
AutoCAD 2000
 90
        0
280
     0
281
     1
  0
CLASS
  1
IMAGE
  2
AcDbRasterImage
  3
ISM
 90
      127
280
     0
281
     1
  0
CLASS
  1
OLE2FRAME
  2
AcDbOle2Frame
  3
AutoCAD 2000
 90
        0
280
     0
281
     1
  0
CLASS
  1
HATCH
  2
AcDbHatch
  3
AutoCAD 2000
 90
        0
280
     0
281
     1
  0
CLASS
  1
DICTIONARYVAR
  2
AcDbDictionaryVar
  3
AutoCAD 2000
 90
        0
280
     0
281
     0
  0
CLASS
  1
RASTERVARIABLES
  2
AcDbRasterVariables
  3
ISM
 90
        0
280
     0
281
     0
  0
CLASS
  1
IMAGEDEF
  2
AcDbRasterImageDef
  3
ISM
 90
        0
280
     0
281
     0
  0
CLASS
  1
IMAGEDEF_REACTOR
  2
AcDbRasterImageDefReactor
  3
ISM
 90
        1
280
     0
281
     0
  0
CLASS
  1
IDBUFFER
  2
AcDbIdBuffer
  3
AutoCAD 2000
 90
        0
280
     0
281
     0
  0
CLASS
  1
SPATIAL_FILTER
  2
AcDbSpatialFilter
  3
AutoCAD 2000
 90
        0
280
     0
281
     0
  0
CLASS
  1
XRECORD
  2
AcDbXrecord
  3
AutoCAD 2000
 90
        0
280
     0
281
     0
  0
CLASS
  1
SORTENTSTABLE
  2
AcDbSortentsTable
  3
AutoCAD 2000
 90
        0
280
     0
281
     0
  0
CLASS
  1
LAYER_INDEX
  2
AcDbLayerIndex
  3
AutoCAD 2000
 90
        0
280
     0
281
     0
  0
CLASS
  1
SPATIAL_INDEX
  2
AcDbSpatialIndex
  3
AutoCAD 2000
 90
        0
280
     0
281
     0
  0
CLASS
  1
OBJECT_PTR
  2
CAseDLPNTableRecord
  3
"ASE-LPNTableRecord"
 90
        1
280
     0
281
     0
  0
CLASS
  1
LAYOUT
  2
AcDbLayout
  3
AutoCAD 2000
 90
        0
280
     0
281
     0
  0
CLASS
  1
PLOTSETTINGS
  2
AcDbPlotSettings
  3
AutoCAD 2000
 90
        0
280
     0
281
     0
  0
CLASS
  1
ACDBDICTIONARYWDFLT
  2
AcDbDictionaryWithDefault
  3
AutoCAD 2000
 90
        0
280
     0
281
     0
  0
CLASS
  1
ACDBPLACEHOLDER
  2
AcDbPlaceHolder
  3
AutoCAD 2000
 90
        0
280
     0
281
     0
  0
ENDSEC
  0
SECTION
  2
TABLES
  0
TABLE
  2
VPORT
  5
7
100
AcDbSymbolTable
 70
     1
  0
VPORT
  5
15
100
AcDbSymbolTableRecord
100
AcDbViewportTableRecord
  2
*ACTIVE
 70
     0
 10
0.0
 20
0.0
 11
1.0
 21
1.0
 12
-210.0
 22
148.5
 13
0.0
 23
0.0
 14
1.0
 24
1.0
 15
0.0
 25
0.0
 16
0.0
 26
0.0
 36
1.0
 17
0.0
 27
0.0
 37
0.0
 40
299.97
 41
1.732051
 42
50.0
 43
0.0
 44
0.0
 50
0.0
 51
0.0
 71
     0
 72
   100
 73
     1
 74
     1
 75
     0
 76
     0
 77
     0
 78
     0
281
     0
 65
     0
110
0.0
120
0.0
130
0.0
111
1.0
121
0.0
131
0.0
112
0.0
122
1.0
132
0.0
345
0
346
0
 79
     0
146
0.0
  0
ENDTAB
  0
TABLE
  2
LTYPE
  5
4
100
AcDbSymbolTable
 70
     5
  0
LTYPE
  5
11
100
AcDbSymbolTableRecord
100
AcDbLinetypeTableRecord
  2
BYBLOCK
 70
    64
  3

 72
    65
 73
     0
 40
0.0
  0
LTYPE
  5
12
100
AcDbSymbolTableRecord
100
AcDbLinetypeTableRecord
  2
BYLAYER
 70
    64
  3

 72
    65
 73
     0
 40
0.0
  0
LTYPE
  5
13
100
AcDbSymbolTableRecord
100
AcDbLinetypeTableRecord
  2
CONTINUOUS
 70
    64
  3
Solid line
 72
    65
 73
     0
 40
0.0
  0
LTYPE
  5
2B5
100
AcDbSymbolTableRecord
100
AcDbLinetypeTableRecord
  2
DASHED
 70
    64
  3
Dashed __ __ __ __ __ __ __ __ __ __ __ __ __ _
 72
    65
 73
     2
 40
19.05
 49
12.7
 74
     0
 49
-6.35
 74
     0
  0
LTYPE
  5
662
100
AcDbSymbolTableRecord
100
AcDbLinetypeTableRecord
  2
CENTER
 70
    64
  3
Center ____ _ ____ _ ____ _ ____ _ ____ _ ____
 72
    65
 73
     4
 40
50.8
 49
31.75
 74
     0
 49
-6.35
 74
     0
 49
6.35
 74
     0
 49
-6.35
 74
     0
  0
ENDTAB
  0
TABLE
  2
LAYER
  5
2
100
AcDbSymbolTable
 70
     3
  0
LAYER
  5
14
100
AcDbSymbolTableRecord
100
AcDbLayerTableRecord
  2
0
 70
     0
 62
     7
  6
CONTINUOUS
290
     1
370
    -3
390
1D
  0
LAYER
  5
23
100
AcDbSymbolTableRecord
100
AcDbLayerTableRecord
  2
LY_1
 70
     0
 62
   254
  6
CONTINUOUS
290
     1
370
    -3
390
1D
  0
LAYER
  5
24
100
AcDbSymbolTableRecord
100
AcDbLayerTableRecord
  2
DEFPOINTS
 70
     0
 62
     7
  6
CONTINUOUS
290
     0
370
    -3
390
1D
  0
ENDTAB
  0
TABLE
  2
STYLE
  5
3
100
AcDbSymbolTable
 70
     3
  0
STYLE
  5
17
100
AcDbSymbolTableRecord
100
AcDbTextStyleTableRecord
  2
MX_NOTE_STANDARD
 70
     0
 40
0.0
 41
1.0
 50
0.0
 71
     0
 42
3.2
  3
txt.shx
  4
extfont.shx
  0
STYLE
  5
42F
100
AcDbSymbolTableRecord
100
AcDbTextStyleTableRecord
  2
MX_DIMTXSTY_2
 70
     0
 40
0.0
 41
1.1
 50
0.0
 71
     0
 42
3.2
  3
txt.shx
  4
extfont.shx
  0
STYLE
  5
625
100
AcDbSymbolTableRecord
100
AcDbTextStyleTableRecord
  2
MX_DIMTXSTY_3
 70
     0
 40
0.0
 41
1.05
 50
0.0
 71
     0
 42
3.2
  3
txt.shx
  4
extfont.shx
  0
ENDTAB
  0
TABLE
  2
VIEW
  5
5
100
AcDbSymbolTable
 70
     0
  0
ENDTAB
  0
TABLE
  2
UCS
  5
6
100
AcDbSymbolTable
 70
     0
  0
ENDTAB
  0
TABLE
  2
APPID
  5
8
100
AcDbSymbolTable
 70
     2
  0
APPID
  5
16
100
AcDbSymbolTableRecord
100
AcDbRegAppTableRecord
  2
ACAD
 70
     0
  0
APPID
  5
439
100
AcDbSymbolTableRecord
100
AcDbRegAppTableRecord
  2
CONTENTBLOCKDESCRIPTION
 70
     0
  0
ENDTAB
  0
TABLE
  2
DIMSTYLE
  5
9
100
AcDbSymbolTable
 70
     1
100
AcDbDimStyleTable
 71
     0
  0
DIMSTYLE
105
18
100
AcDbSymbolTableRecord
100
AcDbDimStyleTableRecord
  2
MXDIMSTYLE
 70
     0
  3

  4

 40
1.0
 41
2.5
 42
0.0
 43
3.75
 44
2.5
 45
0.0
 46
0.0
 47
0.0
 48
0.0
 71
     0
 72
     0
 73
     0
 74
     0
 75
     0
 76
     0
 77
     1
 78
     8
 79
     0
140
3.2
141
2.5
142
0.0
143
0.03937
144
1.0
145
0.0
146
1.0
147
1.0
148
0.0
170
     0
171
     4
172
     1
173
     1
174
     0
175
     0
176
     0
177
     0
178
     0
179
     0
271
     2
272
     2
273
     2
274
     4
275
     0
276
     0
277
     2
278
    46
279
     0
280
     0
281
     0
282
     0
283
     0
284
     0
285
     0
286
     0
288
     0
289
     3
340
17
341
41
342
0
343
41
344
41
371
    -2
372
    -2
  0
ENDTAB
  0
TABLE
  2
BLOCK_RECORD
  5
1
100
AcDbSymbolTable
 70
    40
  0
BLOCK_RECORD
  5
A
100
AcDbSymbolTableRecord
100
AcDbBlockTableRecord
  2
*MODEL_SPACE
340
20
  0
BLOCK_RECORD
  5
B
100
AcDbSymbolTableRecord
100
AcDbBlockTableRecord
  2
*PAPER_SPACE
340
21
  0
BLOCK_RECORD
  5
25
100
AcDbSymbolTableRecord
100
AcDbBlockTableRecord
  2
MS_1
340
0
  0
BLOCK_RECORD
  5
26
100
AcDbSymbolTableRecord
100
AcDbBlockTableRecord
  2
MS_2
340
0
  0
BLOCK_RECORD
  5
27
100
AcDbSymbolTableRecord
100
AcDbBlockTableRecord
  2
MS_3
340
0
  0
BLOCK_RECORD
  5
28
100
AcDbSymbolTableRecord
100
AcDbBlockTableRecord
  2
MS_4
340
0
  0
BLOCK_RECORD
  5
29
100
AcDbSymbolTableRecord
100
AcDbBlockTableRecord
  2
CASE1
340
0
102
{BLKREFS
331
7A2
102
}
  0
BLOCK_RECORD
  5
2A
100
AcDbSymbolTableRecord
100
AcDbBlockTableRecord
  2
MS_6
340
0
  0
BLOCK_RECORD
  5
2B
100
AcDbSymbolTableRecord
100
AcDbBlockTableRecord
  2
MS_7
340
0
  0
BLOCK_RECORD
  5
2C
100
AcDbSymbolTableRecord
100
AcDbBlockTableRecord
  2
MS_8
340
0
  0
BLOCK_RECORD
  5
2D
100
AcDbSymbolTableRecord
100
AcDbBlockTableRecord
  2
MS_9
340
0
  0
BLOCK_RECORD
  5
2E
100
AcDbSymbolTableRecord
100
AcDbBlockTableRecord
  2
MS_10
340
0
  0
BLOCK_RECORD
  5
2F
100
AcDbSymbolTableRecord
100
AcDbBlockTableRecord
  2
MS_11
340
0
  0
BLOCK_RECORD
  5
30
100
AcDbSymbolTableRecord
100
AcDbBlockTableRecord
  2
MS_12
340
0
  0
BLOCK_RECORD
  5
31
100
AcDbSymbolTableRecord
100
AcDbBlockTableRecord
  2
MS_13
340
0
  0
BLOCK_RECORD
  5
32
100
AcDbSymbolTableRecord
100
AcDbBlockTableRecord
  2
CASE2
340
0
102
{BLKREFS
331
7A0
102
}
  0
BLOCK_RECORD
  5
33
100
AcDbSymbolTableRecord
100
AcDbBlockTableRecord
  2
MS_15
340
0
  0
BLOCK_RECORD
  5
34
100
AcDbSymbolTableRecord
100
AcDbBlockTableRecord
  2
CASE3
340
0
102
{BLKREFS
331
7A1
102
}
  0
BLOCK_RECORD
  5
35
100
AcDbSymbolTableRecord
100
AcDbBlockTableRecord
  2
MS_17
340
0
  0
BLOCK_RECORD
  5
36
100
AcDbSymbolTableRecord
100
AcDbBlockTableRecord
  2
PORT
340
0
102
{BLKREFS
331
79E
102
}
  0
BLOCK_RECORD
  5
37
100
AcDbSymbolTableRecord
100
AcDbBlockTableRecord
  2
PANEL
340
0
  0
BLOCK_RECORD
  5
38
100
AcDbSymbolTableRecord
100
AcDbBlockTableRecord
  2
MS_20
340
0
  0
BLOCK_RECORD
  5
39
100
AcDbSymbolTableRecord
100
AcDbBlockTableRecord
  2
MS_21
340
0
  0
BLOCK_RECORD
  5
3A
100
AcDbSymbolTableRecord
100
AcDbBlockTableRecord
  2
MS_22
340
0
  0
BLOCK_RECORD
  5
3B
100
AcDbSymbolTableRecord
100
AcDbBlockTableRecord
  2
SW
340
0
  0
BLOCK_RECORD
  5
3C
100
AcDbSymbolTableRecord
100
AcDbBlockTableRecord
  2
SW1
340
0
102
{BLKREFS
331
6EE
331
6EF
331
6F0
331
6F1
331
6F2
102
}
  0
BLOCK_RECORD
  5
3D
100
AcDbSymbolTableRecord
100
AcDbBlockTableRecord
  2
LCD
340
0
102
{BLKREFS
331
6E6
102
}
  0
BLOCK_RECORD
  5
3E
100
AcDbSymbolTableRecord
100
AcDbBlockTableRecord
  2
UP
340
0
102
{BLKREFS
331
6E1
102
}
  0
BLOCK_RECORD
  5
3F
100
AcDbSymbolTableRecord
100
AcDbBlockTableRecord
  2
DOWN
340
0
102
{BLKREFS
331
6E0
102
}
  0
BLOCK_RECORD
  5
40
100
AcDbSymbolTableRecord
100
AcDbBlockTableRecord
  2
MS_28
340
0
102
{BLKREFS
331
6DF
102
}
  0
BLOCK_RECORD
  5
41
100
AcDbSymbolTableRecord
100
AcDbBlockTableRecord
  2
_OPEN30
340
0
  0
BLOCK_RECORD
  5
F2
100
AcDbSymbolTableRecord
100
AcDbBlockTableRecord
  2
*D29
340
0
  0
BLOCK_RECORD
  5
F7
100
AcDbSymbolTableRecord
100
AcDbBlockTableRecord
  2
_OPEN
340
0
102
{BLKREFS
331
FD
331
FE
331
10A
331
10B
331
1C3
331
1C4
331
1D0
331
1D1
331
42D
331
42E
331
623
331
624
331
66C
331
66D
331
683
331
684
331
690
331
691
102
}
  0
BLOCK_RECORD
  5
105
100
AcDbSymbolTableRecord
100
AcDbBlockTableRecord
  2
*D31
340
0
  0
BLOCK_RECORD
  5
1BE
100
AcDbSymbolTableRecord
100
AcDbBlockTableRecord
  2
*D32
340
0
  0
BLOCK_RECORD
  5
1CB
100
AcDbSymbolTableRecord
100
AcDbBlockTableRecord
  2
*D33
340
0
  0
BLOCK_RECORD
  5
428
100
AcDbSymbolTableRecord
100
AcDbBlockTableRecord
  2
*D34
340
0
  0
BLOCK_RECORD
  5
438
100
AcDbSymbolTableRecord
100
AcDbBlockTableRecord
  2
$SYMTB004-46
340
0
102
{BLKREFS
331
441
331
5B4
331
5BC
331
5C4
331
5CC
331
5D4
331
5DC
331
5E4
331
5EC
331
5F4
331
5FC
102
}
1001
CONTENTBLOCKDESCRIPTION
1071
        0
1000
ICAD/MX UserSymbol^M^Jtable_name:SYMTB004^M^Jsymbol_no.: 46
  0
BLOCK_RECORD
  5
61E
100
AcDbSymbolTableRecord
100
AcDbBlockTableRecord
  2
*D36
340
0
  0
BLOCK_RECORD
  5
667
100
AcDbSymbolTableRecord
100
AcDbBlockTableRecord
  2
*D37
340
0
  0
BLOCK_RECORD
  5
67E
100
AcDbSymbolTableRecord
100
AcDbBlockTableRecord
  2
*D38
340
0
  0
BLOCK_RECORD
  5
68B
100
AcDbSymbolTableRecord
100
AcDbBlockTableRecord
  2
*D39
340
0
  0
ENDTAB
  0
ENDSEC
  0
SECTION
  2
BLOCKS
  0
BLOCK
  5
D
100
AcDbEntity
  8
0
390
0
100
AcDbBlockBegin
  2
*MODEL_SPACE
 70
     0
 10
0.0
 20
0.0
 30
0.0
  3
*MODEL_SPACE
  1

  0
ENDBLK
  5
E
100
AcDbEntity
  8
0
390
0
100
AcDbBlockEnd
  0
BLOCK
  5
F
100
AcDbEntity
 67
     1
  8
0
390
0
100
AcDbBlockBegin
  2
*PAPER_SPACE
 70
     0
 10
0.0
 20
0.0
 30
0.0
  3
*PAPER_SPACE
  1

  0
ENDBLK
  5
10
100
AcDbEntity
 67
     1
  8
0
390
0
100
AcDbBlockEnd
  0
BLOCK
  5
47
100
AcDbEntity
  8
0
370
    -2
390
0
100
AcDbBlockBegin
  2
MS_1
 70
     0
 10
0.0
 20
0.0
 30
0.0
  3
MS_1
  1

  0
LINE
  5
48
100
AcDbEntity
  8
0
390
0
  6
CONTINUOUS
 62
     6
100
AcDbLine
 10
45.0
 20
-36.0
 30
0.0
 11
45.0
 21
-44.0
 31
0.0
  0
LINE
  5
49
100
AcDbEntity
  8
0
390
0
  6
CONTINUOUS
 62
     6
100
AcDbLine
 10
-45.0
 20
-36.0
 30
0.0
 11
-45.0
 21
-44.0
 31
0.0
  0
LINE
  5
4A
100
AcDbEntity
  8
0
390
0
  6
CONTINUOUS
 62
     6
100
AcDbLine
 10
-45.0
 20
36.0
 30
0.0
 11
-45.0
 21
44.0
 31
0.0
  0
LINE
  5
4B
100
AcDbEntity
  8
0
390
0
  6
CONTINUOUS
 62
     6
100
AcDbLine
 10
45.0
 20
36.0
 30
0.0
 11
45.0
 21
44.0
 31
0.0
  0
LINE
  5
4C
100
AcDbEntity
  8
0
390
0
  6
CONTINUOUS
 62
     6
100
AcDbLine
 10
-41.6
 20
44.0
 30
0.0
 11
-41.6
 21
36.0
 31
0.0
  0
LINE
  5
4D
100
AcDbEntity
  8
0
390
0
  6
CONTINUOUS
 62
     6
100
AcDbLine
 10
-41.6
 20
44.0
 30
0.0
 11
-41.6
 21
45.0
 31
0.0
  0
LINE
  5
4E
100
AcDbEntity
  8
0
390
0
  6
CONTINUOUS
 62
     6
100
AcDbLine
 10
-41.6
 20
44.0
 30
0.0
 11
-45.0
 21
44.0
 31
0.0
  0
LINE
  5
4F
100
AcDbEntity
  8
0
390
0
  6
CONTINUOUS
 62
     6
100
AcDbLine
 10
41.6
 20
44.0
 30
0.0
 11
41.6
 21
45.0
 31
0.0
  0
LINE
  5
50
100
AcDbEntity
  8
0
390
0
  6
CONTINUOUS
 62
     6
100
AcDbLine
 10
41.6
 20
44.0
 30
0.0
 11
45.0
 21
44.0
 31
0.0
  0
LINE
  5
51
100
AcDbEntity
  8
0
390
0
  6
CONTINUOUS
 62
     6
100
AcDbLine
 10
-45.0
 20
-45.0
 30
0.0
 11
-45.0
 21
-44.0
 31
0.0
  0
LINE
  5
52
100
AcDbEntity
  8
0
390
0
  6
CONTINUOUS
 62
     6
100
AcDbLine
 10
45.0
 20
45.0
 30
0.0
 11
45.0
 21
44.0
 31
0.0
  0
LINE
  5
53
100
AcDbEntity
  8
0
390
0
  6
CONTINUOUS
 62
     6
100
AcDbLine
 10
45.0
 20
45.0
 30
0.0
 11
41.6
 21
45.0
 31
0.0
  0
LINE
  5
54
100
AcDbEntity
  8
0
390
0
  6
CONTINUOUS
 62
     6
100
AcDbLine
 10
-41.6
 20
-44.0
 30
0.0
 11
-45.0
 21
-44.0
 31
0.0
  0
LINE
  5
55
100
AcDbEntity
  8
0
390
0
  6
CONTINUOUS
 62
     6
100
AcDbLine
 10
-45.0
 20
-45.0
 30
0.0
 11
-41.6
 21
-45.0
 31
0.0
  0
LINE
  5
56
100
AcDbEntity
  8
0
390
0
  6
CONTINUOUS
 62
     6
100
AcDbLine
 10
-41.6
 20
-44.0
 30
0.0
 11
-41.6
 21
-45.0
 31
0.0
  0
LINE
  5
57
100
AcDbEntity
  8
0
390
0
  6
CONTINUOUS
 62
     6
100
AcDbLine
 10
-41.6
 20
-44.0
 30
0.0
 11
-41.6
 21
-36.0
 31
0.0
  0
LINE
  5
58
100
AcDbEntity
  8
0
390
0
  6
CONTINUOUS
 62
     6
100
AcDbLine
 10
41.6
 20
-44.0
 30
0.0
 11
41.6
 21
-45.0
 31
0.0
  0
LINE
  5
59
100
AcDbEntity
  8
0
390
0
  6
CONTINUOUS
 62
     6
100
AcDbLine
 10
41.6
 20
-44.0
 30
0.0
 11
45.0
 21
-44.0
 31
0.0
  0
LINE
  5
5A
100
AcDbEntity
  8
0
390
0
  6
CONTINUOUS
 62
     6
100
AcDbLine
 10
45.0
 20
-45.0
 30
0.0
 11
45.0
 21
-44.0
 31
0.0
  0
LINE
  5
5B
100
AcDbEntity
  8
0
390
0
  6
CONTINUOUS
 62
     6
100
AcDbLine
 10
45.0
 20
-45.0
 30
0.0
 11
41.6
 21
-45.0
 31
0.0
  0
LINE
  5
5C
100
AcDbEntity
  8
0
390
0
  6
CONTINUOUS
 62
     6
100
AcDbLine
 10
41.6
 20
-44.0
 30
0.0
 11
41.6
 21
-36.0
 31
0.0
  0
LINE
  5
5D
100
AcDbEntity
  8
0
390
0
  6
CONTINUOUS
 62
     6
100
AcDbLine
 10
41.6
 20
44.0
 30
0.0
 11
41.6
 21
36.0
 31
0.0
  0
LINE
  5
5E
100
AcDbEntity
  8
0
390
0
  6
CONTINUOUS
 62
     6
100
AcDbLine
 10
-45.0
 20
45.0
 30
0.0
 11
-45.0
 21
44.0
 31
0.0
  0
LINE
  5
5F
100
AcDbEntity
  8
0
390
0
  6
CONTINUOUS
 62
     6
100
AcDbLine
 10
-45.0
 20
45.0
 30
0.0
 11
-41.6
 21
45.0
 31
0.0
  0
ENDBLK
  5
60
100
AcDbEntity
  8
0
370
    -2
390
0
100
AcDbBlockEnd
  0
BLOCK
  5
61
100
AcDbEntity
  8
0
370
    -2
390
0
100
AcDbBlockBegin
  2
MS_2
 70
     0
 10
0.0
 20
0.0
 30
0.0
  3
MS_2
  1

  0
LINE
  5
62
100
AcDbEntity
  8
0
390
0
  6
CONTINUOUS
 62
     3
100
AcDbLine
 10
10.45
 20
-25.25
 30
0.0
 11
10.45
 21
-20.75
 31
0.0
  0
LINE
  5
63
100
AcDbEntity
  8
0
390
0
  6
CONTINUOUS
 62
     3
100
AcDbLine
 10
10.45
 20
20.75
 30
0.0
 11
14.45
 21
20.75
 31
0.0
  0
LINE
  5
64
100
AcDbEntity
  8
0
390
0
  6
CONTINUOUS
 62
     3
100
AcDbLine
 10
-8.182455
 20
-6.0
 30
0.0
 11
-0.55
 21
-6.0
 31
0.0
  0
LINE
  5
65
100
AcDbEntity
  8
0
390
0
  6
CONTINUOUS
 62
     3
100
AcDbLine
 10
-0.55
 20
6.0
 30
0.0
 11
-8.182455
 21
6.0
 31
0.0
  0
LINE
  5
66
100
AcDbEntity
  8
0
390
0
  6
CONTINUOUS
 62
     3
100
AcDbLine
 10
14.45
 20
25.25
 30
0.0
 11
10.45
 21
25.25
 31
0.0
  0
LINE
  5
67
100
AcDbEntity
  8
0
390
0
  6
CONTINUOUS
 62
     3
100
AcDbLine
 10
10.45
 20
25.25
 30
0.0
 11
10.45
 21
20.75
 31
0.0
  0
LINE
  5
68
100
AcDbEntity
  8
0
390
0
  6
CONTINUOUS
 62
     3
100
AcDbLine
 10
-0.55
 20
-2.25
 30
0.0
 11
-0.55
 21
-18.0
 31
0.0
  0
LINE
  5
69
100
AcDbEntity
  8
0
390
0
  6
CONTINUOUS
 62
     3
100
AcDbLine
 10
-0.55
 20
-2.25
 30
0.0
 11
5.95
 21
-2.25
 31
0.0
  0
LINE
  5
6A
100
AcDbEntity
  8
0
390
0
  6
CONTINUOUS
 62
     3
100
AcDbLine
 10
5.95
 20
-18.0
 30
0.0
 11
5.95
 21
-2.25
 31
0.0
  0
LINE
  5
6B
100
AcDbEntity
  8
0
390
0
  6
CONTINUOUS
 62
     3
100
AcDbLine
 10
-0.55
 20
-18.0
 30
0.0
 11
5.95
 21
-18.0
 31
0.0
  0
LINE
  5
6C
100
AcDbEntity
  8
0
390
0
  6
CONTINUOUS
 62
     3
100
AcDbLine
 10
5.95
 20
18.0
 30
0.0
 11
-0.55
 21
18.0
 31
0.0
  0
LINE
  5
6D
100
AcDbEntity
  8
0
390
0
  6
CONTINUOUS
 62
     3
100
AcDbLine
 10
-0.55
 20
2.25
 30
0.0
 11
5.95
 21
2.25
 31
0.0
  0
LINE
  5
6E
100
AcDbEntity
  8
0
390
0
  6
CONTINUOUS
 62
     3
100
AcDbLine
 10
-0.55
 20
18.0
 30
0.0
 11
-0.55
 21
2.25
 31
0.0
  0
LINE
  5
6F
100
AcDbEntity
  8
0
390
0
  6
CONTINUOUS
 62
     3
100
AcDbLine
 10
5.95
 20
2.25
 30
0.0
 11
5.95
 21
18.0
 31
0.0
  0
LINE
  5
70
100
AcDbEntity
  8
0
390
0
  6
CONTINUOUS
 62
     3
100
AcDbLine
 10
4.45
 20
43.0
 30
0.0
 11
14.45
 21
43.0
 31
0.0
  0
LINE
  5
71
100
AcDbEntity
  8
0
390
0
  6
CONTINUOUS
 62
     3
100
AcDbLine
 10
4.45
 20
35.0
 30
0.0
 11
4.45
 21
43.0
 31
0.0
  0
LINE
  5
72
100
AcDbEntity
  8
0
390
0
  6
CONTINUOUS
 62
     3
100
AcDbLine
 10
14.45
 20
35.0
 30
0.0
 11
4.45
 21
35.0
 31
0.0
  0
LINE
  5
73
100
AcDbEntity
  8
0
390
0
  6
CONTINUOUS
 62
     3
100
AcDbLine
 10
14.45
 20
43.0
 30
0.0
 11
14.45
 21
35.0
 31
0.0
  0
LINE
  5
74
100
AcDbEntity
  8
0
390
0
  6
CONTINUOUS
 62
     3
100
AcDbLine
 10
-7.55
 20
43.0
 30
0.0
 11
2.45
 21
43.0
 31
0.0
  0
LINE
  5
75
100
AcDbEntity
  8
0
390
0
  6
CONTINUOUS
 62
     3
100
AcDbLine
 10
-7.55
 20
35.0
 30
0.0
 11
-7.55
 21
43.0
 31
0.0
  0
LINE
  5
76
100
AcDbEntity
  8
0
390
0
  6
CONTINUOUS
 62
     3
100
AcDbLine
 10
2.45
 20
35.0
 30
0.0
 11
-7.55
 21
35.0
 31
0.0
  0
LINE
  5
77
100
AcDbEntity
  8
0
390
0
  6
CONTINUOUS
 62
     3
100
AcDbLine
 10
2.45
 20
43.0
 30
0.0
 11
2.45
 21
35.0
 31
0.0
  0
LINE
  5
78
100
AcDbEntity
  8
0
390
0
  6
CONTINUOUS
 62
     3
100
AcDbLine
 10
14.45
 20
20.75
 30
0.0
 11
14.45
 21
25.25
 31
0.0
  0
LINE
  5
79
100
AcDbEntity
  8
0
390
0
  6
CONTINUOUS
 62
     3
100
AcDbLine
 10
-9.55
 20
44.0
 30
0.0
 11
-8.55
 21
45.0
 31
0.0
  0
LINE
  5
7A
100
AcDbEntity
  8
0
390
0
  6
CONTINUOUS
 62
     3
100
AcDbLine
 10
-8.55
 20
45.0
 30
0.0
 11
15.45
 21
45.0
 31
0.0
  0
LINE
  5
7B
100
AcDbEntity
  8
0
390
0
  6
CONTINUOUS
 62
     3
100
AcDbLine
 10
15.45
 20
45.0
 30
0.0
 11
16.45
 21
44.0
 31
0.0
  0
LINE
  5
7C
100
AcDbEntity
  8
0
390
0
  6
CONTINUOUS
 62
     3
100
AcDbLine
 10
16.45
 20
18.918631
 30
0.0
 11
16.45
 21
44.0
 31
0.0
  0
LINE
  5
7D
100
AcDbEntity
  8
0
390
0
  6
CONTINUOUS
 62
     3
100
AcDbLine
 10
5.95
 20
18.0
 30
0.0
 11
16.45
 21
18.918631
 31
0.0
  0
LINE
  5
7E
100
AcDbEntity
  8
0
390
0
  6
CONTINUOUS
 62
     3
100
AcDbLine
 10
-8.553805
 20
33.700242
 30
0.0
 11
-0.55
 21
33.0
 31
0.0
  0
LINE
  5
7F
100
AcDbEntity
  8
0
390
0
  6
CONTINUOUS
 62
     3
100
AcDbLine
 10
-9.55
 20
34.787398
 30
0.0
 11
-8.553805
 21
33.700242
 31
0.0
  0
LINE
  5
80
100
AcDbEntity
  8
0
390
0
  6
CONTINUOUS
 62
     3
100
AcDbLine
 10
-9.55
 20
34.787398
 30
0.0
 11
-9.55
 21
44.0
 31
0.0
  0
LINE
  5
81
100
AcDbEntity
  8
0
390
0
  6
CONTINUOUS
 62
     3
100
AcDbLine
 10
-0.55
 20
18.0
 30
0.0
 11
-0.55
 21
33.0
 31
0.0
  0
LINE
  5
82
100
AcDbEntity
  8
0
390
0
  6
CONTINUOUS
 62
     3
100
AcDbLine
 10
2.45
 20
43.0
 30
0.0
 11
2.097346
 21
42.647346
 31
0.0
  0
LINE
  5
83
100
AcDbEntity
  8
0
390
0
  6
CONTINUOUS
 62
     3
100
AcDbLine
 10
2.45
 20
35.0
 30
0.0
 11
2.097346
 21
35.352654
 31
0.0
  0
LINE
  5
84
100
AcDbEntity
  8
0
390
0
  6
CONTINUOUS
 62
     3
100
AcDbLine
 10
2.097346
 20
42.647346
 30
0.0
 11
2.097346
 21
35.352654
 31
0.0
  0
LINE
  5
85
100
AcDbEntity
  8
0
390
0
  6
CONTINUOUS
 62
     3
100
AcDbLine
 10
14.45
 20
-35.0
 30
0.0
 11
4.45
 21
-35.0
 31
0.0
  0
LINE
  5
86
100
AcDbEntity
  8
0
390
0
  6
CONTINUOUS
 62
     3
100
AcDbLine
 10
4.45
 20
-35.0
 30
0.0
 11
4.45
 21
-43.0
 31
0.0
  0
LINE
  5
87
100
AcDbEntity
  8
0
390
0
  6
CONTINUOUS
 62
     3
100
AcDbLine
 10
4.45
 20
-43.0
 30
0.0
 11
14.45
 21
-43.0
 31
0.0
  0
LINE
  5
88
100
AcDbEntity
  8
0
390
0
  6
CONTINUOUS
 62
     3
100
AcDbLine
 10
14.45
 20
-43.0
 30
0.0
 11
14.45
 21
-35.0
 31
0.0
  0
LINE
  5
89
100
AcDbEntity
  8
0
390
0
  6
CONTINUOUS
 62
     3
100
AcDbLine
 10
2.45
 20
-35.0
 30
0.0
 11
-7.55
 21
-35.0
 31
0.0
  0
LINE
  5
8A
100
AcDbEntity
  8
0
390
0
  6
CONTINUOUS
 62
     3
100
AcDbLine
 10
-7.55
 20
-35.0
 30
0.0
 11
-7.55
 21
-43.0
 31
0.0
  0
LINE
  5
8B
100
AcDbEntity
  8
0
390
0
  6
CONTINUOUS
 62
     3
100
AcDbLine
 10
-7.55
 20
-43.0
 30
0.0
 11
2.45
 21
-43.0
 31
0.0
  0
LINE
  5
8C
100
AcDbEntity
  8
0
390
0
  6
CONTINUOUS
 62
     3
100
AcDbLine
 10
2.45
 20
-43.0
 30
0.0
 11
2.45
 21
-35.0
 31
0.0
  0
LINE
  5
8D
100
AcDbEntity
  8
0
390
0
  6
CONTINUOUS
 62
     3
100
AcDbLine
 10
14.45
 20
-25.25
 30
0.0
 11
10.45
 21
-25.25
 31
0.0
  0
LINE
  5
8E
100
AcDbEntity
  8
0
390
0
  6
CONTINUOUS
 62
     3
100
AcDbLine
 10
14.45
 20
-20.75
 30
0.0
 11
14.45
 21
-25.25
 31
0.0
  0
LINE
  5
8F
100
AcDbEntity
  8
0
390
0
  6
CONTINUOUS
 62
     3
100
AcDbLine
 10
10.45
 20
-20.75
 30
0.0
 11
14.45
 21
-20.75
 31
0.0
  0
LINE
  5
90
100
AcDbEntity
  8
0
390
0
  6
CONTINUOUS
 62
     3
100
AcDbLine
 10
16.45
 20
-18.918631
 30
0.0
 11
5.95
 21
-18.0
 31
0.0
  0
LINE
  5
91
100
AcDbEntity
  8
0
390
0
  6
CONTINUOUS
 62
     3
100
AcDbLine
 10
16.45
 20
-18.918631
 30
0.0
 11
16.45
 21
-44.0
 31
0.0
  0
LINE
  5
92
100
AcDbEntity
  8
0
390
0
  6
CONTINUOUS
 62
     3
100
AcDbLine
 10
-9.55
 20
-34.787398
 30
0.0
 11
-9.55
 21
-44.0
 31
0.0
  0
LINE
  5
93
100
AcDbEntity
  8
0
390
0
  6
CONTINUOUS
 62
     3
100
AcDbLine
 10
-8.553805
 20
-33.700242
 30
0.0
 11
-9.55
 21
-34.787398
 31
0.0
  0
LINE
  5
94
100
AcDbEntity
  8
0
390
0
  6
CONTINUOUS
 62
     3
100
AcDbLine
 10
-0.55
 20
-33.0
 30
0.0
 11
-8.553805
 21
-33.700242
 31
0.0
  0
LINE
  5
95
100
AcDbEntity
  8
0
390
0
  6
CONTINUOUS
 62
     3
100
AcDbLine
 10
15.45
 20
-45.0
 30
0.0
 11
16.45
 21
-44.0
 31
0.0
  0
LINE
  5
96
100
AcDbEntity
  8
0
390
0
  6
CONTINUOUS
 62
     3
100
AcDbLine
 10
-8.55
 20
-45.0
 30
0.0
 11
15.45
 21
-45.0
 31
0.0
  0
LINE
  5
97
100
AcDbEntity
  8
0
390
0
  6
CONTINUOUS
 62
     3
100
AcDbLine
 10
-9.55
 20
-44.0
 30
0.0
 11
-8.55
 21
-45.0
 31
0.0
  0
LINE
  5
98
100
AcDbEntity
  8
0
390
0
  6
CONTINUOUS
 62
     3
100
AcDbLine
 10
-0.55
 20
-33.0
 30
0.0
 11
-0.55
 21
-18.0
 31
0.0
  0
LINE
  5
99
100
AcDbEntity
  8
0
390
0
  6
CONTINUOUS
 62
     3
100
AcDbLine
 10
-7.55
 20
35.0
 30
0.0
 11
-7.197346
 21
35.352654
 31
0.0
  0
LINE
  5
9A
100
AcDbEntity
  8
0
390
0
  6
CONTINUOUS
 62
     3
100
AcDbLine
 10
2.097346
 20
35.352654
 30
0.0
 11
-7.197346
 21
35.352654
 31
0.0
  0
LINE
  5
9B
100
AcDbEntity
  8
0
390
0
  6
CONTINUOUS
 62
     3
100
AcDbLine
 10
2.45
 20
-43.0
 30
0.0
 11
2.097346
 21
-42.647346
 31
0.0
  0
LINE
  5
9C
100
AcDbEntity
  8
0
390
0
  6
CONTINUOUS
 62
     3
100
AcDbLine
 10
-7.55
 20
-43.0
 30
0.0
 11
-7.197346
 21
-42.647346
 31
0.0
  0
LINE
  5
9D
100
AcDbEntity
  8
0
390
0
  6
CONTINUOUS
 62
     3
100
AcDbLine
 10
-7.197346
 20
-42.647346
 30
0.0
 11
2.097346
 21
-42.647346
 31
0.0
  0
LINE
  5
9E
100
AcDbEntity
  8
0
390
0
  6
CONTINUOUS
 62
     3
100
AcDbLine
 10
2.45
 20
-35.0
 30
0.0
 11
2.097346
 21
-35.352654
 31
0.0
  0
LINE
  5
9F
100
AcDbEntity
  8
0
390
0
  6
CONTINUOUS
 62
     3
100
AcDbLine
 10
2.097346
 20
-42.647346
 30
0.0
 11
2.097346
 21
-35.352654
 31
0.0
  0
LINE
  5
A0
100
AcDbEntity
  8
0
390
0
  6
CONTINUOUS
 62
     3
100
AcDbLine
 10
-7.55
 20
-35.0
 30
0.0
 11
-7.197346
 21
-35.352654
 31
0.0
  0
LINE
  5
A1
100
AcDbEntity
  8
0
390
0
  6
CONTINUOUS
 62
     3
100
AcDbLine
 10
2.097346
 20
-35.352654
 30
0.0
 11
-7.197346
 21
-35.352654
 31
0.0
  0
LINE
  5
A2
100
AcDbEntity
  8
0
390
0
  6
CONTINUOUS
 62
     3
100
AcDbLine
 10
-7.197346
 20
-35.352654
 30
0.0
 11
-7.197346
 21
-42.647346
 31
0.0
  0
LINE
  5
A3
100
AcDbEntity
  8
0
390
0
  6
CONTINUOUS
 62
     3
100
AcDbLine
 10
-7.55
 20
43.0
 30
0.0
 11
-7.197346
 21
42.647346
 31
0.0
  0
LINE
  5
A4
100
AcDbEntity
  8
0
390
0
  6
CONTINUOUS
 62
     3
100
AcDbLine
 10
-7.197346
 20
42.647346
 30
0.0
 11
2.097346
 21
42.647346
 31
0.0
  0
LINE
  5
A5
100
AcDbEntity
  8
0
390
0
  6
CONTINUOUS
 62
     3
100
AcDbLine
 10
-7.197346
 20
35.352654
 30
0.0
 11
-7.197346
 21
42.647346
 31
0.0
  0
LINE
  5
A6
100
AcDbEntity
  8
0
390
0
  6
CONTINUOUS
 62
     3
100
AcDbLine
 10
4.45
 20
35.0
 30
0.0
 11
4.802654
 21
35.352654
 31
0.0
  0
LINE
  5
A7
100
AcDbEntity
  8
0
390
0
  6
CONTINUOUS
 62
     3
100
AcDbLine
 10
4.45
 20
43.0
 30
0.0
 11
4.802654
 21
42.647346
 31
0.0
  0
LINE
  5
A8
100
AcDbEntity
  8
0
390
0
  6
CONTINUOUS
 62
     3
100
AcDbLine
 10
4.802654
 20
35.352654
 30
0.0
 11
4.802654
 21
42.647346
 31
0.0
  0
LINE
  5
A9
100
AcDbEntity
  8
0
390
0
  6
CONTINUOUS
 62
     3
100
AcDbLine
 10
14.45
 20
43.0
 30
0.0
 11
14.097346
 21
42.647346
 31
0.0
  0
LINE
  5
AA
100
AcDbEntity
  8
0
390
0
  6
CONTINUOUS
 62
     3
100
AcDbLine
 10
4.802654
 20
42.647346
 30
0.0
 11
14.097346
 21
42.647346
 31
0.0
  0
LINE
  5
AB
100
AcDbEntity
  8
0
390
0
  6
CONTINUOUS
 62
     3
100
AcDbLine
 10
14.45
 20
-43.0
 30
0.0
 11
14.097346
 21
-42.647346
 31
0.0
  0
LINE
  5
AC
100
AcDbEntity
  8
0
390
0
  6
CONTINUOUS
 62
     3
100
AcDbLine
 10
4.45
 20
-43.0
 30
0.0
 11
4.802654
 21
-42.647346
 31
0.0
  0
LINE
  5
AD
100
AcDbEntity
  8
0
390
0
  6
CONTINUOUS
 62
     3
100
AcDbLine
 10
4.802654
 20
-42.647346
 30
0.0
 11
14.097346
 21
-42.647346
 31
0.0
  0
LINE
  5
AE
100
AcDbEntity
  8
0
390
0
  6
CONTINUOUS
 62
     3
100
AcDbLine
 10
14.45
 20
35.0
 30
0.0
 11
14.097346
 21
35.352654
 31
0.0
  0
LINE
  5
AF
100
AcDbEntity
  8
0
390
0
  6
CONTINUOUS
 62
     3
100
AcDbLine
 10
14.097346
 20
35.352654
 30
0.0
 11
4.802654
 21
35.352654
 31
0.0
  0
LINE
  5
B0
100
AcDbEntity
  8
0
390
0
  6
CONTINUOUS
 62
     3
100
AcDbLine
 10
4.45
 20
-35.0
 30
0.0
 11
4.802654
 21
-35.352654
 31
0.0
  0
LINE
  5
B1
100
AcDbEntity
  8
0
390
0
  6
CONTINUOUS
 62
     3
100
AcDbLine
 10
14.45
 20
-35.0
 30
0.0
 11
14.097346
 21
-35.352654
 31
0.0
  0
LINE
  5
B2
100
AcDbEntity
  8
0
390
0
  6
CONTINUOUS
 62
     3
100
AcDbLine
 10
14.097346
 20
-35.352654
 30
0.0
 11
4.802654
 21
-35.352654
 31
0.0
  0
LINE
  5
B3
100
AcDbEntity
  8
0
390
0
  6
CONTINUOUS
 62
     3
100
AcDbLine
 10
14.097346
 20
-42.647346
 30
0.0
 11
14.097346
 21
-35.352654
 31
0.0
  0
LINE
  5
B4
100
AcDbEntity
  8
0
390
0
  6
CONTINUOUS
 62
     3
100
AcDbLine
 10
14.097346
 20
42.647346
 30
0.0
 11
14.097346
 21
35.352654
 31
0.0
  0
LINE
  5
B5
100
AcDbEntity
  8
0
390
0
  6
CONTINUOUS
 62
     3
100
AcDbLine
 10
4.802654
 20
-35.352654
 30
0.0
 11
4.802654
 21
-42.647346
 31
0.0
  0
LINE
  5
B6
100
AcDbEntity
  8
0
390
0
  6
CONTINUOUS
 62
     3
100
AcDbLine
 10
-0.65
 20
36.75
 30
0.0
 11
-4.65
 21
36.75
 31
0.0
  0
LINE
  5
B7
100
AcDbEntity
  8
0
390
0
  6
CONTINUOUS
 62
     3
100
AcDbLine
 10
-0.65
 20
41.25
 30
0.0
 11
-0.65
 21
36.75
 31
0.0
  0
LINE
  5
B8
100
AcDbEntity
  8
0
390
0
  6
CONTINUOUS
 62
     3
100
AcDbLine
 10
-4.65
 20
41.25
 30
0.0
 11
-4.65
 21
36.75
 31
0.0
  0
LINE
  5
B9
100
AcDbEntity
  8
0
390
0
  6
CONTINUOUS
 62
     3
100
AcDbLine
 10
-4.65
 20
41.25
 30
0.0
 11
-0.65
 21
41.25
 31
0.0
  0
LINE
  5
BA
100
AcDbEntity
  8
0
390
0
  6
CONTINUOUS
 62
     3
100
AcDbLine
 10
-0.65
 20
-36.75
 30
0.0
 11
-4.65
 21
-36.75
 31
0.0
  0
LINE
  5
BB
100
AcDbEntity
  8
0
390
0
  6
CONTINUOUS
 62
     3
100
AcDbLine
 10
-4.65
 20
-41.25
 30
0.0
 11
-4.65
 21
-36.75
 31
0.0
  0
LINE
  5
BC
100
AcDbEntity
  8
0
390
0
  6
CONTINUOUS
 62
     3
100
AcDbLine
 10
-4.65
 20
-41.25
 30
0.0
 11
-0.65
 21
-41.25
 31
0.0
  0
LINE
  5
BD
100
AcDbEntity
  8
0
390
0
  6
CONTINUOUS
 62
     3
100
AcDbLine
 10
-0.65
 20
-36.75
 30
0.0
 11
-0.65
 21
-41.25
 31
0.0
  0
LINE
  5
BE
100
AcDbEntity
  8
0
390
0
  6
CONTINUOUS
 62
     3
100
AcDbLine
 10
11.55
 20
-36.75
 30
0.0
 11
11.55
 21
-41.25
 31
0.0
  0
LINE
  5
BF
100
AcDbEntity
  8
0
390
0
  6
CONTINUOUS
 62
     3
100
AcDbLine
 10
7.55
 20
-41.25
 30
0.0
 11
11.55
 21
-41.25
 31
0.0
  0
LINE
  5
C0
100
AcDbEntity
  8
0
390
0
  6
CONTINUOUS
 62
     3
100
AcDbLine
 10
11.55
 20
-36.75
 30
0.0
 11
7.55
 21
-36.75
 31
0.0
  0
LINE
  5
C1
100
AcDbEntity
  8
0
390
0
  6
CONTINUOUS
 62
     3
100
AcDbLine
 10
7.55
 20
-41.25
 30
0.0
 11
7.55
 21
-36.75
 31
0.0
  0
LINE
  5
C2
100
AcDbEntity
  8
0
390
0
  6
CONTINUOUS
 62
     3
100
AcDbLine
 10
7.55
 20
36.75
 30
0.0
 11
7.55
 21
41.25
 31
0.0
  0
LINE
  5
C3
100
AcDbEntity
  8
0
390
0
  6
CONTINUOUS
 62
     3
100
AcDbLine
 10
7.55
 20
41.25
 30
0.0
 11
11.55
 21
41.25
 31
0.0
  0
LINE
  5
C4
100
AcDbEntity
  8
0
390
0
  6
CONTINUOUS
 62
     3
100
AcDbLine
 10
11.55
 20
36.75
 30
0.0
 11
7.55
 21
36.75
 31
0.0
  0
LINE
  5
C5
100
AcDbEntity
  8
0
390
0
  6
CONTINUOUS
 62
     3
100
AcDbLine
 10
11.55
 20
36.75
 30
0.0
 11
11.55
 21
41.25
 31
0.0
  0
LINE
  5
C6
100
AcDbEntity
  8
0
390
0
  6
CONTINUOUS
 62
     3
100
AcDbLine
 10
-0.55
 20
2.25
 30
0.0
 11
-0.55
 21
-2.25
 31
0.0
  0
LINE
  5
C7
100
AcDbEntity
  8
0
390
0
  6
CONTINUOUS
 62
     3
100
AcDbLine
 10
5.95
 20
-2.25
 30
0.0
 11
5.95
 21
2.25
 31
0.0
  0
LINE
  5
C8
100
AcDbEntity
  8
0
390
0
  6
CONTINUOUS
 62
     3
100
AcDbLine
 10
10.45
 20
-36.75
 30
0.0
 11
10.45
 21
-41.25
 31
0.0
  0
LINE
  5
C9
100
AcDbEntity
  8
0
390
0
  6
CONTINUOUS
 62
     3
100
AcDbLine
 10
-3.55
 20
-36.75
 30
0.0
 11
-3.55
 21
-41.25
 31
0.0
  0
LINE
  5
CA
100
AcDbEntity
  8
0
390
0
  6
CONTINUOUS
 62
     3
100
AcDbLine
 10
-3.55
 20
36.75
 30
0.0
 11
-3.55
 21
41.25
 31
0.0
  0
LINE
  5
CB
100
AcDbEntity
  8
0
390
0
  6
CONTINUOUS
 62
     3
100
AcDbLine
 10
10.45
 20
36.75
 30
0.0
 11
10.45
 21
41.25
 31
0.0
  0
LINE
  5
CC
100
AcDbEntity
  8
0
390
0
  6
CONTINUOUS
 62
     3
100
AcDbLine
 10
-10.95
 20
-33.0
 30
0.0
 11
-11.45
 21
-33.5
 31
0.0
  0
LINE
  5
CD
100
AcDbEntity
  8
0
390
0
  6
CONTINUOUS
 62
     3
100
AcDbLine
 10
-11.45
 20
-33.5
 30
0.0
 11
-12.95
 21
-33.5
 31
0.0
  0
LINE
  5
CE
100
AcDbEntity
  8
0
390
0
  6
CONTINUOUS
 62
     3
100
AcDbLine
 10
-13.45
 20
-33.0
 30
0.0
 11
-12.95
 21
-33.5
 31
0.0
  0
LINE
  5
CF
100
AcDbEntity
  8
0
390
0
  6
CONTINUOUS
 62
     3
100
AcDbLine
 10
-11.45
 20
33.5
 30
0.0
 11
-12.95
 21
33.5
 31
0.0
  0
LINE
  5
D0
100
AcDbEntity
  8
0
390
0
  6
CONTINUOUS
 62
     3
100
AcDbLine
 10
-10.95
 20
33.0
 30
0.0
 11
-11.45
 21
33.5
 31
0.0
  0
LINE
  5
D1
100
AcDbEntity
  8
0
390
0
  6
CONTINUOUS
 62
     3
100
AcDbLine
 10
-12.95
 20
33.5
 30
0.0
 11
-13.45
 21
33.0
 31
0.0
  0
ENDBLK
  5
D2
100
AcDbEntity
  8
0
370
    -2
390
0
100
AcDbBlockEnd
  0
BLOCK
  5
D3
100
AcDbEntity
  8
0
370
    -2
390
0
100
AcDbBlockBegin
  2
MS_3
 70
     0
 10
0.0
 20
0.0
 30
0.0
  3
MS_3
  1

  0
LINE
  5
D4
100
AcDbEntity
  8
0
390
0
  6
CONTINUOUS
 62
    10
100
AcDbLine
 10
5.397061
 20
-17.75
 30
0.0
 11
5.397061
 21
-18.918631
 31
0.0
  0
LINE
  5
D5
100
AcDbEntity
  8
0
390
0
  6
CONTINUOUS
 62
    10
100
AcDbLine
 10
5.397061
 20
18.918631
 30
0.0
 11
5.397061
 21
17.75
 31
0.0
  0
LINE
  5
D6
100
AcDbEntity
  8
0
390
0
  6
CONTINUOUS
 62
    10
100
AcDbLine
 10
0.497061
 20
14.25
 30
0.0
 11
-0.102939
 21
11.75
 31
0.0
  0
LINE
  5
D7
100
AcDbEntity
  8
0
390
0
  6
CONTINUOUS
 62
    10
100
AcDbLine
 10
-0.102939
 20
16.75
 30
0.0
 11
0.497061
 21
14.25
 31
0.0
  0
LINE
  5
D8
100
AcDbEntity
  8
0
390
0
  6
CONTINUOUS
 62
    10
100
AcDbLine
 10
5.397061
 20
-2.25
 30
0.0
 11
-5.102939
 21
-2.25
 31
0.0
  0
LINE
  5
D9
100
AcDbEntity
  8
0
390
0
  6
CONTINUOUS
 62
    10
100
AcDbLine
 10
5.397061
 20
-6.0
 30
0.0
 11
5.397061
 21
-2.25
 31
0.0
  0
LINE
  5
DA
100
AcDbEntity
  8
0
390
0
  6
CONTINUOUS
 62
    10
100
AcDbLine
 10
-0.102939
 20
-6.0
 30
0.0
 11
5.397061
 21
-6.0
 31
0.0
  0
LINE
  5
DB
100
AcDbEntity
  8
0
390
0
  6
CONTINUOUS
 62
    10
100
AcDbLine
 10
-0.102939
 20
-17.75
 30
0.0
 11
-0.102939
 21
-6.0
 31
0.0
  0
LINE
  5
DC
100
AcDbEntity
  8
0
390
0
  6
CONTINUOUS
 62
    10
100
AcDbLine
 10
-5.102939
 20
-2.25
 30
0.0
 11
-5.102939
 21
-17.75
 31
0.0
  0
LINE
  5
DD
100
AcDbEntity
  8
0
390
0
  6
CONTINUOUS
 62
    10
100
AcDbLine
 10
-5.102939
 20
-17.75
 30
0.0
 11
-0.102939
 21
-17.75
 31
0.0
  0
LINE
  5
DE
100
AcDbEntity
  8
0
390
0
  6
CONTINUOUS
 62
    10
100
AcDbLine
 10
-0.102939
 20
17.75
 30
0.0
 11
-5.102939
 21
17.75
 31
0.0
  0
LINE
  5
DF
100
AcDbEntity
  8
0
390
0
  6
CONTINUOUS
 62
    10
100
AcDbLine
 10
5.397061
 20
2.25
 30
0.0
 11
-5.102939
 21
2.25
 31
0.0
  0
LINE
  5
E0
100
AcDbEntity
  8
0
390
0
  6
CONTINUOUS
 62
    10
100
AcDbLine
 10
-0.102939
 20
6.0
 30
0.0
 11
5.397061
 21
6.0
 31
0.0
  0
LINE
  5
E1
100
AcDbEntity
  8
0
390
0
  6
CONTINUOUS
 62
    10
100
AcDbLine
 10
5.397061
 20
2.25
 30
0.0
 11
5.397061
 21
6.0
 31
0.0
  0
LINE
  5
E2
100
AcDbEntity
  8
0
390
0
  6
CONTINUOUS
 62
    10
100
AcDbLine
 10
-0.102939
 20
6.0
 30
0.0
 11
-0.102939
 21
17.75
 31
0.0
  0
LINE
  5
E3
100
AcDbEntity
  8
0
390
0
  6
CONTINUOUS
 62
    10
100
AcDbLine
 10
-5.102939
 20
17.75
 30
0.0
 11
-5.102939
 21
2.25
 31
0.0
  0
LINE
  5
E4
100
AcDbEntity
  8
0
390
0
  6
CONTINUOUS
 62
    10
100
AcDbLine
 10
3.197061
 20
-17.75
 30
0.0
 11
-0.102939
 21
-17.75
 31
0.0
  0
LINE
  5
E5
100
AcDbEntity
  8
0
390
0
  6
CONTINUOUS
 62
    10
100
AcDbLine
 10
3.197061
 20
-17.75
 30
0.0
 11
3.197061
 21
-18.726156
 31
0.0
  0
LINE
  5
E6
100
AcDbEntity
  8
0
390
0
  6
CONTINUOUS
 62
    10
100
AcDbLine
 10
5.397061
 20
-17.75
 30
0.0
 11
3.197061
 21
-17.75
 31
0.0
  0
LINE
  5
E7
100
AcDbEntity
  8
0
390
0
  6
CONTINUOUS
 62
    10
100
AcDbLine
 10
3.197061
 20
18.726156
 30
0.0
 11
3.197061
 21
17.75
 31
0.0
  0
LINE
  5
E8
100
AcDbEntity
  8
0
390
0
  6
CONTINUOUS
 62
    10
100
AcDbLine
 10
3.197061
 20
17.75
 30
0.0
 11
-0.102939
 21
17.75
 31
0.0
  0
LINE
  5
E9
100
AcDbEntity
  8
0
390
0
  6
CONTINUOUS
 62
    10
100
AcDbLine
 10
3.197061
 20
17.75
 30
0.0
 11
5.397061
 21
17.75
 31
0.0
  0
LINE
  5
EA
100
AcDbEntity
  8
0
390
0
  6
CONTINUOUS
 62
    10
100
AcDbLine
 10
5.397061
 20
2.25
 30
0.0
 11
5.397061
 21
-2.25
 31
0.0
  0
LINE
  5
EB
100
AcDbEntity
  8
0
390
0
  6
CONTINUOUS
 62
    10
100
AcDbLine
 10
-5.102939
 20
-2.25
 30
0.0
 11
-5.102939
 21
2.25
 31
0.0
  0
LINE
  5
EC
100
AcDbEntity
  8
0
390
0
  6
CONTINUOUS
 62
    10
100
AcDbLine
 10
3.953685
 20
15.25
 30
0.0
 11
5.397061
 21
17.75
 31
0.0
  0
LINE
  5
ED
100
AcDbEntity
  8
0
390
0
  6
CONTINUOUS
 62
    10
100
AcDbLine
 10
0.697061
 20
17.75
 30
0.0
 11
2.140437
 21
15.25
 31
0.0
  0
LINE
  5
EE
100
AcDbEntity
  8
0
390
0
  6
CONTINUOUS
 62
    10
100
AcDbLine
 10
3.953685
 20
15.25
 30
0.0
 11
2.140437
 21
15.25
 31
0.0
  0
ENDBLK
  5
EF
100
AcDbEntity
  8
0
370
    -2
390
0
100
AcDbBlockEnd
  0
BLOCK
  5
F0
100
AcDbEntity
  8
0
370
    -2
390
0
100
AcDbBlockBegin
  2
MS_4
 70
     0
 10
0.0
 20
0.0
 30
0.0
  3
MS_4
  1

  0
MTEXT
  5
F1
100
AcDbEntity
  8
0
390
0
  6
CONTINUOUS
 62
   143
100
AcDbMText
 10
-13.444444
 20
-45.0
 30
0.0
 40
4.0
 41
0.0
 71
     1
 72
     1
  1
\W0.833;\A1;パネル取付け穴
 73
     1
 44
0.9
  0
DIMENSION
  5
104
100
AcDbEntity
  8
0
390
0
  6
CONTINUOUS
 62
    50
100
AcDbDimension
  2
*D29
 10
60.0
 20
-34.5
 30
0.0
 11
60.0
 21
0.0
 31
0.0
 70
   128
 71
     5
 72
     1
 41
0.9
 42
69.0
  1
\A1;<>
  3
MXDIMSTYLE
100
AcDbAlignedDimension
 13
46.5
 23
34.5
 33
0.0
 14
46.5
 24
-34.5
 34
0.0
 50
90.0
100
AcDbRotatedDimension
1001
ACAD
1000
DSTYLE
1002
{
1070
     6
1000
_OPEN
1070
     7
1000
_OPEN
1070
    41
1040
3.0
1070
   140
1040
4.0
1070
   284
1070
     8
1070
   343
1005
F7
1070
   344
1005
F7
1002
}
  0
DIMENSION
  5
111
100
AcDbEntity
  8
0
390
0
  6
CONTINUOUS
 62
    50
100
AcDbDimension
  2
*D31
 10
46.5
 20
40.0
 30
0.0
 11
0.0
 21
40.0
 31
0.0
 70
   128
 71
     5
 72
     1
 41
0.9
 42
93.0
  1
\A1;<>
  3
MXDIMSTYLE
100
AcDbAlignedDimension
 13
-46.5
 23
34.5
 33
0.0
 14
46.5
 24
34.5
 34
0.0
100
AcDbRotatedDimension
1001
ACAD
1000
DSTYLE
1002
{
1070
     6
1000
_OPEN
1070
     7
1000
_OPEN
1070
    41
1040
3.0
1070
   140
1040
4.0
1070
   284
1070
     8
1070
   343
1005
F7
1070
   344
1005
F7
1002
}
  0
LINE
  5
112
100
AcDbEntity
  8
0
390
0
  6
CONTINUOUS
 62
   132
100
AcDbLine
 10
-46.5
 20
-34.5
 30
0.0
 11
46.5
 21
-34.5
 31
0.0
  0
LINE
  5
113
100
AcDbEntity
  8
0
390
0
  6
CONTINUOUS
 62
   132
100
AcDbLine
 10
-46.5
 20
34.5
 30
0.0
 11
46.5
 21
34.5
 31
0.0
  0
LINE
  5
114
100
AcDbEntity
  8
0
390
0
  6
CONTINUOUS
 62
   132
100
AcDbLine
 10
46.5
 20
-34.5
 30
0.0
 11
46.5
 21
34.5
 31
0.0
  0
LINE
  5
115
100
AcDbEntity
  8
0
390
0
  6
CONTINUOUS
 62
   132
100
AcDbLine
 10
-46.5
 20
-34.5
 30
0.0
 11
-46.5
 21
34.5
 31
0.0
  0
ENDBLK
  5
116
100
AcDbEntity
  8
0
370
    -2
390
0
100
AcDbBlockEnd
  0
BLOCK
  5
117
100
AcDbEntity
  8
0
370
    -2
390
0
100
AcDbBlockBegin
  2
CASE1
 70
     0
 10
0.0
 20
0.0
 30
0.0
  3
CASE1
  1

  0
MTEXT
  5
118
100
AcDbEntity
  8
0
390
0
  6
CONTINUOUS
 62
   110
100
AcDbMText
 10
-4.848485
 20
-4.875
 30
0.0
 40
3.5
 41
0.0
 71
     7
 72
     1
  1
\W0.831;\A1;OUT1
 73
     1
 44
0.9
  0
MTEXT
  5
119
100
AcDbEntity
  8
0
390
0
  6
CONTINUOUS
 62
   110
100
AcDbMText
 10
23.111111
 20
-4.875
 30
0.0
 40
3.5
 41
0.0
 71
     7
 72
     1
  1
\W0.762;\A1;OUT3
 73
     1
 44
0.9
  0
MTEXT
  5
11A
100
AcDbEntity
  8
0
390
0
  6
CONTINUOUS
 62
   110
100
AcDbMText
 10
9.111111
 20
-4.875
 30
0.0
 40
3.5
 41
0.0
 71
     7
 72
     1
  1
\W0.762;\A1;OUT2
 73
     1
 44
0.9
  0
MTEXT
  5
11B
100
AcDbEntity
  8
0
390
0
  6
CONTINUOUS
 62
   110
100
AcDbMText
 10
-32.666667
 20
-4.875
 30
0.0
 40
3.5
 41
0.0
 71
     7
 72
     1
  1
\W0.571;\A1;MOTOR
 73
     1
 44
0.9
  0
ARC
  5
11C
100
AcDbEntity
  8
0
390
0
  6
CONTINUOUS
 62
     3
100
AcDbCircle
 10
34.0
 20
-7.75
 30
0.0
 40
4.0
100
AcDbArc
 50
270.0
 51
0.0
  0
ARC
  5
11D
100
AcDbEntity
  8
0
390
0
  6
CONTINUOUS
 62
     3
100
AcDbCircle
 10
-34.0
 20
-7.75
 30
0.0
 40
4.0
100
AcDbArc
 50
180.0
 51
270.0
  0
ARC
  5
11E
100
AcDbEntity
  8
0
390
0
  6
CONTINUOUS
 62
     3
100
AcDbCircle
 10
-34.0
 20
16.5
 30
0.0
 40
4.0
100
AcDbArc
 50
90.0
 51
180.0
  0
ARC
  5
11F
100
AcDbEntity
  8
0
390
0
  6
CONTINUOUS
 62
     3
100
AcDbCircle
 10
34.0
 20
16.5
 30
0.0
 40
4.0
100
AcDbArc
 50
0.0
 51
90.0
  0
LINE
  5
120
100
AcDbEntity
  8
0
390
0
  6
CONTINUOUS
 62
     3
100
AcDbLine
 10
-34.0
 20
-11.75
 30
0.0
 11
34.0
 21
-11.75
 31
0.0
  0
LINE
  5
121
100
AcDbEntity
  8
0
390
0
  6
CONTINUOUS
 62
     3
100
AcDbLine
 10
38.0
 20
16.5
 30
0.0
 11
38.0
 21
-7.75
 31
0.0
  0
LINE
  5
122
100
AcDbEntity
  8
0
390
0
  6
CONTINUOUS
 62
     3
100
AcDbLine
 10
-38.0
 20
16.5
 30
0.0
 11
-38.0
 21
-7.75
 31
0.0
  0
LINE
  5
123
100
AcDbEntity
  8
0
390
0
  6
CONTINUOUS
 62
     3
100
AcDbLine
 10
-34.0
 20
20.5
 30
0.0
 11
34.0
 21
20.5
 31
0.0
  0
MTEXT
  5
124
100
AcDbEntity
  8
0
390
0
  6
CONTINUOUS
 62
   110
100
AcDbMText
 10
-4.867119
 20
25.25
 30
0.0
 40
3.3
 41
0.0
 71
     4
 72
     1
  1
\W1.060;\A1;SHOCK MONITOR
 73
     1
 44
0.9
  0
HATCH
  5
125
100
AcDbEntity
  8
0
390
0
  6
CONTINUOUS
 62
   110
100
AcDbHatch
 10
0.0
 20
0.0
 30
0.0
210
0.0
220
0.0
230
1.0
  2
SOLID
 70
     1
 71
     0
 91
        2
 92
        1
 93
       21
 72
     1
 10
-19.710682473178508
 20
26.803473970205232
 11
-18.726318134019039
 21
26.803473970205232
 72
     2
 10
-18.726318134019039
 20
26.516876116756066
 40
0.2865978534491526
 50
270.0
 51
360.0
 73
     0
 72
     1
 10
-18.439720280569759
 20
26.516876116756066
 11
-18.439720280569759
 21
25.595233571376866
 72
     2
 10
-18.738206980328073
 20
25.595233571376866
 40
0.29848669975835
 50
360.0
 51
450.0
 73
     0
 72
     1
 10
-18.738206980328073
 20
25.296746871618552
 11
-18.873010907088883
 21
25.296746871618552
 72
     1
 10
-18.873010907088883
 20
25.296746871618552
 11
-18.873010907088883
 21
25.212466669161472
 72
     1
 10
-18.873010907088883
 20
25.212466669161472
 11
-18.738206867758322
 21
25.212466669161472
 72
     2
 10
-18.738206867758322
 20
24.913979928483514
 40
0.2984867406778249
 50
270.0
 51
360.0
 73
     0
 72
     1
 10
-18.439720127080705
 20
24.913979928483514
 11
-18.439720127080705
 21
23.88886933532342
 72
     2
 10
-18.728589462404102
 20
23.88886933532342
 40
0.2888693353233686
 50
360.0
 51
450.0
 73
     0
 72
     1
 10
-18.728589462404102
 20
23.600000000000023
 11
-20.993841501679299
 21
23.600000000000023
 72
     1
 10
-20.993841501679299
 20
23.600000000000023
 11
-20.993841501679299
 21
26.803474057385756
 72
     1
 10
-20.993841501679299
 20
26.803474057385756
 11
-20.128037697913328
 21
26.803474073934126
 72
     1
 10
-20.128037697913328
 20
26.803474073934126
 11
-20.128037697913328
 21
25.602171312757264
 72
     1
 10
-20.128037697913328
 20
25.602171312757264
 11
-19.484258464320078
 21
25.60217129620878
 72
     2
 10
-19.484258460112528
 20
25.765858880887322
 40
0.1636875846785159
 50
269.999999
 51
359.858301
 73
     1
 72
     2
 10
-19.484258460112528
 20
25.765858880887322
 40
0.1636875846785159
 50
359.858301
 51
360.141699
 73
     1
 72
     1
 10
-19.320571376012026
 20
25.766263697639033
 11
-19.320571376012026
 21
25.86095008498387
 72
     2
 10
-19.484258771285909
 20
25.86095008498387
 40
0.1636873952735293
 50
0.0
 51
90.0
 73
     1
 72
     1
 10
-19.484258771285909
 20
26.024637480257525
 11
-20.018947296745296
 21
26.024637480257525
 72
     1
 10
-20.018947296745296
 20
26.024637480257525
 11
-19.710682473178508
 21
26.803473970205232
 97
        0
 92
        1
 93
        6
 72
     2
 10
-19.484258795861138
 20
24.515060308851389
 40
0.1636875407744323
 50
270.0
 51
360.0
 73
     1
 72
     1
 10
-19.320571255086634
 20
24.515060308851389
 11
-19.320571255086634
 21
24.671092720353727
 72
     2
 10
-19.484258839765175
 20
24.671092720353727
 40
0.1636875846785159
 50
0.0
 51
89.999999
 73
     1
 72
     1
 10
-19.484258835557625
 20
24.834780305032268
 11
-20.128037697913328
 21
24.834780321580752
 72
     1
 10
-20.128037697913328
 20
24.834780321580752
 11
-20.128037697913328
 21
24.351372784625369
 72
     1
 10
-20.128037697913328
 20
24.351372784625369
 11
-19.484258800068687
 21
24.351372768076999
 97
        0
 75
     0
 76
     1
 98
        1
 10
0.0
 20
0.0
  0
HATCH
  5
126
100
AcDbEntity
  8
0
390
0
  6
CONTINUOUS
 62
   110
100
AcDbHatch
 10
0.0
 20
0.0
 30
0.0
210
0.0
220
0.0
230
1.0
  2
SOLID
 70
     1
 71
     0
 91
        1
 92
        1
 93
       17
 72
     1
 10
-26.700352568399921
 20
25.181413910274841
 11
-26.700352568399921
 21
26.45684168125058
 72
     2
 10
-26.353720459583542
 20
26.45684168125058
 40
0.3466321088162592
 50
180.0
 51
270.0
 73
     0
 72
     1
 10
-26.353720459583542
 20
26.80347379006696
 11
-25.834548764633951
 21
26.80347379006696
 72
     1
 10
-25.834548764633951
 20
26.80347379006696
 11
-25.834548764633951
 21
25.765859695338122
 72
     2
 10
-25.670860365504836
 20
25.765859695338122
 40
0.1636883991292307
 50
180.0
 51
270.0
 73
     1
 72
     1
 10
-25.670860365504836
 20
25.60217129620878
 11
-24.622735523097617
 21
25.60217129620878
 72
     2
 10
-24.622735523097617
 20
25.255537690966321
 40
0.346633605242469
 50
270.0
 51
360.0
 73
     0
 72
     1
 10
-24.276101917855044
 20
25.255537690966321
 11
-24.276101917855044
 21
23.946633599327697
 72
     2
 10
-24.622735517182832
 20
23.946633599327697
 40
0.346633599327685
 50
0.0
 51
90.0
 73
     0
 72
     1
 10
-24.622735517182832
 20
23.600000000000023
 11
-26.864039766543215
 21
23.600000000000023
 72
     1
 10
-26.864039766543215
 20
23.600000000000023
 11
-26.609970755826794
 21
24.351372768076999
 72
     1
 10
-26.609970755826794
 20
24.351372768076999
 11
-25.257449932715872
 21
24.351372768076999
 72
     2
 10
-25.257449932715872
 20
24.466916979171629
 40
0.1155442110946853
 50
270.0
 51
360.0
 73
     1
 72
     1
 10
-25.141905721621129
 20
24.466916979171629
 11
-25.141905721621129
 21
24.719236182173631
 72
     2
 10
-25.257449844479765
 20
24.719236182173631
 40
0.1155441228586464
 50
0.0
 51
90.0
 73
     1
 72
     1
 10
-25.257449844479765
 20
24.834780305032268
 11
-26.353718963157348
 21
24.834780305032268
 72
     2
 10
-26.353718963157348
 20
25.181413910274841
 40
0.346633605242469
 50
90.0
 51
180.0
 73
     0
 97
        0
 75
     0
 76
     1
 98
        1
 10
0.0
 20
0.0
  0
SOLID
  5
127
100
AcDbEntity
  8
0
390
0
  6
CONTINUOUS
 62
   110
100
AcDbTrace
 10
-25.438965
 20
26.803474
 30
0.0
 11
-24.229062
 21
26.803474
 31
0.0
 12
-25.747223
 22
26.024637
 32
0.0
 13
-24.537321
 23
26.024637
 33
0.0
  0
HATCH
  5
128
100
AcDbEntity
  8
0
390
0
  6
CONTINUOUS
 62
   110
100
AcDbHatch
 10
0.0
 20
0.0
 30
0.0
210
0.0
220
0.0
230
1.0
  2
SOLID
 70
     1
 71
     0
 91
        1
 92
        1
 93
        8
 72
     1
 10
-23.94200695692507
 20
26.803474057385756
 11
-23.076203153159099
 21
26.803474057385756
 72
     1
 10
-23.076203153159099
 20
26.803474057385756
 11
-23.076203153159099
 21
24.484375415377599
 72
     2
 10
-22.96066097995913
 20
24.484375415377599
 40
0.1155421731999063
 50
180.0
 51
270.0
 73
     1
 72
     1
 10
-22.96066097995913
 20
24.368833242177743
 11
-22.342854332673937
 21
24.368833242177743
 72
     1
 10
-22.342854332673937
 20
24.368833242177743
 11
-22.647727727659117
 21
23.600000000000023
 72
     1
 10
-22.647727727659117
 20
23.600000000000023
 11
-23.537603790165804
 21
23.600000000000023
 72
     2
 10
-23.537603790165804
 20
24.004403166759289
 40
0.4044031667591681
 50
90.0
 51
180.0
 73
     0
 72
     1
 10
-23.94200695692507
 20
24.004403166759289
 11
-23.94200695692507
 21
26.803474057385756
 97
        0
 75
     0
 76
     1
 98
        1
 10
0.0
 20
0.0
  0
SOLID
  5
129
100
AcDbEntity
  8
0
390
0
  6
CONTINUOUS
 62
   110
100
AcDbTrace
 10
-31.120716
 20
24.812319
 30
0.0
 11
-30.923869
 21
24.812319
 31
0.0
 12
-32.333035
 22
23.6
 32
0.0
 13
-32.136187
 23
23.6
 33
0.0
  0
SOLID
  5
12A
100
AcDbEntity
  8
0
390
0
  6
CONTINUOUS
 62
   110
100
AcDbTrace
 10
-31.501711
 20
24.812319
 30
0.0
 11
-31.304864
 21
24.812319
 31
0.0
 12
-32.71403
 22
23.6
 32
0.0
 13
-32.517182
 23
23.6
 33
0.0
  0
SOLID
  5
12B
100
AcDbEntity
  8
0
390
0
  6
CONTINUOUS
 62
   110
100
AcDbTrace
 10
-30.860885
 20
26.024637
 30
0.0
 11
-30.664037
 21
26.024637
 31
0.0
 12
-32.073204
 22
24.812319
 32
0.0
 13
-31.876356
 23
24.812319
 33
0.0
  0
SOLID
  5
12C
100
AcDbEntity
  8
0
390
0
  6
CONTINUOUS
 62
   110
100
AcDbTrace
 10
-31.24188
 20
26.024637
 30
0.0
 11
-31.045033
 21
26.024637
 31
0.0
 12
-32.454199
 22
24.812319
 32
0.0
 13
-32.257351
 23
24.812319
 33
0.0
  0
SOLID
  5
12D
100
AcDbEntity
  8
0
390
0
  6
CONTINUOUS
 62
   110
100
AcDbTrace
 10
-30.607404
 20
27.236956
 30
0.0
 11
-30.410556
 21
27.236956
 31
0.0
 12
-31.819722
 22
26.024637
 32
0.0
 13
-31.622875
 23
26.024637
 33
0.0
  0
SOLID
  5
12E
100
AcDbEntity
  8
0
390
0
  6
CONTINUOUS
 62
   110
100
AcDbTrace
 10
-30.988399
 20
27.236956
 30
0.0
 11
-30.791551
 21
27.236956
 31
0.0
 12
-32.200717
 22
26.024637
 32
0.0
 13
-32.00387
 23
26.024637
 33
0.0
  0
SOLID
  5
12F
100
AcDbEntity
  8
0
390
0
  6
CONTINUOUS
 62
   110
100
AcDbTrace
 10
-28.442597
 20
28.449275
 30
0.0
 11
-28.24575
 21
28.449275
 31
0.0
 12
-29.654916
 22
27.236956
 32
0.0
 13
-29.458069
 23
27.236956
 33
0.0
  0
SOLID
  5
130
100
AcDbEntity
  8
0
390
0
  6
CONTINUOUS
 62
   110
100
AcDbTrace
 10
-28.823592
 20
28.449275
 30
0.0
 11
-28.626745
 21
28.449275
 31
0.0
 12
-30.035911
 22
27.236956
 32
0.0
 13
-29.839064
 23
27.236956
 33
0.0
  0
SOLID
  5
131
100
AcDbEntity
  8
0
390
0
  6
CONTINUOUS
 62
   110
100
AcDbTrace
 10
-29.204587
 20
28.449275
 30
0.0
 11
-29.00774
 21
28.449275
 31
0.0
 12
-30.416906
 22
27.236956
 32
0.0
 13
-30.220059
 23
27.236956
 33
0.0
  0
HATCH
  5
132
100
AcDbEntity
  8
0
390
0
  6
CONTINUOUS
 62
   110
100
AcDbHatch
 10
0.0
 20
0.0
 30
0.0
210
0.0
220
0.0
230
1.0
  2
SOLID
 70
     1
 71
     0
 91
        1
 92
        1
 93
       29
 72
     1
 10
-34.024174442203162
 20
28.449274960514913
 11
-29.76973001749559
 21
28.449274960514913
 72
     1
 10
-29.76973001749559
 20
28.449274960514913
 11
-30.982048757624284
 21
27.236956220386105
 72
     1
 10
-30.982048757624284
 20
27.236956220386105
 11
-30.988398676454153
 21
27.236956220386105
 72
     1
 10
-30.988398676454153
 20
27.236956220386105
 11
-31.17254627098032
 21
27.236956220386105
 72
     1
 10
-31.17254627098032
 20
27.236956220386105
 11
-31.369393699611578
 21
27.236956220386105
 72
     1
 10
-31.369393699611578
 20
27.236956220386105
 11
-31.553541294137858
 21
27.236956220386105
 72
     1
 10
-31.553541294137858
 20
27.236956220386105
 11
-32.765860034266666
 21
26.024637480257525
 72
     1
 10
-32.765860034266666
 20
26.024637480257525
 11
-32.5817124397405
 21
26.024637480257525
 72
     1
 10
-32.5817124397405
 20
26.024637480257525
 11
-32.384865011109127
 21
26.024637480257525
 72
     1
 10
-32.384865011109127
 20
26.024637480257525
 11
-32.200717416582961
 21
26.024637480257525
 72
     1
 10
-32.200717416582961
 20
26.024637480257525
 11
-32.003869987951589
 21
26.024637480257525
 72
     1
 10
-32.003869987951589
 20
26.024637480257525
 11
-31.819722393565485
 21
26.024637480257525
 72
     1
 10
-31.819722393565485
 20
26.024637480257525
 11
-31.807022555905974
 21
26.024637480257525
 72
     1
 10
-31.807022555905974
 20
26.024637480257525
 11
-33.019341296034668
 21
24.812318740128717
 72
     1
 10
-33.019341296034668
 20
24.812318740128717
 11
-32.835193701508501
 21
24.812318740128717
 72
     1
 10
-32.835193701508501
 20
24.812318740128717
 11
-32.638346272877129
 21
24.812318740128717
 72
     1
 10
-32.638346272877129
 20
24.812318740128717
 11
-32.454198678350963
 21
24.812318740128717
 72
     1
 10
-32.454198678350963
 20
24.812318740128717
 11
-32.257351249719591
 21
24.812318740128717
 72
     1
 10
-32.257351249719591
 20
24.812318740128717
 11
-32.073203655193424
 21
24.812318740128717
 72
     1
 10
-32.073203655193424
 20
24.812318740128717
 11
-32.066853740332931
 21
24.812318740128717
 72
     1
 10
-32.066853740332931
 20
24.812318740128717
 11
-33.279172479123758
 21
23.600000000000023
 72
     1
 10
-33.279172479123758
 20
23.600000000000023
 11
-35.0
 21
23.600000000000023
 72
     1
 10
-35.0
 20
23.600000000000023
 11
-33.787681259871533
 21
24.812318740128717
 72
     1
 10
-33.787681259871533
 20
24.812318740128717
 11
-34.74016881752209
 21
24.812318740128717
 72
     1
 10
-34.74016881752209
 20
24.812318740128717
 11
-33.527850077393282
 21
26.024637480257525
 72
     1
 10
-33.527850077393282
 20
26.024637480257525
 11
-34.480337635043838
 21
26.024637480257525
 72
     1
 10
-34.480337635043838
 20
26.024637480257525
 11
-33.268018894915144
 21
27.236956220386105
 72
     1
 10
-33.268018894915144
 20
27.236956220386105
 11
-35.236493182332083
 21
27.236956220386105
 72
     1
 10
-35.236493182332083
 20
27.236956220386105
 11
-34.024174442203162
 21
28.449274960514913
 97
        0
 75
     0
 76
     1
 98
        1
 10
0.0
 20
0.0
  0
HATCH
  5
133
100
AcDbEntity
  8
0
390
0
  6
CONTINUOUS
 62
   110
100
AcDbHatch
 10
0.0
 20
0.0
 30
0.0
210
0.0
220
0.0
230
1.0
  2
SOLID
 70
     1
 71
     0
 91
        1
 92
        1
 93
        8
 72
     1
 10
-29.312438392622198
 20
26.803474057385756
 11
-26.775246409053011
 21
26.803474057385756
 72
     1
 10
-26.775246409053011
 20
26.803474057385756
 11
-27.138883998908341
 21
26.024637480257525
 72
     1
 10
-27.138883998908341
 20
26.024637480257525
 11
-27.919550424990916
 21
26.024637480257525
 72
     1
 10
-27.919550424990916
 20
26.024637480257525
 11
-27.919550424990916
 21
23.600000000000023
 72
     1
 10
-27.919550424990916
 20
23.600000000000023
 11
-28.792569263049131
 21
23.600000000000023
 72
     1
 10
-28.792569263049131
 20
23.600000000000023
 11
-28.792569263049131
 21
26.024637480257525
 72
     1
 10
-28.792569263049131
 20
26.024637480257525
 11
-30.091274969750316
 21
26.024637480257525
 72
     1
 10
-30.091274969750316
 20
26.024637480257525
 11
-29.312438392622198
 21
26.803474057385756
 97
        0
 75
     0
 76
     1
 98
        1
 10
0.0
 20
0.0
  0
SOLID
  5
134
100
AcDbEntity
  8
0
390
0
  6
CONTINUOUS
 62
   110
100
AcDbTrace
 10
-22.25369
 20
26.803474
 30
0.0
 11
-21.387886
 21
26.803474
 31
0.0
 12
-22.25369
 22
23.6
 32
0.0
 13
-21.387886
 23
23.6
 33
0.0
  0
HATCH
  5
135
100
AcDbEntity
  8
0
390
0
  6
CONTINUOUS
 62
   110
100
AcDbHatch
 10
0.0
 20
0.0
 30
0.0
210
0.0
220
0.0
230
1.0
  2
SOLID
 70
     1
 71
     0
 91
        1
 92
        1
 93
       11
 72
     1
 10
-16.847976294234741
 20
26.29827745748878
 11
-17.461867497993694
 21
23.600000000000023
 72
     1
 10
-17.461867497993694
 20
23.600000000000023
 11
-18.372860345459799
 21
23.600000000000023
 72
     1
 10
-18.372860345459799
 20
23.600000000000023
 11
-17.419624123966514
 21
26.803473528091558
 72
     1
 10
-17.419624123966514
 20
26.803473528091558
 11
-16.307817763629373
 21
26.803473528091558
 72
     1
 10
-16.307817763629373
 20
26.803473528091558
 11
-15.354572726483525
 21
23.600000000000023
 72
     1
 10
-15.354572726483525
 20
23.600000000000023
 11
-16.234085090475901
 21
23.600000000000023
 72
     1
 10
-16.234085090475901
 20
23.600000000000023
 11
-16.377421555245064
 21
24.230016441601947
 72
     1
 10
-16.377421555245064
 20
24.230016441601947
 11
-17.229840477136236
 21
24.230016441601947
 72
     1
 10
-17.229840477136236
 20
24.230016441601947
 11
-16.852903700013712
 21
24.946610061396996
 72
     1
 10
-16.852903700013712
 20
24.946610061396996
 11
-16.540455389531303
 21
24.946610061396996
 72
     1
 10
-16.540455389531303
 20
24.946610061396996
 11
-16.847976294234741
 21
26.29827745748878
 97
        0
 75
     0
 76
     1
 98
        1
 10
0.0
 20
0.0
  0
SOLID
  5
136
100
AcDbEntity
  8
0
390
0
  6
CONTINUOUS
 62
   110
100
AcDbTrace
 10
-15.181412
 20
26.803474
 30
0.0
 11
-14.315608
 21
26.803474
 31
0.0
 12
-15.181412
 22
23.6
 32
0.0
 13
-14.315608
 23
23.6
 33
0.0
  0
HATCH
  5
137
100
AcDbEntity
  8
0
390
0
  6
CONTINUOUS
 62
   110
100
AcDbHatch
 10
0.0
 20
0.0
 30
0.0
210
0.0
220
0.0
230
1.0
  2
SOLID
 70
     1
 71
     0
 91
        1
 92
        1
 93
        6
 72
     1
 10
-13.543599809503917
 20
26.803473984008519
 11
-12.653986395683887
 21
26.803473984008519
 72
     1
 10
-12.653986395683887
 20
26.803473984008519
 11
-13.346629404916371
 21
25.29892425108153
 72
     1
 10
-13.346629404916371
 20
25.29892425108153
 11
-12.591215586122985
 21
23.599999999982856
 72
     1
 10
-12.591215586122985
 20
23.599999999982856
 11
-13.543599770266042
 21
23.599999999982856
 72
     1
 10
-13.543599770266042
 20
23.599999999982856
 11
-14.229027781587888
 21
25.232321016784795
 72
     1
 10
-14.229027781587888
 20
25.232321016784795
 11
-13.543599809503917
 21
26.803473984008519
 97
        0
 75
     0
 76
     1
 98
        1
 10
0.0
 20
0.0
  0
SOLID
  5
138
100
AcDbEntity
  8
0
390
0
  6
CONTINUOUS
 62
   110
100
AcDbTrace
 10
-12.376929
 20
26.803474
 30
0.0
 11
-11.476493
 21
26.803474
 31
0.0
 12
-12.376929
 22
23.6
 32
0.0
 13
-11.476493
 23
23.6
 33
0.0
  0
SOLID
  5
139
100
AcDbEntity
  8
0
390
0
  6
CONTINUOUS
 62
   110
100
AcDbTrace
 10
-29.585582
 20
28.449275
 30
0.0
 11
-29.388735
 21
28.449275
 31
0.0
 12
-30.797901
 22
27.236956
 32
0.0
 13
-30.601054
 23
27.236956
 33
0.0
  0
SOLID
  5
13A
100
AcDbEntity
  8
0
390
0
  6
CONTINUOUS
 62
   110
100
AcDbTrace
 10
-31.882706
 20
24.812319
 30
0.0
 11
-31.685859
 21
24.812319
 31
0.0
 12
-33.095025
 22
23.6
 32
0.0
 13
-32.898177
 23
23.6
 33
0.0
  0
SOLID
  5
13B
100
AcDbEntity
  8
0
390
0
  6
CONTINUOUS
 62
   110
100
AcDbTrace
 10
-31.622875
 20
26.024637
 30
0.0
 11
-31.426028
 21
26.024637
 31
0.0
 12
-32.835194
 22
24.812319
 32
0.0
 13
-32.638346
 23
24.812319
 33
0.0
  0
SOLID
  5
13C
100
AcDbEntity
  8
0
390
0
  6
CONTINUOUS
 62
   110
100
AcDbTrace
 10
-31.369394
 20
27.236956
 30
0.0
 11
-31.172546
 21
27.236956
 31
0.0
 12
-32.581712
 22
26.024637
 32
0.0
 13
-32.384865
 23
26.024637
 33
0.0
  0
ARC
  5
13D
100
AcDbEntity
  8
0
390
0
  6
CONTINUOUS
 62
    90
100
AcDbCircle
 10
28.2
 20
5.5
 30
0.0
 40
2.0
100
AcDbArc
 50
270.0
 51
0.0
  0
ARC
  5
13E
100
AcDbEntity
  8
0
390
0
  6
CONTINUOUS
 62
    90
100
AcDbCircle
 10
-26.8
 20
5.5
 30
0.0
 40
2.0
100
AcDbArc
 50
180.0
 51
270.0
  0
ARC
  5
13F
100
AcDbEntity
  8
0
390
0
  6
CONTINUOUS
 62
    90
100
AcDbCircle
 10
-26.8
 20
15.5
 30
0.0
 40
2.0
100
AcDbArc
 50
90.0
 51
180.0
  0
ARC
  5
140
100
AcDbEntity
  8
0
390
0
  6
CONTINUOUS
 62
    90
100
AcDbCircle
 10
28.2
 20
15.5
 30
0.0
 40
2.0
100
AcDbArc
 50
0.0
 51
90.0
  0
LINE
  5
141
100
AcDbEntity
  8
0
390
0
  6
CONTINUOUS
 62
    90
100
AcDbLine
 10
30.2
 20
15.5
 30
0.0
 11
30.2
 21
5.5
 31
0.0
  0
LINE
  5
142
100
AcDbEntity
  8
0
390
0
  6
CONTINUOUS
 62
    90
100
AcDbLine
 10
-26.8
 20
3.5
 30
0.0
 11
28.2
 21
3.5
 31
0.0
  0
LINE
  5
143
100
AcDbEntity
  8
0
390
0
  6
CONTINUOUS
 62
    90
100
AcDbLine
 10
-26.8
 20
17.5
 30
0.0
 11
28.2
 21
17.5
 31
0.0
  0
LINE
  5
144
100
AcDbEntity
  8
0
390
0
  6
CONTINUOUS
 62
    90
100
AcDbLine
 10
-28.8
 20
15.5
 30
0.0
 11
-28.8
 21
5.5
 31
0.0
  0
MTEXT
  5
145
100
AcDbEntity
  8
0
390
0
  6
CONTINUOUS
 62
   110
100
AcDbMText
 10
25.880183
 20
-21.25
 30
0.0
 40
3.5
 41
0.0
 71
     4
 72
     1
  1
\T0.913;\W1.426;\A1;▼
 73
     1
 44
0.9
  0
MTEXT
  5
146
100
AcDbEntity
  8
0
390
0
  6
CONTINUOUS
 62
   110
100
AcDbMText
 10
11.880183
 20
-21.25
 30
0.0
 40
3.5
 41
0.0
 71
     4
 72
     1
  1
\T0.913;\W1.426;\A1;▲
 73
     1
 44
0.9
  0
MTEXT
  5
147
100
AcDbEntity
  8
0
390
0
  6
CONTINUOUS
 62
   110
100
AcDbMText
 10
-1.944445
 20
-21.25
 30
0.0
 40
3.5
 41
0.0
 71
     4
 72
     1
  1
\W0.417;\A1;SET
 73
     1
 44
0.9
  0
MTEXT
  5
148
100
AcDbEntity
  8
0
390
0
  6
CONTINUOUS
 62
   110
100
AcDbMText
 10
-16.673611
 20
-21.25
 30
0.0
 40
3.5
 41
0.0
 71
     4
 72
     1
  1
\W0.417;\A1;MODE
 73
     1
 44
0.9
  0
MTEXT
  5
149
100
AcDbEntity
  8
0
390
0
  6
CONTINUOUS
 62
   110
100
AcDbMText
 10
-31.402778
 20
-21.25
 30
0.0
 40
3.5
 41
0.0
 71
     4
 72
     1
  1
\W0.417;\A1;RESET
 73
     1
 44
0.9
  0
CIRCLE
  5
14A
100
AcDbEntity
  8
0
390
0
  6
CONTINUOUS
 62
     3
100
AcDbCircle
 10
28.0
 20
-21.25
 30
0.0
 40
5.0
  0
CIRCLE
  5
14B
100
AcDbEntity
  8
0
390
0
  6
CONTINUOUS
 62
     3
100
AcDbCircle
 10
14.0
 20
-21.25
 30
0.0
 40
5.0
  0
CIRCLE
  5
14C
100
AcDbEntity
  8
0
390
0
  6
CONTINUOUS
 62
     3
100
AcDbCircle
 10
0.0
 20
-21.25
 30
0.0
 40
5.0
  0
CIRCLE
  5
14D
100
AcDbEntity
  8
0
390
0
  6
CONTINUOUS
 62
     3
100
AcDbCircle
 10
-14.0
 20
-21.25
 30
0.0
 40
5.0
  0
CIRCLE
  5
14E
100
AcDbEntity
  8
0
390
0
  6
CONTINUOUS
 62
     3
100
AcDbCircle
 10
-28.0
 20
-21.25
 30
0.0
 40
5.0
  0
CIRCLE
  5
14F
100
AcDbEntity
  8
0
390
0
  6
CONTINUOUS
 62
     3
100
AcDbCircle
 10
28.0
 20
-7.75
 30
0.0
 40
1.0
  0
CIRCLE
  5
150
100
AcDbEntity
  8
0
390
0
  6
CONTINUOUS
 62
     3
100
AcDbCircle
 10
14.0
 20
-7.75
 30
0.0
 40
1.0
  0
CIRCLE
  5
151
100
AcDbEntity
  8
0
390
0
  6
CONTINUOUS
 62
     3
100
AcDbCircle
 10
0.0
 20
-7.75
 30
0.0
 40
1.0
  0
CIRCLE
  5
152
100
AcDbEntity
  8
0
390
0
  6
CONTINUOUS
 62
     3
100
AcDbCircle
 10
-28.0
 20
-7.75
 30
0.0
 40
1.0
  0
LINE
  5
153
100
AcDbEntity
  8
0
390
0
  6
CONTINUOUS
 62
     3
100
AcDbLine
 10
-43.0
 20
31.0
 30
0.0
 11
43.0
 21
31.0
 31
0.0
  0
LINE
  5
154
100
AcDbEntity
  8
0
390
0
  6
CONTINUOUS
 62
     3
100
AcDbLine
 10
43.0
 20
31.0
 30
0.0
 11
43.0
 21
-31.0
 31
0.0
  0
LINE
  5
155
100
AcDbEntity
  8
0
390
0
  6
CONTINUOUS
 62
     3
100
AcDbLine
 10
-43.0
 20
31.0
 30
0.0
 11
-43.0
 21
-31.0
 31
0.0
  0
LINE
  5
156
100
AcDbEntity
  8
0
390
0
  6
CONTINUOUS
 62
     3
100
AcDbLine
 10
-43.0
 20
-31.0
 30
0.0
 11
43.0
 21
-31.0
 31
0.0
  0
LINE
  5
157
100
AcDbEntity
  8
0
390
0
  6
CONTINUOUS
 62
     3
100
AcDbLine
 10
37.89
 20
31.0
 30
0.0
 11
39.89
 21
31.0
 31
0.0
  0
LINE
  5
158
100
AcDbEntity
  8
0
390
0
  6
CONTINUOUS
 62
     3
100
AcDbLine
 10
20.11
 20
31.0
 30
0.0
 11
18.11
 21
31.0
 31
0.0
  0
POINT
  5
159
100
AcDbEntity
  8
0
390
0
  6
CONTINUOUS
 62
   110
100
AcDbPoint
 10
-43.0
 20
31.0
 30
0.0
  0
LINE
  5
15A
100
AcDbEntity
  8
0
390
0
  6
CONTINUOUS
 62
     3
100
AcDbLine
 10
-45.0
 20
45.0
 30
0.0
 11
-41.6
 21
45.0
 31
0.0
  0
LINE
  5
15B
100
AcDbEntity
  8
0
390
0
  6
CONTINUOUS
 62
     3
100
AcDbLine
 10
-45.0
 20
45.0
 30
0.0
 11
-45.0
 21
44.0
 31
0.0
  0
LINE
  5
15C
100
AcDbEntity
  8
0
390
0
  6
CONTINUOUS
 62
     3
100
AcDbLine
 10
41.6
 20
44.0
 30
0.0
 11
41.6
 21
36.0
 31
0.0
  0
LINE
  5
15D
100
AcDbEntity
  8
0
390
0
  6
CONTINUOUS
 62
     3
100
AcDbLine
 10
41.6
 20
-44.0
 30
0.0
 11
41.6
 21
-36.0
 31
0.0
  0
LINE
  5
15E
100
AcDbEntity
  8
0
390
0
  6
CONTINUOUS
 62
     3
100
AcDbLine
 10
45.0
 20
-45.0
 30
0.0
 11
41.6
 21
-45.0
 31
0.0
  0
LINE
  5
15F
100
AcDbEntity
  8
0
390
0
  6
CONTINUOUS
 62
     3
100
AcDbLine
 10
45.0
 20
-45.0
 30
0.0
 11
45.0
 21
-44.0
 31
0.0
  0
LINE
  5
160
100
AcDbEntity
  8
0
390
0
  6
CONTINUOUS
 62
     3
100
AcDbLine
 10
41.6
 20
-44.0
 30
0.0
 11
45.0
 21
-44.0
 31
0.0
  0
LINE
  5
161
100
AcDbEntity
  8
0
390
0
  6
CONTINUOUS
 62
     3
100
AcDbLine
 10
41.6
 20
-44.0
 30
0.0
 11
41.6
 21
-45.0
 31
0.0
  0
LINE
  5
162
100
AcDbEntity
  8
0
390
0
  6
CONTINUOUS
 62
     3
100
AcDbLine
 10
-41.6
 20
-44.0
 30
0.0
 11
-41.6
 21
-36.0
 31
0.0
  0
LINE
  5
163
100
AcDbEntity
  8
0
390
0
  6
CONTINUOUS
 62
     3
100
AcDbLine
 10
-41.6
 20
-44.0
 30
0.0
 11
-41.6
 21
-45.0
 31
0.0
  0
LINE
  5
164
100
AcDbEntity
  8
0
390
0
  6
CONTINUOUS
 62
     3
100
AcDbLine
 10
-45.0
 20
-45.0
 30
0.0
 11
-41.6
 21
-45.0
 31
0.0
  0
LINE
  5
165
100
AcDbEntity
  8
0
390
0
  6
CONTINUOUS
 62
     3
100
AcDbLine
 10
-41.6
 20
-44.0
 30
0.0
 11
-45.0
 21
-44.0
 31
0.0
  0
LINE
  5
166
100
AcDbEntity
  8
0
390
0
  6
CONTINUOUS
 62
     3
100
AcDbLine
 10
45.0
 20
45.0
 30
0.0
 11
41.6
 21
45.0
 31
0.0
  0
LINE
  5
167
100
AcDbEntity
  8
0
390
0
  6
CONTINUOUS
 62
     3
100
AcDbLine
 10
45.0
 20
45.0
 30
0.0
 11
45.0
 21
44.0
 31
0.0
  0
LINE
  5
168
100
AcDbEntity
  8
0
390
0
  6
CONTINUOUS
 62
     3
100
AcDbLine
 10
-45.0
 20
-45.0
 30
0.0
 11
-45.0
 21
-44.0
 31
0.0
  0
LINE
  5
169
100
AcDbEntity
  8
0
390
0
  6
CONTINUOUS
 62
     3
100
AcDbLine
 10
41.6
 20
44.0
 30
0.0
 11
45.0
 21
44.0
 31
0.0
  0
LINE
  5
16A
100
AcDbEntity
  8
0
390
0
  6
CONTINUOUS
 62
     3
100
AcDbLine
 10
41.6
 20
44.0
 30
0.0
 11
41.6
 21
45.0
 31
0.0
  0
LINE
  5
16B
100
AcDbEntity
  8
0
390
0
  6
CONTINUOUS
 62
     3
100
AcDbLine
 10
-41.6
 20
44.0
 30
0.0
 11
-45.0
 21
44.0
 31
0.0
  0
LINE
  5
16C
100
AcDbEntity
  8
0
390
0
  6
CONTINUOUS
 62
     3
100
AcDbLine
 10
-41.6
 20
44.0
 30
0.0
 11
-41.6
 21
45.0
 31
0.0
  0
LINE
  5
16D
100
AcDbEntity
  8
0
390
0
  6
CONTINUOUS
 62
     3
100
AcDbLine
 10
-41.6
 20
44.0
 30
0.0
 11
-41.6
 21
36.0
 31
0.0
  0
LINE
  5
16E
100
AcDbEntity
  8
0
390
0
  6
CONTINUOUS
 62
     3
100
AcDbLine
 10
45.0
 20
36.0
 30
0.0
 11
45.0
 21
44.0
 31
0.0
  0
LINE
  5
16F
100
AcDbEntity
  8
0
390
0
  6
CONTINUOUS
 62
     3
100
AcDbLine
 10
-45.0
 20
36.0
 30
0.0
 11
-45.0
 21
44.0
 31
0.0
  0
LINE
  5
170
100
AcDbEntity
  8
0
390
0
  6
CONTINUOUS
 62
     3
100
AcDbLine
 10
-45.0
 20
-36.0
 30
0.0
 11
-45.0
 21
-44.0
 31
0.0
  0
LINE
  5
171
100
AcDbEntity
  8
0
390
0
  6
CONTINUOUS
 62
     3
100
AcDbLine
 10
45.0
 20
-36.0
 30
0.0
 11
45.0
 21
-44.0
 31
0.0
  0
ARC
  5
172
100
AcDbEntity
  8
0
390
0
  6
CONTINUOUS
 62
     3
100
AcDbCircle
 10
-47.0
 20
-35.0
 30
0.0
 40
1.0
100
AcDbArc
 50
180.0
 51
270.0
  0
ARC
  5
173
100
AcDbEntity
  8
0
390
0
  6
CONTINUOUS
 62
     3
100
AcDbCircle
 10
47.0
 20
-35.0
 30
0.0
 40
1.0
100
AcDbArc
 50
270.0
 51
0.0
  0
LINE
  5
174
100
AcDbEntity
  8
0
390
0
  6
CONTINUOUS
 62
     3
100
AcDbLine
 10
47.0
 20
-36.0
 30
0.0
 11
-47.0
 21
-36.0
 31
0.0
  0
ARC
  5
175
100
AcDbEntity
  8
0
390
0
  6
CONTINUOUS
 62
     3
100
AcDbCircle
 10
-47.0
 20
35.0
 30
0.0
 40
1.0
100
AcDbArc
 50
90.0
 51
180.0
  0
LINE
  5
176
100
AcDbEntity
  8
0
390
0
  6
CONTINUOUS
 62
     3
100
AcDbLine
 10
-48.0
 20
-35.0
 30
0.0
 11
-48.0
 21
35.0
 31
0.0
  0
LINE
  5
177
100
AcDbEntity
  8
0
390
0
  6
CONTINUOUS
 62
     3
100
AcDbLine
 10
48.0
 20
35.0
 30
0.0
 11
48.0
 21
-35.0
 31
0.0
  0
LINE
  5
178
100
AcDbEntity
  8
0
390
0
  6
CONTINUOUS
 62
     3
100
AcDbLine
 10
-47.0
 20
36.0
 30
0.0
 11
47.0
 21
36.0
 31
0.0
  0
ARC
  5
179
100
AcDbEntity
  8
0
390
0
  6
CONTINUOUS
 62
     3
100
AcDbCircle
 10
47.0
 20
35.0
 30
0.0
 40
1.0
100
AcDbArc
 50
0.0
 51
90.0
  0
LINE
  5
17A
100
AcDbEntity
  8
0
390
0
  6
CONTINUOUS
 62
     3
100
AcDbLine
 10
41.4
 20
40.9
 30
0.0
 11
41.4
 21
44.8
 31
0.0
  0
LINE
  5
17B
100
AcDbEntity
  8
0
390
0
  6
CONTINUOUS
 62
     3
100
AcDbLine
 10
41.9
 20
36.9
 30
0.0
 11
41.9
 21
40.9
 31
0.0
  0
LINE
  5
17C
100
AcDbEntity
  8
0
390
0
  6
CONTINUOUS
 62
     3
100
AcDbLine
 10
41.4
 20
36.9
 30
0.0
 11
41.9
 21
36.9
 31
0.0
  0
LINE
  5
17D
100
AcDbEntity
  8
0
390
0
  6
CONTINUOUS
 62
     3
100
AcDbLine
 10
-41.4
 20
36.9
 30
0.0
 11
-41.4
 21
36.0
 31
0.0
  0
LINE
  5
17E
100
AcDbEntity
  8
0
390
0
  6
CONTINUOUS
 62
     3
100
AcDbLine
 10
-41.9
 20
36.9
 30
0.0
 11
-41.4
 21
36.9
 31
0.0
  0
LINE
  5
17F
100
AcDbEntity
  8
0
390
0
  6
CONTINUOUS
 62
     3
100
AcDbLine
 10
-41.9
 20
40.9
 30
0.0
 11
-41.9
 21
36.9
 31
0.0
  0
LINE
  5
180
100
AcDbEntity
  8
0
390
0
  6
CONTINUOUS
 62
     3
100
AcDbLine
 10
-41.4
 20
40.9
 30
0.0
 11
-41.9
 21
40.9
 31
0.0
  0
LINE
  5
181
100
AcDbEntity
  8
0
390
0
  6
CONTINUOUS
 62
     3
100
AcDbLine
 10
-41.4
 20
44.8
 30
0.0
 11
-41.4
 21
40.9
 31
0.0
  0
ARC
  5
182
100
AcDbEntity
  8
0
390
0
  6
CONTINUOUS
 62
     3
100
AcDbCircle
 10
38.25
 20
37.4
 30
0.0
 40
2.5
100
AcDbArc
 50
325.944202
 51
214.055798
  0
ARC
  5
183
100
AcDbEntity
  8
0
390
0
  6
CONTINUOUS
 62
     3
100
AcDbCircle
 10
29.75
 20
37.4
 30
0.0
 40
2.5
100
AcDbArc
 50
325.944202
 51
214.055798
  0
ARC
  5
184
100
AcDbEntity
  8
0
390
0
  6
CONTINUOUS
 62
     3
100
AcDbCircle
 10
21.25
 20
37.4
 30
0.0
 40
2.5
100
AcDbArc
 50
325.944202
 51
214.055798
  0
ARC
  5
185
100
AcDbEntity
  8
0
390
0
  6
CONTINUOUS
 62
     3
100
AcDbCircle
 10
12.75
 20
37.4
 30
0.0
 40
2.5
100
AcDbArc
 50
325.944202
 51
214.055798
  0
ARC
  5
186
100
AcDbEntity
  8
0
390
0
  6
CONTINUOUS
 62
     3
100
AcDbCircle
 10
4.25
 20
37.4
 30
0.0
 40
2.5
100
AcDbArc
 50
325.944202
 51
214.055798
  0
ARC
  5
187
100
AcDbEntity
  8
0
390
0
  6
CONTINUOUS
 62
     3
100
AcDbCircle
 10
-4.25
 20
37.4
 30
0.0
 40
2.5
100
AcDbArc
 50
325.944202
 51
214.055798
  0
ARC
  5
188
100
AcDbEntity
  8
0
390
0
  6
CONTINUOUS
 62
     3
100
AcDbCircle
 10
-12.75
 20
37.4
 30
0.0
 40
2.5
100
AcDbArc
 50
325.944202
 51
214.055798
  0
ARC
  5
189
100
AcDbEntity
  8
0
390
0
  6
CONTINUOUS
 62
     3
100
AcDbCircle
 10
-21.25
 20
37.4
 30
0.0
 40
2.5
100
AcDbArc
 50
325.944202
 51
214.055798
  0
ARC
  5
18A
100
AcDbEntity
  8
0
390
0
  6
CONTINUOUS
 62
     3
100
AcDbCircle
 10
-29.75
 20
37.4
 30
0.0
 40
2.5
100
AcDbArc
 50
325.944202
 51
214.055798
  0
ARC
  5
18B
100
AcDbEntity
  8
0
390
0
  6
CONTINUOUS
 62
     3
100
AcDbCircle
 10
-38.25
 20
37.4
 30
0.0
 40
2.5
100
AcDbArc
 50
325.944202
 51
214.055798
  0
LINE
  5
18C
100
AcDbEntity
  8
0
390
0
  6
CONTINUOUS
 62
     3
100
AcDbLine
 10
41.9
 20
40.9
 30
0.0
 11
41.4
 21
40.9
 31
0.0
  0
LINE
  5
18D
100
AcDbEntity
  8
0
390
0
  6
CONTINUOUS
 62
     3
100
AcDbLine
 10
41.4
 20
44.8
 30
0.0
 11
-41.4
 21
44.8
 31
0.0
  0
LINE
  5
18E
100
AcDbEntity
  8
0
390
0
  6
CONTINUOUS
 62
     3
100
AcDbLine
 10
41.4
 20
36.0
 30
0.0
 11
41.4
 21
36.9
 31
0.0
  0
LINE
  5
18F
100
AcDbEntity
  8
0
390
0
  6
CONTINUOUS
 62
     3
100
AcDbLine
 10
41.4
 20
-40.9
 30
0.0
 11
41.4
 21
-44.8
 31
0.0
  0
LINE
  5
190
100
AcDbEntity
  8
0
390
0
  6
CONTINUOUS
 62
     3
100
AcDbLine
 10
41.9
 20
-36.9
 30
0.0
 11
41.9
 21
-40.9
 31
0.0
  0
LINE
  5
191
100
AcDbEntity
  8
0
390
0
  6
CONTINUOUS
 62
     3
100
AcDbLine
 10
41.4
 20
-36.9
 30
0.0
 11
41.9
 21
-36.9
 31
0.0
  0
LINE
  5
192
100
AcDbEntity
  8
0
390
0
  6
CONTINUOUS
 62
     3
100
AcDbLine
 10
-41.4
 20
-36.9
 30
0.0
 11
-41.4
 21
-36.0
 31
0.0
  0
LINE
  5
193
100
AcDbEntity
  8
0
390
0
  6
CONTINUOUS
 62
     3
100
AcDbLine
 10
-41.9
 20
-36.9
 30
0.0
 11
-41.4
 21
-36.9
 31
0.0
  0
LINE
  5
194
100
AcDbEntity
  8
0
390
0
  6
CONTINUOUS
 62
     3
100
AcDbLine
 10
-41.9
 20
-40.9
 30
0.0
 11
-41.9
 21
-36.9
 31
0.0
  0
LINE
  5
195
100
AcDbEntity
  8
0
390
0
  6
CONTINUOUS
 62
     3
100
AcDbLine
 10
-41.4
 20
-40.9
 30
0.0
 11
-41.9
 21
-40.9
 31
0.0
  0
LINE
  5
196
100
AcDbEntity
  8
0
390
0
  6
CONTINUOUS
 62
     3
100
AcDbLine
 10
-41.4
 20
-44.8
 30
0.0
 11
-41.4
 21
-40.9
 31
0.0
  0
ARC
  5
197
100
AcDbEntity
  8
0
390
0
  6
CONTINUOUS
 62
     3
100
AcDbCircle
 10
38.25
 20
-37.4
 30
0.0
 40
2.5
100
AcDbArc
 50
145.944202
 51
34.055798
  0
ARC
  5
198
100
AcDbEntity
  8
0
390
0
  6
CONTINUOUS
 62
     3
100
AcDbCircle
 10
29.75
 20
-37.4
 30
0.0
 40
2.5
100
AcDbArc
 50
145.944202
 51
34.055798
  0
ARC
  5
199
100
AcDbEntity
  8
0
390
0
  6
CONTINUOUS
 62
     3
100
AcDbCircle
 10
21.25
 20
-37.4
 30
0.0
 40
2.5
100
AcDbArc
 50
145.944202
 51
34.055798
  0
ARC
  5
19A
100
AcDbEntity
  8
0
390
0
  6
CONTINUOUS
 62
     3
100
AcDbCircle
 10
12.75
 20
-37.4
 30
0.0
 40
2.5
100
AcDbArc
 50
145.944202
 51
34.055798
  0
ARC
  5
19B
100
AcDbEntity
  8
0
390
0
  6
CONTINUOUS
 62
     3
100
AcDbCircle
 10
4.25
 20
-37.4
 30
0.0
 40
2.5
100
AcDbArc
 50
145.944202
 51
34.055798
  0
ARC
  5
19C
100
AcDbEntity
  8
0
390
0
  6
CONTINUOUS
 62
     3
100
AcDbCircle
 10
-4.25
 20
-37.4
 30
0.0
 40
2.5
100
AcDbArc
 50
145.944202
 51
34.055798
  0
ARC
  5
19D
100
AcDbEntity
  8
0
390
0
  6
CONTINUOUS
 62
     3
100
AcDbCircle
 10
-12.75
 20
-37.4
 30
0.0
 40
2.5
100
AcDbArc
 50
145.944202
 51
34.055798
  0
ARC
  5
19E
100
AcDbEntity
  8
0
390
0
  6
CONTINUOUS
 62
     3
100
AcDbCircle
 10
-21.25
 20
-37.4
 30
0.0
 40
2.5
100
AcDbArc
 50
145.944202
 51
34.055798
  0
ARC
  5
19F
100
AcDbEntity
  8
0
390
0
  6
CONTINUOUS
 62
     3
100
AcDbCircle
 10
-29.75
 20
-37.4
 30
0.0
 40
2.5
100
AcDbArc
 50
145.944202
 51
34.055798
  0
ARC
  5
1A0
100
AcDbEntity
  8
0
390
0
  6
CONTINUOUS
 62
     3
100
AcDbCircle
 10
-38.25
 20
-37.4
 30
0.0
 40
2.5
100
AcDbArc
 50
145.944202
 51
34.055798
  0
LINE
  5
1A1
100
AcDbEntity
  8
0
390
0
  6
CONTINUOUS
 62
     3
100
AcDbLine
 10
41.9
 20
-40.9
 30
0.0
 11
41.4
 21
-40.9
 31
0.0
  0
LINE
  5
1A2
100
AcDbEntity
  8
0
390
0
  6
CONTINUOUS
 62
     3
100
AcDbLine
 10
41.4
 20
-44.8
 30
0.0
 11
-41.4
 21
-44.8
 31
0.0
  0
LINE
  5
1A3
100
AcDbEntity
  8
0
390
0
  6
CONTINUOUS
 62
     3
100
AcDbLine
 10
41.4
 20
-36.0
 30
0.0
 11
41.4
 21
-36.9
 31
0.0
  0
LINE
  5
1A4
100
AcDbEntity
  8
0
390
0
  6
CONTINUOUS
 62
     3
100
AcDbLine
 10
8.0
 20
-45.0
 30
0.0
 11
8.0
 21
-53.5
 31
0.0
  0
LINE
  5
1A5
100
AcDbEntity
  8
0
390
0
  6
CONTINUOUS
 62
     3
100
AcDbLine
 10
-6.5
 20
-53.0
 30
0.0
 11
-6.5
 21
-45.75
 31
0.0
  0
LINE
  5
1A6
100
AcDbEntity
  8
0
390
0
  6
CONTINUOUS
 62
     3
100
AcDbLine
 10
6.412511
 20
-52.912511
 30
0.0
 11
-6.412511
 21
-52.912511
 31
0.0
  0
LINE
  5
1A7
100
AcDbEntity
  8
0
390
0
  6
CONTINUOUS
 62
     3
100
AcDbLine
 10
-6.412511
 20
-52.912511
 30
0.0
 11
-6.412511
 21
-45.837489
 31
0.0
  0
LINE
  5
1A8
100
AcDbEntity
  8
0
390
0
  6
CONTINUOUS
 62
     3
100
AcDbLine
 10
6.412511
 20
-45.837489
 30
0.0
 11
6.412511
 21
-52.912511
 31
0.0
  0
LINE
  5
1A9
100
AcDbEntity
  8
0
390
0
  6
CONTINUOUS
 62
     3
100
AcDbLine
 10
-6.412511
 20
-45.837489
 30
0.0
 11
6.412511
 21
-45.837489
 31
0.0
  0
LINE
  5
1AA
100
AcDbEntity
  8
0
390
0
  6
CONTINUOUS
 62
     3
100
AcDbLine
 10
7.0
 20
-54.5
 30
0.0
 11
-7.0
 21
-54.5
 31
0.0
  0
LINE
  5
1AB
100
AcDbEntity
  8
0
390
0
  6
CONTINUOUS
 62
    90
100
AcDbLine
 10
6.5
 20
-53.0
 30
0.0
 11
6.412511
 21
-52.912511
 31
0.0
  0
LINE
  5
1AC
100
AcDbEntity
  8
0
390
0
  6
CONTINUOUS
 62
     3
100
AcDbLine
 10
6.5
 20
-53.0
 30
0.0
 11
-6.5
 21
-53.0
 31
0.0
  0
LINE
  5
1AD
100
AcDbEntity
  8
0
390
0
  6
CONTINUOUS
 62
     3
100
AcDbLine
 10
-6.5
 20
-53.0
 30
0.0
 11
-6.412511
 21
-52.912511
 31
0.0
  0
LINE
  5
1AE
100
AcDbEntity
  8
0
390
0
  6
CONTINUOUS
 62
     3
100
AcDbLine
 10
6.5
 20
-45.75
 30
0.0
 11
6.412511
 21
-45.837489
 31
0.0
  0
LINE
  5
1AF
100
AcDbEntity
  8
0
390
0
  6
CONTINUOUS
 62
     3
100
AcDbLine
 10
6.5
 20
-45.75
 30
0.0
 11
6.5
 21
-53.0
 31
0.0
  0
LINE
  5
1B0
100
AcDbEntity
  8
0
390
0
  6
CONTINUOUS
 62
     3
100
AcDbLine
 10
-6.5
 20
-45.75
 30
0.0
 11
-6.412511
 21
-45.837489
 31
0.0
  0
LINE
  5
1B1
100
AcDbEntity
  8
0
390
0
  6
CONTINUOUS
 62
     3
100
AcDbLine
 10
-6.5
 20
-45.75
 30
0.0
 11
6.5
 21
-45.75
 31
0.0
  0
LINE
  5
1B2
100
AcDbEntity
  8
0
390
0
  6
CONTINUOUS
 62
     3
100
AcDbLine
 10
7.0
 20
-54.5
 30
0.0
 11
8.0
 21
-53.5
 31
0.0
  0
LINE
  5
1B3
100
AcDbEntity
  8
0
390
0
  6
CONTINUOUS
 62
    90
100
AcDbLine
 10
-8.0
 20
-53.5
 30
0.0
 11
-7.0
 21
-54.5
 31
0.0
  0
LINE
  5
1B4
100
AcDbEntity
  8
0
390
0
  6
CONTINUOUS
 62
     3
100
AcDbLine
 10
-8.0
 20
-45.0
 30
0.0
 11
-8.0
 21
-53.5
 31
0.0
  0
LINE
  5
1B5
100
AcDbEntity
  8
0
390
0
  6
CONTINUOUS
 62
     3
100
AcDbLine
 10
2.0
 20
-48.375
 30
0.0
 11
-2.0
 21
-48.375
 31
0.0
  0
ARC
  5
1B6
100
AcDbEntity
  8
0
390
0
  6
CONTINUOUS
 62
     3
100
AcDbCircle
 10
-2.0
 20
-49.375
 30
0.0
 40
1.0
100
AcDbArc
 50
90.0
 51
270.0
  0
LINE
  5
1B7
100
AcDbEntity
  8
0
390
0
  6
CONTINUOUS
 62
     3
100
AcDbLine
 10
-2.0
 20
-50.375
 30
0.0
 11
-1.0
 21
-50.375
 31
0.0
  0
LINE
  5
1B8
100
AcDbEntity
  8
0
390
0
  6
CONTINUOUS
 62
     3
100
AcDbLine
 10
-1.0
 20
-50.375
 30
0.0
 11
-1.0
 21
-51.375
 31
0.0
  0
ARC
  5
1B9
100
AcDbEntity
  8
0
390
0
  6
CONTINUOUS
 62
     3
100
AcDbCircle
 10
0.0
 20
-51.375
 30
0.0
 40
1.0
100
AcDbArc
 50
180.0
 51
0.0
  0
LINE
  5
1BA
100
AcDbEntity
  8
0
390
0
  6
CONTINUOUS
 62
     3
100
AcDbLine
 10
1.0
 20
-51.375
 30
0.0
 11
1.0
 21
-50.375
 31
0.0
  0
LINE
  5
1BB
100
AcDbEntity
  8
0
390
0
  6
CONTINUOUS
 62
     3
100
AcDbLine
 10
1.0
 20
-50.375
 30
0.0
 11
2.0
 21
-50.375
 31
0.0
  0
ARC
  5
1BC
100
AcDbEntity
  8
0
390
0
  6
CONTINUOUS
 62
     3
100
AcDbCircle
 10
2.0
 20
-49.375
 30
0.0
 40
1.0
100
AcDbArc
 50
270.0
 51
90.0
  0
POINT
  5
1BD
100
AcDbEntity
  8
0
390
0
  6
CONTINUOUS
 62
   110
100
AcDbPoint
 10
0.0
 20
-52.375
 30
0.0
  0
DIMENSION
  5
1CA
100
AcDbEntity
  8
0
390
0
  6
CONTINUOUS
 62
   230
100
AcDbDimension
  2
*D32
 10
48.0
 20
57.783003
 30
0.0
 11
-0.432976
 21
57.783003
 31
0.0
 70
   128
 71
     5
 72
     1
 41
0.9
 42
96.0
  1
\A1;<>
  3
MXDIMSTYLE
100
AcDbAlignedDimension
 13
-48.0
 23
35.0
 33
0.0
 14
48.0
 24
35.0
 34
0.0
100
AcDbRotatedDimension
1001
ACAD
1000
DSTYLE
1002
{
1070
     6
1000
_OPEN
1070
     7
1000
_OPEN
1070
    41
1040
3.0
1070
   140
1040
2.5
1070
   284
1070
     8
1070
   343
1005
F7
1070
   344
1005
F7
1002
}
  0
DIMENSION
  5
1D7
100
AcDbEntity
  8
0
390
0
  6
CONTINUOUS
 62
   230
100
AcDbDimension
  2
*D33
 10
70.0
 20
-45.0
 30
0.0
 11
70.0
 21
0.0
 31
0.0
 70
   128
 71
     5
 72
     1
 41
0.9
 42
90.0
  1
\A1;<>
  3
MXDIMSTYLE
100
AcDbAlignedDimension
 13
45.0
 23
45.0
 33
0.0
 14
45.0
 24
-45.0
 34
0.0
 50
90.0
100
AcDbRotatedDimension
1001
ACAD
1000
DSTYLE
1002
{
1070
     6
1000
_OPEN
1070
     7
1000
_OPEN
1070
    41
1040
3.0
1070
   140
1040
2.5
1070
   284
1070
     8
1070
   343
1005
F7
1070
   344
1005
F7
1002
}
  0
ENDBLK
  5
1D8
100
AcDbEntity
  8
0
370
    -2
390
0
100
AcDbBlockEnd
  0
BLOCK
  5
1D9
100
AcDbEntity
  8
0
370
    -2
390
0
100
AcDbBlockBegin
  2
MS_6
 70
     0
 10
0.0
 20
0.0
 30
0.0
  3
MS_6
  1

  0
LINE
  5
1DA
100
AcDbEntity
  8
0
390
0
  6
CONTINUOUS
 62
     3
100
AcDbLine
 10
101.7
 20
2.0
 30
0.0
 11
57.75
 21
2.0
 31
0.0
  0
LINE
  5
1DB
100
AcDbEntity
  8
0
390
0
  6
CONTINUOUS
 62
     3
100
AcDbLine
 10
103.7
 20
0.848528
 30
0.0
 11
103.7
 21
0.0
 31
0.0
  0
LINE
  5
1DC
100
AcDbEntity
  8
0
390
0
  6
CONTINUOUS
 62
     3
100
AcDbLine
 10
103.7
 20
0.0
 30
0.0
 11
0.0
 21
0.0
 31
0.0
  0
LINE
  5
1DD
100
AcDbEntity
  8
0
390
0
  6
CONTINUOUS
 62
     3
100
AcDbLine
 10
103.7
 20
1.0
 30
0.0
 11
103.7
 21
0.848528
 31
0.0
  0
LINE
  5
1DE
100
AcDbEntity
  8
0
390
0
  6
CONTINUOUS
 62
     3
100
AcDbLine
 10
103.7
 20
1.0
 30
0.0
 11
102.699998
 21
2.000002
 31
0.0
  0
LINE
  5
1DF
100
AcDbEntity
  8
0
390
0
  6
CONTINUOUS
 62
     3
100
AcDbLine
 10
102.699998
 20
2.000002
 30
0.0
 11
101.7
 21
2.000002
 31
0.0
  0
LINE
  5
1E0
100
AcDbEntity
  8
0
390
0
  6
CONTINUOUS
 62
     3
100
AcDbLine
 10
0.0
 20
2.0
 30
0.0
 11
0.0
 21
-0.2
 31
0.0
  0
LINE
  5
1E1
100
AcDbEntity
  8
0
390
0
  6
CONTINUOUS
 62
     3
100
AcDbLine
 10
11.6
 20
2.0
 30
0.0
 11
0.0
 21
2.0
 31
0.0
  0
LINE
  5
1E2
100
AcDbEntity
  8
0
390
0
  6
CONTINUOUS
 62
     3
100
AcDbLine
 10
57.75
 20
2.0
 30
0.0
 11
11.6
 21
2.0
 31
0.0
  0
LINE
  5
1E3
100
AcDbEntity
  8
0
390
0
  6
CONTINUOUS
 62
     3
100
AcDbLine
 10
4.0
 20
3.0
 30
0.0
 11
0.0
 21
3.0
 31
0.0
  0
LINE
  5
1E4
100
AcDbEntity
  8
0
390
0
  6
CONTINUOUS
 62
     3
100
AcDbLine
 10
0.0
 20
3.0
 30
0.0
 11
0.0
 21
2.0
 31
0.0
  0
ARC
  5
1E5
100
AcDbEntity
  8
0
390
0
  6
CONTINUOUS
 62
     3
100
AcDbCircle
 10
4.0
 20
2.0
 30
0.0
 40
1.0
100
AcDbArc
 50
0.0
 51
90.0
  0
ENDBLK
  5
1E6
100
AcDbEntity
  8
0
370
    -2
390
0
100
AcDbBlockEnd
  0
BLOCK
  5
1E7
100
AcDbEntity
  8
0
370
    -2
390
0
100
AcDbBlockBegin
  2
MS_7
 70
     0
 10
0.0
 20
0.0
 30
0.0
  3
MS_7
  1

  0
LINE
  5
1E8
100
AcDbEntity
  8
0
390
0
  6
CONTINUOUS
 62
     3
100
AcDbLine
 10
-1.0
 20
-3.5
 30
0.0
 11
-7.5
 21
-3.5
 31
0.0
  0
LINE
  5
1E9
100
AcDbEntity
  8
0
390
0
  6
CONTINUOUS
 62
     3
100
AcDbLine
 10
7.5
 20
-3.5
 30
0.0
 11
1.0
 21
-3.5
 31
0.0
  0
LINE
  5
1EA
100
AcDbEntity
  8
0
390
0
  6
CONTINUOUS
 62
     3
100
AcDbLine
 10
-45.0
 20
0.0
 30
0.0
 11
-47.0
 21
0.0
 31
0.0
  0
LINE
  5
1EB
100
AcDbEntity
  8
0
390
0
  6
CONTINUOUS
 62
     3
100
AcDbLine
 10
-45.0
 20
-6.5
 30
0.0
 11
-47.0
 21
-6.5
 31
0.0
  0
LINE
  5
1EC
100
AcDbEntity
  8
0
390
0
  6
CONTINUOUS
 62
     3
100
AcDbLine
 10
-47.0
 20
0.0
 30
0.0
 11
-47.0
 21
-6.5
 31
0.0
  0
LINE
  5
1ED
100
AcDbEntity
  8
0
390
0
  6
CONTINUOUS
 62
     3
100
AcDbLine
 10
-19.731579
 20
15.314214
 30
0.0
 11
-19.75
 21
15.9
 31
0.0
  0
LINE
  5
1EE
100
AcDbEntity
  8
0
390
0
  6
CONTINUOUS
 62
     3
100
AcDbLine
 10
-22.75
 20
15.9
 30
0.0
 11
-22.768421
 21
15.314214
 31
0.0
  0
LINE
  5
1EF
100
AcDbEntity
  8
0
390
0
  6
CONTINUOUS
 62
     3
100
AcDbLine
 10
-19.75
 20
15.9
 30
0.0
 11
-22.75
 21
15.9
 31
0.0
  0
LINE
  5
1F0
100
AcDbEntity
  8
0
390
0
  6
CONTINUOUS
 62
     3
100
AcDbLine
 10
-23.25
 20
-3.5
 30
0.0
 11
-19.25
 21
-3.5
 31
0.0
  0
LINE
  5
1F1
100
AcDbEntity
  8
0
390
0
  6
CONTINUOUS
 62
     3
100
AcDbLine
 10
-19.25
 20
-3.5
 30
0.0
 11
-18.0
 21
-3.5
 31
0.0
  0
LINE
  5
1F2
100
AcDbEntity
  8
0
390
0
  6
CONTINUOUS
 62
     3
100
AcDbLine
 10
-18.0
 20
0.0
 30
0.0
 11
-19.25
 21
0.0
 31
0.0
  0
LINE
  5
1F3
100
AcDbEntity
  8
0
390
0
  6
CONTINUOUS
 62
     3
100
AcDbLine
 10
-24.5
 20
-3.5
 30
0.0
 11
-23.25
 21
-3.5
 31
0.0
  0
LINE
  5
1F4
100
AcDbEntity
  8
0
390
0
  6
CONTINUOUS
 62
     3
100
AcDbLine
 10
-23.25
 20
0.0
 30
0.0
 11
-24.5
 21
0.0
 31
0.0
  0
LINE
  5
1F5
100
AcDbEntity
  8
0
390
0
  6
CONTINUOUS
 62
     3
100
AcDbLine
 10
-41.6
 20
-3.5
 30
0.0
 11
-35.0
 21
-3.5
 31
0.0
  0
LINE
  5
1F6
100
AcDbEntity
  8
0
390
0
  6
CONTINUOUS
 62
     3
100
AcDbLine
 10
-35.0
 20
0.0
 30
0.0
 11
-41.6
 21
0.0
 31
0.0
  0
LINE
  5
1F7
100
AcDbEntity
  8
0
390
0
  6
CONTINUOUS
 62
     3
100
AcDbLine
 10
-33.0
 20
-3.5
 30
0.0
 11
-26.5
 21
-3.5
 31
0.0
  0
LINE
  5
1F8
100
AcDbEntity
  8
0
390
0
  6
CONTINUOUS
 62
     3
100
AcDbLine
 10
-26.5
 20
0.0
 30
0.0
 11
-33.0
 21
0.0
 31
0.0
  0
LINE
  5
1F9
100
AcDbEntity
  8
0
390
0
  6
CONTINUOUS
 62
     3
100
AcDbLine
 10
-16.0
 20
-3.5
 30
0.0
 11
-9.5
 21
-3.5
 31
0.0
  0
LINE
  5
1FA
100
AcDbEntity
  8
0
390
0
  6
CONTINUOUS
 62
     3
100
AcDbLine
 10
-9.5
 20
0.0
 30
0.0
 11
-16.0
 21
0.0
 31
0.0
  0
LINE
  5
1FB
100
AcDbEntity
  8
0
390
0
  6
CONTINUOUS
 62
     3
100
AcDbLine
 10
-19.639937
 20
12.4
 30
0.0
 11
-19.592767
 21
10.9
 31
0.0
  0
LINE
  5
1FC
100
AcDbEntity
  8
0
390
0
  6
CONTINUOUS
 62
     3
100
AcDbLine
 10
-22.907233
 20
10.9
 30
0.0
 11
-22.860063
 21
12.4
 31
0.0
  0
LINE
  5
1FD
100
AcDbEntity
  8
0
390
0
  6
CONTINUOUS
 62
     3
100
AcDbLine
 10
-19.592767
 20
10.9
 30
0.0
 11
-19.561321
 21
9.9
 31
0.0
  0
LINE
  5
1FE
100
AcDbEntity
  8
0
390
0
  6
CONTINUOUS
 62
     3
100
AcDbLine
 10
-22.938679
 20
9.9
 30
0.0
 11
-19.561321
 21
9.9
 31
0.0
  0
LINE
  5
1FF
100
AcDbEntity
  8
0
390
0
  6
CONTINUOUS
 62
     3
100
AcDbLine
 10
-22.938679
 20
9.9
 30
0.0
 11
-22.907233
 21
10.9
 31
0.0
  0
LINE
  5
200
100
AcDbEntity
  8
0
390
0
  6
CONTINUOUS
 62
     3
100
AcDbLine
 10
-19.592767
 20
10.9
 30
0.0
 11
-22.907233
 21
10.9
 31
0.0
  0
LINE
  5
201
100
AcDbEntity
  8
0
390
0
  6
CONTINUOUS
 62
     3
100
AcDbLine
 10
-22.768421
 20
15.314214
 30
0.0
 11
-22.860063
 21
12.4
 31
0.0
  0
LINE
  5
202
100
AcDbEntity
  8
0
390
0
  6
CONTINUOUS
 62
     3
100
AcDbLine
 10
-19.639937
 20
12.4
 30
0.0
 11
-19.731579
 21
15.314214
 31
0.0
  0
LINE
  5
203
100
AcDbEntity
  8
0
390
0
  6
CONTINUOUS
 62
     3
100
AcDbLine
 10
-22.860063
 20
12.4
 30
0.0
 11
-19.639937
 21
12.4
 31
0.0
  0
LINE
  5
204
100
AcDbEntity
  8
0
390
0
  6
CONTINUOUS
 62
     3
100
AcDbLine
 10
-45.0
 20
-3.0
 30
0.0
 11
-45.0
 21
7.0
 31
0.0
  0
LINE
  5
205
100
AcDbEntity
  8
0
390
0
  6
CONTINUOUS
 62
     3
100
AcDbLine
 10
-45.0
 20
-15.0
 30
0.0
 11
-45.0
 21
-5.0
 31
0.0
  0
LINE
  5
206
100
AcDbEntity
  8
0
390
0
  6
CONTINUOUS
 62
     3
100
AcDbLine
 10
-41.6
 20
0.1
 30
0.0
 11
-41.6
 21
4.1
 31
0.0
  0
LINE
  5
207
100
AcDbEntity
  8
0
390
0
  6
CONTINUOUS
 62
     3
100
AcDbLine
 10
-41.6
 20
-12.1
 30
0.0
 11
-41.6
 21
-8.1
 31
0.0
  0
LINE
  5
208
100
AcDbEntity
  8
0
390
0
  6
CONTINUOUS
 62
     3
100
AcDbLine
 10
-45.0
 20
-3.0
 30
0.0
 11
-45.0
 21
-5.0
 31
0.0
  0
LINE
  5
209
100
AcDbEntity
  8
0
390
0
  6
CONTINUOUS
 62
     3
100
AcDbLine
 10
-41.6
 20
-8.1
 30
0.0
 11
-41.6
 21
0.1
 31
0.0
  0
LINE
  5
20A
100
AcDbEntity
  8
0
390
0
  6
CONTINUOUS
 62
     3
100
AcDbLine
 10
-16.0
 20
-11.0
 30
0.0
 11
-16.0
 21
3.0
 31
0.0
  0
LINE
  5
20B
100
AcDbEntity
  8
0
390
0
  6
CONTINUOUS
 62
     3
100
AcDbLine
 10
-16.0
 20
3.0
 30
0.0
 11
-18.0
 21
3.0
 31
0.0
  0
LINE
  5
20C
100
AcDbEntity
  8
0
390
0
  6
CONTINUOUS
 62
     3
100
AcDbLine
 10
-18.0
 20
3.0
 30
0.0
 11
-18.0
 21
-11.0
 31
0.0
  0
LINE
  5
20D
100
AcDbEntity
  8
0
390
0
  6
CONTINUOUS
 62
     3
100
AcDbLine
 10
-18.0
 20
-11.0
 30
0.0
 11
-16.0
 21
-11.0
 31
0.0
  0
LINE
  5
20E
100
AcDbEntity
  8
0
390
0
  6
CONTINUOUS
 62
     3
100
AcDbLine
 10
-45.0
 20
9.0
 30
0.0
 11
-45.0
 21
7.0
 31
0.0
  0
LINE
  5
20F
100
AcDbEntity
  8
0
390
0
  6
CONTINUOUS
 62
     3
100
AcDbLine
 10
-41.6
 20
9.0
 30
0.0
 11
-45.0
 21
9.0
 31
0.0
  0
LINE
  5
210
100
AcDbEntity
  8
0
390
0
  6
CONTINUOUS
 62
     3
100
AcDbLine
 10
-41.6
 20
4.1
 30
0.0
 11
-41.6
 21
9.0
 31
0.0
  0
LINE
  5
211
100
AcDbEntity
  8
0
390
0
  6
CONTINUOUS
 62
     3
100
AcDbLine
 10
-45.0
 20
-15.0
 30
0.0
 11
-45.0
 21
-17.0
 31
0.0
  0
LINE
  5
212
100
AcDbEntity
  8
0
390
0
  6
CONTINUOUS
 62
     3
100
AcDbLine
 10
-41.6
 20
-17.0
 30
0.0
 11
-45.0
 21
-17.0
 31
0.0
  0
LINE
  5
213
100
AcDbEntity
  8
0
390
0
  6
CONTINUOUS
 62
     3
100
AcDbLine
 10
-41.6
 20
-17.0
 30
0.0
 11
-41.6
 21
-12.1
 31
0.0
  0
LINE
  5
214
100
AcDbEntity
  8
0
390
0
  6
CONTINUOUS
 62
     3
100
AcDbLine
 10
-24.5
 20
-11.0
 30
0.0
 11
-24.5
 21
3.0
 31
0.0
  0
LINE
  5
215
100
AcDbEntity
  8
0
390
0
  6
CONTINUOUS
 62
     3
100
AcDbLine
 10
-26.5
 20
3.0
 30
0.0
 11
-26.5
 21
-11.0
 31
0.0
  0
LINE
  5
216
100
AcDbEntity
  8
0
390
0
  6
CONTINUOUS
 62
     3
100
AcDbLine
 10
-24.5
 20
3.0
 30
0.0
 11
-26.5
 21
3.0
 31
0.0
  0
LINE
  5
217
100
AcDbEntity
  8
0
390
0
  6
CONTINUOUS
 62
     3
100
AcDbLine
 10
-26.5
 20
-11.0
 30
0.0
 11
-24.5
 21
-11.0
 31
0.0
  0
LINE
  5
218
100
AcDbEntity
  8
0
390
0
  6
CONTINUOUS
 62
     3
100
AcDbLine
 10
-33.0
 20
-11.0
 30
0.0
 11
-33.0
 21
3.0
 31
0.0
  0
LINE
  5
219
100
AcDbEntity
  8
0
390
0
  6
CONTINUOUS
 62
     3
100
AcDbLine
 10
-35.0
 20
3.0
 30
0.0
 11
-35.0
 21
-11.0
 31
0.0
  0
LINE
  5
21A
100
AcDbEntity
  8
0
390
0
  6
CONTINUOUS
 62
     3
100
AcDbLine
 10
-33.0
 20
3.0
 30
0.0
 11
-35.0
 21
3.0
 31
0.0
  0
LINE
  5
21B
100
AcDbEntity
  8
0
390
0
  6
CONTINUOUS
 62
     3
100
AcDbLine
 10
-35.0
 20
-11.0
 30
0.0
 11
-33.0
 21
-11.0
 31
0.0
  0
LINE
  5
21C
100
AcDbEntity
  8
0
390
0
  6
CONTINUOUS
 62
     3
100
AcDbLine
 10
-9.5
 20
3.0
 30
0.0
 11
-9.5
 21
-11.0
 31
0.0
  0
LINE
  5
21D
100
AcDbEntity
  8
0
390
0
  6
CONTINUOUS
 62
     3
100
AcDbLine
 10
-7.5
 20
-11.0
 30
0.0
 11
-7.5
 21
3.0
 31
0.0
  0
LINE
  5
21E
100
AcDbEntity
  8
0
390
0
  6
CONTINUOUS
 62
     3
100
AcDbLine
 10
-7.5
 20
3.0
 30
0.0
 11
-9.5
 21
3.0
 31
0.0
  0
LINE
  5
21F
100
AcDbEntity
  8
0
390
0
  6
CONTINUOUS
 62
     3
100
AcDbLine
 10
-9.5
 20
-11.0
 30
0.0
 11
-7.5
 21
-11.0
 31
0.0
  0
LINE
  5
220
100
AcDbEntity
  8
0
390
0
  6
CONTINUOUS
 62
     3
100
AcDbLine
 10
-1.0
 20
3.0
 30
0.0
 11
-1.0
 21
-11.0
 31
0.0
  0
LINE
  5
221
100
AcDbEntity
  8
0
390
0
  6
CONTINUOUS
 62
     3
100
AcDbLine
 10
-1.0
 20
-11.0
 30
0.0
 11
1.0
 21
-11.0
 31
0.0
  0
LINE
  5
222
100
AcDbEntity
  8
0
390
0
  6
CONTINUOUS
 62
     3
100
AcDbLine
 10
1.0
 20
3.0
 30
0.0
 11
-1.0
 21
3.0
 31
0.0
  0
LINE
  5
223
100
AcDbEntity
  8
0
390
0
  6
CONTINUOUS
 62
     3
100
AcDbLine
 10
-1.0
 20
0.0
 30
0.0
 11
-7.5
 21
0.0
 31
0.0
  0
LINE
  5
224
100
AcDbEntity
  8
0
390
0
  6
CONTINUOUS
 62
     3
100
AcDbLine
 10
1.0
 20
-11.0
 30
0.0
 11
-1.0
 21
-11.0
 31
0.0
  0
LINE
  5
225
100
AcDbEntity
  8
0
390
0
  6
CONTINUOUS
 62
     3
100
AcDbLine
 10
-1.0
 20
3.0
 30
0.0
 11
1.0
 21
3.0
 31
0.0
  0
LINE
  5
226
100
AcDbEntity
  8
0
390
0
  6
CONTINUOUS
 62
     3
100
AcDbLine
 10
1.0
 20
3.0
 30
0.0
 11
1.0
 21
-11.0
 31
0.0
  0
LINE
  5
227
100
AcDbEntity
  8
0
390
0
  6
CONTINUOUS
 62
     3
100
AcDbLine
 10
9.5
 20
-11.0
 30
0.0
 11
7.5
 21
-11.0
 31
0.0
  0
LINE
  5
228
100
AcDbEntity
  8
0
390
0
  6
CONTINUOUS
 62
     3
100
AcDbLine
 10
7.5
 20
3.0
 30
0.0
 11
9.5
 21
3.0
 31
0.0
  0
LINE
  5
229
100
AcDbEntity
  8
0
390
0
  6
CONTINUOUS
 62
     3
100
AcDbLine
 10
7.5
 20
-11.0
 30
0.0
 11
7.5
 21
3.0
 31
0.0
  0
LINE
  5
22A
100
AcDbEntity
  8
0
390
0
  6
CONTINUOUS
 62
     3
100
AcDbLine
 10
9.5
 20
3.0
 30
0.0
 11
9.5
 21
-11.0
 31
0.0
  0
LINE
  5
22B
100
AcDbEntity
  8
0
390
0
  6
CONTINUOUS
 62
     3
100
AcDbLine
 10
35.0
 20
-11.0
 30
0.0
 11
33.0
 21
-11.0
 31
0.0
  0
LINE
  5
22C
100
AcDbEntity
  8
0
390
0
  6
CONTINUOUS
 62
     3
100
AcDbLine
 10
33.0
 20
3.0
 30
0.0
 11
35.0
 21
3.0
 31
0.0
  0
LINE
  5
22D
100
AcDbEntity
  8
0
390
0
  6
CONTINUOUS
 62
     3
100
AcDbLine
 10
35.0
 20
3.0
 30
0.0
 11
35.0
 21
-11.0
 31
0.0
  0
LINE
  5
22E
100
AcDbEntity
  8
0
390
0
  6
CONTINUOUS
 62
     3
100
AcDbLine
 10
33.0
 20
-11.0
 30
0.0
 11
33.0
 21
3.0
 31
0.0
  0
LINE
  5
22F
100
AcDbEntity
  8
0
390
0
  6
CONTINUOUS
 62
     3
100
AcDbLine
 10
26.5
 20
-11.0
 30
0.0
 11
24.5
 21
-11.0
 31
0.0
  0
LINE
  5
230
100
AcDbEntity
  8
0
390
0
  6
CONTINUOUS
 62
     3
100
AcDbLine
 10
24.5
 20
3.0
 30
0.0
 11
26.5
 21
3.0
 31
0.0
  0
LINE
  5
231
100
AcDbEntity
  8
0
390
0
  6
CONTINUOUS
 62
     3
100
AcDbLine
 10
26.5
 20
3.0
 30
0.0
 11
26.5
 21
-11.0
 31
0.0
  0
LINE
  5
232
100
AcDbEntity
  8
0
390
0
  6
CONTINUOUS
 62
     3
100
AcDbLine
 10
24.5
 20
-11.0
 30
0.0
 11
24.5
 21
3.0
 31
0.0
  0
LINE
  5
233
100
AcDbEntity
  8
0
390
0
  6
CONTINUOUS
 62
     3
100
AcDbLine
 10
41.6
 20
-17.0
 30
0.0
 11
41.6
 21
-12.1
 31
0.0
  0
LINE
  5
234
100
AcDbEntity
  8
0
390
0
  6
CONTINUOUS
 62
     3
100
AcDbLine
 10
41.6
 20
-17.0
 30
0.0
 11
45.0
 21
-17.0
 31
0.0
  0
LINE
  5
235
100
AcDbEntity
  8
0
390
0
  6
CONTINUOUS
 62
     3
100
AcDbLine
 10
45.0
 20
-15.0
 30
0.0
 11
45.0
 21
-17.0
 31
0.0
  0
LINE
  5
236
100
AcDbEntity
  8
0
390
0
  6
CONTINUOUS
 62
     3
100
AcDbLine
 10
41.6
 20
4.1
 30
0.0
 11
41.6
 21
9.0
 31
0.0
  0
LINE
  5
237
100
AcDbEntity
  8
0
390
0
  6
CONTINUOUS
 62
     3
100
AcDbLine
 10
41.6
 20
9.0
 30
0.0
 11
45.0
 21
9.0
 31
0.0
  0
LINE
  5
238
100
AcDbEntity
  8
0
390
0
  6
CONTINUOUS
 62
     3
100
AcDbLine
 10
45.0
 20
9.0
 30
0.0
 11
45.0
 21
7.0
 31
0.0
  0
LINE
  5
239
100
AcDbEntity
  8
0
390
0
  6
CONTINUOUS
 62
     3
100
AcDbLine
 10
18.0
 20
-11.0
 30
0.0
 11
16.0
 21
-11.0
 31
0.0
  0
LINE
  5
23A
100
AcDbEntity
  8
0
390
0
  6
CONTINUOUS
 62
     3
100
AcDbLine
 10
18.0
 20
3.0
 30
0.0
 11
18.0
 21
-11.0
 31
0.0
  0
LINE
  5
23B
100
AcDbEntity
  8
0
390
0
  6
CONTINUOUS
 62
     3
100
AcDbLine
 10
16.0
 20
3.0
 30
0.0
 11
18.0
 21
3.0
 31
0.0
  0
LINE
  5
23C
100
AcDbEntity
  8
0
390
0
  6
CONTINUOUS
 62
     3
100
AcDbLine
 10
16.0
 20
-11.0
 30
0.0
 11
16.0
 21
3.0
 31
0.0
  0
LINE
  5
23D
100
AcDbEntity
  8
0
390
0
  6
CONTINUOUS
 62
     3
100
AcDbLine
 10
41.6
 20
-8.1
 30
0.0
 11
41.6
 21
0.1
 31
0.0
  0
LINE
  5
23E
100
AcDbEntity
  8
0
390
0
  6
CONTINUOUS
 62
     3
100
AcDbLine
 10
45.0
 20
-3.0
 30
0.0
 11
45.0
 21
-5.0
 31
0.0
  0
LINE
  5
23F
100
AcDbEntity
  8
0
390
0
  6
CONTINUOUS
 62
     3
100
AcDbLine
 10
41.6
 20
-12.1
 30
0.0
 11
41.6
 21
-8.1
 31
0.0
  0
LINE
  5
240
100
AcDbEntity
  8
0
390
0
  6
CONTINUOUS
 62
     3
100
AcDbLine
 10
41.6
 20
0.1
 30
0.0
 11
41.6
 21
4.1
 31
0.0
  0
LINE
  5
241
100
AcDbEntity
  8
0
390
0
  6
CONTINUOUS
 62
     3
100
AcDbLine
 10
45.0
 20
-15.0
 30
0.0
 11
45.0
 21
-5.0
 31
0.0
  0
LINE
  5
242
100
AcDbEntity
  8
0
390
0
  6
CONTINUOUS
 62
     3
100
AcDbLine
 10
45.0
 20
-3.0
 30
0.0
 11
45.0
 21
7.0
 31
0.0
  0
LINE
  5
243
100
AcDbEntity
  8
0
390
0
  6
CONTINUOUS
 62
     3
100
AcDbLine
 10
22.860063
 20
12.4
 30
0.0
 11
19.639937
 21
12.4
 31
0.0
  0
LINE
  5
244
100
AcDbEntity
  8
0
390
0
  6
CONTINUOUS
 62
     3
100
AcDbLine
 10
19.639937
 20
12.4
 30
0.0
 11
19.731579
 21
15.314214
 31
0.0
  0
LINE
  5
245
100
AcDbEntity
  8
0
390
0
  6
CONTINUOUS
 62
     3
100
AcDbLine
 10
22.768421
 20
15.314214
 30
0.0
 11
22.860063
 21
12.4
 31
0.0
  0
LINE
  5
246
100
AcDbEntity
  8
0
390
0
  6
CONTINUOUS
 62
     3
100
AcDbLine
 10
19.592767
 20
10.9
 30
0.0
 11
22.907233
 21
10.9
 31
0.0
  0
LINE
  5
247
100
AcDbEntity
  8
0
390
0
  6
CONTINUOUS
 62
     3
100
AcDbLine
 10
22.938679
 20
9.9
 30
0.0
 11
22.907233
 21
10.9
 31
0.0
  0
LINE
  5
248
100
AcDbEntity
  8
0
390
0
  6
CONTINUOUS
 62
     3
100
AcDbLine
 10
22.938679
 20
9.9
 30
0.0
 11
19.561321
 21
9.9
 31
0.0
  0
LINE
  5
249
100
AcDbEntity
  8
0
390
0
  6
CONTINUOUS
 62
     3
100
AcDbLine
 10
19.592767
 20
10.9
 30
0.0
 11
19.561321
 21
9.9
 31
0.0
  0
LINE
  5
24A
100
AcDbEntity
  8
0
390
0
  6
CONTINUOUS
 62
     3
100
AcDbLine
 10
22.907233
 20
10.9
 30
0.0
 11
22.860063
 21
12.4
 31
0.0
  0
LINE
  5
24B
100
AcDbEntity
  8
0
390
0
  6
CONTINUOUS
 62
     3
100
AcDbLine
 10
19.639937
 20
12.4
 30
0.0
 11
19.592767
 21
10.9
 31
0.0
  0
LINE
  5
24C
100
AcDbEntity
  8
0
390
0
  6
CONTINUOUS
 62
     3
100
AcDbLine
 10
9.5
 20
0.0
 30
0.0
 11
16.0
 21
0.0
 31
0.0
  0
LINE
  5
24D
100
AcDbEntity
  8
0
390
0
  6
CONTINUOUS
 62
     3
100
AcDbLine
 10
16.0
 20
-3.5
 30
0.0
 11
9.5
 21
-3.5
 31
0.0
  0
LINE
  5
24E
100
AcDbEntity
  8
0
390
0
  6
CONTINUOUS
 62
     3
100
AcDbLine
 10
26.5
 20
0.0
 30
0.0
 11
33.0
 21
0.0
 31
0.0
  0
LINE
  5
24F
100
AcDbEntity
  8
0
390
0
  6
CONTINUOUS
 62
     3
100
AcDbLine
 10
33.0
 20
-3.5
 30
0.0
 11
26.5
 21
-3.5
 31
0.0
  0
LINE
  5
250
100
AcDbEntity
  8
0
390
0
  6
CONTINUOUS
 62
     3
100
AcDbLine
 10
35.0
 20
0.0
 30
0.0
 11
41.6
 21
0.0
 31
0.0
  0
LINE
  5
251
100
AcDbEntity
  8
0
390
0
  6
CONTINUOUS
 62
     3
100
AcDbLine
 10
41.6
 20
-3.5
 30
0.0
 11
35.0
 21
-3.5
 31
0.0
  0
LINE
  5
252
100
AcDbEntity
  8
0
390
0
  6
CONTINUOUS
 62
     3
100
AcDbLine
 10
23.25
 20
0.0
 30
0.0
 11
24.5
 21
0.0
 31
0.0
  0
LINE
  5
253
100
AcDbEntity
  8
0
390
0
  6
CONTINUOUS
 62
     3
100
AcDbLine
 10
24.5
 20
-3.5
 30
0.0
 11
23.25
 21
-3.5
 31
0.0
  0
LINE
  5
254
100
AcDbEntity
  8
0
390
0
  6
CONTINUOUS
 62
     3
100
AcDbLine
 10
18.0
 20
0.0
 30
0.0
 11
19.25
 21
0.0
 31
0.0
  0
LINE
  5
255
100
AcDbEntity
  8
0
390
0
  6
CONTINUOUS
 62
     3
100
AcDbLine
 10
19.25
 20
-3.5
 30
0.0
 11
18.0
 21
-3.5
 31
0.0
  0
LINE
  5
256
100
AcDbEntity
  8
0
390
0
  6
CONTINUOUS
 62
     3
100
AcDbLine
 10
1.0
 20
0.0
 30
0.0
 11
7.5
 21
0.0
 31
0.0
  0
LINE
  5
257
100
AcDbEntity
  8
0
390
0
  6
CONTINUOUS
 62
     3
100
AcDbLine
 10
23.25
 20
-3.5
 30
0.0
 11
19.25
 21
-3.5
 31
0.0
  0
LINE
  5
258
100
AcDbEntity
  8
0
390
0
  6
CONTINUOUS
 62
     3
100
AcDbLine
 10
19.75
 20
15.9
 30
0.0
 11
22.75
 21
15.9
 31
0.0
  0
LINE
  5
259
100
AcDbEntity
  8
0
390
0
  6
CONTINUOUS
 62
     3
100
AcDbLine
 10
22.75
 20
15.9
 30
0.0
 11
22.768421
 21
15.314214
 31
0.0
  0
LINE
  5
25A
100
AcDbEntity
  8
0
390
0
  6
CONTINUOUS
 62
     3
100
AcDbLine
 10
19.731579
 20
15.314214
 30
0.0
 11
19.75
 21
15.9
 31
0.0
  0
LINE
  5
25B
100
AcDbEntity
  8
0
390
0
  6
CONTINUOUS
 62
     3
100
AcDbLine
 10
47.0
 20
0.0
 30
0.0
 11
47.0
 21
-6.5
 31
0.0
  0
LINE
  5
25C
100
AcDbEntity
  8
0
390
0
  6
CONTINUOUS
 62
     3
100
AcDbLine
 10
45.0
 20
-6.5
 30
0.0
 11
47.0
 21
-6.5
 31
0.0
  0
LINE
  5
25D
100
AcDbEntity
  8
0
390
0
  6
CONTINUOUS
 62
     3
100
AcDbLine
 10
45.0
 20
0.0
 30
0.0
 11
47.0
 21
0.0
 31
0.0
  0
ENDBLK
  5
25E
100
AcDbEntity
  8
0
370
    -2
390
0
100
AcDbBlockEnd
  0
BLOCK
  5
25F
100
AcDbEntity
  8
0
370
    -2
390
0
100
AcDbBlockBegin
  2
MS_8
 70
     0
 10
0.0
 20
0.0
 30
0.0
  3
MS_8
  1

  0
LINE
  5
260
100
AcDbEntity
  8
0
390
0
  6
CONTINUOUS
 62
   254
100
AcDbLine
 10
48.0
 20
-1.0
 30
0.0
 11
48.0
 21
-3.0
 31
0.0
  0
LINE
  5
261
100
AcDbEntity
  8
0
390
0
  6
CONTINUOUS
 62
   254
100
AcDbLine
 10
48.0
 20
-3.0
 30
0.0
 11
47.0
 21
-3.0
 31
0.0
  0
LINE
  5
262
100
AcDbEntity
  8
0
390
0
  6
CONTINUOUS
 62
   254
100
AcDbLine
 10
-48.0
 20
-1.0
 30
0.0
 11
-48.0
 21
-3.0
 31
0.0
  0
LINE
  5
263
100
AcDbEntity
  8
0
390
0
  6
CONTINUOUS
 62
   254
100
AcDbLine
 10
-47.0
 20
-3.0
 30
0.0
 11
-48.0
 21
-3.0
 31
0.0
  0
ARC
  5
264
100
AcDbEntity
  8
0
390
0
  6
CONTINUOUS
 62
   254
100
AcDbCircle
 10
47.0
 20
-1.0
 30
0.0
 40
1.0
100
AcDbArc
 50
0.0
 51
90.0
  0
LINE
  5
265
100
AcDbEntity
  8
0
390
0
  6
CONTINUOUS
 62
   254
100
AcDbLine
 10
-47.0
 20
0.0
 30
0.0
 11
47.0
 21
0.0
 31
0.0
  0
ARC
  5
266
100
AcDbEntity
  8
0
390
0
  6
CONTINUOUS
 62
   254
100
AcDbCircle
 10
-47.0
 20
-1.0
 30
0.0
 40
1.0
100
AcDbArc
 50
90.0
 51
180.0
  0
LINE
  5
267
100
AcDbEntity
  8
0
390
0
  6
CONTINUOUS
 62
   254
100
AcDbLine
 10
47.0
 20
-3.0
 30
0.0
 11
-47.0
 21
-3.0
 31
0.0
  0
LINE
  5
268
100
AcDbEntity
  8
0
390
0
  6
CONTINUOUS
 62
   255
100
AcDbLine
 10
-35.0
 20
-7.0
 30
0.0
 11
-34.0
 21
-7.0
 31
0.0
  0
LINE
  5
269
100
AcDbEntity
  8
0
390
0
  6
CONTINUOUS
 62
   254
100
AcDbLine
 10
-35.0
 20
-3.0
 30
0.0
 11
-35.0
 21
-7.0
 31
0.0
  0
LINE
  5
26A
100
AcDbEntity
  8
0
390
0
  6
CONTINUOUS
 62
   255
100
AcDbLine
 10
33.0
 20
-7.0
 30
0.0
 11
34.0
 21
-7.0
 31
0.0
  0
LINE
  5
26B
100
AcDbEntity
  8
0
390
0
  6
CONTINUOUS
 62
   254
100
AcDbLine
 10
33.0
 20
-3.0
 30
0.0
 11
33.0
 21
-7.0
 31
0.0
  0
LINE
  5
26C
100
AcDbEntity
  8
0
390
0
  6
CONTINUOUS
 62
   254
100
AcDbLine
 10
1.0
 20
-7.0
 30
0.0
 11
1.0
 21
-3.0
 31
0.0
  0
LINE
  5
26D
100
AcDbEntity
  8
0
390
0
  6
CONTINUOUS
 62
   255
100
AcDbLine
 10
1.0
 20
-7.0
 30
0.0
 11
0.0
 21
-7.0
 31
0.0
  0
LINE
  5
26E
100
AcDbEntity
  8
0
390
0
  6
CONTINUOUS
 62
   255
100
AcDbLine
 10
-1.0
 20
-7.0
 30
0.0
 11
0.0
 21
-7.0
 31
0.0
  0
ARC
  5
26F
100
AcDbEntity
  8
0
390
0
  6
CONTINUOUS
 62
   254
100
AcDbCircle
 10
0.0
 20
-7.0
 30
0.0
 40
1.0
100
AcDbArc
 50
180.0
 51
0.0
  0
LINE
  5
270
100
AcDbEntity
  8
0
390
0
  6
CONTINUOUS
 62
   255
100
AcDbLine
 10
-33.0
 20
-7.0
 30
0.0
 11
-34.0
 21
-7.0
 31
0.0
  0
ARC
  5
271
100
AcDbEntity
  8
0
390
0
  6
CONTINUOUS
 62
   254
100
AcDbCircle
 10
-34.0
 20
-7.0
 30
0.0
 40
1.0
100
AcDbArc
 50
180.0
 51
0.0
  0
LINE
  5
272
100
AcDbEntity
  8
0
390
0
  6
CONTINUOUS
 62
   254
100
AcDbLine
 10
-33.0
 20
-7.0
 30
0.0
 11
-33.0
 21
-3.0
 31
0.0
  0
LINE
  5
273
100
AcDbEntity
  8
0
390
0
  6
CONTINUOUS
 62
   255
100
AcDbLine
 10
35.0
 20
-7.0
 30
0.0
 11
34.0
 21
-7.0
 31
0.0
  0
ARC
  5
274
100
AcDbEntity
  8
0
390
0
  6
CONTINUOUS
 62
   254
100
AcDbCircle
 10
34.0
 20
-7.0
 30
0.0
 40
1.0
100
AcDbArc
 50
180.0
 51
0.0
  0
LINE
  5
275
100
AcDbEntity
  8
0
390
0
  6
CONTINUOUS
 62
   254
100
AcDbLine
 10
-1.0
 20
-3.0
 30
0.0
 11
-1.0
 21
-7.0
 31
0.0
  0
LINE
  5
276
100
AcDbEntity
  8
0
390
0
  6
CONTINUOUS
 62
   254
100
AcDbLine
 10
35.0
 20
-7.0
 30
0.0
 11
35.0
 21
-3.0
 31
0.0
  0
LINE
  5
277
100
AcDbEntity
  8
0
390
0
  6
CONTINUOUS
 62
   254
100
AcDbLine
 10
-1.0
 20
-106.8
 30
0.0
 11
-7.5
 21
-106.8
 31
0.0
  0
LINE
  5
278
100
AcDbEntity
  8
0
390
0
  6
CONTINUOUS
 62
   254
100
AcDbLine
 10
-7.5
 20
-105.799998
 30
0.0
 11
-1.0
 21
-105.799998
 31
0.0
  0
LINE
  5
279
100
AcDbEntity
  8
0
390
0
  6
CONTINUOUS
 62
   254
100
AcDbLine
 10
-9.5
 20
-106.8
 30
0.0
 11
-16.0
 21
-106.8
 31
0.0
  0
LINE
  5
27A
100
AcDbEntity
  8
0
390
0
  6
CONTINUOUS
 62
   254
100
AcDbLine
 10
-16.0
 20
-105.799998
 30
0.0
 11
-9.5
 21
-105.799998
 31
0.0
  0
LINE
  5
27B
100
AcDbEntity
  8
0
390
0
  6
CONTINUOUS
 62
   254
100
AcDbLine
 10
33.0
 20
-106.8
 30
0.0
 11
26.5
 21
-106.8
 31
0.0
  0
LINE
  5
27C
100
AcDbEntity
  8
0
390
0
  6
CONTINUOUS
 62
   254
100
AcDbLine
 10
26.5
 20
-105.799998
 30
0.0
 11
33.0
 21
-105.799998
 31
0.0
  0
LINE
  5
27D
100
AcDbEntity
  8
0
390
0
  6
CONTINUOUS
 62
   254
100
AcDbLine
 10
7.5
 20
-106.8
 30
0.0
 11
1.0
 21
-106.8
 31
0.0
  0
LINE
  5
27E
100
AcDbEntity
  8
0
390
0
  6
CONTINUOUS
 62
   254
100
AcDbLine
 10
1.0
 20
-105.799998
 30
0.0
 11
7.5
 21
-105.799998
 31
0.0
  0
LINE
  5
27F
100
AcDbEntity
  8
0
390
0
  6
CONTINUOUS
 62
   254
100
AcDbLine
 10
-26.5
 20
-106.8
 30
0.0
 11
-33.0
 21
-106.8
 31
0.0
  0
LINE
  5
280
100
AcDbEntity
  8
0
390
0
  6
CONTINUOUS
 62
   254
100
AcDbLine
 10
-33.0
 20
-105.799998
 30
0.0
 11
-26.5
 21
-105.799998
 31
0.0
  0
LINE
  5
281
100
AcDbEntity
  8
0
390
0
  6
CONTINUOUS
 62
   254
100
AcDbLine
 10
16.0
 20
-106.8
 30
0.0
 11
9.5
 21
-106.8
 31
0.0
  0
LINE
  5
282
100
AcDbEntity
  8
0
390
0
  6
CONTINUOUS
 62
   254
100
AcDbLine
 10
9.5
 20
-105.799998
 30
0.0
 11
16.0
 21
-105.799998
 31
0.0
  0
LINE
  5
283
100
AcDbEntity
  8
0
390
0
  6
CONTINUOUS
 62
   254
100
AcDbLine
 10
35.0
 20
-105.799998
 30
0.0
 11
41.6
 21
-105.799999
 31
0.0
  0
LINE
  5
284
100
AcDbEntity
  8
0
390
0
  6
CONTINUOUS
 62
   254
100
AcDbLine
 10
41.6
 20
-106.8
 30
0.0
 11
35.0
 21
-106.8
 31
0.0
  0
LINE
  5
285
100
AcDbEntity
  8
0
390
0
  6
CONTINUOUS
 62
   254
100
AcDbLine
 10
18.0
 20
-105.799998
 30
0.0
 11
24.5
 21
-105.799998
 31
0.0
  0
LINE
  5
286
100
AcDbEntity
  8
0
390
0
  6
CONTINUOUS
 62
   254
100
AcDbLine
 10
-24.5
 20
-105.799998
 30
0.0
 11
-18.0
 21
-105.799998
 31
0.0
  0
LINE
  5
287
100
AcDbEntity
  8
0
390
0
  6
CONTINUOUS
 62
   254
100
AcDbLine
 10
-41.6
 20
-105.8
 30
0.0
 11
-35.0
 21
-105.8
 31
0.0
  0
LINE
  5
288
100
AcDbEntity
  8
0
390
0
  6
CONTINUOUS
 62
   254
100
AcDbLine
 10
-45.0
 20
-3.0
 30
0.0
 11
-45.0
 21
-7.0
 31
0.0
  0
LINE
  5
289
100
AcDbEntity
  8
0
390
0
  6
CONTINUOUS
 62
   254
100
AcDbLine
 10
45.0
 20
-3.0
 30
0.0
 11
45.0
 21
-7.0
 31
0.0
  0
LINE
  5
28A
100
AcDbEntity
  8
0
390
0
  6
CONTINUOUS
 62
   254
100
AcDbLine
 10
23.75
 20
-90.8
 30
0.0
 11
23.75
 21
-97.3
 31
0.0
  0
LINE
  5
28B
100
AcDbEntity
  8
0
390
0
  6
CONTINUOUS
 62
   254
100
AcDbLine
 10
18.75
 20
-90.8
 30
0.0
 11
23.75
 21
-90.8
 31
0.0
  0
LINE
  5
28C
100
AcDbEntity
  8
0
390
0
  6
CONTINUOUS
 62
   254
100
AcDbLine
 10
18.75
 20
-97.3
 30
0.0
 11
18.75
 21
-90.8
 31
0.0
  0
LINE
  5
28D
100
AcDbEntity
  8
0
390
0
  6
CONTINUOUS
 62
   254
100
AcDbLine
 10
23.75
 20
-97.3
 30
0.0
 11
18.75
 21
-97.3
 31
0.0
  0
LINE
  5
28E
100
AcDbEntity
  8
0
390
0
  6
CONTINUOUS
 62
   254
100
AcDbLine
 10
-21.5
 20
-64.85
 30
0.0
 11
-21.5
 21
-46.85
 31
0.0
  0
LINE
  5
28F
100
AcDbEntity
  8
0
390
0
  6
CONTINUOUS
 62
   254
100
AcDbLine
 10
21.5
 20
-64.85
 30
0.0
 11
-21.5
 21
-64.85
 31
0.0
  0
LINE
  5
290
100
AcDbEntity
  8
0
390
0
  6
CONTINUOUS
 62
   254
100
AcDbLine
 10
21.5
 20
-46.85
 30
0.0
 11
21.5
 21
-64.85
 31
0.0
  0
LINE
  5
291
100
AcDbEntity
  8
0
390
0
  6
CONTINUOUS
 62
   254
100
AcDbLine
 10
-21.5
 20
-46.85
 30
0.0
 11
21.5
 21
-46.85
 31
0.0
  0
LINE
  5
292
100
AcDbEntity
  8
0
390
0
  6
CONTINUOUS
 62
   254
100
AcDbLine
 10
-18.75
 20
-90.8
 30
0.0
 11
-23.75
 21
-90.8
 31
0.0
  0
LINE
  5
293
100
AcDbEntity
  8
0
390
0
  6
CONTINUOUS
 62
   254
100
AcDbLine
 10
-23.75
 20
-90.8
 30
0.0
 11
-23.75
 21
-97.3
 31
0.0
  0
LINE
  5
294
100
AcDbEntity
  8
0
390
0
  6
CONTINUOUS
 62
   254
100
AcDbLine
 10
-23.75
 20
-97.3
 30
0.0
 11
-18.75
 21
-97.3
 31
0.0
  0
LINE
  5
295
100
AcDbEntity
  8
0
390
0
  6
CONTINUOUS
 62
   254
100
AcDbLine
 10
-18.75
 20
-97.3
 30
0.0
 11
-18.75
 21
-90.8
 31
0.0
  0
LINE
  5
296
100
AcDbEntity
  8
0
390
0
  6
CONTINUOUS
 62
   254
100
AcDbLine
 10
24.5
 20
-106.8
 30
0.0
 11
18.0
 21
-106.8
 31
0.0
  0
LINE
  5
297
100
AcDbEntity
  8
0
390
0
  6
CONTINUOUS
 62
   254
100
AcDbLine
 10
-24.5
 20
-106.8
 30
0.0
 11
-18.0
 21
-106.8
 31
0.0
  0
LINE
  5
298
100
AcDbEntity
  8
0
390
0
  6
CONTINUOUS
 62
   254
100
AcDbLine
 10
45.0
 20
-7.0
 30
0.0
 11
45.0
 21
-8.0
 31
0.0
  0
LINE
  5
299
100
AcDbEntity
  8
0
390
0
  6
CONTINUOUS
 62
   254
100
AcDbLine
 10
45.0
 20
-7.0
 30
0.0
 11
46.0
 21
-7.0
 31
0.0
  0
LINE
  5
29A
100
AcDbEntity
  8
0
390
0
  6
CONTINUOUS
 62
   254
100
AcDbLine
 10
-35.0
 20
-106.8
 30
0.0
 11
-41.6
 21
-106.8
 31
0.0
  0
LINE
  5
29B
100
AcDbEntity
  8
0
390
0
  6
CONTINUOUS
 62
   254
100
AcDbLine
 10
-46.0
 20
-7.0
 30
0.0
 11
-45.0
 21
-7.0
 31
0.0
  0
LINE
  5
29C
100
AcDbEntity
  8
0
390
0
  6
CONTINUOUS
 62
   254
100
AcDbLine
 10
-45.0
 20
-8.0
 30
0.0
 11
-45.0
 21
-7.0
 31
0.0
  0
LINE
  5
29D
100
AcDbEntity
  8
0
390
0
  6
CONTINUOUS
 62
   254
100
AcDbLine
 10
-45.0
 20
-106.8
 30
0.0
 11
-45.0
 21
-8.0
 31
0.0
  0
LINE
  5
29E
100
AcDbEntity
  8
0
390
0
  6
CONTINUOUS
 62
   254
100
AcDbLine
 10
45.0
 20
-8.0
 30
0.0
 11
45.0
 21
-106.8
 31
0.0
  0
CIRCLE
  5
29F
100
AcDbEntity
  8
0
390
0
  6
CONTINUOUS
 62
   254
100
AcDbCircle
 10
16.66
 20
-55.85
 30
0.0
 40
1.6
  0
LINE
  5
2A0
100
AcDbEntity
  8
0
390
0
  6
CONTINUOUS
 62
   254
100
AcDbLine
 10
10.4
 20
-50.15
 30
0.0
 11
-10.4
 21
-50.15
 31
0.0
  0
ARC
  5
2A1
100
AcDbEntity
  8
0
390
0
  6
CONTINUOUS
 62
   254
100
AcDbCircle
 10
-10.4
 20
-54.15
 30
0.0
 40
4.0
100
AcDbArc
 50
90.0
 51
199.999994
  0
LINE
  5
2A2
100
AcDbEntity
  8
0
390
0
  6
CONTINUOUS
 62
   254
100
AcDbLine
 10
-14.158771
 20
-55.51808
 30
0.0
 11
-13.678013
 21
-58.244593
 31
0.0
  0
ARC
  5
2A3
100
AcDbEntity
  8
0
390
0
  6
CONTINUOUS
 62
   254
100
AcDbCircle
 10
-9.738782
 20
-57.55
 30
0.0
 40
4.0
100
AcDbArc
 50
189.999997
 51
270.0
  0
LINE
  5
2A4
100
AcDbEntity
  8
0
390
0
  6
CONTINUOUS
 62
   254
100
AcDbLine
 10
-9.738782
 20
-61.55
 30
0.0
 11
9.738782
 21
-61.55
 31
0.0
  0
ARC
  5
2A5
100
AcDbEntity
  8
0
390
0
  6
CONTINUOUS
 62
   254
100
AcDbCircle
 10
9.738782
 20
-57.55
 30
0.0
 40
4.0
100
AcDbArc
 50
270.0
 51
350.000003
  0
LINE
  5
2A6
100
AcDbEntity
  8
0
390
0
  6
CONTINUOUS
 62
   254
100
AcDbLine
 10
13.678013
 20
-58.244593
 30
0.0
 11
14.4
 21
-54.15
 31
0.0
  0
ARC
  5
2A7
100
AcDbEntity
  8
0
390
0
  6
CONTINUOUS
 62
   254
100
AcDbCircle
 10
10.4
 20
-54.15
 30
0.0
 40
4.0
100
AcDbArc
 50
0.0
 51
90.0
  0
CIRCLE
  5
2A8
100
AcDbEntity
  8
0
390
0
  6
CONTINUOUS
 62
   254
100
AcDbCircle
 10
-16.66
 20
-55.85
 30
0.0
 40
1.6
  0
LINE
  5
2A9
100
AcDbEntity
  8
0
390
0
  6
CONTINUOUS
 62
   254
100
AcDbLine
 10
45.0
 20
-106.8
 30
0.0
 11
45.0
 21
-98.8
 31
0.0
  0
LINE
  5
2AA
100
AcDbEntity
  8
0
390
0
  6
CONTINUOUS
 62
     7
100
AcDbLine
 10
-45.0
 20
-98.8
 30
0.0
 11
-45.0
 21
-106.8
 31
0.0
  0
ARC
  5
2AB
100
AcDbEntity
  8
0
390
0
  6
CONTINUOUS
 62
   254
100
AcDbCircle
 10
45.0
 20
-7.0
 30
0.0
 40
1.0
100
AcDbArc
 50
270.0
 51
0.0
  0
LINE
  5
2AC
100
AcDbEntity
  8
0
390
0
  6
CONTINUOUS
 62
   254
100
AcDbLine
 10
46.0
 20
-7.0
 30
0.0
 11
46.0
 21
-3.0
 31
0.0
  0
LINE
  5
2AD
100
AcDbEntity
  8
0
390
0
  6
CONTINUOUS
 62
   254
100
AcDbLine
 10
-46.0
 20
-3.0
 30
0.0
 11
-46.0
 21
-7.0
 31
0.0
  0
ARC
  5
2AE
100
AcDbEntity
  8
0
390
0
  6
CONTINUOUS
 62
   254
100
AcDbCircle
 10
-45.0
 20
-7.0
 30
0.0
 40
1.0
100
AcDbArc
 50
180.0
 51
270.0
  0
ENDBLK
  5
2AF
100
AcDbEntity
  8
0
370
    -2
390
0
100
AcDbBlockEnd
  0
BLOCK
  5
2B0
100
AcDbEntity
  8
0
370
    -2
390
0
100
AcDbBlockBegin
  2
MS_9
 70
     0
 10
0.0
 20
0.0
 30
0.0
  3
MS_9
  1

  0
ARC
  5
2B1
100
AcDbEntity
  8
0
390
0
  6
CONTINUOUS
 62
   254
100
AcDbCircle
 10
-47.9
 20
-33.0
 30
0.0
 40
1.0
100
AcDbArc
 50
270.0
 51
0.0
  0
LINE
  5
2B2
100
AcDbEntity
  8
0
390
0
  6
CONTINUOUS
 62
   254
100
AcDbLine
 10
-47.9
 20
-34.0
 30
0.0
 11
-51.9
 21
-34.0
 31
0.0
  0
LINE
  5
2B3
100
AcDbEntity
  8
0
390
0
  6
CONTINUOUS
 62
   254
100
AcDbLine
 10
35.9
 20
31.0
 30
0.0
 11
34.4
 21
31.0
 31
0.0
  0
LINE
  5
2B4
100
AcDbEntity
  8
0
390
0
  6
CONTINUOUS
 62
   254
100
AcDbLine
 10
9.95
 20
-33.0
 30
0.0
 11
49.9
 21
-33.000002
 31
0.0
  0
LINE
  5
2B6
100
AcDbEntity
  8
0
390
0
  6
DASHED
 62
   254
100
AcDbLine
 10
9.95
 20
-26.2
 30
0.0
 11
9.95
 21
-33.0
 31
0.0
  0
LINE
  5
2B7
100
AcDbEntity
  8
0
390
0
  6
DASHED
 62
   254
100
AcDbLine
 10
9.95
 20
-26.2
 30
0.0
 11
6.65
 21
-26.2
 31
0.0
  0
LINE
  5
2B8
100
AcDbEntity
  8
0
390
0
  6
CONTINUOUS
 62
   254
100
AcDbLine
 10
-53.9
 20
-36.0
 30
0.0
 11
-51.9
 21
-36.0
 31
0.0
  0
ARC
  5
2B9
100
AcDbEntity
  8
0
390
0
  6
CONTINUOUS
 62
   254
100
AcDbCircle
 10
-53.9
 20
-35.0
 30
0.0
 40
1.0
100
AcDbArc
 50
180.0
 51
270.0
  0
LINE
  5
2BA
100
AcDbEntity
  8
0
390
0
  6
DASHED
 62
   254
100
AcDbLine
 10
-8.05
 20
-33.0
 30
0.0
 11
-8.05
 21
-26.2
 31
0.0
  0
LINE
  5
2BB
100
AcDbEntity
  8
0
390
0
  6
CONTINUOUS
 62
   254
100
AcDbLine
 10
-46.9
 20
-33.0
 30
0.0
 11
-8.05
 21
-33.0
 31
0.0
  0
LINE
  5
2BC
100
AcDbEntity
  8
0
390
0
  6
CONTINUOUS
 62
   254
100
AcDbLine
 10
-54.9
 20
-35.0
 30
0.0
 11
-54.9
 21
-31.0
 31
0.0
  0
LINE
  5
2BD
100
AcDbEntity
  8
0
390
0
  6
DASHED
 62
   254
100
AcDbLine
 10
-4.75
 20
-26.2
 30
0.0
 11
-8.05
 21
-26.2
 31
0.0
  0
LINE
  5
2BE
100
AcDbEntity
  8
0
390
0
  6
CONTINUOUS
 62
   254
100
AcDbLine
 10
-51.9
 20
-34.0
 30
0.0
 11
-51.9
 21
-36.0
 31
0.0
  0
ARC
  5
2BF
100
AcDbEntity
  8
0
390
0
  6
CONTINUOUS
 62
   254
100
AcDbCircle
 10
-53.9
 20
35.0
 30
0.0
 40
1.0
100
AcDbArc
 50
90.0
 51
180.0
  0
LINE
  5
2C0
100
AcDbEntity
  8
0
390
0
  6
CONTINUOUS
 62
   254
100
AcDbLine
 10
-51.9
 20
36.0
 30
0.0
 11
-53.9
 21
36.0
 31
0.0
  0
LINE
  5
2C1
100
AcDbEntity
  8
0
390
0
  6
CONTINUOUS
 62
   254
100
AcDbLine
 10
-54.9
 20
31.0
 30
0.0
 11
-54.9
 21
35.0
 31
0.0
  0
LINE
  5
2C2
100
AcDbEntity
  8
0
390
0
  6
CONTINUOUS
 62
   254
100
AcDbLine
 10
-51.9
 20
-34.0
 30
0.0
 11
-51.9
 21
36.0
 31
0.0
  0
LINE
  5
2C3
100
AcDbEntity
  8
0
390
0
  6
CONTINUOUS
 62
   254
100
AcDbLine
 10
51.9
 20
-31.0
 30
0.0
 11
51.9
 21
-32.0
 31
0.0
  0
LINE
  5
2C4
100
AcDbEntity
  8
0
390
0
  6
CONTINUOUS
 62
   254
100
AcDbLine
 10
50.899998
 20
-33.000002
 30
0.0
 11
51.9
 21
-32.0
 31
0.0
  0
LINE
  5
2C5
100
AcDbEntity
  8
0
390
0
  6
CONTINUOUS
 62
   254
100
AcDbLine
 10
49.9
 20
-33.000002
 30
0.0
 11
50.899998
 21
-33.000002
 31
0.0
  0
LINE
  5
2C6
100
AcDbEntity
  8
0
390
0
  6
DASHED
 62
   254
100
AcDbLine
 10
6.65
 20
-26.2
 30
0.0
 11
3.344593
 21
-26.2
 31
0.0
  0
LINE
  5
2C7
100
AcDbEntity
  8
0
390
0
  6
DASHED
 62
   254
100
AcDbLine
 10
0.61808
 20
-26.2
 30
0.0
 11
-4.75
 21
-26.2
 31
0.0
  0
LINE
  5
2C8
100
AcDbEntity
  8
0
390
0
  6
DASHED
 62
   254
100
AcDbLine
 10
0.61808
 20
-26.2
 30
0.0
 11
3.344593
 21
-26.2
 31
0.0
  0
LINE
  5
2C9
100
AcDbEntity
  8
0
390
0
  6
CONTINUOUS
 62
   254
100
AcDbLine
 10
9.95
 20
-33.0
 30
0.0
 11
-8.05
 21
-33.0
 31
0.0
  0
LINE
  5
2CA
100
AcDbEntity
  8
0
390
0
  6
CONTINUOUS
 62
   254
100
AcDbLine
 10
-51.9
 20
31.0
 30
0.0
 11
-50.2
 21
31.0
 31
0.0
  0
LINE
  5
2CB
100
AcDbEntity
  8
0
390
0
  6
CONTINUOUS
 62
   254
100
AcDbLine
 10
-50.2
 20
31.0
 30
0.0
 11
-48.2
 21
31.0
 31
0.0
  0
LINE
  5
2CC
100
AcDbEntity
  8
0
390
0
  6
CONTINUOUS
 62
   254
100
AcDbLine
 10
51.9
 20
31.0
 30
0.0
 11
51.9
 21
6.0
 31
0.0
  0
LINE
  5
2CD
100
AcDbEntity
  8
0
390
0
  6
CONTINUOUS
 62
   254
100
AcDbLine
 10
51.9
 20
6.0
 30
0.0
 11
43.9
 21
6.0
 31
0.0
  0
LINE
  5
2CE
100
AcDbEntity
  8
0
390
0
  6
CONTINUOUS
 62
   254
100
AcDbLine
 10
43.9
 20
6.0
 30
0.0
 11
43.9
 21
-6.0
 31
0.0
  0
LINE
  5
2CF
100
AcDbEntity
  8
0
390
0
  6
CONTINUOUS
 62
     7
100
AcDbLine
 10
51.9
 20
-6.0
 30
0.0
 11
43.9
 21
-6.0
 31
0.0
  0
LINE
  5
2D0
100
AcDbEntity
  8
0
390
0
  6
CONTINUOUS
 62
   254
100
AcDbLine
 10
35.9
 20
31.0
 30
0.0
 11
51.9
 21
31.0
 31
0.0
  0
LINE
  5
2D1
100
AcDbEntity
  8
0
390
0
  6
CONTINUOUS
 62
   254
100
AcDbLine
 10
-48.2
 20
31.0
 30
0.0
 11
34.4
 21
31.0
 31
0.0
  0
LINE
  5
2D2
100
AcDbEntity
  8
0
390
0
  6
CONTINUOUS
 62
   254
100
AcDbLine
 10
51.9
 20
-6.0
 30
0.0
 11
51.9
 21
-31.0
 31
0.0
  0
LINE
  5
2D3
100
AcDbEntity
  8
0
390
0
  6
CONTINUOUS
 62
   254
100
AcDbLine
 10
-54.9
 20
31.0
 30
0.0
 11
-54.9
 21
-31.0
 31
0.0
  0
ENDBLK
  5
2D4
100
AcDbEntity
  8
0
370
    -2
390
0
100
AcDbBlockEnd
  0
BLOCK
  5
2D5
100
AcDbEntity
  8
0
370
    -2
390
0
100
AcDbBlockBegin
  2
MS_10
 70
     0
 10
0.0
 20
0.0
 30
0.0
  3
MS_10
  1

  0
LINE
  5
2D6
100
AcDbEntity
  8
0
390
0
  6
CONTINUOUS
 62
   254
100
AcDbLine
 10
43.0
 20
31.0
 30
0.0
 11
-43.0
 21
31.0
 31
0.0
  0
LINE
  5
2D7
100
AcDbEntity
  8
0
390
0
  6
CONTINUOUS
 62
   254
100
AcDbLine
 10
-43.0
 20
31.0
 30
0.0
 11
-43.0
 21
-31.0
 31
0.0
  0
LINE
  5
2D8
100
AcDbEntity
  8
0
390
0
  6
CONTINUOUS
 62
   254
100
AcDbLine
 10
-43.0
 20
-31.0
 30
0.0
 11
43.0
 21
-31.0
 31
0.0
  0
LINE
  5
2D9
100
AcDbEntity
  8
0
390
0
  6
CONTINUOUS
 62
   254
100
AcDbLine
 10
43.0
 20
-31.0
 30
0.0
 11
43.0
 21
31.0
 31
0.0
  0
ARC
  5
2DA
100
AcDbEntity
  8
0
390
0
  6
CONTINUOUS
 62
   254
100
AcDbCircle
 10
47.0
 20
35.0
 30
0.0
 40
1.0
100
AcDbArc
 50
0.0
 51
90.0
  0
LINE
  5
2DB
100
AcDbEntity
  8
0
390
0
  6
CONTINUOUS
 62
   254
100
AcDbLine
 10
-47.0
 20
36.0
 30
0.0
 11
47.0
 21
36.0
 31
0.0
  0
LINE
  5
2DC
100
AcDbEntity
  8
0
390
0
  6
CONTINUOUS
 62
   254
100
AcDbLine
 10
48.0
 20
35.0
 30
0.0
 11
48.0
 21
-35.0
 31
0.0
  0
LINE
  5
2DD
100
AcDbEntity
  8
0
390
0
  6
CONTINUOUS
 62
   254
100
AcDbLine
 10
-48.0
 20
-35.0
 30
0.0
 11
-48.0
 21
35.0
 31
0.0
  0
ARC
  5
2DE
100
AcDbEntity
  8
0
390
0
  6
CONTINUOUS
 62
   254
100
AcDbCircle
 10
-47.0
 20
35.0
 30
0.0
 40
1.0
100
AcDbArc
 50
90.0
 51
180.0
  0
LINE
  5
2DF
100
AcDbEntity
  8
0
390
0
  6
CONTINUOUS
 62
   254
100
AcDbLine
 10
47.0
 20
-36.0
 30
0.0
 11
-47.0
 21
-36.0
 31
0.0
  0
ARC
  5
2E0
100
AcDbEntity
  8
0
390
0
  6
CONTINUOUS
 62
   254
100
AcDbCircle
 10
47.0
 20
-35.0
 30
0.0
 40
1.0
100
AcDbArc
 50
270.0
 51
0.0
  0
ARC
  5
2E1
100
AcDbEntity
  8
0
390
0
  6
CONTINUOUS
 62
   254
100
AcDbCircle
 10
-47.0
 20
-35.0
 30
0.0
 40
1.0
100
AcDbArc
 50
180.0
 51
270.0
  0
ENDBLK
  5
2E2
100
AcDbEntity
  8
0
370
    -2
390
0
100
AcDbBlockEnd
  0
BLOCK
  5
2E3
100
AcDbEntity
  8
0
370
    -2
390
0
100
AcDbBlockBegin
  2
MS_11
 70
     0
 10
0.0
 20
0.0
 30
0.0
  3
MS_11
  1

  0
LINE
  5
2E4
100
AcDbEntity
  8
0
390
0
  6
CONTINUOUS
 62
    10
100
AcDbLine
 10
1.0
 20
7.25
 30
0.0
 11
3.25
 21
7.25
 31
0.0
  0
LINE
  5
2E5
100
AcDbEntity
  8
0
390
0
  6
CONTINUOUS
 62
    10
100
AcDbLine
 10
-33.0
 20
7.25
 30
0.0
 11
-30.75
 21
7.25
 31
0.0
  0
LINE
  5
2E6
100
AcDbEntity
  8
0
390
0
  6
CONTINUOUS
 62
    10
100
AcDbLine
 10
-24.5
 20
7.25
 30
0.0
 11
-22.25
 21
7.25
 31
0.0
  0
LINE
  5
2E7
100
AcDbEntity
  8
0
390
0
  6
CONTINUOUS
 62
    10
100
AcDbLine
 10
-16.0
 20
7.25
 30
0.0
 11
-13.75
 21
7.25
 31
0.0
  0
LINE
  5
2E8
100
AcDbEntity
  8
0
390
0
  6
CONTINUOUS
 62
    10
100
AcDbLine
 10
-7.5
 20
7.25
 30
0.0
 11
-5.25
 21
7.25
 31
0.0
  0
LINE
  5
2E9
100
AcDbEntity
  8
0
390
0
  6
CONTINUOUS
 62
    10
100
AcDbLine
 10
9.5
 20
7.25
 30
0.0
 11
11.75
 21
7.25
 31
0.0
  0
LINE
  5
2EA
100
AcDbEntity
  8
0
390
0
  6
CONTINUOUS
 62
    10
100
AcDbLine
 10
18.0
 20
7.25
 30
0.0
 11
20.25
 21
7.25
 31
0.0
  0
LINE
  5
2EB
100
AcDbEntity
  8
0
390
0
  6
CONTINUOUS
 62
    10
100
AcDbLine
 10
26.5
 20
7.25
 30
0.0
 11
28.75
 21
7.25
 31
0.0
  0
LINE
  5
2EC
100
AcDbEntity
  8
0
390
0
  6
CONTINUOUS
 62
    10
100
AcDbLine
 10
35.0
 20
7.25
 30
0.0
 11
37.25
 21
7.25
 31
0.0
  0
LINE
  5
2ED
100
AcDbEntity
  8
0
390
0
  6
CONTINUOUS
 62
    10
100
AcDbLine
 10
39.25
 20
7.25
 30
0.0
 11
41.6
 21
7.25
 31
0.0
  0
LINE
  5
2EE
100
AcDbEntity
  8
0
390
0
  6
CONTINUOUS
 62
    10
100
AcDbLine
 10
6.0
 20
-5.25
 30
0.0
 11
42.4
 21
-5.25
 31
0.0
  0
LINE
  5
2EF
100
AcDbEntity
  8
0
390
0
  6
CONTINUOUS
 62
    10
100
AcDbLine
 10
-42.4
 20
-5.25
 30
0.0
 11
-6.0
 21
-5.25
 31
0.0
  0
LINE
  5
2F0
100
AcDbEntity
  8
0
390
0
  6
CONTINUOUS
 62
    10
100
AcDbLine
 10
-41.6
 20
7.25
 30
0.0
 11
-39.25
 21
7.25
 31
0.0
  0
LINE
  5
2F1
100
AcDbEntity
  8
0
390
0
  6
CONTINUOUS
 62
    10
100
AcDbLine
 10
-37.25
 20
7.25
 30
0.0
 11
-35.0
 21
7.25
 31
0.0
  0
LINE
  5
2F2
100
AcDbEntity
  8
0
390
0
  6
CONTINUOUS
 62
    10
100
AcDbLine
 10
-28.75
 20
7.25
 30
0.0
 11
-26.5
 21
7.25
 31
0.0
  0
LINE
  5
2F3
100
AcDbEntity
  8
0
390
0
  6
CONTINUOUS
 62
    10
100
AcDbLine
 10
-20.25
 20
7.25
 30
0.0
 11
-18.0
 21
7.25
 31
0.0
  0
LINE
  5
2F4
100
AcDbEntity
  8
0
390
0
  6
CONTINUOUS
 62
    10
100
AcDbLine
 10
-11.75
 20
7.25
 30
0.0
 11
-9.5
 21
7.25
 31
0.0
  0
LINE
  5
2F5
100
AcDbEntity
  8
0
390
0
  6
CONTINUOUS
 62
    10
100
AcDbLine
 10
-3.25
 20
7.25
 30
0.0
 11
-1.0
 21
7.25
 31
0.0
  0
LINE
  5
2F6
100
AcDbEntity
  8
0
390
0
  6
CONTINUOUS
 62
    10
100
AcDbLine
 10
5.25
 20
7.25
 30
0.0
 11
7.5
 21
7.25
 31
0.0
  0
LINE
  5
2F7
100
AcDbEntity
  8
0
390
0
  6
CONTINUOUS
 62
    10
100
AcDbLine
 10
13.75
 20
7.25
 30
0.0
 11
16.0
 21
7.25
 31
0.0
  0
LINE
  5
2F8
100
AcDbEntity
  8
0
390
0
  6
CONTINUOUS
 62
    10
100
AcDbLine
 10
22.25
 20
7.25
 30
0.0
 11
24.5
 21
7.25
 31
0.0
  0
LINE
  5
2F9
100
AcDbEntity
  8
0
390
0
  6
CONTINUOUS
 62
    10
100
AcDbLine
 10
30.75
 20
7.25
 30
0.0
 11
33.0
 21
7.25
 31
0.0
  0
LINE
  5
2FA
100
AcDbEntity
  8
0
390
0
  6
CONTINUOUS
 62
    20
100
AcDbLine
 10
-42.4
 20
-5.25
 30
0.0
 11
-42.9
 21
-5.25
 31
0.0
  0
LINE
  5
2FB
100
AcDbEntity
  8
0
390
0
  6
CONTINUOUS
 62
    10
100
AcDbLine
 10
42.9
 20
-5.25
 30
0.0
 11
42.4
 21
-5.25
 31
0.0
  0
LINE
  5
2FC
100
AcDbEntity
  8
0
390
0
  6
CONTINUOUS
 62
    10
100
AcDbLine
 10
-42.742777
 20
-0.05
 30
0.0
 11
-42.743
 21
-0.05
 31
0.0
  0
LINE
  5
2FD
100
AcDbEntity
  8
0
390
0
  6
CONTINUOUS
 62
    20
100
AcDbLine
 10
42.742777
 20
-0.05
 30
0.0
 11
42.743
 21
-0.05
 31
0.0
  0
LINE
  5
2FE
100
AcDbEntity
  8
0
390
0
  6
CONTINUOUS
 62
    10
100
AcDbLine
 10
47.0
 20
5.25
 30
0.0
 11
47.0
 21
0.25
 31
0.0
  0
LINE
  5
2FF
100
AcDbEntity
  8
0
390
0
  6
CONTINUOUS
 62
    10
100
AcDbLine
 10
47.0
 20
0.25
 30
0.0
 11
45.0
 21
0.25
 31
0.0
  0
LINE
  5
300
100
AcDbEntity
  8
0
390
0
  6
CONTINUOUS
 62
    10
100
AcDbLine
 10
-45.0
 20
0.25
 30
0.0
 11
-47.0
 21
0.25
 31
0.0
  0
LINE
  5
301
100
AcDbEntity
  8
0
390
0
  6
CONTINUOUS
 62
    10
100
AcDbLine
 10
-47.0
 20
5.25
 30
0.0
 11
-47.0
 21
0.25
 31
0.0
  0
LINE
  5
302
100
AcDbEntity
  8
0
390
0
  6
CONTINUOUS
 62
    10
100
AcDbLine
 10
42.9
 20
-5.25
 30
0.0
 11
47.0
 21
-5.25
 31
0.0
  0
LINE
  5
303
100
AcDbEntity
  8
0
390
0
  6
CONTINUOUS
 62
    10
100
AcDbLine
 10
47.0
 20
0.25
 30
0.0
 11
47.0
 21
-5.25
 31
0.0
  0
LINE
  5
304
100
AcDbEntity
  8
0
390
0
  6
CONTINUOUS
 62
    10
100
AcDbLine
 10
-42.9
 20
-5.25
 30
0.0
 11
-47.0
 21
-5.25
 31
0.0
  0
LINE
  5
305
100
AcDbEntity
  8
0
390
0
  6
CONTINUOUS
 62
    10
100
AcDbLine
 10
-47.0
 20
0.25
 30
0.0
 11
-47.0
 21
-5.25
 31
0.0
  0
LINE
  5
306
100
AcDbEntity
  8
0
390
0
  6
CONTINUOUS
 62
    10
100
AcDbLine
 10
2.0
 20
-5.25
 30
0.0
 11
-2.0
 21
-5.25
 31
0.0
  0
LINE
  5
307
100
AcDbEntity
  8
0
390
0
  6
CONTINUOUS
 62
    10
100
AcDbLine
 10
6.0
 20
-5.25
 30
0.0
 11
2.0
 21
-5.25
 31
0.0
  0
LINE
  5
308
100
AcDbEntity
  8
0
390
0
  6
CONTINUOUS
 62
    10
100
AcDbLine
 10
-2.0
 20
-5.25
 30
0.0
 11
-6.0
 21
-5.25
 31
0.0
  0
ENDBLK
  5
309
100
AcDbEntity
  8
0
370
    -2
390
0
100
AcDbBlockEnd
  0
BLOCK
  5
30A
100
AcDbEntity
  8
0
370
    -2
390
0
100
AcDbBlockBegin
  2
MS_12
 70
     0
 10
0.0
 20
0.0
 30
0.0
  3
MS_12
  1

  0
LINE
  5
30B
100
AcDbEntity
  8
0
390
0
  6
CONTINUOUS
 62
     6
100
AcDbLine
 10
41.4
 20
-2.9
 30
0.0
 11
41.4
 21
-2.0
 31
0.0
  0
LINE
  5
30C
100
AcDbEntity
  8
0
390
0
  6
CONTINUOUS
 62
     6
100
AcDbLine
 10
41.4
 20
5.9
 30
0.0
 11
-41.4
 21
5.9
 31
0.0
  0
LINE
  5
30D
100
AcDbEntity
  8
0
390
0
  6
CONTINUOUS
 62
     6
100
AcDbLine
 10
41.9
 20
2.0
 30
0.0
 11
41.4
 21
2.0
 31
0.0
  0
ARC
  5
30E
100
AcDbEntity
  8
0
390
0
  6
CONTINUOUS
 62
     6
100
AcDbCircle
 10
-38.25
 20
-1.5
 30
0.0
 40
2.5
100
AcDbArc
 50
325.944202
 51
214.055798
  0
ARC
  5
30F
100
AcDbEntity
  8
0
390
0
  6
CONTINUOUS
 62
     6
100
AcDbCircle
 10
-29.75
 20
-1.5
 30
0.0
 40
2.5
100
AcDbArc
 50
325.944202
 51
214.055798
  0
ARC
  5
310
100
AcDbEntity
  8
0
390
0
  6
CONTINUOUS
 62
     6
100
AcDbCircle
 10
-21.25
 20
-1.5
 30
0.0
 40
2.5
100
AcDbArc
 50
325.944202
 51
214.055798
  0
ARC
  5
311
100
AcDbEntity
  8
0
390
0
  6
CONTINUOUS
 62
     6
100
AcDbCircle
 10
-12.75
 20
-1.5
 30
0.0
 40
2.5
100
AcDbArc
 50
325.944202
 51
214.055798
  0
ARC
  5
312
100
AcDbEntity
  8
0
390
0
  6
CONTINUOUS
 62
     6
100
AcDbCircle
 10
-4.25
 20
-1.5
 30
0.0
 40
2.5
100
AcDbArc
 50
325.944202
 51
214.055798
  0
ARC
  5
313
100
AcDbEntity
  8
0
390
0
  6
CONTINUOUS
 62
     6
100
AcDbCircle
 10
4.25
 20
-1.5
 30
0.0
 40
2.5
100
AcDbArc
 50
325.944202
 51
214.055798
  0
ARC
  5
314
100
AcDbEntity
  8
0
390
0
  6
CONTINUOUS
 62
     6
100
AcDbCircle
 10
12.75
 20
-1.5
 30
0.0
 40
2.5
100
AcDbArc
 50
325.944202
 51
214.055798
  0
ARC
  5
315
100
AcDbEntity
  8
0
390
0
  6
CONTINUOUS
 62
     6
100
AcDbCircle
 10
21.25
 20
-1.5
 30
0.0
 40
2.5
100
AcDbArc
 50
325.944202
 51
214.055798
  0
ARC
  5
316
100
AcDbEntity
  8
0
390
0
  6
CONTINUOUS
 62
     6
100
AcDbCircle
 10
29.75
 20
-1.5
 30
0.0
 40
2.5
100
AcDbArc
 50
325.944202
 51
214.055798
  0
ARC
  5
317
100
AcDbEntity
  8
0
390
0
  6
CONTINUOUS
 62
     6
100
AcDbCircle
 10
38.25
 20
-1.5
 30
0.0
 40
2.5
100
AcDbArc
 50
325.944202
 51
214.055798
  0
LINE
  5
318
100
AcDbEntity
  8
0
390
0
  6
CONTINUOUS
 62
     6
100
AcDbLine
 10
-41.4
 20
5.9
 30
0.0
 11
-41.4
 21
2.0
 31
0.0
  0
LINE
  5
319
100
AcDbEntity
  8
0
390
0
  6
CONTINUOUS
 62
     6
100
AcDbLine
 10
-41.4
 20
2.0
 30
0.0
 11
-41.9
 21
2.0
 31
0.0
  0
LINE
  5
31A
100
AcDbEntity
  8
0
390
0
  6
CONTINUOUS
 62
     6
100
AcDbLine
 10
-41.9
 20
2.0
 30
0.0
 11
-41.9
 21
-2.0
 31
0.0
  0
LINE
  5
31B
100
AcDbEntity
  8
0
390
0
  6
CONTINUOUS
 62
     6
100
AcDbLine
 10
-41.9
 20
-2.0
 30
0.0
 11
-41.4
 21
-2.0
 31
0.0
  0
LINE
  5
31C
100
AcDbEntity
  8
0
390
0
  6
CONTINUOUS
 62
     6
100
AcDbLine
 10
-41.4
 20
-2.0
 30
0.0
 11
-41.4
 21
-2.9
 31
0.0
  0
LINE
  5
31D
100
AcDbEntity
  8
0
390
0
  6
CONTINUOUS
 62
     6
100
AcDbLine
 10
41.4
 20
-2.0
 30
0.0
 11
41.9
 21
-2.0
 31
0.0
  0
LINE
  5
31E
100
AcDbEntity
  8
0
390
0
  6
CONTINUOUS
 62
     6
100
AcDbLine
 10
41.9
 20
-2.0
 30
0.0
 11
41.9
 21
2.0
 31
0.0
  0
LINE
  5
31F
100
AcDbEntity
  8
0
390
0
  6
CONTINUOUS
 62
     6
100
AcDbLine
 10
41.4
 20
2.0
 30
0.0
 11
41.4
 21
5.9
 31
0.0
  0
ENDBLK
  5
320
100
AcDbEntity
  8
0
370
    -2
390
0
100
AcDbBlockEnd
  0
BLOCK
  5
321
100
AcDbEntity
  8
0
370
    -2
390
0
100
AcDbBlockBegin
  2
MS_13
 70
     0
 10
0.0
 20
0.0
 30
0.0
  3
MS_13
  1

  0
LINE
  5
322
100
AcDbEntity
  8
0
390
0
  6
CONTINUOUS
 62
    40
100
AcDbLine
 10
-10.5
 20
-4.500001
 30
0.0
 11
-15.0
 21
-4.500001
 31
0.0
  0
LINE
  5
323
100
AcDbEntity
  8
0
390
0
  6
CONTINUOUS
 62
    40
100
AcDbLine
 10
6.5
 20
-4.500001
 30
0.0
 11
2.0
 21
-4.500001
 31
0.0
  0
LINE
  5
324
100
AcDbEntity
  8
0
390
0
  6
CONTINUOUS
 62
    40
100
AcDbLine
 10
15.0
 20
-4.500001
 30
0.0
 11
10.5
 21
-4.500001
 31
0.0
  0
LINE
  5
325
100
AcDbEntity
  8
0
390
0
  6
CONTINUOUS
 62
    40
100
AcDbLine
 10
-2.0
 20
-4.500001
 30
0.0
 11
-6.5
 21
-4.500001
 31
0.0
  0
LINE
  5
326
100
AcDbEntity
  8
0
390
0
  6
CONTINUOUS
 62
    40
100
AcDbLine
 10
-10.25
 20
-1.500001
 30
0.0
 11
-15.25
 21
-1.500001
 31
0.0
  0
LINE
  5
327
100
AcDbEntity
  8
0
390
0
  6
CONTINUOUS
 62
    40
100
AcDbLine
 10
-15.0
 20
-4.500004
 30
0.0
 11
-15.25
 21
-4.500004
 31
0.0
  0
LINE
  5
328
100
AcDbEntity
  8
0
390
0
  6
CONTINUOUS
 62
    40
100
AcDbLine
 10
-10.25
 20
-4.500004
 30
0.0
 11
-10.5
 21
-4.500004
 31
0.0
  0
LINE
  5
329
100
AcDbEntity
  8
0
390
0
  6
CONTINUOUS
 62
    40
100
AcDbLine
 10
10.25
 20
-1.500001
 30
0.0
 11
6.75
 21
-1.500001
 31
0.0
  0
LINE
  5
32A
100
AcDbEntity
  8
0
390
0
  6
CONTINUOUS
 62
    40
100
AcDbLine
 10
9.7
 20
-4.500001
 30
0.0
 11
10.25
 21
-4.500004
 31
0.0
  0
LINE
  5
32B
100
AcDbEntity
  8
0
390
0
  6
CONTINUOUS
 62
    40
100
AcDbLine
 10
7.3
 20
-4.500001
 30
0.0
 11
7.4
 21
-2.500001
 31
0.0
  0
LINE
  5
32C
100
AcDbEntity
  8
0
390
0
  6
CONTINUOUS
 62
    40
100
AcDbLine
 10
6.75
 20
-4.500004
 30
0.0
 11
7.3
 21
-4.500001
 31
0.0
  0
LINE
  5
32D
100
AcDbEntity
  8
0
390
0
  6
CONTINUOUS
 62
    40
100
AcDbLine
 10
7.4
 20
-2.500001
 30
0.0
 11
9.6
 21
-2.500001
 31
0.0
  0
LINE
  5
32E
100
AcDbEntity
  8
0
390
0
  6
CONTINUOUS
 62
    40
100
AcDbLine
 10
9.6
 20
-2.500001
 30
0.0
 11
9.7
 21
-4.500001
 31
0.0
  0
LINE
  5
32F
100
AcDbEntity
  8
0
390
0
  6
CONTINUOUS
 62
    40
100
AcDbLine
 10
15.25
 20
-1.500001
 30
0.0
 11
10.25
 21
-1.500001
 31
0.0
  0
LINE
  5
330
100
AcDbEntity
  8
0
390
0
  6
CONTINUOUS
 62
    40
100
AcDbLine
 10
10.5
 20
-4.500004
 30
0.0
 11
10.25
 21
-4.500004
 31
0.0
  0
LINE
  5
331
100
AcDbEntity
  8
0
390
0
  6
CONTINUOUS
 62
    40
100
AcDbLine
 10
15.25
 20
-4.500004
 30
0.0
 11
15.0
 21
-4.500004
 31
0.0
  0
LINE
  5
332
100
AcDbEntity
  8
0
390
0
  6
CONTINUOUS
 62
    40
100
AcDbLine
 10
-15.25
 20
-1.500001
 30
0.0
 11
-17.0
 21
-1.500001
 31
0.0
  0
LINE
  5
333
100
AcDbEntity
  8
0
390
0
  6
CONTINUOUS
 62
    40
100
AcDbLine
 10
-17.0
 20
-2.500001
 30
0.0
 11
-15.9
 21
-2.500001
 31
0.0
  0
LINE
  5
334
100
AcDbEntity
  8
0
390
0
  6
CONTINUOUS
 62
    40
100
AcDbLine
 10
-15.8
 20
-4.500001
 30
0.0
 11
-15.25
 21
-4.500004
 31
0.0
  0
LINE
  5
335
100
AcDbEntity
  8
0
390
0
  6
CONTINUOUS
 62
    40
100
AcDbLine
 10
-15.9
 20
-2.500001
 30
0.0
 11
-15.8
 21
-4.500001
 31
0.0
  0
LINE
  5
336
100
AcDbEntity
  8
0
390
0
  6
CONTINUOUS
 62
    40
100
AcDbLine
 10
1.75
 20
-1.500001
 30
0.0
 11
-1.75
 21
-1.500001
 31
0.0
  0
LINE
  5
337
100
AcDbEntity
  8
0
390
0
  6
CONTINUOUS
 62
    40
100
AcDbLine
 10
-1.1
 20
-2.500001
 30
0.0
 11
1.1
 21
-2.500001
 31
0.0
  0
LINE
  5
338
100
AcDbEntity
  8
0
390
0
  6
CONTINUOUS
 62
    40
100
AcDbLine
 10
1.1
 20
-2.500001
 30
0.0
 11
1.2
 21
-4.500001
 31
0.0
  0
LINE
  5
339
100
AcDbEntity
  8
0
390
0
  6
CONTINUOUS
 62
    40
100
AcDbLine
 10
1.2
 20
-4.500001
 30
0.0
 11
1.75
 21
-4.500004
 31
0.0
  0
LINE
  5
33A
100
AcDbEntity
  8
0
390
0
  6
CONTINUOUS
 62
    40
100
AcDbLine
 10
-1.2
 20
-4.500001
 30
0.0
 11
-1.1
 21
-2.500001
 31
0.0
  0
LINE
  5
33B
100
AcDbEntity
  8
0
390
0
  6
CONTINUOUS
 62
    40
100
AcDbLine
 10
-1.75
 20
-4.500004
 30
0.0
 11
-1.2
 21
-4.500001
 31
0.0
  0
LINE
  5
33C
100
AcDbEntity
  8
0
390
0
  6
CONTINUOUS
 62
    40
100
AcDbLine
 10
-6.75
 20
-1.500001
 30
0.0
 11
-10.25
 21
-1.500001
 31
0.0
  0
LINE
  5
33D
100
AcDbEntity
  8
0
390
0
  6
CONTINUOUS
 62
    40
100
AcDbLine
 10
-10.25
 20
-4.500004
 30
0.0
 11
-9.7
 21
-4.500001
 31
0.0
  0
LINE
  5
33E
100
AcDbEntity
  8
0
390
0
  6
CONTINUOUS
 62
    40
100
AcDbLine
 10
-9.6
 20
-2.500001
 30
0.0
 11
-7.4
 21
-2.500001
 31
0.0
  0
LINE
  5
33F
100
AcDbEntity
  8
0
390
0
  6
CONTINUOUS
 62
    40
100
AcDbLine
 10
-9.7
 20
-4.500001
 30
0.0
 11
-9.6
 21
-2.500001
 31
0.0
  0
LINE
  5
340
100
AcDbEntity
  8
0
390
0
  6
CONTINUOUS
 62
    40
100
AcDbLine
 10
-7.4
 20
-2.500001
 30
0.0
 11
-7.3
 21
-4.500001
 31
0.0
  0
LINE
  5
341
100
AcDbEntity
  8
0
390
0
  6
CONTINUOUS
 62
    40
100
AcDbLine
 10
-7.3
 20
-4.500001
 30
0.0
 11
-6.75
 21
-4.500004
 31
0.0
  0
LINE
  5
342
100
AcDbEntity
  8
0
390
0
  6
CONTINUOUS
 62
    40
100
AcDbLine
 10
6.75
 20
-1.500001
 30
0.0
 11
1.75
 21
-1.500001
 31
0.0
  0
LINE
  5
343
100
AcDbEntity
  8
0
390
0
  6
CONTINUOUS
 62
    40
100
AcDbLine
 10
6.75
 20
-4.500004
 30
0.0
 11
6.5
 21
-4.500004
 31
0.0
  0
LINE
  5
344
100
AcDbEntity
  8
0
390
0
  6
CONTINUOUS
 62
    40
100
AcDbLine
 10
2.0
 20
-4.500004
 30
0.0
 11
1.75
 21
-4.500004
 31
0.0
  0
LINE
  5
345
100
AcDbEntity
  8
0
390
0
  6
CONTINUOUS
 62
    40
100
AcDbLine
 10
-1.75
 20
-1.500001
 30
0.0
 11
-6.75
 21
-1.500001
 31
0.0
  0
LINE
  5
346
100
AcDbEntity
  8
0
390
0
  6
CONTINUOUS
 62
    40
100
AcDbLine
 10
-1.75
 20
-4.500004
 30
0.0
 11
-2.0
 21
-4.500004
 31
0.0
  0
LINE
  5
347
100
AcDbEntity
  8
0
390
0
  6
CONTINUOUS
 62
    40
100
AcDbLine
 10
-6.5
 20
-4.500004
 30
0.0
 11
-6.75
 21
-4.500004
 31
0.0
  0
LINE
  5
348
100
AcDbEntity
  8
0
390
0
  6
CONTINUOUS
 62
    40
100
AcDbLine
 10
17.0
 20
-1.500001
 30
0.0
 11
15.25
 21
-1.500001
 31
0.0
  0
LINE
  5
349
100
AcDbEntity
  8
0
390
0
  6
CONTINUOUS
 62
    40
100
AcDbLine
 10
15.9
 20
-2.500001
 30
0.0
 11
17.0
 21
-2.500001
 31
0.0
  0
LINE
  5
34A
100
AcDbEntity
  8
0
390
0
  6
CONTINUOUS
 62
    40
100
AcDbLine
 10
15.8
 20
-4.500001
 30
0.0
 11
15.9
 21
-2.500001
 31
0.0
  0
LINE
  5
34B
100
AcDbEntity
  8
0
390
0
  6
CONTINUOUS
 62
    40
100
AcDbLine
 10
15.25
 20
-4.500004
 30
0.0
 11
15.8
 21
-4.500001
 31
0.0
  0
LINE
  5
34C
100
AcDbEntity
  8
0
390
0
  6
CONTINUOUS
 62
    40
100
AcDbLine
 10
-41.4
 20
-1.500001
 30
0.0
 11
-41.6
 21
-1.500001
 31
0.0
  0
LINE
  5
34D
100
AcDbEntity
  8
0
390
0
  6
CONTINUOUS
 62
    40
100
AcDbLine
 10
41.6
 20
-1.500001
 30
0.0
 11
41.4
 21
-1.500001
 31
0.0
  0
LINE
  5
34E
100
AcDbEntity
  8
0
390
0
  6
CONTINUOUS
 62
    40
100
AcDbLine
 10
35.2
 20
-4.500001
 30
0.0
 11
35.1
 21
-2.500001
 31
0.0
  0
LINE
  5
34F
100
AcDbEntity
  8
0
390
0
  6
CONTINUOUS
 62
    40
100
AcDbLine
 10
41.4
 20
-2.500001
 30
0.0
 11
41.3
 21
-4.500001
 31
0.0
  0
LINE
  5
350
100
AcDbEntity
  8
0
390
0
  6
CONTINUOUS
 62
    40
100
AcDbLine
 10
41.4
 20
-2.500001
 30
0.0
 11
41.4
 21
-1.500001
 31
0.0
  0
LINE
  5
351
100
AcDbEntity
  8
0
390
0
  6
CONTINUOUS
 62
    40
100
AcDbLine
 10
32.9
 20
-2.500001
 30
0.0
 11
35.1
 21
-2.500001
 31
0.0
  0
LINE
  5
352
100
AcDbEntity
  8
0
390
0
  6
CONTINUOUS
 62
    40
100
AcDbLine
 10
41.4
 20
-1.500001
 30
0.0
 11
17.0
 21
-1.500001
 31
0.0
  0
LINE
  5
353
100
AcDbEntity
  8
0
390
0
  6
CONTINUOUS
 62
    40
100
AcDbLine
 10
17.0
 20
-2.500001
 30
0.0
 11
18.1
 21
-2.500001
 31
0.0
  0
LINE
  5
354
100
AcDbEntity
  8
0
390
0
  6
CONTINUOUS
 62
    40
100
AcDbLine
 10
24.4
 20
-2.500001
 30
0.0
 11
24.3
 21
-4.500001
 31
0.0
  0
LINE
  5
355
100
AcDbEntity
  8
0
390
0
  6
CONTINUOUS
 62
    40
100
AcDbLine
 10
35.2
 20
-4.500001
 30
0.0
 11
41.3
 21
-4.500001
 31
0.0
  0
LINE
  5
356
100
AcDbEntity
  8
0
390
0
  6
CONTINUOUS
 62
    40
100
AcDbLine
 10
32.9
 20
-2.500001
 30
0.0
 11
32.8
 21
-4.500001
 31
0.0
  0
LINE
  5
357
100
AcDbEntity
  8
0
390
0
  6
CONTINUOUS
 62
    40
100
AcDbLine
 10
26.7
 20
-4.500001
 30
0.0
 11
32.8
 21
-4.500001
 31
0.0
  0
LINE
  5
358
100
AcDbEntity
  8
0
390
0
  6
CONTINUOUS
 62
    40
100
AcDbLine
 10
26.7
 20
-4.500001
 30
0.0
 11
26.6
 21
-2.500001
 31
0.0
  0
LINE
  5
359
100
AcDbEntity
  8
0
390
0
  6
CONTINUOUS
 62
    40
100
AcDbLine
 10
24.4
 20
-2.500001
 30
0.0
 11
26.6
 21
-2.500001
 31
0.0
  0
LINE
  5
35A
100
AcDbEntity
  8
0
390
0
  6
CONTINUOUS
 62
    40
100
AcDbLine
 10
18.2
 20
-4.500001
 30
0.0
 11
24.3
 21
-4.500001
 31
0.0
  0
LINE
  5
35B
100
AcDbEntity
  8
0
390
0
  6
CONTINUOUS
 62
    40
100
AcDbLine
 10
18.2
 20
-4.500001
 30
0.0
 11
18.1
 21
-2.500001
 31
0.0
  0
LINE
  5
35C
100
AcDbEntity
  8
0
390
0
  6
CONTINUOUS
 62
    40
100
AcDbLine
 10
-17.0
 20
-1.500001
 30
0.0
 11
-41.4
 21
-1.500001
 31
0.0
  0
LINE
  5
35D
100
AcDbEntity
  8
0
390
0
  6
CONTINUOUS
 62
    40
100
AcDbLine
 10
-35.1
 20
-2.500001
 30
0.0
 11
-32.9
 21
-2.500001
 31
0.0
  0
LINE
  5
35E
100
AcDbEntity
  8
0
390
0
  6
CONTINUOUS
 62
    40
100
AcDbLine
 10
-41.4
 20
-2.500001
 30
0.0
 11
-41.4
 21
-1.500001
 31
0.0
  0
LINE
  5
35F
100
AcDbEntity
  8
0
390
0
  6
CONTINUOUS
 62
    40
100
AcDbLine
 10
-18.1
 20
-2.500001
 30
0.0
 11
-17.0
 21
-2.500001
 31
0.0
  0
LINE
  5
360
100
AcDbEntity
  8
0
390
0
  6
CONTINUOUS
 62
    40
100
AcDbLine
 10
-18.1
 20
-2.500001
 30
0.0
 11
-18.2
 21
-4.500001
 31
0.0
  0
LINE
  5
361
100
AcDbEntity
  8
0
390
0
  6
CONTINUOUS
 62
    40
100
AcDbLine
 10
-24.3
 20
-4.500001
 30
0.0
 11
-18.2
 21
-4.500001
 31
0.0
  0
LINE
  5
362
100
AcDbEntity
  8
0
390
0
  6
CONTINUOUS
 62
    40
100
AcDbLine
 10
-24.3
 20
-4.500001
 30
0.0
 11
-24.4
 21
-2.500001
 31
0.0
  0
LINE
  5
363
100
AcDbEntity
  8
0
390
0
  6
CONTINUOUS
 62
    40
100
AcDbLine
 10
-26.6
 20
-2.500001
 30
0.0
 11
-24.4
 21
-2.500001
 31
0.0
  0
LINE
  5
364
100
AcDbEntity
  8
0
390
0
  6
CONTINUOUS
 62
    40
100
AcDbLine
 10
-26.6
 20
-2.500001
 30
0.0
 11
-26.7
 21
-4.500001
 31
0.0
  0
LINE
  5
365
100
AcDbEntity
  8
0
390
0
  6
CONTINUOUS
 62
    40
100
AcDbLine
 10
-32.8
 20
-4.500001
 30
0.0
 11
-26.7
 21
-4.500001
 31
0.0
  0
LINE
  5
366
100
AcDbEntity
  8
0
390
0
  6
CONTINUOUS
 62
    40
100
AcDbLine
 10
-32.8
 20
-4.500001
 30
0.0
 11
-32.9
 21
-2.500001
 31
0.0
  0
LINE
  5
367
100
AcDbEntity
  8
0
390
0
  6
CONTINUOUS
 62
    40
100
AcDbLine
 10
-35.1
 20
-2.500001
 30
0.0
 11
-35.2
 21
-4.500001
 31
0.0
  0
LINE
  5
368
100
AcDbEntity
  8
0
390
0
  6
CONTINUOUS
 62
    40
100
AcDbLine
 10
-41.3
 20
-4.500001
 30
0.0
 11
-35.2
 21
-4.500001
 31
0.0
  0
LINE
  5
369
100
AcDbEntity
  8
0
390
0
  6
CONTINUOUS
 62
    40
100
AcDbLine
 10
-41.3
 20
-4.500001
 30
0.0
 11
-41.4
 21
-2.500001
 31
0.0
  0
ENDBLK
  5
36A
100
AcDbEntity
  8
0
370
    -2
390
0
100
AcDbBlockEnd
  0
BLOCK
  5
36B
100
AcDbEntity
  8
0
370
    -2
390
0
100
AcDbBlockBegin
  2
CASE2
 70
     0
 10
0.0
 20
0.0
 30
0.0
  3
CASE2
  1

  0
LINE
  5
36C
100
AcDbEntity
  8
0
390
0
  6
CONTINUOUS
 62
     3
100
AcDbLine
 10
0.0
 20
31.0
 30
0.0
 11
0.0
 21
-31.0
 31
0.0
  0
LINE
  5
36D
100
AcDbEntity
  8
0
390
0
  6
CONTINUOUS
 62
     3
100
AcDbLine
 10
106.8
 20
-6.0
 30
0.0
 11
106.8
 21
-31.0
 31
0.0
  0
LINE
  5
36E
100
AcDbEntity
  8
0
390
0
  6
CONTINUOUS
 62
     3
100
AcDbLine
 10
6.7
 20
31.0
 30
0.0
 11
89.3
 21
31.0
 31
0.0
  0
LINE
  5
36F
100
AcDbEntity
  8
0
390
0
  6
CONTINUOUS
 62
     3
100
AcDbLine
 10
90.8
 20
31.0
 30
0.0
 11
106.8
 21
31.0
 31
0.0
  0
LINE
  5
370
100
AcDbEntity
  8
0
390
0
  6
CONTINUOUS
 62
   110
100
AcDbLine
 10
106.8
 20
-6.0
 30
0.0
 11
98.8
 21
-6.0
 31
0.0
  0
LINE
  5
371
100
AcDbEntity
  8
0
390
0
  6
CONTINUOUS
 62
     3
100
AcDbLine
 10
98.8
 20
6.0
 30
0.0
 11
98.8
 21
-6.0
 31
0.0
  0
LINE
  5
372
100
AcDbEntity
  8
0
390
0
  6
CONTINUOUS
 62
     3
100
AcDbLine
 10
106.8
 20
6.0
 30
0.0
 11
98.8
 21
6.0
 31
0.0
  0
LINE
  5
373
100
AcDbEntity
  8
0
390
0
  6
CONTINUOUS
 62
     3
100
AcDbLine
 10
106.8
 20
31.0
 30
0.0
 11
106.8
 21
6.0
 31
0.0
  0
LINE
  5
374
100
AcDbEntity
  8
0
390
0
  6
CONTINUOUS
 62
     3
100
AcDbLine
 10
4.7
 20
31.0
 30
0.0
 11
6.7
 21
31.0
 31
0.0
  0
LINE
  5
375
100
AcDbEntity
  8
0
390
0
  6
CONTINUOUS
 62
     3
100
AcDbLine
 10
3.0
 20
31.0
 30
0.0
 11
4.7
 21
31.0
 31
0.0
  0
LINE
  5
376
100
AcDbEntity
  8
0
390
0
  6
CONTINUOUS
 62
   254
100
AcDbLine
 10
64.85
 20
-33.0
 30
0.0
 11
46.85
 21
-33.0
 31
0.0
  0
LINE
  5
377
100
AcDbEntity
  8
0
390
0
  6
DASHED
 62
   254
100
AcDbLine
 10
55.51808
 20
-26.2
 30
0.0
 11
58.244593
 21
-26.2
 31
0.0
  0
LINE
  5
378
100
AcDbEntity
  8
0
390
0
  6
DASHED
 62
   254
100
AcDbLine
 10
55.51808
 20
-26.2
 30
0.0
 11
50.15
 21
-26.2
 31
0.0
  0
LINE
  5
379
100
AcDbEntity
  8
0
390
0
  6
DASHED
 62
   254
100
AcDbLine
 10
61.55
 20
-26.2
 30
0.0
 11
58.244593
 21
-26.2
 31
0.0
  0
LINE
  5
37A
100
AcDbEntity
  8
0
390
0
  6
CONTINUOUS
 62
   254
100
AcDbLine
 10
104.8
 20
-33.000002
 30
0.0
 11
105.799998
 21
-33.000002
 31
0.0
  0
LINE
  5
37B
100
AcDbEntity
  8
0
390
0
  6
CONTINUOUS
 62
   254
100
AcDbLine
 10
105.799998
 20
-33.000002
 30
0.0
 11
106.8
 21
-32.0
 31
0.0
  0
LINE
  5
37C
100
AcDbEntity
  8
0
390
0
  6
CONTINUOUS
 62
   254
100
AcDbLine
 10
106.8
 20
-31.0
 30
0.0
 11
106.8
 21
-32.0
 31
0.0
  0
LINE
  5
37D
100
AcDbEntity
  8
0
390
0
  6
CONTINUOUS
 62
     3
100
AcDbLine
 10
3.0
 20
-34.0
 30
0.0
 11
3.0
 21
36.0
 31
0.0
  0
LINE
  5
37E
100
AcDbEntity
  8
0
390
0
  6
CONTINUOUS
 62
     3
100
AcDbLine
 10
0.0
 20
31.0
 30
0.0
 11
0.0
 21
35.0
 31
0.0
  0
LINE
  5
37F
100
AcDbEntity
  8
0
390
0
  6
CONTINUOUS
 62
     3
100
AcDbLine
 10
3.0
 20
36.0
 30
0.0
 11
1.0
 21
36.0
 31
0.0
  0
ARC
  5
380
100
AcDbEntity
  8
0
390
0
  6
CONTINUOUS
 62
     3
100
AcDbCircle
 10
1.0
 20
35.0
 30
0.0
 40
1.0
100
AcDbArc
 50
90.0
 51
180.0
  0
LINE
  5
381
100
AcDbEntity
  8
0
390
0
  6
CONTINUOUS
 62
   254
100
AcDbLine
 10
3.0
 20
-34.0
 30
0.0
 11
3.0
 21
-36.0
 31
0.0
  0
LINE
  5
382
100
AcDbEntity
  8
0
390
0
  6
DASHED
 62
   254
100
AcDbLine
 10
50.15
 20
-26.2
 30
0.0
 11
46.85
 21
-26.2
 31
0.0
  0
LINE
  5
383
100
AcDbEntity
  8
0
390
0
  6
CONTINUOUS
 62
   254
100
AcDbLine
 10
0.0
 20
-35.0
 30
0.0
 11
0.0
 21
-31.0
 31
0.0
  0
LINE
  5
384
100
AcDbEntity
  8
0
390
0
  6
CONTINUOUS
 62
   254
100
AcDbLine
 10
8.0
 20
-33.0
 30
0.0
 11
46.85
 21
-33.0
 31
0.0
  0
LINE
  5
385
100
AcDbEntity
  8
0
390
0
  6
DASHED
 62
   254
100
AcDbLine
 10
46.85
 20
-33.0
 30
0.0
 11
46.85
 21
-26.2
 31
0.0
  0
ARC
  5
386
100
AcDbEntity
  8
0
390
0
  6
CONTINUOUS
 62
   254
100
AcDbCircle
 10
1.0
 20
-35.0
 30
0.0
 40
1.0
100
AcDbArc
 50
180.0
 51
270.0
  0
LINE
  5
387
100
AcDbEntity
  8
0
390
0
  6
CONTINUOUS
 62
   254
100
AcDbLine
 10
1.0
 20
-36.0
 30
0.0
 11
3.0
 21
-36.0
 31
0.0
  0
LINE
  5
388
100
AcDbEntity
  8
0
390
0
  6
DASHED
 62
   254
100
AcDbLine
 10
64.85
 20
-26.2
 30
0.0
 11
61.55
 21
-26.2
 31
0.0
  0
LINE
  5
389
100
AcDbEntity
  8
0
390
0
  6
DASHED
 62
   254
100
AcDbLine
 10
64.85
 20
-26.2
 30
0.0
 11
64.85
 21
-33.0
 31
0.0
  0
LINE
  5
38A
100
AcDbEntity
  8
0
390
0
  6
CONTINUOUS
 62
   254
100
AcDbLine
 10
64.85
 20
-33.0
 30
0.0
 11
104.8
 21
-33.000002
 31
0.0
  0
LINE
  5
38B
100
AcDbEntity
  8
0
390
0
  6
CONTINUOUS
 62
     3
100
AcDbLine
 10
90.8
 20
31.0
 30
0.0
 11
89.3
 21
31.0
 31
0.0
  0
LINE
  5
38C
100
AcDbEntity
  8
0
390
0
  6
CONTINUOUS
 62
   254
100
AcDbLine
 10
7.0
 20
-34.0
 30
0.0
 11
3.0
 21
-34.0
 31
0.0
  0
ARC
  5
38D
100
AcDbEntity
  8
0
390
0
  6
CONTINUOUS
 62
   254
100
AcDbCircle
 10
7.0
 20
-33.0
 30
0.0
 40
1.0
100
AcDbArc
 50
270.0
 51
0.0
  0
LINE
  5
38E
100
AcDbEntity
  8
0
390
0
  6
CONTINUOUS
 62
     3
100
AcDbLine
 10
94.4
 20
33.5
 30
0.0
 11
93.9
 21
33.0
 31
0.0
  0
LINE
  5
38F
100
AcDbEntity
  8
0
390
0
  6
CONTINUOUS
 62
     3
100
AcDbLine
 10
96.4
 20
33.0
 30
0.0
 11
95.9
 21
33.5
 31
0.0
  0
LINE
  5
390
100
AcDbEntity
  8
0
390
0
  6
CONTINUOUS
 62
     3
100
AcDbLine
 10
95.9
 20
33.5
 30
0.0
 11
94.4
 21
33.5
 31
0.0
  0
LINE
  5
391
100
AcDbEntity
  8
0
390
0
  6
CONTINUOUS
 62
     3
100
AcDbLine
 10
93.9
 20
-33.0
 30
0.0
 11
94.4
 21
-33.5
 31
0.0
  0
LINE
  5
392
100
AcDbEntity
  8
0
390
0
  6
CONTINUOUS
 62
     3
100
AcDbLine
 10
95.9
 20
-33.5
 30
0.0
 11
94.4
 21
-33.5
 31
0.0
  0
LINE
  5
393
100
AcDbEntity
  8
0
390
0
  6
CONTINUOUS
 62
     3
100
AcDbLine
 10
96.4
 20
-33.0
 30
0.0
 11
95.9
 21
-33.5
 31
0.0
  0
LINE
  5
394
100
AcDbEntity
  8
0
390
0
  6
CONTINUOUS
 62
     3
100
AcDbLine
 10
117.8
 20
36.75
 30
0.0
 11
117.8
 21
41.25
 31
0.0
  0
LINE
  5
395
100
AcDbEntity
  8
0
390
0
  6
CONTINUOUS
 62
     3
100
AcDbLine
 10
103.8
 20
36.75
 30
0.0
 11
103.8
 21
41.25
 31
0.0
  0
LINE
  5
396
100
AcDbEntity
  8
0
390
0
  6
CONTINUOUS
 62
     3
100
AcDbLine
 10
103.8
 20
-36.75
 30
0.0
 11
103.8
 21
-41.25
 31
0.0
  0
LINE
  5
397
100
AcDbEntity
  8
0
390
0
  6
CONTINUOUS
 62
     3
100
AcDbLine
 10
117.8
 20
-36.75
 30
0.0
 11
117.8
 21
-41.25
 31
0.0
  0
LINE
  5
398
100
AcDbEntity
  8
0
390
0
  6
CONTINUOUS
 62
     3
100
AcDbLine
 10
113.3
 20
-2.25
 30
0.0
 11
113.3
 21
2.25
 31
0.0
  0
LINE
  5
399
100
AcDbEntity
  8
0
390
0
  6
CONTINUOUS
 62
     3
100
AcDbLine
 10
106.8
 20
2.25
 30
0.0
 11
106.8
 21
-2.25
 31
0.0
  0
LINE
  5
39A
100
AcDbEntity
  8
0
390
0
  6
CONTINUOUS
 62
     3
100
AcDbLine
 10
118.9
 20
36.75
 30
0.0
 11
118.9
 21
41.25
 31
0.0
  0
LINE
  5
39B
100
AcDbEntity
  8
0
390
0
  6
CONTINUOUS
 62
     3
100
AcDbLine
 10
118.9
 20
36.75
 30
0.0
 11
114.9
 21
36.75
 31
0.0
  0
LINE
  5
39C
100
AcDbEntity
  8
0
390
0
  6
CONTINUOUS
 62
     3
100
AcDbLine
 10
114.9
 20
41.25
 30
0.0
 11
118.9
 21
41.25
 31
0.0
  0
LINE
  5
39D
100
AcDbEntity
  8
0
390
0
  6
CONTINUOUS
 62
     3
100
AcDbLine
 10
114.9
 20
36.75
 30
0.0
 11
114.9
 21
41.25
 31
0.0
  0
LINE
  5
39E
100
AcDbEntity
  8
0
390
0
  6
CONTINUOUS
 62
     3
100
AcDbLine
 10
114.9
 20
-41.25
 30
0.0
 11
114.9
 21
-36.75
 31
0.0
  0
LINE
  5
39F
100
AcDbEntity
  8
0
390
0
  6
CONTINUOUS
 62
     3
100
AcDbLine
 10
118.9
 20
-36.75
 30
0.0
 11
114.9
 21
-36.75
 31
0.0
  0
LINE
  5
3A0
100
AcDbEntity
  8
0
390
0
  6
CONTINUOUS
 62
     3
100
AcDbLine
 10
114.9
 20
-41.25
 30
0.0
 11
118.9
 21
-41.25
 31
0.0
  0
LINE
  5
3A1
100
AcDbEntity
  8
0
390
0
  6
CONTINUOUS
 62
     3
100
AcDbLine
 10
118.9
 20
-36.75
 30
0.0
 11
118.9
 21
-41.25
 31
0.0
  0
LINE
  5
3A2
100
AcDbEntity
  8
0
390
0
  6
CONTINUOUS
 62
     3
100
AcDbLine
 10
106.7
 20
-36.75
 30
0.0
 11
106.7
 21
-41.25
 31
0.0
  0
LINE
  5
3A3
100
AcDbEntity
  8
0
390
0
  6
CONTINUOUS
 62
     3
100
AcDbLine
 10
102.7
 20
-41.25
 30
0.0
 11
106.7
 21
-41.25
 31
0.0
  0
LINE
  5
3A4
100
AcDbEntity
  8
0
390
0
  6
CONTINUOUS
 62
     3
100
AcDbLine
 10
102.7
 20
-41.25
 30
0.0
 11
102.7
 21
-36.75
 31
0.0
  0
LINE
  5
3A5
100
AcDbEntity
  8
0
390
0
  6
CONTINUOUS
 62
     3
100
AcDbLine
 10
106.7
 20
-36.75
 30
0.0
 11
102.7
 21
-36.75
 31
0.0
  0
LINE
  5
3A6
100
AcDbEntity
  8
0
390
0
  6
CONTINUOUS
 62
     3
100
AcDbLine
 10
102.7
 20
41.25
 30
0.0
 11
106.7
 21
41.25
 31
0.0
  0
LINE
  5
3A7
100
AcDbEntity
  8
0
390
0
  6
CONTINUOUS
 62
     3
100
AcDbLine
 10
102.7
 20
41.25
 30
0.0
 11
102.7
 21
36.75
 31
0.0
  0
LINE
  5
3A8
100
AcDbEntity
  8
0
390
0
  6
CONTINUOUS
 62
     3
100
AcDbLine
 10
106.7
 20
41.25
 30
0.0
 11
106.7
 21
36.75
 31
0.0
  0
LINE
  5
3A9
100
AcDbEntity
  8
0
390
0
  6
CONTINUOUS
 62
     3
100
AcDbLine
 10
106.7
 20
36.75
 30
0.0
 11
102.7
 21
36.75
 31
0.0
  0
LINE
  5
3AA
100
AcDbEntity
  8
0
390
0
  6
CONTINUOUS
 62
     3
100
AcDbLine
 10
112.152654
 20
-35.352654
 30
0.0
 11
112.152654
 21
-42.647346
 31
0.0
  0
LINE
  5
3AB
100
AcDbEntity
  8
0
390
0
  6
CONTINUOUS
 62
     3
100
AcDbLine
 10
121.447346
 20
42.647346
 30
0.0
 11
121.447346
 21
35.352654
 31
0.0
  0
LINE
  5
3AC
100
AcDbEntity
  8
0
390
0
  6
CONTINUOUS
 62
     3
100
AcDbLine
 10
121.447346
 20
-42.647346
 30
0.0
 11
121.447346
 21
-35.352654
 31
0.0
  0
LINE
  5
3AD
100
AcDbEntity
  8
0
390
0
  6
CONTINUOUS
 62
     3
100
AcDbLine
 10
121.447346
 20
-35.352654
 30
0.0
 11
112.152654
 21
-35.352654
 31
0.0
  0
LINE
  5
3AE
100
AcDbEntity
  8
0
390
0
  6
CONTINUOUS
 62
     3
100
AcDbLine
 10
121.8
 20
-35.0
 30
0.0
 11
121.447346
 21
-35.352654
 31
0.0
  0
LINE
  5
3AF
100
AcDbEntity
  8
0
390
0
  6
CONTINUOUS
 62
     3
100
AcDbLine
 10
111.8
 20
-35.0
 30
0.0
 11
112.152654
 21
-35.352654
 31
0.0
  0
LINE
  5
3B0
100
AcDbEntity
  8
0
390
0
  6
CONTINUOUS
 62
     3
100
AcDbLine
 10
121.447346
 20
35.352654
 30
0.0
 11
112.152654
 21
35.352654
 31
0.0
  0
LINE
  5
3B1
100
AcDbEntity
  8
0
390
0
  6
CONTINUOUS
 62
     3
100
AcDbLine
 10
121.8
 20
35.0
 30
0.0
 11
121.447346
 21
35.352654
 31
0.0
  0
LINE
  5
3B2
100
AcDbEntity
  8
0
390
0
  6
CONTINUOUS
 62
     3
100
AcDbLine
 10
112.152654
 20
-42.647346
 30
0.0
 11
121.447346
 21
-42.647346
 31
0.0
  0
LINE
  5
3B3
100
AcDbEntity
  8
0
390
0
  6
CONTINUOUS
 62
     3
100
AcDbLine
 10
111.8
 20
-43.0
 30
0.0
 11
112.152654
 21
-42.647346
 31
0.0
  0
LINE
  5
3B4
100
AcDbEntity
  8
0
390
0
  6
CONTINUOUS
 62
     3
100
AcDbLine
 10
121.8
 20
-43.0
 30
0.0
 11
121.447346
 21
-42.647346
 31
0.0
  0
LINE
  5
3B5
100
AcDbEntity
  8
0
390
0
  6
CONTINUOUS
 62
     3
100
AcDbLine
 10
112.152654
 20
42.647346
 30
0.0
 11
121.447346
 21
42.647346
 31
0.0
  0
LINE
  5
3B6
100
AcDbEntity
  8
0
390
0
  6
CONTINUOUS
 62
     3
100
AcDbLine
 10
121.8
 20
43.0
 30
0.0
 11
121.447346
 21
42.647346
 31
0.0
  0
LINE
  5
3B7
100
AcDbEntity
  8
0
390
0
  6
CONTINUOUS
 62
     3
100
AcDbLine
 10
112.152654
 20
35.352654
 30
0.0
 11
112.152654
 21
42.647346
 31
0.0
  0
LINE
  5
3B8
100
AcDbEntity
  8
0
390
0
  6
CONTINUOUS
 62
     3
100
AcDbLine
 10
111.8
 20
43.0
 30
0.0
 11
112.152654
 21
42.647346
 31
0.0
  0
LINE
  5
3B9
100
AcDbEntity
  8
0
390
0
  6
CONTINUOUS
 62
     3
100
AcDbLine
 10
111.8
 20
35.0
 30
0.0
 11
112.152654
 21
35.352654
 31
0.0
  0
LINE
  5
3BA
100
AcDbEntity
  8
0
390
0
  6
CONTINUOUS
 62
     3
100
AcDbLine
 10
100.152654
 20
35.352654
 30
0.0
 11
100.152654
 21
42.647346
 31
0.0
  0
LINE
  5
3BB
100
AcDbEntity
  8
0
390
0
  6
CONTINUOUS
 62
     3
100
AcDbLine
 10
100.152654
 20
42.647346
 30
0.0
 11
109.447346
 21
42.647346
 31
0.0
  0
LINE
  5
3BC
100
AcDbEntity
  8
0
390
0
  6
CONTINUOUS
 62
     3
100
AcDbLine
 10
99.8
 20
43.0
 30
0.0
 11
100.152654
 21
42.647346
 31
0.0
  0
LINE
  5
3BD
100
AcDbEntity
  8
0
390
0
  6
CONTINUOUS
 62
     3
100
AcDbLine
 10
100.152654
 20
-35.352654
 30
0.0
 11
100.152654
 21
-42.647346
 31
0.0
  0
LINE
  5
3BE
100
AcDbEntity
  8
0
390
0
  6
CONTINUOUS
 62
     3
100
AcDbLine
 10
109.447346
 20
-35.352654
 30
0.0
 11
100.152654
 21
-35.352654
 31
0.0
  0
LINE
  5
3BF
100
AcDbEntity
  8
0
390
0
  6
CONTINUOUS
 62
     3
100
AcDbLine
 10
99.8
 20
-35.0
 30
0.0
 11
100.152654
 21
-35.352654
 31
0.0
  0
LINE
  5
3C0
100
AcDbEntity
  8
0
390
0
  6
CONTINUOUS
 62
     3
100
AcDbLine
 10
109.447346
 20
-42.647346
 30
0.0
 11
109.447346
 21
-35.352654
 31
0.0
  0
LINE
  5
3C1
100
AcDbEntity
  8
0
390
0
  6
CONTINUOUS
 62
     3
100
AcDbLine
 10
109.8
 20
-35.0
 30
0.0
 11
109.447346
 21
-35.352654
 31
0.0
  0
LINE
  5
3C2
100
AcDbEntity
  8
0
390
0
  6
CONTINUOUS
 62
     3
100
AcDbLine
 10
100.152654
 20
-42.647346
 30
0.0
 11
109.447346
 21
-42.647346
 31
0.0
  0
LINE
  5
3C3
100
AcDbEntity
  8
0
390
0
  6
CONTINUOUS
 62
     3
100
AcDbLine
 10
99.8
 20
-43.0
 30
0.0
 11
100.152654
 21
-42.647346
 31
0.0
  0
LINE
  5
3C4
100
AcDbEntity
  8
0
390
0
  6
CONTINUOUS
 62
     3
100
AcDbLine
 10
109.8
 20
-43.0
 30
0.0
 11
109.447346
 21
-42.647346
 31
0.0
  0
LINE
  5
3C5
100
AcDbEntity
  8
0
390
0
  6
CONTINUOUS
 62
     3
100
AcDbLine
 10
109.447346
 20
35.352654
 30
0.0
 11
100.152654
 21
35.352654
 31
0.0
  0
LINE
  5
3C6
100
AcDbEntity
  8
0
390
0
  6
CONTINUOUS
 62
     3
100
AcDbLine
 10
99.8
 20
35.0
 30
0.0
 11
100.152654
 21
35.352654
 31
0.0
  0
LINE
  5
3C7
100
AcDbEntity
  8
0
390
0
  6
CONTINUOUS
 62
     3
100
AcDbLine
 10
106.8
 20
-33.0
 30
0.0
 11
106.8
 21
-18.0
 31
0.0
  0
LINE
  5
3C8
100
AcDbEntity
  8
0
390
0
  6
CONTINUOUS
 62
     3
100
AcDbLine
 10
97.8
 20
-44.0
 30
0.0
 11
98.8
 21
-45.0
 31
0.0
  0
LINE
  5
3C9
100
AcDbEntity
  8
0
390
0
  6
CONTINUOUS
 62
     3
100
AcDbLine
 10
98.8
 20
-45.0
 30
0.0
 11
122.8
 21
-45.0
 31
0.0
  0
LINE
  5
3CA
100
AcDbEntity
  8
0
390
0
  6
CONTINUOUS
 62
     3
100
AcDbLine
 10
122.8
 20
-45.0
 30
0.0
 11
123.8
 21
-44.0
 31
0.0
  0
LINE
  5
3CB
100
AcDbEntity
  8
0
390
0
  6
CONTINUOUS
 62
     3
100
AcDbLine
 10
106.8
 20
-33.0
 30
0.0
 11
98.796195
 21
-33.700242
 31
0.0
  0
LINE
  5
3CC
100
AcDbEntity
  8
0
390
0
  6
CONTINUOUS
 62
     3
100
AcDbLine
 10
98.796195
 20
-33.700242
 30
0.0
 11
97.8
 21
-34.787398
 31
0.0
  0
LINE
  5
3CD
100
AcDbEntity
  8
0
390
0
  6
CONTINUOUS
 62
     3
100
AcDbLine
 10
97.8
 20
-34.787398
 30
0.0
 11
97.8
 21
-44.0
 31
0.0
  0
LINE
  5
3CE
100
AcDbEntity
  8
0
390
0
  6
CONTINUOUS
 62
     3
100
AcDbLine
 10
123.8
 20
-18.918631
 30
0.0
 11
123.8
 21
-44.0
 31
0.0
  0
LINE
  5
3CF
100
AcDbEntity
  8
0
390
0
  6
CONTINUOUS
 62
     3
100
AcDbLine
 10
123.8
 20
-18.918631
 30
0.0
 11
113.3
 21
-18.0
 31
0.0
  0
LINE
  5
3D0
100
AcDbEntity
  8
0
390
0
  6
CONTINUOUS
 62
     3
100
AcDbLine
 10
117.8
 20
-20.75
 30
0.0
 11
121.8
 21
-20.75
 31
0.0
  0
LINE
  5
3D1
100
AcDbEntity
  8
0
390
0
  6
CONTINUOUS
 62
     3
100
AcDbLine
 10
121.8
 20
-20.75
 30
0.0
 11
121.8
 21
-25.25
 31
0.0
  0
LINE
  5
3D2
100
AcDbEntity
  8
0
390
0
  6
CONTINUOUS
 62
     3
100
AcDbLine
 10
121.8
 20
-25.25
 30
0.0
 11
117.8
 21
-25.25
 31
0.0
  0
LINE
  5
3D3
100
AcDbEntity
  8
0
390
0
  6
CONTINUOUS
 62
     3
100
AcDbLine
 10
109.8
 20
-43.0
 30
0.0
 11
109.8
 21
-35.0
 31
0.0
  0
LINE
  5
3D4
100
AcDbEntity
  8
0
390
0
  6
CONTINUOUS
 62
     3
100
AcDbLine
 10
99.8
 20
-43.0
 30
0.0
 11
109.8
 21
-43.0
 31
0.0
  0
LINE
  5
3D5
100
AcDbEntity
  8
0
390
0
  6
CONTINUOUS
 62
     3
100
AcDbLine
 10
99.8
 20
-35.0
 30
0.0
 11
99.8
 21
-43.0
 31
0.0
  0
LINE
  5
3D6
100
AcDbEntity
  8
0
390
0
  6
CONTINUOUS
 62
     3
100
AcDbLine
 10
109.8
 20
-35.0
 30
0.0
 11
99.8
 21
-35.0
 31
0.0
  0
LINE
  5
3D7
100
AcDbEntity
  8
0
390
0
  6
CONTINUOUS
 62
     3
100
AcDbLine
 10
121.8
 20
-43.0
 30
0.0
 11
121.8
 21
-35.0
 31
0.0
  0
LINE
  5
3D8
100
AcDbEntity
  8
0
390
0
  6
CONTINUOUS
 62
     3
100
AcDbLine
 10
111.8
 20
-43.0
 30
0.0
 11
121.8
 21
-43.0
 31
0.0
  0
LINE
  5
3D9
100
AcDbEntity
  8
0
390
0
  6
CONTINUOUS
 62
     3
100
AcDbLine
 10
111.8
 20
-35.0
 30
0.0
 11
111.8
 21
-43.0
 31
0.0
  0
LINE
  5
3DA
100
AcDbEntity
  8
0
390
0
  6
CONTINUOUS
 62
     3
100
AcDbLine
 10
121.8
 20
-35.0
 30
0.0
 11
111.8
 21
-35.0
 31
0.0
  0
LINE
  5
3DB
100
AcDbEntity
  8
0
390
0
  6
CONTINUOUS
 62
     3
100
AcDbLine
 10
109.447346
 20
42.647346
 30
0.0
 11
109.447346
 21
35.352654
 31
0.0
  0
LINE
  5
3DC
100
AcDbEntity
  8
0
390
0
  6
CONTINUOUS
 62
     3
100
AcDbLine
 10
109.8
 20
35.0
 30
0.0
 11
109.447346
 21
35.352654
 31
0.0
  0
LINE
  5
3DD
100
AcDbEntity
  8
0
390
0
  6
CONTINUOUS
 62
     3
100
AcDbLine
 10
109.8
 20
43.0
 30
0.0
 11
109.447346
 21
42.647346
 31
0.0
  0
LINE
  5
3DE
100
AcDbEntity
  8
0
390
0
  6
CONTINUOUS
 62
     3
100
AcDbLine
 10
106.8
 20
18.0
 30
0.0
 11
106.8
 21
33.0
 31
0.0
  0
LINE
  5
3DF
100
AcDbEntity
  8
0
390
0
  6
CONTINUOUS
 62
     3
100
AcDbLine
 10
97.8
 20
34.787398
 30
0.0
 11
97.8
 21
44.0
 31
0.0
  0
LINE
  5
3E0
100
AcDbEntity
  8
0
390
0
  6
CONTINUOUS
 62
     3
100
AcDbLine
 10
97.8
 20
34.787398
 30
0.0
 11
98.796195
 21
33.700242
 31
0.0
  0
LINE
  5
3E1
100
AcDbEntity
  8
0
390
0
  6
CONTINUOUS
 62
     3
100
AcDbLine
 10
98.796195
 20
33.700242
 30
0.0
 11
106.8
 21
33.0
 31
0.0
  0
LINE
  5
3E2
100
AcDbEntity
  8
0
390
0
  6
CONTINUOUS
 62
     3
100
AcDbLine
 10
113.3
 20
18.0
 30
0.0
 11
123.8
 21
18.918631
 31
0.0
  0
LINE
  5
3E3
100
AcDbEntity
  8
0
390
0
  6
CONTINUOUS
 62
     3
100
AcDbLine
 10
123.8
 20
18.918631
 30
0.0
 11
123.8
 21
44.0
 31
0.0
  0
LINE
  5
3E4
100
AcDbEntity
  8
0
390
0
  6
CONTINUOUS
 62
     3
100
AcDbLine
 10
122.8
 20
45.0
 30
0.0
 11
123.8
 21
44.0
 31
0.0
  0
LINE
  5
3E5
100
AcDbEntity
  8
0
390
0
  6
CONTINUOUS
 62
     3
100
AcDbLine
 10
98.8
 20
45.0
 30
0.0
 11
122.8
 21
45.0
 31
0.0
  0
LINE
  5
3E6
100
AcDbEntity
  8
0
390
0
  6
CONTINUOUS
 62
     3
100
AcDbLine
 10
97.8
 20
44.0
 30
0.0
 11
98.8
 21
45.0
 31
0.0
  0
LINE
  5
3E7
100
AcDbEntity
  8
0
390
0
  6
CONTINUOUS
 62
     3
100
AcDbLine
 10
121.8
 20
20.75
 30
0.0
 11
121.8
 21
25.25
 31
0.0
  0
LINE
  5
3E8
100
AcDbEntity
  8
0
390
0
  6
CONTINUOUS
 62
     3
100
AcDbLine
 10
109.8
 20
43.0
 30
0.0
 11
109.8
 21
35.0
 31
0.0
  0
LINE
  5
3E9
100
AcDbEntity
  8
0
390
0
  6
CONTINUOUS
 62
     3
100
AcDbLine
 10
109.8
 20
35.0
 30
0.0
 11
99.8
 21
35.0
 31
0.0
  0
LINE
  5
3EA
100
AcDbEntity
  8
0
390
0
  6
CONTINUOUS
 62
     3
100
AcDbLine
 10
99.8
 20
35.0
 30
0.0
 11
99.8
 21
43.0
 31
0.0
  0
LINE
  5
3EB
100
AcDbEntity
  8
0
390
0
  6
CONTINUOUS
 62
     3
100
AcDbLine
 10
99.8
 20
43.0
 30
0.0
 11
109.8
 21
43.0
 31
0.0
  0
LINE
  5
3EC
100
AcDbEntity
  8
0
390
0
  6
CONTINUOUS
 62
     3
100
AcDbLine
 10
121.8
 20
43.0
 30
0.0
 11
121.8
 21
35.0
 31
0.0
  0
LINE
  5
3ED
100
AcDbEntity
  8
0
390
0
  6
CONTINUOUS
 62
     3
100
AcDbLine
 10
121.8
 20
35.0
 30
0.0
 11
111.8
 21
35.0
 31
0.0
  0
LINE
  5
3EE
100
AcDbEntity
  8
0
390
0
  6
CONTINUOUS
 62
     3
100
AcDbLine
 10
111.8
 20
35.0
 30
0.0
 11
111.8
 21
43.0
 31
0.0
  0
LINE
  5
3EF
100
AcDbEntity
  8
0
390
0
  6
CONTINUOUS
 62
     3
100
AcDbLine
 10
111.8
 20
43.0
 30
0.0
 11
121.8
 21
43.0
 31
0.0
  0
LINE
  5
3F0
100
AcDbEntity
  8
0
390
0
  6
CONTINUOUS
 62
     3
100
AcDbLine
 10
113.3
 20
2.25
 30
0.0
 11
113.3
 21
18.0
 31
0.0
  0
LINE
  5
3F1
100
AcDbEntity
  8
0
390
0
  6
CONTINUOUS
 62
     3
100
AcDbLine
 10
106.8
 20
18.0
 30
0.0
 11
106.8
 21
2.25
 31
0.0
  0
LINE
  5
3F2
100
AcDbEntity
  8
0
390
0
  6
CONTINUOUS
 62
     3
100
AcDbLine
 10
106.8
 20
2.25
 30
0.0
 11
113.3
 21
2.25
 31
0.0
  0
LINE
  5
3F3
100
AcDbEntity
  8
0
390
0
  6
CONTINUOUS
 62
     3
100
AcDbLine
 10
113.3
 20
18.0
 30
0.0
 11
106.8
 21
18.0
 31
0.0
  0
LINE
  5
3F4
100
AcDbEntity
  8
0
390
0
  6
CONTINUOUS
 62
     3
100
AcDbLine
 10
106.8
 20
-18.0
 30
0.0
 11
113.3
 21
-18.0
 31
0.0
  0
LINE
  5
3F5
100
AcDbEntity
  8
0
390
0
  6
CONTINUOUS
 62
     3
100
AcDbLine
 10
113.3
 20
-18.0
 30
0.0
 11
113.3
 21
-2.25
 31
0.0
  0
LINE
  5
3F6
100
AcDbEntity
  8
0
390
0
  6
CONTINUOUS
 62
     3
100
AcDbLine
 10
106.8
 20
-2.25
 30
0.0
 11
113.3
 21
-2.25
 31
0.0
  0
LINE
  5
3F7
100
AcDbEntity
  8
0
390
0
  6
CONTINUOUS
 62
     3
100
AcDbLine
 10
106.8
 20
-2.25
 30
0.0
 11
106.8
 21
-18.0
 31
0.0
  0
LINE
  5
3F8
100
AcDbEntity
  8
0
390
0
  6
CONTINUOUS
 62
     3
100
AcDbLine
 10
117.8
 20
25.25
 30
0.0
 11
117.8
 21
20.75
 31
0.0
  0
LINE
  5
3F9
100
AcDbEntity
  8
0
390
0
  6
CONTINUOUS
 62
     3
100
AcDbLine
 10
121.8
 20
25.25
 30
0.0
 11
117.8
 21
25.25
 31
0.0
  0
LINE
  5
3FA
100
AcDbEntity
  8
0
390
0
  6
CONTINUOUS
 62
     3
100
AcDbLine
 10
106.8
 20
6.0
 30
0.0
 11
99.167545
 21
6.0
 31
0.0
  0
LINE
  5
3FB
100
AcDbEntity
  8
0
390
0
  6
CONTINUOUS
 62
     3
100
AcDbLine
 10
99.167545
 20
-6.0
 30
0.0
 11
106.8
 21
-6.0
 31
0.0
  0
LINE
  5
3FC
100
AcDbEntity
  8
0
390
0
  6
CONTINUOUS
 62
     3
100
AcDbLine
 10
117.8
 20
20.75
 30
0.0
 11
121.8
 21
20.75
 31
0.0
  0
LINE
  5
3FD
100
AcDbEntity
  8
0
390
0
  6
CONTINUOUS
 62
     3
100
AcDbLine
 10
117.8
 20
-25.25
 30
0.0
 11
117.8
 21
-20.75
 31
0.0
  0
LINE
  5
3FE
100
AcDbEntity
  8
0
390
0
  6
CONTINUOUS
 62
     3
100
AcDbLine
 10
122.356624
 20
15.25
 30
0.0
 11
120.543376
 21
15.25
 31
0.0
  0
LINE
  5
3FF
100
AcDbEntity
  8
0
390
0
  6
CONTINUOUS
 62
     3
100
AcDbLine
 10
119.1
 20
17.75
 30
0.0
 11
120.543376
 21
15.25
 31
0.0
  0
LINE
  5
400
100
AcDbEntity
  8
0
390
0
  6
CONTINUOUS
 62
     3
100
AcDbLine
 10
122.356624
 20
15.25
 30
0.0
 11
123.8
 21
17.75
 31
0.0
  0
LINE
  5
401
100
AcDbEntity
  8
0
390
0
  6
CONTINUOUS
 62
     3
100
AcDbLine
 10
113.3
 20
-2.25
 30
0.0
 11
113.3
 21
2.25
 31
0.0
  0
LINE
  5
402
100
AcDbEntity
  8
0
390
0
  6
CONTINUOUS
 62
     3
100
AcDbLine
 10
123.8
 20
2.25
 30
0.0
 11
123.8
 21
-2.25
 31
0.0
  0
LINE
  5
403
100
AcDbEntity
  8
0
390
0
  6
CONTINUOUS
 62
     3
100
AcDbLine
 10
121.6
 20
17.75
 30
0.0
 11
123.8
 21
17.75
 31
0.0
  0
LINE
  5
404
100
AcDbEntity
  8
0
390
0
  6
CONTINUOUS
 62
     3
100
AcDbLine
 10
121.6
 20
17.75
 30
0.0
 11
118.3
 21
17.75
 31
0.0
  0
LINE
  5
405
100
AcDbEntity
  8
0
390
0
  6
CONTINUOUS
 62
     3
100
AcDbLine
 10
121.6
 20
18.726156
 30
0.0
 11
121.6
 21
17.75
 31
0.0
  0
LINE
  5
406
100
AcDbEntity
  8
0
390
0
  6
CONTINUOUS
 62
     3
100
AcDbLine
 10
123.8
 20
-17.75
 30
0.0
 11
121.6
 21
-17.75
 31
0.0
  0
LINE
  5
407
100
AcDbEntity
  8
0
390
0
  6
CONTINUOUS
 62
     3
100
AcDbLine
 10
121.6
 20
-17.75
 30
0.0
 11
121.6
 21
-18.726156
 31
0.0
  0
LINE
  5
408
100
AcDbEntity
  8
0
390
0
  6
CONTINUOUS
 62
     3
100
AcDbLine
 10
121.6
 20
-17.75
 30
0.0
 11
118.3
 21
-17.75
 31
0.0
  0
LINE
  5
409
100
AcDbEntity
  8
0
390
0
  6
CONTINUOUS
 62
     3
100
AcDbLine
 10
113.3
 20
17.75
 30
0.0
 11
113.3
 21
2.25
 31
0.0
  0
LINE
  5
40A
100
AcDbEntity
  8
0
390
0
  6
CONTINUOUS
 62
     3
100
AcDbLine
 10
118.3
 20
6.0
 30
0.0
 11
118.3
 21
17.75
 31
0.0
  0
LINE
  5
40B
100
AcDbEntity
  8
0
390
0
  6
CONTINUOUS
 62
     3
100
AcDbLine
 10
123.8
 20
2.25
 30
0.0
 11
123.8
 21
6.0
 31
0.0
  0
LINE
  5
40C
100
AcDbEntity
  8
0
390
0
  6
CONTINUOUS
 62
     3
100
AcDbLine
 10
118.3
 20
6.0
 30
0.0
 11
123.8
 21
6.0
 31
0.0
  0
LINE
  5
40D
100
AcDbEntity
  8
0
390
0
  6
CONTINUOUS
 62
     3
100
AcDbLine
 10
123.8
 20
2.25
 30
0.0
 11
113.3
 21
2.25
 31
0.0
  0
LINE
  5
40E
100
AcDbEntity
  8
0
390
0
  6
CONTINUOUS
 62
     3
100
AcDbLine
 10
118.3
 20
17.75
 30
0.0
 11
113.3
 21
17.75
 31
0.0
  0
LINE
  5
40F
100
AcDbEntity
  8
0
390
0
  6
CONTINUOUS
 62
     3
100
AcDbLine
 10
113.3
 20
-17.75
 30
0.0
 11
118.3
 21
-17.75
 31
0.0
  0
LINE
  5
410
100
AcDbEntity
  8
0
390
0
  6
CONTINUOUS
 62
     3
100
AcDbLine
 10
113.3
 20
-2.25
 30
0.0
 11
113.3
 21
-17.75
 31
0.0
  0
LINE
  5
411
100
AcDbEntity
  8
0
390
0
  6
CONTINUOUS
 62
     3
100
AcDbLine
 10
118.3
 20
-17.75
 30
0.0
 11
118.3
 21
-6.0
 31
0.0
  0
LINE
  5
412
100
AcDbEntity
  8
0
390
0
  6
CONTINUOUS
 62
     3
100
AcDbLine
 10
118.3
 20
-6.0
 30
0.0
 11
123.8
 21
-6.0
 31
0.0
  0
LINE
  5
413
100
AcDbEntity
  8
0
390
0
  6
CONTINUOUS
 62
     3
100
AcDbLine
 10
123.8
 20
-6.0
 30
0.0
 11
123.8
 21
-2.25
 31
0.0
  0
LINE
  5
414
100
AcDbEntity
  8
0
390
0
  6
CONTINUOUS
 62
     3
100
AcDbLine
 10
123.8
 20
-2.25
 30
0.0
 11
113.3
 21
-2.25
 31
0.0
  0
LINE
  5
415
100
AcDbEntity
  8
0
390
0
  6
CONTINUOUS
 62
     3
100
AcDbLine
 10
118.3
 20
16.75
 30
0.0
 11
118.9
 21
14.25
 31
0.0
  0
LINE
  5
416
100
AcDbEntity
  8
0
390
0
  6
CONTINUOUS
 62
     3
100
AcDbLine
 10
118.9
 20
14.25
 30
0.0
 11
118.3
 21
11.75
 31
0.0
  0
LINE
  5
417
100
AcDbEntity
  8
0
390
0
  6
CONTINUOUS
 62
     3
100
AcDbLine
 10
123.8
 20
18.918631
 30
0.0
 11
123.8
 21
17.75
 31
0.0
  0
LINE
  5
418
100
AcDbEntity
  8
0
390
0
  6
CONTINUOUS
 62
     3
100
AcDbLine
 10
123.8
 20
-17.75
 30
0.0
 11
123.8
 21
-18.918631
 31
0.0
  0
ARC
  5
419
100
AcDbEntity
  8
0
390
0
  6
CONTINUOUS
 62
     3
100
AcDbCircle
 10
7.0
 20
33.0
 30
0.0
 40
1.0
100
AcDbArc
 50
0.0
 51
90.0
  0
LINE
  5
41A
100
AcDbEntity
  8
0
390
0
  6
CONTINUOUS
 62
     3
100
AcDbLine
 10
3.0
 20
34.0
 30
0.0
 11
3.0
 21
33.0
 31
0.0
  0
LINE
  5
41B
100
AcDbEntity
  8
0
390
0
  6
CONTINUOUS
 62
     3
100
AcDbLine
 10
7.0
 20
34.0
 30
0.0
 11
3.0
 21
34.0
 31
0.0
  0
LINE
  5
41C
100
AcDbEntity
  8
0
390
0
  6
CONTINUOUS
 62
     3
100
AcDbLine
 10
60.75
 20
33.0
 30
0.0
 11
14.6
 21
33.0
 31
0.0
  0
LINE
  5
41D
100
AcDbEntity
  8
0
390
0
  6
CONTINUOUS
 62
     3
100
AcDbLine
 10
14.6
 20
33.0
 30
0.0
 11
3.0
 21
33.0
 31
0.0
  0
LINE
  5
41E
100
AcDbEntity
  8
0
390
0
  6
CONTINUOUS
 62
     3
100
AcDbLine
 10
3.0
 20
33.0
 30
0.0
 11
3.0
 21
30.8
 31
0.0
  0
LINE
  5
41F
100
AcDbEntity
  8
0
390
0
  6
CONTINUOUS
 62
     3
100
AcDbLine
 10
105.699998
 20
33.000002
 30
0.0
 11
104.7
 21
33.000002
 31
0.0
  0
LINE
  5
420
100
AcDbEntity
  8
0
390
0
  6
CONTINUOUS
 62
     3
100
AcDbLine
 10
106.7
 20
32.0
 30
0.0
 11
105.699998
 21
33.000002
 31
0.0
  0
LINE
  5
421
100
AcDbEntity
  8
0
390
0
  6
CONTINUOUS
 62
     3
100
AcDbLine
 10
106.7
 20
32.0
 30
0.0
 11
106.7
 21
31.848528
 31
0.0
  0
LINE
  5
422
100
AcDbEntity
  8
0
390
0
  6
CONTINUOUS
 62
     3
100
AcDbLine
 10
106.7
 20
31.0
 30
0.0
 11
3.0
 21
31.0
 31
0.0
  0
LINE
  5
423
100
AcDbEntity
  8
0
390
0
  6
CONTINUOUS
 62
     3
100
AcDbLine
 10
106.7
 20
31.848528
 30
0.0
 11
106.7
 21
31.0
 31
0.0
  0
LINE
  5
424
100
AcDbEntity
  8
0
390
0
  6
CONTINUOUS
 62
     3
100
AcDbLine
 10
104.7
 20
33.0
 30
0.0
 11
60.75
 21
33.0
 31
0.0
  0
LINE
  5
425
100
AcDbEntity
  8
0
390
0
  6
CONTINUOUS
 62
    44
100
AcDbLine
 10
120.8
 20
-54.5
 30
0.0
 11
123.8
 21
-54.5
 31
0.0
  0
LINE
  5
426
100
AcDbEntity
  8
0
390
0
  6
CONTINUOUS
 62
    44
100
AcDbLine
 10
120.8
 20
-45.0
 30
0.0
 11
120.8
 21
-54.5
 31
0.0
  0
LINE
  5
427
100
AcDbEntity
  8
0
390
0
  6
CONTINUOUS
 62
    44
100
AcDbLine
 10
123.8
 20
-44.0
 30
0.0
 11
123.8
 21
-54.5
 31
0.0
  0
DIMENSION
  5
435
100
AcDbEntity
  8
0
390
0
  6
CONTINUOUS
 62
   230
100
AcDbDimension
  2
*D34
 10
144.9
 20
-54.5
 30
0.0
 11
144.9
 21
-4.75
 31
0.0
 70
   128
 71
     5
 72
     1
 41
0.9
 42
99.5
  1
\A1;<>
  3
MXDIMSTYLE
100
AcDbAlignedDimension
 13
122.8
 23
45.0
 33
0.0
 14
123.8
 24
-54.5
 34
0.0
 50
90.0
100
AcDbRotatedDimension
1001
ACAD
1000
DSTYLE
1002
{
1070
     6
1000
_OPEN
1070
     7
1000
_OPEN
1070
    41
1040
3.0
1070
   140
1040
2.5
1070
   284
1070
     8
1070
   340
1005
42F
1070
   343
1005
F7
1070
   344
1005
F7
1002
}
  0
ENDBLK
  5
436
100
AcDbEntity
  8
0
370
    -2
390
0
100
AcDbBlockEnd
  0
BLOCK
  5
437
100
AcDbEntity
  8
0
370
    -2
390
0
100
AcDbBlockBegin
  2
MS_15
 70
     0
 10
0.0
 20
0.0
 30
0.0
  3
MS_15
  1

  0
INSERT
  5
441
100
AcDbEntity
  8
0
390
0
  6
ByBlock
 62
   110
100
AcDbBlockReference
  2
$SYMTB004-46
 10
0.0
 20
1.5
 30
0.0
 50
270.0
  0
LINE
  5
442
100
AcDbEntity
  8
0
390
0
  6
CONTINUOUS
 62
   132
100
AcDbLine
 10
2.5
 20
1.0
 30
0.0
 11
2.5
 21
1.5
 31
0.0
  0
LINE
  5
443
100
AcDbEntity
  8
0
390
0
  6
CONTINUOUS
 62
   132
100
AcDbLine
 10
-2.5
 20
1.0
 30
0.0
 11
-2.5
 21
1.5
 31
0.0
  0
LINE
  5
444
100
AcDbEntity
  8
0
390
0
  6
CONTINUOUS
 62
   132
100
AcDbLine
 10
3.0
 20
0.0
 30
0.0
 11
3.0
 21
1.0
 31
0.0
  0
LINE
  5
445
100
AcDbEntity
  8
0
390
0
  6
CONTINUOUS
 62
   132
100
AcDbLine
 10
-3.0
 20
0.0
 30
0.0
 11
-3.0
 21
1.0
 31
0.0
  0
LINE
  5
446
100
AcDbEntity
  8
0
390
0
  6
CONTINUOUS
 62
   132
100
AcDbLine
 10
-2.750017
 20
1.5
 30
0.0
 11
2.749972
 21
1.5
 31
0.0
  0
LINE
  5
447
100
AcDbEntity
  8
0
390
0
  6
CONTINUOUS
 62
   132
100
AcDbLine
 10
-3.0
 20
1.0
 30
0.0
 11
3.0
 21
1.0
 31
0.0
  0
LINE
  5
448
100
AcDbEntity
  8
0
390
0
  6
CONTINUOUS
 62
   132
100
AcDbLine
 10
-3.0
 20
0.0
 30
0.0
 11
3.0
 21
0.0
 31
0.0
  0
ENDBLK
  5
449
100
AcDbEntity
  8
0
370
    -2
390
0
100
AcDbBlockEnd
  0
BLOCK
  5
44A
100
AcDbEntity
  8
0
370
    -2
390
0
100
AcDbBlockBegin
  2
CASE3
 70
     0
 10
0.0
 20
0.0
 30
0.0
  3
CASE3
  1

  0
ARC
  5
44B
100
AcDbEntity
  8
0
390
0
  6
CONTINUOUS
 62
   254
100
AcDbCircle
 10
-45.0
 20
-7.0
 30
0.0
 40
1.0
100
AcDbArc
 50
180.0
 51
270.0
  0
LINE
  5
44C
100
AcDbEntity
  8
0
390
0
  6
CONTINUOUS
 62
   254
100
AcDbLine
 10
-46.0
 20
-3.0
 30
0.0
 11
-46.0
 21
-7.0
 31
0.0
  0
LINE
  5
44D
100
AcDbEntity
  8
0
390
0
  6
CONTINUOUS
 62
   254
100
AcDbLine
 10
46.0
 20
-7.0
 30
0.0
 11
46.0
 21
-3.0
 31
0.0
  0
ARC
  5
44E
100
AcDbEntity
  8
0
390
0
  6
CONTINUOUS
 62
   254
100
AcDbCircle
 10
45.0
 20
-7.0
 30
0.0
 40
1.0
100
AcDbArc
 50
270.0
 51
0.0
  0
LINE
  5
44F
100
AcDbEntity
  8
0
390
0
  6
CONTINUOUS
 62
   110
100
AcDbLine
 10
-45.0
 20
-98.8
 30
0.0
 11
-45.0
 21
-106.8
 31
0.0
  0
LINE
  5
450
100
AcDbEntity
  8
0
390
0
  6
CONTINUOUS
 62
     3
100
AcDbLine
 10
45.0
 20
-106.8
 30
0.0
 11
45.0
 21
-98.8
 31
0.0
  0
CIRCLE
  5
451
100
AcDbEntity
  8
0
390
0
  6
CONTINUOUS
 62
   254
100
AcDbCircle
 10
-16.66
 20
-55.85
 30
0.0
 40
1.6
  0
ARC
  5
452
100
AcDbEntity
  8
0
390
0
  6
CONTINUOUS
 62
   254
100
AcDbCircle
 10
10.4
 20
-54.15
 30
0.0
 40
4.0
100
AcDbArc
 50
0.0
 51
90.0
  0
LINE
  5
453
100
AcDbEntity
  8
0
390
0
  6
CONTINUOUS
 62
   254
100
AcDbLine
 10
13.678013
 20
-58.244593
 30
0.0
 11
14.4
 21
-54.15
 31
0.0
  0
ARC
  5
454
100
AcDbEntity
  8
0
390
0
  6
CONTINUOUS
 62
   254
100
AcDbCircle
 10
9.738782
 20
-57.55
 30
0.0
 40
4.0
100
AcDbArc
 50
270.0
 51
350.000003
  0
LINE
  5
455
100
AcDbEntity
  8
0
390
0
  6
CONTINUOUS
 62
   254
100
AcDbLine
 10
-9.738782
 20
-61.55
 30
0.0
 11
9.738782
 21
-61.55
 31
0.0
  0
ARC
  5
456
100
AcDbEntity
  8
0
390
0
  6
CONTINUOUS
 62
   254
100
AcDbCircle
 10
-9.738782
 20
-57.55
 30
0.0
 40
4.0
100
AcDbArc
 50
189.999997
 51
270.0
  0
LINE
  5
457
100
AcDbEntity
  8
0
390
0
  6
CONTINUOUS
 62
   254
100
AcDbLine
 10
-14.158771
 20
-55.51808
 30
0.0
 11
-13.678013
 21
-58.244593
 31
0.0
  0
ARC
  5
458
100
AcDbEntity
  8
0
390
0
  6
CONTINUOUS
 62
   254
100
AcDbCircle
 10
-10.4
 20
-54.15
 30
0.0
 40
4.0
100
AcDbArc
 50
90.0
 51
199.999994
  0
LINE
  5
459
100
AcDbEntity
  8
0
390
0
  6
CONTINUOUS
 62
   254
100
AcDbLine
 10
10.4
 20
-50.15
 30
0.0
 11
-10.4
 21
-50.15
 31
0.0
  0
CIRCLE
  5
45A
100
AcDbEntity
  8
0
390
0
  6
CONTINUOUS
 62
   254
100
AcDbCircle
 10
16.66
 20
-55.85
 30
0.0
 40
1.6
  0
LINE
  5
45B
100
AcDbEntity
  8
0
390
0
  6
CONTINUOUS
 62
     3
100
AcDbLine
 10
45.0
 20
-8.0
 30
0.0
 11
45.0
 21
-106.8
 31
0.0
  0
LINE
  5
45C
100
AcDbEntity
  8
0
390
0
  6
CONTINUOUS
 62
     3
100
AcDbLine
 10
-45.0
 20
-106.8
 30
0.0
 11
-45.0
 21
-8.0
 31
0.0
  0
LINE
  5
45D
100
AcDbEntity
  8
0
390
0
  6
CONTINUOUS
 62
   254
100
AcDbLine
 10
-45.0
 20
-8.0
 30
0.0
 11
-45.0
 21
-7.0
 31
0.0
  0
LINE
  5
45E
100
AcDbEntity
  8
0
390
0
  6
CONTINUOUS
 62
   254
100
AcDbLine
 10
-46.0
 20
-7.0
 30
0.0
 11
-45.0
 21
-7.0
 31
0.0
  0
LINE
  5
45F
100
AcDbEntity
  8
0
390
0
  6
CONTINUOUS
 62
     3
100
AcDbLine
 10
-35.0
 20
-106.8
 30
0.0
 11
-41.6
 21
-106.8
 31
0.0
  0
LINE
  5
460
100
AcDbEntity
  8
0
390
0
  6
CONTINUOUS
 62
   254
100
AcDbLine
 10
45.0
 20
-7.0
 30
0.0
 11
46.0
 21
-7.0
 31
0.0
  0
LINE
  5
461
100
AcDbEntity
  8
0
390
0
  6
CONTINUOUS
 62
   254
100
AcDbLine
 10
45.0
 20
-7.0
 30
0.0
 11
45.0
 21
-8.0
 31
0.0
  0
LINE
  5
462
100
AcDbEntity
  8
0
390
0
  6
CONTINUOUS
 62
     3
100
AcDbLine
 10
-24.5
 20
-106.8
 30
0.0
 11
-18.0
 21
-106.8
 31
0.0
  0
LINE
  5
463
100
AcDbEntity
  8
0
390
0
  6
CONTINUOUS
 62
     3
100
AcDbLine
 10
24.5
 20
-106.8
 30
0.0
 11
18.0
 21
-106.8
 31
0.0
  0
LINE
  5
464
100
AcDbEntity
  8
0
390
0
  6
CONTINUOUS
 62
     3
100
AcDbLine
 10
-18.75
 20
-97.3
 30
0.0
 11
-18.75
 21
-90.8
 31
0.0
  0
LINE
  5
465
100
AcDbEntity
  8
0
390
0
  6
CONTINUOUS
 62
     3
100
AcDbLine
 10
-23.75
 20
-97.3
 30
0.0
 11
-18.75
 21
-97.3
 31
0.0
  0
LINE
  5
466
100
AcDbEntity
  8
0
390
0
  6
CONTINUOUS
 62
     3
100
AcDbLine
 10
-23.75
 20
-90.8
 30
0.0
 11
-23.75
 21
-97.3
 31
0.0
  0
LINE
  5
467
100
AcDbEntity
  8
0
390
0
  6
CONTINUOUS
 62
     3
100
AcDbLine
 10
-18.75
 20
-90.8
 30
0.0
 11
-23.75
 21
-90.8
 31
0.0
  0
LINE
  5
468
100
AcDbEntity
  8
0
390
0
  6
CONTINUOUS
 62
   254
100
AcDbLine
 10
-21.5
 20
-46.85
 30
0.0
 11
21.5
 21
-46.85
 31
0.0
  0
LINE
  5
469
100
AcDbEntity
  8
0
390
0
  6
CONTINUOUS
 62
   254
100
AcDbLine
 10
21.5
 20
-46.85
 30
0.0
 11
21.5
 21
-64.85
 31
0.0
  0
LINE
  5
46A
100
AcDbEntity
  8
0
390
0
  6
CONTINUOUS
 62
   254
100
AcDbLine
 10
21.5
 20
-64.85
 30
0.0
 11
-21.5
 21
-64.85
 31
0.0
  0
LINE
  5
46B
100
AcDbEntity
  8
0
390
0
  6
CONTINUOUS
 62
   254
100
AcDbLine
 10
-21.5
 20
-64.85
 30
0.0
 11
-21.5
 21
-46.85
 31
0.0
  0
LINE
  5
46C
100
AcDbEntity
  8
0
390
0
  6
CONTINUOUS
 62
     3
100
AcDbLine
 10
23.75
 20
-97.3
 30
0.0
 11
18.75
 21
-97.3
 31
0.0
  0
LINE
  5
46D
100
AcDbEntity
  8
0
390
0
  6
CONTINUOUS
 62
     3
100
AcDbLine
 10
18.75
 20
-97.3
 30
0.0
 11
18.75
 21
-90.8
 31
0.0
  0
LINE
  5
46E
100
AcDbEntity
  8
0
390
0
  6
CONTINUOUS
 62
     3
100
AcDbLine
 10
18.75
 20
-90.8
 30
0.0
 11
23.75
 21
-90.8
 31
0.0
  0
LINE
  5
46F
100
AcDbEntity
  8
0
390
0
  6
CONTINUOUS
 62
     3
100
AcDbLine
 10
23.75
 20
-90.8
 30
0.0
 11
23.75
 21
-97.3
 31
0.0
  0
LINE
  5
470
100
AcDbEntity
  8
0
390
0
  6
CONTINUOUS
 62
   254
100
AcDbLine
 10
45.0
 20
-3.0
 30
0.0
 11
45.0
 21
-7.0
 31
0.0
  0
LINE
  5
471
100
AcDbEntity
  8
0
390
0
  6
CONTINUOUS
 62
   254
100
AcDbLine
 10
-45.0
 20
-3.0
 30
0.0
 11
-45.0
 21
-7.0
 31
0.0
  0
LINE
  5
472
100
AcDbEntity
  8
0
390
0
  6
CONTINUOUS
 62
     3
100
AcDbLine
 10
-41.6
 20
-105.8
 30
0.0
 11
-35.0
 21
-105.8
 31
0.0
  0
LINE
  5
473
100
AcDbEntity
  8
0
390
0
  6
CONTINUOUS
 62
     3
100
AcDbLine
 10
-24.5
 20
-105.799998
 30
0.0
 11
-18.0
 21
-105.799998
 31
0.0
  0
LINE
  5
474
100
AcDbEntity
  8
0
390
0
  6
CONTINUOUS
 62
     3
100
AcDbLine
 10
18.0
 20
-105.799998
 30
0.0
 11
24.5
 21
-105.799998
 31
0.0
  0
LINE
  5
475
100
AcDbEntity
  8
0
390
0
  6
CONTINUOUS
 62
     3
100
AcDbLine
 10
41.6
 20
-106.8
 30
0.0
 11
35.0
 21
-106.8
 31
0.0
  0
LINE
  5
476
100
AcDbEntity
  8
0
390
0
  6
CONTINUOUS
 62
     3
100
AcDbLine
 10
35.0
 20
-105.799998
 30
0.0
 11
41.6
 21
-105.799999
 31
0.0
  0
LINE
  5
477
100
AcDbEntity
  8
0
390
0
  6
CONTINUOUS
 62
     3
100
AcDbLine
 10
9.5
 20
-105.799998
 30
0.0
 11
16.0
 21
-105.799998
 31
0.0
  0
LINE
  5
478
100
AcDbEntity
  8
0
390
0
  6
CONTINUOUS
 62
     3
100
AcDbLine
 10
16.0
 20
-106.8
 30
0.0
 11
9.5
 21
-106.8
 31
0.0
  0
LINE
  5
479
100
AcDbEntity
  8
0
390
0
  6
CONTINUOUS
 62
     3
100
AcDbLine
 10
-33.0
 20
-105.799998
 30
0.0
 11
-26.5
 21
-105.799998
 31
0.0
  0
LINE
  5
47A
100
AcDbEntity
  8
0
390
0
  6
CONTINUOUS
 62
     3
100
AcDbLine
 10
-26.5
 20
-106.8
 30
0.0
 11
-33.0
 21
-106.8
 31
0.0
  0
LINE
  5
47B
100
AcDbEntity
  8
0
390
0
  6
CONTINUOUS
 62
     3
100
AcDbLine
 10
1.0
 20
-105.799998
 30
0.0
 11
7.5
 21
-105.799998
 31
0.0
  0
LINE
  5
47C
100
AcDbEntity
  8
0
390
0
  6
CONTINUOUS
 62
     3
100
AcDbLine
 10
7.5
 20
-106.8
 30
0.0
 11
1.0
 21
-106.8
 31
0.0
  0
LINE
  5
47D
100
AcDbEntity
  8
0
390
0
  6
CONTINUOUS
 62
     3
100
AcDbLine
 10
26.5
 20
-105.799998
 30
0.0
 11
33.0
 21
-105.799998
 31
0.0
  0
LINE
  5
47E
100
AcDbEntity
  8
0
390
0
  6
CONTINUOUS
 62
     3
100
AcDbLine
 10
33.0
 20
-106.8
 30
0.0
 11
26.5
 21
-106.8
 31
0.0
  0
LINE
  5
47F
100
AcDbEntity
  8
0
390
0
  6
CONTINUOUS
 62
     3
100
AcDbLine
 10
-16.0
 20
-105.799998
 30
0.0
 11
-9.5
 21
-105.799998
 31
0.0
  0
LINE
  5
480
100
AcDbEntity
  8
0
390
0
  6
CONTINUOUS
 62
     3
100
AcDbLine
 10
-9.5
 20
-106.8
 30
0.0
 11
-16.0
 21
-106.8
 31
0.0
  0
LINE
  5
481
100
AcDbEntity
  8
0
390
0
  6
CONTINUOUS
 62
     3
100
AcDbLine
 10
-7.5
 20
-105.799998
 30
0.0
 11
-1.0
 21
-105.799998
 31
0.0
  0
LINE
  5
482
100
AcDbEntity
  8
0
390
0
  6
CONTINUOUS
 62
     3
100
AcDbLine
 10
-1.0
 20
-106.8
 30
0.0
 11
-7.5
 21
-106.8
 31
0.0
  0
LINE
  5
483
100
AcDbEntity
  8
0
390
0
  6
CONTINUOUS
 62
   254
100
AcDbLine
 10
35.0
 20
-7.0
 30
0.0
 11
35.0
 21
-3.0
 31
0.0
  0
LINE
  5
484
100
AcDbEntity
  8
0
390
0
  6
CONTINUOUS
 62
   254
100
AcDbLine
 10
-1.0
 20
-3.0
 30
0.0
 11
-1.0
 21
-7.0
 31
0.0
  0
ARC
  5
485
100
AcDbEntity
  8
0
390
0
  6
CONTINUOUS
 62
   254
100
AcDbCircle
 10
34.0
 20
-7.0
 30
0.0
 40
1.0
100
AcDbArc
 50
180.0
 51
0.0
  0
LINE
  5
486
100
AcDbEntity
  8
0
390
0
  6
CONTINUOUS
 62
   255
100
AcDbLine
 10
35.0
 20
-7.0
 30
0.0
 11
34.0
 21
-7.0
 31
0.0
  0
LINE
  5
487
100
AcDbEntity
  8
0
390
0
  6
CONTINUOUS
 62
   254
100
AcDbLine
 10
-33.0
 20
-7.0
 30
0.0
 11
-33.0
 21
-3.0
 31
0.0
  0
ARC
  5
488
100
AcDbEntity
  8
0
390
0
  6
CONTINUOUS
 62
   254
100
AcDbCircle
 10
-34.0
 20
-7.0
 30
0.0
 40
1.0
100
AcDbArc
 50
180.0
 51
0.0
  0
LINE
  5
489
100
AcDbEntity
  8
0
390
0
  6
CONTINUOUS
 62
   255
100
AcDbLine
 10
-33.0
 20
-7.0
 30
0.0
 11
-34.0
 21
-7.0
 31
0.0
  0
ARC
  5
48A
100
AcDbEntity
  8
0
390
0
  6
CONTINUOUS
 62
   254
100
AcDbCircle
 10
0.0
 20
-7.0
 30
0.0
 40
1.0
100
AcDbArc
 50
180.0
 51
0.0
  0
LINE
  5
48B
100
AcDbEntity
  8
0
390
0
  6
CONTINUOUS
 62
   255
100
AcDbLine
 10
-1.0
 20
-7.0
 30
0.0
 11
0.0
 21
-7.0
 31
0.0
  0
LINE
  5
48C
100
AcDbEntity
  8
0
390
0
  6
CONTINUOUS
 62
   255
100
AcDbLine
 10
1.0
 20
-7.0
 30
0.0
 11
0.0
 21
-7.0
 31
0.0
  0
LINE
  5
48D
100
AcDbEntity
  8
0
390
0
  6
CONTINUOUS
 62
   254
100
AcDbLine
 10
1.0
 20
-7.0
 30
0.0
 11
1.0
 21
-3.0
 31
0.0
  0
LINE
  5
48E
100
AcDbEntity
  8
0
390
0
  6
CONTINUOUS
 62
   254
100
AcDbLine
 10
33.0
 20
-3.0
 30
0.0
 11
33.0
 21
-7.0
 31
0.0
  0
LINE
  5
48F
100
AcDbEntity
  8
0
390
0
  6
CONTINUOUS
 62
   255
100
AcDbLine
 10
33.0
 20
-7.0
 30
0.0
 11
34.0
 21
-7.0
 31
0.0
  0
LINE
  5
490
100
AcDbEntity
  8
0
390
0
  6
CONTINUOUS
 62
   254
100
AcDbLine
 10
-35.0
 20
-3.0
 30
0.0
 11
-35.0
 21
-7.0
 31
0.0
  0
LINE
  5
491
100
AcDbEntity
  8
0
390
0
  6
CONTINUOUS
 62
   255
100
AcDbLine
 10
-35.0
 20
-7.0
 30
0.0
 11
-34.0
 21
-7.0
 31
0.0
  0
LINE
  5
492
100
AcDbEntity
  8
0
390
0
  6
CONTINUOUS
 62
   254
100
AcDbLine
 10
47.0
 20
-3.0
 30
0.0
 11
-47.0
 21
-3.0
 31
0.0
  0
ARC
  5
493
100
AcDbEntity
  8
0
390
0
  6
CONTINUOUS
 62
   254
100
AcDbCircle
 10
-47.0
 20
-1.0
 30
0.0
 40
1.0
100
AcDbArc
 50
90.0
 51
180.0
  0
LINE
  5
494
100
AcDbEntity
  8
0
390
0
  6
CONTINUOUS
 62
   254
100
AcDbLine
 10
-47.0
 20
0.0
 30
0.0
 11
47.0
 21
0.0
 31
0.0
  0
ARC
  5
495
100
AcDbEntity
  8
0
390
0
  6
CONTINUOUS
 62
   254
100
AcDbCircle
 10
47.0
 20
-1.0
 30
0.0
 40
1.0
100
AcDbArc
 50
0.0
 51
90.0
  0
LINE
  5
496
100
AcDbEntity
  8
0
390
0
  6
CONTINUOUS
 62
   254
100
AcDbLine
 10
-47.0
 20
-3.0
 30
0.0
 11
-48.0
 21
-3.0
 31
0.0
  0
LINE
  5
497
100
AcDbEntity
  8
0
390
0
  6
CONTINUOUS
 62
   254
100
AcDbLine
 10
-48.0
 20
-1.0
 30
0.0
 11
-48.0
 21
-3.0
 31
0.0
  0
LINE
  5
498
100
AcDbEntity
  8
0
390
0
  6
CONTINUOUS
 62
   254
100
AcDbLine
 10
48.0
 20
-3.0
 30
0.0
 11
47.0
 21
-3.0
 31
0.0
  0
LINE
  5
499
100
AcDbEntity
  8
0
390
0
  6
CONTINUOUS
 62
   254
100
AcDbLine
 10
48.0
 20
-1.0
 30
0.0
 11
48.0
 21
-3.0
 31
0.0
  0
LINE
  5
49A
100
AcDbEntity
  8
0
390
0
  6
CONTINUOUS
 62
     3
100
AcDbLine
 10
45.0
 20
-106.8
 30
0.0
 11
47.0
 21
-106.8
 31
0.0
  0
LINE
  5
49B
100
AcDbEntity
  8
0
390
0
  6
CONTINUOUS
 62
     3
100
AcDbLine
 10
45.0
 20
-113.3
 30
0.0
 11
47.0
 21
-113.3
 31
0.0
  0
LINE
  5
49C
100
AcDbEntity
  8
0
390
0
  6
CONTINUOUS
 62
     3
100
AcDbLine
 10
47.0
 20
-106.8
 30
0.0
 11
47.0
 21
-113.3
 31
0.0
  0
LINE
  5
49D
100
AcDbEntity
  8
0
390
0
  6
CONTINUOUS
 62
     3
100
AcDbLine
 10
19.731579
 20
-91.485786
 30
0.0
 11
19.75
 21
-90.9
 31
0.0
  0
LINE
  5
49E
100
AcDbEntity
  8
0
390
0
  6
CONTINUOUS
 62
     3
100
AcDbLine
 10
22.75
 20
-90.9
 30
0.0
 11
22.768421
 21
-91.485786
 31
0.0
  0
LINE
  5
49F
100
AcDbEntity
  8
0
390
0
  6
CONTINUOUS
 62
     3
100
AcDbLine
 10
19.75
 20
-90.9
 30
0.0
 11
22.75
 21
-90.9
 31
0.0
  0
LINE
  5
4A0
100
AcDbEntity
  8
0
390
0
  6
CONTINUOUS
 62
     3
100
AcDbLine
 10
23.25
 20
-110.3
 30
0.0
 11
19.25
 21
-110.3
 31
0.0
  0
LINE
  5
4A1
100
AcDbEntity
  8
0
390
0
  6
CONTINUOUS
 62
     3
100
AcDbLine
 10
1.0
 20
-106.8
 30
0.0
 11
7.5
 21
-106.8
 31
0.0
  0
LINE
  5
4A2
100
AcDbEntity
  8
0
390
0
  6
CONTINUOUS
 62
     3
100
AcDbLine
 10
19.25
 20
-110.3
 30
0.0
 11
18.0
 21
-110.3
 31
0.0
  0
LINE
  5
4A3
100
AcDbEntity
  8
0
390
0
  6
CONTINUOUS
 62
     3
100
AcDbLine
 10
18.0
 20
-106.8
 30
0.0
 11
19.25
 21
-106.8
 31
0.0
  0
LINE
  5
4A4
100
AcDbEntity
  8
0
390
0
  6
CONTINUOUS
 62
     3
100
AcDbLine
 10
24.5
 20
-110.3
 30
0.0
 11
23.25
 21
-110.3
 31
0.0
  0
LINE
  5
4A5
100
AcDbEntity
  8
0
390
0
  6
CONTINUOUS
 62
     3
100
AcDbLine
 10
23.25
 20
-106.8
 30
0.0
 11
24.5
 21
-106.8
 31
0.0
  0
LINE
  5
4A6
100
AcDbEntity
  8
0
390
0
  6
CONTINUOUS
 62
     3
100
AcDbLine
 10
41.6
 20
-110.3
 30
0.0
 11
35.0
 21
-110.3
 31
0.0
  0
LINE
  5
4A7
100
AcDbEntity
  8
0
390
0
  6
CONTINUOUS
 62
     3
100
AcDbLine
 10
35.0
 20
-106.8
 30
0.0
 11
41.6
 21
-106.8
 31
0.0
  0
LINE
  5
4A8
100
AcDbEntity
  8
0
390
0
  6
CONTINUOUS
 62
     3
100
AcDbLine
 10
33.0
 20
-110.3
 30
0.0
 11
26.5
 21
-110.3
 31
0.0
  0
LINE
  5
4A9
100
AcDbEntity
  8
0
390
0
  6
CONTINUOUS
 62
     3
100
AcDbLine
 10
26.5
 20
-106.8
 30
0.0
 11
33.0
 21
-106.8
 31
0.0
  0
LINE
  5
4AA
100
AcDbEntity
  8
0
390
0
  6
CONTINUOUS
 62
     3
100
AcDbLine
 10
16.0
 20
-110.3
 30
0.0
 11
9.5
 21
-110.3
 31
0.0
  0
LINE
  5
4AB
100
AcDbEntity
  8
0
390
0
  6
CONTINUOUS
 62
     3
100
AcDbLine
 10
9.5
 20
-106.8
 30
0.0
 11
16.0
 21
-106.8
 31
0.0
  0
LINE
  5
4AC
100
AcDbEntity
  8
0
390
0
  6
CONTINUOUS
 62
     3
100
AcDbLine
 10
19.639937
 20
-94.4
 30
0.0
 11
19.592767
 21
-95.9
 31
0.0
  0
LINE
  5
4AD
100
AcDbEntity
  8
0
390
0
  6
CONTINUOUS
 62
     3
100
AcDbLine
 10
22.907233
 20
-95.9
 30
0.0
 11
22.860063
 21
-94.4
 31
0.0
  0
LINE
  5
4AE
100
AcDbEntity
  8
0
390
0
  6
CONTINUOUS
 62
     3
100
AcDbLine
 10
19.592767
 20
-95.9
 30
0.0
 11
19.561321
 21
-96.9
 31
0.0
  0
LINE
  5
4AF
100
AcDbEntity
  8
0
390
0
  6
CONTINUOUS
 62
     3
100
AcDbLine
 10
22.938679
 20
-96.9
 30
0.0
 11
19.561321
 21
-96.9
 31
0.0
  0
LINE
  5
4B0
100
AcDbEntity
  8
0
390
0
  6
CONTINUOUS
 62
     3
100
AcDbLine
 10
22.938679
 20
-96.9
 30
0.0
 11
22.907233
 21
-95.9
 31
0.0
  0
LINE
  5
4B1
100
AcDbEntity
  8
0
390
0
  6
CONTINUOUS
 62
     3
100
AcDbLine
 10
19.592767
 20
-95.9
 30
0.0
 11
22.907233
 21
-95.9
 31
0.0
  0
LINE
  5
4B2
100
AcDbEntity
  8
0
390
0
  6
CONTINUOUS
 62
     3
100
AcDbLine
 10
22.768421
 20
-91.485786
 30
0.0
 11
22.860063
 21
-94.4
 31
0.0
  0
LINE
  5
4B3
100
AcDbEntity
  8
0
390
0
  6
CONTINUOUS
 62
     3
100
AcDbLine
 10
19.639937
 20
-94.4
 30
0.0
 11
19.731579
 21
-91.485786
 31
0.0
  0
LINE
  5
4B4
100
AcDbEntity
  8
0
390
0
  6
CONTINUOUS
 62
     3
100
AcDbLine
 10
22.860063
 20
-94.4
 30
0.0
 11
19.639937
 21
-94.4
 31
0.0
  0
LINE
  5
4B5
100
AcDbEntity
  8
0
390
0
  6
CONTINUOUS
 62
     3
100
AcDbLine
 10
45.0
 20
-109.8
 30
0.0
 11
45.0
 21
-99.8
 31
0.0
  0
LINE
  5
4B6
100
AcDbEntity
  8
0
390
0
  6
CONTINUOUS
 62
     3
100
AcDbLine
 10
45.0
 20
-121.8
 30
0.0
 11
45.0
 21
-111.8
 31
0.0
  0
LINE
  5
4B7
100
AcDbEntity
  8
0
390
0
  6
CONTINUOUS
 62
     3
100
AcDbLine
 10
41.6
 20
-106.7
 30
0.0
 11
41.6
 21
-102.7
 31
0.0
  0
LINE
  5
4B8
100
AcDbEntity
  8
0
390
0
  6
CONTINUOUS
 62
     3
100
AcDbLine
 10
41.6
 20
-118.9
 30
0.0
 11
41.6
 21
-114.9
 31
0.0
  0
LINE
  5
4B9
100
AcDbEntity
  8
0
390
0
  6
CONTINUOUS
 62
     3
100
AcDbLine
 10
45.0
 20
-109.8
 30
0.0
 11
45.0
 21
-111.8
 31
0.0
  0
LINE
  5
4BA
100
AcDbEntity
  8
0
390
0
  6
CONTINUOUS
 62
     3
100
AcDbLine
 10
41.6
 20
-114.9
 30
0.0
 11
41.6
 21
-106.7
 31
0.0
  0
LINE
  5
4BB
100
AcDbEntity
  8
0
390
0
  6
CONTINUOUS
 62
     3
100
AcDbLine
 10
16.0
 20
-117.8
 30
0.0
 11
16.0
 21
-103.8
 31
0.0
  0
LINE
  5
4BC
100
AcDbEntity
  8
0
390
0
  6
CONTINUOUS
 62
     3
100
AcDbLine
 10
16.0
 20
-103.8
 30
0.0
 11
18.0
 21
-103.8
 31
0.0
  0
LINE
  5
4BD
100
AcDbEntity
  8
0
390
0
  6
CONTINUOUS
 62
     3
100
AcDbLine
 10
18.0
 20
-103.8
 30
0.0
 11
18.0
 21
-117.8
 31
0.0
  0
LINE
  5
4BE
100
AcDbEntity
  8
0
390
0
  6
CONTINUOUS
 62
     3
100
AcDbLine
 10
18.0
 20
-117.8
 30
0.0
 11
16.0
 21
-117.8
 31
0.0
  0
LINE
  5
4BF
100
AcDbEntity
  8
0
390
0
  6
CONTINUOUS
 62
     3
100
AcDbLine
 10
45.0
 20
-97.8
 30
0.0
 11
45.0
 21
-99.8
 31
0.0
  0
LINE
  5
4C0
100
AcDbEntity
  8
0
390
0
  6
CONTINUOUS
 62
     3
100
AcDbLine
 10
41.6
 20
-97.8
 30
0.0
 11
45.0
 21
-97.8
 31
0.0
  0
LINE
  5
4C1
100
AcDbEntity
  8
0
390
0
  6
CONTINUOUS
 62
     3
100
AcDbLine
 10
41.6
 20
-102.7
 30
0.0
 11
41.6
 21
-97.8
 31
0.0
  0
LINE
  5
4C2
100
AcDbEntity
  8
0
390
0
  6
CONTINUOUS
 62
     3
100
AcDbLine
 10
45.0
 20
-121.8
 30
0.0
 11
45.0
 21
-123.8
 31
0.0
  0
LINE
  5
4C3
100
AcDbEntity
  8
0
390
0
  6
CONTINUOUS
 62
     3
100
AcDbLine
 10
41.6
 20
-123.8
 30
0.0
 11
45.0
 21
-123.8
 31
0.0
  0
LINE
  5
4C4
100
AcDbEntity
  8
0
390
0
  6
CONTINUOUS
 62
     3
100
AcDbLine
 10
41.6
 20
-123.8
 30
0.0
 11
41.6
 21
-118.9
 31
0.0
  0
LINE
  5
4C5
100
AcDbEntity
  8
0
390
0
  6
CONTINUOUS
 62
     3
100
AcDbLine
 10
24.5
 20
-117.8
 30
0.0
 11
24.5
 21
-103.8
 31
0.0
  0
LINE
  5
4C6
100
AcDbEntity
  8
0
390
0
  6
CONTINUOUS
 62
     3
100
AcDbLine
 10
26.5
 20
-103.8
 30
0.0
 11
26.5
 21
-117.8
 31
0.0
  0
LINE
  5
4C7
100
AcDbEntity
  8
0
390
0
  6
CONTINUOUS
 62
     3
100
AcDbLine
 10
24.5
 20
-103.8
 30
0.0
 11
26.5
 21
-103.8
 31
0.0
  0
LINE
  5
4C8
100
AcDbEntity
  8
0
390
0
  6
CONTINUOUS
 62
     3
100
AcDbLine
 10
26.5
 20
-117.8
 30
0.0
 11
24.5
 21
-117.8
 31
0.0
  0
LINE
  5
4C9
100
AcDbEntity
  8
0
390
0
  6
CONTINUOUS
 62
     3
100
AcDbLine
 10
33.0
 20
-117.8
 30
0.0
 11
33.0
 21
-103.8
 31
0.0
  0
LINE
  5
4CA
100
AcDbEntity
  8
0
390
0
  6
CONTINUOUS
 62
     3
100
AcDbLine
 10
35.0
 20
-103.8
 30
0.0
 11
35.0
 21
-117.8
 31
0.0
  0
LINE
  5
4CB
100
AcDbEntity
  8
0
390
0
  6
CONTINUOUS
 62
     3
100
AcDbLine
 10
33.0
 20
-103.8
 30
0.0
 11
35.0
 21
-103.8
 31
0.0
  0
LINE
  5
4CC
100
AcDbEntity
  8
0
390
0
  6
CONTINUOUS
 62
     3
100
AcDbLine
 10
35.0
 20
-117.8
 30
0.0
 11
33.0
 21
-117.8
 31
0.0
  0
LINE
  5
4CD
100
AcDbEntity
  8
0
390
0
  6
CONTINUOUS
 62
     3
100
AcDbLine
 10
9.5
 20
-103.8
 30
0.0
 11
9.5
 21
-117.8
 31
0.0
  0
LINE
  5
4CE
100
AcDbEntity
  8
0
390
0
  6
CONTINUOUS
 62
     3
100
AcDbLine
 10
7.5
 20
-117.8
 30
0.0
 11
7.5
 21
-103.8
 31
0.0
  0
LINE
  5
4CF
100
AcDbEntity
  8
0
390
0
  6
CONTINUOUS
 62
     3
100
AcDbLine
 10
7.5
 20
-103.8
 30
0.0
 11
9.5
 21
-103.8
 31
0.0
  0
LINE
  5
4D0
100
AcDbEntity
  8
0
390
0
  6
CONTINUOUS
 62
     3
100
AcDbLine
 10
9.5
 20
-117.8
 30
0.0
 11
7.5
 21
-117.8
 31
0.0
  0
LINE
  5
4D1
100
AcDbEntity
  8
0
390
0
  6
CONTINUOUS
 62
     3
100
AcDbLine
 10
1.0
 20
-103.8
 30
0.0
 11
1.0
 21
-117.8
 31
0.0
  0
LINE
  5
4D2
100
AcDbEntity
  8
0
390
0
  6
CONTINUOUS
 62
     3
100
AcDbLine
 10
-1.0
 20
-103.8
 30
0.0
 11
1.0
 21
-103.8
 31
0.0
  0
LINE
  5
4D3
100
AcDbEntity
  8
0
390
0
  6
CONTINUOUS
 62
     3
100
AcDbLine
 10
1.0
 20
-117.8
 30
0.0
 11
-1.0
 21
-117.8
 31
0.0
  0
LINE
  5
4D4
100
AcDbEntity
  8
0
390
0
  6
CONTINUOUS
 62
     3
100
AcDbLine
 10
-1.0
 20
-106.8
 30
0.0
 11
-7.5
 21
-106.8
 31
0.0
  0
LINE
  5
4D5
100
AcDbEntity
  8
0
390
0
  6
CONTINUOUS
 62
     3
100
AcDbLine
 10
1.0
 20
-103.8
 30
0.0
 11
-1.0
 21
-103.8
 31
0.0
  0
LINE
  5
4D6
100
AcDbEntity
  8
0
390
0
  6
CONTINUOUS
 62
     3
100
AcDbLine
 10
-1.0
 20
-117.8
 30
0.0
 11
1.0
 21
-117.8
 31
0.0
  0
LINE
  5
4D7
100
AcDbEntity
  8
0
390
0
  6
CONTINUOUS
 62
     3
100
AcDbLine
 10
-1.0
 20
-103.8
 30
0.0
 11
-1.0
 21
-117.8
 31
0.0
  0
LINE
  5
4D8
100
AcDbEntity
  8
0
390
0
  6
CONTINUOUS
 62
     3
100
AcDbLine
 10
-9.5
 20
-117.8
 30
0.0
 11
-7.5
 21
-117.8
 31
0.0
  0
LINE
  5
4D9
100
AcDbEntity
  8
0
390
0
  6
CONTINUOUS
 62
     3
100
AcDbLine
 10
-7.5
 20
-103.8
 30
0.0
 11
-9.5
 21
-103.8
 31
0.0
  0
LINE
  5
4DA
100
AcDbEntity
  8
0
390
0
  6
CONTINUOUS
 62
     3
100
AcDbLine
 10
-7.5
 20
-117.8
 30
0.0
 11
-7.5
 21
-103.8
 31
0.0
  0
LINE
  5
4DB
100
AcDbEntity
  8
0
390
0
  6
CONTINUOUS
 62
     3
100
AcDbLine
 10
-9.5
 20
-103.8
 30
0.0
 11
-9.5
 21
-117.8
 31
0.0
  0
LINE
  5
4DC
100
AcDbEntity
  8
0
390
0
  6
CONTINUOUS
 62
     3
100
AcDbLine
 10
-35.0
 20
-117.8
 30
0.0
 11
-33.0
 21
-117.8
 31
0.0
  0
LINE
  5
4DD
100
AcDbEntity
  8
0
390
0
  6
CONTINUOUS
 62
     3
100
AcDbLine
 10
-33.0
 20
-103.8
 30
0.0
 11
-35.0
 21
-103.8
 31
0.0
  0
LINE
  5
4DE
100
AcDbEntity
  8
0
390
0
  6
CONTINUOUS
 62
     3
100
AcDbLine
 10
-35.0
 20
-103.8
 30
0.0
 11
-35.0
 21
-117.8
 31
0.0
  0
LINE
  5
4DF
100
AcDbEntity
  8
0
390
0
  6
CONTINUOUS
 62
     3
100
AcDbLine
 10
-33.0
 20
-117.8
 30
0.0
 11
-33.0
 21
-103.8
 31
0.0
  0
LINE
  5
4E0
100
AcDbEntity
  8
0
390
0
  6
CONTINUOUS
 62
     3
100
AcDbLine
 10
-26.5
 20
-117.8
 30
0.0
 11
-24.5
 21
-117.8
 31
0.0
  0
LINE
  5
4E1
100
AcDbEntity
  8
0
390
0
  6
CONTINUOUS
 62
     3
100
AcDbLine
 10
-24.5
 20
-103.8
 30
0.0
 11
-26.5
 21
-103.8
 31
0.0
  0
LINE
  5
4E2
100
AcDbEntity
  8
0
390
0
  6
CONTINUOUS
 62
     3
100
AcDbLine
 10
-26.5
 20
-103.8
 30
0.0
 11
-26.5
 21
-117.8
 31
0.0
  0
LINE
  5
4E3
100
AcDbEntity
  8
0
390
0
  6
CONTINUOUS
 62
     3
100
AcDbLine
 10
-24.5
 20
-117.8
 30
0.0
 11
-24.5
 21
-103.8
 31
0.0
  0
LINE
  5
4E4
100
AcDbEntity
  8
0
390
0
  6
CONTINUOUS
 62
     3
100
AcDbLine
 10
-41.6
 20
-123.8
 30
0.0
 11
-41.6
 21
-118.9
 31
0.0
  0
LINE
  5
4E5
100
AcDbEntity
  8
0
390
0
  6
CONTINUOUS
 62
     3
100
AcDbLine
 10
-41.6
 20
-123.8
 30
0.0
 11
-45.0
 21
-123.8
 31
0.0
  0
LINE
  5
4E6
100
AcDbEntity
  8
0
390
0
  6
CONTINUOUS
 62
     3
100
AcDbLine
 10
-45.0
 20
-121.8
 30
0.0
 11
-45.0
 21
-123.8
 31
0.0
  0
LINE
  5
4E7
100
AcDbEntity
  8
0
390
0
  6
CONTINUOUS
 62
     3
100
AcDbLine
 10
-41.6
 20
-102.7
 30
0.0
 11
-41.6
 21
-97.8
 31
0.0
  0
LINE
  5
4E8
100
AcDbEntity
  8
0
390
0
  6
CONTINUOUS
 62
     3
100
AcDbLine
 10
-41.6
 20
-97.8
 30
0.0
 11
-45.0
 21
-97.8
 31
0.0
  0
LINE
  5
4E9
100
AcDbEntity
  8
0
390
0
  6
CONTINUOUS
 62
     3
100
AcDbLine
 10
-45.0
 20
-97.8
 30
0.0
 11
-45.0
 21
-99.8
 31
0.0
  0
LINE
  5
4EA
100
AcDbEntity
  8
0
390
0
  6
CONTINUOUS
 62
     3
100
AcDbLine
 10
-18.0
 20
-117.8
 30
0.0
 11
-16.0
 21
-117.8
 31
0.0
  0
LINE
  5
4EB
100
AcDbEntity
  8
0
390
0
  6
CONTINUOUS
 62
     3
100
AcDbLine
 10
-18.0
 20
-103.8
 30
0.0
 11
-18.0
 21
-117.8
 31
0.0
  0
LINE
  5
4EC
100
AcDbEntity
  8
0
390
0
  6
CONTINUOUS
 62
     3
100
AcDbLine
 10
-16.0
 20
-103.8
 30
0.0
 11
-18.0
 21
-103.8
 31
0.0
  0
LINE
  5
4ED
100
AcDbEntity
  8
0
390
0
  6
CONTINUOUS
 62
     3
100
AcDbLine
 10
-16.0
 20
-117.8
 30
0.0
 11
-16.0
 21
-103.8
 31
0.0
  0
LINE
  5
4EE
100
AcDbEntity
  8
0
390
0
  6
CONTINUOUS
 62
     3
100
AcDbLine
 10
-41.6
 20
-114.9
 30
0.0
 11
-41.6
 21
-106.7
 31
0.0
  0
LINE
  5
4EF
100
AcDbEntity
  8
0
390
0
  6
CONTINUOUS
 62
     3
100
AcDbLine
 10
-45.0
 20
-109.8
 30
0.0
 11
-45.0
 21
-111.8
 31
0.0
  0
LINE
  5
4F0
100
AcDbEntity
  8
0
390
0
  6
CONTINUOUS
 62
     3
100
AcDbLine
 10
-41.6
 20
-118.9
 30
0.0
 11
-41.6
 21
-114.9
 31
0.0
  0
LINE
  5
4F1
100
AcDbEntity
  8
0
390
0
  6
CONTINUOUS
 62
     3
100
AcDbLine
 10
-41.6
 20
-106.7
 30
0.0
 11
-41.6
 21
-102.7
 31
0.0
  0
LINE
  5
4F2
100
AcDbEntity
  8
0
390
0
  6
CONTINUOUS
 62
     3
100
AcDbLine
 10
-45.0
 20
-121.8
 30
0.0
 11
-45.0
 21
-111.8
 31
0.0
  0
LINE
  5
4F3
100
AcDbEntity
  8
0
390
0
  6
CONTINUOUS
 62
     3
100
AcDbLine
 10
-45.0
 20
-109.8
 30
0.0
 11
-45.0
 21
-99.8
 31
0.0
  0
LINE
  5
4F4
100
AcDbEntity
  8
0
390
0
  6
CONTINUOUS
 62
     3
100
AcDbLine
 10
-22.860063
 20
-94.4
 30
0.0
 11
-19.639937
 21
-94.4
 31
0.0
  0
LINE
  5
4F5
100
AcDbEntity
  8
0
390
0
  6
CONTINUOUS
 62
     3
100
AcDbLine
 10
-19.639937
 20
-94.4
 30
0.0
 11
-19.731579
 21
-91.485786
 31
0.0
  0
LINE
  5
4F6
100
AcDbEntity
  8
0
390
0
  6
CONTINUOUS
 62
     3
100
AcDbLine
 10
-22.768421
 20
-91.485786
 30
0.0
 11
-22.860063
 21
-94.4
 31
0.0
  0
LINE
  5
4F7
100
AcDbEntity
  8
0
390
0
  6
CONTINUOUS
 62
     3
100
AcDbLine
 10
-19.592767
 20
-95.9
 30
0.0
 11
-22.907233
 21
-95.9
 31
0.0
  0
LINE
  5
4F8
100
AcDbEntity
  8
0
390
0
  6
CONTINUOUS
 62
     3
100
AcDbLine
 10
-22.938679
 20
-96.9
 30
0.0
 11
-22.907233
 21
-95.9
 31
0.0
  0
LINE
  5
4F9
100
AcDbEntity
  8
0
390
0
  6
CONTINUOUS
 62
     3
100
AcDbLine
 10
-22.938679
 20
-96.9
 30
0.0
 11
-19.561321
 21
-96.9
 31
0.0
  0
LINE
  5
4FA
100
AcDbEntity
  8
0
390
0
  6
CONTINUOUS
 62
     3
100
AcDbLine
 10
-19.592767
 20
-95.9
 30
0.0
 11
-19.561321
 21
-96.9
 31
0.0
  0
LINE
  5
4FB
100
AcDbEntity
  8
0
390
0
  6
CONTINUOUS
 62
     3
100
AcDbLine
 10
-22.907233
 20
-95.9
 30
0.0
 11
-22.860063
 21
-94.4
 31
0.0
  0
LINE
  5
4FC
100
AcDbEntity
  8
0
390
0
  6
CONTINUOUS
 62
     3
100
AcDbLine
 10
-19.639937
 20
-94.4
 30
0.0
 11
-19.592767
 21
-95.9
 31
0.0
  0
LINE
  5
4FD
100
AcDbEntity
  8
0
390
0
  6
CONTINUOUS
 62
     3
100
AcDbLine
 10
-9.5
 20
-106.8
 30
0.0
 11
-16.0
 21
-106.8
 31
0.0
  0
LINE
  5
4FE
100
AcDbEntity
  8
0
390
0
  6
CONTINUOUS
 62
     3
100
AcDbLine
 10
-16.0
 20
-110.3
 30
0.0
 11
-9.5
 21
-110.3
 31
0.0
  0
LINE
  5
4FF
100
AcDbEntity
  8
0
390
0
  6
CONTINUOUS
 62
     3
100
AcDbLine
 10
-26.5
 20
-106.8
 30
0.0
 11
-33.0
 21
-106.8
 31
0.0
  0
LINE
  5
500
100
AcDbEntity
  8
0
390
0
  6
CONTINUOUS
 62
     3
100
AcDbLine
 10
-33.0
 20
-110.3
 30
0.0
 11
-26.5
 21
-110.3
 31
0.0
  0
LINE
  5
501
100
AcDbEntity
  8
0
390
0
  6
CONTINUOUS
 62
     3
100
AcDbLine
 10
-35.0
 20
-106.8
 30
0.0
 11
-41.6
 21
-106.8
 31
0.0
  0
LINE
  5
502
100
AcDbEntity
  8
0
390
0
  6
CONTINUOUS
 62
     3
100
AcDbLine
 10
-41.6
 20
-110.3
 30
0.0
 11
-35.0
 21
-110.3
 31
0.0
  0
LINE
  5
503
100
AcDbEntity
  8
0
390
0
  6
CONTINUOUS
 62
     3
100
AcDbLine
 10
-23.25
 20
-106.8
 30
0.0
 11
-24.5
 21
-106.8
 31
0.0
  0
LINE
  5
504
100
AcDbEntity
  8
0
390
0
  6
CONTINUOUS
 62
     3
100
AcDbLine
 10
-24.5
 20
-110.3
 30
0.0
 11
-23.25
 21
-110.3
 31
0.0
  0
LINE
  5
505
100
AcDbEntity
  8
0
390
0
  6
CONTINUOUS
 62
     3
100
AcDbLine
 10
-18.0
 20
-106.8
 30
0.0
 11
-19.25
 21
-106.8
 31
0.0
  0
LINE
  5
506
100
AcDbEntity
  8
0
390
0
  6
CONTINUOUS
 62
     3
100
AcDbLine
 10
-19.25
 20
-110.3
 30
0.0
 11
-18.0
 21
-110.3
 31
0.0
  0
LINE
  5
507
100
AcDbEntity
  8
0
390
0
  6
CONTINUOUS
 62
     3
100
AcDbLine
 10
-23.25
 20
-110.3
 30
0.0
 11
-19.25
 21
-110.3
 31
0.0
  0
LINE
  5
508
100
AcDbEntity
  8
0
390
0
  6
CONTINUOUS
 62
     3
100
AcDbLine
 10
-19.75
 20
-90.9
 30
0.0
 11
-22.75
 21
-90.9
 31
0.0
  0
LINE
  5
509
100
AcDbEntity
  8
0
390
0
  6
CONTINUOUS
 62
     3
100
AcDbLine
 10
-22.75
 20
-90.9
 30
0.0
 11
-22.768421
 21
-91.485786
 31
0.0
  0
LINE
  5
50A
100
AcDbEntity
  8
0
390
0
  6
CONTINUOUS
 62
     3
100
AcDbLine
 10
-19.731579
 20
-91.485786
 30
0.0
 11
-19.75
 21
-90.9
 31
0.0
  0
LINE
  5
50B
100
AcDbEntity
  8
0
390
0
  6
CONTINUOUS
 62
     3
100
AcDbLine
 10
-47.0
 20
-106.8
 30
0.0
 11
-47.0
 21
-113.3
 31
0.0
  0
LINE
  5
50C
100
AcDbEntity
  8
0
390
0
  6
CONTINUOUS
 62
     3
100
AcDbLine
 10
-45.0
 20
-113.3
 30
0.0
 11
-47.0
 21
-113.3
 31
0.0
  0
LINE
  5
50D
100
AcDbEntity
  8
0
390
0
  6
CONTINUOUS
 62
     3
100
AcDbLine
 10
-45.0
 20
-106.8
 30
0.0
 11
-47.0
 21
-106.8
 31
0.0
  0
LINE
  5
50E
100
AcDbEntity
  8
0
390
0
  6
CONTINUOUS
 62
     3
100
AcDbLine
 10
7.5
 20
-110.3
 30
0.0
 11
1.0
 21
-110.3
 31
0.0
  0
LINE
  5
50F
100
AcDbEntity
  8
0
390
0
  6
CONTINUOUS
 62
     3
100
AcDbLine
 10
-1.0
 20
-110.3
 30
0.0
 11
-7.5
 21
-110.3
 31
0.0
  0
LINE
  5
510
100
AcDbEntity
  8
0
390
0
  6
CONTINUOUS
 62
     3
100
AcDbLine
 10
-2.0
 20
-123.8
 30
0.0
 11
-6.0
 21
-123.8
 31
0.0
  0
LINE
  5
511
100
AcDbEntity
  8
0
390
0
  6
CONTINUOUS
 62
     3
100
AcDbLine
 10
6.0
 20
-123.8
 30
0.0
 11
2.0
 21
-123.8
 31
0.0
  0
LINE
  5
512
100
AcDbEntity
  8
0
390
0
  6
CONTINUOUS
 62
     3
100
AcDbLine
 10
2.0
 20
-123.8
 30
0.0
 11
-2.0
 21
-123.8
 31
0.0
  0
LINE
  5
513
100
AcDbEntity
  8
0
390
0
  6
CONTINUOUS
 62
     3
100
AcDbLine
 10
-47.0
 20
-118.3
 30
0.0
 11
-47.0
 21
-123.8
 31
0.0
  0
LINE
  5
514
100
AcDbEntity
  8
0
390
0
  6
CONTINUOUS
 62
     3
100
AcDbLine
 10
-42.9
 20
-123.8
 30
0.0
 11
-47.0
 21
-123.8
 31
0.0
  0
LINE
  5
515
100
AcDbEntity
  8
0
390
0
  6
CONTINUOUS
 62
     3
100
AcDbLine
 10
47.0
 20
-118.3
 30
0.0
 11
47.0
 21
-123.8
 31
0.0
  0
LINE
  5
516
100
AcDbEntity
  8
0
390
0
  6
CONTINUOUS
 62
     3
100
AcDbLine
 10
42.9
 20
-123.8
 30
0.0
 11
47.0
 21
-123.8
 31
0.0
  0
LINE
  5
517
100
AcDbEntity
  8
0
390
0
  6
CONTINUOUS
 62
     3
100
AcDbLine
 10
-47.0
 20
-113.3
 30
0.0
 11
-47.0
 21
-118.3
 31
0.0
  0
LINE
  5
518
100
AcDbEntity
  8
0
390
0
  6
CONTINUOUS
 62
     3
100
AcDbLine
 10
-45.0
 20
-118.3
 30
0.0
 11
-47.0
 21
-118.3
 31
0.0
  0
LINE
  5
519
100
AcDbEntity
  8
0
390
0
  6
CONTINUOUS
 62
     3
100
AcDbLine
 10
47.0
 20
-118.3
 30
0.0
 11
45.0
 21
-118.3
 31
0.0
  0
LINE
  5
51A
100
AcDbEntity
  8
0
390
0
  6
CONTINUOUS
 62
     3
100
AcDbLine
 10
47.0
 20
-113.3
 30
0.0
 11
47.0
 21
-118.3
 31
0.0
  0
LINE
  5
51B
100
AcDbEntity
  8
0
390
0
  6
CONTINUOUS
 62
   110
100
AcDbLine
 10
42.742777
 20
-118.6
 30
0.0
 11
42.743
 21
-118.6
 31
0.0
  0
LINE
  5
51C
100
AcDbEntity
  8
0
390
0
  6
CONTINUOUS
 62
     3
100
AcDbLine
 10
-42.742777
 20
-118.6
 30
0.0
 11
-42.743
 21
-118.6
 31
0.0
  0
LINE
  5
51D
100
AcDbEntity
  8
0
390
0
  6
CONTINUOUS
 62
     3
100
AcDbLine
 10
42.9
 20
-123.8
 30
0.0
 11
42.4
 21
-123.8
 31
0.0
  0
LINE
  5
51E
100
AcDbEntity
  8
0
390
0
  6
CONTINUOUS
 62
   110
100
AcDbLine
 10
-42.4
 20
-123.8
 30
0.0
 11
-42.9
 21
-123.8
 31
0.0
  0
LINE
  5
51F
100
AcDbEntity
  8
0
390
0
  6
CONTINUOUS
 62
     3
100
AcDbLine
 10
30.75
 20
-111.3
 30
0.0
 11
33.0
 21
-111.3
 31
0.0
  0
LINE
  5
520
100
AcDbEntity
  8
0
390
0
  6
CONTINUOUS
 62
     3
100
AcDbLine
 10
22.25
 20
-111.3
 30
0.0
 11
24.5
 21
-111.3
 31
0.0
  0
LINE
  5
521
100
AcDbEntity
  8
0
390
0
  6
CONTINUOUS
 62
     3
100
AcDbLine
 10
13.75
 20
-111.3
 30
0.0
 11
16.0
 21
-111.3
 31
0.0
  0
LINE
  5
522
100
AcDbEntity
  8
0
390
0
  6
CONTINUOUS
 62
     3
100
AcDbLine
 10
5.25
 20
-111.3
 30
0.0
 11
7.5
 21
-111.3
 31
0.0
  0
LINE
  5
523
100
AcDbEntity
  8
0
390
0
  6
CONTINUOUS
 62
     3
100
AcDbLine
 10
-3.25
 20
-111.3
 30
0.0
 11
-1.0
 21
-111.3
 31
0.0
  0
LINE
  5
524
100
AcDbEntity
  8
0
390
0
  6
CONTINUOUS
 62
     3
100
AcDbLine
 10
-11.75
 20
-111.3
 30
0.0
 11
-9.5
 21
-111.3
 31
0.0
  0
LINE
  5
525
100
AcDbEntity
  8
0
390
0
  6
CONTINUOUS
 62
     3
100
AcDbLine
 10
-20.25
 20
-111.3
 30
0.0
 11
-18.0
 21
-111.3
 31
0.0
  0
LINE
  5
526
100
AcDbEntity
  8
0
390
0
  6
CONTINUOUS
 62
     3
100
AcDbLine
 10
-28.75
 20
-111.3
 30
0.0
 11
-26.5
 21
-111.3
 31
0.0
  0
LINE
  5
527
100
AcDbEntity
  8
0
390
0
  6
CONTINUOUS
 62
     3
100
AcDbLine
 10
-37.25
 20
-111.3
 30
0.0
 11
-35.0
 21
-111.3
 31
0.0
  0
LINE
  5
528
100
AcDbEntity
  8
0
390
0
  6
CONTINUOUS
 62
     3
100
AcDbLine
 10
-41.6
 20
-111.3
 30
0.0
 11
-39.25
 21
-111.3
 31
0.0
  0
LINE
  5
529
100
AcDbEntity
  8
0
390
0
  6
CONTINUOUS
 62
     3
100
AcDbLine
 10
-42.4
 20
-123.8
 30
0.0
 11
-6.0
 21
-123.8
 31
0.0
  0
LINE
  5
52A
100
AcDbEntity
  8
0
390
0
  6
CONTINUOUS
 62
     3
100
AcDbLine
 10
6.0
 20
-123.8
 30
0.0
 11
42.4
 21
-123.8
 31
0.0
  0
LINE
  5
52B
100
AcDbEntity
  8
0
390
0
  6
CONTINUOUS
 62
     3
100
AcDbLine
 10
39.25
 20
-111.3
 30
0.0
 11
41.6
 21
-111.3
 31
0.0
  0
LINE
  5
52C
100
AcDbEntity
  8
0
390
0
  6
CONTINUOUS
 62
     3
100
AcDbLine
 10
35.0
 20
-111.3
 30
0.0
 11
37.25
 21
-111.3
 31
0.0
  0
LINE
  5
52D
100
AcDbEntity
  8
0
390
0
  6
CONTINUOUS
 62
     3
100
AcDbLine
 10
26.5
 20
-111.3
 30
0.0
 11
28.75
 21
-111.3
 31
0.0
  0
LINE
  5
52E
100
AcDbEntity
  8
0
390
0
  6
CONTINUOUS
 62
     3
100
AcDbLine
 10
18.0
 20
-111.3
 30
0.0
 11
20.25
 21
-111.3
 31
0.0
  0
LINE
  5
52F
100
AcDbEntity
  8
0
390
0
  6
CONTINUOUS
 62
     3
100
AcDbLine
 10
9.5
 20
-111.3
 30
0.0
 11
11.75
 21
-111.3
 31
0.0
  0
LINE
  5
530
100
AcDbEntity
  8
0
390
0
  6
CONTINUOUS
 62
     3
100
AcDbLine
 10
-7.5
 20
-111.3
 30
0.0
 11
-5.25
 21
-111.3
 31
0.0
  0
LINE
  5
531
100
AcDbEntity
  8
0
390
0
  6
CONTINUOUS
 62
     3
100
AcDbLine
 10
-16.0
 20
-111.3
 30
0.0
 11
-13.75
 21
-111.3
 31
0.0
  0
LINE
  5
532
100
AcDbEntity
  8
0
390
0
  6
CONTINUOUS
 62
     3
100
AcDbLine
 10
-24.5
 20
-111.3
 30
0.0
 11
-22.25
 21
-111.3
 31
0.0
  0
LINE
  5
533
100
AcDbEntity
  8
0
390
0
  6
CONTINUOUS
 62
     3
100
AcDbLine
 10
-33.0
 20
-111.3
 30
0.0
 11
-30.75
 21
-111.3
 31
0.0
  0
LINE
  5
534
100
AcDbEntity
  8
0
390
0
  6
CONTINUOUS
 62
     3
100
AcDbLine
 10
1.0
 20
-111.3
 30
0.0
 11
3.25
 21
-111.3
 31
0.0
  0
LINE
  5
535
100
AcDbEntity
  8
0
390
0
  6
CONTINUOUS
 62
     3
100
AcDbLine
 10
1.1
 20
-117.9
 30
0.0
 11
1.445892
 21
-111.3
 31
0.0
  0
LINE
  5
536
100
AcDbEntity
  8
0
390
0
  6
CONTINUOUS
 62
     3
100
AcDbLine
 10
1.445892
 20
-111.3
 30
0.0
 11
7.054108
 21
-111.3
 31
0.0
  0
LINE
  5
537
100
AcDbEntity
  8
0
390
0
  6
CONTINUOUS
 62
     3
100
AcDbLine
 10
9.945892
 20
-111.3
 30
0.0
 11
15.554108
 21
-111.3
 31
0.0
  0
LINE
  5
538
100
AcDbEntity
  8
0
390
0
  6
CONTINUOUS
 62
     3
100
AcDbLine
 10
18.445892
 20
-111.3
 30
0.0
 11
24.054108
 21
-111.3
 31
0.0
  0
LINE
  5
539
100
AcDbEntity
  8
0
390
0
  6
CONTINUOUS
 62
     3
100
AcDbLine
 10
26.945892
 20
-111.3
 30
0.0
 11
32.554108
 21
-111.3
 31
0.0
  0
LINE
  5
53A
100
AcDbEntity
  8
0
390
0
  6
CONTINUOUS
 62
     3
100
AcDbLine
 10
35.445892
 20
-111.3
 30
0.0
 11
41.054108
 21
-111.3
 31
0.0
  0
LINE
  5
53B
100
AcDbEntity
  8
0
390
0
  6
CONTINUOUS
 62
     3
100
AcDbLine
 10
32.9
 20
-117.9
 30
0.0
 11
35.1
 21
-117.9
 31
0.0
  0
LINE
  5
53C
100
AcDbEntity
  8
0
390
0
  6
CONTINUOUS
 62
     3
100
AcDbLine
 10
15.9
 20
-117.9
 30
0.0
 11
18.1
 21
-117.9
 31
0.0
  0
LINE
  5
53D
100
AcDbEntity
  8
0
390
0
  6
CONTINUOUS
 62
     3
100
AcDbLine
 10
7.4
 20
-117.9
 30
0.0
 11
9.6
 21
-117.9
 31
0.0
  0
LINE
  5
53E
100
AcDbEntity
  8
0
390
0
  6
CONTINUOUS
 62
     3
100
AcDbLine
 10
41.4
 20
-123.8
 30
0.0
 11
8.5
 21
-123.8
 31
0.0
  0
LINE
  5
53F
100
AcDbEntity
  8
0
390
0
  6
CONTINUOUS
 62
     3
100
AcDbLine
 10
7.054108
 20
-111.3
 30
0.0
 11
7.4
 21
-117.9
 31
0.0
  0
LINE
  5
540
100
AcDbEntity
  8
0
390
0
  6
CONTINUOUS
 62
     3
100
AcDbLine
 10
41.4
 20
-123.8
 30
0.0
 11
41.4
 21
-117.9
 31
0.0
  0
LINE
  5
541
100
AcDbEntity
  8
0
390
0
  6
CONTINUOUS
 62
     3
100
AcDbLine
 10
26.6
 20
-117.9
 30
0.0
 11
26.945892
 21
-111.3
 31
0.0
  0
LINE
  5
542
100
AcDbEntity
  8
0
390
0
  6
CONTINUOUS
 62
     3
100
AcDbLine
 10
35.1
 20
-117.9
 30
0.0
 11
35.445892
 21
-111.3
 31
0.0
  0
LINE
  5
543
100
AcDbEntity
  8
0
390
0
  6
CONTINUOUS
 62
     3
100
AcDbLine
 10
8.5
 20
-123.8
 30
0.0
 11
8.5
 21
-119.8
 31
0.0
  0
LINE
  5
544
100
AcDbEntity
  8
0
390
0
  6
CONTINUOUS
 62
     3
100
AcDbLine
 10
9.6
 20
-117.9
 30
0.0
 11
9.945892
 21
-111.3
 31
0.0
  0
LINE
  5
545
100
AcDbEntity
  8
0
390
0
  6
CONTINUOUS
 62
     3
100
AcDbLine
 10
18.1
 20
-117.9
 30
0.0
 11
18.445892
 21
-111.3
 31
0.0
  0
LINE
  5
546
100
AcDbEntity
  8
0
390
0
  6
CONTINUOUS
 62
     3
100
AcDbLine
 10
41.054108
 20
-111.3
 30
0.0
 11
41.4
 21
-117.9
 31
0.0
  0
LINE
  5
547
100
AcDbEntity
  8
0
390
0
  6
CONTINUOUS
 62
     3
100
AcDbLine
 10
15.554108
 20
-111.3
 30
0.0
 11
15.9
 21
-117.9
 31
0.0
  0
LINE
  5
548
100
AcDbEntity
  8
0
390
0
  6
CONTINUOUS
 62
     3
100
AcDbLine
 10
32.554108
 20
-111.3
 30
0.0
 11
32.9
 21
-117.9
 31
0.0
  0
LINE
  5
549
100
AcDbEntity
  8
0
390
0
  6
CONTINUOUS
 62
     3
100
AcDbLine
 10
24.054108
 20
-111.3
 30
0.0
 11
24.4
 21
-117.9
 31
0.0
  0
LINE
  5
54A
100
AcDbEntity
  8
0
390
0
  6
CONTINUOUS
 62
     3
100
AcDbLine
 10
24.4
 20
-117.9
 30
0.0
 11
26.6
 21
-117.9
 31
0.0
  0
LINE
  5
54B
100
AcDbEntity
  8
0
390
0
  6
CONTINUOUS
 62
     3
100
AcDbLine
 10
-24.4
 20
-117.9
 30
0.0
 11
-26.6
 21
-117.9
 31
0.0
  0
LINE
  5
54C
100
AcDbEntity
  8
0
390
0
  6
CONTINUOUS
 62
     3
100
AcDbLine
 10
-24.054108
 20
-111.3
 30
0.0
 11
-24.4
 21
-117.9
 31
0.0
  0
LINE
  5
54D
100
AcDbEntity
  8
0
390
0
  6
CONTINUOUS
 62
     3
100
AcDbLine
 10
-32.554108
 20
-111.3
 30
0.0
 11
-32.9
 21
-117.9
 31
0.0
  0
LINE
  5
54E
100
AcDbEntity
  8
0
390
0
  6
CONTINUOUS
 62
     3
100
AcDbLine
 10
-15.554108
 20
-111.3
 30
0.0
 11
-15.9
 21
-117.9
 31
0.0
  0
LINE
  5
54F
100
AcDbEntity
  8
0
390
0
  6
CONTINUOUS
 62
     3
100
AcDbLine
 10
-41.054108
 20
-111.3
 30
0.0
 11
-41.4
 21
-117.9
 31
0.0
  0
LINE
  5
550
100
AcDbEntity
  8
0
390
0
  6
CONTINUOUS
 62
     3
100
AcDbLine
 10
-18.1
 20
-117.9
 30
0.0
 11
-18.445892
 21
-111.3
 31
0.0
  0
LINE
  5
551
100
AcDbEntity
  8
0
390
0
  6
CONTINUOUS
 62
     3
100
AcDbLine
 10
-9.6
 20
-117.9
 30
0.0
 11
-9.945892
 21
-111.3
 31
0.0
  0
LINE
  5
552
100
AcDbEntity
  8
0
390
0
  6
CONTINUOUS
 62
     3
100
AcDbLine
 10
-1.1
 20
-117.9
 30
0.0
 11
-1.445892
 21
-111.3
 31
0.0
  0
LINE
  5
553
100
AcDbEntity
  8
0
390
0
  6
CONTINUOUS
 62
     3
100
AcDbLine
 10
-8.5
 20
-123.8
 30
0.0
 11
-8.5
 21
-119.8
 31
0.0
  0
LINE
  5
554
100
AcDbEntity
  8
0
390
0
  6
CONTINUOUS
 62
     3
100
AcDbLine
 10
-35.1
 20
-117.9
 30
0.0
 11
-35.445892
 21
-111.3
 31
0.0
  0
LINE
  5
555
100
AcDbEntity
  8
0
390
0
  6
CONTINUOUS
 62
     3
100
AcDbLine
 10
-26.6
 20
-117.9
 30
0.0
 11
-26.945892
 21
-111.3
 31
0.0
  0
LINE
  5
556
100
AcDbEntity
  8
0
390
0
  6
CONTINUOUS
 62
     3
100
AcDbLine
 10
-41.4
 20
-123.8
 30
0.0
 11
-41.4
 21
-117.9
 31
0.0
  0
LINE
  5
557
100
AcDbEntity
  8
0
390
0
  6
CONTINUOUS
 62
     3
100
AcDbLine
 10
-7.054108
 20
-111.3
 30
0.0
 11
-7.4
 21
-117.9
 31
0.0
  0
LINE
  5
558
100
AcDbEntity
  8
0
390
0
  6
CONTINUOUS
 62
     3
100
AcDbLine
 10
-41.4
 20
-123.8
 30
0.0
 11
-8.5
 21
-123.8
 31
0.0
  0
LINE
  5
559
100
AcDbEntity
  8
0
390
0
  6
CONTINUOUS
 62
     3
100
AcDbLine
 10
-7.4
 20
-117.9
 30
0.0
 11
-9.6
 21
-117.9
 31
0.0
  0
LINE
  5
55A
100
AcDbEntity
  8
0
390
0
  6
CONTINUOUS
 62
     3
100
AcDbLine
 10
-15.9
 20
-117.9
 30
0.0
 11
-18.1
 21
-117.9
 31
0.0
  0
LINE
  5
55B
100
AcDbEntity
  8
0
390
0
  6
CONTINUOUS
 62
     3
100
AcDbLine
 10
-8.5
 20
-119.8
 30
0.0
 11
0.0
 21
-119.8
 31
0.0
  0
LINE
  5
55C
100
AcDbEntity
  8
0
390
0
  6
CONTINUOUS
 62
     3
100
AcDbLine
 10
-32.9
 20
-117.9
 30
0.0
 11
-35.1
 21
-117.9
 31
0.0
  0
LINE
  5
55D
100
AcDbEntity
  8
0
390
0
  6
CONTINUOUS
 62
     3
100
AcDbLine
 10
-35.445892
 20
-111.3
 30
0.0
 11
-41.054108
 21
-111.3
 31
0.0
  0
LINE
  5
55E
100
AcDbEntity
  8
0
390
0
  6
CONTINUOUS
 62
     3
100
AcDbLine
 10
-26.945892
 20
-111.3
 30
0.0
 11
-32.554108
 21
-111.3
 31
0.0
  0
LINE
  5
55F
100
AcDbEntity
  8
0
390
0
  6
CONTINUOUS
 62
     3
100
AcDbLine
 10
-18.445892
 20
-111.3
 30
0.0
 11
-24.054108
 21
-111.3
 31
0.0
  0
LINE
  5
560
100
AcDbEntity
  8
0
390
0
  6
CONTINUOUS
 62
     3
100
AcDbLine
 10
-9.945892
 20
-111.3
 30
0.0
 11
-15.554108
 21
-111.3
 31
0.0
  0
LINE
  5
561
100
AcDbEntity
  8
0
390
0
  6
CONTINUOUS
 62
     3
100
AcDbLine
 10
-1.445892
 20
-111.3
 30
0.0
 11
-7.054108
 21
-111.3
 31
0.0
  0
LINE
  5
562
100
AcDbEntity
  8
0
390
0
  6
CONTINUOUS
 62
     3
100
AcDbLine
 10
0.0
 20
-117.9
 30
0.0
 11
-1.1
 21
-117.9
 31
0.0
  0
LINE
  5
563
100
AcDbEntity
  8
0
390
0
  6
CONTINUOUS
 62
     3
100
AcDbLine
 10
8.5
 20
-119.8
 30
0.0
 11
0.0
 21
-119.8
 31
0.0
  0
LINE
  5
564
100
AcDbEntity
  8
0
390
0
  6
CONTINUOUS
 62
     3
100
AcDbLine
 10
0.0
 20
-117.9
 30
0.0
 11
1.1
 21
-117.9
 31
0.0
  0
LINE
  5
565
100
AcDbEntity
  8
0
390
0
  6
CONTINUOUS
 62
     3
100
AcDbLine
 10
-41.3
 20
-105.7
 30
0.0
 11
-41.4
 21
-103.7
 31
0.0
  0
LINE
  5
566
100
AcDbEntity
  8
0
390
0
  6
CONTINUOUS
 62
     3
100
AcDbLine
 10
-41.3
 20
-105.7
 30
0.0
 11
-35.2
 21
-105.7
 31
0.0
  0
LINE
  5
567
100
AcDbEntity
  8
0
390
0
  6
CONTINUOUS
 62
     3
100
AcDbLine
 10
-35.1
 20
-103.7
 30
0.0
 11
-35.2
 21
-105.7
 31
0.0
  0
LINE
  5
568
100
AcDbEntity
  8
0
390
0
  6
CONTINUOUS
 62
     3
100
AcDbLine
 10
-32.8
 20
-105.7
 30
0.0
 11
-32.9
 21
-103.7
 31
0.0
  0
LINE
  5
569
100
AcDbEntity
  8
0
390
0
  6
CONTINUOUS
 62
     3
100
AcDbLine
 10
-32.8
 20
-105.7
 30
0.0
 11
-26.7
 21
-105.7
 31
0.0
  0
LINE
  5
56A
100
AcDbEntity
  8
0
390
0
  6
CONTINUOUS
 62
     3
100
AcDbLine
 10
-26.6
 20
-103.7
 30
0.0
 11
-26.7
 21
-105.7
 31
0.0
  0
LINE
  5
56B
100
AcDbEntity
  8
0
390
0
  6
CONTINUOUS
 62
     3
100
AcDbLine
 10
-26.6
 20
-103.7
 30
0.0
 11
-24.4
 21
-103.7
 31
0.0
  0
LINE
  5
56C
100
AcDbEntity
  8
0
390
0
  6
CONTINUOUS
 62
     3
100
AcDbLine
 10
-24.3
 20
-105.7
 30
0.0
 11
-24.4
 21
-103.7
 31
0.0
  0
LINE
  5
56D
100
AcDbEntity
  8
0
390
0
  6
CONTINUOUS
 62
     3
100
AcDbLine
 10
-24.3
 20
-105.7
 30
0.0
 11
-18.2
 21
-105.7
 31
0.0
  0
LINE
  5
56E
100
AcDbEntity
  8
0
390
0
  6
CONTINUOUS
 62
     3
100
AcDbLine
 10
-18.1
 20
-103.7
 30
0.0
 11
-18.2
 21
-105.7
 31
0.0
  0
LINE
  5
56F
100
AcDbEntity
  8
0
390
0
  6
CONTINUOUS
 62
     3
100
AcDbLine
 10
-18.1
 20
-103.7
 30
0.0
 11
-17.0
 21
-103.7
 31
0.0
  0
LINE
  5
570
100
AcDbEntity
  8
0
390
0
  6
CONTINUOUS
 62
     3
100
AcDbLine
 10
-41.4
 20
-103.7
 30
0.0
 11
-41.4
 21
-102.7
 31
0.0
  0
LINE
  5
571
100
AcDbEntity
  8
0
390
0
  6
CONTINUOUS
 62
     3
100
AcDbLine
 10
-35.1
 20
-103.7
 30
0.0
 11
-32.9
 21
-103.7
 31
0.0
  0
LINE
  5
572
100
AcDbEntity
  8
0
390
0
  6
CONTINUOUS
 62
     3
100
AcDbLine
 10
-17.0
 20
-102.7
 30
0.0
 11
-41.4
 21
-102.7
 31
0.0
  0
LINE
  5
573
100
AcDbEntity
  8
0
390
0
  6
CONTINUOUS
 62
     3
100
AcDbLine
 10
18.2
 20
-105.7
 30
0.0
 11
18.1
 21
-103.7
 31
0.0
  0
LINE
  5
574
100
AcDbEntity
  8
0
390
0
  6
CONTINUOUS
 62
     3
100
AcDbLine
 10
18.2
 20
-105.7
 30
0.0
 11
24.3
 21
-105.7
 31
0.0
  0
LINE
  5
575
100
AcDbEntity
  8
0
390
0
  6
CONTINUOUS
 62
     3
100
AcDbLine
 10
24.4
 20
-103.7
 30
0.0
 11
26.6
 21
-103.7
 31
0.0
  0
LINE
  5
576
100
AcDbEntity
  8
0
390
0
  6
CONTINUOUS
 62
     3
100
AcDbLine
 10
26.7
 20
-105.7
 30
0.0
 11
26.6
 21
-103.7
 31
0.0
  0
LINE
  5
577
100
AcDbEntity
  8
0
390
0
  6
CONTINUOUS
 62
     3
100
AcDbLine
 10
26.7
 20
-105.7
 30
0.0
 11
32.8
 21
-105.7
 31
0.0
  0
LINE
  5
578
100
AcDbEntity
  8
0
390
0
  6
CONTINUOUS
 62
     3
100
AcDbLine
 10
32.9
 20
-103.7
 30
0.0
 11
32.8
 21
-105.7
 31
0.0
  0
LINE
  5
579
100
AcDbEntity
  8
0
390
0
  6
CONTINUOUS
 62
     3
100
AcDbLine
 10
35.2
 20
-105.7
 30
0.0
 11
41.3
 21
-105.7
 31
0.0
  0
LINE
  5
57A
100
AcDbEntity
  8
0
390
0
  6
CONTINUOUS
 62
     3
100
AcDbLine
 10
24.4
 20
-103.7
 30
0.0
 11
24.3
 21
-105.7
 31
0.0
  0
LINE
  5
57B
100
AcDbEntity
  8
0
390
0
  6
CONTINUOUS
 62
     3
100
AcDbLine
 10
17.0
 20
-103.7
 30
0.0
 11
18.1
 21
-103.7
 31
0.0
  0
LINE
  5
57C
100
AcDbEntity
  8
0
390
0
  6
CONTINUOUS
 62
     3
100
AcDbLine
 10
41.4
 20
-102.7
 30
0.0
 11
17.0
 21
-102.7
 31
0.0
  0
LINE
  5
57D
100
AcDbEntity
  8
0
390
0
  6
CONTINUOUS
 62
     3
100
AcDbLine
 10
32.9
 20
-103.7
 30
0.0
 11
35.1
 21
-103.7
 31
0.0
  0
LINE
  5
57E
100
AcDbEntity
  8
0
390
0
  6
CONTINUOUS
 62
     3
100
AcDbLine
 10
41.4
 20
-103.7
 30
0.0
 11
41.4
 21
-102.7
 31
0.0
  0
LINE
  5
57F
100
AcDbEntity
  8
0
390
0
  6
CONTINUOUS
 62
     3
100
AcDbLine
 10
41.4
 20
-103.7
 30
0.0
 11
41.3
 21
-105.7
 31
0.0
  0
LINE
  5
580
100
AcDbEntity
  8
0
390
0
  6
CONTINUOUS
 62
     3
100
AcDbLine
 10
35.2
 20
-105.7
 30
0.0
 11
35.1
 21
-103.7
 31
0.0
  0
LINE
  5
581
100
AcDbEntity
  8
0
390
0
  6
CONTINUOUS
 62
     3
100
AcDbLine
 10
41.6
 20
-102.7
 30
0.0
 11
41.4
 21
-102.7
 31
0.0
  0
LINE
  5
582
100
AcDbEntity
  8
0
390
0
  6
CONTINUOUS
 62
     3
100
AcDbLine
 10
-41.4
 20
-102.7
 30
0.0
 11
-41.6
 21
-102.7
 31
0.0
  0
LINE
  5
583
100
AcDbEntity
  8
0
390
0
  6
CONTINUOUS
 62
     3
100
AcDbLine
 10
15.25
 20
-105.700003
 30
0.0
 11
15.8
 21
-105.7
 31
0.0
  0
LINE
  5
584
100
AcDbEntity
  8
0
390
0
  6
CONTINUOUS
 62
     3
100
AcDbLine
 10
15.8
 20
-105.7
 30
0.0
 11
15.9
 21
-103.7
 31
0.0
  0
LINE
  5
585
100
AcDbEntity
  8
0
390
0
  6
CONTINUOUS
 62
     3
100
AcDbLine
 10
15.9
 20
-103.7
 30
0.0
 11
17.0
 21
-103.7
 31
0.0
  0
LINE
  5
586
100
AcDbEntity
  8
0
390
0
  6
CONTINUOUS
 62
     3
100
AcDbLine
 10
17.0
 20
-102.7
 30
0.0
 11
15.25
 21
-102.7
 31
0.0
  0
LINE
  5
587
100
AcDbEntity
  8
0
390
0
  6
CONTINUOUS
 62
     3
100
AcDbLine
 10
-6.5
 20
-105.700003
 30
0.0
 11
-6.75
 21
-105.700003
 31
0.0
  0
LINE
  5
588
100
AcDbEntity
  8
0
390
0
  6
CONTINUOUS
 62
     3
100
AcDbLine
 10
-1.75
 20
-105.700003
 30
0.0
 11
-2.0
 21
-105.700003
 31
0.0
  0
LINE
  5
589
100
AcDbEntity
  8
0
390
0
  6
CONTINUOUS
 62
     3
100
AcDbLine
 10
-1.75
 20
-102.7
 30
0.0
 11
-6.75
 21
-102.7
 31
0.0
  0
LINE
  5
58A
100
AcDbEntity
  8
0
390
0
  6
CONTINUOUS
 62
     3
100
AcDbLine
 10
2.0
 20
-105.700003
 30
0.0
 11
1.75
 21
-105.700003
 31
0.0
  0
LINE
  5
58B
100
AcDbEntity
  8
0
390
0
  6
CONTINUOUS
 62
     3
100
AcDbLine
 10
6.75
 20
-105.700003
 30
0.0
 11
6.5
 21
-105.700003
 31
0.0
  0
LINE
  5
58C
100
AcDbEntity
  8
0
390
0
  6
CONTINUOUS
 62
     3
100
AcDbLine
 10
6.75
 20
-102.7
 30
0.0
 11
1.75
 21
-102.7
 31
0.0
  0
LINE
  5
58D
100
AcDbEntity
  8
0
390
0
  6
CONTINUOUS
 62
     3
100
AcDbLine
 10
-7.3
 20
-105.7
 30
0.0
 11
-6.75
 21
-105.700003
 31
0.0
  0
LINE
  5
58E
100
AcDbEntity
  8
0
390
0
  6
CONTINUOUS
 62
     3
100
AcDbLine
 10
-7.4
 20
-103.7
 30
0.0
 11
-7.3
 21
-105.7
 31
0.0
  0
LINE
  5
58F
100
AcDbEntity
  8
0
390
0
  6
CONTINUOUS
 62
     3
100
AcDbLine
 10
-9.7
 20
-105.7
 30
0.0
 11
-9.6
 21
-103.7
 31
0.0
  0
LINE
  5
590
100
AcDbEntity
  8
0
390
0
  6
CONTINUOUS
 62
     3
100
AcDbLine
 10
-9.6
 20
-103.7
 30
0.0
 11
-7.4
 21
-103.7
 31
0.0
  0
LINE
  5
591
100
AcDbEntity
  8
0
390
0
  6
CONTINUOUS
 62
     3
100
AcDbLine
 10
-10.25
 20
-105.700003
 30
0.0
 11
-9.7
 21
-105.7
 31
0.0
  0
LINE
  5
592
100
AcDbEntity
  8
0
390
0
  6
CONTINUOUS
 62
     3
100
AcDbLine
 10
-6.75
 20
-102.7
 30
0.0
 11
-10.25
 21
-102.7
 31
0.0
  0
LINE
  5
593
100
AcDbEntity
  8
0
390
0
  6
CONTINUOUS
 62
     3
100
AcDbLine
 10
-1.75
 20
-105.700003
 30
0.0
 11
-1.2
 21
-105.7
 31
0.0
  0
LINE
  5
594
100
AcDbEntity
  8
0
390
0
  6
CONTINUOUS
 62
     3
100
AcDbLine
 10
-1.2
 20
-105.7
 30
0.0
 11
-1.1
 21
-103.7
 31
0.0
  0
LINE
  5
595
100
AcDbEntity
  8
0
390
0
  6
CONTINUOUS
 62
     3
100
AcDbLine
 10
1.2
 20
-105.7
 30
0.0
 11
1.75
 21
-105.700003
 31
0.0
  0
LINE
  5
596
100
AcDbEntity
  8
0
390
0
  6
CONTINUOUS
 62
     3
100
AcDbLine
 10
1.1
 20
-103.7
 30
0.0
 11
1.2
 21
-105.7
 31
0.0
  0
LINE
  5
597
100
AcDbEntity
  8
0
390
0
  6
CONTINUOUS
 62
     3
100
AcDbLine
 10
-1.1
 20
-103.7
 30
0.0
 11
1.1
 21
-103.7
 31
0.0
  0
LINE
  5
598
100
AcDbEntity
  8
0
390
0
  6
CONTINUOUS
 62
     3
100
AcDbLine
 10
1.75
 20
-102.7
 30
0.0
 11
-1.75
 21
-102.7
 31
0.0
  0
LINE
  5
599
100
AcDbEntity
  8
0
390
0
  6
CONTINUOUS
 62
     3
100
AcDbLine
 10
-15.9
 20
-103.7
 30
0.0
 11
-15.8
 21
-105.7
 31
0.0
  0
LINE
  5
59A
100
AcDbEntity
  8
0
390
0
  6
CONTINUOUS
 62
     3
100
AcDbLine
 10
-15.8
 20
-105.7
 30
0.0
 11
-15.25
 21
-105.700003
 31
0.0
  0
LINE
  5
59B
100
AcDbEntity
  8
0
390
0
  6
CONTINUOUS
 62
     3
100
AcDbLine
 10
-17.0
 20
-103.7
 30
0.0
 11
-15.9
 21
-103.7
 31
0.0
  0
LINE
  5
59C
100
AcDbEntity
  8
0
390
0
  6
CONTINUOUS
 62
     3
100
AcDbLine
 10
-15.25
 20
-102.7
 30
0.0
 11
-17.0
 21
-102.7
 31
0.0
  0
LINE
  5
59D
100
AcDbEntity
  8
0
390
0
  6
CONTINUOUS
 62
     3
100
AcDbLine
 10
15.25
 20
-105.700003
 30
0.0
 11
15.0
 21
-105.700003
 31
0.0
  0
LINE
  5
59E
100
AcDbEntity
  8
0
390
0
  6
CONTINUOUS
 62
     3
100
AcDbLine
 10
10.5
 20
-105.700003
 30
0.0
 11
10.25
 21
-105.700003
 31
0.0
  0
LINE
  5
59F
100
AcDbEntity
  8
0
390
0
  6
CONTINUOUS
 62
     3
100
AcDbLine
 10
15.25
 20
-102.7
 30
0.0
 11
10.25
 21
-102.7
 31
0.0
  0
LINE
  5
5A0
100
AcDbEntity
  8
0
390
0
  6
CONTINUOUS
 62
     3
100
AcDbLine
 10
9.6
 20
-103.7
 30
0.0
 11
9.7
 21
-105.7
 31
0.0
  0
LINE
  5
5A1
100
AcDbEntity
  8
0
390
0
  6
CONTINUOUS
 62
     3
100
AcDbLine
 10
7.4
 20
-103.7
 30
0.0
 11
9.6
 21
-103.7
 31
0.0
  0
LINE
  5
5A2
100
AcDbEntity
  8
0
390
0
  6
CONTINUOUS
 62
     3
100
AcDbLine
 10
6.75
 20
-105.700003
 30
0.0
 11
7.3
 21
-105.7
 31
0.0
  0
LINE
  5
5A3
100
AcDbEntity
  8
0
390
0
  6
CONTINUOUS
 62
     3
100
AcDbLine
 10
7.3
 20
-105.7
 30
0.0
 11
7.4
 21
-103.7
 31
0.0
  0
LINE
  5
5A4
100
AcDbEntity
  8
0
390
0
  6
CONTINUOUS
 62
     3
100
AcDbLine
 10
9.7
 20
-105.7
 30
0.0
 11
10.25
 21
-105.700003
 31
0.0
  0
LINE
  5
5A5
100
AcDbEntity
  8
0
390
0
  6
CONTINUOUS
 62
     3
100
AcDbLine
 10
10.25
 20
-102.7
 30
0.0
 11
6.75
 21
-102.7
 31
0.0
  0
LINE
  5
5A6
100
AcDbEntity
  8
0
390
0
  6
CONTINUOUS
 62
     3
100
AcDbLine
 10
-10.25
 20
-105.700003
 30
0.0
 11
-10.5
 21
-105.700003
 31
0.0
  0
LINE
  5
5A7
100
AcDbEntity
  8
0
390
0
  6
CONTINUOUS
 62
     3
100
AcDbLine
 10
-15.0
 20
-105.700003
 30
0.0
 11
-15.25
 21
-105.700003
 31
0.0
  0
LINE
  5
5A8
100
AcDbEntity
  8
0
390
0
  6
CONTINUOUS
 62
     3
100
AcDbLine
 10
-10.25
 20
-102.7
 30
0.0
 11
-15.25
 21
-102.7
 31
0.0
  0
LINE
  5
5A9
100
AcDbEntity
  8
0
390
0
  6
CONTINUOUS
 62
     3
100
AcDbLine
 10
-2.0
 20
-105.7
 30
0.0
 11
-6.5
 21
-105.7
 31
0.0
  0
LINE
  5
5AA
100
AcDbEntity
  8
0
390
0
  6
CONTINUOUS
 62
     3
100
AcDbLine
 10
15.0
 20
-105.7
 30
0.0
 11
10.5
 21
-105.7
 31
0.0
  0
LINE
  5
5AB
100
AcDbEntity
  8
0
390
0
  6
CONTINUOUS
 62
     3
100
AcDbLine
 10
6.5
 20
-105.7
 30
0.0
 11
2.0
 21
-105.7
 31
0.0
  0
LINE
  5
5AC
100
AcDbEntity
  8
0
390
0
  6
CONTINUOUS
 62
     3
100
AcDbLine
 10
-10.5
 20
-105.7
 30
0.0
 11
-15.0
 21
-105.7
 31
0.0
  0
LINE
  5
5AD
100
AcDbEntity
  8
0
390
0
  6
CONTINUOUS
 62
     3
100
AcDbLine
 10
35.25
 20
-111.3
 30
0.0
 11
41.25
 21
-111.3
 31
0.0
  0
LINE
  5
5AE
100
AcDbEntity
  8
0
390
0
  6
CONTINUOUS
 62
     3
100
AcDbLine
 10
35.25
 20
-110.3
 30
0.0
 11
41.25
 21
-110.3
 31
0.0
  0
LINE
  5
5AF
100
AcDbEntity
  8
0
390
0
  6
CONTINUOUS
 62
     3
100
AcDbLine
 10
35.499983
 20
-109.8
 30
0.0
 11
40.999972
 21
-109.8
 31
0.0
  0
LINE
  5
5B0
100
AcDbEntity
  8
0
390
0
  6
CONTINUOUS
 62
     3
100
AcDbLine
 10
35.25
 20
-111.3
 30
0.0
 11
35.25
 21
-110.3
 31
0.0
  0
LINE
  5
5B1
100
AcDbEntity
  8
0
390
0
  6
CONTINUOUS
 62
     3
100
AcDbLine
 10
41.25
 20
-111.3
 30
0.0
 11
41.25
 21
-110.3
 31
0.0
  0
LINE
  5
5B2
100
AcDbEntity
  8
0
390
0
  6
CONTINUOUS
 62
     3
100
AcDbLine
 10
35.75
 20
-110.3
 30
0.0
 11
35.75
 21
-109.8
 31
0.0
  0
LINE
  5
5B3
100
AcDbEntity
  8
0
390
0
  6
CONTINUOUS
 62
     3
100
AcDbLine
 10
40.75
 20
-110.3
 30
0.0
 11
40.75
 21
-109.8
 31
0.0
  0
INSERT
  5
5B4
100
AcDbEntity
  8
0
390
0
  6
ByBlock
 62
   110
100
AcDbBlockReference
  2
$SYMTB004-46
 10
38.25
 20
-109.8
 30
0.0
 50
270.0
  0
LINE
  5
5B5
100
AcDbEntity
  8
0
390
0
  6
CONTINUOUS
 62
     3
100
AcDbLine
 10
26.75
 20
-111.3
 30
0.0
 11
32.75
 21
-111.3
 31
0.0
  0
LINE
  5
5B6
100
AcDbEntity
  8
0
390
0
  6
CONTINUOUS
 62
     3
100
AcDbLine
 10
26.75
 20
-110.3
 30
0.0
 11
32.75
 21
-110.3
 31
0.0
  0
LINE
  5
5B7
100
AcDbEntity
  8
0
390
0
  6
CONTINUOUS
 62
     3
100
AcDbLine
 10
26.999983
 20
-109.8
 30
0.0
 11
32.499972
 21
-109.8
 31
0.0
  0
LINE
  5
5B8
100
AcDbEntity
  8
0
390
0
  6
CONTINUOUS
 62
     3
100
AcDbLine
 10
26.75
 20
-111.3
 30
0.0
 11
26.75
 21
-110.3
 31
0.0
  0
LINE
  5
5B9
100
AcDbEntity
  8
0
390
0
  6
CONTINUOUS
 62
     3
100
AcDbLine
 10
32.75
 20
-111.3
 30
0.0
 11
32.75
 21
-110.3
 31
0.0
  0
LINE
  5
5BA
100
AcDbEntity
  8
0
390
0
  6
CONTINUOUS
 62
     3
100
AcDbLine
 10
27.25
 20
-110.3
 30
0.0
 11
27.25
 21
-109.8
 31
0.0
  0
LINE
  5
5BB
100
AcDbEntity
  8
0
390
0
  6
CONTINUOUS
 62
     3
100
AcDbLine
 10
32.25
 20
-110.3
 30
0.0
 11
32.25
 21
-109.8
 31
0.0
  0
INSERT
  5
5BC
100
AcDbEntity
  8
0
390
0
  6
ByBlock
 62
   110
100
AcDbBlockReference
  2
$SYMTB004-46
 10
29.75
 20
-109.8
 30
0.0
 50
270.0
  0
LINE
  5
5BD
100
AcDbEntity
  8
0
390
0
  6
CONTINUOUS
 62
     3
100
AcDbLine
 10
18.25
 20
-111.3
 30
0.0
 11
24.25
 21
-111.3
 31
0.0
  0
LINE
  5
5BE
100
AcDbEntity
  8
0
390
0
  6
CONTINUOUS
 62
     3
100
AcDbLine
 10
18.25
 20
-110.3
 30
0.0
 11
24.25
 21
-110.3
 31
0.0
  0
LINE
  5
5BF
100
AcDbEntity
  8
0
390
0
  6
CONTINUOUS
 62
     3
100
AcDbLine
 10
18.499983
 20
-109.8
 30
0.0
 11
23.999972
 21
-109.8
 31
0.0
  0
LINE
  5
5C0
100
AcDbEntity
  8
0
390
0
  6
CONTINUOUS
 62
     3
100
AcDbLine
 10
18.25
 20
-111.3
 30
0.0
 11
18.25
 21
-110.3
 31
0.0
  0
LINE
  5
5C1
100
AcDbEntity
  8
0
390
0
  6
CONTINUOUS
 62
     3
100
AcDbLine
 10
24.25
 20
-111.3
 30
0.0
 11
24.25
 21
-110.3
 31
0.0
  0
LINE
  5
5C2
100
AcDbEntity
  8
0
390
0
  6
CONTINUOUS
 62
     3
100
AcDbLine
 10
18.75
 20
-110.3
 30
0.0
 11
18.75
 21
-109.8
 31
0.0
  0
LINE
  5
5C3
100
AcDbEntity
  8
0
390
0
  6
CONTINUOUS
 62
     3
100
AcDbLine
 10
23.75
 20
-110.3
 30
0.0
 11
23.75
 21
-109.8
 31
0.0
  0
INSERT
  5
5C4
100
AcDbEntity
  8
0
390
0
  6
ByBlock
 62
   110
100
AcDbBlockReference
  2
$SYMTB004-46
 10
21.25
 20
-109.8
 30
0.0
 50
270.0
  0
LINE
  5
5C5
100
AcDbEntity
  8
0
390
0
  6
CONTINUOUS
 62
     3
100
AcDbLine
 10
9.75
 20
-111.3
 30
0.0
 11
15.75
 21
-111.3
 31
0.0
  0
LINE
  5
5C6
100
AcDbEntity
  8
0
390
0
  6
CONTINUOUS
 62
     3
100
AcDbLine
 10
9.75
 20
-110.3
 30
0.0
 11
15.75
 21
-110.3
 31
0.0
  0
LINE
  5
5C7
100
AcDbEntity
  8
0
390
0
  6
CONTINUOUS
 62
     3
100
AcDbLine
 10
9.999983
 20
-109.8
 30
0.0
 11
15.499972
 21
-109.8
 31
0.0
  0
LINE
  5
5C8
100
AcDbEntity
  8
0
390
0
  6
CONTINUOUS
 62
     3
100
AcDbLine
 10
9.75
 20
-111.3
 30
0.0
 11
9.75
 21
-110.3
 31
0.0
  0
LINE
  5
5C9
100
AcDbEntity
  8
0
390
0
  6
CONTINUOUS
 62
     3
100
AcDbLine
 10
15.75
 20
-111.3
 30
0.0
 11
15.75
 21
-110.3
 31
0.0
  0
LINE
  5
5CA
100
AcDbEntity
  8
0
390
0
  6
CONTINUOUS
 62
     3
100
AcDbLine
 10
10.25
 20
-110.3
 30
0.0
 11
10.25
 21
-109.8
 31
0.0
  0
LINE
  5
5CB
100
AcDbEntity
  8
0
390
0
  6
CONTINUOUS
 62
     3
100
AcDbLine
 10
15.25
 20
-110.3
 30
0.0
 11
15.25
 21
-109.8
 31
0.0
  0
INSERT
  5
5CC
100
AcDbEntity
  8
0
390
0
  6
ByBlock
 62
   110
100
AcDbBlockReference
  2
$SYMTB004-46
 10
12.75
 20
-109.8
 30
0.0
 50
270.0
  0
LINE
  5
5CD
100
AcDbEntity
  8
0
390
0
  6
CONTINUOUS
 62
     3
100
AcDbLine
 10
1.25
 20
-111.3
 30
0.0
 11
7.25
 21
-111.3
 31
0.0
  0
LINE
  5
5CE
100
AcDbEntity
  8
0
390
0
  6
CONTINUOUS
 62
     3
100
AcDbLine
 10
1.25
 20
-110.3
 30
0.0
 11
7.25
 21
-110.3
 31
0.0
  0
LINE
  5
5CF
100
AcDbEntity
  8
0
390
0
  6
CONTINUOUS
 62
     3
100
AcDbLine
 10
1.499983
 20
-109.8
 30
0.0
 11
6.999972
 21
-109.8
 31
0.0
  0
LINE
  5
5D0
100
AcDbEntity
  8
0
390
0
  6
CONTINUOUS
 62
     3
100
AcDbLine
 10
1.25
 20
-111.3
 30
0.0
 11
1.25
 21
-110.3
 31
0.0
  0
LINE
  5
5D1
100
AcDbEntity
  8
0
390
0
  6
CONTINUOUS
 62
     3
100
AcDbLine
 10
7.25
 20
-111.3
 30
0.0
 11
7.25
 21
-110.3
 31
0.0
  0
LINE
  5
5D2
100
AcDbEntity
  8
0
390
0
  6
CONTINUOUS
 62
     3
100
AcDbLine
 10
1.75
 20
-110.3
 30
0.0
 11
1.75
 21
-109.8
 31
0.0
  0
LINE
  5
5D3
100
AcDbEntity
  8
0
390
0
  6
CONTINUOUS
 62
     3
100
AcDbLine
 10
6.75
 20
-110.3
 30
0.0
 11
6.75
 21
-109.8
 31
0.0
  0
INSERT
  5
5D4
100
AcDbEntity
  8
0
390
0
  6
ByBlock
 62
   110
100
AcDbBlockReference
  2
$SYMTB004-46
 10
4.25
 20
-109.8
 30
0.0
 50
270.0
  0
LINE
  5
5D5
100
AcDbEntity
  8
0
390
0
  6
CONTINUOUS
 62
     3
100
AcDbLine
 10
-7.25
 20
-111.3
 30
0.0
 11
-1.25
 21
-111.3
 31
0.0
  0
LINE
  5
5D6
100
AcDbEntity
  8
0
390
0
  6
CONTINUOUS
 62
     3
100
AcDbLine
 10
-7.25
 20
-110.3
 30
0.0
 11
-1.25
 21
-110.3
 31
0.0
  0
LINE
  5
5D7
100
AcDbEntity
  8
0
390
0
  6
CONTINUOUS
 62
     3
100
AcDbLine
 10
-7.000017
 20
-109.8
 30
0.0
 11
-1.500028
 21
-109.8
 31
0.0
  0
LINE
  5
5D8
100
AcDbEntity
  8
0
390
0
  6
CONTINUOUS
 62
     3
100
AcDbLine
 10
-7.25
 20
-111.3
 30
0.0
 11
-7.25
 21
-110.3
 31
0.0
  0
LINE
  5
5D9
100
AcDbEntity
  8
0
390
0
  6
CONTINUOUS
 62
     3
100
AcDbLine
 10
-1.25
 20
-111.3
 30
0.0
 11
-1.25
 21
-110.3
 31
0.0
  0
LINE
  5
5DA
100
AcDbEntity
  8
0
390
0
  6
CONTINUOUS
 62
     3
100
AcDbLine
 10
-6.75
 20
-110.3
 30
0.0
 11
-6.75
 21
-109.8
 31
0.0
  0
LINE
  5
5DB
100
AcDbEntity
  8
0
390
0
  6
CONTINUOUS
 62
     3
100
AcDbLine
 10
-1.75
 20
-110.3
 30
0.0
 11
-1.75
 21
-109.8
 31
0.0
  0
INSERT
  5
5DC
100
AcDbEntity
  8
0
390
0
  6
ByBlock
 62
   110
100
AcDbBlockReference
  2
$SYMTB004-46
 10
-4.25
 20
-109.8
 30
0.0
 50
270.0
  0
LINE
  5
5DD
100
AcDbEntity
  8
0
390
0
  6
CONTINUOUS
 62
     3
100
AcDbLine
 10
-15.75
 20
-111.3
 30
0.0
 11
-9.75
 21
-111.3
 31
0.0
  0
LINE
  5
5DE
100
AcDbEntity
  8
0
390
0
  6
CONTINUOUS
 62
     3
100
AcDbLine
 10
-15.75
 20
-110.3
 30
0.0
 11
-9.75
 21
-110.3
 31
0.0
  0
LINE
  5
5DF
100
AcDbEntity
  8
0
390
0
  6
CONTINUOUS
 62
     3
100
AcDbLine
 10
-15.500017
 20
-109.8
 30
0.0
 11
-10.000028
 21
-109.8
 31
0.0
  0
LINE
  5
5E0
100
AcDbEntity
  8
0
390
0
  6
CONTINUOUS
 62
     3
100
AcDbLine
 10
-15.75
 20
-111.3
 30
0.0
 11
-15.75
 21
-110.3
 31
0.0
  0
LINE
  5
5E1
100
AcDbEntity
  8
0
390
0
  6
CONTINUOUS
 62
     3
100
AcDbLine
 10
-9.75
 20
-111.3
 30
0.0
 11
-9.75
 21
-110.3
 31
0.0
  0
LINE
  5
5E2
100
AcDbEntity
  8
0
390
0
  6
CONTINUOUS
 62
     3
100
AcDbLine
 10
-15.25
 20
-110.3
 30
0.0
 11
-15.25
 21
-109.8
 31
0.0
  0
LINE
  5
5E3
100
AcDbEntity
  8
0
390
0
  6
CONTINUOUS
 62
     3
100
AcDbLine
 10
-10.25
 20
-110.3
 30
0.0
 11
-10.25
 21
-109.8
 31
0.0
  0
INSERT
  5
5E4
100
AcDbEntity
  8
0
390
0
  6
ByBlock
 62
   110
100
AcDbBlockReference
  2
$SYMTB004-46
 10
-12.75
 20
-109.8
 30
0.0
 50
270.0
  0
LINE
  5
5E5
100
AcDbEntity
  8
0
390
0
  6
CONTINUOUS
 62
     3
100
AcDbLine
 10
-24.25
 20
-111.3
 30
0.0
 11
-18.25
 21
-111.3
 31
0.0
  0
LINE
  5
5E6
100
AcDbEntity
  8
0
390
0
  6
CONTINUOUS
 62
     3
100
AcDbLine
 10
-24.25
 20
-110.3
 30
0.0
 11
-18.25
 21
-110.3
 31
0.0
  0
LINE
  5
5E7
100
AcDbEntity
  8
0
390
0
  6
CONTINUOUS
 62
     3
100
AcDbLine
 10
-24.000017
 20
-109.8
 30
0.0
 11
-18.500028
 21
-109.8
 31
0.0
  0
LINE
  5
5E8
100
AcDbEntity
  8
0
390
0
  6
CONTINUOUS
 62
     3
100
AcDbLine
 10
-24.25
 20
-111.3
 30
0.0
 11
-24.25
 21
-110.3
 31
0.0
  0
LINE
  5
5E9
100
AcDbEntity
  8
0
390
0
  6
CONTINUOUS
 62
     3
100
AcDbLine
 10
-18.25
 20
-111.3
 30
0.0
 11
-18.25
 21
-110.3
 31
0.0
  0
LINE
  5
5EA
100
AcDbEntity
  8
0
390
0
  6
CONTINUOUS
 62
     3
100
AcDbLine
 10
-23.75
 20
-110.3
 30
0.0
 11
-23.75
 21
-109.8
 31
0.0
  0
LINE
  5
5EB
100
AcDbEntity
  8
0
390
0
  6
CONTINUOUS
 62
     3
100
AcDbLine
 10
-18.75
 20
-110.3
 30
0.0
 11
-18.75
 21
-109.8
 31
0.0
  0
INSERT
  5
5EC
100
AcDbEntity
  8
0
390
0
  6
ByBlock
 62
   110
100
AcDbBlockReference
  2
$SYMTB004-46
 10
-21.25
 20
-109.8
 30
0.0
 50
270.0
  0
LINE
  5
5ED
100
AcDbEntity
  8
0
390
0
  6
CONTINUOUS
 62
     3
100
AcDbLine
 10
-32.75
 20
-111.3
 30
0.0
 11
-26.75
 21
-111.3
 31
0.0
  0
LINE
  5
5EE
100
AcDbEntity
  8
0
390
0
  6
CONTINUOUS
 62
     3
100
AcDbLine
 10
-32.75
 20
-110.3
 30
0.0
 11
-26.75
 21
-110.3
 31
0.0
  0
LINE
  5
5EF
100
AcDbEntity
  8
0
390
0
  6
CONTINUOUS
 62
     3
100
AcDbLine
 10
-32.500017
 20
-109.8
 30
0.0
 11
-27.000028
 21
-109.8
 31
0.0
  0
LINE
  5
5F0
100
AcDbEntity
  8
0
390
0
  6
CONTINUOUS
 62
     3
100
AcDbLine
 10
-32.75
 20
-111.3
 30
0.0
 11
-32.75
 21
-110.3
 31
0.0
  0
LINE
  5
5F1
100
AcDbEntity
  8
0
390
0
  6
CONTINUOUS
 62
     3
100
AcDbLine
 10
-26.75
 20
-111.3
 30
0.0
 11
-26.75
 21
-110.3
 31
0.0
  0
LINE
  5
5F2
100
AcDbEntity
  8
0
390
0
  6
CONTINUOUS
 62
     3
100
AcDbLine
 10
-32.25
 20
-110.3
 30
0.0
 11
-32.25
 21
-109.8
 31
0.0
  0
LINE
  5
5F3
100
AcDbEntity
  8
0
390
0
  6
CONTINUOUS
 62
     3
100
AcDbLine
 10
-27.25
 20
-110.3
 30
0.0
 11
-27.25
 21
-109.8
 31
0.0
  0
INSERT
  5
5F4
100
AcDbEntity
  8
0
390
0
  6
ByBlock
 62
   110
100
AcDbBlockReference
  2
$SYMTB004-46
 10
-29.75
 20
-109.8
 30
0.0
 50
270.0
  0
LINE
  5
5F5
100
AcDbEntity
  8
0
390
0
  6
CONTINUOUS
 62
     3
100
AcDbLine
 10
-41.25
 20
-111.3
 30
0.0
 11
-35.25
 21
-111.3
 31
0.0
  0
LINE
  5
5F6
100
AcDbEntity
  8
0
390
0
  6
CONTINUOUS
 62
     3
100
AcDbLine
 10
-41.25
 20
-110.3
 30
0.0
 11
-35.25
 21
-110.3
 31
0.0
  0
LINE
  5
5F7
100
AcDbEntity
  8
0
390
0
  6
CONTINUOUS
 62
     3
100
AcDbLine
 10
-41.000017
 20
-109.8
 30
0.0
 11
-35.500028
 21
-109.8
 31
0.0
  0
LINE
  5
5F8
100
AcDbEntity
  8
0
390
0
  6
CONTINUOUS
 62
     3
100
AcDbLine
 10
-41.25
 20
-111.3
 30
0.0
 11
-41.25
 21
-110.3
 31
0.0
  0
LINE
  5
5F9
100
AcDbEntity
  8
0
390
0
  6
CONTINUOUS
 62
     3
100
AcDbLine
 10
-35.25
 20
-111.3
 30
0.0
 11
-35.25
 21
-110.3
 31
0.0
  0
LINE
  5
5FA
100
AcDbEntity
  8
0
390
0
  6
CONTINUOUS
 62
     3
100
AcDbLine
 10
-40.75
 20
-110.3
 30
0.0
 11
-40.75
 21
-109.8
 31
0.0
  0
LINE
  5
5FB
100
AcDbEntity
  8
0
390
0
  6
CONTINUOUS
 62
     3
100
AcDbLine
 10
-35.75
 20
-110.3
 30
0.0
 11
-35.75
 21
-109.8
 31
0.0
  0
INSERT
  5
5FC
100
AcDbEntity
  8
0
390
0
  6
ByBlock
 62
   110
100
AcDbBlockReference
  2
$SYMTB004-46
 10
-38.25
 20
-109.8
 30
0.0
 50
270.0
  0
LINE
  5
5FD
100
AcDbEntity
  8
0
390
0
  6
CONTINUOUS
 62
     3
100
AcDbLine
 10
2.0
 20
-121.8
 30
0.0
 11
3.0
 21
-121.8
 31
0.0
  0
LINE
  5
5FE
100
AcDbEntity
  8
0
390
0
  6
CONTINUOUS
 62
     3
100
AcDbLine
 10
2.0
 20
-122.8
 30
0.0
 11
3.0
 21
-122.8
 31
0.0
  0
LINE
  5
5FF
100
AcDbEntity
  8
0
390
0
  6
CONTINUOUS
 62
     3
100
AcDbLine
 10
-3.0
 20
-121.8
 30
0.0
 11
-2.0
 21
-121.8
 31
0.0
  0
LINE
  5
600
100
AcDbEntity
  8
0
390
0
  6
CONTINUOUS
 62
     3
100
AcDbLine
 10
-3.0
 20
-122.8
 30
0.0
 11
-2.0
 21
-122.8
 31
0.0
  0
LINE
  5
601
100
AcDbEntity
  8
0
390
0
  6
CONTINUOUS
 62
     3
100
AcDbLine
 10
6.5
 20
-120.8
 30
0.0
 11
6.412511
 21
-121.8
 31
0.0
  0
LINE
  5
602
100
AcDbEntity
  8
0
390
0
  6
CONTINUOUS
 62
     3
100
AcDbLine
 10
6.5
 20
-123.8
 30
0.0
 11
6.412511
 21
-122.8
 31
0.0
  0
LINE
  5
603
100
AcDbEntity
  8
0
390
0
  6
CONTINUOUS
 62
     3
100
AcDbLine
 10
8.0
 20
-120.8
 30
0.0
 11
8.0
 21
-123.8
 31
0.0
  0
LINE
  5
604
100
AcDbEntity
  8
0
390
0
  6
CONTINUOUS
 62
     3
100
AcDbLine
 10
8.0
 20
-123.8
 30
0.0
 11
6.5
 21
-123.8
 31
0.0
  0
LINE
  5
605
100
AcDbEntity
  8
0
390
0
  6
CONTINUOUS
 62
     3
100
AcDbLine
 10
6.5
 20
-120.8
 30
0.0
 11
8.0
 21
-120.8
 31
0.0
  0
LINE
  5
606
100
AcDbEntity
  8
0
390
0
  6
CONTINUOUS
 62
     3
100
AcDbLine
 10
6.412511
 20
-121.8
 30
0.0
 11
3.0
 21
-121.8
 31
0.0
  0
LINE
  5
607
100
AcDbEntity
  8
0
390
0
  6
CONTINUOUS
 62
     3
100
AcDbLine
 10
6.412511
 20
-122.8
 30
0.0
 11
3.0
 21
-122.8
 31
0.0
  0
LINE
  5
608
100
AcDbEntity
  8
0
390
0
  6
CONTINUOUS
 62
     3
100
AcDbLine
 10
-6.412511
 20
-121.8
 30
0.0
 11
-6.5
 21
-120.8
 31
0.0
  0
LINE
  5
609
100
AcDbEntity
  8
0
390
0
  6
CONTINUOUS
 62
     3
100
AcDbLine
 10
-6.412511
 20
-122.8
 30
0.0
 11
-6.5
 21
-123.8
 31
0.0
  0
LINE
  5
60A
100
AcDbEntity
  8
0
390
0
  6
CONTINUOUS
 62
     3
100
AcDbLine
 10
-8.0
 20
-120.8
 30
0.0
 11
-8.0
 21
-123.8
 31
0.0
  0
LINE
  5
60B
100
AcDbEntity
  8
0
390
0
  6
CONTINUOUS
 62
     3
100
AcDbLine
 10
-6.5
 20
-123.8
 30
0.0
 11
-8.0
 21
-123.8
 31
0.0
  0
LINE
  5
60C
100
AcDbEntity
  8
0
390
0
  6
CONTINUOUS
 62
     3
100
AcDbLine
 10
-8.0
 20
-120.8
 30
0.0
 11
-6.5
 21
-120.8
 31
0.0
  0
LINE
  5
60D
100
AcDbEntity
  8
0
390
0
  6
CONTINUOUS
 62
     3
100
AcDbLine
 10
-3.0
 20
-121.8
 30
0.0
 11
-6.412511
 21
-121.8
 31
0.0
  0
LINE
  5
60E
100
AcDbEntity
  8
0
390
0
  6
CONTINUOUS
 62
     3
100
AcDbLine
 10
-3.0
 20
-122.8
 30
0.0
 11
-6.412511
 21
-122.8
 31
0.0
  0
LINE
  5
60F
100
AcDbEntity
  8
0
390
0
  6
CONTINUOUS
 62
     3
100
AcDbLine
 10
2.0
 20
-121.8
 30
0.0
 11
-2.0
 21
-121.8
 31
0.0
  0
LINE
  5
610
100
AcDbEntity
  8
0
390
0
  6
CONTINUOUS
 62
     3
100
AcDbLine
 10
2.0
 20
-122.8
 30
0.0
 11
-2.0
 21
-122.8
 31
0.0
  0
LINE
  5
611
100
AcDbEntity
  8
0
390
0
  6
CONTINUOUS
 62
     3
100
AcDbLine
 10
-6.5
 20
-123.8
 30
0.0
 11
6.5
 21
-123.8
 31
0.0
  0
LINE
  5
612
100
AcDbEntity
  8
0
390
0
  6
CONTINUOUS
 62
     3
100
AcDbLine
 10
-6.5
 20
-120.8
 30
0.0
 11
6.5
 21
-120.8
 31
0.0
  0
LINE
  5
613
100
AcDbEntity
  8
0
390
0
  6
CONTINUOUS
 62
     3
100
AcDbLine
 10
8.4
 20
-122.8
 30
0.0
 11
8.4
 21
-120.8
 31
0.0
  0
LINE
  5
614
100
AcDbEntity
  8
0
390
0
  6
CONTINUOUS
 62
     3
100
AcDbLine
 10
8.0
 20
-122.8
 30
0.0
 11
8.4
 21
-122.8
 31
0.0
  0
LINE
  5
615
100
AcDbEntity
  8
0
390
0
  6
CONTINUOUS
 62
     3
100
AcDbLine
 10
8.4
 20
-120.8
 30
0.0
 11
8.0
 21
-120.8
 31
0.0
  0
LINE
  5
616
100
AcDbEntity
  8
0
390
0
  6
CONTINUOUS
 62
    90
100
AcDbLine
 10
-8.4
 20
-122.8
 30
0.0
 11
-8.0
 21
-122.8
 31
0.0
  0
LINE
  5
617
100
AcDbEntity
  8
0
390
0
  6
CONTINUOUS
 62
     3
100
AcDbLine
 10
-8.4
 20
-122.8
 30
0.0
 11
-8.4
 21
-120.8
 31
0.0
  0
LINE
  5
618
100
AcDbEntity
  8
0
390
0
  6
CONTINUOUS
 62
     3
100
AcDbLine
 10
-8.4
 20
-120.8
 30
0.0
 11
-8.0
 21
-120.8
 31
0.0
  0
ARC
  5
619
100
AcDbEntity
  8
0
390
0
  6
CONTINUOUS
 62
     3
100
AcDbCircle
 10
0.0
 20
-117.9
 30
0.0
 40
2.75
100
AcDbArc
 50
222.901731
 51
317.098269
  0
LINE
  5
61A
100
AcDbEntity
  8
0
390
0
  6
CONTINUOUS
 62
     3
100
AcDbLine
 10
-8.4
 20
-119.772043
 30
0.0
 11
-8.4
 21
-120.8
 31
0.0
  0
LINE
  5
61B
100
AcDbEntity
  8
0
390
0
  6
CONTINUOUS
 62
     3
100
AcDbLine
 10
8.4
 20
-120.8
 30
0.0
 11
8.4
 21
-119.772043
 31
0.0
  0
LINE
  5
61C
100
AcDbEntity
  8
0
390
0
  6
CONTINUOUS
 62
     3
100
AcDbLine
 10
-8.4
 20
-122.8
 30
0.0
 11
-8.5
 21
-122.8
 31
0.0
  0
LINE
  5
61D
100
AcDbEntity
  8
0
390
0
  6
CONTINUOUS
 62
     3
100
AcDbLine
 10
8.4
 20
-122.8
 30
0.0
 11
8.5
 21
-122.8
 31
0.0
  0
DIMENSION
  5
62B
100
AcDbEntity
  8
0
390
0
  6
CONTINUOUS
 62
   230
100
AcDbDimension
  2
*D36
 10
70.0
 20
-123.8
 30
0.0
 11
70.0
 21
-61.900002
 31
0.0
 70
   128
 71
     5
 72
     1
 41
0.9
 42
0.0
  1
\A1;124
  3
MXDIMSTYLE
100
AcDbAlignedDimension
 13
47.0
 23
0.0
 33
0.0
 14
47.0
 24
-123.8
 34
0.0
 50
90.0
100
AcDbRotatedDimension
1001
ACAD
1000
DSTYLE
1002
{
1070
     6
1000
_OPEN
1070
     7
1000
_OPEN
1070
    41
1040
3.0
1070
   140
1040
2.5
1070
   340
1005
625
1070
   343
1005
F7
1070
   344
1005
F7
1002
}
  0
ENDBLK
  5
62C
100
AcDbEntity
  8
0
370
    -2
390
0
100
AcDbBlockEnd
  0
BLOCK
  5
62D
100
AcDbEntity
  8
0
370
    -2
390
0
100
AcDbBlockBegin
  2
MS_17
 70
     0
 10
0.0
 20
0.0
 30
0.0
  3
MS_17
  1

  0
LINE
  5
62E
100
AcDbEntity
  8
0
390
0
  6
CONTINUOUS
 62
     4
100
AcDbLine
 10
0.0
 20
-3.222043
 30
0.0
 11
1.1
 21
-3.222043
 31
0.0
  0
LINE
  5
62F
100
AcDbEntity
  8
0
390
0
  6
CONTINUOUS
 62
     4
100
AcDbLine
 10
8.5
 20
-5.122043
 30
0.0
 11
0.0
 21
-5.122043
 31
0.0
  0
LINE
  5
630
100
AcDbEntity
  8
0
390
0
  6
CONTINUOUS
 62
     4
100
AcDbLine
 10
0.0
 20
-3.222043
 30
0.0
 11
-1.1
 21
-3.222043
 31
0.0
  0
LINE
  5
631
100
AcDbEntity
  8
0
390
0
  6
CONTINUOUS
 62
     4
100
AcDbLine
 10
-1.445892
 20
3.377957
 30
0.0
 11
-7.054108
 21
3.377957
 31
0.0
  0
LINE
  5
632
100
AcDbEntity
  8
0
390
0
  6
CONTINUOUS
 62
     4
100
AcDbLine
 10
-9.945892
 20
3.377957
 30
0.0
 11
-15.554108
 21
3.377957
 31
0.0
  0
LINE
  5
633
100
AcDbEntity
  8
0
390
0
  6
CONTINUOUS
 62
     4
100
AcDbLine
 10
-18.445892
 20
3.377957
 30
0.0
 11
-24.054108
 21
3.377957
 31
0.0
  0
LINE
  5
634
100
AcDbEntity
  8
0
390
0
  6
CONTINUOUS
 62
     4
100
AcDbLine
 10
-26.945892
 20
3.377957
 30
0.0
 11
-32.554108
 21
3.377957
 31
0.0
  0
LINE
  5
635
100
AcDbEntity
  8
0
390
0
  6
CONTINUOUS
 62
     4
100
AcDbLine
 10
-35.445892
 20
3.377957
 30
0.0
 11
-41.054108
 21
3.377957
 31
0.0
  0
LINE
  5
636
100
AcDbEntity
  8
0
390
0
  6
CONTINUOUS
 62
     4
100
AcDbLine
 10
-32.9
 20
-3.222043
 30
0.0
 11
-35.1
 21
-3.222043
 31
0.0
  0
LINE
  5
637
100
AcDbEntity
  8
0
390
0
  6
CONTINUOUS
 62
     4
100
AcDbLine
 10
-8.5
 20
-5.122043
 30
0.0
 11
0.0
 21
-5.122043
 31
0.0
  0
LINE
  5
638
100
AcDbEntity
  8
0
390
0
  6
CONTINUOUS
 62
     4
100
AcDbLine
 10
-15.9
 20
-3.222043
 30
0.0
 11
-18.1
 21
-3.222043
 31
0.0
  0
LINE
  5
639
100
AcDbEntity
  8
0
390
0
  6
CONTINUOUS
 62
     4
100
AcDbLine
 10
-7.4
 20
-3.222043
 30
0.0
 11
-9.6
 21
-3.222043
 31
0.0
  0
LINE
  5
63A
100
AcDbEntity
  8
0
390
0
  6
CONTINUOUS
 62
     4
100
AcDbLine
 10
-41.4
 20
-9.122043
 30
0.0
 11
-8.5
 21
-9.122043
 31
0.0
  0
LINE
  5
63B
100
AcDbEntity
  8
0
390
0
  6
CONTINUOUS
 62
     4
100
AcDbLine
 10
-7.054108
 20
3.377957
 30
0.0
 11
-7.4
 21
-3.222043
 31
0.0
  0
LINE
  5
63C
100
AcDbEntity
  8
0
390
0
  6
CONTINUOUS
 62
     4
100
AcDbLine
 10
-41.4
 20
-9.122043
 30
0.0
 11
-41.4
 21
-3.222043
 31
0.0
  0
LINE
  5
63D
100
AcDbEntity
  8
0
390
0
  6
CONTINUOUS
 62
     4
100
AcDbLine
 10
-26.6
 20
-3.222043
 30
0.0
 11
-26.945892
 21
3.377957
 31
0.0
  0
LINE
  5
63E
100
AcDbEntity
  8
0
390
0
  6
CONTINUOUS
 62
     4
100
AcDbLine
 10
-35.1
 20
-3.222043
 30
0.0
 11
-35.445892
 21
3.377957
 31
0.0
  0
LINE
  5
63F
100
AcDbEntity
  8
0
390
0
  6
CONTINUOUS
 62
     4
100
AcDbLine
 10
-8.5
 20
-9.122043
 30
0.0
 11
-8.5
 21
-5.122043
 31
0.0
  0
LINE
  5
640
100
AcDbEntity
  8
0
390
0
  6
CONTINUOUS
 62
     4
100
AcDbLine
 10
-1.1
 20
-3.222043
 30
0.0
 11
-1.445892
 21
3.377957
 31
0.0
  0
LINE
  5
641
100
AcDbEntity
  8
0
390
0
  6
CONTINUOUS
 62
     4
100
AcDbLine
 10
-9.6
 20
-3.222043
 30
0.0
 11
-9.945892
 21
3.377957
 31
0.0
  0
LINE
  5
642
100
AcDbEntity
  8
0
390
0
  6
CONTINUOUS
 62
     4
100
AcDbLine
 10
-18.1
 20
-3.222043
 30
0.0
 11
-18.445892
 21
3.377957
 31
0.0
  0
LINE
  5
643
100
AcDbEntity
  8
0
390
0
  6
CONTINUOUS
 62
     4
100
AcDbLine
 10
-41.054108
 20
3.377957
 30
0.0
 11
-41.4
 21
-3.222043
 31
0.0
  0
LINE
  5
644
100
AcDbEntity
  8
0
390
0
  6
CONTINUOUS
 62
     4
100
AcDbLine
 10
-15.554108
 20
3.377957
 30
0.0
 11
-15.9
 21
-3.222043
 31
0.0
  0
LINE
  5
645
100
AcDbEntity
  8
0
390
0
  6
CONTINUOUS
 62
     4
100
AcDbLine
 10
-32.554108
 20
3.377957
 30
0.0
 11
-32.9
 21
-3.222043
 31
0.0
  0
LINE
  5
646
100
AcDbEntity
  8
0
390
0
  6
CONTINUOUS
 62
     4
100
AcDbLine
 10
-24.054108
 20
3.377957
 30
0.0
 11
-24.4
 21
-3.222043
 31
0.0
  0
LINE
  5
647
100
AcDbEntity
  8
0
390
0
  6
CONTINUOUS
 62
     4
100
AcDbLine
 10
-24.4
 20
-3.222043
 30
0.0
 11
-26.6
 21
-3.222043
 31
0.0
  0
LINE
  5
648
100
AcDbEntity
  8
0
390
0
  6
CONTINUOUS
 62
     4
100
AcDbLine
 10
24.4
 20
-3.222043
 30
0.0
 11
26.6
 21
-3.222043
 31
0.0
  0
LINE
  5
649
100
AcDbEntity
  8
0
390
0
  6
CONTINUOUS
 62
     4
100
AcDbLine
 10
24.054108
 20
3.377957
 30
0.0
 11
24.4
 21
-3.222043
 31
0.0
  0
LINE
  5
64A
100
AcDbEntity
  8
0
390
0
  6
CONTINUOUS
 62
     4
100
AcDbLine
 10
32.554108
 20
3.377957
 30
0.0
 11
32.9
 21
-3.222043
 31
0.0
  0
LINE
  5
64B
100
AcDbEntity
  8
0
390
0
  6
CONTINUOUS
 62
     4
100
AcDbLine
 10
15.554108
 20
3.377957
 30
0.0
 11
15.9
 21
-3.222043
 31
0.0
  0
LINE
  5
64C
100
AcDbEntity
  8
0
390
0
  6
CONTINUOUS
 62
     4
100
AcDbLine
 10
41.054108
 20
3.377957
 30
0.0
 11
41.4
 21
-3.222043
 31
0.0
  0
LINE
  5
64D
100
AcDbEntity
  8
0
390
0
  6
CONTINUOUS
 62
     4
100
AcDbLine
 10
18.1
 20
-3.222043
 30
0.0
 11
18.445892
 21
3.377957
 31
0.0
  0
LINE
  5
64E
100
AcDbEntity
  8
0
390
0
  6
CONTINUOUS
 62
     4
100
AcDbLine
 10
9.6
 20
-3.222043
 30
0.0
 11
9.945892
 21
3.377957
 31
0.0
  0
LINE
  5
64F
100
AcDbEntity
  8
0
390
0
  6
CONTINUOUS
 62
     4
100
AcDbLine
 10
8.5
 20
-9.122043
 30
0.0
 11
8.5
 21
-5.122043
 31
0.0
  0
LINE
  5
650
100
AcDbEntity
  8
0
390
0
  6
CONTINUOUS
 62
     4
100
AcDbLine
 10
35.1
 20
-3.222043
 30
0.0
 11
35.445892
 21
3.377957
 31
0.0
  0
LINE
  5
651
100
AcDbEntity
  8
0
390
0
  6
CONTINUOUS
 62
     4
100
AcDbLine
 10
26.6
 20
-3.222043
 30
0.0
 11
26.945892
 21
3.377957
 31
0.0
  0
LINE
  5
652
100
AcDbEntity
  8
0
390
0
  6
CONTINUOUS
 62
     4
100
AcDbLine
 10
41.4
 20
-9.122043
 30
0.0
 11
41.4
 21
-3.222043
 31
0.0
  0
LINE
  5
653
100
AcDbEntity
  8
0
390
0
  6
CONTINUOUS
 62
     4
100
AcDbLine
 10
7.054108
 20
3.377957
 30
0.0
 11
7.4
 21
-3.222043
 31
0.0
  0
LINE
  5
654
100
AcDbEntity
  8
0
390
0
  6
CONTINUOUS
 62
     4
100
AcDbLine
 10
41.4
 20
-9.122043
 30
0.0
 11
8.5
 21
-9.122043
 31
0.0
  0
LINE
  5
655
100
AcDbEntity
  8
0
390
0
  6
CONTINUOUS
 62
     4
100
AcDbLine
 10
7.4
 20
-3.222043
 30
0.0
 11
9.6
 21
-3.222043
 31
0.0
  0
LINE
  5
656
100
AcDbEntity
  8
0
390
0
  6
CONTINUOUS
 62
     4
100
AcDbLine
 10
15.9
 20
-3.222043
 30
0.0
 11
18.1
 21
-3.222043
 31
0.0
  0
LINE
  5
657
100
AcDbEntity
  8
0
390
0
  6
CONTINUOUS
 62
     4
100
AcDbLine
 10
32.9
 20
-3.222043
 30
0.0
 11
35.1
 21
-3.222043
 31
0.0
  0
LINE
  5
658
100
AcDbEntity
  8
0
390
0
  6
CONTINUOUS
 62
     4
100
AcDbLine
 10
35.445892
 20
3.377957
 30
0.0
 11
41.054108
 21
3.377957
 31
0.0
  0
LINE
  5
659
100
AcDbEntity
  8
0
390
0
  6
CONTINUOUS
 62
     4
100
AcDbLine
 10
26.945892
 20
3.377957
 30
0.0
 11
32.554108
 21
3.377957
 31
0.0
  0
LINE
  5
65A
100
AcDbEntity
  8
0
390
0
  6
CONTINUOUS
 62
     4
100
AcDbLine
 10
18.445892
 20
3.377957
 30
0.0
 11
24.054108
 21
3.377957
 31
0.0
  0
LINE
  5
65B
100
AcDbEntity
  8
0
390
0
  6
CONTINUOUS
 62
     4
100
AcDbLine
 10
9.945892
 20
3.377957
 30
0.0
 11
15.554108
 21
3.377957
 31
0.0
  0
LINE
  5
65C
100
AcDbEntity
  8
0
390
0
  6
CONTINUOUS
 62
     4
100
AcDbLine
 10
1.445892
 20
3.377957
 30
0.0
 11
7.054108
 21
3.377957
 31
0.0
  0
LINE
  5
65D
100
AcDbEntity
  8
0
390
0
  6
CONTINUOUS
 62
     4
100
AcDbLine
 10
1.1
 20
-3.222043
 30
0.0
 11
1.445892
 21
3.377957
 31
0.0
  0
ENDBLK
  5
65E
100
AcDbEntity
  8
0
370
    -2
390
0
100
AcDbBlockEnd
  0
BLOCK
  5
65F
100
AcDbEntity
  8
0
370
    -2
390
0
100
AcDbBlockBegin
  2
PORT
 70
     0
 10
0.0
 20
0.0
 30
0.0
  3
PORT
  1

  0
CIRCLE
  5
660
100
AcDbEntity
  8
0
390
0
  6
CONTINUOUS
 62
   132
100
AcDbCircle
 10
0.0
 20
0.0
 30
0.0
 40
2.0
  0
CIRCLE
  5
661
100
AcDbEntity
  8
0
390
0
  6
CONTINUOUS
 62
   132
100
AcDbCircle
 10
84.0
 20
0.0
 30
0.0
 40
2.0
  0
LINE
  5
663
100
AcDbEntity
  8
0
390
0
  6
CENTER
 62
   230
100
AcDbLine
 10
89.0
 20
0.0
 30
0.0
 11
79.0
 21
0.0
 31
0.0
  0
LINE
  5
664
100
AcDbEntity
  8
0
390
0
  6
CENTER
 62
   142
100
AcDbLine
 10
84.0
 20
5.0
 30
0.0
 11
84.0
 21
-5.0
 31
0.0
  0
LINE
  5
665
100
AcDbEntity
  8
0
390
0
  6
CENTER
 62
   230
100
AcDbLine
 10
5.0
 20
0.0
 30
0.0
 11
-5.0
 21
0.0
 31
0.0
  0
LINE
  5
666
100
AcDbEntity
  8
0
390
0
  6
CENTER
 62
   230
100
AcDbLine
 10
0.0
 20
5.0
 30
0.0
 11
0.0
 21
-5.0
 31
0.0
  0
DIMENSION
  5
673
100
AcDbEntity
  8
0
390
0
  6
CONTINUOUS
 62
   230
100
AcDbDimension
  2
*D37
 10
84.0
 20
10.0
 30
0.0
 11
42.0
 21
10.0
 31
0.0
 70
   128
 71
     5
 72
     1
 41
0.9
 42
84.0
  1
\A1;<>
  3
MXDIMSTYLE
100
AcDbAlignedDimension
 13
0.0
 23
5.0
 33
0.0
 14
84.0
 24
5.0
 34
0.0
100
AcDbRotatedDimension
1001
ACAD
1000
DSTYLE
1002
{
1070
     6
1000
_OPEN
1070
     7
1000
_OPEN
1070
    41
1040
3.0
1070
   140
1040
2.5
1070
   284
1070
     8
1070
   343
1005
F7
1070
   344
1005
F7
1002
}
  0
LEADER
  5
674
100
AcDbEntity
  8
0
390
0
  6
CONTINUOUS
 62
   230
100
AcDbLeader
  3
MXDIMSTYLE
 73
     3
 74
     0
 75
     0
 40
0.0
 76
     3
 10
-1.414214
 20
1.414214
 30
0.0
 10
-10.0
 20
10.0
 30
0.0
 10
-39.290281
 20
10.0
 30
0.0
 77
   230
1001
ACAD
1000
DSTYLE
1002
{
1070
     6
1000
_OPEN
1070
     7
1000
_OPEN
1070
    41
1040
3.0
1070
   341
1005
F7
1070
   343
1005
F7
1070
   344
1005
F7
1002
}
  0
MTEXT
  5
675
100
AcDbEntity
  8
0
390
0
  6
CONTINUOUS
 62
   230
100
AcDbMText
 10
-39.290281
 20
12.875
 30
0.0
 40
2.5
 41
0.0
 71
     4
 72
     1
  1
\W1.041;\A1;2-\U+22054.5(2-M4)
 73
     1
 44
0.9
  0
ENDBLK
  5
676
100
AcDbEntity
  8
0
370
    -2
390
0
100
AcDbBlockEnd
  0
BLOCK
  5
677
100
AcDbEntity
  8
0
370
    -2
390
0
100
AcDbBlockBegin
  2
PANEL
 70
     0
 10
0.0
 20
0.0
 30
0.0
  3
PANEL
  1

  0
LINE
  5
678
100
AcDbEntity
  8
0
390
0
  6
CENTER
 62
   142
100
AcDbLine
 10
-46.5
 20
0.0
 30
0.0
 11
46.5
 21
0.0
 31
0.0
  0
LINE
  5
679
100
AcDbEntity
  8
0
390
0
  6
CENTER
 62
   142
100
AcDbLine
 10
0.0
 20
34.5
 30
0.0
 11
0.0
 21
-34.5
 31
0.0
  0
LINE
  5
67A
100
AcDbEntity
  8
0
390
0
  6
CONTINUOUS
 62
   132
100
AcDbLine
 10
-46.5
 20
-34.5
 30
0.0
 11
-46.5
 21
34.5
 31
0.0
  0
LINE
  5
67B
100
AcDbEntity
  8
0
390
0
  6
CONTINUOUS
 62
   132
100
AcDbLine
 10
46.5
 20
-34.5
 30
0.0
 11
46.5
 21
34.5
 31
0.0
  0
LINE
  5
67C
100
AcDbEntity
  8
0
390
0
  6
CONTINUOUS
 62
   132
100
AcDbLine
 10
-46.5
 20
34.5
 30
0.0
 11
46.5
 21
34.5
 31
0.0
  0
LINE
  5
67D
100
AcDbEntity
  8
0
390
0
  6
CONTINUOUS
 62
   132
100
AcDbLine
 10
-46.5
 20
-34.5
 30
0.0
 11
46.5
 21
-34.5
 31
0.0
  0
DIMENSION
  5
68A
100
AcDbEntity
  8
0
390
0
  6
CONTINUOUS
 62
    50
100
AcDbDimension
  2
*D38
 10
46.5
 20
40.0
 30
0.0
 11
0.0
 21
40.0
 31
0.0
 70
   128
 71
     5
 72
     1
 41
0.9
 42
93.0
  1
\A1;<>
  3
MXDIMSTYLE
100
AcDbAlignedDimension
 13
-46.5
 23
34.5
 33
0.0
 14
46.5
 24
34.5
 34
0.0
100
AcDbRotatedDimension
1001
ACAD
1000
DSTYLE
1002
{
1070
     6
1000
_OPEN
1070
     7
1000
_OPEN
1070
    41
1040
3.0
1070
   140
1040
4.0
1070
   284
1070
     8
1070
   343
1005
F7
1070
   344
1005
F7
1002
}
  0
DIMENSION
  5
697
100
AcDbEntity
  8
0
390
0
  6
CONTINUOUS
 62
    50
100
AcDbDimension
  2
*D39
 10
60.0
 20
-34.5
 30
0.0
 11
60.0
 21
0.0
 31
0.0
 70
   128
 71
     5
 72
     1
 41
0.9
 42
69.0
  1
\A1;<>
  3
MXDIMSTYLE
100
AcDbAlignedDimension
 13
46.5
 23
34.5
 33
0.0
 14
46.5
 24
-34.5
 34
0.0
 50
90.0
100
AcDbRotatedDimension
1001
ACAD
1000
DSTYLE
1002
{
1070
     6
1000
_OPEN
1070
     7
1000
_OPEN
1070
    41
1040
3.0
1070
   140
1040
4.0
1070
   284
1070
     8
1070
   343
1005
F7
1070
   344
1005
F7
1002
}
  0
MTEXT
  5
698
100
AcDbEntity
  8
0
390
0
  6
CONTINUOUS
 62
   143
100
AcDbMText
 10
-13.444444
 20
-45.0
 30
0.0
 40
4.0
 41
0.0
 71
     1
 72
     1
  1
\W0.833;\A1;パネル取付け穴
 73
     1
 44
0.9
  0
ENDBLK
  5
699
100
AcDbEntity
  8
0
370
    -2
390
0
100
AcDbBlockEnd
  0
BLOCK
  5
69A
100
AcDbEntity
  8
0
370
    -2
390
0
100
AcDbBlockBegin
  2
MS_20
 70
     0
 10
0.0
 20
0.0
 30
0.0
  3
MS_20
  1

  0
POINT
  5
69B
100
AcDbEntity
  8
0
390
0
  6
CONTINUOUS
 62
     7
100
AcDbPoint
 10
0.0
 20
2.125
 30
0.0
  0
ARC
  5
69C
100
AcDbEntity
  8
0
390
0
  6
CONTINUOUS
 62
    44
100
AcDbCircle
 10
2.0
 20
5.125
 30
0.0
 40
1.0
100
AcDbArc
 50
270.0
 51
90.0
  0
LINE
  5
69D
100
AcDbEntity
  8
0
390
0
  6
CONTINUOUS
 62
    44
100
AcDbLine
 10
1.0
 20
4.125
 30
0.0
 11
2.0
 21
4.125
 31
0.0
  0
LINE
  5
69E
100
AcDbEntity
  8
0
390
0
  6
CONTINUOUS
 62
    44
100
AcDbLine
 10
1.0
 20
3.125
 30
0.0
 11
1.0
 21
4.125
 31
0.0
  0
ARC
  5
69F
100
AcDbEntity
  8
0
390
0
  6
CONTINUOUS
 62
    44
100
AcDbCircle
 10
0.0
 20
3.125
 30
0.0
 40
1.0
100
AcDbArc
 50
180.0
 51
0.0
  0
LINE
  5
6A0
100
AcDbEntity
  8
0
390
0
  6
CONTINUOUS
 62
    44
100
AcDbLine
 10
-1.0
 20
4.125
 30
0.0
 11
-1.0
 21
3.125
 31
0.0
  0
LINE
  5
6A1
100
AcDbEntity
  8
0
390
0
  6
CONTINUOUS
 62
    44
100
AcDbLine
 10
-2.0
 20
4.125
 30
0.0
 11
-1.0
 21
4.125
 31
0.0
  0
ARC
  5
6A2
100
AcDbEntity
  8
0
390
0
  6
CONTINUOUS
 62
    44
100
AcDbCircle
 10
-2.0
 20
5.125
 30
0.0
 40
1.0
100
AcDbArc
 50
90.0
 51
270.0
  0
LINE
  5
6A3
100
AcDbEntity
  8
0
390
0
  6
CONTINUOUS
 62
    44
100
AcDbLine
 10
2.0
 20
6.125
 30
0.0
 11
-2.0
 21
6.125
 31
0.0
  0
LINE
  5
6A4
100
AcDbEntity
  8
0
390
0
  6
CONTINUOUS
 62
    44
100
AcDbLine
 10
-8.0
 20
9.5
 30
0.0
 11
-8.0
 21
1.0
 31
0.0
  0
LINE
  5
6A5
100
AcDbEntity
  8
0
390
0
  6
CONTINUOUS
 62
    34
100
AcDbLine
 10
-8.0
 20
1.0
 30
0.0
 11
-7.0
 21
0.0
 31
0.0
  0
LINE
  5
6A6
100
AcDbEntity
  8
0
390
0
  6
CONTINUOUS
 62
    44
100
AcDbLine
 10
7.0
 20
0.0
 30
0.0
 11
8.0
 21
1.0
 31
0.0
  0
LINE
  5
6A7
100
AcDbEntity
  8
0
390
0
  6
CONTINUOUS
 62
    44
100
AcDbLine
 10
-6.5
 20
8.75
 30
0.0
 11
6.5
 21
8.75
 31
0.0
  0
LINE
  5
6A8
100
AcDbEntity
  8
0
390
0
  6
CONTINUOUS
 62
    44
100
AcDbLine
 10
-6.5
 20
8.75
 30
0.0
 11
-6.412511
 21
8.662511
 31
0.0
  0
LINE
  5
6A9
100
AcDbEntity
  8
0
390
0
  6
CONTINUOUS
 62
    44
100
AcDbLine
 10
6.5
 20
8.75
 30
0.0
 11
6.5
 21
1.5
 31
0.0
  0
LINE
  5
6AA
100
AcDbEntity
  8
0
390
0
  6
CONTINUOUS
 62
    44
100
AcDbLine
 10
6.5
 20
8.75
 30
0.0
 11
6.412511
 21
8.662511
 31
0.0
  0
LINE
  5
6AB
100
AcDbEntity
  8
0
390
0
  6
CONTINUOUS
 62
    44
100
AcDbLine
 10
-6.5
 20
1.5
 30
0.0
 11
-6.412511
 21
1.587489
 31
0.0
  0
LINE
  5
6AC
100
AcDbEntity
  8
0
390
0
  6
CONTINUOUS
 62
    44
100
AcDbLine
 10
6.5
 20
1.5
 30
0.0
 11
-6.5
 21
1.5
 31
0.0
  0
LINE
  5
6AD
100
AcDbEntity
  8
0
390
0
  6
CONTINUOUS
 62
    34
100
AcDbLine
 10
6.5
 20
1.5
 30
0.0
 11
6.412511
 21
1.587489
 31
0.0
  0
LINE
  5
6AE
100
AcDbEntity
  8
0
390
0
  6
CONTINUOUS
 62
    44
100
AcDbLine
 10
7.0
 20
0.0
 30
0.0
 11
-7.0
 21
0.0
 31
0.0
  0
LINE
  5
6AF
100
AcDbEntity
  8
0
390
0
  6
CONTINUOUS
 62
    44
100
AcDbLine
 10
-6.412511
 20
8.662511
 30
0.0
 11
6.412511
 21
8.662511
 31
0.0
  0
LINE
  5
6B0
100
AcDbEntity
  8
0
390
0
  6
CONTINUOUS
 62
    44
100
AcDbLine
 10
6.412511
 20
8.662511
 30
0.0
 11
6.412511
 21
1.587489
 31
0.0
  0
LINE
  5
6B1
100
AcDbEntity
  8
0
390
0
  6
CONTINUOUS
 62
    44
100
AcDbLine
 10
-6.412511
 20
1.587489
 30
0.0
 11
-6.412511
 21
8.662511
 31
0.0
  0
LINE
  5
6B2
100
AcDbEntity
  8
0
390
0
  6
CONTINUOUS
 62
    44
100
AcDbLine
 10
6.412511
 20
1.587489
 30
0.0
 11
-6.412511
 21
1.587489
 31
0.0
  0
LINE
  5
6B3
100
AcDbEntity
  8
0
390
0
  6
CONTINUOUS
 62
    44
100
AcDbLine
 10
-6.5
 20
1.5
 30
0.0
 11
-6.5
 21
8.75
 31
0.0
  0
LINE
  5
6B4
100
AcDbEntity
  8
0
390
0
  6
CONTINUOUS
 62
    44
100
AcDbLine
 10
8.0
 20
9.5
 30
0.0
 11
8.0
 21
1.0
 31
0.0
  0
ENDBLK
  5
6B5
100
AcDbEntity
  8
0
370
    -2
390
0
100
AcDbBlockEnd
  0
BLOCK
  5
6B6
100
AcDbEntity
  8
0
370
    -2
390
0
100
AcDbBlockBegin
  2
MS_21
 70
     0
 10
0.0
 20
0.0
 30
0.0
  3
MS_21
  1

  0
LINE
  5
6B7
100
AcDbEntity
  8
0
390
0
  6
CONTINUOUS
 62
    44
100
AcDbLine
 10
8.4
 20
-4.9
 30
0.0
 11
8.5
 21
-4.9
 31
0.0
  0
LINE
  5
6B8
100
AcDbEntity
  8
0
390
0
  6
CONTINUOUS
 62
    44
100
AcDbLine
 10
-8.4
 20
-4.9
 30
0.0
 11
-8.5
 21
-4.9
 31
0.0
  0
LINE
  5
6B9
100
AcDbEntity
  8
0
390
0
  6
CONTINUOUS
 62
    44
100
AcDbLine
 10
8.4
 20
-2.9
 30
0.0
 11
8.4
 21
-1.872043
 31
0.0
  0
LINE
  5
6BA
100
AcDbEntity
  8
0
390
0
  6
CONTINUOUS
 62
    44
100
AcDbLine
 10
-8.4
 20
-1.872043
 30
0.0
 11
-8.4
 21
-2.9
 31
0.0
  0
ARC
  5
6BB
100
AcDbEntity
  8
0
390
0
  6
CONTINUOUS
 62
    44
100
AcDbCircle
 10
0.0
 20
0.0
 30
0.0
 40
2.75
100
AcDbArc
 50
222.901731
 51
317.098269
  0
LINE
  5
6BC
100
AcDbEntity
  8
0
390
0
  6
CONTINUOUS
 62
    44
100
AcDbLine
 10
-8.4
 20
-2.9
 30
0.0
 11
-8.0
 21
-2.9
 31
0.0
  0
LINE
  5
6BD
100
AcDbEntity
  8
0
390
0
  6
CONTINUOUS
 62
    44
100
AcDbLine
 10
-8.4
 20
-4.9
 30
0.0
 11
-8.4
 21
-2.9
 31
0.0
  0
LINE
  5
6BE
100
AcDbEntity
  8
0
390
0
  6
CONTINUOUS
 62
    34
100
AcDbLine
 10
-8.4
 20
-4.9
 30
0.0
 11
-8.0
 21
-4.9
 31
0.0
  0
LINE
  5
6BF
100
AcDbEntity
  8
0
390
0
  6
CONTINUOUS
 62
    44
100
AcDbLine
 10
8.4
 20
-2.9
 30
0.0
 11
8.0
 21
-2.9
 31
0.0
  0
LINE
  5
6C0
100
AcDbEntity
  8
0
390
0
  6
CONTINUOUS
 62
    44
100
AcDbLine
 10
8.0
 20
-4.9
 30
0.0
 11
8.4
 21
-4.9
 31
0.0
  0
LINE
  5
6C1
100
AcDbEntity
  8
0
390
0
  6
CONTINUOUS
 62
    44
100
AcDbLine
 10
8.4
 20
-4.9
 30
0.0
 11
8.4
 21
-2.9
 31
0.0
  0
LINE
  5
6C2
100
AcDbEntity
  8
0
390
0
  6
CONTINUOUS
 62
    44
100
AcDbLine
 10
-6.5
 20
-2.9
 30
0.0
 11
6.5
 21
-2.9
 31
0.0
  0
LINE
  5
6C3
100
AcDbEntity
  8
0
390
0
  6
CONTINUOUS
 62
    44
100
AcDbLine
 10
-6.5
 20
-5.9
 30
0.0
 11
6.5
 21
-5.9
 31
0.0
  0
LINE
  5
6C4
100
AcDbEntity
  8
0
390
0
  6
CONTINUOUS
 62
    44
100
AcDbLine
 10
2.0
 20
-4.9
 30
0.0
 11
-2.0
 21
-4.9
 31
0.0
  0
LINE
  5
6C5
100
AcDbEntity
  8
0
390
0
  6
CONTINUOUS
 62
    44
100
AcDbLine
 10
2.0
 20
-3.9
 30
0.0
 11
-2.0
 21
-3.9
 31
0.0
  0
LINE
  5
6C6
100
AcDbEntity
  8
0
390
0
  6
CONTINUOUS
 62
    44
100
AcDbLine
 10
-3.0
 20
-4.9
 30
0.0
 11
-6.412511
 21
-4.9
 31
0.0
  0
LINE
  5
6C7
100
AcDbEntity
  8
0
390
0
  6
CONTINUOUS
 62
    44
100
AcDbLine
 10
-3.0
 20
-3.9
 30
0.0
 11
-6.412511
 21
-3.9
 31
0.0
  0
LINE
  5
6C8
100
AcDbEntity
  8
0
390
0
  6
CONTINUOUS
 62
    44
100
AcDbLine
 10
-8.0
 20
-2.9
 30
0.0
 11
-6.5
 21
-2.9
 31
0.0
  0
LINE
  5
6C9
100
AcDbEntity
  8
0
390
0
  6
CONTINUOUS
 62
    44
100
AcDbLine
 10
-6.5
 20
-5.9
 30
0.0
 11
-8.0
 21
-5.9
 31
0.0
  0
LINE
  5
6CA
100
AcDbEntity
  8
0
390
0
  6
CONTINUOUS
 62
    44
100
AcDbLine
 10
-8.0
 20
-2.9
 30
0.0
 11
-8.0
 21
-5.9
 31
0.0
  0
LINE
  5
6CB
100
AcDbEntity
  8
0
390
0
  6
CONTINUOUS
 62
    44
100
AcDbLine
 10
-6.412511
 20
-4.9
 30
0.0
 11
-6.5
 21
-5.9
 31
0.0
  0
LINE
  5
6CC
100
AcDbEntity
  8
0
390
0
  6
CONTINUOUS
 62
    44
100
AcDbLine
 10
-6.412511
 20
-3.9
 30
0.0
 11
-6.5
 21
-2.9
 31
0.0
  0
LINE
  5
6CD
100
AcDbEntity
  8
0
390
0
  6
CONTINUOUS
 62
    44
100
AcDbLine
 10
6.412511
 20
-4.9
 30
0.0
 11
3.0
 21
-4.9
 31
0.0
  0
LINE
  5
6CE
100
AcDbEntity
  8
0
390
0
  6
CONTINUOUS
 62
    44
100
AcDbLine
 10
6.412511
 20
-3.9
 30
0.0
 11
3.0
 21
-3.9
 31
0.0
  0
LINE
  5
6CF
100
AcDbEntity
  8
0
390
0
  6
CONTINUOUS
 62
    44
100
AcDbLine
 10
6.5
 20
-2.9
 30
0.0
 11
8.0
 21
-2.9
 31
0.0
  0
LINE
  5
6D0
100
AcDbEntity
  8
0
390
0
  6
CONTINUOUS
 62
    44
100
AcDbLine
 10
8.0
 20
-5.9
 30
0.0
 11
6.5
 21
-5.9
 31
0.0
  0
LINE
  5
6D1
100
AcDbEntity
  8
0
390
0
  6
CONTINUOUS
 62
    44
100
AcDbLine
 10
8.0
 20
-2.9
 30
0.0
 11
8.0
 21
-5.9
 31
0.0
  0
LINE
  5
6D2
100
AcDbEntity
  8
0
390
0
  6
CONTINUOUS
 62
    44
100
AcDbLine
 10
6.5
 20
-5.9
 30
0.0
 11
6.412511
 21
-4.9
 31
0.0
  0
LINE
  5
6D3
100
AcDbEntity
  8
0
390
0
  6
CONTINUOUS
 62
    44
100
AcDbLine
 10
6.5
 20
-2.9
 30
0.0
 11
6.412511
 21
-3.9
 31
0.0
  0
LINE
  5
6D4
100
AcDbEntity
  8
0
390
0
  6
CONTINUOUS
 62
    44
100
AcDbLine
 10
-3.0
 20
-4.9
 30
0.0
 11
-2.0
 21
-4.9
 31
0.0
  0
LINE
  5
6D5
100
AcDbEntity
  8
0
390
0
  6
CONTINUOUS
 62
    44
100
AcDbLine
 10
-3.0
 20
-3.9
 30
0.0
 11
-2.0
 21
-3.9
 31
0.0
  0
LINE
  5
6D6
100
AcDbEntity
  8
0
390
0
  6
CONTINUOUS
 62
    44
100
AcDbLine
 10
2.0
 20
-4.9
 30
0.0
 11
3.0
 21
-4.9
 31
0.0
  0
LINE
  5
6D7
100
AcDbEntity
  8
0
390
0
  6
CONTINUOUS
 62
    44
100
AcDbLine
 10
2.0
 20
-3.9
 30
0.0
 11
3.0
 21
-3.9
 31
0.0
  0
ENDBLK
  5
6D8
100
AcDbEntity
  8
0
370
    -2
390
0
100
AcDbBlockEnd
  0
BLOCK
  5
6D9
100
AcDbEntity
  8
0
370
    -2
390
0
100
AcDbBlockBegin
  2
MS_22
 70
     0
 10
0.0
 20
0.0
 30
0.0
  3
MS_22
  1

  0
LINE
  5
6DA
100
AcDbEntity
  8
0
390
0
  6
CONTINUOUS
 62
    44
100
AcDbLine
 10
0.0
 20
1.0
 30
0.0
 11
0.0
 21
-9.5
 31
0.0
  0
LINE
  5
6DB
100
AcDbEntity
  8
0
390
0
  6
CONTINUOUS
 62
    44
100
AcDbLine
 10
-3.0
 20
0.0
 30
0.0
 11
-3.0
 21
-9.5
 31
0.0
  0
LINE
  5
6DC
100
AcDbEntity
  8
0
390
0
  6
CONTINUOUS
 62
    44
100
AcDbLine
 10
-3.0
 20
-9.5
 30
0.0
 11
0.0
 21
-9.5
 31
0.0
  0
ENDBLK
  5
6DD
100
AcDbEntity
  8
0
370
    -2
390
0
100
AcDbBlockEnd
  0
BLOCK
  5
6DE
100
AcDbEntity
  8
0
370
    -2
390
0
100
AcDbBlockBegin
  2
SW
 70
     0
 10
0.0
 20
0.0
 30
0.0
  3
SW
  1

  0
INSERT
  5
6DF
100
AcDbEntity
  8
0
390
0
  6
ByBlock
100
AcDbBlockReference
  2
MS_28
 10
-38.0
 20
22.5
 30
0.0
  0
INSERT
  5
6E0
100
AcDbEntity
  8
0
390
0
  6
ByBlock
100
AcDbBlockReference
  2
DOWN
 10
28.0
 20
-23.25
 30
0.0
  0
INSERT
  5
6E1
100
AcDbEntity
  8
0
390
0
  6
ByBlock
100
AcDbBlockReference
  2
UP
 10
14.0
 20
-23.25
 30
0.0
  0
MTEXT
  5
6E2
100
AcDbEntity
  8
0
390
0
  6
CONTINUOUS
 62
   143
100
AcDbMText
 10
23.384615
 20
-4.95
 30
0.0
 40
3.2
 41
0.0
 71
     7
 72
     1
  1
\W0.721;\A1;High2
 73
     1
 44
0.9
  0
MTEXT
  5
6E3
100
AcDbEntity
  8
0
390
0
  6
CONTINUOUS
 62
   143
100
AcDbMText
 10
9.416667
 20
-4.95
 30
0.0
 40
3.2
 41
0.0
 71
     7
 72
     1
  1
\W0.781;\A1;High1
 73
     1
 44
0.9
  0
MTEXT
  5
6E4
100
AcDbEntity
  8
0
390
0
  6
CONTINUOUS
 62
   143
100
AcDbMText
 10
-3.555556
 20
-4.95
 30
0.0
 40
3.2
 41
0.0
 71
     7
 72
     1
  1
\W0.833;\A1;Low
 73
     1
 44
0.9
  0
MTEXT
  5
6E5
100
AcDbEntity
  8
0
390
0
  6
CONTINUOUS
 62
   143
100
AcDbMText
 10
-31.555556
 20
-4.95
 30
0.0
 40
3.2
 41
0.0
 71
     7
 72
     1
  1
\W0.833;\A1;RUN
 73
     1
 44
0.9
  0
INSERT
  5
6E6
100
AcDbEntity
  8
0
390
0
  6
ByBlock
100
AcDbBlockReference
  2
LCD
 10
0.7
 20
10.5
 30
0.0
  0
CIRCLE
  5
6E7
100
AcDbEntity
  8
0
390
0
  6
CONTINUOUS
 62
   132
100
AcDbCircle
 10
-28.0
 20
-7.75
 30
0.0
 40
1.0
  0
CIRCLE
  5
6E8
100
AcDbEntity
  8
0
390
0
  6
CONTINUOUS
 62
   132
100
AcDbCircle
 10
28.0
 20
-7.75
 30
0.0
 40
1.0
  0
CIRCLE
  5
6E9
100
AcDbEntity
  8
0
390
0
  6
CONTINUOUS
 62
   132
100
AcDbCircle
 10
14.0
 20
-7.75
 30
0.0
 40
1.0
  0
CIRCLE
  5
6EA
100
AcDbEntity
  8
0
390
0
  6
CONTINUOUS
 62
   132
100
AcDbCircle
 10
0.0
 20
-7.75
 30
0.0
 40
1.0
  0
MTEXT
  5
6EB
100
AcDbEntity
  8
0
390
0
  6
CONTINUOUS
 62
   143
100
AcDbMText
 10
-3.111111
 20
-23.25
 30
0.0
 40
3.2
 41
0.0
 71
     4
 72
     1
  1
\W0.417;\A1;RESET
 73
     1
 44
0.9
  0
MTEXT
  5
6EC
100
AcDbEntity
  8
0
390
0
  6
CONTINUOUS
 62
   143
100
AcDbMText
 10
-15.777778
 20
-23.25
 30
0.0
 40
3.2
 41
0.0
 71
     4
 72
     1
  1
\W0.417;\A1;SET
 73
     1
 44
0.9
  0
MTEXT
  5
6ED
100
AcDbEntity
  8
0
390
0
  6
CONTINUOUS
 62
   143
100
AcDbMText
 10
-30.444445
 20
-23.25
 30
0.0
 40
3.2
 41
0.0
 71
     4
 72
     1
  1
\W0.417;\A1;MODE
 73
     1
 44
0.9
  0
INSERT
  5
6EE
100
AcDbEntity
  8
0
390
0
  6
ByBlock
100
AcDbBlockReference
  2
SW1
 10
-28.0
 20
-23.25
 30
0.0
  0
INSERT
  5
6EF
100
AcDbEntity
  8
0
390
0
  6
ByBlock
100
AcDbBlockReference
  2
SW1
 10
-14.0
 20
-23.25
 30
0.0
  0
INSERT
  5
6F0
100
AcDbEntity
  8
0
390
0
  6
ByBlock
100
AcDbBlockReference
  2
SW1
 10
28.0
 20
-23.25
 30
0.0
  0
INSERT
  5
6F1
100
AcDbEntity
  8
0
390
0
  6
ByBlock
100
AcDbBlockReference
  2
SW1
 10
14.0
 20
-23.25
 30
0.0
  0
INSERT
  5
6F2
100
AcDbEntity
  8
0
390
0
  6
ByBlock
100
AcDbBlockReference
  2
SW1
 10
0.0
 20
-23.25
 30
0.0
  0
LINE
  5
6F3
100
AcDbEntity
  8
0
390
0
  6
CONTINUOUS
 62
   132
100
AcDbLine
 10
-43.0
 20
31.0
 30
0.0
 11
43.0
 21
31.0
 31
0.0
  0
LINE
  5
6F4
100
AcDbEntity
  8
0
390
0
  6
CONTINUOUS
 62
   132
100
AcDbLine
 10
-43.0
 20
-31.0
 30
0.0
 11
-43.0
 21
31.0
 31
0.0
  0
LINE
  5
6F5
100
AcDbEntity
  8
0
390
0
  6
CONTINUOUS
 62
   132
100
AcDbLine
 10
43.0
 20
-31.0
 30
0.0
 11
43.0
 21
31.0
 31
0.0
  0
LINE
  5
6F6
100
AcDbEntity
  8
0
390
0
  6
CONTINUOUS
 62
   132
100
AcDbLine
 10
-43.0
 20
-31.0
 30
0.0
 11
43.0
 21
-31.0
 31
0.0
  0
ENDBLK
  5
6F7
100
AcDbEntity
  8
0
370
    -2
390
0
100
AcDbBlockEnd
  0
BLOCK
  5
6F8
100
AcDbEntity
  8
0
370
    -2
390
0
100
AcDbBlockBegin
  2
SW1
 70
     0
 10
0.0
 20
0.0
 30
0.0
  3
SW1
  1

  0
CIRCLE
  5
6F9
100
AcDbEntity
  8
0
390
0
  6
CONTINUOUS
 62
   132
100
AcDbCircle
 10
0.0
 20
0.0
 30
0.0
 40
4.5
  0
ARC
  5
6FA
100
AcDbEntity
  8
0
390
0
  6
CONTINUOUS
 62
   132
100
AcDbCircle
 10
4.0
 20
-4.0
 30
0.0
 40
1.0
100
AcDbArc
 50
270.0
 51
0.0
  0
ARC
  5
6FB
100
AcDbEntity
  8
0
390
0
  6
CONTINUOUS
 62
   132
100
AcDbCircle
 10
-4.0
 20
-4.0
 30
0.0
 40
1.0
100
AcDbArc
 50
180.0
 51
270.0
  0
ARC
  5
6FC
100
AcDbEntity
  8
0
390
0
  6
CONTINUOUS
 62
   132
100
AcDbCircle
 10
-4.0
 20
4.0
 30
0.0
 40
1.0
100
AcDbArc
 50
90.0
 51
180.0
  0
ARC
  5
6FD
100
AcDbEntity
  8
0
390
0
  6
CONTINUOUS
 62
   132
100
AcDbCircle
 10
4.0
 20
4.0
 30
0.0
 40
1.0
100
AcDbArc
 50
0.0
 51
90.0
  0
LINE
  5
6FE
100
AcDbEntity
  8
0
390
0
  6
CONTINUOUS
 62
   132
100
AcDbLine
 10
-4.0
 20
-5.0
 30
0.0
 11
4.0
 21
-5.0
 31
0.0
  0
LINE
  5
6FF
100
AcDbEntity
  8
0
390
0
  6
CONTINUOUS
 62
   132
100
AcDbLine
 10
-5.0
 20
4.0
 30
0.0
 11
-5.0
 21
-4.0
 31
0.0
  0
LINE
  5
700
100
AcDbEntity
  8
0
390
0
  6
CONTINUOUS
 62
   132
100
AcDbLine
 10
5.0
 20
4.0
 30
0.0
 11
5.0
 21
-4.0
 31
0.0
  0
LINE
  5
701
100
AcDbEntity
  8
0
390
0
  6
CONTINUOUS
 62
   132
100
AcDbLine
 10
-4.0
 20
5.0
 30
0.0
 11
4.0
 21
5.0
 31
0.0
  0
ENDBLK
  5
702
100
AcDbEntity
  8
0
370
    -2
390
0
100
AcDbBlockEnd
  0
BLOCK
  5
703
100
AcDbEntity
  8
0
370
    -2
390
0
100
AcDbBlockBegin
  2
LCD
 70
     0
 10
0.0
 20
0.0
 30
0.0
  3
LCD
  1

  0
ARC
  5
704
100
AcDbEntity
  8
0
390
0
  6
CONTINUOUS
 62
   132
100
AcDbCircle
 10
27.5
 20
-5.0
 30
0.0
 40
2.0
100
AcDbArc
 50
270.0
 51
0.0
  0
ARC
  5
705
100
AcDbEntity
  8
0
390
0
  6
CONTINUOUS
 62
   132
100
AcDbCircle
 10
-27.5
 20
-5.0
 30
0.0
 40
2.0
100
AcDbArc
 50
180.0
 51
270.0
  0
ARC
  5
706
100
AcDbEntity
  8
0
390
0
  6
CONTINUOUS
 62
   132
100
AcDbCircle
 10
-27.5
 20
5.0
 30
0.0
 40
2.0
100
AcDbArc
 50
90.0
 51
180.0
  0
ARC
  5
707
100
AcDbEntity
  8
0
390
0
  6
CONTINUOUS
 62
   132
100
AcDbCircle
 10
27.5
 20
5.0
 30
0.0
 40
2.0
100
AcDbArc
 50
0.0
 51
90.0
  0
LINE
  5
708
100
AcDbEntity
  8
0
390
0
  6
CONTINUOUS
 62
   132
100
AcDbLine
 10
29.5
 20
5.0
 30
0.0
 11
29.5
 21
-5.0
 31
0.0
  0
LINE
  5
709
100
AcDbEntity
  8
0
390
0
  6
CONTINUOUS
 62
   132
100
AcDbLine
 10
-27.5
 20
-7.0
 30
0.0
 11
27.5
 21
-7.0
 31
0.0
  0
LINE
  5
70A
100
AcDbEntity
  8
0
390
0
  6
CONTINUOUS
 62
   132
100
AcDbLine
 10
-27.5
 20
7.0
 30
0.0
 11
27.5
 21
7.0
 31
0.0
  0
LINE
  5
70B
100
AcDbEntity
  8
0
390
0
  6
CONTINUOUS
 62
   132
100
AcDbLine
 10
-29.5
 20
5.0
 30
0.0
 11
-29.5
 21
-5.0
 31
0.0
  0
ENDBLK
  5
70C
100
AcDbEntity
  8
0
370
    -2
390
0
100
AcDbBlockEnd
  0
BLOCK
  5
70D
100
AcDbEntity
  8
0
370
    -2
390
0
100
AcDbBlockBegin
  2
UP
 70
     0
 10
0.0
 20
0.0
 30
0.0
  3
UP
  1

  0
SOLID
  5
70E
100
AcDbEntity
  8
0
390
0
  6
CONTINUOUS
 62
   142
100
AcDbTrace
 10
2.5
 20
-2.165064
 30
0.0
 11
0.0
 21
2.165064
 31
0.0
 12
-2.5
 22
-2.165064
 32
0.0
 13
-2.5
 23
-2.165064
 33
0.0
  0
LINE
  5
70F
100
AcDbEntity
  8
0
390
0
  6
CONTINUOUS
 62
   132
100
AcDbLine
 10
2.5
 20
-2.165064
 30
0.0
 11
0.0
 21
2.165064
 31
0.0
  0
LINE
  5
710
100
AcDbEntity
  8
0
390
0
  6
CONTINUOUS
 62
   132
100
AcDbLine
 10
-2.5
 20
-2.165064
 30
0.0
 11
0.0
 21
2.165064
 31
0.0
  0
LINE
  5
711
100
AcDbEntity
  8
0
390
0
  6
CONTINUOUS
 62
   132
100
AcDbLine
 10
-2.5
 20
-2.165064
 30
0.0
 11
2.5
 21
-2.165064
 31
0.0
  0
ENDBLK
  5
712
100
AcDbEntity
  8
0
370
    -2
390
0
100
AcDbBlockEnd
  0
BLOCK
  5
713
100
AcDbEntity
  8
0
370
    -2
390
0
100
AcDbBlockBegin
  2
DOWN
 70
     0
 10
0.0
 20
0.0
 30
0.0
  3
DOWN
  1

  0
SOLID
  5
714
100
AcDbEntity
  8
0
390
0
  6
CONTINUOUS
 62
   142
100
AcDbTrace
 10
-2.5
 20
2.165064
 30
0.0
 11
2.5
 21
2.165064
 31
0.0
 12
0.0
 22
-2.165064
 32
0.0
 13
0.0
 23
-2.165064
 33
0.0
  0
LINE
  5
715
100
AcDbEntity
  8
0
390
0
  6
CONTINUOUS
 62
   132
100
AcDbLine
 10
-2.5
 20
2.165064
 30
0.0
 11
0.0
 21
-2.165064
 31
0.0
  0
LINE
  5
716
100
AcDbEntity
  8
0
390
0
  6
CONTINUOUS
 62
   132
100
AcDbLine
 10
2.5
 20
2.165064
 30
0.0
 11
0.0
 21
-2.165064
 31
0.0
  0
LINE
  5
717
100
AcDbEntity
  8
0
390
0
  6
CONTINUOUS
 62
   132
100
AcDbLine
 10
-2.5
 20
2.165064
 30
0.0
 11
2.5
 21
2.165064
 31
0.0
  0
ENDBLK
  5
718
100
AcDbEntity
  8
0
370
    -2
390
0
100
AcDbBlockEnd
  0
BLOCK
  5
719
100
AcDbEntity
  8
0
370
    -2
390
0
100
AcDbBlockBegin
  2
MS_28
 70
     0
 10
0.0
 20
0.0
 30
0.0
  3
MS_28
  1

  0
SOLID
  5
71A
100
AcDbEntity
  8
0
390
0
  6
CONTINUOUS
 62
   142
100
AcDbTrace
 10
4.400735
 20
4.408432
 30
0.0
 11
4.639338
 21
4.408432
 31
0.0
 12
2.931258
 22
2.938955
 32
0.0
 13
3.169861
 23
2.938955
 33
0.0
  0
SOLID
  5
71B
100
AcDbEntity
  8
0
390
0
  6
CONTINUOUS
 62
   142
100
AcDbTrace
 10
4.093485
 20
2.938955
 30
0.0
 11
4.332088
 21
2.938955
 31
0.0
 12
2.624008
 22
1.469477
 32
0.0
 13
2.862611
 23
1.469477
 33
0.0
  0
SOLID
  5
71C
100
AcDbEntity
  8
0
390
0
  6
CONTINUOUS
 62
   142
100
AcDbTrace
 10
3.778538
 20
1.469477
 30
0.0
 11
4.017141
 21
1.469477
 31
0.0
 12
2.309061
 22
0.0
 32
0.0
 13
2.547664
 23
0.0
 33
0.0
  0
SOLID
  5
71D
100
AcDbEntity
  8
0
390
0
  6
CONTINUOUS
 62
   142
100
AcDbTrace
 10
6.56293
 20
5.877909
 30
0.0
 11
6.801533
 21
5.877909
 31
0.0
 12
5.093453
 22
4.408432
 32
0.0
 13
5.332056
 23
4.408432
 33
0.0
  0
SOLID
  5
71E
100
AcDbEntity
  8
0
390
0
  6
CONTINUOUS
 62
   142
100
AcDbTrace
 10
27.421904
 20
3.882999
 30
0.0
 11
28.513342
 21
3.882999
 31
0.0
 12
27.421904
 22
0.0
 32
0.0
 13
28.513342
 23
0.0
 33
0.0
  0
HATCH
  5
71F
100
AcDbEntity
  8
0
390
0
  6
CONTINUOUS
 62
   142
100
AcDbHatch
 10
0.0
 20
0.0
 30
0.0
210
0.0
220
0.0
230
1.0
  2
SOLID
 70
     1
 71
     0
 91
        1
 92
        1
 93
        6
 72
     1
 10
26.007757806661914
 20
3.8829987684951561
 11
27.086077096140798
 21
3.8829987684951561
 72
     1
 10
27.086077096140798
 20
3.8829987684951561
 11
26.246509812222598
 21
2.0593021225230359
 72
     1
 10
26.246509812222598
 20
2.0593021225230359
 11
27.162162925911616
 21
-0.0000000000208047
 72
     1
 10
27.162162925911616
 20
-0.0000000000208047
 11
26.00775785422303
 21
-0.0000000000208047
 72
     1
 10
26.00775785422303
 20
-0.0000000000208047
 11
25.176936022317761
 21
1.9785709294360458
 72
     1
 10
25.176936022317761
 20
1.9785709294360458
 11
26.007757806661914
 21
3.8829987684951561
 97
        0
 75
     0
 76
     1
 98
        1
 10
0.0
 20
0.0
  0
SOLID
  5
720
100
AcDbEntity
  8
0
390
0
  6
CONTINUOUS
 62
   142
100
AcDbTrace
 10
24.022531
 20
3.882999
 30
0.0
 11
25.07199
 21
3.882999
 31
0.0
 12
24.022531
 22
0.0
 32
0.0
 13
25.07199
 23
0.0
 33
0.0
  0
HATCH
  5
721
100
AcDbEntity
  8
0
390
0
  6
CONTINUOUS
 62
   142
100
AcDbHatch
 10
0.0
 20
0.0
 30
0.0
210
0.0
220
0.0
230
1.0
  2
SOLID
 70
     1
 71
     0
 91
        1
 92
        1
 93
       11
 72
     1
 10
22.002452976685163
 20
3.2706393424106182
 11
21.258342426674403
 21
0.0
 72
     1
 10
21.258342426674403
 20
0.0
 11
20.154108672169968
 21
0.0
 72
     1
 10
20.154108672169968
 20
0.0
 11
21.309546516404225
 21
3.882998215868497
 72
     1
 10
21.309546516404225
 20
3.882998215868497
 11
22.657190589540164
 21
3.882998215868497
 72
     1
 10
22.657190589540164
 20
3.882998215868497
 11
23.812639119413859
 21
0.0
 72
     1
 10
23.812639119413859
 20
0.0
 11
22.746563526695923
 21
0.0
 72
     1
 10
22.746563526695923
 20
0.0
 11
22.57282235727871
 21
0.763656292850726
 72
     1
 10
22.57282235727871
 20
0.763656292850726
 11
21.539587300441042
 21
0.763656292850726
 72
     1
 10
21.539587300441042
 20
0.763656292850726
 11
21.996480363619753
 21
1.6322546198751979
 72
     1
 10
21.996480363619753
 20
1.6322546198751979
 11
22.375205588446988
 21
1.6322546198751979
 72
     1
 10
22.375205588446988
 20
1.6322546198751979
 11
22.002452976685163
 21
3.2706393424106182
 97
        0
 75
     0
 76
     1
 98
        1
 10
0.0
 20
0.0
  0
SOLID
  5
722
100
AcDbEntity
  8
0
390
0
  6
CONTINUOUS
 62
   142
100
AcDbTrace
 10
15.450073
 20
3.882999
 30
0.0
 11
16.499532
 21
3.882999
 31
0.0
 12
15.450073
 22
0.0
 32
0.0
 13
16.499532
 23
0.0
 33
0.0
  0
HATCH
  5
723
100
AcDbEntity
  8
0
390
0
  6
CONTINUOUS
 62
   142
100
AcDbHatch
 10
0.0
 20
0.0
 30
0.0
210
0.0
220
0.0
230
1.0
  2
SOLID
 70
     1
 71
     0
 91
        1
 92
        1
 93
        8
 72
     1
 10
6.8940140695489163
 20
3.882998857437201
 11
9.969398292056951
 21
3.882998857437201
 72
     1
 10
9.969398292056951
 20
3.882998857437201
 11
9.5286254558686778
 21
2.938954521524181
 72
     1
 10
9.5286254558686778
 20
2.938954521524181
 11
8.5823631212231817
 21
2.938954521524181
 72
     1
 10
8.5823631212231817
 20
2.938954521524181
 11
8.5823631212231817
 21
0.0
 72
     1
 10
8.5823631212231817
 20
0.0
 11
7.5241584690313061
 21
0.0
 72
     1
 10
7.5241584690313061
 20
0.0
 11
7.5241584690313061
 21
2.938954521524181
 72
     1
 10
7.5241584690313061
 20
2.938954521524181
 11
5.9499697336359532
 21
2.938954521524181
 72
     1
 10
5.9499697336359532
 20
2.938954521524181
 11
6.8940140695489163
 21
3.882998857437201
 97
        0
 75
     0
 76
     1
 98
        1
 10
0.0
 20
0.0
  0
HATCH
  5
724
100
AcDbEntity
  8
0
390
0
  6
CONTINUOUS
 62
   142
100
AcDbHatch
 10
0.0
 20
0.0
 30
0.0
210
0.0
220
0.0
230
1.0
  2
SOLID
 70
     1
 71
     0
 91
        1
 92
        1
 93
       29
 72
     1
 10
1.1828188579355015
 20
5.8779090430483052
 11
6.3397211909144744
 21
5.8779090430483052
 72
     1
 10
6.3397211909144744
 20
5.8779090430483052
 11
4.8702439301523555
 21
4.4084317822861294
 72
     1
 10
4.8702439301523555
 20
4.4084317822861294
 11
4.8625470588434609
 21
4.4084317822861294
 72
     1
 10
4.8625470588434609
 20
4.4084317822861294
 11
4.6393378533572331
 21
4.4084317822861294
 72
     1
 10
4.6393378533572331
 20
4.4084317822861294
 11
4.4007349095616632
 21
4.4084317822861294
 72
     1
 10
4.4007349095616632
 20
4.4084317822861294
 11
4.1775257040753786
 21
4.4084317822861294
 72
     1
 10
4.1775257040753786
 20
4.4084317822861294
 11
2.7080484433132597
 21
2.938954521524181
 72
     1
 10
2.7080484433132597
 20
2.938954521524181
 11
2.9312576487994875
 21
2.938954521524181
 72
     1
 10
2.9312576487994875
 20
2.938954521524181
 11
3.1698605925950574
 21
2.938954521524181
 72
     1
 10
3.1698605925950574
 20
2.938954521524181
 11
3.393069798081342
 21
2.938954521524181
 72
     1
 10
3.393069798081342
 20
2.938954521524181
 11
3.6316727418769119
 21
2.938954521524181
 72
     1
 10
3.6316727418769119
 20
2.938954521524181
 11
3.8548819471932916
 21
2.938954521524181
 72
     1
 10
3.8548819471932916
 20
2.938954521524181
 11
3.8702756898110238
 21
2.938954521524181
 72
     1
 10
3.8702756898110238
 20
2.938954521524181
 11
2.4007984290489048
 21
1.4694772607620621
 72
     1
 10
2.4007984290489048
 20
1.4694772607620621
 11
2.6240076345351326
 21
1.4694772607620621
 72
     1
 10
2.6240076345351326
 20
1.4694772607620621
 11
2.8626105783307025
 21
1.4694772607620621
 72
     1
 10
2.8626105783307025
 20
1.4694772607620621
 11
3.0858197838169872
 21
1.4694772607620621
 72
     1
 10
3.0858197838169872
 20
1.4694772607620621
 11
3.3244227276125571
 21
1.4694772607620621
 72
     1
 10
3.3244227276125571
 20
1.4694772607620621
 11
3.5476319330988417
 21
1.4694772607620621
 72
     1
 10
3.5476319330988417
 20
1.4694772607620621
 11
3.5553287995964524
 21
1.4694772607620621
 72
     1
 10
3.5553287995964524
 20
1.4694772607620621
 11
2.0858515404561331
 21
0.0
 72
     1
 10
2.0858515404561331
 20
0.0
 11
0.0
 21
0.0
 72
     1
 10
0.0
 20
0.0
 11
1.4694772607617779
 21
1.4694772607620621
 72
     1
 10
1.4694772607617779
 20
1.4694772607620621
 11
0.3149468878520452
 21
1.4694772607620621
 72
     1
 10
0.3149468878520452
 20
1.4694772607620621
 11
1.7844241486142209
 21
2.938954521524181
 72
     1
 10
1.7844241486142209
 20
2.938954521524181
 11
0.6298937757044882
 21
2.938954521524181
 72
     1
 10
0.6298937757044882
 20
2.938954521524181
 11
2.0993710364666072
 21
4.4084317822861294
 72
     1
 10
2.0993710364666072
 20
4.4084317822861294
 11
-0.2866584028266743
 21
4.4084317822861294
 72
     1
 10
-0.2866584028266743
 20
4.4084317822861294
 11
1.1828188579355015
 21
5.8779090430483052
 97
        0
 75
     0
 76
     1
 98
        1
 10
0.0
 20
0.0
  0
SOLID
  5
725
100
AcDbEntity
  8
0
390
0
  6
CONTINUOUS
 62
   142
100
AcDbTrace
 10
7.024743
 20
5.877909
 30
0.0
 11
7.263345
 21
5.877909
 31
0.0
 12
5.555265
 22
4.408432
 32
0.0
 13
5.793868
 23
4.408432
 33
0.0
  0
SOLID
  5
726
100
AcDbEntity
  8
0
390
0
  6
CONTINUOUS
 62
   142
100
AcDbTrace
 10
7.486555
 20
5.877909
 30
0.0
 11
7.725158
 21
5.877909
 31
0.0
 12
6.017077
 22
4.408432
 32
0.0
 13
6.25568
 23
4.408432
 33
0.0
  0
SOLID
  5
727
100
AcDbEntity
  8
0
390
0
  6
CONTINUOUS
 62
   142
100
AcDbTrace
 10
7.948367
 20
5.877909
 30
0.0
 11
8.18697
 21
5.877909
 31
0.0
 12
6.47889
 22
4.408432
 32
0.0
 13
6.717493
 23
4.408432
 33
0.0
  0
SOLID
  5
728
100
AcDbEntity
  8
0
390
0
  6
CONTINUOUS
 62
   142
100
AcDbTrace
 10
4.862547
 20
4.408432
 30
0.0
 11
5.10115
 21
4.408432
 31
0.0
 12
3.39307
 22
2.938955
 32
0.0
 13
3.631673
 23
2.938955
 33
0.0
  0
SOLID
  5
729
100
AcDbEntity
  8
0
390
0
  6
CONTINUOUS
 62
   142
100
AcDbTrace
 10
5.324359
 20
4.408432
 30
0.0
 11
5.562962
 21
4.408432
 31
0.0
 12
3.854882
 22
2.938955
 32
0.0
 13
4.093485
 23
2.938955
 33
0.0
  0
SOLID
  5
72A
100
AcDbEntity
  8
0
390
0
  6
CONTINUOUS
 62
   142
100
AcDbTrace
 10
4.555297
 20
2.938955
 30
0.0
 11
4.7939
 21
2.938955
 31
0.0
 12
3.08582
 22
1.469477
 32
0.0
 13
3.324423
 23
1.469477
 33
0.0
  0
SOLID
  5
72B
100
AcDbEntity
  8
0
390
0
  6
CONTINUOUS
 62
   142
100
AcDbTrace
 10
5.017109
 20
2.938955
 30
0.0
 11
5.255712
 21
2.938955
 31
0.0
 12
3.547632
 22
1.469477
 32
0.0
 13
3.786235
 23
1.469477
 33
0.0
  0
SOLID
  5
72C
100
AcDbEntity
  8
0
390
0
  6
CONTINUOUS
 62
   142
100
AcDbTrace
 10
4.24035
 20
1.469477
 30
0.0
 11
4.478953
 21
1.469477
 31
0.0
 12
2.770873
 22
0.0
 32
0.0
 13
3.009476
 23
0.0
 33
0.0
  0
SOLID
  5
72D
100
AcDbEntity
  8
0
390
0
  6
CONTINUOUS
 62
   142
100
AcDbTrace
 10
4.702162
 20
1.469477
 30
0.0
 11
4.940765
 21
1.469477
 31
0.0
 12
3.232685
 22
0.0
 32
0.0
 13
3.471288
 23
0.0
 33
0.0
  0
HATCH
  5
72E
100
AcDbEntity
  8
0
390
0
  6
CONTINUOUS
 62
   142
100
AcDbHatch
 10
0.0
 20
0.0
 30
0.0
210
0.0
220
0.0
230
1.0
  2
SOLID
 70
     1
 71
     0
 91
        1
 92
        1
 93
        8
 72
     1
 10
13.40362793099996
 20
3.882998857437201
 11
14.453087087080007
 21
3.882998857437201
 72
     1
 10
14.453087087080007
 20
3.882998857437201
 11
14.453087087080007
 21
1.0719702004575993
 72
     2
 10
14.593138206110211
 20
1.0719702004575993
 40
0.1400511190301895
 50
180.0
 51
270.0
 73
     1
 72
     1
 10
14.593138206110211
 20
0.9319190814274521
 11
15.341994748274033
 21
0.9319190814274521
 72
     1
 10
15.341994748274033
 20
0.9319190814274521
 11
14.972451239201121
 21
0.0
 72
     1
 10
14.972451239201121
 20
0.0
 11
13.893813587677869
 21
0.0
 72
     2
 10
13.893813587677869
 20
0.490185656677852
 40
0.4901856566777795
 50
90.0
 51
180.0
 73
     0
 72
     1
 10
13.40362793099996
 20
0.490185656677852
 11
13.40362793099996
 21
3.882998857437201
 97
        0
 75
     0
 76
     1
 98
        1
 10
0.0
 20
0.0
  0
SOLID
  5
72F
100
AcDbEntity
  8
0
390
0
  6
CONTINUOUS
 62
   142
100
AcDbTrace
 10
11.589133
 20
3.882999
 30
0.0
 11
13.055683
 21
3.882999
 31
0.0
 12
11.215487
 22
2.938955
 32
0.0
 13
12.682036
 23
2.938955
 33
0.0
  0
HATCH
  5
730
100
AcDbEntity
  8
0
390
0
  6
CONTINUOUS
 62
   142
100
AcDbHatch
 10
0.0
 20
0.0
 30
0.0
210
0.0
220
0.0
230
1.0
  2
SOLID
 70
     1
 71
     0
 91
        1
 92
        1
 93
       17
 72
     1
 10
10.060178704969815
 20
1.9168653457875848
 11
10.060178704969815
 21
3.4628384015157962
 72
     2
 10
10.480338836868384
 20
3.4628384015157962
 40
0.420160131898496
 50
180.0
 51
270.0
 73
     0
 72
     1
 10
10.480338836868384
 20
3.8829985334144226
 11
11.109637861049862
 21
3.8829985334144226
 72
     1
 10
11.109637861049862
 20
3.8829985334144226
 11
11.109637861049862
 21
2.6252844791976599
 72
     2
 10
11.308048041812413
 20
2.6252844791976599
 40
0.1984101807627039
 50
180.0
 51
270.0
 73
     1
 72
     1
 10
11.308048041812413
 20
2.4268742984348819
 11
12.578502396245312
 21
2.4268742984348819
 72
     2
 10
12.578502396245312
 20
2.0067123526864634
 40
0.4201619457484473
 50
270.0
 51
360.0
 73
     0
 72
     1
 10
12.998664341993958
 20
2.0067123526864634
 11
12.998664341993958
 21
0.4201619385789854
 72
     2
 10
12.578502403414689
 20
0.4201619385789854
 40
0.4201619385790121
 50
0.0
 51
90.0
 73
     0
 72
     1
 10
12.578502403414689
 20
0.0
 11
9.8617699799477236
 21
0.0
 72
     1
 10
9.8617699799477236
 20
0.0
 11
10.169732417179716
 21
0.9107548703963175
 72
     1
 10
10.169732417179716
 20
0.9107548703963175
 11
11.809151596708034
 21
0.9107548703963175
 72
     2
 10
11.809151596708034
 20
1.050808459602024
 40
0.1400535892056792
 50
270.0
 51
360.0
 73
     1
 72
     1
 10
11.949205185913911
 20
1.050808459602024
 11
11.949205185913911
 21
1.3566499177862283
 72
     2
 10
11.809151703660973
 20
1.3566499177862283
 40
0.1400534822529047
 50
0.0
 51
90.0
 73
     1
 72
     1
 10
11.809151703660973
 20
1.4967034000391095
 11
10.480340650718404
 21
1.4967034000391095
 72
     2
 10
10.480340650718404
 20
1.9168653457875848
 40
0.4201619457484473
 50
90.0
 51
180.0
 73
     0
 97
        0
 75
     0
 76
     1
 98
        1
 10
0.0
 20
0.0
  0
HATCH
  5
731
100
AcDbEntity
  8
0
390
0
  6
CONTINUOUS
 62
   142
100
AcDbHatch
 10
0.0
 20
0.0
 30
0.0
210
0.0
220
0.0
230
1.0
  2
SOLID
 70
     1
 71
     0
 91
        2
 92
        1
 93
       21
 72
     1
 10
18.532506093116922
 20
3.8829987517639211
 11
19.725674989067898
 21
3.8829987517639211
 72
     2
 10
19.725674989067898
 20
3.535607414249796
 40
0.3473913375141243
 50
270.0
 51
360.0
 73
     0
 72
     1
 10
20.073066326582193
 20
3.535607414249796
 11
20.073066326582193
 21
2.4184649350022482
 72
     2
 10
19.71126426626904
 20
2.4184649350022482
 40
0.3618020603131515
 50
360.0
 51
450.0
 73
     0
 72
     1
 10
19.71126426626904
 20
2.0566628746890956
 11
19.54786556716499
 21
2.0566628746890956
 72
     1
 10
19.54786556716499
 20
2.0566628746890956
 11
19.54786556716499
 21
1.9545050535290329
 72
     1
 10
19.54786556716499
 20
1.9545050535290329
 11
19.711264402717291
 21
1.9545050535290329
 72
     2
 10
19.711264402717291
 20
1.5927029436164162
 40
0.3618021099125151
 50
270.0
 51
360.0
 73
     0
 72
     1
 10
20.073066512629509
 20
1.5927029436164162
 11
20.073066512629509
 21
0.3501446488768352
 72
     2
 10
19.722921863752731
 20
0.3501446488768352
 40
0.3501446488768105
 50
360.0
 51
450.0
 73
     0
 72
     1
 10
19.722921863752731
 20
0.0
 11
16.977161816146349
 21
0.0
 72
     1
 10
16.977161816146349
 20
0.0
 11
16.977161816146349
 21
3.882998857437201
 72
     1
 10
16.977161816146349
 20
3.882998857437201
 11
18.026620972226397
 21
3.8829988774958792
 72
     1
 10
18.026620972226397
 20
3.8829988774958792
 11
18.026620972226397
 21
2.426874318493617
 72
     1
 10
18.026620972226397
 20
2.426874318493617
 11
18.806959437187857
 21
2.4268742984348819
 72
     2
 10
18.806959442287905
 20
2.6252834919846464
 40
0.1984091935497163
 50
269.999999
 51
359.858301
 73
     1
 72
     2
 10
18.806959442287905
 20
2.6252834919846464
 40
0.1984091935497163
 50
359.858301
 51
360.141699
 73
     1
 72
     1
 10
19.005368029076294
 20
2.6257741789563624
 11
19.005368029076294
 21
2.7405455575561746
 72
     2
 10
18.806959065108117
 20
2.7405455575561746
 40
0.1984089639679143
 50
0.0
 51
90.0
 73
     1
 72
     1
 10
18.806959065108117
 20
2.938954521524181
 11
18.158851761520793
 21
2.938954521524181
 72
     1
 10
18.158851761520793
 20
2.938954521524181
 11
18.532506093116922
 21
3.8829987517639211
 97
        0
 92
        1
 93
        6
 72
     2
 10
18.806959035319949
 20
1.1091640107289891
 40
0.1984091403326453
 50
270.0
 51
360.0
 73
     1
 72
     1
 10
19.00536817565262
 20
1.1091640107289891
 11
19.00536817565262
 21
1.2982942064894019
 72
     2
 10
18.806958982102856
 20
1.2982942064894019
 40
0.1984091935497163
 50
0.0
 51
89.999999
 73
     1
 72
     1
 10
18.806958987202961
 20
1.4967034000391095
 11
18.026620972226397
 21
1.4967034200978446
 72
     1
 10
18.026620972226397
 20
1.4967034200978446
 11
18.026620972226397
 21
0.9107548904549958
 72
     1
 10
18.026620972226397
 20
0.9107548904549958
 11
18.8069590302199
 21
0.9107548703963175
 97
        0
 75
     0
 76
     1
 98
        1
 10
0.0
 20
0.0
  0
ENDBLK
  5
732
100
AcDbEntity
  8
0
370
    -2
390
0
100
AcDbBlockEnd
  0
BLOCK
  5
42
100
AcDbEntity
  8
0
370
    -2
390
0
  6
ByBlock
 62
     0
100
AcDbBlockBegin
  2
_OPEN30
 70
     2
 10
0.0
 20
0.0
 30
0.0
  3
_OPEN30
  1

  0
LINE
  5
43
100
AcDbEntity
  8
0
370
    -2
390
0
  6
ByBlock
 62
     0
100
AcDbLine
 10
-1.0
 20
0.267949
 30
0.0
 11
0.0
 21
0.0
 31
0.0
  0
LINE
  5
44
100
AcDbEntity
  8
0
370
    -2
390
0
  6
ByBlock
 62
     0
100
AcDbLine
 10
0.0
 20
0.0
 30
0.0
 11
-1.0
 21
-0.267949
 31
0.0
  0
LINE
  5
45
100
AcDbEntity
  8
0
370
    -2
390
0
  6
ByBlock
 62
     0
100
AcDbLine
 10
0.0
 20
0.0
 30
0.0
 11
-1.0
 21
0.0
 31
0.0
  0
ENDBLK
  5
46
100
AcDbEntity
  8
0
370
    -2
390
0
  6
ByBlock
 62
     0
100
AcDbBlockEnd
  0
BLOCK
  5
F3
100
AcDbEntity
  8
0
370
    -2
390
0
  6
ByBlock
 62
     0
100
AcDbBlockBegin
  2
*D29
 70
     1
 10
0.0
 20
0.0
 30
0.0
  3
*D29
  1

  0
LINE
  5
F4
100
AcDbEntity
  8
0
390
0
  6
CONTINUOUS
 62
    50
100
AcDbLine
 10
60.0
 20
34.5
 30
0.0
 11
60.0
 21
-34.5
 31
0.0
  0
LINE
  5
F5
100
AcDbEntity
  8
0
390
0
  6
CONTINUOUS
 62
    50
100
AcDbLine
 10
46.5
 20
34.5
 30
0.0
 11
62.5
 21
34.5
 31
0.0
  0
LINE
  5
F6
100
AcDbEntity
  8
0
390
0
  6
CONTINUOUS
 62
    50
100
AcDbLine
 10
46.5
 20
-34.5
 30
0.0
 11
62.5
 21
-34.5
 31
0.0
  0
INSERT
  5
FD
100
AcDbEntity
  8
0
390
0
  6
CONTINUOUS
 62
    50
100
AcDbBlockReference
  2
_OPEN
 10
60.0
 20
34.5
 30
0.0
 41
3.0
 42
3.0
 43
3.0
 50
90.0
  0
INSERT
  5
FE
100
AcDbEntity
  8
0
390
0
  6
CONTINUOUS
 62
    50
100
AcDbBlockReference
  2
_OPEN
 10
60.0
 20
-34.5
 30
0.0
 41
3.0
 42
3.0
 43
3.0
 50
270.0
  0
MTEXT
  5
FF
100
AcDbEntity
  8
0
390
0
  6
CONTINUOUS
 62
    50
100
AcDbMText
 10
57.0
 20
0.0
 30
0.0
 40
4.0
 41
0.0
 71
     5
 72
     1
  1
\A1;69
 11
0.0
 21
1.0
 31
0.0
 73
     1
 44
0.9
  0
POINT
  5
100
100
AcDbEntity
  8
DEFPOINTS
390
0
  6
CONTINUOUS
 62
     0
100
AcDbPoint
 10
46.5
 20
34.5
 30
0.0
  0
POINT
  5
101
100
AcDbEntity
  8
DEFPOINTS
390
0
  6
CONTINUOUS
 62
     0
100
AcDbPoint
 10
46.5
 20
-34.5
 30
0.0
  0
POINT
  5
102
100
AcDbEntity
  8
DEFPOINTS
390
0
  6
CONTINUOUS
 62
     0
100
AcDbPoint
 10
60.0
 20
-34.5
 30
0.0
  0
ENDBLK
  5
103
100
AcDbEntity
  8
0
370
    -2
390
0
  6
ByBlock
 62
     0
100
AcDbBlockEnd
  0
BLOCK
  5
F8
100
AcDbEntity
  8
0
370
    -2
390
0
  6
ByBlock
 62
     0
100
AcDbBlockBegin
  2
_OPEN
 70
     2
 10
0.0
 20
0.0
 30
0.0
  3
_OPEN
  1

  0
LINE
  5
F9
100
AcDbEntity
  8
0
370
    -2
390
0
  6
ByBlock
 62
     0
100
AcDbLine
 10
-1.0
 20
0.166667
 30
0.0
 11
0.0
 21
0.0
 31
0.0
  0
LINE
  5
FA
100
AcDbEntity
  8
0
370
    -2
390
0
  6
ByBlock
 62
     0
100
AcDbLine
 10
0.0
 20
0.0
 30
0.0
 11
-1.0
 21
-0.166667
 31
0.0
  0
LINE
  5
FB
100
AcDbEntity
  8
0
370
    -2
390
0
  6
ByBlock
 62
     0
100
AcDbLine
 10
0.0
 20
0.0
 30
0.0
 11
-1.0
 21
0.0
 31
0.0
  0
ENDBLK
  5
FC
100
AcDbEntity
  8
0
370
    -2
390
0
  6
ByBlock
 62
     0
100
AcDbBlockEnd
  0
BLOCK
  5
106
100
AcDbEntity
  8
0
370
    -2
390
0
  6
ByBlock
 62
     0
100
AcDbBlockBegin
  2
*D31
 70
     1
 10
0.0
 20
0.0
 30
0.0
  3
*D31
  1

  0
LINE
  5
107
100
AcDbEntity
  8
0
390
0
  6
CONTINUOUS
 62
    50
100
AcDbLine
 10
-46.5
 20
40.0
 30
0.0
 11
46.5
 21
40.0
 31
0.0
  0
LINE
  5
108
100
AcDbEntity
  8
0
390
0
  6
CONTINUOUS
 62
    50
100
AcDbLine
 10
-46.5
 20
34.5
 30
0.0
 11
-46.5
 21
42.5
 31
0.0
  0
LINE
  5
109
100
AcDbEntity
  8
0
390
0
  6
CONTINUOUS
 62
    50
100
AcDbLine
 10
46.5
 20
34.5
 30
0.0
 11
46.5
 21
42.5
 31
0.0
  0
INSERT
  5
10A
100
AcDbEntity
  8
0
390
0
  6
CONTINUOUS
 62
    50
100
AcDbBlockReference
  2
_OPEN
 10
-46.5
 20
40.0
 30
0.0
 41
3.0
 42
3.0
 43
3.0
 50
180.0
  0
INSERT
  5
10B
100
AcDbEntity
  8
0
390
0
  6
CONTINUOUS
 62
    50
100
AcDbBlockReference
  2
_OPEN
 10
46.5
 20
40.0
 30
0.0
 41
3.0
 42
3.0
 43
3.0
  0
MTEXT
  5
10C
100
AcDbEntity
  8
0
390
0
  6
CONTINUOUS
 62
    50
100
AcDbMText
 10
0.0
 20
43.0
 30
0.0
 40
4.0
 41
0.0
 71
     5
 72
     1
  1
\A1;93
 73
     1
 44
0.9
  0
POINT
  5
10D
100
AcDbEntity
  8
DEFPOINTS
390
0
  6
CONTINUOUS
 62
     0
100
AcDbPoint
 10
-46.5
 20
34.5
 30
0.0
  0
POINT
  5
10E
100
AcDbEntity
  8
DEFPOINTS
390
0
  6
CONTINUOUS
 62
     0
100
AcDbPoint
 10
46.5
 20
34.5
 30
0.0
  0
POINT
  5
10F
100
AcDbEntity
  8
DEFPOINTS
390
0
  6
CONTINUOUS
 62
     0
100
AcDbPoint
 10
46.5
 20
40.0
 30
0.0
  0
ENDBLK
  5
110
100
AcDbEntity
  8
0
370
    -2
390
0
  6
ByBlock
 62
     0
100
AcDbBlockEnd
  0
BLOCK
  5
1BF
100
AcDbEntity
  8
0
370
    -2
390
0
  6
ByBlock
 62
     0
100
AcDbBlockBegin
  2
*D32
 70
     1
 10
0.0
 20
0.0
 30
0.0
  3
*D32
  1

  0
LINE
  5
1C0
100
AcDbEntity
  8
0
390
0
  6
CONTINUOUS
 62
   230
100
AcDbLine
 10
-48.0
 20
57.783003
 30
0.0
 11
48.0
 21
57.783003
 31
0.0
  0
LINE
  5
1C1
100
AcDbEntity
  8
0
390
0
  6
CONTINUOUS
 62
   230
100
AcDbLine
 10
-48.0
 20
35.0
 30
0.0
 11
-48.0
 21
60.283003
 31
0.0
  0
LINE
  5
1C2
100
AcDbEntity
  8
0
390
0
  6
CONTINUOUS
 62
   230
100
AcDbLine
 10
48.0
 20
35.0
 30
0.0
 11
48.0
 21
60.283003
 31
0.0
  0
INSERT
  5
1C3
100
AcDbEntity
  8
0
390
0
  6
CONTINUOUS
 62
   230
100
AcDbBlockReference
  2
_OPEN
 10
-48.0
 20
57.783003
 30
0.0
 41
3.0
 42
3.0
 43
3.0
 50
180.0
  0
INSERT
  5
1C4
100
AcDbEntity
  8
0
390
0
  6
CONTINUOUS
 62
   230
100
AcDbBlockReference
  2
_OPEN
 10
48.0
 20
57.783003
 30
0.0
 41
3.0
 42
3.0
 43
3.0
  0
MTEXT
  5
1C5
100
AcDbEntity
  8
0
390
0
  6
CONTINUOUS
 62
   230
100
AcDbMText
 10
-0.432976
 20
60.033003
 30
0.0
 40
2.5
 41
0.0
 71
     5
 72
     1
  1
\A1;96
 73
     1
 44
0.9
  0
POINT
  5
1C6
100
AcDbEntity
  8
DEFPOINTS
390
0
  6
CONTINUOUS
 62
     0
100
AcDbPoint
 10
-48.0
 20
35.0
 30
0.0
  0
POINT
  5
1C7
100
AcDbEntity
  8
DEFPOINTS
390
0
  6
CONTINUOUS
 62
     0
100
AcDbPoint
 10
48.0
 20
35.0
 30
0.0
  0
POINT
  5
1C8
100
AcDbEntity
  8
DEFPOINTS
390
0
  6
CONTINUOUS
 62
     0
100
AcDbPoint
 10
48.0
 20
57.783003
 30
0.0
  0
ENDBLK
  5
1C9
100
AcDbEntity
  8
0
370
    -2
390
0
  6
ByBlock
 62
     0
100
AcDbBlockEnd
  0
BLOCK
  5
1CC
100
AcDbEntity
  8
0
370
    -2
390
0
  6
ByBlock
 62
     0
100
AcDbBlockBegin
  2
*D33
 70
     1
 10
0.0
 20
0.0
 30
0.0
  3
*D33
  1

  0
LINE
  5
1CD
100
AcDbEntity
  8
0
390
0
  6
CONTINUOUS
 62
   230
100
AcDbLine
 10
70.0
 20
45.0
 30
0.0
 11
70.0
 21
-45.0
 31
0.0
  0
LINE
  5
1CE
100
AcDbEntity
  8
0
390
0
  6
CONTINUOUS
 62
   230
100
AcDbLine
 10
45.0
 20
45.0
 30
0.0
 11
72.5
 21
45.0
 31
0.0
  0
LINE
  5
1CF
100
AcDbEntity
  8
0
390
0
  6
CONTINUOUS
 62
   230
100
AcDbLine
 10
45.0
 20
-45.0
 30
0.0
 11
72.5
 21
-45.0
 31
0.0
  0
INSERT
  5
1D0
100
AcDbEntity
  8
0
390
0
  6
CONTINUOUS
 62
   230
100
AcDbBlockReference
  2
_OPEN
 10
70.0
 20
45.0
 30
0.0
 41
3.0
 42
3.0
 43
3.0
 50
90.0
  0
INSERT
  5
1D1
100
AcDbEntity
  8
0
390
0
  6
CONTINUOUS
 62
   230
100
AcDbBlockReference
  2
_OPEN
 10
70.0
 20
-45.0
 30
0.0
 41
3.0
 42
3.0
 43
3.0
 50
270.0
  0
MTEXT
  5
1D2
100
AcDbEntity
  8
0
390
0
  6
CONTINUOUS
 62
   230
100
AcDbMText
 10
67.75
 20
0.0
 30
0.0
 40
2.5
 41
0.0
 71
     5
 72
     1
  1
\A1;90
 11
0.0
 21
1.0
 31
0.0
 73
     1
 44
0.9
  0
POINT
  5
1D3
100
AcDbEntity
  8
DEFPOINTS
390
0
  6
CONTINUOUS
 62
     0
100
AcDbPoint
 10
45.0
 20
45.0
 30
0.0
  0
POINT
  5
1D4
100
AcDbEntity
  8
DEFPOINTS
390
0
  6
CONTINUOUS
 62
     0
100
AcDbPoint
 10
45.0
 20
-45.0
 30
0.0
  0
POINT
  5
1D5
100
AcDbEntity
  8
DEFPOINTS
390
0
  6
CONTINUOUS
 62
     0
100
AcDbPoint
 10
70.0
 20
-45.0
 30
0.0
  0
ENDBLK
  5
1D6
100
AcDbEntity
  8
0
370
    -2
390
0
  6
ByBlock
 62
     0
100
AcDbBlockEnd
  0
BLOCK
  5
429
100
AcDbEntity
  8
0
370
    -2
390
0
  6
ByBlock
 62
     0
100
AcDbBlockBegin
  2
*D34
 70
     1
 10
0.0
 20
0.0
 30
0.0
  3
*D34
  1

  0
LINE
  5
42A
100
AcDbEntity
  8
0
390
0
  6
CONTINUOUS
 62
   230
100
AcDbLine
 10
144.9
 20
45.0
 30
0.0
 11
144.9
 21
-54.5
 31
0.0
  0
LINE
  5
42B
100
AcDbEntity
  8
0
390
0
  6
CONTINUOUS
 62
   230
100
AcDbLine
 10
122.8
 20
45.0
 30
0.0
 11
147.4
 21
45.0
 31
0.0
  0
LINE
  5
42C
100
AcDbEntity
  8
0
390
0
  6
CONTINUOUS
 62
   230
100
AcDbLine
 10
123.8
 20
-54.5
 30
0.0
 11
147.4
 21
-54.5
 31
0.0
  0
INSERT
  5
42D
100
AcDbEntity
  8
0
390
0
  6
CONTINUOUS
 62
   230
100
AcDbBlockReference
  2
_OPEN
 10
144.9
 20
45.0
 30
0.0
 41
3.0
 42
3.0
 43
3.0
 50
90.0
  0
INSERT
  5
42E
100
AcDbEntity
  8
0
390
0
  6
CONTINUOUS
 62
   230
100
AcDbBlockReference
  2
_OPEN
 10
144.9
 20
-54.5
 30
0.0
 41
3.0
 42
3.0
 43
3.0
 50
270.0
  0
MTEXT
  5
430
100
AcDbEntity
  8
0
390
0
  6
CONTINUOUS
 62
   230
100
AcDbMText
 10
142.65
 20
-4.75
 30
0.0
 40
2.5
 41
0.0
 71
     5
 72
     1
  1
\A1;99.5
  7
MX_DIMTXSTY_2
 11
0.0
 21
1.0
 31
0.0
 73
     1
 44
0.9
  0
POINT
  5
431
100
AcDbEntity
  8
DEFPOINTS
390
0
  6
CONTINUOUS
 62
     0
100
AcDbPoint
 10
122.8
 20
45.0
 30
0.0
  0
POINT
  5
432
100
AcDbEntity
  8
DEFPOINTS
390
0
  6
CONTINUOUS
 62
     0
100
AcDbPoint
 10
123.8
 20
-54.5
 30
0.0
  0
POINT
  5
433
100
AcDbEntity
  8
DEFPOINTS
390
0
  6
CONTINUOUS
 62
     0
100
AcDbPoint
 10
144.9
 20
-54.5
 30
0.0
  0
ENDBLK
  5
434
100
AcDbEntity
  8
0
370
    -2
390
0
  6
ByBlock
 62
     0
100
AcDbBlockEnd
  0
BLOCK
  5
43A
100
AcDbEntity
  8
0
370
    -2
390
0
  6
ByBlock
 62
     0
100
AcDbBlockBegin
  2
$SYMTB004-46
 70
     0
 10
0.0
 20
0.0
 30
0.0
  3
$SYMTB004-46
  1

  0
ARC
  5
43B
100
AcDbEntity
  8
0
390
0
  6
CONTINUOUS
 62
     0
100
AcDbCircle
 10
-0.760101
 20
-1.679672
 30
0.0
 40
1.0
100
AcDbArc
 50
196.256979
 51
264.999391
  0
ARC
  5
43C
100
AcDbEntity
  8
0
390
0
  6
CONTINUOUS
 62
     0
100
AcDbCircle
 10
-0.760101
 20
1.679657
 30
0.0
 40
1.0
100
AcDbArc
 50
94.999954
 51
163.901263
  0
ARC
  5
43D
100
AcDbEntity
  8
0
390
0
  6
CONTINUOUS
 62
     0
100
AcDbCircle
 10
5.0
 20
0.0
 30
0.0
 40
7.0
100
AcDbArc
 50
163.743185
 51
196.256907
  0
LINE
  5
43E
100
AcDbEntity
  8
0
390
0
  6
CONTINUOUS
 62
     0
100
AcDbLine
 10
-0.000022
 20
-2.750017
 30
0.0
 11
-0.847279
 21
-2.675886
 31
0.0
  0
LINE
  5
43F
100
AcDbEntity
  8
0
390
0
  6
CONTINUOUS
 62
     0
100
AcDbLine
 10
-0.000009
 20
2.749972
 30
0.0
 11
-0.847282
 21
2.675846
 31
0.0
  0
ENDBLK
  5
440
100
AcDbEntity
  8
0
370
    -2
390
0
  6
ByBlock
 62
     0
100
AcDbBlockEnd
  0
BLOCK
  5
61F
100
AcDbEntity
  8
0
370
    -2
390
0
  6
ByBlock
 62
     0
100
AcDbBlockBegin
  2
*D36
 70
     1
 10
0.0
 20
0.0
 30
0.0
  3
*D36
  1

  0
LINE
  5
620
100
AcDbEntity
  8
0
390
0
  6
CONTINUOUS
 62
   230
100
AcDbLine
 10
70.0
 20
0.0
 30
0.0
 11
70.0
 21
-123.8
 31
0.0
  0
LINE
  5
621
100
AcDbEntity
  8
0
390
0
  6
CONTINUOUS
 62
   230
100
AcDbLine
 10
47.0
 20
0.0
 30
0.0
 11
72.5
 21
0.0
 31
0.0
  0
LINE
  5
622
100
AcDbEntity
  8
0
390
0
  6
CONTINUOUS
 62
   230
100
AcDbLine
 10
47.0
 20
-123.8
 30
0.0
 11
72.5
 21
-123.8
 31
0.0
  0
INSERT
  5
623
100
AcDbEntity
  8
0
390
0
  6
CONTINUOUS
 62
   230
100
AcDbBlockReference
  2
_OPEN
 10
70.0
 20
0.0
 30
0.0
 41
3.0
 42
3.0
 43
3.0
 50
90.0
  0
INSERT
  5
624
100
AcDbEntity
  8
0
390
0
  6
CONTINUOUS
 62
   230
100
AcDbBlockReference
  2
_OPEN
 10
70.0
 20
-123.8
 30
0.0
 41
3.0
 42
3.0
 43
3.0
 50
270.0
  0
MTEXT
  5
626
100
AcDbEntity
  8
0
390
0
  6
CONTINUOUS
 62
   230
100
AcDbMText
 10
67.75
 20
-61.900002
 30
0.0
 40
2.5
 41
0.0
 71
     5
 72
     1
  1
\A1;124
  7
MX_DIMTXSTY_3
 11
0.0
 21
1.0
 31
0.0
 73
     1
 44
0.9
  0
POINT
  5
627
100
AcDbEntity
  8
DEFPOINTS
390
0
  6
CONTINUOUS
 62
     0
100
AcDbPoint
 10
47.0
 20
0.0
 30
0.0
  0
POINT
  5
628
100
AcDbEntity
  8
DEFPOINTS
390
0
  6
CONTINUOUS
 62
     0
100
AcDbPoint
 10
47.0
 20
-123.8
 30
0.0
  0
POINT
  5
629
100
AcDbEntity
  8
DEFPOINTS
390
0
  6
CONTINUOUS
 62
     0
100
AcDbPoint
 10
70.0
 20
-123.8
 30
0.0
  0
ENDBLK
  5
62A
100
AcDbEntity
  8
0
370
    -2
390
0
  6
ByBlock
 62
     0
100
AcDbBlockEnd
  0
BLOCK
  5
668
100
AcDbEntity
  8
0
370
    -2
390
0
  6
ByBlock
 62
     0
100
AcDbBlockBegin
  2
*D37
 70
     1
 10
0.0
 20
0.0
 30
0.0
  3
*D37
  1

  0
LINE
  5
669
100
AcDbEntity
  8
0
390
0
  6
CONTINUOUS
 62
   230
100
AcDbLine
 10
0.0
 20
10.0
 30
0.0
 11
84.0
 21
10.0
 31
0.0
  0
LINE
  5
66A
100
AcDbEntity
  8
0
390
0
  6
CONTINUOUS
 62
   230
100
AcDbLine
 10
0.0
 20
5.0
 30
0.0
 11
0.0
 21
12.5
 31
0.0
  0
LINE
  5
66B
100
AcDbEntity
  8
0
390
0
  6
CONTINUOUS
 62
   230
100
AcDbLine
 10
84.0
 20
5.0
 30
0.0
 11
84.0
 21
12.5
 31
0.0
  0
INSERT
  5
66C
100
AcDbEntity
  8
0
390
0
  6
CONTINUOUS
 62
   230
100
AcDbBlockReference
  2
_OPEN
 10
0.0
 20
10.0
 30
0.0
 41
3.0
 42
3.0
 43
3.0
 50
180.0
  0
INSERT
  5
66D
100
AcDbEntity
  8
0
390
0
  6
CONTINUOUS
 62
   230
100
AcDbBlockReference
  2
_OPEN
 10
84.0
 20
10.0
 30
0.0
 41
3.0
 42
3.0
 43
3.0
  0
MTEXT
  5
66E
100
AcDbEntity
  8
0
390
0
  6
CONTINUOUS
 62
   230
100
AcDbMText
 10
42.0
 20
12.25
 30
0.0
 40
2.5
 41
0.0
 71
     5
 72
     1
  1
\A1;84
 73
     1
 44
0.9
  0
POINT
  5
66F
100
AcDbEntity
  8
DEFPOINTS
390
0
  6
CONTINUOUS
 62
     0
100
AcDbPoint
 10
0.0
 20
5.0
 30
0.0
  0
POINT
  5
670
100
AcDbEntity
  8
DEFPOINTS
390
0
  6
CONTINUOUS
 62
     0
100
AcDbPoint
 10
84.0
 20
5.0
 30
0.0
  0
POINT
  5
671
100
AcDbEntity
  8
DEFPOINTS
390
0
  6
CONTINUOUS
 62
     0
100
AcDbPoint
 10
84.0
 20
10.0
 30
0.0
  0
ENDBLK
  5
672
100
AcDbEntity
  8
0
370
    -2
390
0
  6
ByBlock
 62
     0
100
AcDbBlockEnd
  0
BLOCK
  5
67F
100
AcDbEntity
  8
0
370
    -2
390
0
  6
ByBlock
 62
     0
100
AcDbBlockBegin
  2
*D38
 70
     1
 10
0.0
 20
0.0
 30
0.0
  3
*D38
  1

  0
LINE
  5
680
100
AcDbEntity
  8
0
390
0
  6
CONTINUOUS
 62
    50
100
AcDbLine
 10
-46.5
 20
40.0
 30
0.0
 11
46.5
 21
40.0
 31
0.0
  0
LINE
  5
681
100
AcDbEntity
  8
0
390
0
  6
CONTINUOUS
 62
    50
100
AcDbLine
 10
-46.5
 20
34.5
 30
0.0
 11
-46.5
 21
42.5
 31
0.0
  0
LINE
  5
682
100
AcDbEntity
  8
0
390
0
  6
CONTINUOUS
 62
    50
100
AcDbLine
 10
46.5
 20
34.5
 30
0.0
 11
46.5
 21
42.5
 31
0.0
  0
INSERT
  5
683
100
AcDbEntity
  8
0
390
0
  6
CONTINUOUS
 62
    50
100
AcDbBlockReference
  2
_OPEN
 10
-46.5
 20
40.0
 30
0.0
 41
3.0
 42
3.0
 43
3.0
 50
180.0
  0
INSERT
  5
684
100
AcDbEntity
  8
0
390
0
  6
CONTINUOUS
 62
    50
100
AcDbBlockReference
  2
_OPEN
 10
46.5
 20
40.0
 30
0.0
 41
3.0
 42
3.0
 43
3.0
  0
MTEXT
  5
685
100
AcDbEntity
  8
0
390
0
  6
CONTINUOUS
 62
    50
100
AcDbMText
 10
0.0
 20
43.0
 30
0.0
 40
4.0
 41
0.0
 71
     5
 72
     1
  1
\A1;93
 73
     1
 44
0.9
  0
POINT
  5
686
100
AcDbEntity
  8
DEFPOINTS
390
0
  6
CONTINUOUS
 62
     0
100
AcDbPoint
 10
-46.5
 20
34.5
 30
0.0
  0
POINT
  5
687
100
AcDbEntity
  8
DEFPOINTS
390
0
  6
CONTINUOUS
 62
     0
100
AcDbPoint
 10
46.5
 20
34.5
 30
0.0
  0
POINT
  5
688
100
AcDbEntity
  8
DEFPOINTS
390
0
  6
CONTINUOUS
 62
     0
100
AcDbPoint
 10
46.5
 20
40.0
 30
0.0
  0
ENDBLK
  5
689
100
AcDbEntity
  8
0
370
    -2
390
0
  6
ByBlock
 62
     0
100
AcDbBlockEnd
  0
BLOCK
  5
68C
100
AcDbEntity
  8
0
370
    -2
390
0
  6
ByBlock
 62
     0
100
AcDbBlockBegin
  2
*D39
 70
     1
 10
0.0
 20
0.0
 30
0.0
  3
*D39
  1

  0
LINE
  5
68D
100
AcDbEntity
  8
0
390
0
  6
CONTINUOUS
 62
    50
100
AcDbLine
 10
60.0
 20
34.5
 30
0.0
 11
60.0
 21
-34.5
 31
0.0
  0
LINE
  5
68E
100
AcDbEntity
  8
0
390
0
  6
CONTINUOUS
 62
    50
100
AcDbLine
 10
46.5
 20
34.5
 30
0.0
 11
62.5
 21
34.5
 31
0.0
  0
LINE
  5
68F
100
AcDbEntity
  8
0
390
0
  6
CONTINUOUS
 62
    50
100
AcDbLine
 10
46.5
 20
-34.5
 30
0.0
 11
62.5
 21
-34.5
 31
0.0
  0
INSERT
  5
690
100
AcDbEntity
  8
0
390
0
  6
CONTINUOUS
 62
    50
100
AcDbBlockReference
  2
_OPEN
 10
60.0
 20
34.5
 30
0.0
 41
3.0
 42
3.0
 43
3.0
 50
90.0
  0
INSERT
  5
691
100
AcDbEntity
  8
0
390
0
  6
CONTINUOUS
 62
    50
100
AcDbBlockReference
  2
_OPEN
 10
60.0
 20
-34.5
 30
0.0
 41
3.0
 42
3.0
 43
3.0
 50
270.0
  0
MTEXT
  5
692
100
AcDbEntity
  8
0
390
0
  6
CONTINUOUS
 62
    50
100
AcDbMText
 10
57.0
 20
0.0
 30
0.0
 40
4.0
 41
0.0
 71
     5
 72
     1
  1
\A1;69
 11
0.0
 21
1.0
 31
0.0
 73
     1
 44
0.9
  0
POINT
  5
693
100
AcDbEntity
  8
DEFPOINTS
390
0
  6
CONTINUOUS
 62
     0
100
AcDbPoint
 10
46.5
 20
34.5
 30
0.0
  0
POINT
  5
694
100
AcDbEntity
  8
DEFPOINTS
390
0
  6
CONTINUOUS
 62
     0
100
AcDbPoint
 10
46.5
 20
-34.5
 30
0.0
  0
POINT
  5
695
100
AcDbEntity
  8
DEFPOINTS
390
0
  6
CONTINUOUS
 62
     0
100
AcDbPoint
 10
60.0
 20
-34.5
 30
0.0
  0
ENDBLK
  5
696
100
AcDbEntity
  8
0
370
    -2
390
0
  6
ByBlock
 62
     0
100
AcDbBlockEnd
  0
ENDSEC
  0
SECTION
  2
ENTITIES
  0
MTEXT
  5
733
100
AcDbEntity
  8
LY_1
390
0
  6
CONTINUOUS
 62
   142
100
AcDbMText
 10
-77.030105
 20
218.0
 30
0.0
 40
3.2
 41
0.0
 71
     4
 72
     1
  1
\W0.821;\A1;　　０．１　～　２５ｓ\PX5（積算開始指令）入力時
 73
     1
 44
0.9375
  0
LINE
  5
734
100
AcDbEntity
  8
LY_1
390
0
  6
DASHED
 62
   255
100
AcDbLine
 10
-101.0
 20
218.0
 30
0.0
 11
-14.0
 21
218.0
 31
0.0
  0
MTEXT
  5
735
100
AcDbEntity
  8
LY_1
390
0
  6
CONTINUOUS
 62
   142
100
AcDbMText
 10
-63.051402
 20
252.6
 30
0.0
 40
3.2
 41
0.0
 71
     1
 72
     1
  1
\W0.841;\A1;0～ 99％（積算電力下限設定）
 73
     1
 44
0.9
  0
MTEXT
  5
736
100
AcDbEntity
  8
LY_1
390
0
  6
CONTINUOUS
 62
   142
100
AcDbMText
 10
-63.083333
 20
246.6
 30
0.0
 40
3.2
 41
0.0
 71
     1
 72
     1
  1
\W0.781;\A1;５～２００％（積算電力上限設定）
 73
     1
 44
0.9
  0
MTEXT
  5
737
100
AcDbEntity
  8
LY_1
390
0
  6
CONTINUOUS
 62
   142
100
AcDbMText
 10
-128.083333
 20
78.6
 30
0.0
 40
3.2
 41
0.0
 71
     1
 72
     1
  1
\W0.781;\A1;取　付
 73
     1
 44
0.9
  0
LINE
  5
738
100
AcDbEntity
  8
LY_1
390
0
  6
CONTINUOUS
 62
   255
100
AcDbLine
 10
-147.0
 20
74.0
 30
0.0
 11
-14.0
 21
74.0
 31
0.0
  0
MTEXT
  5
739
100
AcDbEntity
  8
LY_1
390
0
  6
CONTINUOUS
 62
   142
100
AcDbMText
 10
-82.554196
 20
78.6
 30
0.0
 40
3.2
 41
0.0
 71
     1
 72
     1
  1
\W0.836;\A1;35ｍｍDINレールまたはネジ取付
 73
     1
 44
0.9
  0
MTEXT
  5
73A
100
AcDbEntity
  8
LY_1
390
0
  6
CONTINUOUS
 62
   142
100
AcDbMText
 10
-61.967742
 20
89.0
 30
0.0
 40
3.2
 41
0.0
 71
     4
 72
     1
  1
\W0.998;\A1;AC1500V 1分間
 73
     1
 44
0.9
  0
MTEXT
  5
73B
100
AcDbEntity
  8
LY_1
390
0
  6
CONTINUOUS
 62
   142
100
AcDbMText
 10
-99.721354
 20
89.0
 30
0.0
 40
2.5
 41
0.0
 71
     4
 72
     1
  1
\W0.781;\A1;操作電源、接点一括\P-ｹｰｽ間
 73
     1
 44
0.72
  0
MTEXT
  5
73C
100
AcDbEntity
  8
LY_1
390
0
  6
CONTINUOUS
 62
   142
100
AcDbMText
 10
-99.721354
 20
95.0
 30
0.0
 40
2.5
 41
0.0
 71
     4
 72
     1
  1
\W0.781;\A1;操作電源、接点一括\P-E端子間
 73
     1
 44
0.72
  0
LINE
  5
73D
100
AcDbEntity
  8
LY_1
390
0
  6
CONTINUOUS
 62
   255
100
AcDbLine
 10
-78.0
 20
98.0
 30
0.0
 11
-78.0
 21
86.0
 31
0.0
  0
LINE
  5
73E
100
AcDbEntity
  8
LY_1
390
0
  6
CONTINUOUS
 62
   255
100
AcDbLine
 10
-147.0
 20
86.0
 30
0.0
 11
-14.0
 21
86.0
 31
0.0
  0
MTEXT
  5
73F
100
AcDbEntity
  8
LY_1
390
0
  6
CONTINUOUS
 62
   142
100
AcDbMText
 10
-72.569965
 20
156.6
 30
0.0
 40
3.2
 41
0.0
 71
     1
 72
     1
  1
\W0.994;\A1;DC24V, 4mA
 73
     1
 44
0.9
  0
MTEXT
  5
740
100
AcDbEntity
  8
LY_1
390
0
  6
CONTINUOUS
 62
   142
100
AcDbMText
 10
-100.583333
 20
156.6
 30
0.0
 40
3.2
 41
0.0
 71
     1
 72
     1
  1
\W0.781;\A1;最小適用負荷
 73
     1
 44
0.9
  0
LINE
  5
741
100
AcDbEntity
  8
LY_1
390
0
  6
CONTINUOUS
 62
   255
100
AcDbLine
 10
-83.0
 20
164.0
 30
0.0
 11
-14.0
 21
164.0
 31
0.0
  0
LINE
  5
742
100
AcDbEntity
  8
LY_1
390
0
  6
CONTINUOUS
 62
   255
100
AcDbLine
 10
-147.0
 20
98.0
 30
0.0
 11
-14.0
 21
98.0
 31
0.0
  0
LINE
  5
743
100
AcDbEntity
  8
LY_1
390
0
  6
CONTINUOUS
 62
   255
100
AcDbLine
 10
-147.0
 20
80.0
 30
0.0
 11
-14.0
 21
80.0
 31
0.0
  0
MTEXT
  5
744
100
AcDbEntity
  8
LY_1
390
0
  6
CONTINUOUS
 62
   142
100
AcDbMText
 10
-62.928571
 20
84.6
 30
0.0
 40
3.2
 41
0.0
 71
     1
 72
     1
  1
\W1.071;\A1;IP20
 73
     1
 44
0.9
  0
MTEXT
  5
745
100
AcDbEntity
  8
LY_1
390
0
  6
CONTINUOUS
 62
   142
100
AcDbMText
 10
-61.967742
 20
96.6
 30
0.0
 40
3.2
 41
0.0
 71
     1
 72
     1
  1
\W0.998;\A1;AC1500V 1分間
 73
     1
 44
0.9
  0
LINE
  5
746
100
AcDbEntity
  8
LY_1
390
0
  6
CONTINUOUS
 62
   255
100
AcDbLine
 10
-101.0
 20
92.0
 30
0.0
 11
-14.0
 21
92.0
 31
0.0
  0
MTEXT
  5
747
100
AcDbEntity
  8
LY_1
390
0
  6
CONTINUOUS
 62
   142
100
AcDbMText
 10
-129.583333
 20
84.6
 30
0.0
 40
3.2
 41
0.0
 71
     1
 72
     1
  1
\W0.781;\A1;保護構造
 73
     1
 44
0.9
  0
MTEXT
  5
748
100
AcDbEntity
  8
LY_1
390
0
  6
CONTINUOUS
 62
   142
100
AcDbMText
 10
-128.083333
 20
93.6
 30
0.0
 40
3.2
 41
0.0
 71
     1
 72
     1
  1
\W0.781;\A1;耐電圧
 73
     1
 44
0.9
  0
MTEXT
  5
749
100
AcDbEntity
  8
LY_1
390
0
  6
CONTINUOUS
 62
   142
100
AcDbMText
 10
-69.733806
 20
102.6
 30
0.0
 40
3.2
 41
0.0
 71
     1
 72
     1
  1
\W0.968;\A1;4.9m/s{\A1;\H0.50x;2}以下
 73
     1
 44
0.9
  0
MTEXT
  5
74A
100
AcDbEntity
  8
LY_1
390
0
  6
CONTINUOUS
 62
   142
100
AcDbMText
 10
-114.083333
 20
102.6
 30
0.0
 40
3.2
 41
0.0
 71
     1
 72
     1
  1
\W0.781;\A1;振動
 73
     1
 44
0.9
  0
MTEXT
  5
74B
100
AcDbEntity
  8
LY_1
390
0
  6
CONTINUOUS
 62
   142
100
AcDbMText
 10
-89.632
 20
245.0
 30
0.0
 40
3.2
 41
0.0
 71
     4
 72
     1
  1
\W0.960;\A1;OUT2
 73
     1
 44
0.6
  0
MTEXT
  5
74C
100
AcDbEntity
  8
LY_1
390
0
  6
CONTINUOUS
 62
   142
100
AcDbMText
 10
-66.240949
 20
185.0
 30
0.0
 40
3.2
 41
0.0
 71
     4
 72
     1
  1
\W0.891;\A1;1～8段設定
 73
     1
 44
0.6
  0
MTEXT
  5
74D
100
AcDbEntity
  8
LY_1
390
0
  6
CONTINUOUS
 62
   142
100
AcDbMText
 10
-137.262049
 20
185.0
 30
0.0
 40
3.2
 41
0.0
 71
     4
 72
     1
  1
\W1.054;\A1;検出ﾚﾍﾞﾙ切替数
 73
     1
 44
0.6
  0
LINE
  5
74E
100
AcDbEntity
  8
LY_1
390
0
  6
CONTINUOUS
 62
   255
100
AcDbLine
 10
-147.0
 20
182.0
 30
0.0
 11
-14.0
 21
182.0
 31
0.0
  0
MTEXT
  5
74F
100
AcDbEntity
  8
LY_1
390
0
  6
CONTINUOUS
 62
   142
100
AcDbMText
 10
-72.649334
 20
161.0
 30
0.0
 40
3.2
 41
0.0
 71
     4
 72
     1
  1
\W0.800;\A1;ＤＣ１１０Ｖ，０．２Ａ　誘導負荷
 73
     1
 44
0.6
  0
MTEXT
  5
750
100
AcDbEntity
  8
LY_1
390
0
  6
CONTINUOUS
 62
   142
100
AcDbMText
 10
-72.649334
 20
167.0
 30
0.0
 40
3.2
 41
0.0
 71
     4
 72
     1
  1
\W0.800;\A1;ＤＣ　３０Ｖ，０．４Ａ　誘導負荷
 73
     1
 44
0.6
  0
LINE
  5
751
100
AcDbEntity
  8
LY_1
390
0
  6
CONTINUOUS
 62
   255
100
AcDbLine
 10
-83.0
 20
170.0
 30
0.0
 11
-14.0
 21
170.0
 31
0.0
  0
LINE
  5
752
100
AcDbEntity
  8
LY_1
390
0
  6
CONTINUOUS
 62
   255
100
AcDbLine
 10
-101.0
 20
158.0
 30
0.0
 11
-14.0
 21
158.0
 31
0.0
  0
LINE
  5
753
100
AcDbEntity
  8
LY_1
390
0
  6
CONTINUOUS
 62
   255
100
AcDbLine
 10
-83.0
 20
182.0
 30
0.0
 11
-83.0
 21
146.0
 31
0.0
  0
LINE
  5
754
100
AcDbEntity
  8
LY_1
390
0
  6
CONTINUOUS
 62
   255
100
AcDbLine
 10
-147.0
 20
140.0
 30
0.0
 11
-14.0
 21
140.0
 31
0.0
  0
MTEXT
  5
755
100
AcDbEntity
  8
LY_1
390
0
  6
CONTINUOUS
 62
   142
100
AcDbMText
 10
-67.730058
 20
143.0
 30
0.0
 40
3.2
 41
0.0
 71
     4
 72
     1
  1
\W0.979;\A1;DC0～10V
 73
     1
 44
0.6
  0
LINE
  5
756
100
AcDbEntity
  8
LY_1
390
0
  6
CONTINUOUS
 62
   255
100
AcDbLine
 10
-147.0
 20
224.0
 30
0.0
 11
-14.0
 21
224.0
 31
0.0
  0
LINE
  5
757
100
AcDbEntity
  8
LY_1
390
0
  6
CONTINUOUS
 62
   255
100
AcDbLine
 10
-147.0
 20
266.0
 30
0.0
 11
-14.0
 21
266.0
 31
0.0
  0
MTEXT
  5
758
100
AcDbEntity
  8
LY_1
390
0
  6
CONTINUOUS
 62
   142
100
AcDbMText
 10
-87.889323
 20
203.0
 30
0.0
 40
3.2
 41
0.0
 71
     4
 72
     1
  1
\W0.620;\A1;AC90～250V 50/60Hz, DC90～250V 無極性
 73
     1
 44
0.6
  0
LINE
  5
759
100
AcDbEntity
  8
LY_1
390
0
  6
CONTINUOUS
 62
   255
100
AcDbLine
 10
-69.0
 20
254.0
 30
0.0
 11
-69.0
 21
236.0
 31
0.0
  0
LINE
  5
75A
100
AcDbEntity
  8
LY_1
390
0
  6
CONTINUOUS
 62
   255
100
AcDbLine
 10
-122.0
 20
128.0
 30
0.0
 11
-122.0
 21
98.0
 31
0.0
  0
LINE
  5
75B
100
AcDbEntity
  8
LY_1
390
0
  6
CONTINUOUS
 62
   255
100
AcDbLine
 10
-122.0
 20
104.0
 30
0.0
 11
-14.0
 21
104.0
 31
0.0
  0
LINE
  5
75C
100
AcDbEntity
  8
LY_1
390
0
  6
CONTINUOUS
 62
   255
100
AcDbLine
 10
-122.0
 20
110.0
 30
0.0
 11
-14.0
 21
110.0
 31
0.0
  0
LINE
  5
75D
100
AcDbEntity
  8
LY_1
390
0
  6
CONTINUOUS
 62
   255
100
AcDbLine
 10
-122.0
 20
116.0
 30
0.0
 11
-14.0
 21
116.0
 31
0.0
  0
MTEXT
  5
75E
100
AcDbEntity
  8
LY_1
390
0
  6
CONTINUOUS
 62
   142
100
AcDbMText
 10
-80.441492
 20
227.0
 30
0.0
 40
3.2
 41
0.0
 71
     4
 72
     1
  1
\W1.095;\A1;[ＭＩＮ]又は0.1～10.0s
 73
     1
 44
0.6
  0
MTEXT
  5
75F
100
AcDbEntity
  8
LY_1
390
0
  6
CONTINUOUS
 62
   142
100
AcDbMText
 10
-70.668834
 20
233.0
 30
0.0
 40
3.2
 41
0.0
 71
     4
 72
     1
  1
\W1.228;\A1;0.1～20.0s
 73
     1
 44
0.6
  0
MTEXT
  5
760
100
AcDbEntity
  8
LY_1
390
0
  6
CONTINUOUS
 62
   142
100
AcDbMText
 10
-137.504001
 20
227.0
 30
0.0
 40
3.2
 41
0.0
 71
     4
 72
     1
  1
\W0.600;\A1;ショックタイム　設定範囲
 73
     1
 44
0.6
  0
MTEXT
  5
761
100
AcDbEntity
  8
LY_1
390
0
  6
CONTINUOUS
 62
   142
100
AcDbMText
 10
-137.504001
 20
233.0
 30
0.0
 40
3.2
 41
0.0
 71
     4
 72
     1
  1
\W0.600;\A1;スタートタイム　設定範囲
 73
     1
 44
0.6
  0
LINE
  5
762
100
AcDbEntity
  8
LY_1
390
0
  6
CONTINUOUS
 62
   255
100
AcDbLine
 10
-122.0
 20
254.0
 30
0.0
 11
-122.0
 21
266.0
 31
0.0
  0
LINE
  5
763
100
AcDbEntity
  8
LY_1
390
0
  6
CONTINUOUS
 62
   255
100
AcDbLine
 10
-147.0
 20
74.0
 30
0.0
 11
-147.0
 21
272.0
 31
0.0
  0
LINE
  5
764
100
AcDbEntity
  8
LY_1
390
0
  6
CONTINUOUS
 62
   255
100
AcDbLine
 10
-14.0
 20
272.0
 30
0.0
 11
-14.0
 21
74.0
 31
0.0
  0
LINE
  5
765
100
AcDbEntity
  8
LY_1
390
0
  6
CONTINUOUS
 62
   255
100
AcDbLine
 10
-101.0
 20
74.0
 30
0.0
 11
-101.0
 21
272.0
 31
0.0
  0
LINE
  5
766
100
AcDbEntity
  8
LY_1
390
0
  6
CONTINUOUS
 62
   255
100
AcDbLine
 10
-122.0
 20
122.0
 30
0.0
 11
-14.0
 21
122.0
 31
0.0
  0
LINE
  5
767
100
AcDbEntity
  8
LY_1
390
0
  6
CONTINUOUS
 62
   255
100
AcDbLine
 10
-147.0
 20
128.0
 30
0.0
 11
-14.0
 21
128.0
 31
0.0
  0
LINE
  5
768
100
AcDbEntity
  8
LY_1
390
0
  6
CONTINUOUS
 62
   255
100
AcDbLine
 10
-147.0
 20
134.0
 30
0.0
 11
-14.0
 21
134.0
 31
0.0
  0
LINE
  5
769
100
AcDbEntity
  8
LY_1
390
0
  6
CONTINUOUS
 62
   255
100
AcDbLine
 10
-147.0
 20
146.0
 30
0.0
 11
-14.0
 21
146.0
 31
0.0
  0
LINE
  5
76A
100
AcDbEntity
  8
LY_1
390
0
  6
CONTINUOUS
 62
   255
100
AcDbLine
 10
-147.0
 20
230.0
 30
0.0
 11
-14.0
 21
230.0
 31
0.0
  0
LINE
  5
76B
100
AcDbEntity
  8
LY_1
390
0
  6
CONTINUOUS
 62
   255
100
AcDbLine
 10
-147.0
 20
188.0
 30
0.0
 11
-14.0
 21
188.0
 31
0.0
  0
LINE
  5
76C
100
AcDbEntity
  8
LY_1
390
0
  6
CONTINUOUS
 62
   255
100
AcDbLine
 10
-101.0
 20
248.0
 30
0.0
 11
-14.0
 21
248.0
 31
0.0
  0
LINE
  5
76D
100
AcDbEntity
  8
LY_1
390
0
  6
CONTINUOUS
 62
   255
100
AcDbLine
 10
-147.0
 20
206.0
 30
0.0
 11
-14.0
 21
206.0
 31
0.0
  0
LINE
  5
76E
100
AcDbEntity
  8
LY_1
390
0
  6
CONTINUOUS
 62
   255
100
AcDbLine
 10
-147.0
 20
194.0
 30
0.0
 11
-14.0
 21
194.0
 31
0.0
  0
LINE
  5
76F
100
AcDbEntity
  8
LY_1
390
0
  6
CONTINUOUS
 62
   255
100
AcDbLine
 10
-147.0
 20
200.0
 30
0.0
 11
-14.0
 21
200.0
 31
0.0
  0
LINE
  5
770
100
AcDbEntity
  8
LY_1
390
0
  6
CONTINUOUS
 62
   255
100
AcDbLine
 10
-147.0
 20
236.0
 30
0.0
 11
-14.0
 21
236.0
 31
0.0
  0
LINE
  5
771
100
AcDbEntity
  8
LY_1
390
0
  6
CONTINUOUS
 62
   255
100
AcDbLine
 10
-122.0
 20
260.0
 30
0.0
 11
-14.0
 21
260.0
 31
0.0
  0
LINE
  5
772
100
AcDbEntity
  8
LY_1
390
0
  6
CONTINUOUS
 62
   255
100
AcDbLine
 10
-147.0
 20
254.0
 30
0.0
 11
-14.0
 21
254.0
 31
0.0
  0
LINE
  5
773
100
AcDbEntity
  8
LY_1
390
0
  6
CONTINUOUS
 62
   255
100
AcDbLine
 10
-147.0
 20
272.0
 30
0.0
 11
-14.0
 21
272.0
 31
0.0
  0
MTEXT
  5
774
100
AcDbEntity
  8
LY_1
390
0
  6
CONTINUOUS
 62
   142
100
AcDbMText
 10
-78.495631
 20
107.0
 30
0.0
 40
3.2
 41
0.0
 71
     4
 72
     1
  1
\W0.953;\A1;腐食性ｶﾞｽ,塵埃のないこと
 73
     1
 44
0.6
  0
MTEXT
  5
775
100
AcDbEntity
  8
LY_1
390
0
  6
CONTINUOUS
 62
   142
100
AcDbMText
 10
-67.706213
 20
113.0
 30
0.0
 40
3.2
 41
0.0
 71
     4
 72
     1
  1
\W1.023;\A1;1000m以下
 73
     1
 44
0.6
  0
MTEXT
  5
776
100
AcDbEntity
  8
LY_1
390
0
  6
CONTINUOUS
 62
   142
100
AcDbMText
 10
-84.62634
 20
119.0
 30
0.0
 40
3.2
 41
0.0
 71
     4
 72
     1
  1
\W0.978;\A1;45～85%R.H (結露なきこと)
 73
     1
 44
0.6
  0
MTEXT
  5
777
100
AcDbEntity
  8
LY_1
390
0
  6
CONTINUOUS
 62
   142
100
AcDbMText
 10
-64.674737
 20
125.0
 30
0.0
 40
3.2
 41
0.0
 71
     4
 72
     1
  1
\W0.947;\A1;0～50℃
 73
     1
 44
0.6
  0
MTEXT
  5
778
100
AcDbEntity
  8
LY_1
390
0
  6
CONTINUOUS
 62
   142
100
AcDbMText
 10
-64.753333
 20
131.0
 30
0.0
 40
3.2
 41
0.0
 71
     4
 72
     1
  1
\W0.800;\A1;０．５ｋｇ
 73
     1
 44
0.6
  0
MTEXT
  5
779
100
AcDbEntity
  8
LY_1
390
0
  6
CONTINUOUS
 62
   142
100
AcDbMText
 10
-63.217333
 20
137.0
 30
0.0
 40
3.2
 41
0.0
 71
     4
 72
     1
  1
\W0.800;\A1;１０ＶＡ
 73
     1
 44
0.6
  0
MTEXT
  5
77A
100
AcDbEntity
  8
LY_1
390
0
  6
CONTINUOUS
 62
   142
100
AcDbMText
 10
-140.217333
 20
113.0
 30
0.0
 40
3.2
 41
0.0
 71
     4
 72
     1
  1
\W0.800;\A1;使用環境
 73
     1
 44
0.6
  0
MTEXT
  5
77B
100
AcDbEntity
  8
LY_1
390
0
  6
CONTINUOUS
 62
   142
100
AcDbMText
 10
-115.681333
 20
107.0
 30
0.0
 40
3.2
 41
0.0
 71
     4
 72
     1
  1
\W0.800;\A1;雰囲気
 73
     1
 44
0.6
  0
MTEXT
  5
77C
100
AcDbEntity
  8
LY_1
390
0
  6
CONTINUOUS
 62
   142
100
AcDbMText
 10
-114.145333
 20
113.0
 30
0.0
 40
3.2
 41
0.0
 71
     4
 72
     1
  1
\W0.800;\A1;標高
 73
     1
 44
0.6
  0
MTEXT
  5
77D
100
AcDbEntity
  8
LY_1
390
0
  6
CONTINUOUS
 62
   142
100
AcDbMText
 10
-117.217333
 20
119.0
 30
0.0
 40
3.2
 41
0.0
 71
     4
 72
     1
  1
\W0.800;\A1;相対湿度
 73
     1
 44
0.6
  0
MTEXT
  5
77E
100
AcDbEntity
  8
LY_1
390
0
  6
CONTINUOUS
 62
   142
100
AcDbMText
 10
-117.217333
 20
125.0
 30
0.0
 40
3.2
 41
0.0
 71
     4
 72
     1
  1
\W0.800;\A1;周囲温度
 73
     1
 44
0.6
  0
MTEXT
  5
77F
100
AcDbEntity
  8
LY_1
390
0
  6
CONTINUOUS
 62
   142
100
AcDbMText
 10
-129.717333
 20
131.0
 30
0.0
 40
3.2
 41
0.0
 71
     4
 72
     1
  1
\W0.800;\A1;概略質量
 73
     1
 44
0.6
  0
MTEXT
  5
780
100
AcDbEntity
  8
LY_1
390
0
  6
CONTINUOUS
 62
   142
100
AcDbMText
 10
-129.717333
 20
137.0
 30
0.0
 40
3.2
 41
0.0
 71
     4
 72
     1
  1
\W0.800;\A1;消費電力
 73
     1
 44
0.6
  0
MTEXT
  5
781
100
AcDbEntity
  8
LY_1
390
0
  6
CONTINUOUS
 62
   142
100
AcDbMText
 10
-132.789333
 20
203.0
 30
0.0
 40
3.2
 41
0.0
 71
     4
 72
     1
  1
\W0.800;\A1;操作電源電圧
 73
     1
 44
0.6
  0
MTEXT
  5
782
100
AcDbEntity
  8
LY_1
390
0
  6
CONTINUOUS
 62
   142
100
AcDbMText
 10
-141.753333
 20
260.0
 30
0.0
 40
3.2
 41
0.0
 71
     4
 72
     1
  1
\W0.800;\A1;適用モータ 
 73
     1
 44
0.6
  0
MTEXT
  5
783
100
AcDbEntity
  8
LY_1
390
0
  6
CONTINUOUS
 62
   142
100
AcDbMText
 10
-143.478588
 20
143.0
 30
0.0
 40
3.2
 41
0.0
 71
     4
 72
     1
  1
\W0.918;\A1;アナログ出力信号(CN1)
 73
     1
 44
0.6
  0
MTEXT
  5
784
100
AcDbEntity
  8
LY_1
390
0
  6
CONTINUOUS
 62
   142
100
AcDbMText
 10
-72.517551
 20
176.0
 30
0.0
 40
3.2
 41
0.0
 71
     4
 72
     1
  1
\W0.980;\A1;ＡＣ２５０Ｖ，０．５Ａ\P誘導負荷　(cosθ=0.4)
 73
     1
 44
0.65625
  0
MTEXT
  5
785
100
AcDbEntity
  8
LY_1
390
0
  6
CONTINUOUS
 62
   142
100
AcDbMText
 10
-99.509333
 20
168.4
 30
0.0
 40
3.2
 41
0.0
 71
     7
 72
     1
  1
\W0.800;\A1;１ｃ接点\P　定格
 73
     1
 44
0.75
  0
MTEXT
  5
786
100
AcDbEntity
  8
LY_1
390
0
  6
CONTINUOUS
 62
   142
100
AcDbMText
 10
-145.064084
 20
169.912014
 30
0.0
 40
3.2
 41
0.0
 71
     4
 72
     1
  1
\W0.903;\A1;リレー接点出力\P(OUT1,OUT2，ＯＵＴ３)
 11
0.999994
 21
0.003491
 31
0.0
 73
     1
 44
0.75
  0
MTEXT
  5
787
100
AcDbEntity
  8
LY_1
390
0
  6
CONTINUOUS
 62
   142
100
AcDbMText
 10
-67.73258
 20
209.0
 30
0.0
 40
3.2
 41
0.0
 71
     4
 72
     1
  1
\W0.974;\A1;0～＋200%
 73
     1
 44
0.6
  0
MTEXT
  5
788
100
AcDbEntity
  8
LY_1
390
0
  6
CONTINUOUS
 62
   142
100
AcDbMText
 10
-135.861333
 20
209.0
 30
0.0
 40
3.2
 41
0.0
 71
     4
 72
     1
  1
\W0.800;\A1;％負荷率表示範囲
 73
     1
 44
0.6
  0
MTEXT
  5
789
100
AcDbEntity
  8
LY_1
390
0
  6
CONTINUOUS
 62
   142
100
AcDbMText
 10
-89.585455
 20
251.0
 30
0.0
 40
3.2
 41
0.0
 71
     4
 72
     1
  1
\W1.047;\A1;OUT1
 73
     1
 44
0.6
  0
MTEXT
  5
78A
100
AcDbEntity
  8
LY_1
390
0
  6
CONTINUOUS
 62
   142
100
AcDbMText
 10
-132.789333
 20
248.0
 30
0.0
 40
3.2
 41
0.0
 71
     4
 72
     1
  1
\W0.800;\A1;電力設定範囲
 73
     1
 44
0.6
  0
MTEXT
  5
78B
100
AcDbEntity
  8
LY_1
390
0
  6
CONTINUOUS
 62
   142
100
AcDbMText
 10
-66.289333
 20
191.0
 30
0.0
 40
3.2
 41
0.0
 71
     4
 72
     1
  1
\W0.800;\A1;ＤＣ２．５Ｖ
 73
     1
 44
0.6
  0
MTEXT
  5
78C
100
AcDbEntity
  8
LY_1
390
0
  6
CONTINUOUS
 62
   142
100
AcDbMText
 10
-134.325333
 20
191.0
 30
0.0
 40
3.2
 41
0.0
 71
     4
 72
     1
  1
\W0.800;\A1;電流センサ入力
 73
     1
 44
0.6
  0
MTEXT
  5
78D
100
AcDbEntity
  8
LY_1
390
0
  6
CONTINUOUS
 62
   142
100
AcDbMText
 10
-73.969333
 20
197.0
 30
0.0
 40
3.2
 41
0.0
 71
     4
 72
     1
  1
\W0.800;\A1;ＡＣ２５０Ｖ　ＭＡＸ．
 73
     1
 44
0.6
  0
MTEXT
  5
78E
100
AcDbEntity
  8
LY_1
390
0
  6
CONTINUOUS
 62
   142
100
AcDbMText
 10
-134.325333
 20
197.0
 30
0.0
 40
3.2
 41
0.0
 71
     4
 72
     1
  1
\W0.800;\A1;モータ電圧入力
 73
     1
 44
0.6
  0
MTEXT
  5
78F
100
AcDbEntity
  8
LY_1
390
0
  6
CONTINUOUS
 62
   142
100
AcDbMText
 10
-114.145333
 20
257.0
 30
0.0
 40
3.2
 41
0.0
 71
     4
 72
     1
  1
\W0.800;\A1;電圧
 73
     1
 44
0.6
  0
MTEXT
  5
790
100
AcDbEntity
  8
LY_1
390
0
  6
CONTINUOUS
 62
   142
100
AcDbMText
 10
-114.145333
 20
263.0
 30
0.0
 40
3.2
 41
0.0
 71
     4
 72
     1
  1
\W0.800;\A1;容量
 73
     1
 44
0.6
  0
MTEXT
  5
791
100
AcDbEntity
  8
LY_1
390
0
  6
CONTINUOUS
 62
   142
100
AcDbMText
 10
-83.073608
 20
257.0
 30
0.0
 40
3.2
 41
0.0
 71
     4
 72
     1
  1
\W1.009;\A1;200/220V,400/440V
 73
     1
 44
0.6
  0
MTEXT
  5
792
100
AcDbEntity
  8
LY_1
390
0
  6
CONTINUOUS
 62
   142
100
AcDbMText
 10
-70.897333
 20
263.0
 30
0.0
 40
3.2
 41
0.0
 71
     4
 72
     1
  1
\W0.800;\A1;０．１～１１０ｋＷ
 73
     1
 44
0.6
  0
MTEXT
  5
793
100
AcDbEntity
  8
LY_1
390
0
  6
CONTINUOUS
 62
   142
100
AcDbMText
 10
-70.872235
 20
269.0
 30
0.0
 40
3.2
 41
0.0
 71
     4
 72
     1
  1
\W0.847;\A1;ＴＳＭ4０００M2
 73
     1
 44
0.6
  0
MTEXT
  5
794
100
AcDbEntity
  8
LY_1
390
0
  6
CONTINUOUS
 62
   142
100
AcDbMText
 10
-126.645333
 20
269.0
 30
0.0
 40
3.2
 41
0.0
 71
     4
 72
     1
  1
\W0.800;\A1;形番
 73
     1
 44
0.6
  0
LINE
  5
795
100
AcDbEntity
  8
LY_1
390
0
  6
CONTINUOUS
 62
   255
100
AcDbLine
 10
-101.0
 20
242.0
 30
0.0
 11
-14.0
 21
242.0
 31
0.0
  0
MTEXT
  5
796
100
AcDbEntity
  8
LY_1
390
0
  6
CONTINUOUS
 62
   142
100
AcDbMText
 10
-62.983333
 20
240.6
 30
0.0
 40
3.2
 41
0.0
 71
     1
 72
     1
  1
\W0.781;\A1;５～２００％（絶対値上限設定）
 73
     1
 44
0.9
  0
LINE
  5
797
100
AcDbEntity
  8
LY_1
390
0
  6
CONTINUOUS
 62
   255
100
AcDbLine
 10
-101.0
 20
152.0
 30
0.0
 11
-14.0
 21
152.0
 31
0.0
  0
MTEXT
  5
798
100
AcDbEntity
  8
LY_1
390
0
  6
CONTINUOUS
 62
   142
100
AcDbMText
 10
-72.655556
 20
150.6
 30
0.0
 40
3.2
 41
0.0
 71
     1
 72
     1
  1
\W0.833;\A1;定格負荷にて10万回動作
 73
     1
 44
0.9
  0
MTEXT
  5
799
100
AcDbEntity
  8
LY_1
390
0
  6
CONTINUOUS
 62
   142
100
AcDbMText
 10
-94.583333
 20
150.6
 30
0.0
 40
3.2
 41
0.0
 71
     1
 72
     1
  1
\W0.781;\A1;寿命
 73
     1
 44
0.9
  0
MTEXT
  5
79A
100
AcDbEntity
  8
LY_1
390
0
  6
CONTINUOUS
 62
   142
100
AcDbMText
 10
-89.632
 20
239.0
 30
0.0
 40
3.2
 41
0.0
 71
     4
 72
     1
  1
\W0.960;\A1;OUT3
 73
     1
 44
0.6
  0
MTEXT
  5
79B
100
AcDbEntity
  8
LY_1
390
0
  6
CONTINUOUS
 62
   142
100
AcDbMText
 10
-132.789333
 20
218.1
 30
0.0
 40
3.2
 41
0.0
 71
     4
 72
     1
  1
\W0.800;\A1;電力積算時間
 73
     1
 44
0.6
  0
LINE
  5
79C
100
AcDbEntity
  8
LY_1
390
0
  6
CONTINUOUS
 62
   255
100
AcDbLine
 10
-147.0
 20
212.0
 30
0.0
 11
-14.0
 21
212.0
 31
0.0
  0
MTEXT
  5
79D
100
AcDbEntity
  8
LY_1
390
0
  6
CONTINUOUS
 62
   142
100
AcDbMText
 10
-145.737342
 20
273.218302
 30
0.0
 40
6.0
 41
0.0
 71
     7
 72
     1
  1
\W0.800;\A1;仕様一覧
 73
     1
 44
0.6
  0
INSERT
  5
79E
100
AcDbEntity
  8
LY_1
390
0
  6
ByBlock
100
AcDbBlockReference
  2
PORT
 10
-241.560909
 20
115.55192
 30
0.0
 41
0.666667
 42
0.666667
 43
0.666667
  0
MTEXT
  5
79F
100
AcDbEntity
  8
LY_1
390
0
  6
CONTINUOUS
 62
     7
100
AcDbMText
 10
-229.822698
 20
142.053497
 30
0.0
 40
4.0
 41
0.0
 71
     7
 72
     1
  1
\W0.700;\A1;取り付け穴加工寸法
 73
     1
 44
0.6
  0
INSERT
  5
7A0
100
AcDbEntity
  8
LY_1
390
0
  6
ByBlock
100
AcDbBlockReference
  2
CASE2
 10
-275.482323
 20
223.349293
 30
0.0
 41
0.666667
 42
0.666667
 43
0.666667
  0
INSERT
  5
7A1
100
AcDbEntity
  8
LY_1
390
0
  6
ByBlock
100
AcDbBlockReference
  2
CASE3
 10
-345.654848
 20
157.690102
 30
0.0
 41
0.666667
 42
0.666667
 43
0.666667
  0
INSERT
  5
7A2
100
AcDbEntity
  8
LY_1
390
0
  6
ByBlock
100
AcDbBlockReference
  2
CASE1
 10
-345.654848
 20
223.349294
 30
0.0
 41
0.666667
 42
0.666667
 43
0.666667
  0
ENDSEC
  0
SECTION
  2
OBJECTS
  0
DICTIONARY
  5
19
100
AcDbDictionary
280
     0
281
     1
  3
ACAD_GROUP
350
1A
  3
ACAD_MLINESTYLE
350
1B
  3
ACAD_LAYOUT
350
1E
  3
ACAD_PLOTSETTINGS
350
22
  3
ACAD_PLOTSTYLENAME
350
1F
  0
DICTIONARY
  5
1A
102
{ACAD_REACTORS
330
19
102
}
100
AcDbDictionary
280
     0
281
     1
  0
DICTIONARY
  5
1B
102
{ACAD_REACTORS
330
19
102
}
100
AcDbDictionary
280
     0
281
     1
  3
Standard
350
1C
  0
MLINESTYLE
  5
1C
102
{ACAD_REACTORS
330
1B
102
}
100
AcDbMlineStyle
  2
Standard
 70
     0
  3

 62
     0
 51
90.0
 52
90.0
 71
     2
 49
0.5
 62
   256
  6
ByLayer
 49
-0.5
 62
   256
  6
ByLayer
  0
ACDBDICTIONARYWDFLT
  5
1F
102
{ACAD_REACTORS
330
19
102
}
100
AcDbDictionary
281
     1
  3
Normal
350
1D
100
AcDbDictionaryWithDefault
340
1D
  0
ACDBPLACEHOLDER
  5
1D
102
{ACAD_REACTORS
330
1F
102
}
  0
LAYOUT
  5
20
102
{ACAD_REACTORS
330
1E
102
}
100
AcDbPlotSettings
  1

  2

  4

  6

 40
0.0
 41
0.0
 42
0.0
 43
0.0
 44
0.0
 45
0.0
 46
0.0
 47
0.0
 48
0.0
 49
0.0
140
0.0
141
0.0
142
1.0
143
1.0
 70
  1024
 72
     0
 73
     0
 74
     0
  7

 75
     0
147
1.0
148
0.0
149
0.0
100
AcDbLayout
  1
Model
 70
     0
 71
     0
 10
0.0
 20
0.0
 11
0.0
 21
0.0
 12
0.0
 22
0.0
 32
0.0
 14
0.0
 24
0.0
 34
0.0
 15
0.0
 25
0.0
 35
0.0
146
0.0
 13
0.0
 23
0.0
 33
0.0
 16
0.0
 26
0.0
 36
0.0
 17
0.0
 27
0.0
 37
0.0
 76
     0
330
A
331
0
345
0
346
0
  0
LAYOUT
  5
21
102
{ACAD_REACTORS
330
1E
102
}
100
AcDbPlotSettings
  1

  2

  4

  6

 40
0.0
 41
0.0
 42
0.0
 43
0.0
 44
0.0
 45
0.0
 46
0.0
 47
0.0
 48
0.0
 49
0.0
140
0.0
141
0.0
142
1.0
143
1.0
 70
     0
 72
     0
 73
     0
 74
     0
  7

 75
     0
147
1.0
148
0.0
149
0.0
100
AcDbLayout
  1
Layout1
 70
     0
 71
     0
 10
0.0
 20
0.0
 11
0.0
 21
0.0
 12
0.0
 22
0.0
 32
0.0
 14
0.0
 24
0.0
 34
0.0
 15
0.0
 25
0.0
 35
0.0
146
0.0
 13
0.0
 23
0.0
 33
0.0
 16
0.0
 26
0.0
 36
0.0
 17
0.0
 27
0.0
 37
0.0
 76
     0
330
B
331
0
345
0
346
0
  0
DICTIONARY
  5
1E
102
{ACAD_REACTORS
330
19
102
}
100
AcDbDictionary
280
     0
281
     1
  3
Layout1
350
21
  3
Model
350
20
  0
DICTIONARY
  5
22
102
{ACAD_REACTORS
330
19
102
}
100
AcDbDictionary
280
     0
281
     1
  0
ENDSEC
  0
EOF
