  0
SECTION
  2
HEADER
  9
$ACADVER
  1
AC1012
  9
$DWGCODEPAGE
  3
dos932
  9
$INSBASE
 10
0.0
 20
0.0
 30
0.0
  9
$EXTMIN
 10
-214.776455
 20
60.499985
 30
0.0
  9
$EXTMAX
 10
-40.2
 20
258.287598
 30
0.0
  9
$LIMMIN
 10
-214.777455
 20
-0.001
  9
$LIMMAX
 10
0.001
 20
256.688598
  9
$ORTHOMODE
 70
     0
  9
$REGENMODE
 70
     1
  9
$FILLMODE
 70
     1
  9
$QTEXTMODE
 70
     0
  9
$MIRRTEXT
 70
     1
  9
$DRAGMODE
 70
     2
  9
$LTSCALE
 40
4.278127
  9
$OSMODE
 70
     0
  9
$ATTMODE
 70
     1
  9
$TEXTSIZE
 40
3.2
  9
$TRACEWID
 40
0.05
  9
$TEXTSTYLE
  7
STANDARD
  9
$CLAYER
  8
0
  9
$CELTYPE
  6
CONTINUOUS
  9
$CECOLOR
 62
   256
  9
$CELTSCALE
 40
1.0
  9
$DELOBJ
 70
     1
  9
$DISPSILH
 70
     0
  9
$DIMSCALE
 40
1.0
  9
$DIMASZ
 40
0.18
  9
$DIMEXO
 40
0.0625
  9
$DIMDLI
 40
0.38
  9
$DIMRND
 40
0.0
  9
$DIMDLE
 40
0.0
  9
$DIMEXE
 40
0.18
  9
$DIMTP
 40
0.0
  9
$DIMTM
 40
0.0
  9
$DIMTXT
 40
0.18
  9
$DIMCEN
 40
0.09
  9
$DIMTSZ
 40
0.0
  9
$DIMTOL
 70
     0
  9
$DIMLIM
 70
     0
  9
$DIMTIH
 70
     1
  9
$DIMTOH
 70
     1
  9
$DIMSE1
 70
     0
  9
$DIMSE2
 70
     0
  9
$DIMTAD
 70
     0
  9
$DIMZIN
 70
     0
  9
$DIMBLK
  1

  9
$DIMASO
 70
     1
  9
$DIMSHO
 70
     1
  9
$DIMPOST
  1

  9
$DIMAPOST
  1

  9
$DIMALT
 70
     0
  9
$DIMALTD
 70
     2
  9
$DIMALTF
 40
25.4
  9
$DIMLFAC
 40
1.0
  9
$DIMTOFL
 70
     0
  9
$DIMTVP
 40
0.0
  9
$DIMTIX
 70
     0
  9
$DIMSOXD
 70
     0
  9
$DIMSAH
 70
     0
  9
$DIMBLK1
  1

  9
$DIMBLK2
  1

  9
$DIMSTYLE
  2
STANDARD
  9
$DIMCLRD
 70
     0
  9
$DIMCLRE
 70
     0
  9
$DIMCLRT
 70
     0
  9
$DIMTFAC
 40
1.0
  9
$DIMGAP
 40
0.09
  9
$DIMJUST
 70
     0
  9
$DIMSD1
 70
     0
  9
$DIMSD2
 70
     0
  9
$DIMTOLJ
 70
     1
  9
$DIMTZIN
 70
     0
  9
$DIMALTZ
 70
     0
  9
$DIMALTTZ
 70
     0
  9
$DIMFIT
 70
     3
  9
$DIMUPT
 70
     0
  9
$DIMUNIT
 70
     2
  9
$DIMDEC
 70
     4
  9
$DIMTDEC
 70
     4
  9
$DIMALTU
 70
     2
  9
$DIMALTTD
 70
     2
  9
$DIMTXSTY
  7
STANDARD
  9
$DIMAUNIT
 70
     0
  9
$LUNITS
 70
     2
  9
$LUPREC
 70
     4
  9
$SKETCHINC
 40
0.1
  9
$FILLETRAD
 40
0.0
  9
$AUNITS
 70
     0
  9
$AUPREC
 70
     0
  9
$MENU
  1
acad
  9
$ELEVATION
 40
0.0
  9
$PELEVATION
 40
0.0
  9
$THICKNESS
 40
0.0
  9
$LIMCHECK
 70
     0
  9
$BLIPMODE
 70
     1
  9
$CHAMFERA
 40
0.0
  9
$CHAMFERB
 40
0.0
  9
$CHAMFERC
 40
0.0
  9
$CHAMFERD
 40
0.0
  9
$SKPOLY
 70
     0
  9
$TDCREATE
 40
0.0000000000
  9
$TDUPDATE
 40
0.0000000000
  9
$TDINDWG
 40
0.0000000000
  9
$TDUSRTIMER
 40
0.0000000000
  9
$USRTIMER
 70
     1
  9
$ANGBASE
 50
0.0
  9
$ANGDIR
 70
     0
  9
$PDMODE
 70
     0
  9
$PDSIZE
 40
0.0
  9
$PLINEWID
 40
0.0
  9
$COORDS
 70
     1
  9
$SPLFRAME
 70
     0
  9
$SPLINETYPE
 70
     6
  9
$SPLINESEGS
 70
     8
  9
$ATTDIA
 70
     0
  9
$ATTREQ
 70
     1
  9
$HANDLING
 70
     1
  9
$HANDSEED
  5
180
  9
$SURFTAB1
 70
     6
  9
$SURFTAB2
 70
     6
  9
$SURFTYPE
 70
     6
  9
$SURFU
 70
     6
  9
$SURFV
 70
     6
  9
$UCSNAME
  2

  9
$UCSORG
 10
0.0
 20
0.0
 30
0.0
  9
$UCSXDIR
 10
1.0
 20
0.0
 30
0.0
  9
$UCSYDIR
 10
0.0
 20
1.0
 30
0.0
  9
$PUCSNAME
  2

  9
$PUCSORG
 10
0.0
 20
0.0
 30
0.0
  9
$PUCSXDIR
 10
1.0
 20
0.0
 30
0.0
  9
$PUCSYDIR
 10
0.0
 20
1.0
 30
0.0
  9
$USERI1
 70
     0
  9
$USERI2
 70
     0
  9
$USERI3
 70
     0
  9
$USERI4
 70
     0
  9
$USERI5
 70
     0
  9
$USERR1
 40
0.0
  9
$USERR2
 40
0.0
  9
$USERR3
 40
0.0
  9
$USERR4
 40
0.0
  9
$USERR5
 40
0.0
  9
$WORLDVIEW
 70
     1
  9
$SHADEDGE
 70
     3
  9
$SHADEDIF
 70
    70
  9
$TILEMODE
 70
     1
  9
$MAXACTVP
 70
    16
  9
$PINSBASE
 10
0.0
 20
0.0
 30
0.0
  9
$PLIMCHECK
 70
     0
  9
$PEXTMIN
 10
1.000000E+20
 20
1.000000E+20
 30
1.000000E+20
  9
$PEXTMAX
 10
-1.000000E+20
 20
-1.000000E+20
 30
-1.000000E+20
  9
$PLIMMIN
 10
0.0
 20
0.0
  9
$PLIMMAX
 10
12.0
 20
9.0
  9
$UNITMODE
 70
     0
  9
$VISRETAIN
 70
     0
  9
$PLINEGEN
 70
     0
  9
$PSLTSCALE
 70
     1
  9
$TREEDEPTH
 70
  3020
  9
$PICKSTYLE
 70
     1
  9
$CMLSTYLE
  2
STANDARD
  9
$CMLJUST
 70
     0
  9
$CMLSCALE
 40
1.0
  9
$SAVEIMAGES
 70
     0
  0
ENDSEC
  0
SECTION
  2
CLASSES
  0
ENDSEC
  0
SECTION
  2
TABLES
  0
TABLE
  2
VPORT
  5
8
100
AcDbSymbolTable
 70
     2
  0
VPORT
  5
17F
100
AcDbSymbolTableRecord
100
AcDbViewportTableRecord
  2
*ACTIVE
 70
     0
 10
0.0
 20
0.0
 11
1.0
 21
1.0
 12
-16.627213
 22
129.143299
 13
0.0
 23
0.0
 14
1.0
 24
1.0
 15
0.0
 25
0.0
 16
0.0
 26
0.0
 36
1.0
 17
0.0
 27
0.0
 37
0.0
 40
258.288598
 41
1.534332
 42
50.0
 43
0.0
 44
0.0
 50
0.0
 51
0.0
 71
     0
 72
   100
 73
     1
 74
     1
 75
     0
 76
     0
 77
     0
 78
     0
  0
ENDTAB
  0
TABLE
  2
LTYPE
  5
5
100
AcDbSymbolTable
 70
     5
  0
LTYPE
  5
13
100
AcDbSymbolTableRecord
100
AcDbLinetypeTableRecord
  2
BYBLOCK
 70
     0
  3

 72
    65
 73
     0
 40
0.0
  0
LTYPE
  5
14
100
AcDbSymbolTableRecord
100
AcDbLinetypeTableRecord
  2
BYLAYER
 70
     0
  3

 72
    65
 73
     0
 40
0.0
  0
LTYPE
  5
15
100
AcDbSymbolTableRecord
100
AcDbLinetypeTableRecord
  2
CONTINUOUS
 70
    64
  3
Solid-Line
 72
    65
 73
     0
 40
0.0
  0
LTYPE
  5
1E
100
AcDbSymbolTableRecord
100
AcDbLinetypeTableRecord
  2
DASHED
 70
    64
  3
DASHED
 72
    65
 73
     2
 40
0.75
 49
0.5
 74
     0
 49
-0.25
 74
     0
  0
LTYPE
  5
1F
100
AcDbSymbolTableRecord
100
AcDbLinetypeTableRecord
  2
HIDDEN
 70
    64
  3
HIDDEN
 72
    65
 73
     2
 40
0.375
 49
0.25
 74
     0
 49
-0.125
 74
     0
  0
LTYPE
  5
20
100
AcDbSymbolTableRecord
100
AcDbLinetypeTableRecord
  2
CENTER
 70
    64
  3
CENTER
 72
    65
 73
     4
 40
2.0
 49
1.25
 74
     0
 49
-0.25
 74
     0
 49
0.25
 74
     0
 49
-0.25
 74
     0
  0
LTYPE
  5
21
100
AcDbSymbolTableRecord
100
AcDbLinetypeTableRecord
  2
PHANTOM
 70
    64
  3
PHANTOM
 72
    65
 73
     6
 40
2.5
 49
1.25
 74
     0
 49
-0.25
 74
     0
 49
0.25
 74
     0
 49
-0.25
 74
     0
 49
0.25
 74
     0
 49
-0.25
 74
     0
  0
ENDTAB
  0
TABLE
  2
LAYER
  5
2
100
AcDbSymbolTable
 70
     2
  0
LAYER
  5
F
100
AcDbSymbolTableRecord
100
AcDbLayerTableRecord
  2
0
 70
     0
 62
     7
  6
CONTINUOUS
  0
LAYER
  5
22
100
AcDbSymbolTableRecord
100
AcDbLayerTableRecord
  2
PV
 70
     0
 62
     3
  6
CONTINUOUS
  0
ENDTAB
  0
TABLE
  2
STYLE
  5
3
100
AcDbSymbolTable
 70
     3
  0
STYLE
  5
10
100
AcDbSymbolTableRecord
100
AcDbTextStyleTableRecord
  2
STANDARD
 70
     0
 40
0.0
 41
1.0
 50
0.0
 71
     0
 42
0.2
  3
txt
  4

  0
STYLE
  5
23
100
AcDbSymbolTableRecord
100
AcDbTextStyleTableRecord
  2
MONOTXT
 70
     0
 40
0.0
 41
1.0
 50
0.0
 71
     0
 42
0.2
  3
monotxt
  4

  0
STYLE
  5
24
100
AcDbSymbolTableRecord
100
AcDbTextStyleTableRecord
  2
BIGFONT
 70
     0
 40
0.0
 41
1.0
 50
0.0
 71
     0
 42
0.2
  3
txt
  4
bigfont
  0
ENDTAB
  0
TABLE
  2
VIEW
  5
6
100
AcDbSymbolTable
 70
     0
  0
ENDTAB
  0
TABLE
  2
UCS
  5
7
100
AcDbSymbolTable
 70
     0
  0
ENDTAB
  0
TABLE
  2
APPID
  5
9
100
AcDbSymbolTable
 70
     1
  0
APPID
  5
11
100
AcDbSymbolTableRecord
100
AcDbRegAppTableRecord
  2
ACAD
 70
     0
  0
ENDTAB
  0
TABLE
  2
DIMSTYLE
  5
A
100
AcDbSymbolTable
 70
     1
  0
DIMSTYLE
105
17E
100
AcDbSymbolTableRecord
100
AcDbDimStyleTableRecord
  2
STANDARD
 70
     0
  3

  4

  5

  6

  7

 40
1.0
 41
0.18
 42
0.0625
 43
0.38
 44
0.18
 45
0.0
 46
0.0
 47
0.0
 48
0.0
140
0.18
141
0.09
142
0.0
143
25.4
144
1.0
145
0.0
146
1.0
147
0.09
 71
     0
 72
     0
 73
     1
 74
     1
 75
     0
 76
     0
 77
     0
 78
     0
170
     0
171
     2
172
     0
173
     0
174
     0
175
     0
176
     0
177
     0
178
     0
270
     2
271
     4
272
     4
273
     2
274
     2
340
10
275
     0
280
     0
281
     0
282
     0
283
     1
284
     0
285
     0
286
     0
287
     3
288
     0
  0
ENDTAB
  0
TABLE
  2
BLOCK_RECORD
  5
1
100
AcDbSymbolTable
 70
     8
  0
BLOCK_RECORD
  5
19
100
AcDbSymbolTableRecord
100
AcDbBlockTableRecord
  2
*MODEL_SPACE
  0
BLOCK_RECORD
  5
16
100
AcDbSymbolTableRecord
100
AcDbBlockTableRecord
  2
*PAPER_SPACE
  0
BLOCK_RECORD
  5
27
100
AcDbSymbolTableRecord
100
AcDbBlockTableRecord
  2
ARROW
  0
BLOCK_RECORD
  5
2F
100
AcDbSymbolTableRecord
100
AcDbBlockTableRecord
  2
*D1
  0
BLOCK_RECORD
  5
3B
100
AcDbSymbolTableRecord
100
AcDbBlockTableRecord
  2
*D2
  0
BLOCK_RECORD
  5
47
100
AcDbSymbolTableRecord
100
AcDbBlockTableRecord
  2
*D3
  0
BLOCK_RECORD
  5
55
100
AcDbSymbolTableRecord
100
AcDbBlockTableRecord
  2
*D4
  0
BLOCK_RECORD
  5
61
100
AcDbSymbolTableRecord
100
AcDbBlockTableRecord
  2
*D5
  0
BLOCK_RECORD
  5
6D
100
AcDbSymbolTableRecord
100
AcDbBlockTableRecord
  2
*D6
  0
BLOCK_RECORD
  5
79
100
AcDbSymbolTableRecord
100
AcDbBlockTableRecord
  2
*D7
  0
ENDTAB
  0
ENDSEC
  0
SECTION
  2
BLOCKS
  0
BLOCK
  5
1A
100
AcDbEntity
  8
0
100
AcDbBlockBegin
  2
*MODEL_SPACE
 70
     0
 10
0.0
 20
0.0
 30
0.0
  3
*MODEL_SPACE
  1

  0
ENDBLK
  5
1B
100
AcDbEntity
  8
0
100
AcDbBlockEnd
  0
BLOCK
  5
17
100
AcDbEntity
 67
     1
  8
0
100
AcDbBlockBegin
  2
*PAPER_SPACE
 70
     0
 10
0.0
 20
0.0
 30
0.0
  3
*PAPER_SPACE
  1

  0
ENDBLK
  5
18
100
AcDbEntity
 67
     1
  8
0
100
AcDbBlockEnd
  0
BLOCK
  5
28
100
AcDbEntity
  8
0
100
AcDbBlockBegin
  2
ARROW
 70
    74
 10
0.0
 20
0.0
 30
0.0
  3
ARROW
  1

  0
POLYLINE
  5
29
100
AcDbEntity
  8
0
  6
CONTINUOUS
 62
     0
100
AcDb2dPolyline
 66
     1
 10
0.0
 20
0.0
 30
0.0
  0
VERTEX
  5
2A
100
AcDbEntity
  8
0
  6
CONTINUOUS
 62
     0
100
AcDbVertex
100
AcDb2dVertex
 10
2.52117
 20
0.675545
 30
0.0
  0
VERTEX
  5
2B
100
AcDbEntity
  8
0
  6
CONTINUOUS
 62
     0
100
AcDbVertex
100
AcDb2dVertex
 10
0.0
 20
0.0
 30
0.0
  0
VERTEX
  5
2C
100
AcDbEntity
  8
0
  6
CONTINUOUS
 62
     0
100
AcDbVertex
100
AcDb2dVertex
 10
2.52117
 20
-0.675545
 30
0.0
  0
SEQEND
  5
2D
100
AcDbEntity
  8
0
 62
     0
  0
ENDBLK
  5
2E
100
AcDbEntity
  8
0
100
AcDbBlockEnd
  0
BLOCK
  5
30
100
AcDbEntity
  8
PV
100
AcDbBlockBegin
  2
*D1
 70
    65
 10
0.0
 20
0.0
 30
0.0
  3
*D1
  1

  0
LINE
  5
31
100
AcDbEntity
  8
PV
 62
     7
100
AcDbLine
 10
-201.276455
 20
207.079642
 30
0.0
 11
-164.276455
 21
207.079642
 31
0.0
  0
LINE
  5
32
100
AcDbEntity
  8
PV
 62
     7
100
AcDbLine
 10
-201.276455
 20
183.579642
 30
0.0
 11
-201.276455
 21
209.079642
 31
0.0
  0
LINE
  5
33
100
AcDbEntity
  8
PV
 62
     7
100
AcDbLine
 10
-164.276455
 20
183.579642
 30
0.0
 11
-164.276455
 21
209.079642
 31
0.0
  0
INSERT
  5
34
100
AcDbEntity
  8
PV
  6
BYBLOCK
 62
     7
100
AcDbBlockReference
  2
ARROW
 10
-201.276455
 20
207.079642
 30
0.0
  0
INSERT
  5
35
100
AcDbEntity
  8
PV
  6
BYBLOCK
 62
     7
100
AcDbBlockReference
  2
ARROW
 10
-164.276455
 20
207.079642
 30
0.0
 50
180.0
  0
TEXT
  5
36
100
AcDbEntity
  8
PV
 62
     7
100
AcDbText
 10
-187.184789
 20
208.879642
 30
0.0
 40
3.2
  1
37
  7
MONOTXT
100
AcDbText
  0
POINT
  5
37
100
AcDbEntity
  8
PV
 62
     7
100
AcDbPoint
 10
-201.276455
 20
183.579642
 30
0.0
  0
POINT
  5
38
100
AcDbEntity
  8
PV
 62
     7
100
AcDbPoint
 10
-164.276455
 20
183.579642
 30
0.0
  0
POINT
  5
39
100
AcDbEntity
  8
PV
 62
     7
100
AcDbPoint
 10
-164.276455
 20
207.079642
 30
0.0
  0
ENDBLK
  5
3A
100
AcDbEntity
  8
PV
100
AcDbBlockEnd
  0
BLOCK
  5
3C
100
AcDbEntity
  8
PV
100
AcDbBlockBegin
  2
*D2
 70
    65
 10
0.0
 20
0.0
 30
0.0
  3
*D2
  1

  0
LINE
  5
3D
100
AcDbEntity
  8
PV
 62
     7
100
AcDbLine
 10
-155.776455
 20
125.579642
 30
0.0
 11
-209.776455
 21
125.579642
 31
0.0
  0
LINE
  5
3E
100
AcDbEntity
  8
PV
 62
     7
100
AcDbLine
 10
-155.776455
 20
138.579642
 30
0.0
 11
-155.776455
 21
123.579642
 31
0.0
  0
LINE
  5
3F
100
AcDbEntity
  8
PV
 62
     7
100
AcDbLine
 10
-209.776455
 20
138.579642
 30
0.0
 11
-209.776455
 21
123.579642
 31
0.0
  0
INSERT
  5
40
100
AcDbEntity
  8
PV
  6
BYBLOCK
 62
     7
100
AcDbBlockReference
  2
ARROW
 10
-155.776455
 20
125.579642
 30
0.0
 50
180.0
  0
INSERT
  5
41
100
AcDbEntity
  8
PV
  6
BYBLOCK
 62
     7
100
AcDbBlockReference
  2
ARROW
 10
-209.776455
 20
125.579642
 30
0.0
  0
TEXT
  5
42
100
AcDbEntity
  8
PV
 62
     7
100
AcDbText
 10
-187.184789
 20
127.379642
 30
0.0
 40
3.2
  1
54
  7
MONOTXT
100
AcDbText
  0
POINT
  5
43
100
AcDbEntity
  8
PV
 62
     7
100
AcDbPoint
 10
-155.776455
 20
138.579642
 30
0.0
  0
POINT
  5
44
100
AcDbEntity
  8
PV
 62
     7
100
AcDbPoint
 10
-209.776455
 20
138.579642
 30
0.0
  0
POINT
  5
45
100
AcDbEntity
  8
PV
 62
     7
100
AcDbPoint
 10
-209.776455
 20
125.579642
 30
0.0
  0
ENDBLK
  5
46
100
AcDbEntity
  8
PV
100
AcDbBlockEnd
  0
BLOCK
  5
48
100
AcDbEntity
  8
PV
100
AcDbBlockBegin
  2
*D3
 70
    65
 10
0.0
 20
0.0
 30
0.0
  3
*D3
  1

  0
LINE
  5
49
100
AcDbEntity
  8
PV
 62
     7
100
AcDbLine
 10
-140.776455
 20
143.579642
 30
0.0
 11
-140.776455
 21
138.579642
 31
0.0
  0
LINE
  5
4A
100
AcDbEntity
  8
PV
 62
     7
100
AcDbLine
 10
-156.776455
 20
143.579642
 30
0.0
 11
-138.776455
 21
143.579642
 31
0.0
  0
LINE
  5
4B
100
AcDbEntity
  8
PV
 62
     7
100
AcDbLine
 10
-155.776455
 20
138.579642
 30
0.0
 11
-138.776455
 21
138.579642
 31
0.0
  0
INSERT
  5
4C
100
AcDbEntity
  8
PV
  6
BYBLOCK
 62
     7
100
AcDbBlockReference
  2
ARROW
 10
-140.776455
 20
143.579642
 30
0.0
 50
90.0
  0
INSERT
  5
4D
100
AcDbEntity
  8
PV
  6
BYBLOCK
 62
     7
100
AcDbBlockReference
  2
ARROW
 10
-140.776455
 20
138.579642
 30
0.0
 50
270.0
  0
TEXT
  5
4E
100
AcDbEntity
  8
PV
 62
     7
100
AcDbText
 10
-142.576455
 20
139.087976
 30
0.0
 40
3.2
  1
5
 50
90.0
  7
MONOTXT
100
AcDbText
  0
POINT
  5
4F
100
AcDbEntity
  8
PV
 62
     7
100
AcDbPoint
 10
-156.776455
 20
143.579642
 30
0.0
  0
POINT
  5
50
100
AcDbEntity
  8
PV
 62
     7
100
AcDbPoint
 10
-155.776455
 20
138.579642
 30
0.0
  0
POINT
  5
51
100
AcDbEntity
  8
PV
 62
     7
100
AcDbPoint
 10
-140.776455
 20
138.579642
 30
0.0
  0
LINE
  5
52
100
AcDbEntity
  8
PV
 62
     7
100
AcDbLine
 10
-140.776455
 20
143.579642
 30
0.0
 11
-140.776455
 21
144.079642
 31
0.0
  0
LINE
  5
53
100
AcDbEntity
  8
PV
 62
     7
100
AcDbLine
 10
-140.776455
 20
138.579642
 30
0.0
 11
-140.776455
 21
138.079642
 31
0.0
  0
ENDBLK
  5
54
100
AcDbEntity
  8
PV
100
AcDbBlockEnd
  0
BLOCK
  5
56
100
AcDbEntity
  8
PV
100
AcDbBlockBegin
  2
*D4
 70
    65
 10
0.0
 20
0.0
 30
0.0
  3
*D4
  1

  0
LINE
  5
57
100
AcDbEntity
  8
PV
 62
     7
100
AcDbLine
 10
-133.776455
 20
183.579642
 30
0.0
 11
-133.776455
 21
138.579642
 31
0.0
  0
LINE
  5
58
100
AcDbEntity
  8
PV
 62
     7
100
AcDbLine
 10
-182.776455
 20
183.579642
 30
0.0
 11
-131.776455
 21
183.579642
 31
0.0
  0
LINE
  5
59
100
AcDbEntity
  8
PV
 62
     7
100
AcDbLine
 10
-155.776455
 20
138.579642
 30
0.0
 11
-131.776455
 21
138.579642
 31
0.0
  0
INSERT
  5
5A
100
AcDbEntity
  8
PV
  6
BYBLOCK
 62
     7
100
AcDbBlockReference
  2
ARROW
 10
-133.776455
 20
183.579642
 30
0.0
 50
270.0
  0
INSERT
  5
5B
100
AcDbEntity
  8
PV
  6
BYBLOCK
 62
     7
100
AcDbBlockReference
  2
ARROW
 10
-133.776455
 20
138.579642
 30
0.0
 50
90.0
  0
TEXT
  5
5C
100
AcDbEntity
  8
PV
 62
     7
100
AcDbText
 10
-135.576455
 20
156.671308
 30
0.0
 40
3.2
  1
45
 50
90.0
  7
MONOTXT
100
AcDbText
  0
POINT
  5
5D
100
AcDbEntity
  8
PV
 62
     7
100
AcDbPoint
 10
-182.776455
 20
183.579642
 30
0.0
  0
POINT
  5
5E
100
AcDbEntity
  8
PV
 62
     7
100
AcDbPoint
 10
-155.776455
 20
138.579642
 30
0.0
  0
POINT
  5
5F
100
AcDbEntity
  8
PV
 62
     7
100
AcDbPoint
 10
-133.776455
 20
138.579642
 30
0.0
  0
ENDBLK
  5
60
100
AcDbEntity
  8
PV
100
AcDbBlockEnd
  0
BLOCK
  5
62
100
AcDbEntity
  8
PV
100
AcDbBlockBegin
  2
*D5
 70
    65
 10
0.0
 20
0.0
 30
0.0
  3
*D5
  1

  0
LINE
  5
63
100
AcDbEntity
  8
PV
 62
     7
100
AcDbLine
 10
-126.776455
 20
202.079642
 30
0.0
 11
-126.776455
 21
138.579642
 31
0.0
  0
LINE
  5
64
100
AcDbEntity
  8
PV
 62
     7
100
AcDbLine
 10
-182.776455
 20
202.079642
 30
0.0
 11
-124.776455
 21
202.079642
 31
0.0
  0
LINE
  5
65
100
AcDbEntity
  8
PV
 62
     7
100
AcDbLine
 10
-155.776455
 20
138.579642
 30
0.0
 11
-124.776455
 21
138.579642
 31
0.0
  0
INSERT
  5
66
100
AcDbEntity
  8
PV
  6
BYBLOCK
 62
     7
100
AcDbBlockReference
  2
ARROW
 10
-126.776455
 20
202.079642
 30
0.0
 50
270.0
  0
INSERT
  5
67
100
AcDbEntity
  8
PV
  6
BYBLOCK
 62
     7
100
AcDbBlockReference
  2
ARROW
 10
-126.776455
 20
138.579642
 30
0.0
 50
90.0
  0
TEXT
  5
68
100
AcDbEntity
  8
PV
 62
     7
100
AcDbText
 10
-128.576455
 20
162.721304
 30
0.0
 40
3.2
  1
63.5
 50
90.0
  7
MONOTXT
100
AcDbText
  0
POINT
  5
69
100
AcDbEntity
  8
PV
 62
     7
100
AcDbPoint
 10
-182.776455
 20
202.079642
 30
0.0
  0
POINT
  5
6A
100
AcDbEntity
  8
PV
 62
     7
100
AcDbPoint
 10
-155.776455
 20
138.579642
 30
0.0
  0
POINT
  5
6B
100
AcDbEntity
  8
PV
 62
     7
100
AcDbPoint
 10
-126.776455
 20
138.579642
 30
0.0
  0
ENDBLK
  5
6C
100
AcDbEntity
  8
PV
100
AcDbBlockEnd
  0
BLOCK
  5
6E
100
AcDbEntity
  8
PV
100
AcDbBlockBegin
  2
*D6
 70
    65
 10
0.0
 20
0.0
 30
0.0
  3
*D6
  1

  0
LINE
  5
6F
100
AcDbEntity
  8
PV
 62
     7
100
AcDbLine
 10
-140.776455
 20
242.579642
 30
0.0
 11
-140.776455
 21
222.579642
 31
0.0
  0
LINE
  5
70
100
AcDbEntity
  8
PV
 62
     7
100
AcDbLine
 10
-155.776455
 20
242.579642
 30
0.0
 11
-138.776455
 21
242.579642
 31
0.0
  0
LINE
  5
71
100
AcDbEntity
  8
PV
 62
     7
100
AcDbLine
 10
-155.776455
 20
222.579642
 30
0.0
 11
-138.776455
 21
222.579642
 31
0.0
  0
INSERT
  5
72
100
AcDbEntity
  8
PV
  6
BYBLOCK
 62
     7
100
AcDbBlockReference
  2
ARROW
 10
-140.776455
 20
242.579642
 30
0.0
 50
270.0
  0
INSERT
  5
73
100
AcDbEntity
  8
PV
  6
BYBLOCK
 62
     7
100
AcDbBlockReference
  2
ARROW
 10
-140.776455
 20
222.579642
 30
0.0
 50
90.0
  0
TEXT
  5
74
100
AcDbEntity
  8
PV
 62
     7
100
AcDbText
 10
-142.576455
 20
228.171309
 30
0.0
 40
3.2
  1
20
 50
90.0
  7
MONOTXT
100
AcDbText
  0
POINT
  5
75
100
AcDbEntity
  8
PV
 62
     7
100
AcDbPoint
 10
-155.776455
 20
242.579642
 30
0.0
  0
POINT
  5
76
100
AcDbEntity
  8
PV
 62
     7
100
AcDbPoint
 10
-155.776455
 20
222.579642
 30
0.0
  0
POINT
  5
77
100
AcDbEntity
  8
PV
 62
     7
100
AcDbPoint
 10
-140.776455
 20
222.579642
 30
0.0
  0
ENDBLK
  5
78
100
AcDbEntity
  8
PV
100
AcDbBlockEnd
  0
BLOCK
  5
7A
100
AcDbEntity
  8
PV
100
AcDbBlockBegin
  2
*D7
 70
    65
 10
0.0
 20
0.0
 30
0.0
  3
*D7
  1

  0
LINE
  5
7B
100
AcDbEntity
  8
PV
 62
     7
100
AcDbLine
 10
-147.776455
 20
236.579642
 30
0.0
 11
-147.776455
 21
228.579642
 31
0.0
  0
LINE
  5
7C
100
AcDbEntity
  8
PV
 62
     7
100
AcDbLine
 10
-157.276455
 20
236.579642
 30
0.0
 11
-145.776455
 21
236.579642
 31
0.0
  0
LINE
  5
7D
100
AcDbEntity
  8
PV
 62
     7
100
AcDbLine
 10
-203.276455
 20
228.579642
 30
0.0
 11
-145.776455
 21
228.579642
 31
0.0
  0
INSERT
  5
7E
100
AcDbEntity
  8
PV
  6
BYBLOCK
 62
     7
100
AcDbBlockReference
  2
ARROW
 10
-147.776455
 20
236.579642
 30
0.0
 50
270.0
  0
INSERT
  5
7F
100
AcDbEntity
  8
PV
  6
BYBLOCK
 62
     7
100
AcDbBlockReference
  2
ARROW
 10
-147.776455
 20
228.579642
 30
0.0
 50
90.0
  0
TEXT
  5
80
100
AcDbEntity
  8
PV
 62
     7
100
AcDbText
 10
-149.576455
 20
229.77131
 30
0.0
 40
3.2
  1
8
 50
90.0
  7
MONOTXT
100
AcDbText
  0
POINT
  5
81
100
AcDbEntity
  8
PV
 62
     7
100
AcDbPoint
 10
-157.276455
 20
236.579642
 30
0.0
  0
POINT
  5
82
100
AcDbEntity
  8
PV
 62
     7
100
AcDbPoint
 10
-203.276455
 20
228.579642
 30
0.0
  0
POINT
  5
83
100
AcDbEntity
  8
PV
 62
     7
100
AcDbPoint
 10
-147.776455
 20
228.579642
 30
0.0
  0
ENDBLK
  5
84
100
AcDbEntity
  8
PV
100
AcDbBlockEnd
  0
ENDSEC
  0
SECTION
  2
ENTITIES
  0
LINE
  5
85
100
AcDbEntity
  8
PV
100
AcDbLine
 10
-161.776455
 20
142.079642
 30
0.0
 11
-161.776455
 21
143.079642
 31
0.0
  0
LINE
  5
86
100
AcDbEntity
  8
PV
100
AcDbLine
 10
-161.776455
 20
139.079642
 30
0.0
 11
-161.776455
 21
140.079642
 31
0.0
  0
LINE
  5
87
100
AcDbEntity
  8
PV
100
AcDbLine
 10
-161.776455
 20
140.579642
 30
0.0
 11
-161.776455
 21
141.579642
 31
0.0
  0
LINE
  5
88
100
AcDbEntity
  8
PV
100
AcDbLine
 10
-157.776455
 20
140.579642
 30
0.0
 11
-157.776455
 21
141.579642
 31
0.0
  0
LINE
  5
89
100
AcDbEntity
  8
PV
100
AcDbLine
 10
-157.776455
 20
139.079642
 30
0.0
 11
-157.776455
 21
140.079642
 31
0.0
  0
LINE
  5
8A
100
AcDbEntity
  8
PV
100
AcDbLine
 10
-157.776455
 20
142.079642
 30
0.0
 11
-157.776455
 21
143.079642
 31
0.0
  0
LINE
  5
8B
100
AcDbEntity
  8
PV
100
AcDbLine
 10
-203.776455
 20
142.079642
 30
0.0
 11
-203.776455
 21
143.079642
 31
0.0
  0
LINE
  5
8C
100
AcDbEntity
  8
PV
100
AcDbLine
 10
-203.776455
 20
139.079642
 30
0.0
 11
-203.776455
 21
140.079642
 31
0.0
  0
LINE
  5
8D
100
AcDbEntity
  8
PV
100
AcDbLine
 10
-203.776455
 20
140.579642
 30
0.0
 11
-203.776455
 21
141.579642
 31
0.0
  0
LINE
  5
8E
100
AcDbEntity
  8
PV
100
AcDbLine
 10
-207.776455
 20
140.579642
 30
0.0
 11
-207.776455
 21
141.579642
 31
0.0
  0
LINE
  5
8F
100
AcDbEntity
  8
PV
100
AcDbLine
 10
-207.776455
 20
139.079642
 30
0.0
 11
-207.776455
 21
140.079642
 31
0.0
  0
LINE
  5
90
100
AcDbEntity
  8
PV
100
AcDbLine
 10
-207.776455
 20
142.079642
 30
0.0
 11
-207.776455
 21
143.079642
 31
0.0
  0
LINE
  5
91
100
AcDbEntity
  8
PV
100
AcDbLine
 10
-100.776455
 20
154.079642
 30
0.0
 11
-100.276455
 21
154.079642
 31
0.0
  0
LINE
  5
92
100
AcDbEntity
  8
PV
100
AcDbLine
 10
-100.776455
 20
155.579642
 30
0.0
 11
-100.276455
 21
155.579642
 31
0.0
  0
LINE
  5
93
100
AcDbEntity
  8
PV
100
AcDbLine
 10
-97.776455
 20
158.579642
 30
0.0
 11
-97.776455
 21
158.079642
 31
0.0
  0
LINE
  5
94
100
AcDbEntity
  8
PV
100
AcDbLine
 10
-97.776455
 20
150.579642
 30
0.0
 11
-97.776455
 21
151.079642
 31
0.0
  0
LINE
  5
95
100
AcDbEntity
  8
PV
100
AcDbLine
 10
-112.776455
 20
158.579642
 30
0.0
 11
-112.276455
 21
158.579642
 31
0.0
  0
LINE
  5
96
100
AcDbEntity
  8
PV
100
AcDbLine
 10
-110.776455
 20
155.579642
 30
0.0
 11
-112.776455
 21
155.579642
 31
0.0
  0
LINE
  5
97
100
AcDbEntity
  8
PV
100
AcDbLine
 10
-112.776455
 20
154.079642
 30
0.0
 11
-110.776455
 21
154.079642
 31
0.0
  0
LINE
  5
98
100
AcDbEntity
  8
PV
100
AcDbLine
 10
-99.276455
 20
151.579642
 30
0.0
 11
-97.776455
 21
151.579642
 31
0.0
  0
LINE
  5
99
100
AcDbEntity
  8
PV
100
AcDbLine
 10
-100.276455
 20
151.579642
 30
0.0
 11
-102.276455
 21
151.579642
 31
0.0
  0
LINE
  5
9A
100
AcDbEntity
  8
PV
100
AcDbLine
 10
-103.776455
 20
151.579642
 30
0.0
 11
-105.776455
 21
151.579642
 31
0.0
  0
LINE
  5
9B
100
AcDbEntity
  8
PV
100
AcDbLine
 10
-109.276455
 20
151.579642
 30
0.0
 11
-107.276455
 21
151.579642
 31
0.0
  0
LINE
  5
9C
100
AcDbEntity
  8
PV
100
AcDbLine
 10
-112.776455
 20
151.579642
 30
0.0
 11
-110.776455
 21
151.579642
 31
0.0
  0
LINE
  5
9D
100
AcDbEntity
  8
PV
100
AcDbLine
 10
-110.776455
 20
152.579642
 30
0.0
 11
-112.776455
 21
152.579642
 31
0.0
  0
LINE
  5
9E
100
AcDbEntity
  8
PV
100
AcDbLine
 10
-107.276455
 20
152.579642
 30
0.0
 11
-109.276455
 21
152.579642
 31
0.0
  0
LINE
  5
9F
100
AcDbEntity
  8
PV
100
AcDbLine
 10
-103.776455
 20
152.579642
 30
0.0
 11
-105.776455
 21
152.579642
 31
0.0
  0
LINE
  5
A0
100
AcDbEntity
  8
PV
100
AcDbLine
 10
-100.276455
 20
152.579642
 30
0.0
 11
-102.276455
 21
152.579642
 31
0.0
  0
LINE
  5
A1
100
AcDbEntity
  8
PV
100
AcDbLine
 10
-100.276455
 20
153.079642
 30
0.0
 11
-100.276455
 21
152.579642
 31
0.0
  0
LINE
  5
A2
100
AcDbEntity
  8
PV
100
AcDbLine
 10
-103.276455
 20
154.079642
 30
0.0
 11
-101.276455
 21
154.079642
 31
0.0
  0
LINE
  5
A3
100
AcDbEntity
  8
PV
100
AcDbLine
 10
-106.776455
 20
154.079642
 30
0.0
 11
-104.776455
 21
154.079642
 31
0.0
  0
LINE
  5
A4
100
AcDbEntity
  8
PV
100
AcDbLine
 10
-109.776455
 20
154.079642
 30
0.0
 11
-107.776455
 21
154.079642
 31
0.0
  0
LINE
  5
A5
100
AcDbEntity
  8
PV
100
AcDbLine
 10
-107.776455
 20
155.579642
 30
0.0
 11
-109.776455
 21
155.579642
 31
0.0
  0
LINE
  5
A6
100
AcDbEntity
  8
PV
100
AcDbLine
 10
-104.776455
 20
155.579642
 30
0.0
 11
-106.776455
 21
155.579642
 31
0.0
  0
LINE
  5
A7
100
AcDbEntity
  8
PV
100
AcDbLine
 10
-101.276455
 20
155.579642
 30
0.0
 11
-103.276455
 21
155.579642
 31
0.0
  0
LINE
  5
A8
100
AcDbEntity
  8
PV
100
AcDbLine
 10
-100.276455
 20
156.579642
 30
0.0
 11
-100.276455
 21
155.579642
 31
0.0
  0
LINE
  5
A9
100
AcDbEntity
  8
PV
100
AcDbLine
 10
-98.276455
 20
157.579642
 30
0.0
 11
-100.276455
 21
157.579642
 31
0.0
  0
LINE
  5
AA
100
AcDbEntity
  8
PV
100
AcDbLine
 10
-111.776455
 20
150.579642
 30
0.0
 11
-109.776455
 21
150.579642
 31
0.0
  0
LINE
  5
AB
100
AcDbEntity
  8
PV
100
AcDbLine
 10
-107.776455
 20
150.579642
 30
0.0
 11
-105.776455
 21
150.579642
 31
0.0
  0
LINE
  5
AC
100
AcDbEntity
  8
PV
100
AcDbLine
 10
-103.776455
 20
150.579642
 30
0.0
 11
-101.776455
 21
150.579642
 31
0.0
  0
LINE
  5
AD
100
AcDbEntity
  8
PV
100
AcDbLine
 10
-99.776455
 20
150.579642
 30
0.0
 11
-97.776455
 21
150.579642
 31
0.0
  0
LINE
  5
AE
100
AcDbEntity
  8
PV
100
AcDbLine
 10
-97.776455
 20
153.579642
 30
0.0
 11
-97.776455
 21
151.579642
 31
0.0
  0
LINE
  5
AF
100
AcDbEntity
  8
PV
100
AcDbLine
 10
-97.776455
 20
157.579642
 30
0.0
 11
-97.776455
 21
155.579642
 31
0.0
  0
LINE
  5
B0
100
AcDbEntity
  8
PV
100
AcDbLine
 10
-99.776455
 20
158.579642
 30
0.0
 11
-97.776455
 21
158.579642
 31
0.0
  0
LINE
  5
B1
100
AcDbEntity
  8
PV
100
AcDbLine
 10
-103.776455
 20
158.579642
 30
0.0
 11
-101.776455
 21
158.579642
 31
0.0
  0
LINE
  5
B2
100
AcDbEntity
  8
PV
100
AcDbLine
 10
-107.776455
 20
158.579642
 30
0.0
 11
-105.776455
 21
158.579642
 31
0.0
  0
LINE
  5
B3
100
AcDbEntity
  8
PV
100
AcDbLine
 10
-111.776455
 20
158.579642
 30
0.0
 11
-109.776455
 21
158.579642
 31
0.0
  0
LINE
  5
B4
100
AcDbEntity
  8
PV
100
AcDbLine
 10
-111.776455
 20
173.579642
 30
0.0
 11
-109.776455
 21
173.579642
 31
0.0
  0
LINE
  5
B5
100
AcDbEntity
  8
PV
100
AcDbLine
 10
-107.776455
 20
173.579642
 30
0.0
 11
-105.776455
 21
173.579642
 31
0.0
  0
LINE
  5
B6
100
AcDbEntity
  8
PV
100
AcDbLine
 10
-103.776455
 20
173.579642
 30
0.0
 11
-101.776455
 21
173.579642
 31
0.0
  0
LINE
  5
B7
100
AcDbEntity
  8
PV
100
AcDbLine
 10
-99.776455
 20
173.579642
 30
0.0
 11
-97.776455
 21
173.579642
 31
0.0
  0
LINE
  5
B8
100
AcDbEntity
  8
PV
100
AcDbLine
 10
-95.776455
 20
173.579642
 30
0.0
 11
-93.776455
 21
173.579642
 31
0.0
  0
LINE
  5
B9
100
AcDbEntity
  8
PV
100
AcDbLine
 10
-95.776455
 20
193.579642
 30
0.0
 11
-93.776455
 21
193.579642
 31
0.0
  0
LINE
  5
BA
100
AcDbEntity
  8
PV
100
AcDbLine
 10
-99.776455
 20
193.579642
 30
0.0
 11
-97.776455
 21
193.579642
 31
0.0
  0
LINE
  5
BB
100
AcDbEntity
  8
PV
100
AcDbLine
 10
-103.776455
 20
193.579642
 30
0.0
 11
-101.776455
 21
193.579642
 31
0.0
  0
LINE
  5
BC
100
AcDbEntity
  8
PV
100
AcDbLine
 10
-107.776455
 20
193.579642
 30
0.0
 11
-105.776455
 21
193.579642
 31
0.0
  0
LINE
  5
BD
100
AcDbEntity
  8
PV
100
AcDbLine
 10
-111.776455
 20
193.579642
 30
0.0
 11
-109.776455
 21
193.579642
 31
0.0
  0
LINE
  5
BE
100
AcDbEntity
  8
PV
100
AcDbLine
 10
-94.776455
 20
150.579642
 30
0.0
 11
-92.776455
 21
150.579642
 31
0.0
  0
LINE
  5
BF
100
AcDbEntity
  8
PV
100
AcDbLine
 10
-94.776455
 20
143.579642
 30
0.0
 11
-94.776455
 21
150.579642
 31
0.0
  0
LINE
  5
C0
100
AcDbEntity
  8
PV
100
AcDbLine
 10
-110.776455
 20
150.579642
 30
0.0
 11
-110.776455
 21
143.579642
 31
0.0
  0
LINE
  5
C1
100
AcDbEntity
  8
PV
100
AcDbLine
 10
-112.776455
 20
150.579642
 30
0.0
 11
-110.776455
 21
150.579642
 31
0.0
  0
LINE
  5
C2
100
AcDbEntity
  8
PV
100
AcDbLine
 10
-112.776455
 20
143.579642
 30
0.0
 11
-92.776455
 21
143.579642
 31
0.0
  0
LINE
  5
C3
100
AcDbEntity
  8
PV
100
AcDbLine
 10
-92.776455
 20
138.579642
 30
0.0
 11
-112.776455
 21
138.579642
 31
0.0
  0
LINE
  5
C4
100
AcDbEntity
  8
PV
100
AcDbLine
 10
-92.776455
 20
202.079642
 30
0.0
 11
-92.776455
 21
138.579642
 31
0.0
  0
LINE
  5
C5
100
AcDbEntity
  8
PV
100
AcDbLine
 10
-112.776455
 20
202.079642
 30
0.0
 11
-92.776455
 21
202.079642
 31
0.0
  0
LINE
  5
C6
100
AcDbEntity
  8
PV
100
AcDbLine
 10
-112.776455
 20
138.579642
 30
0.0
 11
-112.776455
 21
202.079642
 31
0.0
  0
CIRCLE
  5
C7
100
AcDbEntity
  8
PV
100
AcDbCircle
 10
-205.776455
 20
228.579642
 30
0.0
 40
2.0
  0
LINE
  5
C8
100
AcDbEntity
  8
PV
100
AcDbLine
 10
-180.776455
 20
234.579642
 30
0.0
 11
-182.776455
 21
237.579642
 31
0.0
  0
LINE
  5
C9
100
AcDbEntity
  8
PV
100
AcDbLine
 10
-181.776455
 20
234.579642
 30
0.0
 11
-180.776455
 21
234.579642
 31
0.0
  0
LINE
  5
CA
100
AcDbEntity
  8
PV
100
AcDbLine
 10
-181.776455
 20
227.579642
 30
0.0
 11
-181.776455
 21
234.579642
 31
0.0
  0
LINE
  5
CB
100
AcDbEntity
  8
PV
100
AcDbLine
 10
-183.776455
 20
227.579642
 30
0.0
 11
-181.776455
 21
227.579642
 31
0.0
  0
LINE
  5
CC
100
AcDbEntity
  8
PV
100
AcDbLine
 10
-183.776455
 20
234.579642
 30
0.0
 11
-183.776455
 21
227.579642
 31
0.0
  0
LINE
  5
CD
100
AcDbEntity
  8
PV
100
AcDbLine
 10
-184.776455
 20
234.579642
 30
0.0
 11
-183.776455
 21
234.579642
 31
0.0
  0
LINE
  5
CE
100
AcDbEntity
  8
PV
100
AcDbLine
 10
-182.776455
 20
237.579642
 30
0.0
 11
-184.776455
 21
234.579642
 31
0.0
  0
CIRCLE
  5
CF
100
AcDbEntity
  8
PV
100
AcDbCircle
 10
-159.776455
 20
236.579642
 30
0.0
 40
2.0
  0
LINE
  5
D0
100
AcDbEntity
  8
PV
100
AcDbLine
 10
-142.776455
 20
232.579642
 30
0.0
 11
-130.776455
 21
232.579642
 31
0.0
  0
LINE
  5
D1
100
AcDbEntity
  8
PV
100
AcDbLine
 10
-182.776455
 20
232.579642
 30
0.0
 11
-182.776455
 21
234.579642
 31
0.0
  0
LINE
  5
D2
100
AcDbEntity
  8
PV
100
AcDbLine
 10
-182.776455
 20
214.579642
 30
0.0
 11
-182.776455
 21
216.579642
 31
0.0
  0
LINE
  5
D3
100
AcDbEntity
  8
PV
100
AcDbLine
 10
-182.776455
 20
200.579642
 30
0.0
 11
-182.776455
 21
212.579642
 31
0.0
  0
LINE
  5
D4
100
AcDbEntity
  8
PV
100
AcDbLine
 10
-182.776455
 20
236.579642
 30
0.0
 11
-182.776455
 21
248.579642
 31
0.0
  0
LINE
  5
D5
100
AcDbEntity
  8
PV
100
AcDbLine
 10
-182.776455
 20
218.579642
 30
0.0
 11
-182.776455
 21
230.579642
 31
0.0
  0
LINE
  5
D6
100
AcDbEntity
  8
PV
100
AcDbLine
 10
-182.776455
 20
200.579642
 30
0.0
 11
-182.776455
 21
212.579642
 31
0.0
  0
LINE
  5
D7
100
AcDbEntity
  8
PV
100
AcDbLine
 10
-162.776455
 20
232.579642
 30
0.0
 11
-164.776455
 21
232.579642
 31
0.0
  0
LINE
  5
D8
100
AcDbEntity
  8
PV
100
AcDbLine
 10
-182.776455
 20
232.579642
 30
0.0
 11
-180.776455
 21
232.579642
 31
0.0
  0
LINE
  5
D9
100
AcDbEntity
  8
PV
100
AcDbLine
 10
-200.776455
 20
232.579642
 30
0.0
 11
-198.776455
 21
232.579642
 31
0.0
  0
LINE
  5
DA
100
AcDbEntity
  8
PV
100
AcDbLine
 10
-160.776455
 20
232.579642
 30
0.0
 11
-148.776455
 21
232.579642
 31
0.0
  0
LINE
  5
DB
100
AcDbEntity
  8
PV
100
AcDbLine
 10
-178.776455
 20
232.579642
 30
0.0
 11
-166.776455
 21
232.579642
 31
0.0
  0
LINE
  5
DC
100
AcDbEntity
  8
PV
100
AcDbLine
 10
-196.776455
 20
232.579642
 30
0.0
 11
-184.776455
 21
232.579642
 31
0.0
  0
LINE
  5
DD
100
AcDbEntity
  8
PV
100
AcDbLine
 10
-214.776455
 20
232.579642
 30
0.0
 11
-202.776455
 21
232.579642
 31
0.0
  0
LINE
  5
DE
100
AcDbEntity
  8
PV
100
AcDbLine
 10
-209.776455
 20
240.579642
 30
0.0
 11
-201.276455
 21
240.579642
 31
0.0
  0
LINE
  5
DF
100
AcDbEntity
  8
PV
100
AcDbLine
 10
-209.776455
 20
224.579642
 30
0.0
 11
-201.276455
 21
224.579642
 31
0.0
  0
LINE
  5
E0
100
AcDbEntity
  8
PV
100
AcDbLine
 10
-164.276455
 20
240.579642
 30
0.0
 11
-155.776455
 21
240.579642
 31
0.0
  0
LINE
  5
E1
100
AcDbEntity
  8
PV
100
AcDbLine
 10
-164.276455
 20
224.579642
 30
0.0
 11
-155.776455
 21
224.579642
 31
0.0
  0
LINE
  5
E2
100
AcDbEntity
  8
PV
100
AcDbLine
 10
-172.776455
 20
223.579642
 30
0.0
 11
-172.776455
 21
225.579642
 31
0.0
  0
LINE
  5
E3
100
AcDbEntity
  8
PV
100
AcDbLine
 10
-172.776455
 20
227.579642
 30
0.0
 11
-172.776455
 21
229.579642
 31
0.0
  0
LINE
  5
E4
100
AcDbEntity
  8
PV
100
AcDbLine
 10
-172.776455
 20
231.579642
 30
0.0
 11
-172.776455
 21
233.579642
 31
0.0
  0
LINE
  5
E5
100
AcDbEntity
  8
PV
100
AcDbLine
 10
-172.776455
 20
235.579642
 30
0.0
 11
-172.776455
 21
237.579642
 31
0.0
  0
LINE
  5
E6
100
AcDbEntity
  8
PV
100
AcDbLine
 10
-172.776455
 20
239.579642
 30
0.0
 11
-172.776455
 21
241.579642
 31
0.0
  0
LINE
  5
E7
100
AcDbEntity
  8
PV
100
AcDbLine
 10
-192.776455
 20
239.579642
 30
0.0
 11
-192.776455
 21
241.579642
 31
0.0
  0
LINE
  5
E8
100
AcDbEntity
  8
PV
100
AcDbLine
 10
-192.776455
 20
235.579642
 30
0.0
 11
-192.776455
 21
237.579642
 31
0.0
  0
LINE
  5
E9
100
AcDbEntity
  8
PV
100
AcDbLine
 10
-192.776455
 20
231.579642
 30
0.0
 11
-192.776455
 21
233.579642
 31
0.0
  0
LINE
  5
EA
100
AcDbEntity
  8
PV
100
AcDbLine
 10
-192.776455
 20
227.579642
 30
0.0
 11
-192.776455
 21
229.579642
 31
0.0
  0
LINE
  5
EB
100
AcDbEntity
  8
PV
100
AcDbLine
 10
-192.776455
 20
223.579642
 30
0.0
 11
-192.776455
 21
225.579642
 31
0.0
  0
LINE
  5
EC
100
AcDbEntity
  8
PV
100
AcDbLine
 10
-164.276455
 20
222.579642
 30
0.0
 11
-164.276455
 21
242.579642
 31
0.0
  0
LINE
  5
ED
100
AcDbEntity
  8
PV
100
AcDbLine
 10
-201.276455
 20
222.579642
 30
0.0
 11
-201.276455
 21
242.579642
 31
0.0
  0
LINE
  5
EE
100
AcDbEntity
  8
PV
100
AcDbLine
 10
-155.776455
 20
222.579642
 30
0.0
 11
-209.776455
 21
222.579642
 31
0.0
  0
LINE
  5
EF
100
AcDbEntity
  8
PV
100
AcDbLine
 10
-155.776455
 20
242.579642
 30
0.0
 11
-155.776455
 21
222.579642
 31
0.0
  0
LINE
  5
F0
100
AcDbEntity
  8
PV
100
AcDbLine
 10
-209.776455
 20
242.579642
 30
0.0
 11
-155.776455
 21
242.579642
 31
0.0
  0
LINE
  5
F1
100
AcDbEntity
  8
PV
100
AcDbLine
 10
-209.776455
 20
222.579642
 30
0.0
 11
-209.776455
 21
242.579642
 31
0.0
  0
TEXT
  5
F2
100
AcDbEntity
  8
PV
100
AcDbText
 10
-178.976455
 20
160.079642
 30
0.0
 40
3.0
  1
4
 41
0.96
  7
MONOTXT
100
AcDbText
  0
TEXT
  5
F3
100
AcDbEntity
  8
PV
100
AcDbText
 10
-188.976455
 20
160.079642
 30
0.0
 40
3.0
  1
1
 41
0.96
  7
MONOTXT
100
AcDbText
  0
LINE
  5
F4
100
AcDbEntity
  8
PV
100
AcDbLine
 10
-202.276455
 20
138.579642
 30
0.0
 11
-209.776455
 21
138.579642
 31
0.0
  0
LINE
  5
F5
100
AcDbEntity
  8
PV
100
AcDbLine
 10
-164.276455
 20
139.579642
 30
0.0
 11
-163.276455
 21
138.579642
 31
0.0
  0
LINE
  5
F6
100
AcDbEntity
  8
PV
100
AcDbLine
 10
-201.276455
 20
139.579642
 30
0.0
 11
-164.276455
 21
139.579642
 31
0.0
  0
LINE
  5
F7
100
AcDbEntity
  8
PV
100
AcDbLine
 10
-202.276455
 20
138.579642
 30
0.0
 11
-201.276455
 21
139.579642
 31
0.0
  0
LINE
  5
F8
100
AcDbEntity
  8
PV
100
AcDbLine
 10
-182.776455
 20
188.079642
 30
0.0
 11
-182.776455
 21
190.079642
 31
0.0
  0
LINE
  5
F9
100
AcDbEntity
  8
PV
100
AcDbLine
 10
-182.776455
 20
163.579642
 30
0.0
 11
-182.776455
 21
165.579642
 31
0.0
  0
LINE
  5
FA
100
AcDbEntity
  8
PV
100
AcDbLine
 10
-182.776455
 20
145.579642
 30
0.0
 11
-182.776455
 21
147.579642
 31
0.0
  0
LINE
  5
FB
100
AcDbEntity
  8
PV
100
AcDbLine
 10
-182.776455
 20
125.579642
 30
0.0
 11
-182.776455
 21
113.579642
 31
0.0
  0
LINE
  5
FC
100
AcDbEntity
  8
PV
100
AcDbLine
 10
-174.776455
 20
158.579642
 30
0.0
 11
-174.776455
 21
150.579642
 31
0.0
  0
LINE
  5
FD
100
AcDbEntity
  8
PV
100
AcDbLine
 10
-190.776455
 20
150.579642
 30
0.0
 11
-190.776455
 21
158.579642
 31
0.0
  0
LINE
  5
FE
100
AcDbEntity
  8
PV
100
AcDbLine
 10
-201.276455
 20
149.079642
 30
0.0
 11
-201.276455
 21
147.579642
 31
0.0
  0
LINE
  5
FF
100
AcDbEntity
  8
PV
100
AcDbLine
 10
-201.276455
 20
143.579642
 30
0.0
 11
-202.776455
 21
143.579642
 31
0.0
  0
LINE
  5
100
100
AcDbEntity
  8
PV
100
AcDbLine
 10
-201.276455
 20
146.579642
 30
0.0
 11
-201.276455
 21
144.579642
 31
0.0
  0
LINE
  5
101
100
AcDbEntity
  8
PV
100
AcDbLine
 10
-206.776455
 20
143.579642
 30
0.0
 11
-208.776455
 21
143.579642
 31
0.0
  0
LINE
  5
102
100
AcDbEntity
  8
PV
100
AcDbLine
 10
-203.776455
 20
143.579642
 30
0.0
 11
-205.776455
 21
143.579642
 31
0.0
  0
LINE
  5
103
100
AcDbEntity
  8
PV
100
AcDbLine
 10
-209.776455
 20
138.579642
 30
0.0
 11
-209.776455
 21
143.579642
 31
0.0
  0
LINE
  5
104
100
AcDbEntity
  8
PV
100
AcDbLine
 10
-209.776455
 20
143.579642
 30
0.0
 11
-201.276455
 21
151.135198
 31
0.0
  0
LINE
  5
105
100
AcDbEntity
  8
PV
100
AcDbLine
 10
-201.276455
 20
149.579642
 30
0.0
 11
-201.276455
 21
149.135198
 31
0.0
  0
LINE
  5
106
100
AcDbEntity
  8
PV
100
AcDbLine
 10
-205.776455
 20
130.579642
 30
0.0
 11
-205.776455
 21
150.079642
 31
0.0
  0
LINE
  5
107
100
AcDbEntity
  8
PV
100
AcDbLine
 10
-182.776455
 20
157.579642
 30
0.0
 11
-189.776455
 21
157.579642
 31
0.0
  0
LINE
  5
108
100
AcDbEntity
  8
PV
100
AcDbLine
 10
-189.776455
 20
157.579642
 30
0.0
 11
-189.776455
 21
151.579642
 31
0.0
  0
LINE
  5
109
100
AcDbEntity
  8
PV
100
AcDbLine
 10
-189.776455
 20
151.579642
 30
0.0
 11
-182.776455
 21
151.579642
 31
0.0
  0
LINE
  5
10A
100
AcDbEntity
  8
PV
100
AcDbLine
 10
-182.776455
 20
152.579642
 30
0.0
 11
-189.776455
 21
152.579642
 31
0.0
  0
LINE
  5
10B
100
AcDbEntity
  8
PV
100
AcDbLine
 10
-182.776455
 20
150.579642
 30
0.0
 11
-190.776455
 21
150.579642
 31
0.0
  0
LINE
  5
10C
100
AcDbEntity
  8
PV
100
AcDbLine
 10
-190.776455
 20
158.579642
 30
0.0
 11
-182.776455
 21
158.579642
 31
0.0
  0
CIRCLE
  5
10D
100
AcDbEntity
  8
PV
100
AcDbCircle
 10
-184.776455
 20
154.579642
 30
0.0
 40
0.7
  0
CIRCLE
  5
10E
100
AcDbEntity
  8
PV
100
AcDbCircle
 10
-187.776455
 20
154.579642
 30
0.0
 40
0.7
  0
LINE
  5
10F
100
AcDbEntity
  8
PV
100
AcDbLine
 10
-159.776455
 20
130.579642
 30
0.0
 11
-159.776455
 21
150.079642
 31
0.0
  0
CIRCLE
  5
110
100
AcDbEntity
  8
PV
100
AcDbCircle
 10
-177.776455
 20
154.579642
 30
0.0
 40
0.7
  0
CIRCLE
  5
111
100
AcDbEntity
  8
PV
100
AcDbCircle
 10
-180.776455
 20
154.579642
 30
0.0
 40
0.7
  0
LINE
  5
112
100
AcDbEntity
  8
PV
100
AcDbLine
 10
-174.776455
 20
158.579642
 30
0.0
 11
-182.776455
 21
158.579642
 31
0.0
  0
LINE
  5
113
100
AcDbEntity
  8
PV
100
AcDbLine
 10
-182.776455
 20
150.579642
 30
0.0
 11
-174.776455
 21
150.579642
 31
0.0
  0
LINE
  5
114
100
AcDbEntity
  8
PV
100
AcDbLine
 10
-182.776455
 20
152.579642
 30
0.0
 11
-175.776455
 21
152.579642
 31
0.0
  0
LINE
  5
115
100
AcDbEntity
  8
PV
100
AcDbLine
 10
-175.776455
 20
151.579642
 30
0.0
 11
-182.776455
 21
151.579642
 31
0.0
  0
LINE
  5
116
100
AcDbEntity
  8
PV
100
AcDbLine
 10
-175.776455
 20
157.579642
 30
0.0
 11
-175.776455
 21
151.579642
 31
0.0
  0
LINE
  5
117
100
AcDbEntity
  8
PV
100
AcDbLine
 10
-182.776455
 20
157.579642
 30
0.0
 11
-175.776455
 21
157.579642
 31
0.0
  0
LINE
  5
118
100
AcDbEntity
  8
PV
100
AcDbLine
 10
-164.276455
 20
149.579642
 30
0.0
 11
-164.276455
 21
149.135198
 31
0.0
  0
LINE
  5
119
100
AcDbEntity
  8
PV
100
AcDbLine
 10
-155.776455
 20
143.579642
 30
0.0
 11
-164.276455
 21
151.135198
 31
0.0
  0
LINE
  5
11A
100
AcDbEntity
  8
PV
100
AcDbLine
 10
-155.776455
 20
138.579642
 30
0.0
 11
-155.776455
 21
143.579642
 31
0.0
  0
LINE
  5
11B
100
AcDbEntity
  8
PV
100
AcDbLine
 10
-161.776455
 20
143.579642
 30
0.0
 11
-159.776455
 21
143.579642
 31
0.0
  0
LINE
  5
11C
100
AcDbEntity
  8
PV
100
AcDbLine
 10
-158.776455
 20
143.579642
 30
0.0
 11
-156.776455
 21
143.579642
 31
0.0
  0
LINE
  5
11D
100
AcDbEntity
  8
PV
100
AcDbLine
 10
-164.276455
 20
145.579642
 30
0.0
 11
-164.276455
 21
143.579642
 31
0.0
  0
LINE
  5
11E
100
AcDbEntity
  8
PV
100
AcDbLine
 10
-164.276455
 20
143.579642
 30
0.0
 11
-162.776455
 21
143.579642
 31
0.0
  0
LINE
  5
11F
100
AcDbEntity
  8
PV
100
AcDbLine
 10
-164.276455
 20
149.079642
 30
0.0
 11
-164.276455
 21
147.579642
 31
0.0
  0
LINE
  5
120
100
AcDbEntity
  8
PV
100
AcDbLine
 10
-155.776455
 20
138.579642
 30
0.0
 11
-163.276455
 21
138.579642
 31
0.0
  0
LINE
  5
121
100
AcDbEntity
  8
PV
100
AcDbLine
 10
-182.776455
 20
143.079642
 30
0.0
 11
-182.776455
 21
131.079642
 31
0.0
  0
LINE
  5
122
100
AcDbEntity
  8
PV
100
AcDbLine
 10
-182.776455
 20
161.079642
 30
0.0
 11
-182.776455
 21
149.079642
 31
0.0
  0
LINE
  5
123
100
AcDbEntity
  8
PV
100
AcDbLine
 10
-182.776455
 20
185.579642
 30
0.0
 11
-182.776455
 21
167.579642
 31
0.0
  0
LINE
  5
124
100
AcDbEntity
  8
PV
100
AcDbLine
 10
-182.776455
 20
209.579642
 30
0.0
 11
-182.776455
 21
191.579642
 31
0.0
  0
ARC
  5
125
100
AcDbEntity
  8
PV
100
AcDbCircle
 10
-182.776455
 20
183.579642
 30
0.0
 40
18.5
100
AcDbArc
 50
0.0
 51
180.0
  0
LINE
  5
126
100
AcDbEntity
  8
PV
100
AcDbLine
 10
-201.276455
 20
183.579642
 30
0.0
 11
-201.276455
 21
149.135198
 31
0.0
  0
LINE
  5
127
100
AcDbEntity
  8
PV
100
AcDbLine
 10
-164.276455
 20
183.579642
 30
0.0
 11
-164.276455
 21
150.579642
 31
0.0
  0
CIRCLE
  5
128
100
AcDbEntity
  8
PV
100
AcDbCircle
 10
-182.776455
 20
183.579642
 30
0.0
 40
10.0
  0
DIMENSION
  5
129
100
AcDbEntity
  8
PV
100
AcDbDimension
  2
*D1
 10
-164.276455
 20
207.079642
 30
0.0
 11
-187.184789
 21
210.479642
 31
0.0
100
AcDbAlignedDimension
 13
-201.276455
 23
183.579642
 33
0.0
 14
-164.276455
 24
183.579642
 34
0.0
100
AcDbRotatedDimension
  0
DIMENSION
  5
12A
100
AcDbEntity
  8
PV
100
AcDbDimension
  2
*D2
 10
-209.776455
 20
125.579642
 30
0.0
 11
-187.184789
 21
128.979642
 31
0.0
100
AcDbAlignedDimension
 13
-155.776455
 23
138.579642
 33
0.0
 14
-209.776455
 24
138.579642
 34
0.0
 50
180.0
100
AcDbRotatedDimension
  0
DIMENSION
  5
12B
100
AcDbEntity
  8
PV
100
AcDbDimension
  2
*D3
 10
-140.776455
 20
138.579642
 30
0.0
 11
139.087976
 21
144.176455
 31
0.0
100
AcDbAlignedDimension
 13
-156.776455
 23
143.579642
 33
0.0
 14
-155.776455
 24
138.579642
 34
0.0
 50
270.0
100
AcDbRotatedDimension
  0
DIMENSION
  5
12C
100
AcDbEntity
  8
PV
100
AcDbDimension
  2
*D4
 10
-133.776455
 20
138.579642
 30
0.0
 11
156.671308
 21
137.176455
 31
0.0
100
AcDbAlignedDimension
 13
-182.776455
 23
183.579642
 33
0.0
 14
-155.776455
 24
138.579642
 34
0.0
 50
270.0
100
AcDbRotatedDimension
  0
DIMENSION
  5
12D
100
AcDbEntity
  8
PV
100
AcDbDimension
  2
*D5
 10
-126.776455
 20
138.579642
 30
0.0
 11
162.721304
 21
130.176454
 31
0.0
100
AcDbAlignedDimension
 13
-182.776455
 23
202.079642
 33
0.0
 14
-155.776455
 24
138.579642
 34
0.0
 50
270.0
100
AcDbRotatedDimension
  0
LINE
  5
12E
100
AcDbEntity
  8
PV
100
AcDbLine
 10
-175.580095
 20
190.523157
 30
0.0
 11
-175.939913
 21
190.175982
 31
0.0
  0
LINE
  5
12F
100
AcDbEntity
  8
PV
100
AcDbLine
 10
-189.972815
 20
176.636127
 30
0.0
 11
-189.612997
 21
176.983302
 31
0.0
  0
DIMENSION
  5
130
100
AcDbEntity
  8
PV
100
AcDbDimension
  2
*D6
 10
-140.776455
 20
222.579642
 30
0.0
 11
228.171309
 21
144.176454
 31
0.0
100
AcDbAlignedDimension
 13
-155.776455
 23
242.579642
 33
0.0
 14
-155.776455
 24
222.579642
 34
0.0
 50
270.0
100
AcDbRotatedDimension
  0
LINE
  5
131
100
AcDbEntity
  8
PV
100
AcDbLine
 10
-159.057495
 20
238.445948
 30
0.0
 11
-158.877755
 21
238.912524
 31
0.0
  0
LINE
  5
132
100
AcDbEntity
  8
PV
  6
CENTER
100
AcDbLine
 10
-203.276455
 20
228.579642
 30
0.0
 11
-208.276455
 21
228.579642
 31
0.0
  0
LINE
  5
133
100
AcDbEntity
  8
PV
  6
CENTER
100
AcDbLine
 10
-205.776455
 20
231.079642
 30
0.0
 11
-205.776455
 21
226.079642
 31
0.0
  0
LINE
  5
134
100
AcDbEntity
  8
PV
  6
CENTER
100
AcDbLine
 10
-157.276455
 20
236.579642
 30
0.0
 11
-162.276455
 21
236.579642
 31
0.0
  0
LINE
  5
135
100
AcDbEntity
  8
PV
  6
CENTER
100
AcDbLine
 10
-159.776455
 20
239.079642
 30
0.0
 11
-159.776455
 21
234.079642
 31
0.0
  0
DIMENSION
  5
136
100
AcDbEntity
  8
PV
100
AcDbDimension
  2
*D7
 10
-147.776455
 20
228.579642
 30
0.0
 11
229.77131
 21
151.176454
 31
0.0
100
AcDbAlignedDimension
 13
-157.276455
 23
236.579642
 33
0.0
 14
-203.276455
 24
228.579642
 34
0.0
 50
270.0
100
AcDbRotatedDimension
  0
TEXT
  5
137
100
AcDbEntity
  8
0
100
AcDbText
 10
-66.165301
 20
106.713106
 30
0.0
 40
4.0
  1
センサ電源
 41
0.5
  7
BIGFONT
100
AcDbText
  0
TEXT
  5
138
100
AcDbEntity
  8
0
100
AcDbText
 10
-54.365301
 20
112.713106
 30
0.0
 40
4.0
  1
(+)
 41
0.6
  7
MONOTXT
100
AcDbText
  0
TEXT
  5
139
100
AcDbEntity
  8
0
100
AcDbText
 10
-54.365301
 20
106.713106
 30
0.0
 40
4.0
  1
(-)
 41
0.6
  7
MONOTXT
100
AcDbText
  0
TEXT
  5
13A
100
AcDbEntity
  8
0
100
AcDbText
 10
-62.365301
 20
100.713106
 30
0.0
 40
4.0
  1
(+)
 41
0.6
  7
MONOTXT
100
AcDbText
  0
TEXT
  5
13B
100
AcDbEntity
  8
0
100
AcDbText
 10
-62.365301
 20
94.713106
 30
0.0
 40
4.0
  1
(-)
 41
0.6
  7
MONOTXT
100
AcDbText
  0
TEXT
  5
13C
100
AcDbEntity
  8
0
100
AcDbText
 10
-66.665301
 20
94.713106
 30
0.0
 40
4.0
  1
出力
 41
0.5
  7
BIGFONT
100
AcDbText
  0
TEXT
  5
13D
100
AcDbEntity
  8
0
100
AcDbText
 10
-66.665301
 20
100.713106
 30
0.0
 40
4.0
  1
出力
 41
0.5
  7
BIGFONT
100
AcDbText
  0
TEXT
  5
13E
100
AcDbEntity
  8
0
100
AcDbText
 10
-73.865301
 20
94.713106
 30
0.0
 40
4.0
  1
4
 41
0.6
  7
MONOTXT
100
AcDbText
  0
TEXT
  5
13F
100
AcDbEntity
  8
0
100
AcDbText
 10
-73.865301
 20
100.713106
 30
0.0
 40
4.0
  1
3
 41
0.6
  7
MONOTXT
100
AcDbText
  0
TEXT
  5
140
100
AcDbEntity
  8
0
100
AcDbText
 10
-73.865301
 20
106.713106
 30
0.0
 40
4.0
  1
2
 41
0.6
  7
MONOTXT
100
AcDbText
  0
TEXT
  5
141
100
AcDbEntity
  8
0
100
AcDbText
 10
-66.665301
 20
112.713106
 30
0.0
 40
4.0
  1
センサ電源
 41
0.5
  7
BIGFONT
100
AcDbText
  0
TEXT
  5
142
100
AcDbEntity
  8
0
100
AcDbText
 10
-73.865301
 20
112.713106
 30
0.0
 40
4.0
  1
1
 41
0.6
  7
MONOTXT
100
AcDbText
  0
TEXT
  5
143
100
AcDbEntity
  8
0
100
AcDbText
 10
-80.865301
 20
112.713106
 30
0.0
 40
4.0
  1
No.
 41
0.6
  7
MONOTXT
100
AcDbText
  0
TEXT
  5
144
100
AcDbEntity
  8
0
100
AcDbText
 10
-101.865301
 20
112.713106
 30
0.0
 40
4.0
  1
Terminal
 41
0.6
  7
MONOTXT
100
AcDbText
  0
TEXT
  5
145
100
AcDbEntity
  8
0
100
AcDbText
 10
-76.200001
 20
60.499985
 30
0.0
 40
4.0
  1
TSM-U050
 41
1.2
  7
MONOTXT
100
AcDbText
  0
TEXT
  5
146
100
AcDbEntity
  8
0
100
AcDbText
 10
-185.476455
 20
133.879642
 30
0.0
 40
3.2
  1
46
 41
0.9375
  7
MONOTXT
100
AcDbText
  0
POLYLINE
  5
147
100
AcDbEntity
  8
0
100
AcDb2dPolyline
 66
     1
 10
0.0
 20
0.0
 30
0.0
  0
VERTEX
  5
148
100
AcDbEntity
  8
0
100
AcDbVertex
100
AcDb2dVertex
 10
-162.755933
 20
131.281293
 30
0.0
  0
VERTEX
  5
149
100
AcDbEntity
  8
0
100
AcDbVertex
100
AcDb2dVertex
 10
-159.776455
 20
132.079642
 30
0.0
  0
VERTEX
  5
14A
100
AcDbEntity
  8
0
100
AcDbVertex
100
AcDb2dVertex
 10
-162.755933
 20
132.877991
 30
0.0
  0
SEQEND
  5
14B
100
AcDbEntity
  8
0
  0
POLYLINE
  5
14C
100
AcDbEntity
  8
0
100
AcDb2dPolyline
 66
     1
 10
0.0
 20
0.0
 30
0.0
  0
VERTEX
  5
14D
100
AcDbEntity
  8
0
100
AcDbVertex
100
AcDb2dVertex
 10
-202.796977
 20
132.877991
 30
0.0
  0
VERTEX
  5
14E
100
AcDbEntity
  8
0
100
AcDbVertex
100
AcDb2dVertex
 10
-205.776455
 20
132.079642
 30
0.0
  0
VERTEX
  5
14F
100
AcDbEntity
  8
0
100
AcDbVertex
100
AcDb2dVertex
 10
-202.796977
 20
131.281293
 30
0.0
  0
SEQEND
  5
150
100
AcDbEntity
  8
0
  0
LINE
  5
151
100
AcDbEntity
  8
0
100
AcDbLine
 10
-205.776455
 20
132.079642
 30
0.0
 11
-159.776455
 21
132.079642
 31
0.0
  0
TEXT
  5
152
100
AcDbEntity
  8
0
100
AcDbText
 10
-188.838219
 20
179.1232
 30
0.0
 40
3.2
  1
%%c20
 50
43.9
 41
0.9375
  7
MONOTXT
100
AcDbText
  0
LINE
  5
153
100
AcDbEntity
  8
0
100
AcDbLine
 10
-189.972815
 20
176.636127
 30
0.0
 11
-175.580095
 21
190.523157
 31
0.0
  0
POLYLINE
  5
154
100
AcDbEntity
  8
0
100
AcDb2dPolyline
 66
     1
 10
0.0
 20
0.0
 30
0.0
  0
VERTEX
  5
155
100
AcDbEntity
  8
0
100
AcDbVertex
100
AcDb2dVertex
 10
-177.169903
 20
187.879833
 30
0.0
  0
VERTEX
  5
156
100
AcDbEntity
  8
0
100
AcDbVertex
100
AcDb2dVertex
 10
-175.580095
 20
190.523157
 30
0.0
  0
VERTEX
  5
157
100
AcDbEntity
  8
0
100
AcDbVertex
100
AcDb2dVertex
 10
-178.278571
 20
189.028875
 30
0.0
  0
SEQEND
  5
158
100
AcDbEntity
  8
0
  0
POLYLINE
  5
159
100
AcDbEntity
  8
0
100
AcDb2dPolyline
 66
     1
 10
0.0
 20
0.0
 30
0.0
  0
VERTEX
  5
15A
100
AcDbEntity
  8
0
100
AcDbVertex
100
AcDb2dVertex
 10
-188.383007
 20
179.279451
 30
0.0
  0
VERTEX
  5
15B
100
AcDbEntity
  8
0
100
AcDbVertex
100
AcDb2dVertex
 10
-189.972815
 20
176.636127
 30
0.0
  0
VERTEX
  5
15C
100
AcDbEntity
  8
0
100
AcDbVertex
100
AcDb2dVertex
 10
-187.274339
 20
178.130409
 30
0.0
  0
SEQEND
  5
15D
100
AcDbEntity
  8
0
  0
POLYLINE
  5
15E
100
AcDbEntity
  8
0
100
AcDb2dPolyline
 66
     1
 10
0.0
 20
0.0
 30
0.0
  0
VERTEX
  5
15F
100
AcDbEntity
  8
0
100
AcDbVertex
100
AcDb2dVertex
 10
-158.731413
 20
241.513247
 30
0.0
  0
VERTEX
  5
160
100
AcDbEntity
  8
0
100
AcDbVertex
100
AcDb2dVertex
 10
-159.057495
 20
238.445948
 30
0.0
  0
VERTEX
  5
161
100
AcDbEntity
  8
0
100
AcDbVertex
100
AcDb2dVertex
 10
-157.24145
 20
240.939266
 30
0.0
  0
SEQEND
  5
162
100
AcDbEntity
  8
0
  0
LINE
  5
163
100
AcDbEntity
  8
0
100
AcDbLine
 10
-159.057495
 20
238.445948
 30
0.0
 11
-154.88095
 21
249.287598
 31
0.0
  0
TEXT
  5
164
100
AcDbEntity
  8
0
100
AcDbText
 10
-151.499596
 20
250.287598
 30
0.0
 40
3.2
  1
取付穴
 41
0.78125
  7
BIGFONT
100
AcDbText
  0
TEXT
  5
165
100
AcDbEntity
  8
0
100
AcDbText
 10
-152.749596
 20
255.087598
 30
0.0
 40
3.2
  1
2-%%c4
 41
0.9375
  7
MONOTXT
100
AcDbText
  0
LINE
  5
166
100
AcDbEntity
  8
0
100
AcDbLine
 10
-154.88095
 20
249.287598
 30
0.0
 11
-141.049596
 21
249.287598
 31
0.0
  0
POLYLINE
  5
167
100
AcDbEntity
  8
0
100
AcDb2dPolyline
 66
     1
 10
0.0
 20
0.0
 30
0.0
  0
VERTEX
  5
168
100
AcDbEntity
  8
0
100
AcDbVertex
100
AcDb2dVertex
 10
-183.673883
 20
236.2335
 30
0.0
  0
VERTEX
  5
169
100
AcDbEntity
  8
0
100
AcDbVertex
100
AcDb2dVertex
 10
-190.952926
 20
246.579642
 30
0.0
  0
VERTEX
  5
16A
100
AcDbEntity
  8
0
100
AcDbVertex
100
AcDb2dVertex
 10
-213.031622
 20
246.579642
 30
0.0
  0
SEQEND
  5
16B
100
AcDbEntity
  8
0
  0
POLYLINE
  5
16C
100
AcDbEntity
  8
0
100
AcDb2dPolyline
 66
     1
 10
0.0
 20
0.0
 30
0.0
  0
VERTEX
  5
16D
100
AcDbEntity
  8
0
100
AcDbVertex
100
AcDb2dVertex
 10
-186.041247
 20
238.210933
 30
0.0
  0
VERTEX
  5
16E
100
AcDbEntity
  8
0
100
AcDbVertex
100
AcDb2dVertex
 10
-183.673883
 20
236.2335
 30
0.0
  0
VERTEX
  5
16F
100
AcDbEntity
  8
0
100
AcDbVertex
100
AcDb2dVertex
 10
-184.735363
 20
239.129689
 30
0.0
  0
SEQEND
  5
170
100
AcDbEntity
  8
0
  0
TEXT
  5
171
100
AcDbEntity
  8
0
100
AcDbText
 10
-211.481622
 20
248.379642
 30
0.0
 40
3.2
  1
電流方向マーク
 41
0.78125
  7
BIGFONT
100
AcDbText
  0
POLYLINE
  5
172
100
AcDbEntity
  8
0
100
AcDb2dPolyline
 66
     1
 10
0.0
 20
0.0
 30
0.0
  0
VERTEX
  5
173
100
AcDbEntity
  8
0
100
AcDbVertex
100
AcDb2dVertex
 10
-98.559563
 20
158.579642
 30
0.0
  0
VERTEX
  5
174
100
AcDbEntity
  8
0
100
AcDbVertex
100
AcDb2dVertex
 10
-86.370774
 20
171.547336
 30
0.0
  0
VERTEX
  5
175
100
AcDbEntity
  8
0
100
AcDbVertex
100
AcDb2dVertex
 10
-57.5615
 20
171.547336
 30
0.0
  0
SEQEND
  5
176
100
AcDbEntity
  8
0
  0
POLYLINE
  5
177
100
AcDbEntity
  8
0
100
AcDb2dPolyline
 66
     1
 10
0.0
 20
0.0
 30
0.0
  0
VERTEX
  5
178
100
AcDbEntity
  8
0
100
AcDbVertex
100
AcDb2dVertex
 10
-97.100681
 20
161.29742
 30
0.0
  0
VERTEX
  5
179
100
AcDbEntity
  8
0
100
AcDbVertex
100
AcDb2dVertex
 10
-98.559563
 20
158.579642
 30
0.0
  0
VERTEX
  5
17A
100
AcDbEntity
  8
0
100
AcDbVertex
100
AcDb2dVertex
 10
-95.937245
 20
160.203866
 30
0.0
  0
SEQEND
  5
17B
100
AcDbEntity
  8
0
  0
TEXT
  5
17C
100
AcDbEntity
  8
0
100
AcDbText
 10
-84.2615
 20
166.547336
 30
0.0
 40
3.2
  1
MOLEX
 41
0.9375
  7
MONOTXT
100
AcDbText
  0
TEXT
  5
17D
100
AcDbEntity
  8
0
100
AcDbText
 10
-84.2615
 20
173.347336
 30
0.0
 40
3.2
  1
5046-04AG
 41
0.9375
  7
MONOTXT
100
AcDbText
  0
ENDSEC
  0
SECTION
  2
OBJECTS
  0
DICTIONARY
  5
C
100
AcDbDictionary
  3
ACAD_GROUP
350
D
  3
ACAD_MLINESTYLE
350
E
  0
DICTIONARY
  5
D
102
{ACAD_REACTORS
330
C
102
}
100
AcDbDictionary
  0
DICTIONARY
  5
E
102
{ACAD_REACTORS
330
C
102
}
100
AcDbDictionary
  3
STANDARD
350
1C
  0
MLINESTYLE
  5
1C
102
{ACAD_REACTORS
330
E
102
}
100
AcDbMlineStyle
  2
STANDARD
 70
     0
  3

 62
     0
 51
90.0
 52
90.0
 71
     2
 49
0.5
 62
   256
  6
BYLAYER
 49
-0.5
 62
   256
  6
BYLAYER
  0
ENDSEC
  0
EOF
