  0
SECTION
  2
HEADER
  9
$ACADVER
  1
AC1012
  9
$DWGCODEPAGE
  3
dos932
  9
$INSBASE
 10
0.0
 20
0.0
 30
0.0
  9
$EXTMIN
 10
-188.842518
 20
52.699982
 30
0.0
  9
$EXTMAX
 10
-9.6
 20
273.639676
 30
0.0
  9
$LIMMIN
 10
-188.843518
 20
-0.001
  9
$LIMMAX
 10
0.001
 20
272.040676
  9
$ORTHOMODE
 70
     0
  9
$REGENMODE
 70
     1
  9
$FILLMODE
 70
     1
  9
$QTEXTMODE
 70
     0
  9
$MIRRTEXT
 70
     1
  9
$DRAGMODE
 70
     2
  9
$LTSCALE
 40
4.533995
  9
$OSMODE
 70
     0
  9
$ATTMODE
 70
     1
  9
$TEXTSIZE
 40
3.2
  9
$TRACEWID
 40
0.05
  9
$TEXTSTYLE
  7
STANDARD
  9
$CLAYER
  8
0
  9
$CELTYPE
  6
CONTINUOUS
  9
$CECOLOR
 62
   256
  9
$CELTSCALE
 40
1.0
  9
$DELOBJ
 70
     1
  9
$DISPSILH
 70
     0
  9
$DIMSCALE
 40
1.0
  9
$DIMASZ
 40
0.18
  9
$DIMEXO
 40
0.0625
  9
$DIMDLI
 40
0.38
  9
$DIMRND
 40
0.0
  9
$DIMDLE
 40
0.0
  9
$DIMEXE
 40
0.18
  9
$DIMTP
 40
0.0
  9
$DIMTM
 40
0.0
  9
$DIMTXT
 40
0.18
  9
$DIMCEN
 40
0.09
  9
$DIMTSZ
 40
0.0
  9
$DIMTOL
 70
     0
  9
$DIMLIM
 70
     0
  9
$DIMTIH
 70
     1
  9
$DIMTOH
 70
     1
  9
$DIMSE1
 70
     0
  9
$DIMSE2
 70
     0
  9
$DIMTAD
 70
     0
  9
$DIMZIN
 70
     0
  9
$DIMBLK
  1

  9
$DIMASO
 70
     1
  9
$DIMSHO
 70
     1
  9
$DIMPOST
  1

  9
$DIMAPOST
  1

  9
$DIMALT
 70
     0
  9
$DIMALTD
 70
     2
  9
$DIMALTF
 40
25.4
  9
$DIMLFAC
 40
1.0
  9
$DIMTOFL
 70
     0
  9
$DIMTVP
 40
0.0
  9
$DIMTIX
 70
     0
  9
$DIMSOXD
 70
     0
  9
$DIMSAH
 70
     0
  9
$DIMBLK1
  1

  9
$DIMBLK2
  1

  9
$DIMSTYLE
  2
STANDARD
  9
$DIMCLRD
 70
     0
  9
$DIMCLRE
 70
     0
  9
$DIMCLRT
 70
     0
  9
$DIMTFAC
 40
1.0
  9
$DIMGAP
 40
0.09
  9
$DIMJUST
 70
     0
  9
$DIMSD1
 70
     0
  9
$DIMSD2
 70
     0
  9
$DIMTOLJ
 70
     1
  9
$DIMTZIN
 70
     0
  9
$DIMALTZ
 70
     0
  9
$DIMALTTZ
 70
     0
  9
$DIMFIT
 70
     3
  9
$DIMUPT
 70
     0
  9
$DIMUNIT
 70
     2
  9
$DIMDEC
 70
     4
  9
$DIMTDEC
 70
     4
  9
$DIMALTU
 70
     2
  9
$DIMALTTD
 70
     2
  9
$DIMTXSTY
  7
STANDARD
  9
$DIMAUNIT
 70
     0
  9
$LUNITS
 70
     2
  9
$LUPREC
 70
     4
  9
$SKETCHINC
 40
0.1
  9
$FILLETRAD
 40
0.0
  9
$AUNITS
 70
     0
  9
$AUPREC
 70
     0
  9
$MENU
  1
acad
  9
$ELEVATION
 40
0.0
  9
$PELEVATION
 40
0.0
  9
$THICKNESS
 40
0.0
  9
$LIMCHECK
 70
     0
  9
$BLIPMODE
 70
     1
  9
$CHAMFERA
 40
0.0
  9
$CHAMFERB
 40
0.0
  9
$CHAMFERC
 40
0.0
  9
$CHAMFERD
 40
0.0
  9
$SKPOLY
 70
     0
  9
$TDCREATE
 40
0.0000000000
  9
$TDUPDATE
 40
0.0000000000
  9
$TDINDWG
 40
0.0000000000
  9
$TDUSRTIMER
 40
0.0000000000
  9
$USRTIMER
 70
     1
  9
$ANGBASE
 50
0.0
  9
$ANGDIR
 70
     0
  9
$PDMODE
 70
     0
  9
$PDSIZE
 40
0.0
  9
$PLINEWID
 40
0.0
  9
$COORDS
 70
     1
  9
$SPLFRAME
 70
     0
  9
$SPLINETYPE
 70
     6
  9
$SPLINESEGS
 70
     8
  9
$ATTDIA
 70
     0
  9
$ATTREQ
 70
     1
  9
$HANDLING
 70
     1
  9
$HANDSEED
  5
17D
  9
$SURFTAB1
 70
     6
  9
$SURFTAB2
 70
     6
  9
$SURFTYPE
 70
     6
  9
$SURFU
 70
     6
  9
$SURFV
 70
     6
  9
$UCSNAME
  2

  9
$UCSORG
 10
0.0
 20
0.0
 30
0.0
  9
$UCSXDIR
 10
1.0
 20
0.0
 30
0.0
  9
$UCSYDIR
 10
0.0
 20
1.0
 30
0.0
  9
$PUCSNAME
  2

  9
$PUCSORG
 10
0.0
 20
0.0
 30
0.0
  9
$PUCSXDIR
 10
1.0
 20
0.0
 30
0.0
  9
$PUCSYDIR
 10
0.0
 20
1.0
 30
0.0
  9
$USERI1
 70
     0
  9
$USERI2
 70
     0
  9
$USERI3
 70
     0
  9
$USERI4
 70
     0
  9
$USERI5
 70
     0
  9
$USERR1
 40
0.0
  9
$USERR2
 40
0.0
  9
$USERR3
 40
0.0
  9
$USERR4
 40
0.0
  9
$USERR5
 40
0.0
  9
$WORLDVIEW
 70
     1
  9
$SHADEDGE
 70
     3
  9
$SHADEDIF
 70
    70
  9
$TILEMODE
 70
     1
  9
$MAXACTVP
 70
    16
  9
$PINSBASE
 10
0.0
 20
0.0
 30
0.0
  9
$PLIMCHECK
 70
     0
  9
$PEXTMIN
 10
1.000000E+20
 20
1.000000E+20
 30
1.000000E+20
  9
$PEXTMAX
 10
-1.000000E+20
 20
-1.000000E+20
 30
-1.000000E+20
  9
$PLIMMIN
 10
0.0
 20
0.0
  9
$PLIMMAX
 10
12.0
 20
9.0
  9
$UNITMODE
 70
     0
  9
$VISRETAIN
 70
     0
  9
$PLINEGEN
 70
     0
  9
$PSLTSCALE
 70
     1
  9
$TREEDEPTH
 70
  3020
  9
$PICKSTYLE
 70
     1
  9
$CMLSTYLE
  2
STANDARD
  9
$CMLJUST
 70
     0
  9
$CMLSCALE
 40
1.0
  9
$SAVEIMAGES
 70
     0
  0
ENDSEC
  0
SECTION
  2
CLASSES
  0
ENDSEC
  0
SECTION
  2
TABLES
  0
TABLE
  2
VPORT
  5
8
100
AcDbSymbolTable
 70
     3
  0
VPORT
  5
17C
100
AcDbSymbolTableRecord
100
AcDbViewportTableRecord
  2
*ACTIVE
 70
     0
 10
0.0
 20
0.0
 11
1.0
 21
1.0
 12
21.084316
 22
136.819338
 13
0.0
 23
0.0
 14
1.0
 24
1.0
 15
0.0
 25
0.0
 16
0.0
 26
0.0
 36
1.0
 17
0.0
 27
0.0
 37
0.0
 40
273.640676
 41
1.534332
 42
50.0
 43
0.0
 44
0.0
 50
0.0
 51
0.0
 71
     0
 72
   100
 73
     1
 74
     1
 75
     0
 76
     0
 77
     0
 78
     0
  0
ENDTAB
  0
TABLE
  2
LTYPE
  5
5
100
AcDbSymbolTable
 70
     5
  0
LTYPE
  5
13
100
AcDbSymbolTableRecord
100
AcDbLinetypeTableRecord
  2
BYBLOCK
 70
     0
  3

 72
    65
 73
     0
 40
0.0
  0
LTYPE
  5
14
100
AcDbSymbolTableRecord
100
AcDbLinetypeTableRecord
  2
BYLAYER
 70
     0
  3

 72
    65
 73
     0
 40
0.0
  0
LTYPE
  5
15
100
AcDbSymbolTableRecord
100
AcDbLinetypeTableRecord
  2
CONTINUOUS
 70
    64
  3
Solid-Line
 72
    65
 73
     0
 40
0.0
  0
LTYPE
  5
1E
100
AcDbSymbolTableRecord
100
AcDbLinetypeTableRecord
  2
DASHED
 70
    64
  3
DASHED
 72
    65
 73
     2
 40
0.75
 49
0.5
 74
     0
 49
-0.25
 74
     0
  0
LTYPE
  5
1F
100
AcDbSymbolTableRecord
100
AcDbLinetypeTableRecord
  2
HIDDEN
 70
    64
  3
HIDDEN
 72
    65
 73
     2
 40
0.375
 49
0.25
 74
     0
 49
-0.125
 74
     0
  0
LTYPE
  5
20
100
AcDbSymbolTableRecord
100
AcDbLinetypeTableRecord
  2
CENTER
 70
    64
  3
CENTER
 72
    65
 73
     4
 40
2.0
 49
1.25
 74
     0
 49
-0.25
 74
     0
 49
0.25
 74
     0
 49
-0.25
 74
     0
  0
LTYPE
  5
21
100
AcDbSymbolTableRecord
100
AcDbLinetypeTableRecord
  2
PHANTOM
 70
    64
  3
PHANTOM
 72
    65
 73
     6
 40
2.5
 49
1.25
 74
     0
 49
-0.25
 74
     0
 49
0.25
 74
     0
 49
-0.25
 74
     0
 49
0.25
 74
     0
 49
-0.25
 74
     0
  0
ENDTAB
  0
TABLE
  2
LAYER
  5
2
100
AcDbSymbolTable
 70
     2
  0
LAYER
  5
F
100
AcDbSymbolTableRecord
100
AcDbLayerTableRecord
  2
0
 70
     0
 62
     7
  6
CONTINUOUS
  0
LAYER
  5
22
100
AcDbSymbolTableRecord
100
AcDbLayerTableRecord
  2
PV
 70
     0
 62
     3
  6
CONTINUOUS
  0
ENDTAB
  0
TABLE
  2
STYLE
  5
3
100
AcDbSymbolTable
 70
     3
  0
STYLE
  5
10
100
AcDbSymbolTableRecord
100
AcDbTextStyleTableRecord
  2
STANDARD
 70
     0
 40
0.0
 41
1.0
 50
0.0
 71
     0
 42
0.2
  3
txt
  4

  0
STYLE
  5
23
100
AcDbSymbolTableRecord
100
AcDbTextStyleTableRecord
  2
MONOTXT
 70
     0
 40
0.0
 41
1.0
 50
0.0
 71
     0
 42
0.2
  3
monotxt
  4

  0
STYLE
  5
24
100
AcDbSymbolTableRecord
100
AcDbTextStyleTableRecord
  2
BIGFONT
 70
     0
 40
0.0
 41
1.0
 50
0.0
 71
     0
 42
0.2
  3
txt
  4
bigfont
  0
ENDTAB
  0
TABLE
  2
VIEW
  5
6
100
AcDbSymbolTable
 70
     0
  0
ENDTAB
  0
TABLE
  2
UCS
  5
7
100
AcDbSymbolTable
 70
     0
  0
ENDTAB
  0
TABLE
  2
APPID
  5
9
100
AcDbSymbolTable
 70
     1
  0
APPID
  5
11
100
AcDbSymbolTableRecord
100
AcDbRegAppTableRecord
  2
ACAD
 70
     0
  0
ENDTAB
  0
TABLE
  2
DIMSTYLE
  5
A
100
AcDbSymbolTable
 70
     1
  0
DIMSTYLE
105
17A
100
AcDbSymbolTableRecord
100
AcDbDimStyleTableRecord
  2
STANDARD
 70
     0
  3

  4

  5

  6

  7

 40
1.0
 41
0.18
 42
0.0625
 43
0.38
 44
0.18
 45
0.0
 46
0.0
 47
0.0
 48
0.0
140
0.18
141
0.09
142
0.0
143
25.4
144
1.0
145
0.0
146
1.0
147
0.09
 71
     0
 72
     0
 73
     1
 74
     1
 75
     0
 76
     0
 77
     0
 78
     0
170
     0
171
     2
172
     0
173
     0
174
     0
175
     0
176
     0
177
     0
178
     0
270
     2
271
     4
272
     4
273
     2
274
     2
340
10
275
     0
280
     0
281
     0
282
     0
283
     1
284
     0
285
     0
286
     0
287
     3
288
     0
  0
ENDTAB
  0
TABLE
  2
BLOCK_RECORD
  5
1
100
AcDbSymbolTable
 70
     9
  0
BLOCK_RECORD
  5
19
100
AcDbSymbolTableRecord
100
AcDbBlockTableRecord
  2
*MODEL_SPACE
  0
BLOCK_RECORD
  5
16
100
AcDbSymbolTableRecord
100
AcDbBlockTableRecord
  2
*PAPER_SPACE
  0
BLOCK_RECORD
  5
27
100
AcDbSymbolTableRecord
100
AcDbBlockTableRecord
  2
ARROW
  0
BLOCK_RECORD
  5
2F
100
AcDbSymbolTableRecord
100
AcDbBlockTableRecord
  2
*D1
  0
BLOCK_RECORD
  5
3B
100
AcDbSymbolTableRecord
100
AcDbBlockTableRecord
  2
*D2
  0
BLOCK_RECORD
  5
47
100
AcDbSymbolTableRecord
100
AcDbBlockTableRecord
  2
*D3
  0
BLOCK_RECORD
  5
53
100
AcDbSymbolTableRecord
100
AcDbBlockTableRecord
  2
*D4
  0
BLOCK_RECORD
  5
61
100
AcDbSymbolTableRecord
100
AcDbBlockTableRecord
  2
*D5
  0
BLOCK_RECORD
  5
6D
100
AcDbSymbolTableRecord
100
AcDbBlockTableRecord
  2
*D6
  0
BLOCK_RECORD
  5
79
100
AcDbSymbolTableRecord
100
AcDbBlockTableRecord
  2
*D7
  0
BLOCK_RECORD
  5
85
100
AcDbSymbolTableRecord
100
AcDbBlockTableRecord
  2
*D8
  0
ENDTAB
  0
ENDSEC
  0
SECTION
  2
BLOCKS
  0
BLOCK
  5
1A
100
AcDbEntity
  8
0
100
AcDbBlockBegin
  2
*MODEL_SPACE
 70
     0
 10
0.0
 20
0.0
 30
0.0
  3
*MODEL_SPACE
  1

  0
ENDBLK
  5
1B
100
AcDbEntity
  8
0
100
AcDbBlockEnd
  0
BLOCK
  5
17
100
AcDbEntity
 67
     1
  8
0
100
AcDbBlockBegin
  2
*PAPER_SPACE
 70
     0
 10
0.0
 20
0.0
 30
0.0
  3
*PAPER_SPACE
  1

  0
ENDBLK
  5
18
100
AcDbEntity
 67
     1
  8
0
100
AcDbBlockEnd
  0
BLOCK
  5
28
100
AcDbEntity
  8
0
100
AcDbBlockBegin
  2
ARROW
 70
    74
 10
0.0
 20
0.0
 30
0.0
  3
ARROW
  1

  0
POLYLINE
  5
29
100
AcDbEntity
  8
0
  6
CONTINUOUS
 62
     0
100
AcDb2dPolyline
 66
     1
 10
0.0
 20
0.0
 30
0.0
  0
VERTEX
  5
2A
100
AcDbEntity
  8
0
  6
CONTINUOUS
 62
     0
100
AcDbVertex
100
AcDb2dVertex
 10
2.523467
 20
0.676161
 30
0.0
  0
VERTEX
  5
2B
100
AcDbEntity
  8
0
  6
CONTINUOUS
 62
     0
100
AcDbVertex
100
AcDb2dVertex
 10
0.0
 20
0.0
 30
0.0
  0
VERTEX
  5
2C
100
AcDbEntity
  8
0
  6
CONTINUOUS
 62
     0
100
AcDbVertex
100
AcDb2dVertex
 10
2.523467
 20
-0.676161
 30
0.0
  0
SEQEND
  5
2D
100
AcDbEntity
  8
0
 62
     0
  0
ENDBLK
  5
2E
100
AcDbEntity
  8
0
100
AcDbBlockEnd
  0
BLOCK
  5
30
100
AcDbEntity
  8
PV
100
AcDbBlockBegin
  2
*D1
 70
    65
 10
0.0
 20
0.0
 30
0.0
  3
*D1
  1

  0
LINE
  5
31
100
AcDbEntity
  8
PV
 62
     7
100
AcDbLine
 10
-118.705173
 20
130.714172
 30
0.0
 11
-158.705173
 21
130.714172
 31
0.0
  0
LINE
  5
32
100
AcDbEntity
  8
PV
 62
     7
100
AcDbLine
 10
-118.705173
 20
161.309082
 30
0.0
 11
-118.705173
 21
128.714172
 31
0.0
  0
LINE
  5
33
100
AcDbEntity
  8
PV
 62
     7
100
AcDbLine
 10
-158.705173
 20
161.309082
 30
0.0
 11
-158.705173
 21
128.714172
 31
0.0
  0
INSERT
  5
34
100
AcDbEntity
  8
PV
  6
BYBLOCK
 62
     7
100
AcDbBlockReference
  2
ARROW
 10
-118.705173
 20
130.714172
 30
0.0
 50
180.0
  0
INSERT
  5
35
100
AcDbEntity
  8
PV
  6
BYBLOCK
 62
     7
100
AcDbBlockReference
  2
ARROW
 10
-158.705173
 20
130.714172
 30
0.0
  0
TEXT
  5
36
100
AcDbEntity
  8
PV
 62
     7
100
AcDbText
 10
-141.880174
 20
132.514172
 30
0.0
 40
3.2
  1
40
  7
MONOTXT
100
AcDbText
  0
POINT
  5
37
100
AcDbEntity
  8
PV
 62
     7
100
AcDbPoint
 10
-118.705173
 20
161.309082
 30
0.0
  0
POINT
  5
38
100
AcDbEntity
  8
PV
 62
     7
100
AcDbPoint
 10
-158.705173
 20
161.309082
 30
0.0
  0
POINT
  5
39
100
AcDbEntity
  8
PV
 62
     7
100
AcDbPoint
 10
-158.705173
 20
130.714172
 30
0.0
  0
ENDBLK
  5
3A
100
AcDbEntity
  8
PV
100
AcDbBlockEnd
  0
BLOCK
  5
3C
100
AcDbEntity
  8
PV
100
AcDbBlockBegin
  2
*D2
 70
    65
 10
0.0
 20
0.0
 30
0.0
  3
*D2
  1

  0
LINE
  5
3D
100
AcDbEntity
  8
PV
 62
     7
100
AcDbLine
 10
-99.705173
 20
119.91161
 30
0.0
 11
-177.705173
 21
119.91161
 31
0.0
  0
LINE
  5
3E
100
AcDbEntity
  8
PV
 62
     7
100
AcDbLine
 10
-99.705173
 20
139.307627
 30
0.0
 11
-99.705173
 21
117.91161
 31
0.0
  0
LINE
  5
3F
100
AcDbEntity
  8
PV
 62
     7
100
AcDbLine
 10
-177.705173
 20
139.307627
 30
0.0
 11
-177.705173
 21
117.91161
 31
0.0
  0
INSERT
  5
40
100
AcDbEntity
  8
PV
  6
BYBLOCK
 62
     7
100
AcDbBlockReference
  2
ARROW
 10
-99.705173
 20
119.91161
 30
0.0
 50
180.0
  0
INSERT
  5
41
100
AcDbEntity
  8
PV
  6
BYBLOCK
 62
     7
100
AcDbBlockReference
  2
ARROW
 10
-177.705173
 20
119.91161
 30
0.0
  0
TEXT
  5
42
100
AcDbEntity
  8
PV
 62
     7
100
AcDbText
 10
-141.880174
 20
121.71161
 30
0.0
 40
3.2
  1
78
  7
MONOTXT
100
AcDbText
  0
POINT
  5
43
100
AcDbEntity
  8
PV
 62
     7
100
AcDbPoint
 10
-99.705173
 20
139.307627
 30
0.0
  0
POINT
  5
44
100
AcDbEntity
  8
PV
 62
     7
100
AcDbPoint
 10
-177.705173
 20
139.307627
 30
0.0
  0
POINT
  5
45
100
AcDbEntity
  8
PV
 62
     7
100
AcDbPoint
 10
-177.705173
 20
119.91161
 30
0.0
  0
ENDBLK
  5
46
100
AcDbEntity
  8
PV
100
AcDbBlockEnd
  0
BLOCK
  5
48
100
AcDbEntity
  8
PV
100
AcDbBlockBegin
  2
*D3
 70
    65
 10
0.0
 20
0.0
 30
0.0
  3
*D3
  1

  0
LINE
  5
49
100
AcDbEntity
  8
PV
 62
     7
100
AcDbLine
 10
-93.705173
 20
107.335512
 30
0.0
 11
-183.705173
 21
107.335512
 31
0.0
  0
LINE
  5
4A
100
AcDbEntity
  8
PV
 62
     7
100
AcDbLine
 10
-93.705173
 20
143.30908
 30
0.0
 11
-93.705173
 21
105.335512
 31
0.0
  0
LINE
  5
4B
100
AcDbEntity
  8
PV
 62
     7
100
AcDbLine
 10
-183.705173
 20
143.30908
 30
0.0
 11
-183.705173
 21
105.335512
 31
0.0
  0
INSERT
  5
4C
100
AcDbEntity
  8
PV
  6
BYBLOCK
 62
     7
100
AcDbBlockReference
  2
ARROW
 10
-93.705173
 20
107.335512
 30
0.0
 50
180.0
  0
INSERT
  5
4D
100
AcDbEntity
  8
PV
  6
BYBLOCK
 62
     7
100
AcDbBlockReference
  2
ARROW
 10
-183.705173
 20
107.335512
 30
0.0
  0
TEXT
  5
4E
100
AcDbEntity
  8
PV
 62
     7
100
AcDbText
 10
-141.880174
 20
109.135512
 30
0.0
 40
3.2
  1
90
  7
MONOTXT
100
AcDbText
  0
POINT
  5
4F
100
AcDbEntity
  8
PV
 62
     7
100
AcDbPoint
 10
-93.705173
 20
143.30908
 30
0.0
  0
POINT
  5
50
100
AcDbEntity
  8
PV
 62
     7
100
AcDbPoint
 10
-183.705173
 20
143.30908
 30
0.0
  0
POINT
  5
51
100
AcDbEntity
  8
PV
 62
     7
100
AcDbPoint
 10
-183.705173
 20
107.335512
 30
0.0
  0
ENDBLK
  5
52
100
AcDbEntity
  8
PV
100
AcDbBlockEnd
  0
BLOCK
  5
54
100
AcDbEntity
  8
PV
100
AcDbBlockBegin
  2
*D4
 70
    65
 10
0.0
 20
0.0
 30
0.0
  3
*D4
  1

  0
LINE
  5
55
100
AcDbEntity
  8
PV
 62
     7
100
AcDbLine
 10
-83.546553
 20
148.309081
 30
0.0
 11
-83.546553
 21
143.309081
 31
0.0
  0
LINE
  5
56
100
AcDbEntity
  8
PV
 62
     7
100
AcDbLine
 10
-93.705173
 20
148.309081
 30
0.0
 11
-81.546553
 21
148.309081
 31
0.0
  0
LINE
  5
57
100
AcDbEntity
  8
PV
 62
     7
100
AcDbLine
 10
-93.705173
 20
143.309081
 30
0.0
 11
-81.546553
 21
143.309081
 31
0.0
  0
INSERT
  5
58
100
AcDbEntity
  8
PV
  6
BYBLOCK
 62
     7
100
AcDbBlockReference
  2
ARROW
 10
-83.546553
 20
148.309081
 30
0.0
 50
90.0
  0
INSERT
  5
59
100
AcDbEntity
  8
PV
  6
BYBLOCK
 62
     7
100
AcDbBlockReference
  2
ARROW
 10
-83.546553
 20
143.309081
 30
0.0
 50
270.0
  0
TEXT
  5
5A
100
AcDbEntity
  8
PV
 62
     7
100
AcDbText
 10
-85.346553
 20
144.234081
 30
0.0
 40
3.2
  1
5
 50
90.0
  7
MONOTXT
100
AcDbText
  0
POINT
  5
5B
100
AcDbEntity
  8
PV
 62
     7
100
AcDbPoint
 10
-93.705173
 20
148.309081
 30
0.0
  0
POINT
  5
5C
100
AcDbEntity
  8
PV
 62
     7
100
AcDbPoint
 10
-93.705173
 20
143.309081
 30
0.0
  0
POINT
  5
5D
100
AcDbEntity
  8
PV
 62
     7
100
AcDbPoint
 10
-83.546553
 20
143.309081
 30
0.0
  0
LINE
  5
5E
100
AcDbEntity
  8
PV
 62
     7
100
AcDbLine
 10
-83.546553
 20
148.309081
 30
0.0
 11
-83.546553
 21
148.809081
 31
0.0
  0
LINE
  5
5F
100
AcDbEntity
  8
PV
 62
     7
100
AcDbLine
 10
-83.546553
 20
143.309081
 30
0.0
 11
-83.546553
 21
142.809081
 31
0.0
  0
ENDBLK
  5
60
100
AcDbEntity
  8
PV
100
AcDbBlockEnd
  0
BLOCK
  5
62
100
AcDbEntity
  8
PV
100
AcDbBlockBegin
  2
*D5
 70
    65
 10
0.0
 20
0.0
 30
0.0
  3
*D5
  1

  0
LINE
  5
63
100
AcDbEntity
  8
PV
 62
     7
100
AcDbLine
 10
-83.546553
 20
181.309081
 30
0.0
 11
-83.546553
 21
161.309081
 31
0.0
  0
LINE
  5
64
100
AcDbEntity
  8
PV
 62
     7
100
AcDbLine
 10
-118.705172
 20
181.309081
 30
0.0
 11
-81.546553
 21
181.309081
 31
0.0
  0
LINE
  5
65
100
AcDbEntity
  8
PV
 62
     7
100
AcDbLine
 10
-118.705172
 20
161.309081
 30
0.0
 11
-81.546553
 21
161.309081
 31
0.0
  0
INSERT
  5
66
100
AcDbEntity
  8
PV
  6
BYBLOCK
 62
     7
100
AcDbBlockReference
  2
ARROW
 10
-83.546553
 20
181.309081
 30
0.0
 50
270.0
  0
INSERT
  5
67
100
AcDbEntity
  8
PV
  6
BYBLOCK
 62
     7
100
AcDbBlockReference
  2
ARROW
 10
-83.546553
 20
161.309081
 30
0.0
 50
90.0
  0
TEXT
  5
68
100
AcDbEntity
  8
PV
 62
     7
100
AcDbText
 10
-85.346553
 20
168.134081
 30
0.0
 40
3.2
  1
20
 50
90.0
  7
MONOTXT
100
AcDbText
  0
POINT
  5
69
100
AcDbEntity
  8
PV
 62
     7
100
AcDbPoint
 10
-118.705172
 20
181.309081
 30
0.0
  0
POINT
  5
6A
100
AcDbEntity
  8
PV
 62
     7
100
AcDbPoint
 10
-118.705172
 20
161.309081
 30
0.0
  0
POINT
  5
6B
100
AcDbEntity
  8
PV
 62
     7
100
AcDbPoint
 10
-83.546553
 20
161.309081
 30
0.0
  0
ENDBLK
  5
6C
100
AcDbEntity
  8
PV
100
AcDbBlockEnd
  0
BLOCK
  5
6E
100
AcDbEntity
  8
PV
100
AcDbBlockBegin
  2
*D6
 70
    65
 10
0.0
 20
0.0
 30
0.0
  3
*D6
  1

  0
LINE
  5
6F
100
AcDbEntity
  8
PV
 62
     7
100
AcDbLine
 10
-71.442058
 20
171.309081
 30
0.0
 11
-71.442058
 21
143.30908
 31
0.0
  0
LINE
  5
70
100
AcDbEntity
  8
PV
 62
     7
100
AcDbLine
 10
-93.086881
 20
171.309081
 30
0.0
 11
-69.442058
 21
171.309081
 31
0.0
  0
LINE
  5
71
100
AcDbEntity
  8
PV
 62
     7
100
AcDbLine
 10
-93.705173
 20
143.30908
 30
0.0
 11
-69.442058
 21
143.30908
 31
0.0
  0
INSERT
  5
72
100
AcDbEntity
  8
PV
  6
BYBLOCK
 62
     7
100
AcDbBlockReference
  2
ARROW
 10
-71.442058
 20
171.309081
 30
0.0
 50
270.0
  0
INSERT
  5
73
100
AcDbEntity
  8
PV
  6
BYBLOCK
 62
     7
100
AcDbBlockReference
  2
ARROW
 10
-71.442058
 20
143.30908
 30
0.0
 50
90.0
  0
TEXT
  5
74
100
AcDbEntity
  8
PV
 62
     7
100
AcDbText
 10
-73.242058
 20
154.13408
 30
0.0
 40
3.2
  1
28
 50
90.0
  7
MONOTXT
100
AcDbText
  0
POINT
  5
75
100
AcDbEntity
  8
PV
 62
     7
100
AcDbPoint
 10
-93.086881
 20
171.309081
 30
0.0
  0
POINT
  5
76
100
AcDbEntity
  8
PV
 62
     7
100
AcDbPoint
 10
-93.705173
 20
143.30908
 30
0.0
  0
POINT
  5
77
100
AcDbEntity
  8
PV
 62
     7
100
AcDbPoint
 10
-71.442058
 20
143.30908
 30
0.0
  0
ENDBLK
  5
78
100
AcDbEntity
  8
PV
100
AcDbBlockEnd
  0
BLOCK
  5
7A
100
AcDbEntity
  8
PV
100
AcDbBlockBegin
  2
*D7
 70
    65
 10
0.0
 20
0.0
 30
0.0
  3
*D7
  1

  0
LINE
  5
7B
100
AcDbEntity
  8
PV
 62
     7
100
AcDbLine
 10
-60.280771
 20
207.309081
 30
0.0
 11
-60.280771
 21
143.30908
 31
0.0
  0
LINE
  5
7C
100
AcDbEntity
  8
PV
 62
     7
100
AcDbLine
 10
-104.705171
 20
207.309081
 30
0.0
 11
-58.280771
 21
207.309081
 31
0.0
  0
LINE
  5
7D
100
AcDbEntity
  8
PV
 62
     7
100
AcDbLine
 10
-93.705171
 20
143.30908
 30
0.0
 11
-58.280771
 21
143.30908
 31
0.0
  0
INSERT
  5
7E
100
AcDbEntity
  8
PV
  6
BYBLOCK
 62
     7
100
AcDbBlockReference
  2
ARROW
 10
-60.280771
 20
207.309081
 30
0.0
 50
270.0
  0
INSERT
  5
7F
100
AcDbEntity
  8
PV
  6
BYBLOCK
 62
     7
100
AcDbBlockReference
  2
ARROW
 10
-60.280771
 20
143.30908
 30
0.0
 50
90.0
  0
TEXT
  5
80
100
AcDbEntity
  8
PV
 62
     7
100
AcDbText
 10
-62.080771
 20
172.13408
 30
0.0
 40
3.2
  1
64
 50
90.0
  7
MONOTXT
100
AcDbText
  0
POINT
  5
81
100
AcDbEntity
  8
PV
 62
     7
100
AcDbPoint
 10
-104.705171
 20
207.309081
 30
0.0
  0
POINT
  5
82
100
AcDbEntity
  8
PV
 62
     7
100
AcDbPoint
 10
-93.705171
 20
143.30908
 30
0.0
  0
POINT
  5
83
100
AcDbEntity
  8
PV
 62
     7
100
AcDbPoint
 10
-60.280771
 20
143.30908
 30
0.0
  0
ENDBLK
  5
84
100
AcDbEntity
  8
PV
100
AcDbBlockEnd
  0
BLOCK
  5
86
100
AcDbEntity
  8
PV
100
AcDbBlockBegin
  2
*D8
 70
    65
 10
0.0
 20
0.0
 30
0.0
  3
*D8
  1

  0
LINE
  5
87
100
AcDbEntity
  8
PV
 62
     7
100
AcDbLine
 10
-21.705173
 20
130.714172
 30
0.0
 11
-45.705173
 21
130.714172
 31
0.0
  0
LINE
  5
88
100
AcDbEntity
  8
PV
 62
     7
100
AcDbLine
 10
-21.705173
 20
143.309081
 30
0.0
 11
-21.705173
 21
128.714172
 31
0.0
  0
LINE
  5
89
100
AcDbEntity
  8
PV
 62
     7
100
AcDbLine
 10
-45.705173
 20
144.309081
 30
0.0
 11
-45.705173
 21
128.714172
 31
0.0
  0
INSERT
  5
8A
100
AcDbEntity
  8
PV
  6
BYBLOCK
 62
     7
100
AcDbBlockReference
  2
ARROW
 10
-21.705173
 20
130.714172
 30
0.0
 50
180.0
  0
INSERT
  5
8B
100
AcDbEntity
  8
PV
  6
BYBLOCK
 62
     7
100
AcDbBlockReference
  2
ARROW
 10
-45.705173
 20
130.714172
 30
0.0
  0
TEXT
  5
8C
100
AcDbEntity
  8
PV
 62
     7
100
AcDbText
 10
-36.880173
 20
132.514172
 30
0.0
 40
3.2
  1
24
  7
MONOTXT
100
AcDbText
  0
POINT
  5
8D
100
AcDbEntity
  8
PV
 62
     7
100
AcDbPoint
 10
-21.705173
 20
143.309081
 30
0.0
  0
POINT
  5
8E
100
AcDbEntity
  8
PV
 62
     7
100
AcDbPoint
 10
-45.705173
 20
144.309081
 30
0.0
  0
POINT
  5
8F
100
AcDbEntity
  8
PV
 62
     7
100
AcDbPoint
 10
-45.705173
 20
130.714172
 30
0.0
  0
ENDBLK
  5
90
100
AcDbEntity
  8
PV
100
AcDbBlockEnd
  0
ENDSEC
  0
SECTION
  2
ENTITIES
  0
LINE
  5
91
100
AcDbEntity
  8
PV
100
AcDbLine
 10
-104.705173
 20
207.309081
 30
0.0
 11
-104.705173
 21
157.809081
 31
0.0
  0
LINE
  5
92
100
AcDbEntity
  8
PV
100
AcDbLine
 10
-101.205173
 20
143.309081
 30
0.0
 11
-93.705173
 21
143.309081
 31
0.0
  0
LINE
  5
93
100
AcDbEntity
  8
PV
100
AcDbLine
 10
-93.705173
 20
143.309081
 30
0.0
 11
-104.705173
 21
143.309081
 31
0.0
  0
LINE
  5
94
100
AcDbEntity
  8
PV
100
AcDbLine
 10
-104.705173
 20
153.809081
 30
0.0
 11
-104.705173
 21
152.309081
 31
0.0
  0
LINE
  5
95
100
AcDbEntity
  8
PV
100
AcDbLine
 10
-102.205173
 20
148.309081
 30
0.0
 11
-100.705173
 21
148.309081
 31
0.0
  0
LINE
  5
96
100
AcDbEntity
  8
PV
100
AcDbLine
 10
-104.705173
 20
151.309081
 30
0.0
 11
-104.705173
 21
149.809081
 31
0.0
  0
LINE
  5
97
100
AcDbEntity
  8
PV
100
AcDbLine
 10
-104.705173
 20
150.309081
 30
0.0
 11
-104.705173
 21
149.809081
 31
0.0
  0
LINE
  5
98
100
AcDbEntity
  8
PV
100
AcDbLine
 10
-96.705173
 20
148.309081
 30
0.0
 11
-94.705173
 21
148.309081
 31
0.0
  0
LINE
  5
99
100
AcDbEntity
  8
PV
100
AcDbLine
 10
-99.705173
 20
148.309081
 30
0.0
 11
-97.705173
 21
148.309081
 31
0.0
  0
LINE
  5
9A
100
AcDbEntity
  8
PV
100
AcDbLine
 10
-93.705173
 20
143.309081
 30
0.0
 11
-93.705173
 21
148.309081
 31
0.0
  0
LINE
  5
9B
100
AcDbEntity
  8
PV
100
AcDbLine
 10
-93.705173
 20
148.309081
 30
0.0
 11
-104.705173
 21
158.086859
 31
0.0
  0
LINE
  5
9C
100
AcDbEntity
  8
PV
100
AcDbLine
 10
-104.705173
 20
154.309081
 30
0.0
 11
-104.705173
 21
153.864637
 31
0.0
  0
CIRCLE
  5
9D
100
AcDbEntity
  8
PV
100
AcDbCircle
 10
-114.340638
 20
233.386505
 30
0.0
 40
0.7
  0
CIRCLE
  5
9E
100
AcDbEntity
  8
PV
100
AcDbCircle
 10
-111.040638
 20
233.386505
 30
0.0
 40
0.7
  0
CIRCLE
  5
9F
100
AcDbEntity
  8
PV
100
AcDbCircle
 10
-121.040638
 20
233.386505
 30
0.0
 40
0.7
  0
CIRCLE
  5
A0
100
AcDbEntity
  8
PV
100
AcDbCircle
 10
-117.840638
 20
233.386505
 30
0.0
 40
0.7
  0
LINE
  5
A1
100
AcDbEntity
  8
PV
100
AcDbLine
 10
-138.705173
 20
144.309081
 30
0.0
 11
-105.705173
 21
144.309081
 31
0.0
  0
LINE
  5
A2
100
AcDbEntity
  8
PV
100
AcDbLine
 10
-105.705173
 20
144.309081
 30
0.0
 11
-104.705173
 21
143.309081
 31
0.0
  0
TEXT
  5
A3
100
AcDbEntity
  8
0
100
AcDbText
 10
-112.240638
 20
209.386505
 30
0.0
 40
3.0
  1
1
 41
0.96
  7
MONOTXT
100
AcDbText
  0
TEXT
  5
A4
100
AcDbEntity
  8
0
100
AcDbText
 10
-122.240638
 20
209.386505
 30
0.0
 40
3.0
  1
4
 41
0.96
  7
MONOTXT
100
AcDbText
  0
LINE
  5
A5
100
AcDbEntity
  8
PV
100
AcDbLine
 10
-183.705173
 20
238.309081
 30
0.0
 11
-183.705173
 21
259.309081
 31
0.0
  0
LINE
  5
A6
100
AcDbEntity
  8
PV
100
AcDbLine
 10
-104.705173
 20
235.309081
 30
0.0
 11
-172.705173
 21
235.309081
 31
0.0
  0
LINE
  5
A7
100
AcDbEntity
  8
PV
100
AcDbLine
 10
-172.705173
 20
235.309081
 30
0.0
 11
-172.705173
 21
259.309081
 31
0.0
  0
LINE
  5
A8
100
AcDbEntity
  8
PV
100
AcDbLine
 10
-104.705173
 20
235.309081
 30
0.0
 11
-104.705173
 21
259.309081
 31
0.0
  0
LINE
  5
A9
100
AcDbEntity
  8
PV
100
AcDbLine
 10
-158.705173
 20
236.309081
 30
0.0
 11
-158.705173
 21
238.309081
 31
0.0
  0
LINE
  5
AA
100
AcDbEntity
  8
PV
100
AcDbLine
 10
-158.705173
 20
240.309081
 30
0.0
 11
-158.705173
 21
242.309081
 31
0.0
  0
LINE
  5
AB
100
AcDbEntity
  8
PV
100
AcDbLine
 10
-158.705173
 20
244.309081
 30
0.0
 11
-158.705173
 21
246.309081
 31
0.0
  0
LINE
  5
AC
100
AcDbEntity
  8
PV
100
AcDbLine
 10
-158.705173
 20
248.309081
 30
0.0
 11
-158.705173
 21
250.309081
 31
0.0
  0
LINE
  5
AD
100
AcDbEntity
  8
PV
100
AcDbLine
 10
-158.705173
 20
252.309081
 30
0.0
 11
-158.705173
 21
254.309081
 31
0.0
  0
LINE
  5
AE
100
AcDbEntity
  8
PV
100
AcDbLine
 10
-138.705173
 20
252.309081
 30
0.0
 11
-140.705173
 21
249.309081
 31
0.0
  0
LINE
  5
AF
100
AcDbEntity
  8
PV
100
AcDbLine
 10
-140.705173
 20
249.309081
 30
0.0
 11
-139.705173
 21
249.309081
 31
0.0
  0
LINE
  5
B0
100
AcDbEntity
  8
PV
100
AcDbLine
 10
-139.705173
 20
249.309081
 30
0.0
 11
-139.705173
 21
242.309081
 31
0.0
  0
LINE
  5
B1
100
AcDbEntity
  8
PV
100
AcDbLine
 10
-139.705173
 20
242.309081
 30
0.0
 11
-137.705173
 21
242.309081
 31
0.0
  0
LINE
  5
B2
100
AcDbEntity
  8
PV
100
AcDbLine
 10
-137.705173
 20
242.309081
 30
0.0
 11
-137.705173
 21
249.309081
 31
0.0
  0
LINE
  5
B3
100
AcDbEntity
  8
PV
100
AcDbLine
 10
-137.705173
 20
249.309081
 30
0.0
 11
-136.705173
 21
249.309081
 31
0.0
  0
LINE
  5
B4
100
AcDbEntity
  8
PV
100
AcDbLine
 10
-136.705173
 20
249.309081
 30
0.0
 11
-138.705173
 21
252.309081
 31
0.0
  0
LINE
  5
B5
100
AcDbEntity
  8
PV
100
AcDbLine
 10
-45.705173
 20
144.309081
 30
0.0
 11
-45.705173
 21
207.309081
 31
0.0
  0
LINE
  5
B6
100
AcDbEntity
  8
PV
100
AcDbLine
 10
-45.705173
 20
207.309081
 30
0.0
 11
-21.705173
 21
207.309081
 31
0.0
  0
LINE
  5
B7
100
AcDbEntity
  8
PV
100
AcDbLine
 10
-21.705173
 20
207.309081
 30
0.0
 11
-21.705173
 21
143.309081
 31
0.0
  0
LINE
  5
B8
100
AcDbEntity
  8
PV
100
AcDbLine
 10
-21.705173
 20
143.309081
 30
0.0
 11
-42.705173
 21
143.309081
 31
0.0
  0
LINE
  5
B9
100
AcDbEntity
  8
PV
100
AcDbLine
 10
-138.705173
 20
207.309081
 30
0.0
 11
-122.705173
 21
207.309081
 31
0.0
  0
LINE
  5
BA
100
AcDbEntity
  8
PV
100
AcDbLine
 10
-44.705173
 20
181.309081
 30
0.0
 11
-42.705173
 21
181.309081
 31
0.0
  0
LINE
  5
BB
100
AcDbEntity
  8
PV
100
AcDbLine
 10
-40.705173
 20
181.309081
 30
0.0
 11
-38.705173
 21
181.309081
 31
0.0
  0
LINE
  5
BC
100
AcDbEntity
  8
PV
100
AcDbLine
 10
-36.705173
 20
181.309081
 30
0.0
 11
-34.705173
 21
181.309081
 31
0.0
  0
LINE
  5
BD
100
AcDbEntity
  8
PV
100
AcDbLine
 10
-32.705173
 20
181.309081
 30
0.0
 11
-30.705173
 21
181.309081
 31
0.0
  0
LINE
  5
BE
100
AcDbEntity
  8
PV
100
AcDbLine
 10
-28.705173
 20
181.309081
 30
0.0
 11
-26.705173
 21
181.309081
 31
0.0
  0
LINE
  5
BF
100
AcDbEntity
  8
PV
100
AcDbLine
 10
-28.705173
 20
161.309081
 30
0.0
 11
-26.705173
 21
161.309081
 31
0.0
  0
LINE
  5
C0
100
AcDbEntity
  8
PV
100
AcDbLine
 10
-32.705173
 20
161.309081
 30
0.0
 11
-30.705173
 21
161.309081
 31
0.0
  0
LINE
  5
C1
100
AcDbEntity
  8
PV
100
AcDbLine
 10
-36.705173
 20
161.309081
 30
0.0
 11
-34.705173
 21
161.309081
 31
0.0
  0
LINE
  5
C2
100
AcDbEntity
  8
PV
100
AcDbLine
 10
-40.705173
 20
161.309081
 30
0.0
 11
-38.705173
 21
161.309081
 31
0.0
  0
LINE
  5
C3
100
AcDbEntity
  8
PV
100
AcDbLine
 10
-44.705173
 20
161.309081
 30
0.0
 11
-42.705173
 21
161.309081
 31
0.0
  0
LINE
  5
C4
100
AcDbEntity
  8
PV
100
AcDbLine
 10
-24.705173
 20
161.309081
 30
0.0
 11
-22.705173
 21
161.309081
 31
0.0
  0
LINE
  5
C5
100
AcDbEntity
  8
PV
100
AcDbLine
 10
-24.705173
 20
181.309081
 30
0.0
 11
-22.705173
 21
181.309081
 31
0.0
  0
LINE
  5
C6
100
AcDbEntity
  8
PV
100
AcDbLine
 10
-42.705173
 20
148.309081
 30
0.0
 11
-21.705173
 21
148.309081
 31
0.0
  0
LINE
  5
C7
100
AcDbEntity
  8
PV
100
AcDbLine
 10
-42.705173
 20
143.309081
 30
0.0
 11
-42.705173
 21
207.309081
 31
0.0
  0
LINE
  5
C8
100
AcDbEntity
  8
PV
100
AcDbLine
 10
-45.705173
 20
144.309081
 30
0.0
 11
-42.705173
 21
144.309081
 31
0.0
  0
LINE
  5
C9
100
AcDbEntity
  8
PV
100
AcDbLine
 10
-23.705173
 20
148.309081
 30
0.0
 11
-23.705173
 21
157.809081
 31
0.0
  0
LINE
  5
CA
100
AcDbEntity
  8
PV
100
AcDbLine
 10
-23.705173
 20
157.809081
 30
0.0
 11
-21.705173
 21
157.809081
 31
0.0
  0
LINE
  5
CB
100
AcDbEntity
  8
PV
100
AcDbLine
 10
-42.705173
 20
157.809081
 30
0.0
 11
-40.705173
 21
157.809081
 31
0.0
  0
LINE
  5
CC
100
AcDbEntity
  8
PV
100
AcDbLine
 10
-40.705173
 20
157.809081
 30
0.0
 11
-40.705173
 21
148.309081
 31
0.0
  0
LINE
  5
CD
100
AcDbEntity
  8
PV
100
AcDbLine
 10
-45.705173
 20
200.809081
 30
0.0
 11
-48.705173
 21
200.809081
 31
0.0
  0
LINE
  5
CE
100
AcDbEntity
  8
PV
100
AcDbLine
 10
-48.705173
 20
200.809081
 30
0.0
 11
-48.705173
 21
202.809081
 31
0.0
  0
LINE
  5
CF
100
AcDbEntity
  8
PV
100
AcDbLine
 10
-48.705173
 20
202.809081
 30
0.0
 11
-45.705173
 21
202.809081
 31
0.0
  0
LINE
  5
D0
100
AcDbEntity
  8
PV
100
AcDbLine
 10
-48.205173
 20
202.809081
 30
0.0
 11
-48.205173
 21
207.309081
 31
0.0
  0
LINE
  5
D1
100
AcDbEntity
  8
PV
100
AcDbLine
 10
-48.205173
 20
207.309081
 30
0.0
 11
-47.705173
 21
207.309081
 31
0.0
  0
LINE
  5
D2
100
AcDbEntity
  8
PV
100
AcDbLine
 10
-47.705173
 20
207.309081
 30
0.0
 11
-47.705173
 21
202.809081
 31
0.0
  0
LINE
  5
D3
100
AcDbEntity
  8
PV
100
AcDbLine
 10
-47.205173
 20
202.809081
 30
0.0
 11
-46.705173
 21
202.809081
 31
0.0
  0
LINE
  5
D4
100
AcDbEntity
  8
PV
100
AcDbLine
 10
-46.205173
 20
202.809081
 30
0.0
 11
-46.205173
 21
207.809081
 31
0.0
  0
LINE
  5
D5
100
AcDbEntity
  8
PV
100
AcDbLine
 10
-46.205173
 20
207.809081
 30
0.0
 11
-46.705173
 21
207.809081
 31
0.0
  0
LINE
  5
D6
100
AcDbEntity
  8
PV
100
AcDbLine
 10
-46.705173
 20
207.809081
 30
0.0
 11
-46.705173
 21
202.809081
 31
0.0
  0
LINE
  5
D7
100
AcDbEntity
  8
PV
100
AcDbLine
 10
-104.205173
 20
148.309081
 30
0.0
 11
-102.705173
 21
148.309081
 31
0.0
  0
LINE
  5
D8
100
AcDbEntity
  8
PV
100
AcDbLine
 10
-104.705173
 20
157.309081
 30
0.0
 11
-104.705173
 21
155.309081
 31
0.0
  0
LINE
  5
D9
100
AcDbEntity
  8
PV
100
AcDbLine
 10
-104.705173
 20
149.309081
 30
0.0
 11
-104.705173
 21
148.309081
 31
0.0
  0
LINE
  5
DA
100
AcDbEntity
  8
PV
100
AcDbLine
 10
-138.705173
 20
181.309081
 30
0.0
 11
-118.705173
 21
181.309081
 31
0.0
  0
LINE
  5
DB
100
AcDbEntity
  8
PV
100
AcDbLine
 10
-118.705173
 20
181.309081
 30
0.0
 11
-118.705173
 21
161.309081
 31
0.0
  0
LINE
  5
DC
100
AcDbEntity
  8
PV
100
AcDbLine
 10
-118.705173
 20
161.309081
 30
0.0
 11
-138.705173
 21
161.309081
 31
0.0
  0
LINE
  5
DD
100
AcDbEntity
  8
PV
100
AcDbLine
 10
-158.705173
 20
181.309081
 30
0.0
 11
-158.705173
 21
161.309081
 31
0.0
  0
LINE
  5
DE
100
AcDbEntity
  8
PV
100
AcDbLine
 10
-172.705173
 20
149.309081
 30
0.0
 11
-172.705173
 21
148.309081
 31
0.0
  0
LINE
  5
DF
100
AcDbEntity
  8
PV
100
AcDbLine
 10
-172.705173
 20
157.309081
 30
0.0
 11
-172.705173
 21
155.309081
 31
0.0
  0
LINE
  5
E0
100
AcDbEntity
  8
PV
100
AcDbLine
 10
-173.205173
 20
148.309081
 30
0.0
 11
-174.705173
 21
148.309081
 31
0.0
  0
LINE
  5
E1
100
AcDbEntity
  8
PV
100
AcDbLine
 10
-171.705173
 20
144.309081
 30
0.0
 11
-172.705173
 21
143.309081
 31
0.0
  0
LINE
  5
E2
100
AcDbEntity
  8
PV
100
AcDbLine
 10
-172.705173
 20
154.309081
 30
0.0
 11
-172.705173
 21
153.864637
 31
0.0
  0
LINE
  5
E3
100
AcDbEntity
  8
PV
100
AcDbLine
 10
-183.705173
 20
148.309081
 30
0.0
 11
-172.705173
 21
158.086859
 31
0.0
  0
LINE
  5
E4
100
AcDbEntity
  8
PV
100
AcDbLine
 10
-183.705173
 20
143.309081
 30
0.0
 11
-183.705173
 21
148.309081
 31
0.0
  0
LINE
  5
E5
100
AcDbEntity
  8
PV
100
AcDbLine
 10
-177.705173
 20
148.309081
 30
0.0
 11
-179.705173
 21
148.309081
 31
0.0
  0
LINE
  5
E6
100
AcDbEntity
  8
PV
100
AcDbLine
 10
-180.705173
 20
148.309081
 30
0.0
 11
-182.705173
 21
148.309081
 31
0.0
  0
LINE
  5
E7
100
AcDbEntity
  8
PV
100
AcDbLine
 10
-172.705173
 20
150.309081
 30
0.0
 11
-172.705173
 21
149.809081
 31
0.0
  0
LINE
  5
E8
100
AcDbEntity
  8
PV
100
AcDbLine
 10
-172.705173
 20
151.309081
 30
0.0
 11
-172.705173
 21
149.809081
 31
0.0
  0
LINE
  5
E9
100
AcDbEntity
  8
PV
100
AcDbLine
 10
-175.205173
 20
148.309081
 30
0.0
 11
-176.705173
 21
148.309081
 31
0.0
  0
LINE
  5
EA
100
AcDbEntity
  8
PV
100
AcDbLine
 10
-172.705173
 20
153.809081
 30
0.0
 11
-172.705173
 21
152.309081
 31
0.0
  0
LINE
  5
EB
100
AcDbEntity
  8
PV
100
AcDbLine
 10
-183.705173
 20
143.309081
 30
0.0
 11
-172.705173
 21
143.309081
 31
0.0
  0
LINE
  5
EC
100
AcDbEntity
  8
PV
100
AcDbLine
 10
-176.205173
 20
143.309081
 30
0.0
 11
-183.705173
 21
143.309081
 31
0.0
  0
LINE
  5
ED
100
AcDbEntity
  8
PV
100
AcDbLine
 10
-172.705173
 20
207.309081
 30
0.0
 11
-172.705173
 21
157.809081
 31
0.0
  0
LINE
  5
EE
100
AcDbEntity
  8
PV
100
AcDbLine
 10
-138.705173
 20
144.309081
 30
0.0
 11
-171.705173
 21
144.309081
 31
0.0
  0
LINE
  5
EF
100
AcDbEntity
  8
PV
100
AcDbLine
 10
-158.705173
 20
161.309081
 30
0.0
 11
-138.705173
 21
161.309081
 31
0.0
  0
LINE
  5
F0
100
AcDbEntity
  8
PV
100
AcDbLine
 10
-138.705173
 20
181.309081
 30
0.0
 11
-158.705173
 21
181.309081
 31
0.0
  0
LINE
  5
F1
100
AcDbEntity
  8
PV
100
AcDbLine
 10
-138.705173
 20
207.309081
 30
0.0
 11
-172.705173
 21
207.309081
 31
0.0
  0
LINE
  5
F2
100
AcDbEntity
  8
PV
100
AcDbLine
 10
-123.205173
 20
202.809081
 30
0.0
 11
-123.205173
 21
200.809081
 31
0.0
  0
LINE
  5
F3
100
AcDbEntity
  8
PV
100
AcDbLine
 10
-123.205173
 20
200.809081
 30
0.0
 11
-109.205173
 21
200.809081
 31
0.0
  0
LINE
  5
F4
100
AcDbEntity
  8
PV
100
AcDbLine
 10
-109.205173
 20
200.809081
 30
0.0
 11
-109.205173
 21
202.809081
 31
0.0
  0
LINE
  5
F5
100
AcDbEntity
  8
PV
100
AcDbLine
 10
-109.205173
 20
202.809081
 30
0.0
 11
-123.205173
 21
202.809081
 31
0.0
  0
LINE
  5
F6
100
AcDbEntity
  8
PV
100
AcDbLine
 10
-122.705173
 20
202.809081
 30
0.0
 11
-122.705173
 21
208.309081
 31
0.0
  0
LINE
  5
F7
100
AcDbEntity
  8
PV
100
AcDbLine
 10
-122.705173
 20
208.309081
 30
0.0
 11
-109.705173
 21
208.309081
 31
0.0
  0
LINE
  5
F8
100
AcDbEntity
  8
PV
100
AcDbLine
 10
-109.705173
 20
208.309081
 30
0.0
 11
-109.705173
 21
202.809081
 31
0.0
  0
LINE
  5
F9
100
AcDbEntity
  8
PV
100
AcDbLine
 10
-109.705173
 20
207.309081
 30
0.0
 11
-104.705173
 21
207.309081
 31
0.0
  0
LINE
  5
FA
100
AcDbEntity
  8
PV
100
AcDbLine
 10
-121.705173
 20
202.809081
 30
0.0
 11
-121.705173
 21
207.309081
 31
0.0
  0
LINE
  5
FB
100
AcDbEntity
  8
PV
100
AcDbLine
 10
-121.705173
 20
207.309081
 30
0.0
 11
-120.205173
 21
207.309081
 31
0.0
  0
LINE
  5
FC
100
AcDbEntity
  8
PV
100
AcDbLine
 10
-120.205173
 20
207.309081
 30
0.0
 11
-120.205173
 21
202.809081
 31
0.0
  0
LINE
  5
FD
100
AcDbEntity
  8
PV
100
AcDbLine
 10
-118.505173
 20
202.809081
 30
0.0
 11
-118.505173
 21
207.309081
 31
0.0
  0
LINE
  5
FE
100
AcDbEntity
  8
PV
100
AcDbLine
 10
-118.505173
 20
207.309081
 30
0.0
 11
-117.005173
 21
207.309081
 31
0.0
  0
LINE
  5
FF
100
AcDbEntity
  8
PV
100
AcDbLine
 10
-117.005173
 20
207.309081
 30
0.0
 11
-117.005173
 21
202.809081
 31
0.0
  0
LINE
  5
100
100
AcDbEntity
  8
PV
100
AcDbLine
 10
-115.005173
 20
202.809081
 30
0.0
 11
-115.005173
 21
207.309081
 31
0.0
  0
LINE
  5
101
100
AcDbEntity
  8
PV
100
AcDbLine
 10
-115.005173
 20
207.309081
 30
0.0
 11
-113.505173
 21
207.309081
 31
0.0
  0
LINE
  5
102
100
AcDbEntity
  8
PV
100
AcDbLine
 10
-113.505173
 20
207.309081
 30
0.0
 11
-113.505173
 21
202.809081
 31
0.0
  0
LINE
  5
103
100
AcDbEntity
  8
PV
100
AcDbLine
 10
-111.705173
 20
202.809081
 30
0.0
 11
-111.705173
 21
207.309081
 31
0.0
  0
LINE
  5
104
100
AcDbEntity
  8
PV
100
AcDbLine
 10
-111.705173
 20
207.309081
 30
0.0
 11
-110.205173
 21
207.309081
 31
0.0
  0
LINE
  5
105
100
AcDbEntity
  8
PV
100
AcDbLine
 10
-110.205173
 20
207.309081
 30
0.0
 11
-110.205173
 21
202.809081
 31
0.0
  0
LINE
  5
106
100
AcDbEntity
  8
PV
100
AcDbLine
 10
-93.705173
 20
259.309081
 30
0.0
 11
-183.705173
 21
259.309081
 31
0.0
  0
LINE
  5
107
100
AcDbEntity
  8
PV
100
AcDbLine
 10
-104.705173
 20
238.309081
 30
0.0
 11
-93.705173
 21
238.309081
 31
0.0
  0
LINE
  5
108
100
AcDbEntity
  8
PV
100
AcDbLine
 10
-183.705173
 20
238.309081
 30
0.0
 11
-172.705173
 21
238.309081
 31
0.0
  0
LINE
  5
109
100
AcDbEntity
  8
PV
100
AcDbLine
 10
-123.205173
 20
235.309081
 30
0.0
 11
-123.205173
 21
232.309081
 31
0.0
  0
LINE
  5
10A
100
AcDbEntity
  8
PV
100
AcDbLine
 10
-109.205173
 20
232.309081
 30
0.0
 11
-109.205173
 21
235.309081
 31
0.0
  0
LINE
  5
10B
100
AcDbEntity
  8
PV
100
AcDbLine
 10
-123.205173
 20
232.309081
 30
0.0
 11
-109.205173
 21
232.309081
 31
0.0
  0
LINE
  5
10C
100
AcDbEntity
  8
PV
100
AcDbLine
 10
-122.705173
 20
234.809081
 30
0.0
 11
-109.705173
 21
234.809081
 31
0.0
  0
LINE
  5
10D
100
AcDbEntity
  8
PV
100
AcDbLine
 10
-109.705173
 20
234.809081
 30
0.0
 11
-109.705173
 21
234.309081
 31
0.0
  0
LINE
  5
10E
100
AcDbEntity
  8
PV
100
AcDbLine
 10
-109.705173
 20
234.309081
 30
0.0
 11
-122.705173
 21
234.309081
 31
0.0
  0
LINE
  5
10F
100
AcDbEntity
  8
PV
100
AcDbLine
 10
-122.705173
 20
234.309081
 30
0.0
 11
-122.705173
 21
234.809081
 31
0.0
  0
LINE
  5
110
100
AcDbEntity
  8
PV
100
AcDbLine
 10
-158.705173
 20
256.309081
 30
0.0
 11
-158.705173
 21
258.309081
 31
0.0
  0
LINE
  5
111
100
AcDbEntity
  8
PV
100
AcDbLine
 10
-118.705173
 20
256.309081
 30
0.0
 11
-118.705173
 21
258.309081
 31
0.0
  0
LINE
  5
112
100
AcDbEntity
  8
PV
100
AcDbLine
 10
-118.705173
 20
252.309081
 30
0.0
 11
-118.705173
 21
254.309081
 31
0.0
  0
LINE
  5
113
100
AcDbEntity
  8
PV
100
AcDbLine
 10
-118.705173
 20
248.309081
 30
0.0
 11
-118.705173
 21
250.309081
 31
0.0
  0
LINE
  5
114
100
AcDbEntity
  8
PV
100
AcDbLine
 10
-118.705173
 20
244.309081
 30
0.0
 11
-118.705173
 21
246.309081
 31
0.0
  0
LINE
  5
115
100
AcDbEntity
  8
PV
100
AcDbLine
 10
-118.705173
 20
240.309081
 30
0.0
 11
-118.705173
 21
242.309081
 31
0.0
  0
LINE
  5
116
100
AcDbEntity
  8
PV
100
AcDbLine
 10
-118.705173
 20
236.309081
 30
0.0
 11
-118.705173
 21
238.309081
 31
0.0
  0
LINE
  5
117
100
AcDbEntity
  8
PV
100
AcDbLine
 10
-93.705173
 20
238.309081
 30
0.0
 11
-93.705173
 21
259.309081
 31
0.0
  0
LINE
  5
118
100
AcDbEntity
  8
PV
100
AcDbLine
 10
-172.705173
 20
237.309081
 30
0.0
 11
-104.705173
 21
237.309081
 31
0.0
  0
ARC
  5
119
100
AcDbEntity
  8
PV
100
AcDbCircle
 10
-98.505173
 20
248.809081
 30
0.0
 40
2.3
100
AcDbArc
 50
270.0
 51
90.0
  0
ARC
  5
11A
100
AcDbEntity
  8
PV
100
AcDbCircle
 10
-100.905173
 20
248.809081
 30
0.0
 40
2.3
100
AcDbArc
 50
90.0
 51
270.0
  0
LINE
  5
11B
100
AcDbEntity
  8
PV
100
AcDbLine
 10
-100.905173
 20
246.509081
 30
0.0
 11
-98.405173
 21
246.509081
 31
0.0
  0
LINE
  5
11C
100
AcDbEntity
  8
PV
100
AcDbLine
 10
-101.005173
 20
251.109081
 30
0.0
 11
-98.405173
 21
251.109081
 31
0.0
  0
LINE
  5
11D
100
AcDbEntity
  8
PV
100
AcDbLine
 10
-179.705173
 20
143.809081
 30
0.0
 11
-179.705173
 21
144.809081
 31
0.0
  0
LINE
  5
11E
100
AcDbEntity
  8
PV
100
AcDbLine
 10
-179.705173
 20
145.309081
 30
0.0
 11
-179.705173
 21
146.309081
 31
0.0
  0
LINE
  5
11F
100
AcDbEntity
  8
PV
100
AcDbLine
 10
-179.705173
 20
146.809081
 30
0.0
 11
-179.705173
 21
147.809081
 31
0.0
  0
LINE
  5
120
100
AcDbEntity
  8
PV
100
AcDbLine
 10
-175.705173
 20
146.809081
 30
0.0
 11
-175.705173
 21
147.809081
 31
0.0
  0
LINE
  5
121
100
AcDbEntity
  8
PV
100
AcDbLine
 10
-175.705173
 20
145.309081
 30
0.0
 11
-175.705173
 21
146.309081
 31
0.0
  0
LINE
  5
122
100
AcDbEntity
  8
PV
100
AcDbLine
 10
-175.705173
 20
143.809081
 30
0.0
 11
-175.705173
 21
144.809081
 31
0.0
  0
LINE
  5
123
100
AcDbEntity
  8
PV
100
AcDbLine
 10
-103.205173
 20
146.809081
 30
0.0
 11
-103.205173
 21
147.809081
 31
0.0
  0
LINE
  5
124
100
AcDbEntity
  8
PV
100
AcDbLine
 10
-103.205173
 20
145.309081
 30
0.0
 11
-103.205173
 21
146.309081
 31
0.0
  0
LINE
  5
125
100
AcDbEntity
  8
PV
100
AcDbLine
 10
-103.205173
 20
143.809081
 30
0.0
 11
-103.205173
 21
144.809081
 31
0.0
  0
LINE
  5
126
100
AcDbEntity
  8
PV
100
AcDbLine
 10
-96.205173
 20
143.809081
 30
0.0
 11
-96.205173
 21
144.809081
 31
0.0
  0
LINE
  5
127
100
AcDbEntity
  8
PV
100
AcDbLine
 10
-96.205173
 20
145.309081
 30
0.0
 11
-96.205173
 21
146.309081
 31
0.0
  0
LINE
  5
128
100
AcDbEntity
  8
PV
100
AcDbLine
 10
-96.205173
 20
146.809081
 30
0.0
 11
-96.205173
 21
147.809081
 31
0.0
  0
LINE
  5
129
100
AcDbEntity
  8
PV
  6
CENTER
100
AcDbLine
 10
-188.842518
 20
248.809081
 30
0.0
 11
-86.9487
 21
248.809081
 31
0.0
  0
LINE
  5
12A
100
AcDbEntity
  8
PV
  6
CENTER
100
AcDbLine
 10
-184.914082
 20
171.309081
 30
0.0
 11
-93.086882
 21
171.309081
 31
0.0
  0
LINE
  5
12B
100
AcDbEntity
  8
PV
  6
CENTER
100
AcDbLine
 10
-138.705173
 20
139.307627
 30
0.0
 11
-138.705173
 21
214.193445
 31
0.0
  0
LINE
  5
12C
100
AcDbEntity
  8
PV
  6
CENTER
100
AcDbLine
 10
-138.705173
 20
230.643772
 30
0.0
 11
-138.705173
 21
264.526536
 31
0.0
  0
LINE
  5
12D
100
AcDbEntity
  8
PV
  6
CENTER
100
AcDbLine
 10
-56.257791
 20
171.309081
 30
0.0
 11
-11.080773
 21
171.309081
 31
0.0
  0
DIMENSION
  5
12E
100
AcDbEntity
  8
PV
100
AcDbDimension
  2
*D1
 10
-158.705173
 20
130.714172
 30
0.0
 11
-141.880174
 21
134.114172
 31
0.0
100
AcDbAlignedDimension
 13
-118.705173
 23
161.309082
 33
0.0
 14
-158.705173
 24
161.309082
 34
0.0
 50
180.0
100
AcDbRotatedDimension
  0
LINE
  5
12F
100
AcDbEntity
  8
PV
  6
DASHED
100
AcDbLine
 10
-99.705173
 20
139.307627
 30
0.0
 11
-99.705173
 21
151.351856
 31
0.0
  0
LINE
  5
130
100
AcDbEntity
  8
PV
  6
DASHED
100
AcDbLine
 10
-177.705173
 20
139.307627
 30
0.0
 11
-177.705173
 21
151.351856
 31
0.0
  0
DIMENSION
  5
131
100
AcDbEntity
  8
PV
100
AcDbDimension
  2
*D2
 10
-177.705173
 20
119.91161
 30
0.0
 11
-141.880174
 21
123.31161
 31
0.0
100
AcDbAlignedDimension
 13
-99.705173
 23
139.307627
 33
0.0
 14
-177.705173
 24
139.307627
 34
0.0
 50
180.0
100
AcDbRotatedDimension
  0
DIMENSION
  5
132
100
AcDbEntity
  8
PV
100
AcDbDimension
  2
*D3
 10
-183.705173
 20
107.335512
 30
0.0
 11
-141.880174
 21
110.735512
 31
0.0
100
AcDbAlignedDimension
 13
-93.705173
 23
143.30908
 33
0.0
 14
-183.705173
 24
143.30908
 34
0.0
 50
180.0
100
AcDbRotatedDimension
  0
DIMENSION
  5
133
100
AcDbEntity
  8
PV
100
AcDbDimension
  2
*D4
 10
-83.546553
 20
143.309081
 30
0.0
 11
144.234081
 21
86.946553
 31
0.0
100
AcDbAlignedDimension
 13
-93.705173
 23
148.309081
 33
0.0
 14
-93.705173
 24
143.309081
 34
0.0
 50
270.0
100
AcDbRotatedDimension
  0
DIMENSION
  5
134
100
AcDbEntity
  8
PV
100
AcDbDimension
  2
*D5
 10
-83.546553
 20
161.309081
 30
0.0
 11
168.134081
 21
86.946553
 31
0.0
100
AcDbAlignedDimension
 13
-118.705172
 23
181.309081
 33
0.0
 14
-118.705172
 24
161.309081
 34
0.0
 50
270.0
100
AcDbRotatedDimension
  0
DIMENSION
  5
135
100
AcDbEntity
  8
PV
100
AcDbDimension
  2
*D6
 10
-71.442058
 20
143.30908
 30
0.0
 11
154.13408
 21
74.842058
 31
0.0
100
AcDbAlignedDimension
 13
-93.086881
 23
171.309081
 33
0.0
 14
-93.705173
 24
143.30908
 34
0.0
 50
270.0
100
AcDbRotatedDimension
  0
DIMENSION
  5
136
100
AcDbEntity
  8
PV
100
AcDbDimension
  2
*D7
 10
-60.280771
 20
143.30908
 30
0.0
 11
172.13408
 21
63.680771
 31
0.0
100
AcDbAlignedDimension
 13
-104.705171
 23
207.309081
 33
0.0
 14
-93.705171
 24
143.30908
 34
0.0
 50
270.0
100
AcDbRotatedDimension
  0
DIMENSION
  5
137
100
AcDbEntity
  8
PV
100
AcDbDimension
  2
*D8
 10
-45.705173
 20
130.714172
 30
0.0
 11
-36.880173
 21
134.114172
 31
0.0
100
AcDbAlignedDimension
 13
-21.705173
 23
143.309081
 33
0.0
 14
-45.705173
 24
144.309081
 34
0.0
 50
180.0
100
AcDbRotatedDimension
  0
POLYLINE
  5
138
100
AcDbEntity
  8
0
100
AcDb2dPolyline
 66
     1
 10
0.0
 20
0.0
 30
0.0
  0
VERTEX
  5
139
100
AcDbEntity
  8
0
100
AcDbVertex
100
AcDb2dVertex
 10
-137.704688
 20
250.808355
 30
0.0
  0
VERTEX
  5
13A
100
AcDbEntity
  8
0
100
AcDbVertex
100
AcDb2dVertex
 10
-127.789941
 20
267.374094
 30
0.0
  0
VERTEX
  5
13B
100
AcDbEntity
  8
0
100
AcDbVertex
100
AcDb2dVertex
 10
-105.271243
 20
267.374094
 30
0.0
  0
SEQEND
  5
13C
100
AcDbEntity
  8
0
  0
POLYLINE
  5
13D
100
AcDbEntity
  8
0
100
AcDb2dPolyline
 66
     1
 10
0.0
 20
0.0
 30
0.0
  0
VERTEX
  5
13E
100
AcDbEntity
  8
0
100
AcDbVertex
100
AcDb2dVertex
 10
-136.857112
 20
253.783615
 30
0.0
  0
VERTEX
  5
13F
100
AcDbEntity
  8
0
100
AcDbVertex
100
AcDb2dVertex
 10
-137.704688
 20
250.808355
 30
0.0
  0
VERTEX
  5
140
100
AcDbEntity
  8
0
100
AcDbVertex
100
AcDb2dVertex
 10
-135.483035
 20
252.961218
 30
0.0
  0
SEQEND
  5
141
100
AcDbEntity
  8
0
  0
POLYLINE
  5
142
100
AcDbEntity
  8
0
100
AcDb2dPolyline
 66
     1
 10
0.0
 20
0.0
 30
0.0
  0
VERTEX
  5
143
100
AcDbEntity
  8
0
100
AcDbVertex
100
AcDb2dVertex
 10
-97.316374
 20
250.77803
 30
0.0
  0
VERTEX
  5
144
100
AcDbEntity
  8
0
100
AcDbVertex
100
AcDb2dVertex
 10
-86.531984
 20
268.639676
 30
0.0
  0
VERTEX
  5
145
100
AcDbEntity
  8
0
100
AcDbVertex
100
AcDb2dVertex
 10
-68.241472
 20
268.639676
 30
0.0
  0
SEQEND
  5
146
100
AcDbEntity
  8
0
  0
POLYLINE
  5
147
100
AcDbEntity
  8
0
100
AcDb2dPolyline
 66
     1
 10
0.0
 20
0.0
 30
0.0
  0
VERTEX
  5
148
100
AcDbEntity
  8
0
100
AcDbVertex
100
AcDb2dVertex
 10
-96.457299
 20
253.74999
 30
0.0
  0
VERTEX
  5
149
100
AcDbEntity
  8
0
100
AcDbVertex
100
AcDb2dVertex
 10
-97.316374
 20
250.77803
 30
0.0
  0
VERTEX
  5
14A
100
AcDbEntity
  8
0
100
AcDbVertex
100
AcDb2dVertex
 10
-95.086413
 20
252.922286
 30
0.0
  0
SEQEND
  5
14B
100
AcDbEntity
  8
0
  0
CIRCLE
  5
14C
100
AcDbEntity
  8
PV
100
AcDbCircle
 10
-177.705173
 20
248.809081
 30
0.0
 40
2.3
  0
POLYLINE
  5
14D
100
AcDbEntity
  8
0
100
AcDb2dPolyline
 66
     1
 10
0.0
 20
0.0
 30
0.0
  0
VERTEX
  5
14E
100
AcDbEntity
  8
0
100
AcDbVertex
100
AcDb2dVertex
 10
-176.496258
 20
250.765743
 30
0.0
  0
VERTEX
  5
14F
100
AcDbEntity
  8
0
100
AcDbVertex
100
AcDb2dVertex
 10
-166.786961
 20
266.480497
 30
0.0
  0
VERTEX
  5
150
100
AcDbEntity
  8
0
100
AcDbVertex
100
AcDb2dVertex
 10
-152.646678
 20
266.480497
 30
0.0
  0
SEQEND
  5
151
100
AcDbEntity
  8
0
  0
POLYLINE
  5
152
100
AcDbEntity
  8
0
100
AcDb2dPolyline
 66
     1
 10
0.0
 20
0.0
 30
0.0
  0
VERTEX
  5
153
100
AcDbEntity
  8
0
100
AcDbVertex
100
AcDb2dVertex
 10
-175.60677
 20
253.728743
 30
0.0
  0
VERTEX
  5
154
100
AcDbEntity
  8
0
100
AcDbVertex
100
AcDb2dVertex
 10
-176.496258
 20
250.765743
 30
0.0
  0
VERTEX
  5
155
100
AcDbEntity
  8
0
100
AcDbVertex
100
AcDb2dVertex
 10
-174.244439
 20
252.887032
 30
0.0
  0
SEQEND
  5
156
100
AcDbEntity
  8
0
  0
POLYLINE
  5
157
100
AcDbEntity
  8
0
100
AcDb2dPolyline
 66
     1
 10
0.0
 20
0.0
 30
0.0
  0
VERTEX
  5
158
100
AcDbEntity
  8
0
100
AcDbVertex
100
AcDb2dVertex
 10
-109.840638
 20
209.386505
 30
0.0
  0
VERTEX
  5
159
100
AcDbEntity
  8
0
100
AcDbVertex
100
AcDb2dVertex
 10
-81.710701
 20
227.420328
 30
0.0
  0
VERTEX
  5
15A
100
AcDbEntity
  8
0
100
AcDbVertex
100
AcDb2dVertex
 10
-52.570418
 20
227.420328
 30
0.0
  0
SEQEND
  5
15B
100
AcDbEntity
  8
0
  0
POLYLINE
  5
15C
100
AcDbEntity
  8
0
100
AcDb2dPolyline
 66
     1
 10
0.0
 20
0.0
 30
0.0
  0
VERTEX
  5
15D
100
AcDbEntity
  8
0
100
AcDbVertex
100
AcDb2dVertex
 10
-107.757129
 20
211.673326
 30
0.0
  0
VERTEX
  5
15E
100
AcDbEntity
  8
0
100
AcDbVertex
100
AcDb2dVertex
 10
-109.840638
 20
209.386505
 30
0.0
  0
VERTEX
  5
15F
100
AcDbEntity
  8
0
100
AcDbVertex
100
AcDb2dVertex
 10
-106.892856
 20
210.325195
 30
0.0
  0
SEQEND
  5
160
100
AcDbEntity
  8
0
  0
TEXT
  5
161
100
AcDbEntity
  8
0
100
AcDbText
 10
-69.7
 20
53.199982
 30
0.0
 40
4.0
  1
センサ
 41
1.0
  7
BIGFONT
100
AcDbText
  0
TEXT
  5
162
100
AcDbEntity
  8
0
100
AcDbText
 10
-52.1
 20
52.699982
 30
0.0
 40
4.0
  1
TSM-M
 41
1.2
  7
MONOTXT
100
AcDbText
  0
TEXT
  5
163
100
AcDbEntity
  8
0
100
AcDbText
 10
-77.86
 20
53.199982
 30
0.0
 40
4.0
  1
電流
 41
0.8
  7
BIGFONT
100
AcDbText
  0
TEXT
  5
164
100
AcDbEntity
  8
0
100
AcDbText
 10
-62.3
 20
86.699982
 30
0.0
 40
4.0
  1
Terminal
 41
0.6
  7
MONOTXT
100
AcDbText
  0
TEXT
  5
165
100
AcDbEntity
  8
0
100
AcDbText
 10
-41.3
 20
86.699982
 30
0.0
 40
4.0
  1
No.
 41
0.6
  7
MONOTXT
100
AcDbText
  0
TEXT
  5
166
100
AcDbEntity
  8
0
100
AcDbText
 10
-34.3
 20
86.699982
 30
0.0
 40
4.0
  1
1
 41
0.6
  7
MONOTXT
100
AcDbText
  0
TEXT
  5
167
100
AcDbEntity
  8
0
100
AcDbText
 10
-28.1
 20
86.699982
 30
0.0
 40
4.0
  1
センサ電源
 41
0.5
  7
BIGFONT
100
AcDbText
  0
TEXT
  5
168
100
AcDbEntity
  8
0
100
AcDbText
 10
-34.3
 20
80.699982
 30
0.0
 40
4.0
  1
2
 41
0.6
  7
MONOTXT
100
AcDbText
  0
TEXT
  5
169
100
AcDbEntity
  8
0
100
AcDbText
 10
-34.3
 20
74.699982
 30
0.0
 40
4.0
  1
3
 41
0.6
  7
MONOTXT
100
AcDbText
  0
TEXT
  5
16A
100
AcDbEntity
  8
0
100
AcDbText
 10
-34.3
 20
68.699982
 30
0.0
 40
4.0
  1
4
 41
0.6
  7
MONOTXT
100
AcDbText
  0
TEXT
  5
16B
100
AcDbEntity
  8
0
100
AcDbText
 10
-28.1
 20
74.699982
 30
0.0
 40
4.0
  1
出力
 41
0.5
  7
BIGFONT
100
AcDbText
  0
TEXT
  5
16C
100
AcDbEntity
  8
0
100
AcDbText
 10
-28.1
 20
68.699982
 30
0.0
 40
4.0
  1
出力
 41
0.5
  7
BIGFONT
100
AcDbText
  0
TEXT
  5
16D
100
AcDbEntity
  8
0
100
AcDbText
 10
-22.8
 20
68.699982
 30
0.0
 40
4.0
  1
(-)
 41
0.6
  7
MONOTXT
100
AcDbText
  0
TEXT
  5
16E
100
AcDbEntity
  8
0
100
AcDbText
 10
-22.8
 20
74.699982
 30
0.0
 40
4.0
  1
(+)
 41
0.6
  7
MONOTXT
100
AcDbText
  0
TEXT
  5
16F
100
AcDbEntity
  8
0
100
AcDbText
 10
-14.8
 20
80.699982
 30
0.0
 40
4.0
  1
(-)
 41
0.6
  7
MONOTXT
100
AcDbText
  0
TEXT
  5
170
100
AcDbEntity
  8
0
100
AcDbText
 10
-14.8
 20
86.699982
 30
0.0
 40
4.0
  1
(+)
 41
0.6
  7
MONOTXT
100
AcDbText
  0
TEXT
  5
171
100
AcDbEntity
  8
0
100
AcDbText
 10
-27.6
 20
80.699982
 30
0.0
 40
4.0
  1
センサ電源
 41
0.5
  7
BIGFONT
100
AcDbText
  0
TEXT
  5
172
100
AcDbEntity
  8
0
100
AcDbText
 10
-27.68
 20
52.699982
 30
0.0
 40
4.0
  1
300
 41
0.96
  7
MONOTXT
100
AcDbText
  0
TEXT
  5
173
100
AcDbEntity
  8
0
100
AcDbText
 10
-125.721243
 20
269.174094
 30
0.0
 40
3.2
  1
電流方向マーク
 41
0.78125
  7
BIGFONT
100
AcDbText
  0
TEXT
  5
174
100
AcDbEntity
  8
0
100
AcDbText
 10
-82.691473
 20
263.639676
 30
0.0
 40
3.2
  1
取付け穴
 41
0.78125
  7
BIGFONT
100
AcDbText
  0
TEXT
  5
175
100
AcDbEntity
  8
0
100
AcDbText
 10
-82.941473
 20
270.439676
 30
0.0
 40
3.2
  1
R2.3 
 41
1.065341
  7
MONOTXT
100
AcDbText
  0
TEXT
  5
176
100
AcDbEntity
  8
0
100
AcDbText
 10
-164.096678
 20
261.480497
 30
0.0
 40
3.2
  1
取付け穴
 41
0.78125
  7
BIGFONT
100
AcDbText
  0
TEXT
  5
177
100
AcDbEntity
  8
0
100
AcDbText
 10
-164.346678
 20
268.280498
 30
0.0
 40
3.2
  1
%%c4.6
 41
0.9375
  7
MONOTXT
100
AcDbText
  0
TEXT
  5
178
100
AcDbEntity
  8
0
100
AcDbText
 10
-79.270418
 20
222.420327
 30
0.0
 40
3.2
  1
MOLEX
 41
0.9375
  7
MONOTXT
100
AcDbText
  0
TEXT
  5
179
100
AcDbEntity
  8
0
100
AcDbText
 10
-79.270418
 20
229.220328
 30
0.0
 40
3.2
  1
5046-04AG
 41
0.9375
  7
MONOTXT
100
AcDbText
  0
ENDSEC
  0
SECTION
  2
OBJECTS
  0
DICTIONARY
  5
C
100
AcDbDictionary
  3
ACAD_GROUP
350
D
  3
ACAD_MLINESTYLE
350
E
  0
DICTIONARY
  5
D
102
{ACAD_REACTORS
330
C
102
}
100
AcDbDictionary
  0
DICTIONARY
  5
E
102
{ACAD_REACTORS
330
C
102
}
100
AcDbDictionary
  3
STANDARD
350
1C
  0
MLINESTYLE
  5
1C
102
{ACAD_REACTORS
330
E
102
}
100
AcDbMlineStyle
  2
STANDARD
 70
     0
  3

 62
     0
 51
90.0
 52
90.0
 71
     2
 49
0.5
 62
   256
  6
BYLAYER
 49
-0.5
 62
   256
  6
BYLAYER
  0
ENDSEC
  0
EOF
