  0
SECTION
  2
HEADER
  9
$ACADVER
  1
AC1014
  9
$ACADMAINTVER
 70
     0
  9
$DWGCODEPAGE
  3
ANSI_932
  9
$INSBASE
 10
0.0
 20
0.0
 30
0.0
  9
$EXTMIN
 10
-398.566194
 20
36.5
 30
0.0
  9
$EXTMAX
 10
-17.904044
 20
280.46074
 30
0.0
  9
$LIMMIN
 10
-398.566194
 20
36.5
  9
$LIMMAX
 10
-17.904044
 20
280.46074
  9
$ORTHOMODE
 70
     0
  9
$REGENMODE
 70
     1
  9
$FILLMODE
 70
     1
  9
$QTEXTMODE
 70
     0
  9
$MIRRTEXT
 70
     1
  9
$DRAGMODE
 70
     2
  9
$LTSCALE
 40
1.0
  9
$OSMODE
 70
     0
  9
$ATTMODE
 70
     1
  9
$TEXTSIZE
 40
3.15
  9
$TRACEWID
 40
0.05
  9
$TEXTSTYLE
  7
MX_NOTE_STANDARD
  9
$CLAYER
  8
LY_1
  9
$CELTYPE
  6
CONTINUOUS
  9
$CECOLOR
 62
   256
  9
$CELTSCALE
 40
1.0
  9
$DELOBJ
 70
     1
  9
$DISPSILH
 70
     0
  9
$DIMSCALE
 40
1.0
  9
$DIMASZ
 40
2.5
  9
$DIMEXO
 40
1.0
  9
$DIMDLI
 40
3.75
  9
$DIMRND
 40
0.0
  9
$DIMDLE
 40
0.0
  9
$DIMEXE
 40
2.0
  9
$DIMTP
 40
0.0
  9
$DIMTM
 40
0.0
  9
$DIMTXT
 40
3.15
  9
$DIMCEN
 40
2.5
  9
$DIMTSZ
 40
0.0
  9
$DIMTOL
 70
     0
  9
$DIMLIM
 70
     0
  9
$DIMTIH
 70
     0
  9
$DIMTOH
 70
     0
  9
$DIMSE1
 70
     0
  9
$DIMSE2
 70
     0
  9
$DIMTAD
 70
     1
  9
$DIMZIN
 70
     8
  9
$DIMBLK
  1

  9
$DIMASO
 70
     1
  9
$DIMSHO
 70
     1
  9
$DIMPOST
  1

  9
$DIMAPOST
  1

  9
$DIMALT
 70
     0
  9
$DIMALTD
 70
     4
  9
$DIMALTF
 40
0.03937
  9
$DIMLFAC
 40
1.0
  9
$DIMTOFL
 70
     1
  9
$DIMTVP
 40
0.0
  9
$DIMTIX
 70
     0
  9
$DIMSOXD
 70
     0
  9
$DIMSAH
 70
     0
  9
$DIMBLK1
  1

  9
$DIMBLK2
  1

  9
$DIMSTYLE
  2
MXDIMSTYLE
  9
$DIMCLRD
 70
     0
  9
$DIMCLRE
 70
     0
  9
$DIMCLRT
 70
     0
  9
$DIMTFAC
 40
1.0
  9
$DIMGAP
 40
1.0
  9
$DIMJUST
 70
     0
  9
$DIMSD1
 70
     0
  9
$DIMSD2
 70
     0
  9
$DIMTOLJ
 70
     1
  9
$DIMTZIN
 70
     0
  9
$DIMALTZ
 70
     0
  9
$DIMALTTZ
 70
     0
  9
$DIMFIT
 70
     3
  9
$DIMUPT
 70
     1
  9
$DIMUNIT
 70
     2
  9
$DIMDEC
 70
     4
  9
$DIMTDEC
 70
     4
  9
$DIMALTU
 70
     2
  9
$DIMALTTD
 70
     4
  9
$DIMTXSTY
  7
MX_NOTE_STANDARD
  9
$DIMAUNIT
 70
     0
  9
$LUNITS
 70
     2
  9
$LUPREC
 70
     4
  9
$SKETCHINC
 40
0.1
  9
$FILLETRAD
 40
0.0
  9
$AUNITS
 70
     0
  9
$AUPREC
 70
     0
  9
$MENU
  1
acad
  9
$ELEVATION
 40
0.0
  9
$PELEVATION
 40
0.0
  9
$THICKNESS
 40
0.0
  9
$LIMCHECK
 70
     0
  9
$BLIPMODE
 70
     1
  9
$CHAMFERA
 40
0.0
  9
$CHAMFERB
 40
0.0
  9
$CHAMFERC
 40
0.0
  9
$CHAMFERD
 40
0.0
  9
$SKPOLY
 70
     0
  9
$TDCREATE
 40
2454972.605868056
  9
$TDUPDATE
 40
2454972.605868056
  9
$TDINDWG
 40
0.0000000000
  9
$TDUSRTIMER
 40
0.0000000000
  9
$USRTIMER
 70
     1
  9
$ANGBASE
 50
0.0
  9
$ANGDIR
 70
     0
  9
$PDMODE
 70
     0
  9
$PDSIZE
 40
0.0
  9
$PLINEWID
 40
0.0
  9
$COORDS
 70
     1
  9
$SPLFRAME
 70
     0
  9
$SPLINETYPE
 70
     6
  9
$SPLINESEGS
 70
     8
  9
$ATTDIA
 70
     0
  9
$ATTREQ
 70
     1
  9
$HANDLING
 70
     1
  9
$HANDSEED
  5
4C4
  9
$SURFTAB1
 70
     6
  9
$SURFTAB2
 70
     6
  9
$SURFTYPE
 70
     6
  9
$SURFU
 70
     6
  9
$SURFV
 70
     6
  9
$UCSNAME
  2

  9
$UCSORG
 10
0.0
 20
0.0
 30
0.0
  9
$UCSXDIR
 10
1.0
 20
0.0
 30
0.0
  9
$UCSYDIR
 10
0.0
 20
1.0
 30
0.0
  9
$PUCSNAME
  2

  9
$PUCSORG
 10
0.0
 20
0.0
 30
0.0
  9
$PUCSXDIR
 10
1.0
 20
0.0
 30
0.0
  9
$PUCSYDIR
 10
0.0
 20
1.0
 30
0.0
  9
$USERI1
 70
     0
  9
$USERI2
 70
     0
  9
$USERI3
 70
     0
  9
$USERI4
 70
     0
  9
$USERI5
 70
     0
  9
$USERR1
 40
0.0
  9
$USERR2
 40
0.0
  9
$USERR3
 40
0.0
  9
$USERR4
 40
0.0
  9
$USERR5
 40
0.0
  9
$WORLDVIEW
 70
     1
  9
$SHADEDGE
 70
     3
  9
$SHADEDIF
 70
    70
  9
$TILEMODE
 70
     1
  9
$MAXACTVP
 70
    16
  9
$PINSBASE
 10
0.0
 20
0.0
 30
0.0
  9
$PLIMCHECK
 70
     0
  9
$PEXTMIN
 10
1.000000E+20
 20
1.000000E+20
 30
1.000000E+20
  9
$PEXTMAX
 10
-1.000000E+20
 20
-1.000000E+20
 30
-1.000000E+20
  9
$PLIMMIN
 10
0.0
 20
0.0
  9
$PLIMMAX
 10
12.0
 20
9.0
  9
$UNITMODE
 70
     0
  9
$VISRETAIN
 70
     0
  9
$PLINEGEN
 70
     1
  9
$PSLTSCALE
 70
     0
  9
$TREEDEPTH
 70
  3020
  9
$PICKSTYLE
 70
     1
  9
$CMLSTYLE
  2
Standard
  9
$CMLJUST
 70
     0
  9
$CMLSCALE
 40
1.0
  9
$PROXYGRAPHICS
 70
     0
  9
$MEASUREMENT
 70
     1
  0
ENDSEC
  0
SECTION
  2
CLASSES
  0
CLASS
  1
LWPOLYLINE
  2
AcDbPolyline
  3
"AutoCAD"
 90
        0
280
     0
281
     1
  0
CLASS
  1
IMAGE
  2
AcDbRasterImage
  3
ISM
 90
      127
280
     0
281
     1
  0
CLASS
  1
OLE2FRAME
  2
AcDbOle2Frame
  3
""
 90
        0
280
     0
281
     1
  0
CLASS
  1
HATCH
  2
AcDbHatch
  3
"ACAD_SEDONA"
 90
        0
280
     0
281
     1
  0
CLASS
  1
DICTIONARYVAR
  2
AcDbDictionaryVar
  3
"AutoCAD"
 90
        0
280
     0
281
     0
  0
CLASS
  1
RASTERVARIABLES
  2
AcDbRasterVariables
  3
ISM
 90
        0
280
     0
281
     0
  0
CLASS
  1
IMAGEDEF
  2
AcDbRasterImageDef
  3
ISM
 90
        0
280
     0
281
     0
  0
CLASS
  1
IMAGEDEF_REACTOR
  2
AcDbRasterImageDefReactor
  3
ISM
 90
        1
280
     0
281
     0
  0
CLASS
  1
IDBUFFER
  2
AcDbIdBuffer
  3
"Acad"
 90
        0
280
     0
281
     0
  0
CLASS
  1
SPATIAL_FILTER
  2
AcDbSpatialFilter
  3
"Acad"
 90
        0
280
     0
281
     0
  0
CLASS
  1
XRECORD
  2
AcDbXrecord
  3
"<Built In>"
 90
        0
280
     0
281
     0
  0
CLASS
  1
SORTENTSTABLE
  2
AcDbSortentsTable
  3
"AutoCAD"
 90
        0
280
     0
281
     0
  0
CLASS
  1
LAYER_INDEX
  2
AcDbLayerIndex
  3
"Acad"
 90
        0
280
     0
281
     0
  0
CLASS
  1
SPATIAL_INDEX
  2
AcDbSpatialIndex
  3
"Acad"
 90
        0
280
     0
281
     0
  0
CLASS
  1
OBJECT_PTR
  2
CAseDLPNTableRecord
  3
"ASE-LPNTableRecord"
 90
        1
280
     0
281
     0
  0
CLASS
  1
LAYOUT
  2
AcDbLayout
  3
"AutoCAD 2000"
 90
        1
280
     0
281
     0
  0
CLASS
  1
PLOTSETTINGS
  2
AcDbPlotSettings
  3
"AutoCAD 2000"
 90
        1
280
     0
281
     0
  0
CLASS
  1
ACDBDICTIONARYWDFLT
  2
AcDbDictionaryWithDefault
  3
"AutoCAD 2000"
 90
        1
280
     0
281
     0
  0
CLASS
  1
ACDBPLACEHOLDER
  2
AcDbPlaceHolder
  3
"AutoCAD 2000"
 90
        1
280
     0
281
     0
  0
CLASS
  1
VBA_PROJECT
  2
AcDbVbaProject
  3
"acadvba"
 90
        1
280
     0
281
     0
  0
CLASS
  1
WIPEOUT
  2
AcDbWipeout
  3
WipeOut|AutoCAD Express Tool|expresstools@autodesk.com
 90
      127
280
     0
281
     1
  0
CLASS
  1
WIPEOUTVARIABLES
  2
AcDbWipeoutVariables
  3
WipeOut|AutoCAD Express Tool|expresstools@autodesk.com
 90
        0
280
     0
281
     0
  0
CLASS
  1
RTEXT
  2
RText
  3
RText|AutoCAD Express Tool|expresstools@autodesk.com
 90
        0
280
     0
281
     1
  0
CLASS
  1
ARCALIGNEDTEXT
  2
AcDbArcAlignedText
  3
ATEXT|AutoCAD Express Tool|expresstools@autodesk.com
 90
        0
280
     0
281
     1
  0
ENDSEC
  0
SECTION
  2
TABLES
  0
TABLE
  2
VPORT
  5
7
100
AcDbSymbolTable
 70
     1
  0
VPORT
  5
15
100
AcDbSymbolTableRecord
100
AcDbViewportTableRecord
  2
*ACTIVE
 70
     0
 10
0.0
 20
0.0
 11
1.0
 21
1.0
 12
-208.235119
 22
158.48037
 13
0.0
 23
0.0
 14
1.0
 24
1.0
 15
0.0
 25
0.0
 16
0.0
 26
0.0
 36
1.0
 17
0.0
 27
0.0
 37
0.0
 40
246.400348
 41
1.732051
 42
50.0
 43
0.0
 44
0.0
 50
0.0
 51
0.0
 71
     0
 72
   100
 73
     1
 74
     1
 75
     0
 76
     0
 77
     0
 78
     0
  0
ENDTAB
  0
TABLE
  2
LTYPE
  5
4
100
AcDbSymbolTable
 70
     6
  0
LTYPE
  5
11
100
AcDbSymbolTableRecord
100
AcDbLinetypeTableRecord
  2
BYBLOCK
 70
    64
  3

 72
    65
 73
     0
 40
0.0
  0
LTYPE
  5
12
100
AcDbSymbolTableRecord
100
AcDbLinetypeTableRecord
  2
BYLAYER
 70
    64
  3

 72
    65
 73
     0
 40
0.0
  0
LTYPE
  5
13
100
AcDbSymbolTableRecord
100
AcDbLinetypeTableRecord
  2
CONTINUOUS
 70
    64
  3
Solid line
 72
    65
 73
     0
 40
0.0
  0
LTYPE
  5
17D
100
AcDbSymbolTableRecord
100
AcDbLinetypeTableRecord
  2
DASHED
 70
    64
  3
Dashed __ __ __ __ __ __ __ __ __ __ __ __ __ _
 72
    65
 73
     2
 40
19.05
 49
12.7
 74
     0
 49
-6.35
 74
     0
  0
LTYPE
  5
194
100
AcDbSymbolTableRecord
100
AcDbLinetypeTableRecord
  2
HIDDEN
 70
    64
  3
Hidden __ __ __ __ __ __ __ __ __ __ __ __ __ __
 72
    65
 73
     2
 40
9.525
 49
6.35
 74
     0
 49
-3.175
 74
     0
  0
LTYPE
  5
3C7
100
AcDbSymbolTableRecord
100
AcDbLinetypeTableRecord
  2
CENTER
 70
    64
  3
Center ____ _ ____ _ ____ _ ____ _ ____ _ ____
 72
    65
 73
     4
 40
50.8
 49
31.75
 74
     0
 49
-6.35
 74
     0
 49
6.35
 74
     0
 49
-6.35
 74
     0
  0
ENDTAB
  0
TABLE
  2
LAYER
  5
2
100
AcDbSymbolTable
 70
     3
  0
LAYER
  5
14
100
AcDbSymbolTableRecord
100
AcDbLayerTableRecord
  2
0
 70
     0
 62
     7
  6
CONTINUOUS
  0
LAYER
  5
1D
100
AcDbSymbolTableRecord
100
AcDbLayerTableRecord
  2
LY_1
 70
     0
 62
   255
  6
CONTINUOUS
  0
LAYER
  5
1E
100
AcDbSymbolTableRecord
100
AcDbLayerTableRecord
  2
DEFPOINTS
 70
     0
 62
     7
  6
CONTINUOUS
  0
ENDTAB
  0
TABLE
  2
STYLE
  5
3
100
AcDbSymbolTable
 70
     7
  0
STYLE
  5
17
100
AcDbSymbolTableRecord
100
AcDbTextStyleTableRecord
  2
MX_NOTE_STANDARD
 70
     0
 40
0.0
 41
1.0
 50
0.0
 71
     0
 42
3.15
  3
txt.shx
  4
extfont.shx
  0
STYLE
  5
2F
100
AcDbSymbolTableRecord
100
AcDbTextStyleTableRecord
  2
MX_DIMTXSTY_1
 70
     0
 40
0.0
 41
1.0
 50
0.0
 71
     0
 42
3.15
  3
txt.shx
  4
extfont.shx
  0
STYLE
  5
40
100
AcDbSymbolTableRecord
100
AcDbTextStyleTableRecord
  2
MX_DIMTXSTY_2
 70
     0
 40
0.0
 41
1.286
 50
0.0
 71
     0
 42
3.15
  3
txt.shx
  4
extfont.shx
  0
STYLE
  5
139
100
AcDbSymbolTableRecord
100
AcDbTextStyleTableRecord
  2
MX_DIMTXSTY_3
 70
     0
 40
0.0
 41
1.2
 50
0.0
 71
     0
 42
3.15
  3
txt.shx
  4
extfont.shx
  0
STYLE
  5
3B3
100
AcDbSymbolTableRecord
100
AcDbTextStyleTableRecord
  2
MX_DIMTXSTY_4
 70
     0
 40
0.0
 41
1.091
 50
0.0
 71
     0
 42
3.15
  3
txt.shx
  4
extfont.shx
  0
STYLE
  5
3F0
100
AcDbSymbolTableRecord
100
AcDbTextStyleTableRecord
  2
MX_DIMTXSTY_5
 70
     0
 40
0.0
 41
0.931
 50
0.0
 71
     0
 42
3.15
  3
txt.shx
  4
extfont.shx
  0
STYLE
  5
4AA
100
AcDbSymbolTableRecord
100
AcDbTextStyleTableRecord
  2
MX_DIMTXSTY_6
 70
     0
 40
0.0
 41
1.03
 50
0.0
 71
     0
 42
3.15
  3
txt.shx
  4
extfont.shx
  0
ENDTAB
  0
TABLE
  2
VIEW
  5
5
100
AcDbSymbolTable
 70
     0
  0
ENDTAB
  0
TABLE
  2
UCS
  5
6
100
AcDbSymbolTable
 70
     0
  0
ENDTAB
  0
TABLE
  2
APPID
  5
8
100
AcDbSymbolTable
 70
     1
  0
APPID
  5
16
100
AcDbSymbolTableRecord
100
AcDbRegAppTableRecord
  2
ACAD
 70
     0
  0
ENDTAB
  0
TABLE
  2
DIMSTYLE
  5
9
100
AcDbSymbolTable
 70
     2
  0
DIMSTYLE
105
18
100
AcDbSymbolTableRecord
100
AcDbDimStyleTableRecord
  2
MXDIMSTYLE
 70
     0
  3

  4

  5

  6

  7

 40
1.0
 41
2.5
 42
1.0
 43
3.75
 44
2.0
 45
0.0
 46
0.0
 47
0.0
 48
0.0
 71
     0
 72
     0
 73
     0
 74
     0
 75
     0
 76
     0
 77
     1
 78
     8
140
3.15
141
2.5
142
0.0
143
0.03937
144
1.0
145
0.0
146
1.0
147
1.0
170
     0
171
     4
172
     1
173
     0
174
     0
175
     0
176
     0
177
     0
178
     0
270
     2
271
     4
272
     4
273
     2
274
     4
275
     0
280
     0
281
     0
282
     0
283
     1
284
     0
285
     0
286
     0
287
     3
288
     1
340
17
  0
DIMSTYLE
105
1F
100
AcDbSymbolTableRecord
100
AcDbDimStyleTableRecord
  2
MX_DIMSTYLE_CLASS1
 70
     0
  3

  4

  5

  6

  7

 40
1.0
 41
2.5
 42
1.0
 43
3.75
 44
2.0
 45
0.0
 46
0.0
 47
0.0
 48
0.0
 71
     0
 72
     0
 73
     0
 74
     0
 75
     0
 76
     0
 77
     1
 78
     8
140
3.15
141
2.5
142
0.0
143
0.03937
144
1.0
145
0.0
146
1.0
147
1.0
170
     0
171
     4
172
     1
173
     0
174
     0
175
     0
176
     0
177
     0
178
     0
270
     2
271
     4
272
     4
273
     2
274
     4
275
     0
280
     0
281
     0
282
     0
283
     1
284
     0
285
     0
286
     0
287
     3
288
     1
340
17
  0
ENDTAB
  0
TABLE
  2
BLOCK_RECORD
  5
1
100
AcDbSymbolTable
 70
    16
  0
BLOCK_RECORD
  5
A
100
AcDbSymbolTableRecord
100
AcDbBlockTableRecord
  2
*MODEL_SPACE
  0
BLOCK_RECORD
  5
B
100
AcDbSymbolTableRecord
100
AcDbBlockTableRecord
  2
*PAPER_SPACE
  0
BLOCK_RECORD
  5
20
100
AcDbSymbolTableRecord
100
AcDbBlockTableRecord
  2
*D0
  0
BLOCK_RECORD
  5
27
100
AcDbSymbolTableRecord
100
AcDbBlockTableRecord
  2
_OPEN
  0
BLOCK_RECORD
  5
36
100
AcDbSymbolTableRecord
100
AcDbBlockTableRecord
  2
*D2
  0
BLOCK_RECORD
  5
103
100
AcDbSymbolTableRecord
100
AcDbBlockTableRecord
  2
*D3
  0
BLOCK_RECORD
  5
132
100
AcDbSymbolTableRecord
100
AcDbBlockTableRecord
  2
*D4
  0
BLOCK_RECORD
  5
140
100
AcDbSymbolTableRecord
100
AcDbBlockTableRecord
  2
*D5
  0
BLOCK_RECORD
  5
14D
100
AcDbSymbolTableRecord
100
AcDbBlockTableRecord
  2
*D6
  0
BLOCK_RECORD
  5
15A
100
AcDbSymbolTableRecord
100
AcDbBlockTableRecord
  2
*D7
  0
BLOCK_RECORD
  5
186
100
AcDbSymbolTableRecord
100
AcDbBlockTableRecord
  2
*D8
  0
BLOCK_RECORD
  5
19B
100
AcDbSymbolTableRecord
100
AcDbBlockTableRecord
  2
*D9
  0
BLOCK_RECORD
  5
3AC
100
AcDbSymbolTableRecord
100
AcDbBlockTableRecord
  2
*D10
  0
BLOCK_RECORD
  5
3BA
100
AcDbSymbolTableRecord
100
AcDbBlockTableRecord
  2
*D11
  0
BLOCK_RECORD
  5
3D0
100
AcDbSymbolTableRecord
100
AcDbBlockTableRecord
  2
*D12
  0
BLOCK_RECORD
  5
3DD
100
AcDbSymbolTableRecord
100
AcDbBlockTableRecord
  2
*D13
  0
BLOCK_RECORD
  5
3EA
100
AcDbSymbolTableRecord
100
AcDbBlockTableRecord
  2
*D14
  0
BLOCK_RECORD
  5
4A4
100
AcDbSymbolTableRecord
100
AcDbBlockTableRecord
  2
*D15
  0
ENDTAB
  0
ENDSEC
  0
SECTION
  2
BLOCKS
  0
BLOCK
  5
D
100
AcDbEntity
  8
0
100
AcDbBlockBegin
  2
*MODEL_SPACE
 70
     0
 10
0.0
 20
0.0
 30
0.0
  3
*MODEL_SPACE
  1

  0
ENDBLK
  5
E
100
AcDbEntity
  8
0
100
AcDbBlockEnd
  0
BLOCK
  5
F
100
AcDbEntity
 67
     1
  8
0
100
AcDbBlockBegin
  2
*PAPER_SPACE
 70
     0
 10
0.0
 20
0.0
 30
0.0
  3
*PAPER_SPACE
  1

  0
ENDBLK
  5
10
100
AcDbEntity
 67
     1
  8
0
100
AcDbBlockEnd
  0
BLOCK
  5
21
100
AcDbEntity
  8
0
  6
ByBlock
 62
     0
100
AcDbBlockBegin
  2
*D0
 70
     1
 10
0.0
 20
0.0
 30
0.0
  3
*D0
  1

  0
LINE
  5
22
100
AcDbEntity
  8
0
  6
CONTINUOUS
 62
   130
100
AcDbLine
 10
-299.656618
 20
207.038406
 30
0.0
 11
-292.556654
 21
207.038406
 31
0.0
  0
LINE
  5
23
100
AcDbEntity
  8
0
  6
CONTINUOUS
 62
   130
100
AcDbLine
 10
-299.656618
 20
202.190726
 30
0.0
 11
-299.656618
 21
209.038406
 31
0.0
  0
LINE
  5
24
100
AcDbEntity
  8
0
  6
CONTINUOUS
 62
   130
100
AcDbLine
 10
-292.556654
 20
202.190726
 30
0.0
 11
-292.556654
 21
209.038406
 31
0.0
  0
LINE
  5
25
100
AcDbEntity
  8
0
  6
CONTINUOUS
 62
   130
100
AcDbLine
 10
-299.656618
 20
207.038406
 30
0.0
 11
-303.656618
 21
207.038406
 31
0.0
  0
LINE
  5
26
100
AcDbEntity
  8
0
  6
CONTINUOUS
 62
   130
100
AcDbLine
 10
-292.556654
 20
207.038406
 30
0.0
 11
-288.556654
 21
207.038406
 31
0.0
  0
INSERT
  5
2D
100
AcDbEntity
  8
0
  6
CONTINUOUS
 62
   130
100
AcDbBlockReference
  2
_OPEN
 10
-299.656618
 20
207.038406
 30
0.0
 41
3.0
 42
3.0
 43
3.0
  0
INSERT
  5
2E
100
AcDbEntity
  8
0
  6
CONTINUOUS
 62
   130
100
AcDbBlockReference
  2
_OPEN
 10
-292.556654
 20
207.038406
 30
0.0
 41
3.0
 42
3.0
 43
3.0
 50
180.0
  0
MTEXT
  5
30
100
AcDbEntity
  8
0
  6
CONTINUOUS
 62
   130
100
AcDbMText
 10
-296.106636
 20
209.613406
 30
0.0
 40
3.15
 41
0.0
 71
     5
 72
     1
  1
\A1;7
  7
MX_DIMTXSTY_1
  0
POINT
  5
31
100
AcDbEntity
  8
DEFPOINTS
  6
CONTINUOUS
 62
     0
100
AcDbPoint
 10
-299.656618
 20
201.190726
 30
0.0
  0
POINT
  5
32
100
AcDbEntity
  8
DEFPOINTS
  6
CONTINUOUS
 62
     0
100
AcDbPoint
 10
-292.556654
 20
201.190726
 30
0.0
  0
POINT
  5
33
100
AcDbEntity
  8
DEFPOINTS
  6
CONTINUOUS
 62
     0
100
AcDbPoint
 10
-292.556654
 20
207.038406
 30
0.0
  0
ENDBLK
  5
34
100
AcDbEntity
  8
0
  6
ByBlock
 62
     0
100
AcDbBlockEnd
  0
BLOCK
  5
28
100
AcDbEntity
  8
0
  6
ByBlock
 62
     0
100
AcDbBlockBegin
  2
_OPEN
 70
     2
 10
0.0
 20
0.0
 30
0.0
  3
_OPEN
  1

  0
LINE
  5
29
100
AcDbEntity
  8
0
  6
ByBlock
 62
     0
100
AcDbLine
 10
-1.0
 20
0.166667
 30
0.0
 11
0.0
 21
0.0
 31
0.0
  0
LINE
  5
2A
100
AcDbEntity
  8
0
  6
ByBlock
 62
     0
100
AcDbLine
 10
0.0
 20
0.0
 30
0.0
 11
-1.0
 21
-0.166667
 31
0.0
  0
LINE
  5
2B
100
AcDbEntity
  8
0
  6
ByBlock
 62
     0
100
AcDbLine
 10
0.0
 20
0.0
 30
0.0
 11
-1.0
 21
0.0
 31
0.0
  0
ENDBLK
  5
2C
100
AcDbEntity
  8
0
  6
ByBlock
 62
     0
100
AcDbBlockEnd
  0
BLOCK
  5
37
100
AcDbEntity
  8
0
  6
ByBlock
 62
     0
100
AcDbBlockBegin
  2
*D2
 70
     1
 10
0.0
 20
0.0
 30
0.0
  3
*D2
  1

  0
LINE
  5
38
100
AcDbEntity
  8
0
  6
CONTINUOUS
 62
   130
100
AcDbLine
 10
-280.604186
 20
203.431611
 30
0.0
 11
-280.604186
 21
198.931611
 31
0.0
  0
LINE
  5
39
100
AcDbEntity
  8
0
  6
CONTINUOUS
 62
   130
100
AcDbLine
 10
-280.604186
 20
214.836884
 30
0.0
 11
-280.604186
 21
203.431611
 31
0.0
  0
LINE
  5
3A
100
AcDbEntity
  8
0
  6
CONTINUOUS
 62
   130
100
AcDbLine
 10
-295.106636
 20
203.431611
 30
0.0
 11
-278.604186
 21
203.431611
 31
0.0
  0
LINE
  5
3B
100
AcDbEntity
  8
0
  6
CONTINUOUS
 62
   130
100
AcDbLine
 10
-295.106636
 20
198.931611
 30
0.0
 11
-278.604186
 21
198.931611
 31
0.0
  0
LINE
  5
3C
100
AcDbEntity
  8
0
  6
CONTINUOUS
 62
   130
100
AcDbLine
 10
-280.604186
 20
203.431611
 30
0.0
 11
-280.604186
 21
207.431611
 31
0.0
  0
LINE
  5
3D
100
AcDbEntity
  8
0
  6
CONTINUOUS
 62
   130
100
AcDbLine
 10
-280.604186
 20
198.931611
 30
0.0
 11
-280.604186
 21
194.931611
 31
0.0
  0
INSERT
  5
3E
100
AcDbEntity
  8
0
  6
CONTINUOUS
 62
   130
100
AcDbBlockReference
  2
_OPEN
 10
-280.604186
 20
203.431611
 30
0.0
 41
3.0
 42
3.0
 43
3.0
 50
270.0
  0
INSERT
  5
3F
100
AcDbEntity
  8
0
  6
CONTINUOUS
 62
   130
100
AcDbBlockReference
  2
_OPEN
 10
-280.604186
 20
198.931611
 30
0.0
 41
3.0
 42
3.0
 43
3.0
 50
90.0
  0
MTEXT
  5
41
100
AcDbEntity
  8
0
  6
CONTINUOUS
 62
   130
100
AcDbMText
 10
-283.179186
 20
210.111884
 30
0.0
 40
3.15
 41
0.0
 71
     5
 72
     1
  1
\A1;4.5
  7
MX_DIMTXSTY_2
 11
0.0
 21
1.0
 31
0.0
  0
POINT
  5
42
100
AcDbEntity
  8
DEFPOINTS
  6
CONTINUOUS
 62
     0
100
AcDbPoint
 10
-296.106636
 20
203.431611
 30
0.0
  0
POINT
  5
43
100
AcDbEntity
  8
DEFPOINTS
  6
CONTINUOUS
 62
     0
100
AcDbPoint
 10
-296.106636
 20
198.931611
 30
0.0
  0
POINT
  5
44
100
AcDbEntity
  8
DEFPOINTS
  6
CONTINUOUS
 62
     0
100
AcDbPoint
 10
-280.604186
 20
198.931611
 30
0.0
  0
ENDBLK
  5
45
100
AcDbEntity
  8
0
  6
ByBlock
 62
     0
100
AcDbBlockEnd
  0
BLOCK
  5
104
100
AcDbEntity
  8
0
  6
ByBlock
 62
     0
100
AcDbBlockBegin
  2
*D3
 70
     1
 10
0.0
 20
0.0
 30
0.0
  3
*D3
  1

  0
LINE
  5
105
100
AcDbEntity
  8
0
  6
CONTINUOUS
 62
   130
100
AcDbLine
 10
-224.379209
 20
250.983057
 30
0.0
 11
-177.879209
 21
250.983057
 31
0.0
  0
LINE
  5
106
100
AcDbEntity
  8
0
  6
CONTINUOUS
 62
   130
100
AcDbLine
 10
-224.379209
 20
243.272379
 30
0.0
 11
-224.379209
 21
251.983057
 31
0.0
  0
LINE
  5
107
100
AcDbEntity
  8
0
  6
CONTINUOUS
 62
   130
100
AcDbLine
 10
-177.879209
 20
225.072378
 30
0.0
 11
-177.879209
 21
251.983057
 31
0.0
  0
SOLID
  5
108
100
AcDbEntity
  8
0
  6
CONTINUOUS
 62
   130
100
AcDbTrace
 10
-221.879209
 20
250.566389
 30
0.0
 11
-221.879209
 21
251.399724
 31
0.0
 12
-224.379209
 22
250.983057
 32
0.0
 13
-224.379209
 23
250.983057
 33
0.0
  0
SOLID
  5
109
100
AcDbEntity
  8
0
  6
CONTINUOUS
 62
   130
100
AcDbTrace
 10
-180.379209
 20
251.399724
 30
0.0
 11
-180.379209
 21
250.566389
 31
0.0
 12
-177.879209
 22
250.983057
 32
0.0
 13
-177.879209
 23
250.983057
 33
0.0
  0
MTEXT
  5
10A
100
AcDbEntity
  8
0
  6
CONTINUOUS
 62
   130
100
AcDbMText
 10
-201.129209
 20
253.483057
 30
0.0
 40
3.0
 41
0.0
 71
     5
 72
     1
  1
\A1;46.5
  7
MX_DIMTXSTY_1
  0
POINT
  5
10B
100
AcDbEntity
  8
DEFPOINTS
  6
CONTINUOUS
 62
     0
100
AcDbPoint
 10
-224.379209
 20
242.272379
 30
0.0
  0
POINT
  5
10C
100
AcDbEntity
  8
DEFPOINTS
  6
CONTINUOUS
 62
     0
100
AcDbPoint
 10
-177.879209
 20
224.072378
 30
0.0
  0
POINT
  5
10D
100
AcDbEntity
  8
DEFPOINTS
  6
CONTINUOUS
 62
     0
100
AcDbPoint
 10
-177.879209
 20
250.983057
 30
0.0
  0
ENDBLK
  5
10E
100
AcDbEntity
  8
0
  6
ByBlock
 62
     0
100
AcDbBlockEnd
  0
BLOCK
  5
133
100
AcDbEntity
  8
0
  6
ByBlock
 62
     0
100
AcDbBlockBegin
  2
*D4
 70
     1
 10
0.0
 20
0.0
 30
0.0
  3
*D4
  1

  0
LINE
  5
134
100
AcDbEntity
  8
0
  6
CONTINUOUS
 62
   130
100
AcDbLine
 10
-164.21352
 20
224.072378
 30
0.0
 11
-164.21352
 21
167.822378
 31
0.0
  0
LINE
  5
135
100
AcDbEntity
  8
0
  6
CONTINUOUS
 62
   130
100
AcDbLine
 10
-176.87921
 20
224.072378
 30
0.0
 11
-162.21352
 21
224.072378
 31
0.0
  0
LINE
  5
136
100
AcDbEntity
  8
0
  6
CONTINUOUS
 62
   130
100
AcDbLine
 10
-177.079209
 20
167.822378
 30
0.0
 11
-162.21352
 21
167.822378
 31
0.0
  0
INSERT
  5
137
100
AcDbEntity
  8
0
  6
CONTINUOUS
 62
   130
100
AcDbBlockReference
  2
_OPEN
 10
-164.21352
 20
224.072378
 30
0.0
 41
3.0
 42
3.0
 43
3.0
 50
90.0
  0
INSERT
  5
138
100
AcDbEntity
  8
0
  6
CONTINUOUS
 62
   130
100
AcDbBlockReference
  2
_OPEN
 10
-164.21352
 20
167.822378
 30
0.0
 41
3.0
 42
3.0
 43
3.0
 50
270.0
  0
MTEXT
  5
13A
100
AcDbEntity
  8
0
  6
CONTINUOUS
 62
   130
100
AcDbMText
 10
-166.78852
 20
196.922818
 30
0.0
 40
3.15
 41
0.0
 71
     5
 72
     1
  1
\A1;56.3
  7
MX_DIMTXSTY_3
 11
0.0
 21
1.0
 31
0.0
  0
POINT
  5
13B
100
AcDbEntity
  8
DEFPOINTS
  6
CONTINUOUS
 62
     0
100
AcDbPoint
 10
-177.87921
 20
224.072378
 30
0.0
  0
POINT
  5
13C
100
AcDbEntity
  8
DEFPOINTS
  6
CONTINUOUS
 62
     0
100
AcDbPoint
 10
-178.079209
 20
167.822378
 30
0.0
  0
POINT
  5
13D
100
AcDbEntity
  8
DEFPOINTS
  6
CONTINUOUS
 62
     0
100
AcDbPoint
 10
-164.21352
 20
167.822378
 30
0.0
  0
ENDBLK
  5
13E
100
AcDbEntity
  8
0
  6
ByBlock
 62
     0
100
AcDbBlockEnd
  0
BLOCK
  5
141
100
AcDbEntity
  8
0
  6
ByBlock
 62
     0
100
AcDbBlockBegin
  2
*D5
 70
     1
 10
0.0
 20
0.0
 30
0.0
  3
*D5
  1

  0
LINE
  5
142
100
AcDbEntity
  8
0
  6
CONTINUOUS
 62
   130
100
AcDbLine
 10
-242.379209
 20
250.983057
 30
0.0
 11
-224.379209
 21
250.983057
 31
0.0
  0
LINE
  5
143
100
AcDbEntity
  8
0
  6
CONTINUOUS
 62
   130
100
AcDbLine
 10
-242.379209
 20
243.272379
 30
0.0
 11
-242.379209
 21
252.983057
 31
0.0
  0
LINE
  5
144
100
AcDbEntity
  8
0
  6
CONTINUOUS
 62
   130
100
AcDbLine
 10
-224.379209
 20
243.272379
 30
0.0
 11
-224.379209
 21
252.983057
 31
0.0
  0
INSERT
  5
145
100
AcDbEntity
  8
0
  6
CONTINUOUS
 62
   130
100
AcDbBlockReference
  2
_OPEN
 10
-242.379209
 20
250.983057
 30
0.0
 41
3.0
 42
3.0
 43
3.0
 50
180.0
  0
INSERT
  5
146
100
AcDbEntity
  8
0
  6
CONTINUOUS
 62
   130
100
AcDbBlockReference
  2
_OPEN
 10
-224.379209
 20
250.983057
 30
0.0
 41
3.0
 42
3.0
 43
3.0
  0
MTEXT
  5
147
100
AcDbEntity
  8
0
  6
CONTINUOUS
 62
   130
100
AcDbMText
 10
-233.379209
 20
253.558057
 30
0.0
 40
3.15
 41
0.0
 71
     5
 72
     1
  1
\A1;18
  7
MX_DIMTXSTY_3
  0
POINT
  5
148
100
AcDbEntity
  8
DEFPOINTS
  6
CONTINUOUS
 62
     0
100
AcDbPoint
 10
-242.379209
 20
242.272379
 30
0.0
  0
POINT
  5
149
100
AcDbEntity
  8
DEFPOINTS
  6
CONTINUOUS
 62
     0
100
AcDbPoint
 10
-224.379209
 20
242.272379
 30
0.0
  0
POINT
  5
14A
100
AcDbEntity
  8
DEFPOINTS
  6
CONTINUOUS
 62
     0
100
AcDbPoint
 10
-224.379209
 20
250.983057
 30
0.0
  0
ENDBLK
  5
14B
100
AcDbEntity
  8
0
  6
ByBlock
 62
     0
100
AcDbBlockEnd
  0
BLOCK
  5
14E
100
AcDbEntity
  8
0
  6
ByBlock
 62
     0
100
AcDbBlockBegin
  2
*D6
 70
     1
 10
0.0
 20
0.0
 30
0.0
  3
*D6
  1

  0
LINE
  5
14F
100
AcDbEntity
  8
0
  6
CONTINUOUS
 62
   130
100
AcDbLine
 10
-261.629209
 20
260.131727
 30
0.0
 11
-177.879209
 21
260.131727
 31
0.0
  0
LINE
  5
150
100
AcDbEntity
  8
0
  6
CONTINUOUS
 62
   130
100
AcDbLine
 10
-261.629209
 20
224.572378
 30
0.0
 11
-261.629209
 21
262.131727
 31
0.0
  0
LINE
  5
151
100
AcDbEntity
  8
0
  6
CONTINUOUS
 62
   130
100
AcDbLine
 10
-177.879209
 20
225.072378
 30
0.0
 11
-177.879209
 21
262.131727
 31
0.0
  0
INSERT
  5
152
100
AcDbEntity
  8
0
  6
CONTINUOUS
 62
   130
100
AcDbBlockReference
  2
_OPEN
 10
-261.629209
 20
260.131727
 30
0.0
 41
3.0
 42
3.0
 43
3.0
 50
180.0
  0
INSERT
  5
153
100
AcDbEntity
  8
0
  6
CONTINUOUS
 62
   130
100
AcDbBlockReference
  2
_OPEN
 10
-177.879209
 20
260.131727
 30
0.0
 41
3.0
 42
3.0
 43
3.0
  0
MTEXT
  5
154
100
AcDbEntity
  8
0
  6
CONTINUOUS
 62
   130
100
AcDbMText
 10
-221.346926
 20
262.706727
 30
0.0
 40
3.15
 41
0.0
 71
     5
 72
     1
  1
\A1;83.8
  7
MX_DIMTXSTY_3
  0
POINT
  5
155
100
AcDbEntity
  8
DEFPOINTS
  6
CONTINUOUS
 62
     0
100
AcDbPoint
 10
-261.629209
 20
223.572378
 30
0.0
  0
POINT
  5
156
100
AcDbEntity
  8
DEFPOINTS
  6
CONTINUOUS
 62
     0
100
AcDbPoint
 10
-177.879209
 20
224.072378
 30
0.0
  0
POINT
  5
157
100
AcDbEntity
  8
DEFPOINTS
  6
CONTINUOUS
 62
     0
100
AcDbPoint
 10
-177.879209
 20
260.131727
 30
0.0
  0
ENDBLK
  5
158
100
AcDbEntity
  8
0
  6
ByBlock
 62
     0
100
AcDbBlockEnd
  0
BLOCK
  5
15B
100
AcDbEntity
  8
0
  6
ByBlock
 62
     0
100
AcDbBlockBegin
  2
*D7
 70
     1
 10
0.0
 20
0.0
 30
0.0
  3
*D7
  1

  0
LINE
  5
15C
100
AcDbEntity
  8
0
  6
CONTINUOUS
 62
   130
100
AcDbLine
 10
-186.579209
 20
233.89114
 30
0.0
 11
-177.879209
 21
233.89114
 31
0.0
  0
LINE
  5
15D
100
AcDbEntity
  8
0
  6
CONTINUOUS
 62
   130
100
AcDbLine
 10
-200.17282
 20
233.89114
 30
0.0
 11
-186.579209
 21
233.89114
 31
0.0
  0
LINE
  5
15E
100
AcDbEntity
  8
0
  6
CONTINUOUS
 62
   130
100
AcDbLine
 10
-186.579209
 20
223.372379
 30
0.0
 11
-186.579209
 21
235.89114
 31
0.0
  0
LINE
  5
15F
100
AcDbEntity
  8
0
  6
CONTINUOUS
 62
   130
100
AcDbLine
 10
-177.879209
 20
225.072378
 30
0.0
 11
-177.879209
 21
235.89114
 31
0.0
  0
LINE
  5
160
100
AcDbEntity
  8
0
  6
CONTINUOUS
 62
   130
100
AcDbLine
 10
-186.579209
 20
233.89114
 30
0.0
 11
-190.579209
 21
233.89114
 31
0.0
  0
LINE
  5
161
100
AcDbEntity
  8
0
  6
CONTINUOUS
 62
   130
100
AcDbLine
 10
-177.879209
 20
233.89114
 30
0.0
 11
-173.879209
 21
233.89114
 31
0.0
  0
INSERT
  5
162
100
AcDbEntity
  8
0
  6
CONTINUOUS
 62
   130
100
AcDbBlockReference
  2
_OPEN
 10
-186.579209
 20
233.89114
 30
0.0
 41
3.0
 42
3.0
 43
3.0
  0
INSERT
  5
163
100
AcDbEntity
  8
0
  6
CONTINUOUS
 62
   130
100
AcDbBlockReference
  2
_OPEN
 10
-177.879209
 20
233.89114
 30
0.0
 41
3.0
 42
3.0
 43
3.0
 50
180.0
  0
MTEXT
  5
164
100
AcDbEntity
  8
0
  6
CONTINUOUS
 62
   130
100
AcDbMText
 10
-195.44782
 20
236.46614
 30
0.0
 40
3.15
 41
0.0
 71
     5
 72
     1
  1
\A1;8.7
  7
MX_DIMTXSTY_2
  0
POINT
  5
165
100
AcDbEntity
  8
DEFPOINTS
  6
CONTINUOUS
 62
     0
100
AcDbPoint
 10
-186.579209
 20
222.372379
 30
0.0
  0
POINT
  5
166
100
AcDbEntity
  8
DEFPOINTS
  6
CONTINUOUS
 62
     0
100
AcDbPoint
 10
-177.879209
 20
224.072378
 30
0.0
  0
POINT
  5
167
100
AcDbEntity
  8
DEFPOINTS
  6
CONTINUOUS
 62
     0
100
AcDbPoint
 10
-177.879209
 20
233.89114
 30
0.0
  0
ENDBLK
  5
168
100
AcDbEntity
  8
0
  6
ByBlock
 62
     0
100
AcDbBlockEnd
  0
BLOCK
  5
187
100
AcDbEntity
  8
0
  6
ByBlock
 62
     0
100
AcDbBlockBegin
  2
*D8
 70
     1
 10
0.0
 20
0.0
 30
0.0
  3
*D8
  1

  0
LINE
  5
188
100
AcDbEntity
  8
0
  6
CONTINUOUS
 62
   130
100
AcDbLine
 10
-153.637367
 20
242.272378
 30
0.0
 11
-153.637367
 21
167.822378
 31
0.0
  0
LINE
  5
189
100
AcDbEntity
  8
0
  6
CONTINUOUS
 62
   130
100
AcDbLine
 10
-223.379212
 20
242.272378
 30
0.0
 11
-151.637367
 21
242.272378
 31
0.0
  0
LINE
  5
18A
100
AcDbEntity
  8
0
  6
CONTINUOUS
 62
   130
100
AcDbLine
 10
-177.07921
 20
167.822378
 30
0.0
 11
-151.637367
 21
167.822378
 31
0.0
  0
INSERT
  5
18B
100
AcDbEntity
  8
0
  6
CONTINUOUS
 62
   130
100
AcDbBlockReference
  2
_OPEN
 10
-153.637367
 20
242.272378
 30
0.0
 41
3.0
 42
3.0
 43
3.0
 50
90.0
  0
INSERT
  5
18C
100
AcDbEntity
  8
0
  6
CONTINUOUS
 62
   130
100
AcDbBlockReference
  2
_OPEN
 10
-153.637367
 20
167.822378
 30
0.0
 41
3.0
 42
3.0
 43
3.0
 50
270.0
  0
MTEXT
  5
18D
100
AcDbEntity
  8
0
  6
CONTINUOUS
 62
   130
100
AcDbMText
 10
-156.212367
 20
203.22783
 30
0.0
 40
3.15
 41
0.0
 71
     5
 72
     1
  1
\A1;74.5
  7
MX_DIMTXSTY_3
 11
0.0
 21
1.0
 31
0.0
  0
POINT
  5
18E
100
AcDbEntity
  8
DEFPOINTS
  6
CONTINUOUS
 62
     0
100
AcDbPoint
 10
-224.379212
 20
242.272378
 30
0.0
  0
POINT
  5
18F
100
AcDbEntity
  8
DEFPOINTS
  6
CONTINUOUS
 62
     0
100
AcDbPoint
 10
-178.07921
 20
167.822378
 30
0.0
  0
POINT
  5
190
100
AcDbEntity
  8
DEFPOINTS
  6
CONTINUOUS
 62
     0
100
AcDbPoint
 10
-153.637367
 20
167.822378
 30
0.0
  0
ENDBLK
  5
191
100
AcDbEntity
  8
0
  6
ByBlock
 62
     0
100
AcDbBlockEnd
  0
BLOCK
  5
19C
100
AcDbEntity
  8
0
  6
ByBlock
 62
     0
100
AcDbBlockBegin
  2
*D9
 70
     1
 10
0.0
 20
0.0
 30
0.0
  3
*D9
  1

  0
LINE
  5
19D
100
AcDbEntity
  8
0
  6
CONTINUOUS
 62
   130
100
AcDbLine
 10
-289.906636
 20
45.798341
 30
0.0
 11
-384.906636
 21
45.798341
 31
0.0
  0
LINE
  5
19E
100
AcDbEntity
  8
0
  6
CONTINUOUS
 62
   130
100
AcDbLine
 10
-289.906636
 20
57.38234
 30
0.0
 11
-289.906636
 21
43.798341
 31
0.0
  0
LINE
  5
19F
100
AcDbEntity
  8
0
  6
CONTINUOUS
 62
   130
100
AcDbLine
 10
-384.906636
 20
57.38234
 30
0.0
 11
-384.906636
 21
43.798341
 31
0.0
  0
INSERT
  5
1A0
100
AcDbEntity
  8
0
  6
CONTINUOUS
 62
   130
100
AcDbBlockReference
  2
_OPEN
 10
-289.906636
 20
45.798341
 30
0.0
 41
3.0
 42
3.0
 43
3.0
  0
INSERT
  5
1A1
100
AcDbEntity
  8
0
  6
CONTINUOUS
 62
   130
100
AcDbBlockReference
  2
_OPEN
 10
-384.906636
 20
45.798341
 30
0.0
 41
3.0
 42
3.0
 43
3.0
 50
180.0
  0
MTEXT
  5
1A2
100
AcDbEntity
  8
0
  6
CONTINUOUS
 62
   130
100
AcDbMText
 10
-337.439442
 20
48.373341
 30
0.0
 40
3.15
 41
0.0
 71
     5
 72
     1
  1
\A1;95
  7
MX_DIMTXSTY_1
 11
1.0
 21
0.0
 31
0.0
  0
POINT
  5
1A3
100
AcDbEntity
  8
DEFPOINTS
  6
CONTINUOUS
 62
     0
100
AcDbPoint
 10
-289.906636
 20
58.38234
 30
0.0
  0
POINT
  5
1A4
100
AcDbEntity
  8
DEFPOINTS
  6
CONTINUOUS
 62
     0
100
AcDbPoint
 10
-384.906636
 20
58.38234
 30
0.0
  0
POINT
  5
1A5
100
AcDbEntity
  8
DEFPOINTS
  6
CONTINUOUS
 62
     0
100
AcDbPoint
 10
-384.906636
 20
45.798341
 30
0.0
  0
ENDBLK
  5
1A6
100
AcDbEntity
  8
0
  6
ByBlock
 62
     0
100
AcDbBlockEnd
  0
BLOCK
  5
3AD
100
AcDbEntity
  8
0
  6
ByBlock
 62
     0
100
AcDbBlockBegin
  2
*D10
 70
     1
 10
0.0
 20
0.0
 30
0.0
  3
*D10
  1

  0
LINE
  5
3AE
100
AcDbEntity
  8
0
  6
CONTINUOUS
 62
   130
100
AcDbLine
 10
-302.406636
 20
158.972209
 30
0.0
 11
-372.406636
 21
158.972209
 31
0.0
  0
LINE
  5
3AF
100
AcDbEntity
  8
0
  6
CONTINUOUS
 62
   130
100
AcDbLine
 10
-302.406636
 20
171.353724
 30
0.0
 11
-302.406636
 21
156.972209
 31
0.0
  0
LINE
  5
3B0
100
AcDbEntity
  8
0
  6
CONTINUOUS
 62
   130
100
AcDbLine
 10
-372.406636
 20
171.353724
 30
0.0
 11
-372.406636
 21
156.972209
 31
0.0
  0
INSERT
  5
3B1
100
AcDbEntity
  8
0
  6
CONTINUOUS
 62
   130
100
AcDbBlockReference
  2
_OPEN
 10
-302.406636
 20
158.972209
 30
0.0
 41
3.0
 42
3.0
 43
3.0
  0
INSERT
  5
3B2
100
AcDbEntity
  8
0
  6
CONTINUOUS
 62
   130
100
AcDbBlockReference
  2
_OPEN
 10
-372.406636
 20
158.972209
 30
0.0
 41
3.0
 42
3.0
 43
3.0
 50
180.0
  0
MTEXT
  5
3B4
100
AcDbEntity
  8
0
  6
CONTINUOUS
 62
   130
100
AcDbMText
 10
-337.406636
 20
161.547209
 30
0.0
 40
3.15
 41
0.0
 71
     5
 72
     1
  1
\A1;70
  7
MX_DIMTXSTY_4
 11
1.0
 21
0.0
 31
0.0
  0
POINT
  5
3B5
100
AcDbEntity
  8
DEFPOINTS
  6
CONTINUOUS
 62
     0
100
AcDbPoint
 10
-302.406636
 20
172.353724
 30
0.0
  0
POINT
  5
3B6
100
AcDbEntity
  8
DEFPOINTS
  6
CONTINUOUS
 62
     0
100
AcDbPoint
 10
-372.406636
 20
172.353724
 30
0.0
  0
POINT
  5
3B7
100
AcDbEntity
  8
DEFPOINTS
  6
CONTINUOUS
 62
     0
100
AcDbPoint
 10
-372.406636
 20
158.972209
 30
0.0
  0
ENDBLK
  5
3B8
100
AcDbEntity
  8
0
  6
ByBlock
 62
     0
100
AcDbBlockEnd
  0
BLOCK
  5
3BB
100
AcDbEntity
  8
0
  6
ByBlock
 62
     0
100
AcDbBlockBegin
  2
*D11
 70
     1
 10
0.0
 20
0.0
 30
0.0
  3
*D11
  1

  0
LINE
  5
3BC
100
AcDbEntity
  8
0
  6
CONTINUOUS
 62
   130
100
AcDbLine
 10
-296.106636
 20
152.536659
 30
0.0
 11
-378.406636
 21
152.536659
 31
0.0
  0
LINE
  5
3BD
100
AcDbEntity
  8
0
  6
CONTINUOUS
 62
   130
100
AcDbLine
 10
-296.106636
 20
196.924221
 30
0.0
 11
-296.106636
 21
150.536659
 31
0.0
  0
LINE
  5
3BE
100
AcDbEntity
  8
0
  6
CONTINUOUS
 62
   130
100
AcDbLine
 10
-378.406636
 20
196.80661
 30
0.0
 11
-378.406636
 21
150.536659
 31
0.0
  0
INSERT
  5
3BF
100
AcDbEntity
  8
0
  6
CONTINUOUS
 62
   130
100
AcDbBlockReference
  2
_OPEN
 10
-296.106636
 20
152.536659
 30
0.0
 41
3.0
 42
3.0
 43
3.0
  0
INSERT
  5
3C0
100
AcDbEntity
  8
0
  6
CONTINUOUS
 62
   130
100
AcDbBlockReference
  2
_OPEN
 10
-378.406636
 20
152.536659
 30
0.0
 41
3.0
 42
3.0
 43
3.0
 50
180.0
  0
MTEXT
  5
3C1
100
AcDbEntity
  8
0
  6
CONTINUOUS
 62
   130
100
AcDbMText
 10
-337.256638
 20
155.111659
 30
0.0
 40
3.15
 41
0.0
 71
     5
 72
     1
  1
\A1;82
  7
MX_DIMTXSTY_1
 11
1.0
 21
0.0
 31
0.0
  0
POINT
  5
3C2
100
AcDbEntity
  8
DEFPOINTS
  6
CONTINUOUS
 62
     0
100
AcDbPoint
 10
-296.106636
 20
197.924221
 30
0.0
  0
POINT
  5
3C3
100
AcDbEntity
  8
DEFPOINTS
  6
CONTINUOUS
 62
     0
100
AcDbPoint
 10
-378.406636
 20
197.80661
 30
0.0
  0
POINT
  5
3C4
100
AcDbEntity
  8
DEFPOINTS
  6
CONTINUOUS
 62
     0
100
AcDbPoint
 10
-378.406636
 20
152.536659
 30
0.0
  0
ENDBLK
  5
3C5
100
AcDbEntity
  8
0
  6
ByBlock
 62
     0
100
AcDbBlockEnd
  0
BLOCK
  5
3D1
100
AcDbEntity
  8
0
  6
ByBlock
 62
     0
100
AcDbBlockBegin
  2
*D12
 70
     1
 10
0.0
 20
0.0
 30
0.0
  3
*D12
  1

  0
LINE
  5
3D2
100
AcDbEntity
  8
0
  6
CONTINUOUS
 62
   130
100
AcDbLine
 10
-359.906636
 20
251.840195
 30
0.0
 11
-337.406636
 21
251.840195
 31
0.0
  0
LINE
  5
3D3
100
AcDbEntity
  8
0
  6
CONTINUOUS
 62
   130
100
AcDbLine
 10
-359.906636
 20
238.690727
 30
0.0
 11
-359.906636
 21
252.840195
 31
0.0
  0
LINE
  5
3D4
100
AcDbEntity
  8
0
  6
CONTINUOUS
 62
   130
100
AcDbLine
 10
-337.406636
 20
238.690727
 30
0.0
 11
-337.406636
 21
252.840195
 31
0.0
  0
SOLID
  5
3D5
100
AcDbEntity
  8
0
  6
CONTINUOUS
 62
   130
100
AcDbTrace
 10
-357.406636
 20
251.423528
 30
0.0
 11
-357.406636
 21
252.256863
 31
0.0
 12
-359.906636
 22
251.840195
 32
0.0
 13
-359.906636
 23
251.840195
 33
0.0
  0
SOLID
  5
3D6
100
AcDbEntity
  8
0
  6
CONTINUOUS
 62
   130
100
AcDbTrace
 10
-339.906636
 20
252.256863
 30
0.0
 11
-339.906636
 21
251.423528
 31
0.0
 12
-337.406636
 22
251.840195
 32
0.0
 13
-337.406636
 23
251.840195
 33
0.0
  0
MTEXT
  5
3D7
100
AcDbEntity
  8
0
  6
CONTINUOUS
 62
   130
100
AcDbMText
 10
-348.656636
 20
254.340195
 30
0.0
 40
3.0
 41
0.0
 71
     5
 72
     1
  1
\A1;22.5
  7
MX_DIMTXSTY_1
  0
POINT
  5
3D8
100
AcDbEntity
  8
DEFPOINTS
  6
CONTINUOUS
 62
     0
100
AcDbPoint
 10
-359.906636
 20
237.690727
 30
0.0
  0
POINT
  5
3D9
100
AcDbEntity
  8
DEFPOINTS
  6
CONTINUOUS
 62
     0
100
AcDbPoint
 10
-337.406636
 20
237.690727
 30
0.0
  0
POINT
  5
3DA
100
AcDbEntity
  8
DEFPOINTS
  6
CONTINUOUS
 62
     0
100
AcDbPoint
 10
-337.406636
 20
251.840195
 30
0.0
  0
ENDBLK
  5
3DB
100
AcDbEntity
  8
0
  6
ByBlock
 62
     0
100
AcDbBlockEnd
  0
BLOCK
  5
3DE
100
AcDbEntity
  8
0
  6
ByBlock
 62
     0
100
AcDbBlockBegin
  2
*D13
 70
     1
 10
0.0
 20
0.0
 30
0.0
  3
*D13
  1

  0
LINE
  5
3DF
100
AcDbEntity
  8
0
  6
CONTINUOUS
 62
   130
100
AcDbLine
 10
-337.406636
 20
251.840195
 30
0.0
 11
-314.906636
 21
251.840195
 31
0.0
  0
LINE
  5
3E0
100
AcDbEntity
  8
0
  6
CONTINUOUS
 62
   130
100
AcDbLine
 10
-337.406636
 20
238.690727
 30
0.0
 11
-337.406636
 21
252.840195
 31
0.0
  0
LINE
  5
3E1
100
AcDbEntity
  8
0
  6
CONTINUOUS
 62
   130
100
AcDbLine
 10
-314.906636
 20
238.690727
 30
0.0
 11
-314.906636
 21
252.840195
 31
0.0
  0
SOLID
  5
3E2
100
AcDbEntity
  8
0
  6
CONTINUOUS
 62
   130
100
AcDbTrace
 10
-334.906636
 20
251.423528
 30
0.0
 11
-334.906636
 21
252.256863
 31
0.0
 12
-337.406636
 22
251.840195
 32
0.0
 13
-337.406636
 23
251.840195
 33
0.0
  0
SOLID
  5
3E3
100
AcDbEntity
  8
0
  6
CONTINUOUS
 62
   130
100
AcDbTrace
 10
-317.406636
 20
252.256863
 30
0.0
 11
-317.406636
 21
251.423528
 31
0.0
 12
-314.906636
 22
251.840195
 32
0.0
 13
-314.906636
 23
251.840195
 33
0.0
  0
MTEXT
  5
3E4
100
AcDbEntity
  8
0
  6
CONTINUOUS
 62
   130
100
AcDbMText
 10
-326.156636
 20
254.340195
 30
0.0
 40
3.0
 41
0.0
 71
     5
 72
     1
  1
\A1;22.5
  7
MX_DIMTXSTY_1
  0
POINT
  5
3E5
100
AcDbEntity
  8
DEFPOINTS
  6
CONTINUOUS
 62
     0
100
AcDbPoint
 10
-337.406636
 20
237.690727
 30
0.0
  0
POINT
  5
3E6
100
AcDbEntity
  8
DEFPOINTS
  6
CONTINUOUS
 62
     0
100
AcDbPoint
 10
-314.906636
 20
237.690727
 30
0.0
  0
POINT
  5
3E7
100
AcDbEntity
  8
DEFPOINTS
  6
CONTINUOUS
 62
     0
100
AcDbPoint
 10
-314.906636
 20
251.840195
 30
0.0
  0
ENDBLK
  5
3E8
100
AcDbEntity
  8
0
  6
ByBlock
 62
     0
100
AcDbBlockEnd
  0
BLOCK
  5
3EB
100
AcDbEntity
  8
0
  6
ByBlock
 62
     0
100
AcDbBlockBegin
  2
*D14
 70
     1
 10
0.0
 20
0.0
 30
0.0
  3
*D14
  1

  0
LINE
  5
3EC
100
AcDbEntity
  8
0
  6
CONTINUOUS
 62
   130
100
AcDbLine
 10
-379.860965
 20
199.491681
 30
0.0
 11
-387.709031
 21
186.387622
 31
0.0
  0
LINE
  5
3ED
100
AcDbEntity
  8
0
  6
CONTINUOUS
 62
   130
100
AcDbLine
 10
-387.709031
 20
186.387622
 30
0.0
 11
-398.566194
 21
186.387622
 31
0.0
  0
LINE
  5
3EE
100
AcDbEntity
  8
0
  6
CONTINUOUS
 62
   130
100
AcDbLine
 10
-379.860965
 20
199.491681
 30
0.0
 11
-381.916181
 21
196.06005
 31
0.0
  0
SOLID
  5
3EF
100
AcDbEntity
  8
0
  6
CONTINUOUS
 62
   130
100
AcDbTrace
 10
-381.174543
 20
197.947133
 30
0.0
 11
-380.602603
 21
197.604597
 31
0.0
 12
-379.860965
 22
199.491681
 32
0.0
 13
-379.860965
 23
199.491681
 33
0.0
  0
MTEXT
  5
3F1
100
AcDbEntity
  8
0
  6
CONTINUOUS
 62
   130
100
AcDbMText
 10
-393.709051
 20
188.887622
 30
0.0
 40
3.0
 41
0.0
 71
     5
 72
     1
  1
\A1;\U+22054.5
  7
MX_DIMTXSTY_5
 11
1.0
 21
0.0
 31
0.0
  0
POINT
  5
3F2
100
AcDbEntity
  8
DEFPOINTS
  6
CONTINUOUS
 62
     0
100
AcDbPoint
 10
-379.860965
 20
199.491681
 30
0.0
  0
POINT
  5
3F3
100
AcDbEntity
  8
DEFPOINTS
  6
CONTINUOUS
 62
     0
100
AcDbPoint
 10
-377.548848
 20
203.352265
 30
0.0
  0
ENDBLK
  5
3F4
100
AcDbEntity
  8
0
  6
ByBlock
 62
     0
100
AcDbBlockEnd
  0
BLOCK
  5
4A5
100
AcDbEntity
  8
0
  6
ByBlock
 62
     0
100
AcDbBlockBegin
  2
*D15
 70
     1
 10
0.0
 20
0.0
 30
0.0
  3
*D15
  1

  0
LINE
  5
4A6
100
AcDbEntity
  8
0
  6
CONTINUOUS
 62
   130
100
AcDbLine
 10
-310.928054
 20
235.081927
 30
0.0
 11
-296.430383
 21
251.447546
 31
0.0
  0
LINE
  5
4A7
100
AcDbEntity
  8
0
  6
CONTINUOUS
 62
   130
100
AcDbLine
 10
-296.430383
 20
251.447546
 30
0.0
 11
-280.930363
 21
251.447546
 31
0.0
  0
LINE
  5
4A8
100
AcDbEntity
  8
0
  6
CONTINUOUS
 62
   130
100
AcDbLine
 10
-310.928054
 20
235.081927
 30
0.0
 11
-308.275666
 21
238.076061
 31
0.0
  0
SOLID
  5
4A9
100
AcDbEntity
  8
0
  6
CONTINUOUS
 62
   130
100
AcDbTrace
 10
-309.352348
 20
236.357962
 30
0.0
 11
-309.851372
 21
236.800027
 31
0.0
 12
-310.928054
 22
235.081927
 32
0.0
 13
-310.928054
 23
235.081927
 33
0.0
  0
MTEXT
  5
4AB
100
AcDbEntity
  8
0
  6
CONTINUOUS
 62
   130
100
AcDbMText
 10
-288.358934
 20
253.947546
 30
0.0
 40
3.0
 41
0.0
 71
     5
 72
     1
  1
\A1;3-\U+220512
  7
MX_DIMTXSTY_6
 11
1.0
 21
0.0
 31
0.0
  0
POINT
  5
4AC
100
AcDbEntity
  8
DEFPOINTS
  6
CONTINUOUS
 62
     0
100
AcDbPoint
 10
-310.928054
 20
235.081927
 30
0.0
  0
POINT
  5
4AD
100
AcDbEntity
  8
DEFPOINTS
  6
CONTINUOUS
 62
     0
100
AcDbPoint
 10
-318.885218
 20
226.099526
 30
0.0
  0
ENDBLK
  5
4AE
100
AcDbEntity
  8
0
  6
ByBlock
 62
     0
100
AcDbBlockEnd
  0
ENDSEC
  0
SECTION
  2
ENTITIES
  0
DIMENSION
  5
35
100
AcDbEntity
  8
LY_1
  6
CONTINUOUS
 62
   130
100
AcDbDimension
  2
*D0
 10
-292.556654
 20
207.038406
 30
0.0
 11
-296.106636
 21
207.038406
 31
0.0
 70
   128
  1
7
  3
MX_DIMSTYLE_CLASS1
100
AcDbAlignedDimension
 13
-299.656618
 23
201.190726
 33
0.0
 14
-292.556654
 24
201.190726
 34
0.0
100
AcDbRotatedDimension
1001
ACAD
1000
DSTYLE
1002
{
1070
     6
1000
_OPEN
1070
     7
1000
_OPEN
1070
    41
1040
3.0
1070
   173
1070
     1
1070
   271
1070
     2
1070
   340
1005
2F
1070
   341
1005
27
1002
}
  0
DIMENSION
  5
46
100
AcDbEntity
  8
LY_1
  6
CONTINUOUS
 62
   130
100
AcDbDimension
  2
*D2
 10
-280.604186
 20
198.931611
 30
0.0
 11
-280.604186
 21
210.111884
 31
0.0
 70
   128
  1
<>
  3
MX_DIMSTYLE_CLASS1
100
AcDbAlignedDimension
 13
-296.106636
 23
203.431611
 33
0.0
 14
-296.106636
 24
198.931611
 34
0.0
 50
90.0
100
AcDbRotatedDimension
1001
ACAD
1000
DSTYLE
1002
{
1070
     6
1000
_OPEN
1070
     7
1000
_OPEN
1070
    41
1040
3.0
1070
   173
1070
     1
1070
   271
1070
     2
1070
   284
1070
     8
1070
   340
1005
40
1070
   341
1005
27
1002
}
  0
MTEXT
  5
47
100
AcDbEntity
  8
LY_1
  6
CONTINUOUS
 62
     7
100
AcDbMText
 10
-71.361702
 20
41.5
 30
0.0
 40
4.0
 41
0.0
 71
     1
 72
     1
  1
\W0.957;\A1;TSBSCS60
  0
LINE
  5
48
100
AcDbEntity
  8
LY_1
  6
CONTINUOUS
 62
   254
100
AcDbLine
 10
-117.904044
 20
163.9406
 30
0.0
 11
-117.904044
 21
253.9406
 31
0.0
  0
MTEXT
  5
49
100
AcDbEntity
  8
LY_1
  6
CONTINUOUS
 62
   255
100
AcDbMText
 10
-116.654067
 20
226.929673
 30
0.0
 40
3.2
 41
0.0
 71
     1
 72
     1
  1
\W0.781;\A1;アンダー
  0
MTEXT
  5
4A
100
AcDbEntity
  8
LY_1
  6
CONTINUOUS
 62
   255
100
AcDbMText
 10
-116.654067
 20
222.929673
 30
0.0
 40
3.2
 41
0.0
 71
     1
 72
     1
  1
\W0.781;\A1;カレント
  0
MTEXT
  5
4B
100
AcDbEntity
  8
LY_1
  6
CONTINUOUS
 62
   255
100
AcDbMText
 10
-116.553493
 20
218.929673
 30
0.0
 40
3.2
 41
0.0
 71
     1
 72
     1
  1
\W0.970;\A1;（UC)
  0
MTEXT
  5
4C
100
AcDbEntity
  8
LY_1
  6
CONTINUOUS
 62
   255
100
AcDbMText
 10
-101.35242
 20
225.739408
 30
0.0
 40
3.2
 41
0.0
 71
     1
 72
     1
  1
\W0.592;\A1;カレント設定
  0
LINE
  5
4D
100
AcDbEntity
  8
LY_1
  6
CONTINUOUS
 62
   254
100
AcDbLine
 10
-117.904044
 20
133.9406
 30
0.0
 11
-117.904044
 21
153.9406
 31
0.0
  0
MTEXT
  5
4E
100
AcDbEntity
  8
LY_1
  6
CONTINUOUS
 62
   255
100
AcDbMText
 10
-116.792956
 20
188.629673
 30
0.0
 40
3.2
 41
0.0
 71
     1
 72
     1
  1
\W0.521;\A1;（JAM）
  0
MTEXT
  5
4F
100
AcDbEntity
  8
LY_1
  6
CONTINUOUS
 62
   255
100
AcDbMText
 10
-116.654067
 20
197.129673
 30
0.0
 40
3.2
 41
0.0
 71
     1
 72
     1
  1
\W0.781;\A1;運転時
  0
MTEXT
  5
50
100
AcDbEntity
  8
LY_1
  6
CONTINUOUS
 62
   255
100
AcDbMText
 10
-116.654067
 20
193.129673
 30
0.0
 40
3.2
 41
0.0
 71
     1
 72
     1
  1
\W0.781;\A1;ロック
  0
MTEXT
  5
51
100
AcDbEntity
  8
LY_1
  6
CONTINUOUS
 62
   255
100
AcDbMText
 10
-116.78695
 20
203.629673
 30
0.0
 40
3.2
 41
0.0
 71
     1
 72
     1
  1
\W0.532;\A1;（STALL）
  0
MTEXT
  5
52
100
AcDbEntity
  8
LY_1
  6
CONTINUOUS
 62
   255
100
AcDbMText
 10
-116.654067
 20
212.129673
 30
0.0
 40
3.2
 41
0.0
 71
     1
 72
     1
  1
\W0.781;\A1;始動時
  0
MTEXT
  5
53
100
AcDbEntity
  8
LY_1
  6
CONTINUOUS
 62
   255
100
AcDbMText
 10
-116.654067
 20
208.129673
 30
0.0
 40
3.2
 41
0.0
 71
     1
 72
     1
  1
\W0.781;\A1;ロック
  0
MTEXT
  5
54
100
AcDbEntity
  8
LY_1
  6
CONTINUOUS
 62
   255
100
AcDbMText
 10
-116.611265
 20
248.075454
 30
0.0
 40
3.2
 41
0.0
 71
     1
 72
     1
  1
\W0.592;\A1;スタートタイム設定
  0
MTEXT
  5
55
100
AcDbEntity
  8
LY_1
  6
CONTINUOUS
 62
   255
100
AcDbMText
 10
-65.998913
 20
248.096981
 30
0.0
 40
3.2
 41
0.0
 71
     1
 72
     1
  1
\W0.995;\A1;0 ～ 12.0s
  0
LINE
  5
56
100
AcDbEntity
  8
LY_1
  6
CONTINUOUS
 62
   254
100
AcDbLine
 10
-117.904044
 20
243.9406
 30
0.0
 11
-17.904044
 21
243.9406
 31
0.0
  0
LINE
  5
57
100
AcDbEntity
  8
LY_1
  6
CONTINUOUS
 62
   254
100
AcDbLine
 10
-117.904044
 20
138.9406
 30
0.0
 11
-17.904044
 21
138.9406
 31
0.0
  0
LINE
  5
58
100
AcDbEntity
  8
LY_1
  6
CONTINUOUS
 62
   254
100
AcDbLine
 10
-17.904044
 20
73.9406
 30
0.0
 11
-17.904044
 21
273.9406
 31
0.0
  0
LINE
  5
59
100
AcDbEntity
  8
LY_1
  6
CONTINUOUS
 62
   254
100
AcDbLine
 10
-137.904044
 20
73.9406
 30
0.0
 11
-137.904044
 21
273.9406
 31
0.0
  0
LINE
  5
5A
100
AcDbEntity
  8
LY_1
  6
CONTINUOUS
 62
   254
100
AcDbLine
 10
-117.904044
 20
148.9406
 30
0.0
 11
-17.904044
 21
148.9406
 31
0.0
  0
LINE
  5
5B
100
AcDbEntity
  8
LY_1
  6
CONTINUOUS
 62
   254
100
AcDbLine
 10
-137.904044
 20
163.9406
 30
0.0
 11
-17.904044
 21
163.9406
 31
0.0
  0
LINE
  5
5C
100
AcDbEntity
  8
LY_1
  6
CONTINUOUS
 62
   254
100
AcDbLine
 10
-117.904044
 20
183.9406
 30
0.0
 11
-17.904044
 21
183.9406
 31
0.0
  0
LINE
  5
5D
100
AcDbEntity
  8
LY_1
  6
CONTINUOUS
 62
   254
100
AcDbLine
 10
-117.904044
 20
213.9406
 30
0.0
 11
-17.904044
 21
213.9406
 31
0.0
  0
LINE
  5
5E
100
AcDbEntity
  8
LY_1
  6
CONTINUOUS
 62
   254
100
AcDbLine
 10
-103.263624
 20
218.9406
 30
0.0
 11
-17.904044
 21
218.9406
 31
0.0
  0
LINE
  5
5F
100
AcDbEntity
  8
LY_1
  6
CONTINUOUS
 62
   254
100
AcDbLine
 10
-103.263624
 20
233.9406
 30
0.0
 11
-17.904044
 21
233.9406
 31
0.0
  0
LINE
  5
60
100
AcDbEntity
  8
LY_1
  6
CONTINUOUS
 62
   254
100
AcDbLine
 10
-117.904044
 20
248.9406
 30
0.0
 11
-17.904044
 21
248.9406
 31
0.0
  0
LINE
  5
61
100
AcDbEntity
  8
LY_1
  6
CONTINUOUS
 62
   254
100
AcDbLine
 10
-137.904044
 20
258.9406
 30
0.0
 11
-17.904044
 21
258.9406
 31
0.0
  0
LINE
  5
62
100
AcDbEntity
  8
LY_1
  6
CONTINUOUS
 62
   254
100
AcDbLine
 10
-117.904044
 20
263.9406
 30
0.0
 11
-17.904044
 21
263.9406
 31
0.0
  0
LINE
  5
63
100
AcDbEntity
  8
LY_1
  6
CONTINUOUS
 62
   254
100
AcDbLine
 10
-137.904044
 20
268.9406
 30
0.0
 11
-17.904044
 21
268.9406
 31
0.0
  0
LINE
  5
64
100
AcDbEntity
  8
LY_1
  6
CONTINUOUS
 62
   254
100
AcDbLine
 10
-117.904044
 20
148.9406
 30
0.0
 11
-17.904044
 21
148.9406
 31
0.0
  0
LINE
  5
65
100
AcDbEntity
  8
LY_1
  6
CONTINUOUS
 62
   254
100
AcDbLine
 10
-117.904044
 20
148.9406
 30
0.0
 11
-17.904044
 21
148.9406
 31
0.0
  0
LINE
  5
66
100
AcDbEntity
  8
LY_1
  6
CONTINUOUS
 62
   254
100
AcDbLine
 10
-137.904044
 20
273.9406
 30
0.0
 11
-17.904044
 21
273.9406
 31
0.0
  0
LINE
  5
67
100
AcDbEntity
  8
LY_1
  6
CONTINUOUS
 62
   254
100
AcDbLine
 10
-117.904044
 20
118.9406
 30
0.0
 11
-17.904044
 21
118.9406
 31
0.0
  0
LINE
  5
68
100
AcDbEntity
  8
LY_1
  6
CONTINUOUS
 62
   254
100
AcDbLine
 10
-137.904044
 20
108.9406
 30
0.0
 11
-17.904044
 21
108.9406
 31
0.0
  0
LINE
  5
69
100
AcDbEntity
  8
LY_1
  6
CONTINUOUS
 62
   254
100
AcDbLine
 10
-117.904044
 20
103.9406
 30
0.0
 11
-17.904044
 21
103.9406
 31
0.0
  0
LINE
  5
6A
100
AcDbEntity
  8
LY_1
  6
CONTINUOUS
 62
   254
100
AcDbLine
 10
-117.904044
 20
98.9406
 30
0.0
 11
-17.904044
 21
98.9406
 31
0.0
  0
LINE
  5
6B
100
AcDbEntity
  8
LY_1
  6
CONTINUOUS
 62
   254
100
AcDbLine
 10
-117.904044
 20
93.9406
 30
0.0
 11
-17.904044
 21
93.9406
 31
0.0
  0
LINE
  5
6C
100
AcDbEntity
  8
LY_1
  6
CONTINUOUS
 62
   254
100
AcDbLine
 10
-117.904044
 20
88.9406
 30
0.0
 11
-17.904044
 21
88.9406
 31
0.0
  0
LINE
  5
6D
100
AcDbEntity
  8
LY_1
  6
CONTINUOUS
 62
   254
100
AcDbLine
 10
-117.904044
 20
83.9406
 30
0.0
 11
-17.904044
 21
83.9406
 31
0.0
  0
LINE
  5
6E
100
AcDbEntity
  8
LY_1
  6
CONTINUOUS
 62
   254
100
AcDbLine
 10
-137.904044
 20
78.9406
 30
0.0
 11
-17.904044
 21
78.9406
 31
0.0
  0
LINE
  5
6F
100
AcDbEntity
  8
LY_1
  6
CONTINUOUS
 62
   254
100
AcDbLine
 10
-137.904044
 20
73.9406
 30
0.0
 11
-17.904044
 21
73.9406
 31
0.0
  0
LINE
  5
70
100
AcDbEntity
  8
LY_1
  6
CONTINUOUS
 62
   254
100
AcDbLine
 10
-137.904044
 20
153.9406
 30
0.0
 11
-17.904044
 21
153.9406
 31
0.0
  0
LINE
  5
71
100
AcDbEntity
  8
LY_1
  6
CONTINUOUS
 62
   254
100
AcDbLine
 10
-117.904044
 20
73.9406
 30
0.0
 11
-117.904044
 21
128.9406
 31
0.0
  0
MTEXT
  5
72
100
AcDbEntity
  8
LY_1
  6
CONTINUOUS
 62
   255
100
AcDbMText
 10
-66.123669
 20
268.116717
 30
0.0
 40
3.2
 41
0.0
 71
     1
 72
     1
  1
\W0.761;\A1;100 ～ 240VAC,50/60Hz
  0
MTEXT
  5
73
100
AcDbEntity
  8
LY_1
  6
CONTINUOUS
 62
   255
100
AcDbMText
 10
-109.632567
 20
268.178264
 30
0.0
 40
3.2
 41
0.0
 71
     1
 72
     1
  1
\W1.223;\A1;A1    - A2
  0
MTEXT
  5
74
100
AcDbEntity
  8
LY_1
  6
CONTINUOUS
 62
   255
100
AcDbMText
 10
-66.125903
 20
262.949598
 30
0.0
 40
3.2
 41
0.0
 71
     1
 72
     1
  1
\W0.757;\A1;100 ～ 240VDC
  0
MTEXT
  5
75
100
AcDbEntity
  8
LY_1
  6
CONTINUOUS
 62
   255
100
AcDbMText
 10
-110.179163
 20
273.207885
 30
0.0
 40
3.2
 41
0.0
 71
     1
 72
     1
  1
\W0.781;\A1;形　　　番
  0
MTEXT
  5
76
100
AcDbEntity
  8
LY_1
  6
CONTINUOUS
 62
   255
100
AcDbMText
 10
-136.316404
 20
265.703913
 30
0.0
 40
3.2
 41
0.0
 71
     1
 72
     1
  1
\W0.613;\A1;制御電源電圧
  0
MTEXT
  5
77
100
AcDbEntity
  8
LY_1
  6
CONTINUOUS
 62
   255
100
AcDbMText
 10
-136.282451
 20
257.945767
 30
0.0
 40
3.2
 41
0.0
 71
     1
 72
     1
  1
\W0.613;\A1;最大モータ回路電圧
  0
MTEXT
  5
78
100
AcDbEntity
  8
LY_1
  6
CONTINUOUS
 62
   255
100
AcDbMText
 10
-66.157365
 20
258.054432
 30
0.0
 40
3.2
 41
0.0
 71
     1
 72
     1
  1
\W0.698;\A1;690VAC 50/60Hz
  0
MTEXT
  5
79
100
AcDbEntity
  8
LY_1
  6
CONTINUOUS
 62
   255
100
AcDbMText
 10
-136.175907
 20
210.89074
 30
0.0
 40
3.2
 41
0.0
 71
     1
 72
     1
  1
\W0.613;\A1;保護機能
  0
MTEXT
  5
7A
100
AcDbEntity
  8
LY_1
  6
CONTINUOUS
 62
   255
100
AcDbMText
 10
-116.654067
 20
241.929673
 30
0.0
 40
3.2
 41
0.0
 71
     1
 72
     1
  1
\W0.781;\A1;オーバー
  0
MTEXT
  5
7B
100
AcDbEntity
  8
LY_1
  6
CONTINUOUS
 62
   255
100
AcDbMText
 10
-116.654067
 20
237.929673
 30
0.0
 40
3.2
 41
0.0
 71
     1
 72
     1
  1
\W0.781;\A1;カレント
  0
MTEXT
  5
7C
100
AcDbEntity
  8
LY_1
  6
CONTINUOUS
 62
   255
100
AcDbMText
 10
-116.553493
 20
233.929673
 30
0.0
 40
3.2
 41
0.0
 71
     1
 72
     1
  1
\W0.970;\A1;（OC)
  0
MTEXT
  5
7D
100
AcDbEntity
  8
LY_1
  6
CONTINUOUS
 62
   255
100
AcDbMText
 10
-101.35242
 20
240.739408
 30
0.0
 40
3.2
 41
0.0
 71
     1
 72
     1
  1
\W0.592;\A1;カレント設定
  0
LINE
  5
7E
100
AcDbEntity
  8
LY_1
  6
CONTINUOUS
 62
   254
100
AcDbLine
 10
-67.904044
 20
73.9406
 30
0.0
 11
-67.904044
 21
273.9406
 31
0.0
  0
MTEXT
  5
7F
100
AcDbEntity
  8
LY_1
  6
CONTINUOUS
 62
   255
100
AcDbMText
 10
-53.566037
 20
273.187527
 30
0.0
 40
3.2
 41
0.0
 71
     1
 72
     1
  1
\W0.934;\A1;TSBSCＳ60
  0
MTEXT
  5
80
100
AcDbEntity
  8
LY_1
  6
CONTINUOUS
 62
   255
100
AcDbMText
 10
-116.347297
 20
183.347797
 30
0.0
 40
3.2
 41
0.0
 71
     1
 72
     1
  1
\W0.651;\A1;反相
  0
MTEXT
  5
81
100
AcDbEntity
  8
LY_1
  6
CONTINUOUS
 62
   255
100
AcDbMText
 10
-116.347297
 20
177.991392
 30
0.0
 40
3.2
 41
0.0
 71
     1
 72
     1
  1
\W0.651;\A1;欠相
  0
MTEXT
  5
82
100
AcDbEntity
  8
LY_1
  6
CONTINUOUS
 62
   255
100
AcDbMText
 10
-116.295683
 20
172.874046
 30
0.0
 40
3.2
 41
0.0
 71
     1
 72
     1
  1
\W0.651;\A1;不平衡
  0
MTEXT
  5
83
100
AcDbEntity
  8
LY_1
  6
CONTINUOUS
 62
   255
100
AcDbMText
 10
-65.975624
 20
182.972411
 30
0.0
 40
3.2
 41
0.0
 71
     1
 72
     1
  1
\W0.784;\A1;0.15s以内(oFF:不動作)
  0
LINE
  5
84
100
AcDbEntity
  8
LY_1
  6
CONTINUOUS
 62
   254
100
AcDbLine
 10
-117.904044
 20
178.9406
 30
0.0
 11
-17.904044
 21
178.9406
 31
0.0
  0
LINE
  5
85
100
AcDbEntity
  8
LY_1
  6
CONTINUOUS
 62
   254
100
AcDbLine
 10
-117.904044
 20
173.9406
 30
0.0
 11
-17.904044
 21
173.9406
 31
0.0
  0
MTEXT
  5
86
100
AcDbEntity
  8
LY_1
  6
CONTINUOUS
 62
   255
100
AcDbMText
 10
-66.095457
 20
177.941269
 30
0.0
 40
3.2
 41
0.0
 71
     1
 72
     1
  1
\W0.814;\A1;0.5 ～ 5s(oFF:不動作)
  0
MTEXT
  5
87
100
AcDbEntity
  8
LY_1
  6
CONTINUOUS
 62
   255
100
AcDbMText
 10
-136.0797
 20
160.975454
 30
0.0
 40
3.2
 41
0.0
 71
     1
 72
     1
  1
\W0.651;\A1;アラーム機能
  0
MTEXT
  5
88
100
AcDbEntity
  8
LY_1
  6
CONTINUOUS
 62
   255
100
AcDbMText
 10
-66.161926
 20
157.847842
 30
0.0
 40
3.2
 41
0.0
 71
     1
 72
     1
  1
\W0.689;\A1;（OFF：不動作）
  0
MTEXT
  5
89
100
AcDbEntity
  8
LY_1
  6
CONTINUOUS
 62
   255
100
AcDbMText
 10
-136.183161
 20
150.558176
 30
0.0
 40
3.2
 41
0.0
 71
     1
 72
     1
  1
\W0.613;\A1;リレ－出力
  0
MTEXT
  5
8A
100
AcDbEntity
  8
LY_1
  6
CONTINUOUS
 62
   255
100
AcDbMText
 10
-116.5797
 20
152.992846
 30
0.0
 40
3.2
 41
0.0
 71
     1
 72
     1
  1
\W0.651;\A1;接点容量
  0
MTEXT
  5
8B
100
AcDbEntity
  8
LY_1
  6
CONTINUOUS
 62
   255
100
AcDbMText
 10
-66.403575
 20
153.182777
 30
0.0
 40
3.2
 41
0.0
 71
     1
 72
     1
  1
\W0.735;\A1;250VAC 3A(cos\U+2205=1)
  0
MTEXT
  5
8C
100
AcDbEntity
  8
LY_1
  6
CONTINUOUS
 62
   255
100
AcDbMText
 10
-116.5797
 20
147.880537
 30
0.0
 40
3.2
 41
0.0
 71
     1
 72
     1
  1
\W0.651;\A1;最小適用負荷
  0
MTEXT
  5
8D
100
AcDbEntity
  8
LY_1
  6
CONTINUOUS
 62
   255
100
AcDbMText
 10
-66.192046
 20
147.897898
 30
0.0
 40
3.2
 41
0.0
 71
     1
 72
     1
  1
\W0.693;\A1;24VDC 4mA
  0
MTEXT
  5
8E
100
AcDbEntity
  8
LY_1
  6
CONTINUOUS
 62
   255
100
AcDbMText
 10
-66.168558
 20
142.910653
 30
0.0
 40
3.2
 41
0.0
 71
     1
 72
     1
  1
\W0.737;\A1;定格負荷で100,000回
  0
MTEXT
  5
8F
100
AcDbEntity
  8
LY_1
  6
CONTINUOUS
 62
   255
100
AcDbMText
 10
-116.722196
 20
138.07792
 30
0.0
 40
3.2
 41
0.0
 71
     1
 72
     1
  1
\W0.592;\A1;接点構成
  0
MTEXT
  5
90
100
AcDbEntity
  8
LY_1
  6
CONTINUOUS
 62
   255
100
AcDbMText
 10
-66.182351
 20
227.936981
 30
0.0
 40
2.88
 41
0.0
 71
     1
 72
     1
  1
\W0.723;\A1;ＭＩＮ≦ＵＣ設定＜ＯＣ設定\P（ＯＦＦ:不動作）
  0
MTEXT
  5
91
100
AcDbEntity
  8
LY_1
  6
CONTINUOUS
 62
   255
100
AcDbMText
 10
-65.99078
 20
217.929862
 30
0.0
 40
3.2
 41
0.0
 71
     1
 72
     1
  1
\W1.010;\A1;0.2 ～ 5.0s
  0
MTEXT
  5
92
100
AcDbEntity
  8
LY_1
  6
CONTINUOUS
 62
   255
100
AcDbMText
 10
-136.117134
 20
118.474712
 30
0.0
 40
3.2
 41
0.0
 71
     1
 72
     1
  1
\W0.694;\A1;絶縁耐圧
  0
MTEXT
  5
93
100
AcDbEntity
  8
LY_1
  6
CONTINUOUS
 62
   255
100
AcDbMText
 10
-115.779938
 20
122.987052
 30
0.0
 40
3.2
 41
0.0
 71
     1
 72
     1
  1
\W0.711;\A1;回路-ケース間
  0
MTEXT
  5
94
100
AcDbEntity
  8
LY_1
  6
CONTINUOUS
 62
   255
100
AcDbMText
 10
-136.312979
 20
98.089267
 30
0.0
 40
3.2
 41
0.0
 71
     1
 72
     1
  1
\W0.694;\A1;使用環境
  0
MTEXT
  5
95
100
AcDbEntity
  8
LY_1
  6
CONTINUOUS
 62
   255
100
AcDbMText
 10
-136.401919
 20
78.177059
 30
0.0
 40
3.2
 41
0.0
 71
     1
 72
     1
  1
\W0.579;\A1;概略質量
  0
MTEXT
  5
96
100
AcDbEntity
  8
LY_1
  6
CONTINUOUS
 62
   255
100
AcDbMText
 10
-115.835575
 20
107.999593
 30
0.0
 40
3.2
 41
0.0
 71
     1
 72
     1
  1
\W0.694;\A1;使用場所
  0
MTEXT
  5
97
100
AcDbEntity
  8
LY_1
  6
CONTINUOUS
 62
   255
100
AcDbMText
 10
-116.012273
 20
102.944213
 30
0.0
 40
3.2
 41
0.0
 71
     1
 72
     1
  1
\W0.694;\A1;周囲温度
  0
MTEXT
  5
98
100
AcDbEntity
  8
LY_1
  6
CONTINUOUS
 62
   255
100
AcDbMText
 10
-116.065669
 20
98.012135
 30
0.0
 40
3.2
 41
0.0
 71
     1
 72
     1
  1
\W0.694;\A1;周囲湿度
  0
MTEXT
  5
99
100
AcDbEntity
  8
LY_1
  6
CONTINUOUS
 62
   255
100
AcDbMText
 10
-116.012273
 20
92.956755
 30
0.0
 40
3.2
 41
0.0
 71
     1
 72
     1
  1
\W0.694;\A1;標　　高
  0
MTEXT
  5
9A
100
AcDbEntity
  8
LY_1
  6
CONTINUOUS
 62
   255
100
AcDbMText
 10
-115.988971
 20
87.778073
 30
0.0
 40
3.2
 41
0.0
 71
     1
 72
     1
  1
\W0.694;\A1;雰囲気
  0
MTEXT
  5
9B
100
AcDbEntity
  8
LY_1
  6
CONTINUOUS
 62
   255
100
AcDbMText
 10
-115.912273
 20
83.092598
 30
0.0
 40
3.2
 41
0.0
 71
     1
 72
     1
  1
\W0.694;\A1;振　　動
  0
MTEXT
  5
9C
100
AcDbEntity
  8
LY_1
  6
CONTINUOUS
 62
   255
100
AcDbMText
 10
-66.005075
 20
107.999593
 30
0.0
 40
3.2
 41
0.0
 71
     1
 72
     1
  1
\W0.694;\A1;屋内、水のかからない所
  0
MTEXT
  5
9D
100
AcDbEntity
  8
LY_1
  6
CONTINUOUS
 62
   255
100
AcDbMText
 10
-65.732279
 20
103.170805
 30
0.0
 40
3.2
 41
0.0
 71
     1
 72
     1
  1
\W0.907;\A1;-20 ～ 60℃
  0
MTEXT
  5
9E
100
AcDbEntity
  8
LY_1
  6
CONTINUOUS
 62
   255
100
AcDbMText
 10
-66.061589
 20
98.135437
 30
0.0
 40
3.2
 41
0.0
 71
     1
 72
     1
  1
\W0.820;\A1;30 ～ 85%RH(結露なきこと）
  0
MTEXT
  5
9F
100
AcDbEntity
  8
LY_1
  6
CONTINUOUS
 62
   255
100
AcDbMText
 10
-66.171163
 20
92.956755
 30
0.0
 40
3.2
 41
0.0
 71
     1
 72
     1
  1
\W0.845;\A1;2000m以下
  0
MTEXT
  5
A0
100
AcDbEntity
  8
LY_1
  6
CONTINUOUS
 62
   255
100
AcDbMText
 10
-66.103706
 20
88.147978
 30
0.0
 40
3.2
 41
0.0
 71
     1
 72
     1
  1
\W0.510;\A1;腐食性ガス、オイルミスト、塵埃のないこと
  0
MTEXT
  5
A1
100
AcDbEntity
  8
LY_1
  6
CONTINUOUS
 62
   255
100
AcDbMText
 10
-66.20868
 20
118.038198
 30
0.0
 40
3.2
 41
0.0
 71
     1
 72
     1
  1
\W0.661;\A1;1０００ＶＡＣ,1分間
  0
LINE
  5
A2
100
AcDbEntity
  8
LY_1
  6
CONTINUOUS
 62
   254
100
AcDbLine
 10
-103.263624
 20
183.9406
 30
0.0
 11
-103.263624
 21
243.9406
 31
0.0
  0
MTEXT
  5
A3
100
AcDbEntity
  8
LY_1
  6
CONTINUOUS
 62
   255
100
AcDbMText
 10
-66.174963
 20
212.874696
 30
0.0
 40
2.88
 41
0.0
 71
     1
 72
     1
  1
\W0.739;\A1;オーバーカレント設定値の2～8倍\P（OFF：不動作）
  0
LINE
  5
A4
100
AcDbEntity
  8
LY_1
  6
CONTINUOUS
 62
   254
100
AcDbLine
 10
-117.904044
 20
143.931087
 30
0.0
 11
-17.904044
 21
143.931087
 31
0.0
  0
MTEXT
  5
A5
100
AcDbEntity
  8
LY_1
  6
CONTINUOUS
 62
   255
100
AcDbMText
 10
-116.611265
 20
142.910237
 30
0.0
 40
3.2
 41
0.0
 71
     1
 72
     1
  1
\W0.592;\A1;電気的寿命
  0
LINE
  5
A6
100
AcDbEntity
  8
LY_1
  6
CONTINUOUS
 62
   254
100
AcDbLine
 10
-137.904044
 20
253.9406
 30
0.0
 11
-17.904044
 21
253.9406
 31
0.0
  0
LINE
  5
A7
100
AcDbEntity
  8
LY_1
  6
CONTINUOUS
 62
   254
100
AcDbLine
 10
-117.904044
 20
258.9406
 30
0.0
 11
-117.904044
 21
268.9406
 31
0.0
  0
MTEXT
  5
A8
100
AcDbEntity
  8
LY_1
  6
CONTINUOUS
 62
   255
100
AcDbMText
 10
-116.611265
 20
253.075454
 30
0.0
 40
3.2
 41
0.0
 71
     1
 72
     1
  1
\W0.592;\A1;動作モード
  0
MTEXT
  5
A9
100
AcDbEntity
  8
LY_1
  6
CONTINUOUS
 62
   255
100
AcDbMText
 10
-66.217073
 20
252.847842
 30
0.0
 40
3.2
 41
0.0
 71
     1
 72
     1
  1
\W0.586;\A1;限時(dE),サーマル（ｔｈ）,インバース(In)
  0
LINE
  5
AA
100
AcDbEntity
  8
LY_1
  6
CONTINUOUS
 62
   254
100
AcDbLine
 10
-87.263624
 20
238.9406
 30
0.0
 11
-17.904044
 21
238.9406
 31
0.0
  0
LINE
  5
AB
100
AcDbEntity
  8
LY_1
  6
CONTINUOUS
 62
   254
100
AcDbLine
 10
-87.263624
 20
233.9406
 30
0.0
 11
-87.263624
 21
243.9406
 31
0.0
  0
MTEXT
  5
AC
100
AcDbEntity
  8
LY_1
  6
CONTINUOUS
 62
   255
100
AcDbMText
 10
-85.20141
 20
238.239408
 30
0.0
 40
3.2
 41
0.0
 71
     1
 72
     1
  1
\W0.875;\A1;th,In
  0
MTEXT
  5
AD
100
AcDbEntity
  8
LY_1
  6
CONTINUOUS
 62
   255
100
AcDbMText
 10
-85.279188
 20
243.239408
 30
0.0
 40
3.2
 41
0.0
 71
     1
 72
     1
  1
\W0.729;\A1;dE
  0
MTEXT
  5
AE
100
AcDbEntity
  8
LY_1
  6
CONTINUOUS
 62
   255
100
AcDbMText
 10
-65.99078
 20
233.096981
 30
0.0
 40
3.2
 41
0.0
 71
     1
 72
     1
  1
\W1.010;\A1;0.2 ～ 5.0s
  0
MTEXT
  5
AF
100
AcDbEntity
  8
LY_1
  6
CONTINUOUS
 62
   255
100
AcDbMText
 10
-101.47784
 20
232.97294
 30
0.0
 40
3.2
 41
0.0
 71
     1
 72
     1
  1
\W0.651;\A1;ショックタイム設定
  0
LINE
  5
B0
100
AcDbEntity
  8
LY_1
  6
CONTINUOUS
 62
   254
100
AcDbLine
 10
-117.904044
 20
228.9406
 30
0.0
 11
-17.904044
 21
228.9406
 31
0.0
  0
LINE
  5
B1
100
AcDbEntity
  8
LY_1
  6
CONTINUOUS
 62
   254
100
AcDbLine
 10
-117.904044
 20
198.9406
 30
0.0
 11
-17.904044
 21
198.9406
 31
0.0
  0
MTEXT
  5
B2
100
AcDbEntity
  8
LY_1
  6
CONTINUOUS
 62
   255
100
AcDbMText
 10
-101.318259
 20
210.67294
 30
0.0
 40
3.2
 41
0.0
 71
     1
 72
     1
  1
\W0.651;\A1;カレント設定
  0
MTEXT
  5
B3
100
AcDbEntity
  8
LY_1
  6
CONTINUOUS
 62
   255
100
AcDbMText
 10
-66.149964
 20
203.034696
 30
0.0
 40
3.2
 41
0.0
 71
     1
 72
     1
  1
\W0.712;\A1;スタートタイム後0.5ｓ以内
  0
MTEXT
  5
B4
100
AcDbEntity
  8
LY_1
  6
CONTINUOUS
 62
   255
100
AcDbMText
 10
-101.318259
 20
202.97294
 30
0.0
 40
3.2
 41
0.0
 71
     1
 72
     1
  1
\W0.651;\A1;動作時間設定
  0
LINE
  5
B5
100
AcDbEntity
  8
LY_1
  6
CONTINUOUS
 62
   254
100
AcDbLine
 10
-103.263624
 20
203.9406
 30
0.0
 11
-17.904044
 21
203.9406
 31
0.0
  0
MTEXT
  5
B6
100
AcDbEntity
  8
LY_1
  6
CONTINUOUS
 62
   255
100
AcDbMText
 10
-101.318259
 20
187.97294
 30
0.0
 40
3.2
 41
0.0
 71
     1
 72
     1
  1
\W0.651;\A1;動作時間設定
  0
MTEXT
  5
B7
100
AcDbEntity
  8
LY_1
  6
CONTINUOUS
 62
   255
100
AcDbMText
 10
-101.318259
 20
195.67294
 30
0.0
 40
3.2
 41
0.0
 71
     1
 72
     1
  1
\W0.651;\A1;カレント設定
  0
LINE
  5
B8
100
AcDbEntity
  8
LY_1
  6
CONTINUOUS
 62
   254
100
AcDbLine
 10
-103.263624
 20
188.9406
 30
0.0
 11
-17.904044
 21
188.9406
 31
0.0
  0
MTEXT
  5
B9
100
AcDbEntity
  8
LY_1
  6
CONTINUOUS
 62
   255
100
AcDbMText
 10
-66.150785
 20
197.874696
 30
0.0
 40
2.88
 41
0.0
 71
     1
 72
     1
  1
\W0.789;\A1;オーバーカレント設定値の1.5～8倍\P（OFF：不動作）
  0
MTEXT
  5
BA
100
AcDbEntity
  8
LY_1
  6
CONTINUOUS
 62
   255
100
AcDbMText
 10
-66.082873
 20
188.034696
 30
0.0
 40
3.2
 41
0.0
 71
     1
 72
     1
  1
\W0.838;\A1;0.2 ～ 5s
  0
LINE
  5
BB
100
AcDbEntity
  8
LY_1
  6
CONTINUOUS
 62
   254
100
AcDbLine
 10
-137.904044
 20
133.9406
 30
0.0
 11
-17.904044
 21
133.9406
 31
0.0
  0
MTEXT
  5
BC
100
AcDbEntity
  8
LY_1
  6
CONTINUOUS
 62
   255
100
AcDbMText
 10
-66.109914
 20
137.910653
 30
0.0
 40
3.2
 41
0.0
 71
     1
 72
     1
  1
\W0.847;\A1;OC:1c, AL/UC/TO:1a
  0
LINE
  5
BD
100
AcDbEntity
  8
LY_1
  6
CONTINUOUS
 62
   254
100
AcDbLine
 10
-137.904044
 20
128.9406
 30
0.0
 11
-17.904044
 21
128.9406
 31
0.0
  0
MTEXT
  5
BE
100
AcDbEntity
  8
LY_1
  6
CONTINUOUS
 62
   255
100
AcDbMText
 10
-136.060707
 20
132.974712
 30
0.0
 40
3.2
 41
0.0
 71
     1
 72
     1
  1
\W0.613;\A1;アナログ出力
  0
MTEXT
  5
BF
100
AcDbEntity
  8
LY_1
  6
CONTINUOUS
 62
   255
100
AcDbMText
 10
-66.155919
 20
132.910653
 30
0.0
 40
3.2
 41
0.0
 71
     1
 72
     1
  1
\W0.760;\A1;4 ～ 20mA
  0
MTEXT
  5
C0
100
AcDbEntity
  8
LY_1
  6
CONTINUOUS
 62
   255
100
AcDbMText
 10
-66.182139
 20
127.910653
 30
0.0
 40
3.2
 41
0.0
 71
     1
 72
     1
  1
\W0.711;\A1;RS485 Modbus
  0
MTEXT
  5
C1
100
AcDbEntity
  8
LY_1
  6
CONTINUOUS
 62
   255
100
AcDbMText
 10
-136.060707
 20
127.974712
 30
0.0
 40
3.2
 41
0.0
 71
     1
 72
     1
  1
\W0.613;\A1;通信機能
  0
LINE
  5
C2
100
AcDbEntity
  8
LY_1
  6
CONTINUOUS
 62
   254
100
AcDbLine
 10
-137.904044
 20
123.9406
 30
0.0
 11
-17.904044
 21
123.9406
 31
0.0
  0
MTEXT
  5
C3
100
AcDbEntity
  8
LY_1
  6
CONTINUOUS
 62
   255
100
AcDbMText
 10
-104.47784
 20
167.97294
 30
0.0
 40
3.2
 41
0.0
 71
     1
 72
     1
  1
\W0.651;\A1;動作時間設定
  0
MTEXT
  5
C4
100
AcDbEntity
  8
LY_1
  6
CONTINUOUS
 62
   255
100
AcDbMText
 10
-104.47784
 20
172.97294
 30
0.0
 40
3.2
 41
0.0
 71
     1
 72
     1
  1
\W0.651;\A1;カレント設定
  0
LINE
  5
C5
100
AcDbEntity
  8
LY_1
  6
CONTINUOUS
 62
   254
100
AcDbLine
 10
-106.263624
 20
173.9406
 30
0.0
 11
-106.263624
 21
163.9406
 31
0.0
  0
MTEXT
  5
C6
100
AcDbEntity
  8
LY_1
  6
CONTINUOUS
 62
   255
100
AcDbMText
 10
-66.068495
 20
168.034696
 30
0.0
 40
3.2
 41
0.0
 71
     1
 72
     1
  1
\W0.865;\A1;1 ～ 10s
  0
LINE
  5
C7
100
AcDbEntity
  8
LY_1
  6
CONTINUOUS
 62
   254
100
AcDbLine
 10
-106.263624
 20
168.9406
 30
0.0
 11
-17.904044
 21
168.9406
 31
0.0
  0
MTEXT
  5
C8
100
AcDbEntity
  8
LY_1
  6
CONTINUOUS
 62
   255
100
AcDbMText
 10
-66.218673
 20
123.038198
 30
0.0
 40
3.2
 41
0.0
 71
     1
 72
     1
  1
\W0.643;\A1;2０００ＶＡＣ,1分間
  0
MTEXT
  5
C9
100
AcDbEntity
  8
LY_1
  6
CONTINUOUS
 62
   255
100
AcDbMText
 10
-66.114018
 20
173.034696
 30
0.0
 40
3.2
 41
0.0
 71
     1
 72
     1
  1
\W0.779;\A1;10 ～ 50%(oFF:不動作)
  0
MTEXT
  5
CA
100
AcDbEntity
  8
LY_1
  6
CONTINUOUS
 62
   255
100
AcDbMText
 10
-66.005075
 20
83.147978
 30
0.0
 40
3.2
 41
0.0
 71
     1
 72
     1
  1
\W0.694;\A1;５．９ｍ／ｓ{\A1;\H0.50x;２　}以下
  0
MTEXT
  5
CB
100
AcDbEntity
  8
LY_1
  6
CONTINUOUS
 62
   255
100
AcDbMText
 10
-65.931001
 20
78.147978
 30
0.0
 40
3.2
 41
0.0
 71
     1
 72
     1
  1
\W0.833;\A1;0.3kg
  0
MTEXT
  5
CC
100
AcDbEntity
  8
LY_1
  6
CONTINUOUS
 62
   255
100
AcDbMText
 10
-101.47784
 20
217.97294
 30
0.0
 40
3.2
 41
0.0
 71
     1
 72
     1
  1
\W0.651;\A1;ショックタイム設定
  0
MTEXT
  5
CD
100
AcDbEntity
  8
LY_1
  6
CONTINUOUS
 62
   255
100
AcDbMText
 10
-66.218673
 20
113.038198
 30
0.0
 40
3.2
 41
0.0
 71
     1
 72
     1
  1
\W0.643;\A1;2０００ＶＡＣ,1分間
  0
MTEXT
  5
CE
100
AcDbEntity
  8
LY_1
  6
CONTINUOUS
 62
   255
100
AcDbMText
 10
-115.788971
 20
112.987052
 30
0.0
 40
3.2
 41
0.0
 71
     1
 72
     1
  1
\W0.694;\A1;回路
  0
LINE
  5
CF
100
AcDbEntity
  8
LY_1
  6
CONTINUOUS
 62
   254
100
AcDbLine
 10
-117.904044
 20
113.9406
 30
0.0
 11
-17.904044
 21
113.9406
 31
0.0
  0
MTEXT
  5
D0
100
AcDbEntity
  8
LY_1
  6
CONTINUOUS
 62
   255
100
AcDbMText
 10
-109.667653
 20
263.178264
 30
0.0
 40
3.2
 41
0.0
 71
     1
 72
     1
  1
\W1.157;\A1;A1(+) - A2(-)
  0
MTEXT
  5
D1
100
AcDbEntity
  8
LY_1
  6
CONTINUOUS
 62
   255
100
AcDbMText
 10
-115.788971
 20
117.987052
 30
0.0
 40
3.2
 41
0.0
 71
     1
 72
     1
  1
\W0.694;\A1;接点間
  0
MTEXT
  5
D2
100
AcDbEntity
  8
LY_1
  6
CONTINUOUS
 62
   255
100
AcDbMText
 10
-66.148353
 20
162.847842
 30
0.0
 40
3.2
 41
0.0
 71
     1
 72
     1
  1
\W0.715;\A1;オーバーカレント設定値の50～100%
  0
MTEXT
  5
D3
100
AcDbEntity
  8
LY_1
  6
CONTINUOUS
 62
   255
100
AcDbMText
 10
-136.535403
 20
279.67324
 30
0.0
 40
3.15
 41
0.0
 71
     1
 72
     1
  1
\W0.833;\A1;仕　　様
  0
MTEXT
  5
D4
100
AcDbEntity
  8
LY_1
  6
CONTINUOUS
 62
   255
100
AcDbMText
 10
-66.014867
 20
243.054432
 30
0.0
 40
3.2
 41
0.0
 71
     1
 72
     1
  1
\W0.965;\A1;10.0 ～ 60.0A
  0
MTEXT
  5
D5
100
AcDbEntity
  8
LY_1
  6
CONTINUOUS
 62
   255
100
AcDbMText
 10
-66.024158
 20
238.054432
 30
0.0
 40
3.2
 41
0.0
 71
     1
 72
     1
  1
\W0.948;\A1;10.0 ～ 32.0A
  0
LINE
  5
D6
100
AcDbEntity
  8
LY_1
  6
CONTINUOUS
 62
   251
100
AcDbLine
 10
-261.080108
 20
217.572378
 30
0.0
 11
-261.586879
 21
217.572378
 31
0.0
  0
LINE
  5
D7
100
AcDbEntity
  8
LY_1
  6
CONTINUOUS
 62
   251
100
AcDbLine
 10
-261.080108
 20
183.472378
 30
0.0
 11
-261.080108
 21
217.572378
 31
0.0
  0
LINE
  5
D8
100
AcDbEntity
  8
LY_1
  6
CONTINUOUS
 62
     7
100
AcDbLine
 10
-259.182937
 20
183.472378
 30
0.0
 11
-259.129209
 21
183.472378
 31
0.0
  0
LINE
  5
D9
100
AcDbEntity
  8
LY_1
  6
CONTINUOUS
 62
     7
100
AcDbLine
 10
-261.586879
 20
217.572378
 30
0.0
 11
-261.629209
 21
217.572378
 31
0.0
  0
LINE
  5
DA
100
AcDbEntity
  8
LY_1
  6
CONTINUOUS
 62
   251
100
AcDbLine
 10
-261.629209
 20
183.472378
 30
0.0
 11
-259.679765
 21
183.472378
 31
0.0
  0
LINE
  5
DB
100
AcDbEntity
  8
LY_1
  6
CONTINUOUS
 62
   251
100
AcDbLine
 10
-259.629209
 20
224.072378
 30
0.0
 11
-259.629209
 21
183.472378
 31
0.0
  0
LINE
  5
DC
100
AcDbEntity
  8
LY_1
  6
CONTINUOUS
 62
   251
100
AcDbLine
 10
-261.629209
 20
170.072378
 30
0.0
 11
-261.629209
 21
183.472378
 31
0.0
  0
LINE
  5
DD
100
AcDbEntity
  8
LY_1
  6
CONTINUOUS
 62
   251
100
AcDbLine
 10
-261.629209
 20
217.572378
 30
0.0
 11
-261.629209
 21
223.572378
 31
0.0
  0
LINE
  5
DE
100
AcDbEntity
  8
LY_1
  6
CONTINUOUS
 62
     7
100
AcDbLine
 10
-234.529209
 20
221.072378
 30
0.0
 11
-184.329209
 21
221.072378
 31
0.0
  0
LINE
  5
DF
100
AcDbEntity
  8
LY_1
  6
CONTINUOUS
 62
     7
100
AcDbLine
 10
-185.529209
 20
219.872378
 30
0.0
 11
-233.829209
 21
219.872378
 31
0.0
  0
LINE
  5
E0
100
AcDbEntity
  8
LY_1
  6
CONTINUOUS
 62
     7
100
AcDbLine
 10
-185.529209
 20
176.452378
 30
0.0
 11
-185.529209
 21
219.872378
 31
0.0
  0
LINE
  5
E1
100
AcDbEntity
  8
LY_1
  6
CONTINUOUS
 62
     7
100
AcDbLine
 10
-184.329209
 20
179.372378
 30
0.0
 11
-184.329209
 21
175.955322
 31
0.0
  0
LINE
  5
E2
100
AcDbEntity
  8
LY_1
  6
CONTINUOUS
 62
     7
100
AcDbLine
 10
-187.709209
 20
174.272378
 30
0.0
 11
-185.529209
 21
176.452378
 31
0.0
  0
LINE
  5
E3
100
AcDbEntity
  8
LY_1
  6
CONTINUOUS
 62
     7
100
AcDbLine
 10
-233.829209
 20
174.272378
 30
0.0
 11
-187.709209
 21
174.272378
 31
0.0
  0
LINE
  5
E4
100
AcDbEntity
  8
LY_1
  6
CONTINUOUS
 62
     7
100
AcDbLine
 10
-187.212153
 20
173.072378
 30
0.0
 11
-234.529209
 21
173.072378
 31
0.0
  0
LINE
  5
E5
100
AcDbEntity
  8
LY_1
  6
CONTINUOUS
 62
     7
100
AcDbLine
 10
-184.329209
 20
175.955322
 30
0.0
 11
-187.212153
 21
173.072378
 31
0.0
  0
ARC
  5
E6
100
AcDbEntity
  8
LY_1
  6
CONTINUOUS
 62
     7
100
AcDbCircle
 10
-234.529209
 20
173.572378
 30
0.0
 40
0.5
100
AcDbArc
 50
180.0
 51
270.0
  0
ARC
  5
E7
100
AcDbEntity
  8
LY_1
  6
CONTINUOUS
 62
     7
100
AcDbCircle
 10
-234.529209
 20
220.572378
 30
0.0
 40
0.5
100
AcDbArc
 50
90.0
 51
180.0
  0
LINE
  5
E8
100
AcDbEntity
  8
LY_1
  6
CONTINUOUS
 62
     7
100
AcDbLine
 10
-235.029209
 20
173.572378
 30
0.0
 11
-235.029209
 21
220.572378
 31
0.0
  0
LINE
  5
E9
100
AcDbEntity
  8
LY_1
  6
CONTINUOUS
 62
     7
100
AcDbLine
 10
-233.829209
 20
174.272378
 30
0.0
 11
-233.829209
 21
219.872378
 31
0.0
  0
LINE
  5
EA
100
AcDbEntity
  8
LY_1
  6
CONTINUOUS
 62
   251
100
AcDbLine
 10
-247.06378
 20
168.140727
 30
0.0
 11
-237.394314
 21
168.562905
 31
0.0
  0
LINE
  5
EB
100
AcDbEntity
  8
LY_1
  6
CONTINUOUS
 62
     7
100
AcDbLine
 10
-248.629209
 20
169.667435
 30
0.0
 11
-248.629209
 21
169.639299
 31
0.0
  0
LINE
  5
EC
100
AcDbEntity
  8
LY_1
  6
CONTINUOUS
 62
   251
100
AcDbLine
 10
-236.629209
 20
169.390112
 30
0.0
 11
-236.629209
 21
169.362143
 31
0.0
  0
ARC
  5
ED
100
AcDbEntity
  8
LY_1
  6
CONTINUOUS
 62
   251
100
AcDbCircle
 10
-237.429209
 20
169.362143
 30
0.0
 40
0.8
100
AcDbArc
 50
272.5
 51
0.0
  0
ARC
  5
EE
100
AcDbEntity
  8
LY_1
  6
CONTINUOUS
 62
   251
100
AcDbCircle
 10
-247.129209
 20
169.639299
 30
0.0
 40
1.5
100
AcDbArc
 50
182.557021
 51
272.5
  0
LINE
  5
EF
100
AcDbEntity
  8
LY_1
  6
CONTINUOUS
 62
     7
100
AcDbLine
 10
-248.629209
 20
169.884447
 30
0.0
 11
-248.629209
 21
169.929099
 31
0.0
  0
LINE
  5
F0
100
AcDbEntity
  8
LY_1
  6
CONTINUOUS
 62
     7
100
AcDbLine
 10
-248.629209
 20
169.667435
 30
0.0
 11
-248.629209
 21
169.696739
 31
0.0
  0
LINE
  5
F1
100
AcDbEntity
  8
LY_1
  6
CONTINUOUS
 62
     7
100
AcDbLine
 10
-248.629209
 20
170.163475
 30
0.0
 11
-248.629209
 21
170.228275
 31
0.0
  0
LINE
  5
F2
100
AcDbEntity
  8
LY_1
  6
CONTINUOUS
 62
   251
100
AcDbLine
 10
-236.629209
 20
169.419398
 30
0.0
 11
-236.629209
 21
169.390112
 31
0.0
  0
LINE
  5
F3
100
AcDbEntity
  8
LY_1
  6
CONTINUOUS
 62
   251
100
AcDbLine
 10
-236.629209
 20
169.651617
 30
0.0
 11
-236.629209
 21
169.606992
 31
0.0
  0
LINE
  5
F4
100
AcDbEntity
  8
LY_1
  6
CONTINUOUS
 62
     7
100
AcDbLine
 10
-248.629209
 20
170.409065
 30
0.0
 11
-248.629209
 21
170.228275
 31
0.0
  0
LINE
  5
F5
100
AcDbEntity
  8
LY_1
  6
CONTINUOUS
 62
     7
100
AcDbLine
 10
-248.629209
 20
170.109275
 30
0.0
 11
-248.629209
 21
169.929099
 31
0.0
  0
LINE
  5
F6
100
AcDbEntity
  8
LY_1
  6
CONTINUOUS
 62
     7
100
AcDbLine
 10
-248.629209
 20
169.876439
 30
0.0
 11
-248.629209
 21
169.696739
 31
0.0
  0
LINE
  5
F7
100
AcDbEntity
  8
LY_1
  6
CONTINUOUS
 62
   251
100
AcDbLine
 10
-236.629209
 20
169.606992
 30
0.0
 11
-236.629209
 21
169.419398
 31
0.0
  0
LINE
  5
F8
100
AcDbEntity
  8
LY_1
  6
CONTINUOUS
 62
   251
100
AcDbLine
 10
-236.629209
 20
169.88585
 30
0.0
 11
-236.629209
 21
169.651617
 31
0.0
  0
LINE
  5
F9
100
AcDbEntity
  8
LY_1
  6
CONTINUOUS
 62
     7
100
AcDbLine
 10
-248.629209
 20
170.794986
 30
0.0
 11
-236.629209
 21
170.794986
 31
0.0
  0
LINE
  5
FA
100
AcDbEntity
  8
LY_1
  6
CONTINUOUS
 62
   251
100
AcDbLine
 10
-248.629209
 20
169.572378
 30
0.0
 11
-261.129209
 21
169.572378
 31
0.0
  0
ARC
  5
FB
100
AcDbEntity
  8
LY_1
  6
CONTINUOUS
 62
   251
100
AcDbCircle
 10
-261.129209
 20
170.072378
 30
0.0
 40
0.5
100
AcDbArc
 50
180.0
 51
270.0
  0
LINE
  5
FC
100
AcDbEntity
  8
LY_1
  6
CONTINUOUS
 62
     7
100
AcDbLine
 10
-248.629209
 20
170.794986
 30
0.0
 11
-248.629209
 21
170.409065
 31
0.0
  0
LINE
  5
FD
100
AcDbEntity
  8
LY_1
  6
CONTINUOUS
 62
     7
100
AcDbLine
 10
-248.629209
 20
170.163475
 30
0.0
 11
-248.629209
 21
170.109275
 31
0.0
  0
LINE
  5
FE
100
AcDbEntity
  8
LY_1
  6
CONTINUOUS
 62
     7
100
AcDbLine
 10
-248.629209
 20
169.884447
 30
0.0
 11
-248.629209
 21
169.876439
 31
0.0
  0
LINE
  5
FF
100
AcDbEntity
  8
LY_1
  6
CONTINUOUS
 62
     7
100
AcDbLine
 10
-248.629209
 20
169.639299
 30
0.0
 11
-248.629209
 21
169.572378
 31
0.0
  0
ARC
  5
100
100
AcDbEntity
  8
LY_1
  6
CONTINUOUS
 62
   251
100
AcDbCircle
 10
-261.129209
 20
223.572378
 30
0.0
 40
0.5
100
AcDbArc
 50
90.0
 51
180.0
  0
LINE
  5
101
100
AcDbEntity
  8
LY_1
  6
CONTINUOUS
 62
   251
100
AcDbLine
 10
-261.129209
 20
224.072378
 30
0.0
 11
-259.261355
 21
224.072378
 31
0.0
  0
LINE
  5
102
100
AcDbEntity
  8
LY_1
  6
CONTINUOUS
 62
   251
100
AcDbLine
 10
-236.629209
 20
224.072378
 30
0.0
 11
-259.261355
 21
224.072378
 31
0.0
  0
DIMENSION
  5
10F
100
AcDbEntity
  8
LY_1
  6
CONTINUOUS
 62
   130
100
AcDbDimension
  2
*D3
 10
-177.879209
 20
250.983057
 30
0.0
 11
-201.129209
 21
250.983057
 31
0.0
 70
   128
  1
<>
  3
MX_DIMSTYLE_CLASS1
100
AcDbAlignedDimension
 13
-224.379209
 23
242.272379
 33
0.0
 14
-177.879209
 24
224.072378
 34
0.0
100
AcDbRotatedDimension
1001
ACAD
1000
DSTYLE
1002
{
1070
     6
1000
SOLID
1070
     7
1000
SOLID
1070
    44
1040
1.0
1070
   140
1040
3.0
1070
   173
1070
     1
1070
   271
1070
     2
1070
   284
1070
     8
1070
   340
1005
2F
1002
}
  0
LINE
  5
110
100
AcDbEntity
  8
LY_1
  6
CONTINUOUS
 62
   251
100
AcDbLine
 10
-236.629209
 20
224.072378
 30
0.0
 11
-177.879209
 21
224.072378
 31
0.0
  0
LINE
  5
111
100
AcDbEntity
  8
LY_1
  6
CONTINUOUS
 62
     7
100
AcDbLine
 10
-236.629209
 20
222.872378
 30
0.0
 11
-236.629209
 21
224.072378
 31
0.0
  0
LINE
  5
112
100
AcDbEntity
  8
LY_1
  6
CONTINUOUS
 62
     7
100
AcDbLine
 10
-236.629209
 20
172.045294
 30
0.0
 11
-236.629209
 21
194.372378
 31
0.0
  0
LINE
  5
113
100
AcDbEntity
  8
LY_1
  6
CONTINUOUS
 62
     7
100
AcDbLine
 10
-236.629209
 20
199.772378
 30
0.0
 11
-236.629209
 21
222.872378
 31
0.0
  0
LINE
  5
114
100
AcDbEntity
  8
LY_1
  6
CONTINUOUS
 62
   251
100
AcDbLine
 10
-234.129209
 20
169.321378
 30
0.0
 11
-189.978122
 21
169.321378
 31
0.0
  0
LINE
  5
115
100
AcDbEntity
  8
LY_1
  6
CONTINUOUS
 62
   251
100
AcDbLine
 10
-236.629209
 20
169.821378
 30
0.0
 11
-234.129209
 21
169.321378
 31
0.0
  0
LINE
  5
116
100
AcDbEntity
  8
LY_1
  6
CONTINUOUS
 62
     7
100
AcDbLine
 10
-236.629209
 20
170.722909
 30
0.0
 11
-177.879209
 21
170.722909
 31
0.0
  0
LINE
  5
117
100
AcDbEntity
  8
LY_1
  6
CONTINUOUS
 62
   251
100
AcDbLine
 10
-187.334215
 20
169.328589
 30
0.0
 11
-177.879209
 21
169.328589
 31
0.0
  0
LWPOLYLINE
  5
118
100
AcDbEntity
  8
LY_1
  6
CONTINUOUS
 62
   251
100
AcDbPolyline
 90
       12
 70
     0
 10
-187.334213
 20
169.328626
 10
-187.700958
 20
169.32855
 10
-188.066864
 20
169.328398
 10
-188.42998
 20
169.328245
 10
-188.790021
 20
169.32794
 10
-189.142294
 20
169.327482
 10
-189.477854
 20
169.326948
 10
-189.634972
 20
169.326643
 10
-189.778495
 20
169.326261
 10
-189.895282
 20
169.325804
 10
-189.93587
 20
169.325498
 10
-189.954939
 20
169.325346
  0
LINE
  5
119
100
AcDbEntity
  8
LY_1
  6
CONTINUOUS
 62
   251
100
AcDbLine
 10
-189.912772
 20
169.325651
 30
0.0
 11
-189.978123
 21
169.321378
 31
0.0
  0
LWPOLYLINE
  5
11A
100
AcDbEntity
  8
LY_1
  6
CONTINUOUS
 62
   251
100
AcDbPolyline
 90
        9
 70
     0
 10
-187.334213
 20
169.328626
 10
-188.030004
 20
169.328474
 10
-188.375225
 20
169.328245
 10
-188.717627
 20
169.328016
 10
-189.05457
 20
169.327635
 10
-189.378481
 20
169.327177
 10
-189.678693
 20
169.32649
 10
-189.810004
 20
169.326109
 10
-189.912772
 20
169.325651
  0
LINE
  5
11B
100
AcDbEntity
  8
LY_1
  6
CONTINUOUS
 62
     7
100
AcDbLine
 10
-236.629209
 20
224.072378
 30
0.0
 11
-236.629209
 21
222.872378
 31
0.0
  0
ARC
  5
11C
100
AcDbEntity
  8
LY_1
  6
CONTINUOUS
 62
     7
100
AcDbCircle
 10
-235.829209
 20
195.072378
 30
0.0
 40
0.5
100
AcDbArc
 50
270.0
 51
0.0
  0
ARC
  5
11D
100
AcDbEntity
  8
LY_1
  6
CONTINUOUS
 62
     7
100
AcDbCircle
 10
-235.829209
 20
199.072378
 30
0.0
 40
0.5
100
AcDbArc
 50
360.0
 51
90.0
  0
LINE
  5
11E
100
AcDbEntity
  8
LY_1
  6
CONTINUOUS
 62
     7
100
AcDbLine
 10
-236.629209
 20
169.821378
 30
0.0
 11
-236.629209
 21
194.572378
 31
0.0
  0
LINE
  5
11F
100
AcDbEntity
  8
LY_1
  6
CONTINUOUS
 62
     7
100
AcDbLine
 10
-236.629209
 20
199.572378
 30
0.0
 11
-236.629209
 21
222.872378
 31
0.0
  0
LINE
  5
120
100
AcDbEntity
  8
LY_1
  6
CONTINUOUS
 62
     7
100
AcDbLine
 10
-236.629209
 20
194.572378
 30
0.0
 11
-235.829209
 21
194.572378
 31
0.0
  0
LINE
  5
121
100
AcDbEntity
  8
LY_1
  6
CONTINUOUS
 62
     7
100
AcDbLine
 10
-235.329209
 20
195.072378
 30
0.0
 11
-235.329209
 21
199.072378
 31
0.0
  0
LINE
  5
122
100
AcDbEntity
  8
LY_1
  6
CONTINUOUS
 62
     7
100
AcDbLine
 10
-235.829209
 20
199.572378
 30
0.0
 11
-236.629209
 21
199.572378
 31
0.0
  0
LINE
  5
123
100
AcDbEntity
  8
LY_1
  6
CONTINUOUS
 62
     7
100
AcDbLine
 10
-242.379209
 20
224.372378
 30
0.0
 11
-242.379209
 21
224.072378
 31
0.0
  0
LINE
  5
124
100
AcDbEntity
  8
LY_1
  6
CONTINUOUS
 62
   251
100
AcDbLine
 10
-242.379209
 20
224.372378
 30
0.0
 11
-242.379209
 21
225.845717
 31
0.0
  0
LINE
  5
125
100
AcDbEntity
  8
LY_1
  6
CONTINUOUS
 62
   251
100
AcDbLine
 10
-242.379209
 20
242.272378
 30
0.0
 11
-242.379209
 21
225.845717
 31
0.0
  0
LINE
  5
126
100
AcDbEntity
  8
LY_1
  6
CONTINUOUS
 62
   251
100
AcDbLine
 10
-242.379209
 20
242.272378
 30
0.0
 11
-224.379209
 21
242.272378
 31
0.0
  0
LINE
  5
127
100
AcDbEntity
  8
LY_1
  6
CONTINUOUS
 62
   251
100
AcDbLine
 10
-224.379209
 20
224.372378
 30
0.0
 11
-224.379209
 21
225.845717
 31
0.0
  0
LINE
  5
128
100
AcDbEntity
  8
LY_1
  6
CONTINUOUS
 62
   251
100
AcDbLine
 10
-224.379209
 20
242.272378
 30
0.0
 11
-224.379209
 21
225.845717
 31
0.0
  0
LINE
  5
129
100
AcDbEntity
  8
LY_1
  6
CONTINUOUS
 62
     7
100
AcDbLine
 10
-224.379209
 20
224.072378
 30
0.0
 11
-224.379209
 21
224.372378
 31
0.0
  0
LINE
  5
12A
100
AcDbEntity
  8
LY_1
  6
CONTINUOUS
 62
   251
100
AcDbLine
 10
-183.079209
 20
168.822378
 30
0.0
 11
-183.079209
 21
167.822378
 31
0.0
  0
LINE
  5
12B
100
AcDbEntity
  8
LY_1
  6
CONTINUOUS
 62
   251
100
AcDbLine
 10
-183.079209
 20
167.822378
 30
0.0
 11
-181.579209
 21
167.822378
 31
0.0
  0
LINE
  5
12C
100
AcDbEntity
  8
LY_1
  6
CONTINUOUS
 62
   251
100
AcDbLine
 10
-181.579209
 20
167.822378
 30
0.0
 11
-179.579209
 21
167.822378
 31
0.0
  0
LINE
  5
12D
100
AcDbEntity
  8
LY_1
  6
CONTINUOUS
 62
   251
100
AcDbLine
 10
-179.579209
 20
168.822378
 30
0.0
 11
-179.579209
 21
167.822378
 31
0.0
  0
LINE
  5
12E
100
AcDbEntity
  8
LY_1
  6
CONTINUOUS
 62
   251
100
AcDbLine
 10
-179.579209
 20
167.822378
 30
0.0
 11
-178.079209
 21
167.822378
 31
0.0
  0
LINE
  5
12F
100
AcDbEntity
  8
LY_1
  6
CONTINUOUS
 62
   251
100
AcDbLine
 10
-179.579209
 20
168.822378
 30
0.0
 11
-183.079209
 21
168.822378
 31
0.0
  0
LINE
  5
130
100
AcDbEntity
  8
LY_1
  6
CONTINUOUS
 62
   251
100
AcDbLine
 10
-178.079209
 20
167.822378
 30
0.0
 11
-178.079209
 21
169.328589
 31
0.0
  0
LINE
  5
131
100
AcDbEntity
  8
LY_1
  6
CONTINUOUS
 62
   251
100
AcDbLine
 10
-183.079209
 20
168.822378
 30
0.0
 11
-183.079209
 21
169.328589
 31
0.0
  0
DIMENSION
  5
13F
100
AcDbEntity
  8
LY_1
  6
CONTINUOUS
 62
   130
100
AcDbDimension
  2
*D4
 10
-164.21352
 20
167.822378
 30
0.0
 11
-164.21352
 21
196.922818
 31
0.0
 70
   128
  1
56.3
  3
MX_DIMSTYLE_CLASS1
100
AcDbAlignedDimension
 13
-177.87921
 23
224.072378
 33
0.0
 14
-178.079209
 24
167.822378
 34
0.0
 50
90.0
100
AcDbRotatedDimension
1001
ACAD
1000
DSTYLE
1002
{
1070
     6
1000
_OPEN
1070
     7
1000
_OPEN
1070
    41
1040
3.0
1070
   173
1070
     1
1070
   271
1070
     2
1070
   340
1005
139
1070
   341
1005
27
1002
}
  0
DIMENSION
  5
14C
100
AcDbEntity
  8
LY_1
  6
CONTINUOUS
 62
   130
100
AcDbDimension
  2
*D5
 10
-224.379209
 20
250.983057
 30
0.0
 11
-233.379209
 21
250.983057
 31
0.0
 70
   128
  1
<>
  3
MX_DIMSTYLE_CLASS1
100
AcDbAlignedDimension
 13
-242.379209
 23
242.272379
 33
0.0
 14
-224.379209
 24
242.272379
 34
0.0
100
AcDbRotatedDimension
1001
ACAD
1000
DSTYLE
1002
{
1070
     6
1000
_OPEN
1070
     7
1000
_OPEN
1070
    41
1040
3.0
1070
   173
1070
     1
1070
   271
1070
     2
1070
   284
1070
     8
1070
   340
1005
139
1070
   341
1005
27
1002
}
  0
DIMENSION
  5
159
100
AcDbEntity
  8
LY_1
  6
CONTINUOUS
 62
   130
100
AcDbDimension
  2
*D6
 10
-177.879209
 20
260.131727
 30
0.0
 11
-221.346926
 21
260.131727
 31
0.0
 70
   128
  1
83.8
  3
MX_DIMSTYLE_CLASS1
100
AcDbAlignedDimension
 13
-261.629209
 23
223.572378
 33
0.0
 14
-177.879209
 24
224.072378
 34
0.0
100
AcDbRotatedDimension
1001
ACAD
1000
DSTYLE
1002
{
1070
     6
1000
_OPEN
1070
     7
1000
_OPEN
1070
    41
1040
3.0
1070
   173
1070
     1
1070
   271
1070
     2
1070
   340
1005
139
1070
   341
1005
27
1002
}
  0
DIMENSION
  5
169
100
AcDbEntity
  8
LY_1
  6
CONTINUOUS
 62
   130
100
AcDbDimension
  2
*D7
 10
-177.879209
 20
233.89114
 30
0.0
 11
-195.44782
 21
233.89114
 31
0.0
 70
   128
  1
<>
  3
MX_DIMSTYLE_CLASS1
100
AcDbAlignedDimension
 13
-186.579209
 23
222.372379
 33
0.0
 14
-177.879209
 24
224.072378
 34
0.0
100
AcDbRotatedDimension
1001
ACAD
1000
DSTYLE
1002
{
1070
     6
1000
_OPEN
1070
     7
1000
_OPEN
1070
    41
1040
3.0
1070
   173
1070
     1
1070
   271
1070
     2
1070
   284
1070
     8
1070
   340
1005
40
1070
   341
1005
27
1002
}
  0
LINE
  5
16A
100
AcDbEntity
  8
LY_1
  6
CONTINUOUS
 62
   251
100
AcDbLine
 10
-183.079209
 20
218.872378
 30
0.0
 11
-177.879209
 21
218.872378
 31
0.0
  0
LINE
  5
16B
100
AcDbEntity
  8
LY_1
  6
CONTINUOUS
 62
   251
100
AcDbLine
 10
-177.879209
 20
224.072378
 30
0.0
 11
-177.879209
 21
216.872378
 31
0.0
  0
LINE
  5
16C
100
AcDbEntity
  8
LY_1
  6
CONTINUOUS
 62
   251
100
AcDbLine
 10
-180.789721
 20
216.872378
 30
0.0
 11
-177.879209
 21
216.872378
 31
0.0
  0
LINE
  5
16D
100
AcDbEntity
  8
LY_1
  6
CONTINUOUS
 62
   252
100
AcDbLine
 10
-177.879209
 20
216.179808
 30
0.0
 11
-177.879209
 21
216.182936
 31
0.0
  0
LINE
  5
16E
100
AcDbEntity
  8
LY_1
  6
CONTINUOUS
 62
   251
100
AcDbLine
 10
-183.079209
 20
183.572378
 30
0.0
 11
-183.079209
 21
218.872378
 31
0.0
  0
LINE
  5
16F
100
AcDbEntity
  8
LY_1
  6
CONTINUOUS
 62
   251
100
AcDbLine
 10
-177.879209
 20
183.072378
 30
0.0
 11
-177.879209
 21
169.321378
 31
0.0
  0
LINE
  5
170
100
AcDbEntity
  8
LY_1
  6
CONTINUOUS
 62
     7
100
AcDbLine
 10
-184.329209
 20
221.072378
 30
0.0
 11
-184.329209
 21
175.955322
 31
0.0
  0
LINE
  5
171
100
AcDbEntity
  8
LY_1
  6
CONTINUOUS
 62
   252
100
AcDbLine
 10
-177.879209
 20
180.859689
 30
0.0
 11
-177.879209
 21
181.018039
 31
0.0
  0
LINE
  5
172
100
AcDbEntity
  8
LY_1
  6
CONTINUOUS
 62
   252
100
AcDbLine
 10
-177.879209
 20
181.018039
 30
0.0
 11
-177.879209
 21
181.307706
 31
0.0
  0
LINE
  5
173
100
AcDbEntity
  8
LY_1
  6
CONTINUOUS
 62
   252
100
AcDbLine
 10
-177.879209
 20
185.561821
 30
0.0
 11
-177.879209
 21
185.564948
 31
0.0
  0
LINE
  5
174
100
AcDbEntity
  8
LY_1
  6
CONTINUOUS
 62
   251
100
AcDbLine
 10
-181.49831
 20
185.791714
 30
0.0
 11
-182.092598
 21
183.572378
 31
0.0
  0
LINE
  5
175
100
AcDbEntity
  8
LY_1
  6
CONTINUOUS
 62
   251
100
AcDbLine
 10
-178.418648
 20
183.207238
 30
0.0
 11
-181.49831
 21
185.791714
 31
0.0
  0
LINE
  5
176
100
AcDbEntity
  8
LY_1
  6
CONTINUOUS
 62
   251
100
AcDbLine
 10
-177.879209
 20
183.072378
 30
0.0
 11
-179.879209
 21
183.572378
 31
0.0
  0
LINE
  5
177
100
AcDbEntity
  8
LY_1
  6
CONTINUOUS
 62
   251
100
AcDbLine
 10
-179.879209
 20
183.572378
 30
0.0
 11
-183.079209
 21
183.572378
 31
0.0
  0
LINE
  5
178
100
AcDbEntity
  8
LY_1
  6
CONTINUOUS
 62
   252
100
AcDbLine
 10
-177.879209
 20
180.859689
 30
0.0
 11
-177.879209
 21
181.018039
 31
0.0
  0
LINE
  5
179
100
AcDbEntity
  8
LY_1
  6
CONTINUOUS
 62
   252
100
AcDbLine
 10
-177.879209
 20
181.018039
 30
0.0
 11
-177.879209
 21
181.307706
 31
0.0
  0
LINE
  5
17A
100
AcDbEntity
  8
LY_1
  6
CONTINUOUS
 62
   251
100
AcDbLine
 10
-181.55767
 20
217.872378
 30
0.0
 11
-181.82562
 21
218.872378
 31
0.0
  0
LINE
  5
17B
100
AcDbEntity
  8
LY_1
  6
CONTINUOUS
 62
   251
100
AcDbLine
 10
-181.419131
 20
217.355341
 30
0.0
 11
-180.789721
 21
216.872378
 31
0.0
  0
LINE
  5
17C
100
AcDbEntity
  8
LY_1
  6
CONTINUOUS
 62
   251
100
AcDbLine
 10
-181.419131
 20
217.355341
 30
0.0
 11
-181.55767
 21
217.872378
 31
0.0
  0
LINE
  5
17E
100
AcDbEntity
  8
LY_1
  6
DASHED
 62
   254
100
AcDbLine
 10
-177.879209
 20
185.561821
 30
0.0
 11
-177.879209
 21
185.564948
 31
0.0
  0
LINE
  5
17F
100
AcDbEntity
  8
LY_1
  6
DASHED
 62
   254
100
AcDbLine
 10
-177.879209
 20
216.179808
 30
0.0
 11
-177.879209
 21
216.182936
 31
0.0
  0
LINE
  5
180
100
AcDbEntity
  8
LY_1
  6
DASHED
 62
   254
100
AcDbLine
 10
-177.879209
 20
221.972378
 30
0.0
 11
-177.879209
 21
179.772378
 31
0.0
  0
LINE
  5
181
100
AcDbEntity
  8
LY_1
  6
DASHED
 62
   254
100
AcDbLine
 10
-186.579209
 20
222.372378
 30
0.0
 11
-178.279209
 21
222.372378
 31
0.0
  0
ARC
  5
182
100
AcDbEntity
  8
LY_1
  6
DASHED
 62
   254
100
AcDbCircle
 10
-178.279209
 20
221.972378
 30
0.0
 40
0.4
100
AcDbArc
 50
0.0
 51
90.0
  0
LINE
  5
183
100
AcDbEntity
  8
LY_1
  6
DASHED
 62
   254
100
AcDbLine
 10
-186.579209
 20
179.372378
 30
0.0
 11
-186.579209
 21
222.372378
 31
0.0
  0
LINE
  5
184
100
AcDbEntity
  8
LY_1
  6
DASHED
 62
   254
100
AcDbLine
 10
-178.279209
 20
179.372378
 30
0.0
 11
-186.579209
 21
179.372378
 31
0.0
  0
ARC
  5
185
100
AcDbEntity
  8
LY_1
  6
DASHED
 62
   254
100
AcDbCircle
 10
-178.279209
 20
179.772378
 30
0.0
 40
0.4
100
AcDbArc
 50
270.0
 51
360.0
  0
DIMENSION
  5
192
100
AcDbEntity
  8
LY_1
  6
CONTINUOUS
 62
   130
100
AcDbDimension
  2
*D8
 10
-153.637367
 20
167.822378
 30
0.0
 11
-153.637367
 21
203.22783
 31
0.0
 70
   128
  1
74.5
  3
MX_DIMSTYLE_CLASS1
100
AcDbAlignedDimension
 13
-224.379212
 23
242.272378
 33
0.0
 14
-178.07921
 24
167.822378
 34
0.0
 50
90.0
100
AcDbRotatedDimension
1001
ACAD
1000
DSTYLE
1002
{
1070
     6
1000
_OPEN
1070
     7
1000
_OPEN
1070
    41
1040
3.0
1070
   173
1070
     1
1070
   271
1070
     2
1070
   340
1005
139
1070
   341
1005
27
1002
}
  0
LINE
  5
193
100
AcDbEntity
  8
LY_1
  6
DASHED
 62
   254
100
AcDbLine
 10
-384.906636
 20
66.682341
 30
0.0
 11
-384.906636
 21
58.382341
 31
0.0
  0
ARC
  5
195
100
AcDbEntity
  8
LY_1
  6
HIDDEN
 62
   254
100
AcDbCircle
 10
-384.506636
 20
58.382341
 30
0.0
 40
0.4
100
AcDbArc
 50
180.0
 51
270.0
  0
LINE
  5
196
100
AcDbEntity
  8
LY_1
  6
DASHED
 62
   254
100
AcDbLine
 10
-384.506636
 20
57.982341
 30
0.0
 11
-372.406636
 21
57.982341
 31
0.0
  0
LINE
  5
197
100
AcDbEntity
  8
LY_1
  6
DASHED
 62
   254
100
AcDbLine
 10
-384.906636
 20
66.682341
 30
0.0
 11
-372.406636
 21
66.682341
 31
0.0
  0
LINE
  5
198
100
AcDbEntity
  8
LY_1
  6
DASHED
 62
   254
100
AcDbLine
 10
-289.906636
 20
66.682341
 30
0.0
 11
-289.906636
 21
58.382341
 31
0.0
  0
ARC
  5
199
100
AcDbEntity
  8
LY_1
  6
HIDDEN
 62
   254
100
AcDbCircle
 10
-290.306636
 20
58.382341
 30
0.0
 40
0.4
100
AcDbArc
 50
270.0
 51
0.0
  0
LINE
  5
19A
100
AcDbEntity
  8
LY_1
  6
DASHED
 62
   254
100
AcDbLine
 10
-290.306636
 20
57.982341
 30
0.0
 11
-302.406636
 21
57.982341
 31
0.0
  0
DIMENSION
  5
1A7
100
AcDbEntity
  8
LY_1
  6
CONTINUOUS
 62
   130
100
AcDbDimension
  2
*D9
 10
-384.906636
 20
45.798341
 30
0.0
 11
-337.439442
 21
45.798341
 31
0.0
 70
   128
  1
<>
  3
MX_DIMSTYLE_CLASS1
100
AcDbAlignedDimension
 13
-289.906636
 23
58.38234
 33
0.0
 14
-384.906636
 24
58.38234
 34
0.0
100
AcDbRotatedDimension
1001
ACAD
1000
DSTYLE
1002
{
1070
     6
1000
_OPEN
1070
     7
1000
_OPEN
1070
    41
1040
3.0
1070
   173
1070
     1
1070
   271
1070
     2
1070
   284
1070
     8
1070
   340
1005
2F
1070
   341
1005
27
1002
}
  0
LINE
  5
1A8
100
AcDbEntity
  8
LY_1
  6
DASHED
 62
   254
100
AcDbLine
 10
-302.406636
 20
66.682341
 30
0.0
 11
-289.906636
 21
66.682341
 31
0.0
  0
LINE
  5
1A9
100
AcDbEntity
  8
LY_1
  6
CONTINUOUS
 62
     7
100
AcDbLine
 10
-360.206636
 20
124.157341
 30
0.0
 11
-363.206636
 21
124.157341
 31
0.0
  0
LINE
  5
1AA
100
AcDbEntity
  8
LY_1
  6
CONTINUOUS
 62
     7
100
AcDbLine
 10
-349.406636
 20
124.157341
 30
0.0
 11
-352.406636
 21
124.157341
 31
0.0
  0
LINE
  5
1AB
100
AcDbEntity
  8
LY_1
  6
CONTINUOUS
 62
     7
100
AcDbLine
 10
-333.206636
 20
124.157341
 30
0.0
 11
-336.206636
 21
124.157341
 31
0.0
  0
LINE
  5
1AC
100
AcDbEntity
  8
LY_1
  6
CONTINUOUS
 62
     7
100
AcDbLine
 10
-327.806636
 20
124.157341
 30
0.0
 11
-330.806636
 21
124.157341
 31
0.0
  0
LINE
  5
1AD
100
AcDbEntity
  8
LY_1
  6
CONTINUOUS
 62
     7
100
AcDbLine
 10
-317.006636
 20
124.157341
 30
0.0
 11
-320.006636
 21
124.157341
 31
0.0
  0
LINE
  5
1AE
100
AcDbEntity
  8
LY_1
  6
CONTINUOUS
 62
     7
100
AcDbLine
 10
-344.006636
 20
124.157341
 30
0.0
 11
-347.006636
 21
124.157341
 31
0.0
  0
LINE
  5
1AF
100
AcDbEntity
  8
LY_1
  6
CONTINUOUS
 62
     7
100
AcDbLine
 10
-338.606636
 20
124.157341
 30
0.0
 11
-341.606636
 21
124.157341
 31
0.0
  0
LINE
  5
1B0
100
AcDbEntity
  8
LY_1
  6
CONTINUOUS
 62
     7
100
AcDbLine
 10
-322.406636
 20
124.157341
 30
0.0
 11
-325.406636
 21
124.157341
 31
0.0
  0
LINE
  5
1B1
100
AcDbEntity
  8
LY_1
  6
CONTINUOUS
 62
     7
100
AcDbLine
 10
-354.806636
 20
124.157341
 30
0.0
 11
-357.806636
 21
124.157341
 31
0.0
  0
LINE
  5
1B2
100
AcDbEntity
  8
LY_1
  6
CONTINUOUS
 62
     7
100
AcDbLine
 10
-311.606636
 20
124.157341
 30
0.0
 11
-314.606636
 21
124.157341
 31
0.0
  0
LINE
  5
1B3
100
AcDbEntity
  8
LY_1
  6
CONTINUOUS
 62
     7
100
AcDbLine
 10
-365.606636
 20
124.157341
 30
0.0
 11
-368.606636
 21
124.157341
 31
0.0
  0
LINE
  5
1B4
100
AcDbEntity
  8
LY_1
  6
CONTINUOUS
 62
     7
100
AcDbLine
 10
-306.206636
 20
124.157341
 30
0.0
 11
-309.206636
 21
124.157341
 31
0.0
  0
LINE
  5
1B5
100
AcDbEntity
  8
LY_1
  6
CONTINUOUS
 62
     7
100
AcDbLine
 10
-363.206636
 20
124.157341
 30
0.0
 11
-363.206636
 21
124.332341
 31
0.0
  0
LINE
  5
1B6
100
AcDbEntity
  8
LY_1
  6
CONTINUOUS
 62
     7
100
AcDbLine
 10
-352.406636
 20
124.157341
 30
0.0
 11
-352.406636
 21
124.332341
 31
0.0
  0
LINE
  5
1B7
100
AcDbEntity
  8
LY_1
  6
CONTINUOUS
 62
     7
100
AcDbLine
 10
-341.606636
 20
124.157341
 30
0.0
 11
-341.606636
 21
124.332341
 31
0.0
  0
LINE
  5
1B8
100
AcDbEntity
  8
LY_1
  6
CONTINUOUS
 62
     7
100
AcDbLine
 10
-330.806636
 20
124.157341
 30
0.0
 11
-330.806636
 21
124.332341
 31
0.0
  0
LINE
  5
1B9
100
AcDbEntity
  8
LY_1
  6
CONTINUOUS
 62
     7
100
AcDbLine
 10
-317.006636
 20
124.332341
 30
0.0
 11
-317.006636
 21
124.157341
 31
0.0
  0
LINE
  5
1BA
100
AcDbEntity
  8
LY_1
  6
CONTINUOUS
 62
     7
100
AcDbLine
 10
-320.006636
 20
124.157341
 30
0.0
 11
-320.006636
 21
124.332341
 31
0.0
  0
LINE
  5
1BB
100
AcDbEntity
  8
LY_1
  6
CONTINUOUS
 62
     7
100
AcDbLine
 10
-344.006636
 20
124.332341
 30
0.0
 11
-344.006636
 21
124.157341
 31
0.0
  0
LINE
  5
1BC
100
AcDbEntity
  8
LY_1
  6
CONTINUOUS
 62
     7
100
AcDbLine
 10
-347.006636
 20
124.157341
 30
0.0
 11
-347.006636
 21
124.332341
 31
0.0
  0
LINE
  5
1BD
100
AcDbEntity
  8
LY_1
  6
CONTINUOUS
 62
     7
100
AcDbLine
 10
-333.206636
 20
124.332341
 30
0.0
 11
-333.206636
 21
124.157341
 31
0.0
  0
LINE
  5
1BE
100
AcDbEntity
  8
LY_1
  6
CONTINUOUS
 62
     7
100
AcDbLine
 10
-336.206636
 20
124.157341
 30
0.0
 11
-336.206636
 21
124.332341
 31
0.0
  0
LINE
  5
1BF
100
AcDbEntity
  8
LY_1
  6
CONTINUOUS
 62
     7
100
AcDbLine
 10
-322.406636
 20
124.332341
 30
0.0
 11
-322.406636
 21
124.157341
 31
0.0
  0
LINE
  5
1C0
100
AcDbEntity
  8
LY_1
  6
CONTINUOUS
 62
     7
100
AcDbLine
 10
-325.406636
 20
124.157341
 30
0.0
 11
-325.406636
 21
124.332341
 31
0.0
  0
LINE
  5
1C1
100
AcDbEntity
  8
LY_1
  6
CONTINUOUS
 62
     7
100
AcDbLine
 10
-354.806636
 20
124.332341
 30
0.0
 11
-354.806636
 21
124.157341
 31
0.0
  0
LINE
  5
1C2
100
AcDbEntity
  8
LY_1
  6
CONTINUOUS
 62
     7
100
AcDbLine
 10
-357.806636
 20
124.157341
 30
0.0
 11
-357.806636
 21
124.332341
 31
0.0
  0
LINE
  5
1C3
100
AcDbEntity
  8
LY_1
  6
CONTINUOUS
 62
     7
100
AcDbLine
 10
-360.206636
 20
124.332341
 30
0.0
 11
-360.206636
 21
124.157341
 31
0.0
  0
LINE
  5
1C4
100
AcDbEntity
  8
LY_1
  6
CONTINUOUS
 62
     7
100
AcDbLine
 10
-360.206636
 20
122.457341
 30
0.0
 11
-360.206636
 21
120.332341
 31
0.0
  0
LINE
  5
1C5
100
AcDbEntity
  8
LY_1
  6
CONTINUOUS
 62
     7
100
AcDbLine
 10
-354.806636
 20
122.457341
 30
0.0
 11
-354.806636
 21
120.332341
 31
0.0
  0
LINE
  5
1C6
100
AcDbEntity
  8
LY_1
  6
CONTINUOUS
 62
     7
100
AcDbLine
 10
-322.406636
 20
122.457341
 30
0.0
 11
-322.406636
 21
120.332341
 31
0.0
  0
LINE
  5
1C7
100
AcDbEntity
  8
LY_1
  6
CONTINUOUS
 62
     7
100
AcDbLine
 10
-349.406636
 20
124.332341
 30
0.0
 11
-349.406636
 21
124.157341
 31
0.0
  0
LINE
  5
1C8
100
AcDbEntity
  8
LY_1
  6
CONTINUOUS
 62
     7
100
AcDbLine
 10
-349.406636
 20
122.457341
 30
0.0
 11
-349.406636
 21
120.332341
 31
0.0
  0
LINE
  5
1C9
100
AcDbEntity
  8
LY_1
  6
CONTINUOUS
 62
     7
100
AcDbLine
 10
-333.206636
 20
122.457341
 30
0.0
 11
-333.206636
 21
120.332341
 31
0.0
  0
LINE
  5
1CA
100
AcDbEntity
  8
LY_1
  6
CONTINUOUS
 62
     7
100
AcDbLine
 10
-338.606636
 20
124.332341
 30
0.0
 11
-338.606636
 21
124.157341
 31
0.0
  0
LINE
  5
1CB
100
AcDbEntity
  8
LY_1
  6
CONTINUOUS
 62
     7
100
AcDbLine
 10
-338.606636
 20
122.457341
 30
0.0
 11
-338.606636
 21
120.332341
 31
0.0
  0
LINE
  5
1CC
100
AcDbEntity
  8
LY_1
  6
CONTINUOUS
 62
     7
100
AcDbLine
 10
-344.006636
 20
122.457341
 30
0.0
 11
-344.006636
 21
120.332341
 31
0.0
  0
LINE
  5
1CD
100
AcDbEntity
  8
LY_1
  6
CONTINUOUS
 62
     7
100
AcDbLine
 10
-327.806636
 20
124.332341
 30
0.0
 11
-327.806636
 21
124.157341
 31
0.0
  0
LINE
  5
1CE
100
AcDbEntity
  8
LY_1
  6
CONTINUOUS
 62
     7
100
AcDbLine
 10
-327.806636
 20
122.457341
 30
0.0
 11
-327.806636
 21
120.332341
 31
0.0
  0
LINE
  5
1CF
100
AcDbEntity
  8
LY_1
  6
CONTINUOUS
 62
     7
100
AcDbLine
 10
-317.006636
 20
122.457341
 30
0.0
 11
-317.006636
 21
120.332341
 31
0.0
  0
LINE
  5
1D0
100
AcDbEntity
  8
LY_1
  6
CONTINUOUS
 62
     7
100
AcDbLine
 10
-320.006636
 20
120.332341
 30
0.0
 11
-320.006636
 21
122.457341
 31
0.0
  0
LINE
  5
1D1
100
AcDbEntity
  8
LY_1
  6
CONTINUOUS
 62
     7
100
AcDbLine
 10
-330.806636
 20
120.332341
 30
0.0
 11
-330.806636
 21
122.457341
 31
0.0
  0
LINE
  5
1D2
100
AcDbEntity
  8
LY_1
  6
CONTINUOUS
 62
     7
100
AcDbLine
 10
-347.006636
 20
120.332341
 30
0.0
 11
-347.006636
 21
122.457341
 31
0.0
  0
LINE
  5
1D3
100
AcDbEntity
  8
LY_1
  6
CONTINUOUS
 62
     7
100
AcDbLine
 10
-341.606636
 20
120.332341
 30
0.0
 11
-341.606636
 21
122.457341
 31
0.0
  0
LINE
  5
1D4
100
AcDbEntity
  8
LY_1
  6
CONTINUOUS
 62
     7
100
AcDbLine
 10
-336.206636
 20
120.332341
 30
0.0
 11
-336.206636
 21
122.457341
 31
0.0
  0
LINE
  5
1D5
100
AcDbEntity
  8
LY_1
  6
CONTINUOUS
 62
     7
100
AcDbLine
 10
-352.406636
 20
120.332341
 30
0.0
 11
-352.406636
 21
122.457341
 31
0.0
  0
LINE
  5
1D6
100
AcDbEntity
  8
LY_1
  6
CONTINUOUS
 62
     7
100
AcDbLine
 10
-325.406636
 20
120.332341
 30
0.0
 11
-325.406636
 21
122.457341
 31
0.0
  0
LINE
  5
1D7
100
AcDbEntity
  8
LY_1
  6
CONTINUOUS
 62
     7
100
AcDbLine
 10
-357.806636
 20
120.332341
 30
0.0
 11
-357.806636
 21
122.457341
 31
0.0
  0
LINE
  5
1D8
100
AcDbEntity
  8
LY_1
  6
CONTINUOUS
 62
     7
100
AcDbLine
 10
-363.206636
 20
120.332341
 30
0.0
 11
-363.206636
 21
122.457341
 31
0.0
  0
LINE
  5
1D9
100
AcDbEntity
  8
LY_1
  6
CONTINUOUS
 62
     7
100
AcDbLine
 10
-314.606636
 20
124.157341
 30
0.0
 11
-314.606636
 21
124.332341
 31
0.0
  0
LINE
  5
1DA
100
AcDbEntity
  8
LY_1
  6
CONTINUOUS
 62
     7
100
AcDbLine
 10
-311.606636
 20
124.332341
 30
0.0
 11
-311.606636
 21
124.157341
 31
0.0
  0
LINE
  5
1DB
100
AcDbEntity
  8
LY_1
  6
CONTINUOUS
 62
     7
100
AcDbLine
 10
-314.606636
 20
120.332341
 30
0.0
 11
-314.606636
 21
122.457341
 31
0.0
  0
LINE
  5
1DC
100
AcDbEntity
  8
LY_1
  6
CONTINUOUS
 62
     7
100
AcDbLine
 10
-311.606636
 20
122.457341
 30
0.0
 11
-311.606636
 21
120.332341
 31
0.0
  0
LINE
  5
1DD
100
AcDbEntity
  8
LY_1
  6
CONTINUOUS
 62
     7
100
AcDbLine
 10
-365.606636
 20
124.332341
 30
0.0
 11
-365.606636
 21
124.157341
 31
0.0
  0
LINE
  5
1DE
100
AcDbEntity
  8
LY_1
  6
CONTINUOUS
 62
     7
100
AcDbLine
 10
-368.606636
 20
124.157341
 30
0.0
 11
-368.606636
 21
124.332341
 31
0.0
  0
LINE
  5
1DF
100
AcDbEntity
  8
LY_1
  6
CONTINUOUS
 62
     7
100
AcDbLine
 10
-368.606636
 20
120.332341
 30
0.0
 11
-368.606636
 21
122.457341
 31
0.0
  0
LINE
  5
1E0
100
AcDbEntity
  8
LY_1
  6
CONTINUOUS
 62
     7
100
AcDbLine
 10
-365.606636
 20
122.457341
 30
0.0
 11
-365.606636
 21
120.332341
 31
0.0
  0
LINE
  5
1E1
100
AcDbEntity
  8
LY_1
  6
CONTINUOUS
 62
     7
100
AcDbLine
 10
-306.206636
 20
124.332341
 30
0.0
 11
-306.206636
 21
124.157341
 31
0.0
  0
LINE
  5
1E2
100
AcDbEntity
  8
LY_1
  6
CONTINUOUS
 62
     7
100
AcDbLine
 10
-309.206636
 20
124.157341
 30
0.0
 11
-309.206636
 21
124.332341
 31
0.0
  0
LINE
  5
1E3
100
AcDbEntity
  8
LY_1
  6
CONTINUOUS
 62
     7
100
AcDbLine
 10
-309.206636
 20
120.332341
 30
0.0
 11
-309.206636
 21
122.457341
 31
0.0
  0
LINE
  5
1E4
100
AcDbEntity
  8
LY_1
  6
CONTINUOUS
 62
     7
100
AcDbLine
 10
-306.206636
 20
122.457341
 30
0.0
 11
-306.206636
 21
120.332341
 31
0.0
  0
ARC
  5
1E5
100
AcDbEntity
  8
LY_1
  6
CONTINUOUS
 62
     7
100
AcDbCircle
 10
-319.506636
 20
122.457341
 30
0.0
 40
0.5
100
AcDbArc
 50
90.0
 51
180.0
  0
ARC
  5
1E6
100
AcDbEntity
  8
LY_1
  6
CONTINUOUS
 62
     7
100
AcDbCircle
 10
-317.506636
 20
122.457341
 30
0.0
 40
0.5
100
AcDbArc
 50
0.0
 51
90.0
  0
ARC
  5
1E7
100
AcDbEntity
  8
LY_1
  6
CONTINUOUS
 62
     7
100
AcDbCircle
 10
-330.306636
 20
122.457341
 30
0.0
 40
0.5
100
AcDbArc
 50
90.0
 51
180.0
  0
ARC
  5
1E8
100
AcDbEntity
  8
LY_1
  6
CONTINUOUS
 62
     7
100
AcDbCircle
 10
-328.306636
 20
122.457341
 30
0.0
 40
0.5
100
AcDbArc
 50
0.0
 51
90.0
  0
ARC
  5
1E9
100
AcDbEntity
  8
LY_1
  6
CONTINUOUS
 62
     7
100
AcDbCircle
 10
-346.506636
 20
122.457341
 30
0.0
 40
0.5
100
AcDbArc
 50
90.0
 51
180.0
  0
ARC
  5
1EA
100
AcDbEntity
  8
LY_1
  6
CONTINUOUS
 62
     7
100
AcDbCircle
 10
-344.506636
 20
122.457341
 30
0.0
 40
0.5
100
AcDbArc
 50
0.0
 51
90.0
  0
ARC
  5
1EB
100
AcDbEntity
  8
LY_1
  6
CONTINUOUS
 62
     7
100
AcDbCircle
 10
-341.106636
 20
122.457341
 30
0.0
 40
0.5
100
AcDbArc
 50
90.0
 51
180.0
  0
ARC
  5
1EC
100
AcDbEntity
  8
LY_1
  6
CONTINUOUS
 62
     7
100
AcDbCircle
 10
-339.106636
 20
122.457341
 30
0.0
 40
0.5
100
AcDbArc
 50
0.0
 51
90.0
  0
ARC
  5
1ED
100
AcDbEntity
  8
LY_1
  6
CONTINUOUS
 62
     7
100
AcDbCircle
 10
-335.706636
 20
122.457341
 30
0.0
 40
0.5
100
AcDbArc
 50
90.0
 51
180.0
  0
ARC
  5
1EE
100
AcDbEntity
  8
LY_1
  6
CONTINUOUS
 62
     7
100
AcDbCircle
 10
-333.706636
 20
122.457341
 30
0.0
 40
0.5
100
AcDbArc
 50
0.0
 51
90.0
  0
ARC
  5
1EF
100
AcDbEntity
  8
LY_1
  6
CONTINUOUS
 62
     7
100
AcDbCircle
 10
-351.906636
 20
122.457341
 30
0.0
 40
0.5
100
AcDbArc
 50
90.0
 51
180.0
  0
ARC
  5
1F0
100
AcDbEntity
  8
LY_1
  6
CONTINUOUS
 62
     7
100
AcDbCircle
 10
-349.906636
 20
122.457341
 30
0.0
 40
0.5
100
AcDbArc
 50
0.0
 51
90.0
  0
ARC
  5
1F1
100
AcDbEntity
  8
LY_1
  6
CONTINUOUS
 62
     7
100
AcDbCircle
 10
-324.906636
 20
122.457341
 30
0.0
 40
0.5
100
AcDbArc
 50
90.0
 51
180.0
  0
ARC
  5
1F2
100
AcDbEntity
  8
LY_1
  6
CONTINUOUS
 62
     7
100
AcDbCircle
 10
-322.906636
 20
122.457341
 30
0.0
 40
0.5
100
AcDbArc
 50
0.0
 51
90.0
  0
ARC
  5
1F3
100
AcDbEntity
  8
LY_1
  6
CONTINUOUS
 62
     7
100
AcDbCircle
 10
-357.306636
 20
122.457341
 30
0.0
 40
0.5
100
AcDbArc
 50
90.0
 51
180.0
  0
ARC
  5
1F4
100
AcDbEntity
  8
LY_1
  6
CONTINUOUS
 62
     7
100
AcDbCircle
 10
-355.306636
 20
122.457341
 30
0.0
 40
0.5
100
AcDbArc
 50
0.0
 51
90.0
  0
ARC
  5
1F5
100
AcDbEntity
  8
LY_1
  6
CONTINUOUS
 62
     7
100
AcDbCircle
 10
-362.706636
 20
122.457341
 30
0.0
 40
0.5
100
AcDbArc
 50
90.0
 51
180.0
  0
ARC
  5
1F6
100
AcDbEntity
  8
LY_1
  6
CONTINUOUS
 62
     7
100
AcDbCircle
 10
-360.706636
 20
122.457341
 30
0.0
 40
0.5
100
AcDbArc
 50
0.0
 51
90.0
  0
ARC
  5
1F7
100
AcDbEntity
  8
LY_1
  6
CONTINUOUS
 62
     7
100
AcDbCircle
 10
-314.106636
 20
122.457341
 30
0.0
 40
0.5
100
AcDbArc
 50
90.0
 51
180.0
  0
ARC
  5
1F8
100
AcDbEntity
  8
LY_1
  6
CONTINUOUS
 62
     7
100
AcDbCircle
 10
-312.106636
 20
122.457341
 30
0.0
 40
0.5
100
AcDbArc
 50
0.0
 51
90.0
  0
ARC
  5
1F9
100
AcDbEntity
  8
LY_1
  6
CONTINUOUS
 62
     7
100
AcDbCircle
 10
-366.106636
 20
122.457341
 30
0.0
 40
0.5
100
AcDbArc
 50
0.0
 51
90.0
  0
ARC
  5
1FA
100
AcDbEntity
  8
LY_1
  6
CONTINUOUS
 62
     7
100
AcDbCircle
 10
-368.106636
 20
122.457341
 30
0.0
 40
0.5
100
AcDbArc
 50
90.0
 51
180.0
  0
ARC
  5
1FB
100
AcDbEntity
  8
LY_1
  6
CONTINUOUS
 62
     7
100
AcDbCircle
 10
-308.706636
 20
122.457341
 30
0.0
 40
0.5
100
AcDbArc
 50
90.0
 51
180.0
  0
ARC
  5
1FC
100
AcDbEntity
  8
LY_1
  6
CONTINUOUS
 62
     7
100
AcDbCircle
 10
-306.706636
 20
122.457341
 30
0.0
 40
0.5
100
AcDbArc
 50
0.0
 51
90.0
  0
LINE
  5
1FD
100
AcDbEntity
  8
LY_1
  6
CONTINUOUS
 62
     7
100
AcDbLine
 10
-319.506636
 20
122.957341
 30
0.0
 11
-317.506636
 21
122.957341
 31
0.0
  0
LINE
  5
1FE
100
AcDbEntity
  8
LY_1
  6
CONTINUOUS
 62
     7
100
AcDbLine
 10
-330.306636
 20
122.957341
 30
0.0
 11
-328.306636
 21
122.957341
 31
0.0
  0
LINE
  5
1FF
100
AcDbEntity
  8
LY_1
  6
CONTINUOUS
 62
     7
100
AcDbLine
 10
-346.506636
 20
122.957341
 30
0.0
 11
-344.506636
 21
122.957341
 31
0.0
  0
LINE
  5
200
100
AcDbEntity
  8
LY_1
  6
CONTINUOUS
 62
     7
100
AcDbLine
 10
-341.106636
 20
122.957341
 30
0.0
 11
-339.106636
 21
122.957341
 31
0.0
  0
LINE
  5
201
100
AcDbEntity
  8
LY_1
  6
CONTINUOUS
 62
     7
100
AcDbLine
 10
-335.706636
 20
122.957341
 30
0.0
 11
-333.706636
 21
122.957341
 31
0.0
  0
LINE
  5
202
100
AcDbEntity
  8
LY_1
  6
CONTINUOUS
 62
     7
100
AcDbLine
 10
-351.906636
 20
122.957341
 30
0.0
 11
-349.906636
 21
122.957341
 31
0.0
  0
LINE
  5
203
100
AcDbEntity
  8
LY_1
  6
CONTINUOUS
 62
     7
100
AcDbLine
 10
-324.906636
 20
122.957341
 30
0.0
 11
-322.906636
 21
122.957341
 31
0.0
  0
LINE
  5
204
100
AcDbEntity
  8
LY_1
  6
CONTINUOUS
 62
     7
100
AcDbLine
 10
-357.306636
 20
122.957341
 30
0.0
 11
-355.306636
 21
122.957341
 31
0.0
  0
LINE
  5
205
100
AcDbEntity
  8
LY_1
  6
CONTINUOUS
 62
     7
100
AcDbLine
 10
-362.706636
 20
122.957341
 30
0.0
 11
-360.706636
 21
122.957341
 31
0.0
  0
LINE
  5
206
100
AcDbEntity
  8
LY_1
  6
CONTINUOUS
 62
     7
100
AcDbLine
 10
-314.106636
 20
122.957341
 30
0.0
 11
-312.106636
 21
122.957341
 31
0.0
  0
LINE
  5
207
100
AcDbEntity
  8
LY_1
  6
CONTINUOUS
 62
     7
100
AcDbLine
 10
-368.106636
 20
122.957341
 30
0.0
 11
-366.106636
 21
122.957341
 31
0.0
  0
LINE
  5
208
100
AcDbEntity
  8
LY_1
  6
CONTINUOUS
 62
     7
100
AcDbLine
 10
-308.706636
 20
122.957341
 30
0.0
 11
-306.706636
 21
122.957341
 31
0.0
  0
LINE
  5
209
100
AcDbEntity
  8
LY_1
  6
CONTINUOUS
 62
     7
100
AcDbLine
 10
-306.056636
 20
120.332341
 30
0.0
 11
-309.356636
 21
120.332341
 31
0.0
  0
LINE
  5
20A
100
AcDbEntity
  8
LY_1
  6
CONTINUOUS
 62
     7
100
AcDbLine
 10
-311.456636
 20
120.332341
 30
0.0
 11
-314.756636
 21
120.332341
 31
0.0
  0
LINE
  5
20B
100
AcDbEntity
  8
LY_1
  6
CONTINUOUS
 62
     7
100
AcDbLine
 10
-316.856636
 20
120.332341
 30
0.0
 11
-320.156636
 21
120.332341
 31
0.0
  0
LINE
  5
20C
100
AcDbEntity
  8
LY_1
  6
CONTINUOUS
 62
     7
100
AcDbLine
 10
-336.356636
 20
120.332341
 30
0.0
 11
-336.356636
 21
124.332341
 31
0.0
  0
LINE
  5
20D
100
AcDbEntity
  8
LY_1
  6
CONTINUOUS
 62
     7
100
AcDbLine
 10
-337.006636
 20
118.532341
 30
0.0
 11
-336.356636
 21
120.332341
 31
0.0
  0
LINE
  5
20E
100
AcDbEntity
  8
LY_1
  6
CONTINUOUS
 62
     7
100
AcDbLine
 10
-336.356636
 20
124.332341
 30
0.0
 11
-337.006636
 21
126.132341
 31
0.0
  0
LINE
  5
20F
100
AcDbEntity
  8
LY_1
  6
CONTINUOUS
 62
     7
100
AcDbLine
 10
-330.956636
 20
120.332341
 30
0.0
 11
-330.956636
 21
124.332341
 31
0.0
  0
LINE
  5
210
100
AcDbEntity
  8
LY_1
  6
CONTINUOUS
 62
     7
100
AcDbLine
 10
-331.606636
 20
118.532341
 30
0.0
 11
-330.956636
 21
120.332341
 31
0.0
  0
LINE
  5
211
100
AcDbEntity
  8
LY_1
  6
CONTINUOUS
 62
     7
100
AcDbLine
 10
-330.956636
 20
124.332341
 30
0.0
 11
-331.606636
 21
126.132341
 31
0.0
  0
LINE
  5
212
100
AcDbEntity
  8
LY_1
  6
CONTINUOUS
 62
     7
100
AcDbLine
 10
-333.056636
 20
120.332341
 30
0.0
 11
-332.406636
 21
118.532341
 31
0.0
  0
LINE
  5
213
100
AcDbEntity
  8
LY_1
  6
CONTINUOUS
 62
     7
100
AcDbLine
 10
-333.056636
 20
124.332341
 30
0.0
 11
-333.056636
 21
120.332341
 31
0.0
  0
LINE
  5
214
100
AcDbEntity
  8
LY_1
  6
CONTINUOUS
 62
     7
100
AcDbLine
 10
-332.406636
 20
126.132341
 30
0.0
 11
-333.056636
 21
124.332341
 31
0.0
  0
LINE
  5
215
100
AcDbEntity
  8
LY_1
  6
CONTINUOUS
 62
     7
100
AcDbLine
 10
-327.656636
 20
120.332341
 30
0.0
 11
-327.006636
 21
118.532341
 31
0.0
  0
LINE
  5
216
100
AcDbEntity
  8
LY_1
  6
CONTINUOUS
 62
     7
100
AcDbLine
 10
-327.656636
 20
124.332341
 30
0.0
 11
-327.656636
 21
120.332341
 31
0.0
  0
LINE
  5
217
100
AcDbEntity
  8
LY_1
  6
CONTINUOUS
 62
     7
100
AcDbLine
 10
-327.006636
 20
126.132341
 30
0.0
 11
-327.656636
 21
124.332341
 31
0.0
  0
LINE
  5
218
100
AcDbEntity
  8
LY_1
  6
CONTINUOUS
 62
     7
100
AcDbLine
 10
-320.156636
 20
124.332341
 30
0.0
 11
-316.856636
 21
124.332341
 31
0.0
  0
LINE
  5
219
100
AcDbEntity
  8
LY_1
  6
CONTINUOUS
 62
     7
100
AcDbLine
 10
-320.156636
 20
120.332341
 30
0.0
 11
-320.156636
 21
124.332341
 31
0.0
  0
LINE
  5
21A
100
AcDbEntity
  8
LY_1
  6
CONTINUOUS
 62
     7
100
AcDbLine
 10
-320.791626
 20
118.573906
 30
0.0
 11
-320.156636
 21
120.332341
 31
0.0
  0
LINE
  5
21B
100
AcDbEntity
  8
LY_1
  6
CONTINUOUS
 62
     7
100
AcDbLine
 10
-320.156636
 20
124.332341
 30
0.0
 11
-320.791626
 21
126.090775
 31
0.0
  0
LINE
  5
21C
100
AcDbEntity
  8
LY_1
  6
CONTINUOUS
 62
     7
100
AcDbLine
 10
-316.856636
 20
120.332341
 30
0.0
 11
-316.270496
 21
118.709185
 31
0.0
  0
LINE
  5
21D
100
AcDbEntity
  8
LY_1
  6
CONTINUOUS
 62
     7
100
AcDbLine
 10
-316.856636
 20
124.332341
 30
0.0
 11
-316.856636
 21
120.332341
 31
0.0
  0
LINE
  5
21E
100
AcDbEntity
  8
LY_1
  6
CONTINUOUS
 62
     7
100
AcDbLine
 10
-316.270496
 20
125.955496
 30
0.0
 11
-316.856636
 21
124.332341
 31
0.0
  0
LINE
  5
21F
100
AcDbEntity
  8
LY_1
  6
CONTINUOUS
 62
     7
100
AcDbLine
 10
-314.756636
 20
124.332341
 30
0.0
 11
-311.456636
 21
124.332341
 31
0.0
  0
LINE
  5
220
100
AcDbEntity
  8
LY_1
  6
CONTINUOUS
 62
     7
100
AcDbLine
 10
-314.756636
 20
120.332341
 30
0.0
 11
-314.756636
 21
124.332341
 31
0.0
  0
LINE
  5
221
100
AcDbEntity
  8
LY_1
  6
CONTINUOUS
 62
     7
100
AcDbLine
 10
-315.331155
 20
118.741365
 30
0.0
 11
-314.756636
 21
120.332341
 31
0.0
  0
LINE
  5
222
100
AcDbEntity
  8
LY_1
  6
CONTINUOUS
 62
     7
100
AcDbLine
 10
-314.756636
 20
124.332341
 30
0.0
 11
-315.331155
 21
125.923316
 31
0.0
  0
LINE
  5
223
100
AcDbEntity
  8
LY_1
  6
CONTINUOUS
 62
     7
100
AcDbLine
 10
-311.456636
 20
120.332341
 30
0.0
 11
-310.943113
 21
118.910277
 31
0.0
  0
LINE
  5
224
100
AcDbEntity
  8
LY_1
  6
CONTINUOUS
 62
     7
100
AcDbLine
 10
-311.456636
 20
124.332341
 30
0.0
 11
-311.456636
 21
120.332341
 31
0.0
  0
LINE
  5
225
100
AcDbEntity
  8
LY_1
  6
CONTINUOUS
 62
     7
100
AcDbLine
 10
-310.943113
 20
125.754405
 30
0.0
 11
-311.456636
 21
124.332341
 31
0.0
  0
LINE
  5
226
100
AcDbEntity
  8
LY_1
  6
CONTINUOUS
 62
     7
100
AcDbLine
 10
-309.356636
 20
124.332341
 30
0.0
 11
-306.056636
 21
124.332341
 31
0.0
  0
LINE
  5
227
100
AcDbEntity
  8
LY_1
  6
CONTINUOUS
 62
     7
100
AcDbLine
 10
-309.356636
 20
120.332341
 30
0.0
 11
-309.356636
 21
124.332341
 31
0.0
  0
LINE
  5
228
100
AcDbEntity
  8
LY_1
  6
CONTINUOUS
 62
     7
100
AcDbLine
 10
-309.853295
 20
118.956977
 30
0.0
 11
-309.356636
 21
120.332341
 31
0.0
  0
LINE
  5
229
100
AcDbEntity
  8
LY_1
  6
CONTINUOUS
 62
     7
100
AcDbLine
 10
-309.356636
 20
124.332341
 30
0.0
 11
-309.853295
 21
125.707704
 31
0.0
  0
LINE
  5
22A
100
AcDbEntity
  8
LY_1
  6
CONTINUOUS
 62
     7
100
AcDbLine
 10
-306.056636
 20
120.332341
 30
0.0
 11
-305.631753
 21
119.155741
 31
0.0
  0
LINE
  5
22B
100
AcDbEntity
  8
LY_1
  6
CONTINUOUS
 62
     7
100
AcDbLine
 10
-306.056636
 20
124.332341
 30
0.0
 11
-306.056636
 21
120.332341
 31
0.0
  0
LINE
  5
22C
100
AcDbEntity
  8
LY_1
  6
CONTINUOUS
 62
     7
100
AcDbLine
 10
-305.631753
 20
125.50894
 30
0.0
 11
-306.056636
 21
124.332341
 31
0.0
  0
LINE
  5
22D
100
AcDbEntity
  8
LY_1
  6
CONTINUOUS
 62
     7
100
AcDbLine
 10
-325.556636
 20
120.332341
 30
0.0
 11
-325.556636
 21
124.332341
 31
0.0
  0
LINE
  5
22E
100
AcDbEntity
  8
LY_1
  6
CONTINUOUS
 62
     7
100
AcDbLine
 10
-325.556636
 20
124.332341
 30
0.0
 11
-326.206636
 21
126.132341
 31
0.0
  0
LINE
  5
22F
100
AcDbEntity
  8
LY_1
  6
CONTINUOUS
 62
     7
100
AcDbLine
 10
-326.206636
 20
118.532341
 30
0.0
 11
-325.556636
 21
120.332341
 31
0.0
  0
LINE
  5
230
100
AcDbEntity
  8
LY_1
  6
CONTINUOUS
 62
     7
100
AcDbLine
 10
-322.256636
 20
124.332341
 30
0.0
 11
-322.256636
 21
120.332341
 31
0.0
  0
LINE
  5
231
100
AcDbEntity
  8
LY_1
  6
CONTINUOUS
 62
     7
100
AcDbLine
 10
-321.614019
 20
126.111895
 30
0.0
 11
-322.256636
 21
124.332341
 31
0.0
  0
LINE
  5
232
100
AcDbEntity
  8
LY_1
  6
CONTINUOUS
 62
     7
100
AcDbLine
 10
-322.256636
 20
120.332341
 30
0.0
 11
-321.614019
 21
118.552787
 31
0.0
  0
LINE
  5
233
100
AcDbEntity
  8
LY_1
  6
CONTINUOUS
 62
     7
100
AcDbLine
 10
-327.656636
 20
120.332341
 30
0.0
 11
-330.956636
 21
120.332341
 31
0.0
  0
LINE
  5
234
100
AcDbEntity
  8
LY_1
  6
CONTINUOUS
 62
     7
100
AcDbLine
 10
-331.606636
 20
118.532341
 30
0.0
 11
-327.006636
 21
118.532341
 31
0.0
  0
LINE
  5
235
100
AcDbEntity
  8
LY_1
  6
CONTINUOUS
 62
     7
100
AcDbLine
 10
-330.956636
 20
124.332341
 30
0.0
 11
-327.656636
 21
124.332341
 31
0.0
  0
LINE
  5
236
100
AcDbEntity
  8
LY_1
  6
CONTINUOUS
 62
     7
100
AcDbLine
 10
-327.006636
 20
126.132341
 30
0.0
 11
-331.606636
 21
126.132341
 31
0.0
  0
LINE
  5
237
100
AcDbEntity
  8
LY_1
  6
CONTINUOUS
 62
     7
100
AcDbLine
 10
-336.356636
 20
124.332341
 30
0.0
 11
-333.056636
 21
124.332341
 31
0.0
  0
LINE
  5
238
100
AcDbEntity
  8
LY_1
  6
CONTINUOUS
 62
     7
100
AcDbLine
 10
-332.406636
 20
126.132341
 30
0.0
 11
-337.006636
 21
126.132341
 31
0.0
  0
LINE
  5
239
100
AcDbEntity
  8
LY_1
  6
CONTINUOUS
 62
     7
100
AcDbLine
 10
-333.056636
 20
120.332341
 30
0.0
 11
-336.356636
 21
120.332341
 31
0.0
  0
LINE
  5
23A
100
AcDbEntity
  8
LY_1
  6
CONTINUOUS
 62
     7
100
AcDbLine
 10
-337.006636
 20
118.532341
 30
0.0
 11
-332.406636
 21
118.532341
 31
0.0
  0
LINE
  5
23B
100
AcDbEntity
  8
LY_1
  6
CONTINUOUS
 62
     7
100
AcDbLine
 10
-322.256636
 20
120.332341
 30
0.0
 11
-325.556636
 21
120.332341
 31
0.0
  0
LINE
  5
23C
100
AcDbEntity
  8
LY_1
  6
CONTINUOUS
 62
     7
100
AcDbLine
 10
-326.206636
 20
118.532341
 30
0.0
 11
-322.453286
 21
118.532341
 31
0.0
  0
LINE
  5
23D
100
AcDbEntity
  8
LY_1
  6
CONTINUOUS
 62
     7
100
AcDbLine
 10
-325.556636
 20
124.332341
 30
0.0
 11
-322.256636
 21
124.332341
 31
0.0
  0
LINE
  5
23E
100
AcDbEntity
  8
LY_1
  6
CONTINUOUS
 62
     7
100
AcDbLine
 10
-322.453286
 20
126.132341
 30
0.0
 11
-326.206636
 21
126.132341
 31
0.0
  0
ELLIPSE
  5
23F
100
AcDbEntity
  8
LY_1
  6
CONTINUOUS
 62
     7
100
AcDbEllipse
 10
-337.406636
 20
445.667221
 30
0.0
 11
-454.59999999999951
 21
0.0000000000000557
 31
0.0
210
0.0
220
0.0
230
1.0
 40
0.72
 41
1.607353104048699
 42
1.6173070218464509
  0
ELLIPSE
  5
240
100
AcDbEntity
  8
LY_1
  6
CONTINUOUS
 62
     7
100
AcDbEllipse
 10
-337.406636
 20
445.667221
 30
0.0
 11
-454.5999999999994
 21
0.0000000000000557
 31
0.0
210
0.0
220
0.0
230
1.0
 40
0.72
 41
1.6193756630214819
 42
1.6290420202117031
  0
ELLIPSE
  5
241
100
AcDbEntity
  8
LY_1
  6
CONTINUOUS
 62
     7
100
AcDbEllipse
 10
-337.406636
 20
-201.002539
 30
0.0
 11
454.5999999999994
 21
0.0000000000001504
 31
0.0
210
0.0
220
0.0
230
1.0
 40
0.72
 41
1.52428563174334
 42
1.5342395495410921
  0
ELLIPSE
  5
242
100
AcDbEntity
  8
LY_1
  6
CONTINUOUS
 62
     7
100
AcDbEllipse
 10
-337.406636
 20
-201.002539
 30
0.0
 11
454.5999999999994
 21
0.0000000000001589
 31
0.0
210
0.0
220
0.0
230
1.0
 40
0.72
 41
1.5125506333780869
 42
1.5222169905683069
  0
ELLIPSE
  5
243
100
AcDbEntity
  8
LY_1
  6
CONTINUOUS
 62
     7
100
AcDbEllipse
 10
-337.406636
 20
445.667221
 30
0.0
 11
-454.59999999999951
 21
0.0000000000000557
 31
0.0
210
0.0
220
0.0
230
1.0
 40
0.72
 41
1.6314435747592451
 42
1.640749720845468
  0
LINE
  5
244
100
AcDbEntity
  8
LY_1
  6
CONTINUOUS
 62
     7
100
AcDbLine
 10
-305.631753
 20
119.155741
 30
0.0
 11
-305.631753
 21
125.50894
 31
0.0
  0
ELLIPSE
  5
245
100
AcDbEntity
  8
LY_1
  6
CONTINUOUS
 62
     7
100
AcDbEllipse
 10
-337.406636
 20
-201.002539
 30
0.0
 11
454.5999999999994
 21
0.000000000000142
 31
0.0
210
0.0
220
0.0
230
1.0
 40
0.72
 41
1.500842932744322
 42
1.5101490788305441
  0
ELLIPSE
  5
246
100
AcDbEntity
  8
LY_1
  6
CONTINUOUS
 62
     7
100
AcDbEllipse
 10
-337.406636
 20
-201.002539
 30
0.0
 11
454.5999999999994
 21
0.0000000000001462
 31
0.0
210
0.0
220
0.0
230
1.0
 40
0.72
 41
1.536049747495654
 42
1.537896968887414
  0
LINE
  5
247
100
AcDbEntity
  8
LY_1
  6
CONTINUOUS
 62
     7
100
AcDbLine
 10
-322.453286
 20
126.132341
 30
0.0
 11
-322.453286
 21
128.732341
 31
0.0
  0
LINE
  5
248
100
AcDbEntity
  8
LY_1
  6
CONTINUOUS
 62
     7
100
AcDbLine
 10
-322.453286
 20
116.732341
 30
0.0
 11
-322.453286
 21
118.532341
 31
0.0
  0
ELLIPSE
  5
249
100
AcDbEntity
  8
LY_1
  6
CONTINUOUS
 62
     7
100
AcDbEllipse
 10
-337.406636
 20
445.667221
 30
0.0
 11
-454.5999999999994
 21
0.0000000000000557
 31
0.0
210
0.0
220
0.0
230
1.0
 40
0.72
 41
1.603695684702376
 42
1.605542906094136
  0
LINE
  5
24A
100
AcDbEntity
  8
LY_1
  6
CONTINUOUS
 62
     7
100
AcDbLine
 10
-337.006636
 20
127.166912
 30
0.0
 11
-337.006636
 21
117.497445
 31
0.0
  0
LINE
  5
24B
100
AcDbEntity
  8
LY_1
  6
CONTINUOUS
 62
     7
100
AcDbLine
 10
-331.606636
 20
127.166912
 30
0.0
 11
-331.606636
 21
117.497445
 31
0.0
  0
LINE
  5
24C
100
AcDbEntity
  8
LY_1
  6
CONTINUOUS
 62
     7
100
AcDbLine
 10
-332.406636
 20
117.497445
 30
0.0
 11
-332.406636
 21
127.166912
 31
0.0
  0
LINE
  5
24D
100
AcDbEntity
  8
LY_1
  6
CONTINUOUS
 62
     7
100
AcDbLine
 10
-326.206636
 20
127.166912
 30
0.0
 11
-326.206636
 21
117.497445
 31
0.0
  0
LINE
  5
24E
100
AcDbEntity
  8
LY_1
  6
CONTINUOUS
 62
     7
100
AcDbLine
 10
-327.006636
 20
117.497445
 30
0.0
 11
-327.006636
 21
127.166912
 31
0.0
  0
LWPOLYLINE
  5
24F
100
AcDbEntity
  8
LY_1
  6
CONTINUOUS
 62
     7
100
AcDbPolyline
 90
       25
 70
     0
 10
-310.943113
 20
127.166911
 10
-310.943113
 20
126.763669
 10
-310.943113
 20
126.360457
 10
-310.943113
 20
125.957274
 10
-310.943113
 20
125.554123
 10
-310.943113
 20
125.151001
 10
-310.943113
 20
124.74791
 10
-310.943113
 20
124.344849
 10
-310.943113
 20
123.941819
 10
-310.943113
 20
123.538819
 10
-310.943113
 20
123.135848
 10
-310.943113
 20
122.732909
 10
-310.943113
 20
122.329999
 10
-310.943113
 20
121.92712
 10
-310.943113
 20
121.524271
 10
-310.943113
 20
121.121452
 10
-310.943113
 20
120.718664
 10
-310.943113
 20
120.315906
 10
-310.943113
 20
119.913178
 10
-310.943113
 20
119.51048
 10
-310.943113
 20
119.107813
 10
-310.943113
 20
118.705175
 10
-310.943113
 20
118.302568
 10
-310.943113
 20
117.899992
 10
-310.943113
 20
117.497445
  0
LWPOLYLINE
  5
250
100
AcDbEntity
  8
LY_1
  6
CONTINUOUS
 62
     7
100
AcDbPolyline
 90
       25
 70
     0
 10
-320.791627
 20
117.497445
 10
-320.791627
 20
117.899988
 10
-320.791627
 20
118.302562
 10
-320.791627
 20
118.705167
 10
-320.791627
 20
119.107802
 10
-320.791627
 20
119.510467
 10
-320.791627
 20
119.913163
 10
-320.791627
 20
120.31589
 10
-320.791627
 20
120.718646
 10
-320.791627
 20
121.121434
 10
-320.791627
 20
121.524252
 10
-320.791627
 20
121.9271
 10
-320.791627
 20
122.329979
 10
-320.791627
 20
122.732889
 10
-320.791627
 20
123.135829
 10
-320.791627
 20
123.5388
 10
-320.791627
 20
123.941802
 10
-320.791627
 20
124.344833
 10
-320.791627
 20
124.747896
 10
-320.791627
 20
125.150988
 10
-320.791627
 20
125.554112
 10
-320.791627
 20
125.957266
 10
-320.791627
 20
126.360451
 10
-320.791627
 20
126.763666
 10
-320.791627
 20
127.166911
  0
LWPOLYLINE
  5
251
100
AcDbEntity
  8
LY_1
  6
CONTINUOUS
 62
     7
100
AcDbPolyline
 90
       25
 70
     0
 10
-321.614019
 20
127.166911
 10
-321.614019
 20
126.763666
 10
-321.614019
 20
126.36045
 10
-321.614019
 20
125.957265
 10
-321.614019
 20
125.554111
 10
-321.614019
 20
125.150987
 10
-321.614019
 20
124.747894
 10
-321.614019
 20
124.344832
 10
-321.614019
 20
123.9418
 10
-321.614019
 20
123.538799
 10
-321.614019
 20
123.135828
 10
-321.614019
 20
122.732888
 10
-321.614019
 20
122.329978
 10
-321.614019
 20
121.927099
 10
-321.614019
 20
121.52425
 10
-321.614019
 20
121.121433
 10
-321.614019
 20
120.718645
 10
-321.614019
 20
120.315888
 10
-321.614019
 20
119.913162
 10
-321.614019
 20
119.510466
 10
-321.614019
 20
119.107801
 10
-321.614019
 20
118.705166
 10
-321.614019
 20
118.302562
 10
-321.614019
 20
117.899988
 10
-321.614019
 20
117.497445
  0
LWPOLYLINE
  5
252
100
AcDbEntity
  8
LY_1
  6
CONTINUOUS
 62
     7
100
AcDbPolyline
 90
       25
 70
     0
 10
-315.331155
 20
117.497445
 10
-315.331155
 20
117.89999
 10
-315.331155
 20
118.302566
 10
-315.331155
 20
118.705172
 10
-315.331155
 20
119.107808
 10
-315.331155
 20
119.510475
 10
-315.331155
 20
119.913171
 10
-315.331155
 20
120.315898
 10
-315.331155
 20
120.718657
 10
-315.331155
 20
121.121445
 10
-315.331155
 20
121.524263
 10
-315.331155
 20
121.927112
 10
-315.331155
 20
122.329991
 10
-315.331155
 20
122.7329
 10
-315.331155
 20
123.13584
 10
-315.331155
 20
123.53881
 10
-315.331155
 20
123.941811
 10
-315.331155
 20
124.344842
 10
-315.331155
 20
124.747904
 10
-315.331155
 20
125.150996
 10
-315.331155
 20
125.554118
 10
-315.331155
 20
125.957271
 10
-315.331155
 20
126.360454
 10
-315.331155
 20
126.763668
 10
-315.331155
 20
127.166911
  0
LWPOLYLINE
  5
253
100
AcDbEntity
  8
LY_1
  6
CONTINUOUS
 62
     7
100
AcDbPolyline
 90
       25
 70
     0
 10
-316.270498
 20
127.166911
 10
-316.270498
 20
126.763667
 10
-316.270498
 20
126.360453
 10
-316.270498
 20
125.95727
 10
-316.270498
 20
125.554117
 10
-316.270498
 20
125.150995
 10
-316.270498
 20
124.747902
 10
-316.270498
 20
124.344841
 10
-316.270498
 20
123.941809
 10
-316.270498
 20
123.538809
 10
-316.270498
 20
123.135838
 10
-316.270498
 20
122.732898
 10
-316.270498
 20
122.329989
 10
-316.270498
 20
121.92711
 10
-316.270498
 20
121.524261
 10
-316.270498
 20
121.121443
 10
-316.270498
 20
120.718655
 10
-316.270498
 20
120.315897
 10
-316.270498
 20
119.91317
 10
-316.270498
 20
119.510473
 10
-316.270498
 20
119.107807
 10
-316.270498
 20
118.705171
 10
-316.270498
 20
118.302565
 10
-316.270498
 20
117.89999
 10
-316.270498
 20
117.497445
  0
LWPOLYLINE
  5
254
100
AcDbEntity
  8
LY_1
  6
CONTINUOUS
 62
     7
100
AcDbPolyline
 90
       25
 70
     0
 10
-309.853295
 20
117.497445
 10
-309.853295
 20
117.899992
 10
-309.853295
 20
118.302569
 10
-309.853295
 20
118.705176
 10
-309.853295
 20
119.107814
 10
-309.853295
 20
119.510481
 10
-309.853295
 20
119.913179
 10
-309.853295
 20
120.315907
 10
-309.853295
 20
120.718666
 10
-309.853295
 20
121.121455
 10
-309.853295
 20
121.524273
 10
-309.853295
 20
121.927122
 10
-309.853295
 20
122.330001
 10
-309.853295
 20
122.732911
 10
-309.853295
 20
123.135851
 10
-309.853295
 20
123.538821
 10
-309.853295
 20
123.941821
 10
-309.853295
 20
124.344851
 10
-309.853295
 20
124.747912
 10
-309.853295
 20
125.151002
 10
-309.853295
 20
125.554124
 10
-309.853295
 20
125.957275
 10
-309.853295
 20
126.360457
 10
-309.853295
 20
126.763669
 10
-309.853295
 20
127.166911
  0
LINE
  5
255
100
AcDbEntity
  8
LY_1
  6
CONTINUOUS
 62
     7
100
AcDbLine
 10
-341.756636
 20
124.332341
 30
0.0
 11
-338.456636
 21
124.332341
 31
0.0
  0
LINE
  5
256
100
AcDbEntity
  8
LY_1
  6
CONTINUOUS
 62
     7
100
AcDbLine
 10
-347.156636
 20
124.332341
 30
0.0
 11
-343.856636
 21
124.332341
 31
0.0
  0
LINE
  5
257
100
AcDbEntity
  8
LY_1
  6
CONTINUOUS
 62
     7
100
AcDbLine
 10
-357.956636
 20
124.332341
 30
0.0
 11
-354.656636
 21
124.332341
 31
0.0
  0
LINE
  5
258
100
AcDbEntity
  8
LY_1
  6
CONTINUOUS
 62
     7
100
AcDbLine
 10
-363.356636
 20
124.332341
 30
0.0
 11
-360.056636
 21
124.332341
 31
0.0
  0
LINE
  5
259
100
AcDbEntity
  8
LY_1
  6
CONTINUOUS
 62
     7
100
AcDbLine
 10
-368.756636
 20
124.332341
 30
0.0
 11
-365.456636
 21
124.332341
 31
0.0
  0
LINE
  5
25A
100
AcDbEntity
  8
LY_1
  6
CONTINUOUS
 62
     7
100
AcDbLine
 10
-349.256636
 20
120.332341
 30
0.0
 11
-352.556636
 21
120.332341
 31
0.0
  0
LINE
  5
25B
100
AcDbEntity
  8
LY_1
  6
CONTINUOUS
 62
     7
100
AcDbLine
 10
-343.856636
 20
120.332341
 30
0.0
 11
-347.156636
 21
120.332341
 31
0.0
  0
LINE
  5
25C
100
AcDbEntity
  8
LY_1
  6
CONTINUOUS
 62
     7
100
AcDbLine
 10
-338.456636
 20
120.332341
 30
0.0
 11
-341.756636
 21
120.332341
 31
0.0
  0
LINE
  5
25D
100
AcDbEntity
  8
LY_1
  6
CONTINUOUS
 62
     7
100
AcDbLine
 10
-338.456636
 20
124.332341
 30
0.0
 11
-338.456636
 21
120.332341
 31
0.0
  0
LINE
  5
25E
100
AcDbEntity
  8
LY_1
  6
CONTINUOUS
 62
     7
100
AcDbLine
 10
-337.806636
 20
126.132341
 30
0.0
 11
-338.456636
 21
124.332341
 31
0.0
  0
LINE
  5
25F
100
AcDbEntity
  8
LY_1
  6
CONTINUOUS
 62
     7
100
AcDbLine
 10
-338.456636
 20
120.332341
 30
0.0
 11
-337.806636
 21
118.532341
 31
0.0
  0
LINE
  5
260
100
AcDbEntity
  8
LY_1
  6
CONTINUOUS
 62
     7
100
AcDbLine
 10
-343.856636
 20
124.332341
 30
0.0
 11
-343.856636
 21
120.332341
 31
0.0
  0
LINE
  5
261
100
AcDbEntity
  8
LY_1
  6
CONTINUOUS
 62
     7
100
AcDbLine
 10
-343.206636
 20
126.132341
 30
0.0
 11
-343.856636
 21
124.332341
 31
0.0
  0
LINE
  5
262
100
AcDbEntity
  8
LY_1
  6
CONTINUOUS
 62
     7
100
AcDbLine
 10
-343.856636
 20
120.332341
 30
0.0
 11
-343.206636
 21
118.532341
 31
0.0
  0
LINE
  5
263
100
AcDbEntity
  8
LY_1
  6
CONTINUOUS
 62
     7
100
AcDbLine
 10
-349.256636
 20
124.332341
 30
0.0
 11
-349.256636
 21
120.332341
 31
0.0
  0
LINE
  5
264
100
AcDbEntity
  8
LY_1
  6
CONTINUOUS
 62
     7
100
AcDbLine
 10
-349.256636
 20
120.332341
 30
0.0
 11
-348.606636
 21
118.532341
 31
0.0
  0
LINE
  5
265
100
AcDbEntity
  8
LY_1
  6
CONTINUOUS
 62
     7
100
AcDbLine
 10
-354.656636
 20
124.332341
 30
0.0
 11
-354.656636
 21
120.332341
 31
0.0
  0
LINE
  5
266
100
AcDbEntity
  8
LY_1
  6
CONTINUOUS
 62
     7
100
AcDbLine
 10
-354.021646
 20
126.090775
 30
0.0
 11
-354.656636
 21
124.332341
 31
0.0
  0
LINE
  5
267
100
AcDbEntity
  8
LY_1
  6
CONTINUOUS
 62
     7
100
AcDbLine
 10
-360.056636
 20
124.332341
 30
0.0
 11
-360.056636
 21
120.332341
 31
0.0
  0
LINE
  5
268
100
AcDbEntity
  8
LY_1
  6
CONTINUOUS
 62
     7
100
AcDbLine
 10
-359.482117
 20
125.923316
 30
0.0
 11
-360.056636
 21
124.332341
 31
0.0
  0
LINE
  5
269
100
AcDbEntity
  8
LY_1
  6
CONTINUOUS
 62
     7
100
AcDbLine
 10
-365.456636
 20
124.332341
 30
0.0
 11
-365.456636
 21
120.332341
 31
0.0
  0
LINE
  5
26A
100
AcDbEntity
  8
LY_1
  6
CONTINUOUS
 62
     7
100
AcDbLine
 10
-364.959977
 20
125.707704
 30
0.0
 11
-365.456636
 21
124.332341
 31
0.0
  0
LINE
  5
26B
100
AcDbEntity
  8
LY_1
  6
CONTINUOUS
 62
     7
100
AcDbLine
 10
-341.756636
 20
120.332341
 30
0.0
 11
-341.756636
 21
124.332341
 31
0.0
  0
LINE
  5
26C
100
AcDbEntity
  8
LY_1
  6
CONTINUOUS
 62
     7
100
AcDbLine
 10
-342.406636
 20
118.532341
 30
0.0
 11
-341.756636
 21
120.332341
 31
0.0
  0
LINE
  5
26D
100
AcDbEntity
  8
LY_1
  6
CONTINUOUS
 62
     7
100
AcDbLine
 10
-341.756636
 20
124.332341
 30
0.0
 11
-342.406636
 21
126.132341
 31
0.0
  0
LINE
  5
26E
100
AcDbEntity
  8
LY_1
  6
CONTINUOUS
 62
     7
100
AcDbLine
 10
-347.156636
 20
120.332341
 30
0.0
 11
-347.156636
 21
124.332341
 31
0.0
  0
LINE
  5
26F
100
AcDbEntity
  8
LY_1
  6
CONTINUOUS
 62
     7
100
AcDbLine
 10
-347.806636
 20
118.532341
 30
0.0
 11
-347.156636
 21
120.332341
 31
0.0
  0
LINE
  5
270
100
AcDbEntity
  8
LY_1
  6
CONTINUOUS
 62
     7
100
AcDbLine
 10
-347.156636
 20
124.332341
 30
0.0
 11
-347.806636
 21
126.132341
 31
0.0
  0
LINE
  5
271
100
AcDbEntity
  8
LY_1
  6
CONTINUOUS
 62
     7
100
AcDbLine
 10
-352.556636
 20
120.332341
 30
0.0
 11
-352.556636
 21
124.332341
 31
0.0
  0
LINE
  5
272
100
AcDbEntity
  8
LY_1
  6
CONTINUOUS
 62
     7
100
AcDbLine
 10
-353.199253
 20
118.552787
 30
0.0
 11
-352.556636
 21
120.332341
 31
0.0
  0
LINE
  5
273
100
AcDbEntity
  8
LY_1
  6
CONTINUOUS
 62
     7
100
AcDbLine
 10
-354.656636
 20
120.332341
 30
0.0
 11
-357.956636
 21
120.332341
 31
0.0
  0
LINE
  5
274
100
AcDbEntity
  8
LY_1
  6
CONTINUOUS
 62
     7
100
AcDbLine
 10
-354.656636
 20
120.332341
 30
0.0
 11
-354.021646
 21
118.573906
 31
0.0
  0
LINE
  5
275
100
AcDbEntity
  8
LY_1
  6
CONTINUOUS
 62
     7
100
AcDbLine
 10
-357.956636
 20
124.332341
 30
0.0
 11
-358.542776
 21
125.955496
 31
0.0
  0
LINE
  5
276
100
AcDbEntity
  8
LY_1
  6
CONTINUOUS
 62
     7
100
AcDbLine
 10
-357.956636
 20
120.332341
 30
0.0
 11
-357.956636
 21
124.332341
 31
0.0
  0
LINE
  5
277
100
AcDbEntity
  8
LY_1
  6
CONTINUOUS
 62
     7
100
AcDbLine
 10
-358.542776
 20
118.709185
 30
0.0
 11
-357.956636
 21
120.332341
 31
0.0
  0
LINE
  5
278
100
AcDbEntity
  8
LY_1
  6
CONTINUOUS
 62
     7
100
AcDbLine
 10
-360.056636
 20
120.332341
 30
0.0
 11
-363.356636
 21
120.332341
 31
0.0
  0
LINE
  5
279
100
AcDbEntity
  8
LY_1
  6
CONTINUOUS
 62
     7
100
AcDbLine
 10
-360.056636
 20
120.332341
 30
0.0
 11
-359.482117
 21
118.741365
 31
0.0
  0
LINE
  5
27A
100
AcDbEntity
  8
LY_1
  6
CONTINUOUS
 62
     7
100
AcDbLine
 10
-363.356636
 20
124.332341
 30
0.0
 11
-363.870159
 21
125.754405
 31
0.0
  0
LINE
  5
27B
100
AcDbEntity
  8
LY_1
  6
CONTINUOUS
 62
     7
100
AcDbLine
 10
-363.356636
 20
120.332341
 30
0.0
 11
-363.356636
 21
124.332341
 31
0.0
  0
LINE
  5
27C
100
AcDbEntity
  8
LY_1
  6
CONTINUOUS
 62
     7
100
AcDbLine
 10
-363.870159
 20
118.910277
 30
0.0
 11
-363.356636
 21
120.332341
 31
0.0
  0
LINE
  5
27D
100
AcDbEntity
  8
LY_1
  6
CONTINUOUS
 62
     7
100
AcDbLine
 10
-365.456636
 20
120.332341
 30
0.0
 11
-368.756636
 21
120.332341
 31
0.0
  0
LINE
  5
27E
100
AcDbEntity
  8
LY_1
  6
CONTINUOUS
 62
     7
100
AcDbLine
 10
-365.456636
 20
120.332341
 30
0.0
 11
-364.959977
 21
118.956977
 31
0.0
  0
LINE
  5
27F
100
AcDbEntity
  8
LY_1
  6
CONTINUOUS
 62
     7
100
AcDbLine
 10
-368.756636
 20
124.332341
 30
0.0
 11
-369.181519
 21
125.50894
 31
0.0
  0
LINE
  5
280
100
AcDbEntity
  8
LY_1
  6
CONTINUOUS
 62
     7
100
AcDbLine
 10
-368.756636
 20
120.332341
 30
0.0
 11
-368.756636
 21
124.332341
 31
0.0
  0
LINE
  5
281
100
AcDbEntity
  8
LY_1
  6
CONTINUOUS
 62
     7
100
AcDbLine
 10
-369.181519
 20
119.155741
 30
0.0
 11
-368.756636
 21
120.332341
 31
0.0
  0
LINE
  5
282
100
AcDbEntity
  8
LY_1
  6
CONTINUOUS
 62
     7
100
AcDbLine
 10
-348.606636
 20
126.132341
 30
0.0
 11
-349.256636
 21
124.332341
 31
0.0
  0
LINE
  5
283
100
AcDbEntity
  8
LY_1
  6
CONTINUOUS
 62
     7
100
AcDbLine
 10
-352.556636
 20
124.332341
 30
0.0
 11
-349.256636
 21
124.332341
 31
0.0
  0
LINE
  5
284
100
AcDbEntity
  8
LY_1
  6
CONTINUOUS
 62
     7
100
AcDbLine
 10
-352.556636
 20
124.332341
 30
0.0
 11
-353.199253
 21
126.111895
 31
0.0
  0
ELLIPSE
  5
285
100
AcDbEntity
  8
LY_1
  6
CONTINUOUS
 62
     7
100
AcDbEllipse
 10
-337.406636
 20
-201.002539
 30
0.0
 11
454.5999999999994
 21
0.0000000000001525
 31
0.0
210
0.0
220
0.0
230
1.0
 40
0.72
 41
1.607353104048705
 42
1.6173070218464569
  0
LINE
  5
286
100
AcDbEntity
  8
LY_1
  6
CONTINUOUS
 62
     7
100
AcDbLine
 10
-347.806636
 20
118.532341
 30
0.0
 11
-343.206636
 21
118.532341
 31
0.0
  0
LINE
  5
287
100
AcDbEntity
  8
LY_1
  6
CONTINUOUS
 62
     7
100
AcDbLine
 10
-342.406636
 20
118.532341
 30
0.0
 11
-337.806636
 21
118.532341
 31
0.0
  0
LINE
  5
288
100
AcDbEntity
  8
LY_1
  6
CONTINUOUS
 62
     7
100
AcDbLine
 10
-337.806636
 20
126.132341
 30
0.0
 11
-342.406636
 21
126.132341
 31
0.0
  0
LINE
  5
289
100
AcDbEntity
  8
LY_1
  6
CONTINUOUS
 62
     7
100
AcDbLine
 10
-343.206636
 20
126.132341
 30
0.0
 11
-347.806636
 21
126.132341
 31
0.0
  0
LINE
  5
28A
100
AcDbEntity
  8
LY_1
  6
CONTINUOUS
 62
     7
100
AcDbLine
 10
-352.359986
 20
118.532341
 30
0.0
 11
-348.606636
 21
118.532341
 31
0.0
  0
LINE
  5
28B
100
AcDbEntity
  8
LY_1
  6
CONTINUOUS
 62
     7
100
AcDbLine
 10
-348.606636
 20
126.132341
 30
0.0
 11
-352.359986
 21
126.132341
 31
0.0
  0
ELLIPSE
  5
28C
100
AcDbEntity
  8
LY_1
  6
CONTINUOUS
 62
     7
100
AcDbEllipse
 10
-337.406636
 20
-201.002539
 30
0.0
 11
454.5999999999994
 21
0.000000000000161
 31
0.0
210
0.0
220
0.0
230
1.0
 40
0.72
 41
1.6193756630214899
 42
1.62904202021171
  0
ELLIPSE
  5
28D
100
AcDbEntity
  8
LY_1
  6
CONTINUOUS
 62
     7
100
AcDbEllipse
 10
-337.406636
 20
445.667221
 30
0.0
 11
-454.5999999999994
 21
0.0000000000000557
 31
0.0
210
0.0
220
0.0
230
1.0
 40
0.72
 41
1.5242856317433331
 42
1.534239549541085
  0
ELLIPSE
  5
28E
100
AcDbEntity
  8
LY_1
  6
CONTINUOUS
 62
     7
100
AcDbEllipse
 10
-337.406636
 20
445.667221
 30
0.0
 11
-454.5999999999994
 21
0.0000000000000557
 31
0.0
210
0.0
220
0.0
230
1.0
 40
0.72
 41
1.51255063337808
 42
1.5222169905683001
  0
ELLIPSE
  5
28F
100
AcDbEntity
  8
LY_1
  6
CONTINUOUS
 62
     7
100
AcDbEllipse
 10
-337.406636
 20
-201.002539
 30
0.0
 11
454.59999999999951
 21
0.0000000000001462
 31
0.0
210
0.0
220
0.0
230
1.0
 40
0.72
 41
1.6314435747592531
 42
1.6407497208454751
  0
LINE
  5
290
100
AcDbEntity
  8
LY_1
  6
CONTINUOUS
 62
     7
100
AcDbLine
 10
-369.181519
 20
125.50894
 30
0.0
 11
-369.181519
 21
119.155741
 31
0.0
  0
ELLIPSE
  5
291
100
AcDbEntity
  8
LY_1
  6
CONTINUOUS
 62
     7
100
AcDbEllipse
 10
-337.406636
 20
445.667221
 30
0.0
 11
-454.5999999999994
 21
0.0000000000000557
 31
0.0
210
0.0
220
0.0
230
1.0
 40
0.72
 41
1.500842932744316
 42
1.5101490788305389
  0
ELLIPSE
  5
292
100
AcDbEntity
  8
LY_1
  6
CONTINUOUS
 62
     7
100
AcDbEllipse
 10
-337.406636
 20
445.667221
 30
0.0
 11
-454.59999999999951
 21
0.0000000000000557
 31
0.0
210
0.0
220
0.0
230
1.0
 40
0.72
 41
1.5360497474956469
 42
1.5378969688874069
  0
LINE
  5
293
100
AcDbEntity
  8
LY_1
  6
CONTINUOUS
 62
     7
100
AcDbLine
 10
-352.359986
 20
118.532341
 30
0.0
 11
-352.359986
 21
116.732341
 31
0.0
  0
LINE
  5
294
100
AcDbEntity
  8
LY_1
  6
CONTINUOUS
 62
     7
100
AcDbLine
 10
-352.359986
 20
128.732341
 30
0.0
 11
-352.359986
 21
126.132341
 31
0.0
  0
ELLIPSE
  5
295
100
AcDbEntity
  8
LY_1
  6
CONTINUOUS
 62
     7
100
AcDbEllipse
 10
-337.406636
 20
-201.002539
 30
0.0
 11
454.5999999999994
 21
0.0000000000001504
 31
0.0
210
0.0
220
0.0
230
1.0
 40
0.72
 41
1.603695684702384
 42
1.6055429060941431
  0
LWPOLYLINE
  5
296
100
AcDbEntity
  8
LY_1
  6
CONTINUOUS
 62
     7
100
AcDbPolyline
 90
       25
 70
     0
 10
-363.870159
 20
117.497445
 10
-363.870159
 20
117.899992
 10
-363.870159
 20
118.302568
 10
-363.870159
 20
118.705175
 10
-363.870159
 20
119.107813
 10
-363.870159
 20
119.51048
 10
-363.870159
 20
119.913178
 10
-363.870159
 20
120.315906
 10
-363.870159
 20
120.718664
 10
-363.870159
 20
121.121452
 10
-363.870159
 20
121.524271
 10
-363.870159
 20
121.92712
 10
-363.870159
 20
122.329999
 10
-363.870159
 20
122.732909
 10
-363.870159
 20
123.135848
 10
-363.870159
 20
123.538819
 10
-363.870159
 20
123.941819
 10
-363.870159
 20
124.344849
 10
-363.870159
 20
124.74791
 10
-363.870159
 20
125.151001
 10
-363.870159
 20
125.554123
 10
-363.870159
 20
125.957274
 10
-363.870159
 20
126.360457
 10
-363.870159
 20
126.763669
 10
-363.870159
 20
127.166911
  0
LWPOLYLINE
  5
297
100
AcDbEntity
  8
LY_1
  6
CONTINUOUS
 62
     7
100
AcDbPolyline
 90
       25
 70
     0
 10
-364.959977
 20
127.166911
 10
-364.959977
 20
126.763669
 10
-364.959977
 20
126.360457
 10
-364.959977
 20
125.957275
 10
-364.959977
 20
125.554124
 10
-364.959977
 20
125.151002
 10
-364.959977
 20
124.747912
 10
-364.959977
 20
124.344851
 10
-364.959977
 20
123.941821
 10
-364.959977
 20
123.538821
 10
-364.959977
 20
123.135851
 10
-364.959977
 20
122.732911
 10
-364.959977
 20
122.330001
 10
-364.959977
 20
121.927122
 10
-364.959977
 20
121.524273
 10
-364.959977
 20
121.121455
 10
-364.959977
 20
120.718666
 10
-364.959977
 20
120.315907
 10
-364.959977
 20
119.913179
 10
-364.959977
 20
119.510481
 10
-364.959977
 20
119.107814
 10
-364.959977
 20
118.705176
 10
-364.959977
 20
118.302569
 10
-364.959977
 20
117.899992
 10
-364.959977
 20
117.497445
  0
LWPOLYLINE
  5
298
100
AcDbEntity
  8
LY_1
  6
CONTINUOUS
 62
     7
100
AcDbPolyline
 90
       25
 70
     0
 10
-358.542774
 20
117.497445
 10
-358.542774
 20
117.89999
 10
-358.542774
 20
118.302565
 10
-358.542774
 20
118.705171
 10
-358.542774
 20
119.107807
 10
-358.542774
 20
119.510473
 10
-358.542774
 20
119.91317
 10
-358.542774
 20
120.315897
 10
-358.542774
 20
120.718655
 10
-358.542774
 20
121.121443
 10
-358.542774
 20
121.524261
 10
-358.542774
 20
121.92711
 10
-358.542774
 20
122.329989
 10
-358.542774
 20
122.732898
 10
-358.542774
 20
123.135838
 10
-358.542774
 20
123.538809
 10
-358.542774
 20
123.941809
 10
-358.542774
 20
124.344841
 10
-358.542774
 20
124.747902
 10
-358.542774
 20
125.150995
 10
-358.542774
 20
125.554117
 10
-358.542774
 20
125.95727
 10
-358.542774
 20
126.360453
 10
-358.542774
 20
126.763667
 10
-358.542774
 20
127.166911
  0
LWPOLYLINE
  5
299
100
AcDbEntity
  8
LY_1
  6
CONTINUOUS
 62
     7
100
AcDbPolyline
 90
       25
 70
     0
 10
-359.482117
 20
127.166911
 10
-359.482117
 20
126.763668
 10
-359.482117
 20
126.360454
 10
-359.482117
 20
125.957271
 10
-359.482117
 20
125.554118
 10
-359.482117
 20
125.150996
 10
-359.482117
 20
124.747904
 10
-359.482117
 20
124.344842
 10
-359.482117
 20
123.941811
 10
-359.482117
 20
123.53881
 10
-359.482117
 20
123.13584
 10
-359.482117
 20
122.7329
 10
-359.482117
 20
122.329991
 10
-359.482117
 20
121.927112
 10
-359.482117
 20
121.524263
 10
-359.482117
 20
121.121445
 10
-359.482117
 20
120.718657
 10
-359.482117
 20
120.315898
 10
-359.482117
 20
119.913171
 10
-359.482117
 20
119.510475
 10
-359.482117
 20
119.107808
 10
-359.482117
 20
118.705172
 10
-359.482117
 20
118.302566
 10
-359.482117
 20
117.89999
 10
-359.482117
 20
117.497445
  0
LWPOLYLINE
  5
29A
100
AcDbEntity
  8
LY_1
  6
CONTINUOUS
 62
     7
100
AcDbPolyline
 90
       25
 70
     0
 10
-353.199253
 20
117.497445
 10
-353.199253
 20
117.899988
 10
-353.199253
 20
118.302562
 10
-353.199253
 20
118.705166
 10
-353.199253
 20
119.107801
 10
-353.199253
 20
119.510466
 10
-353.199253
 20
119.913162
 10
-353.199253
 20
120.315888
 10
-353.199253
 20
120.718645
 10
-353.199253
 20
121.121433
 10
-353.199253
 20
121.52425
 10
-353.199253
 20
121.927099
 10
-353.199253
 20
122.329978
 10
-353.199253
 20
122.732888
 10
-353.199253
 20
123.135828
 10
-353.199253
 20
123.538799
 10
-353.199253
 20
123.9418
 10
-353.199253
 20
124.344832
 10
-353.199253
 20
124.747894
 10
-353.199253
 20
125.150987
 10
-353.199253
 20
125.554111
 10
-353.199253
 20
125.957265
 10
-353.199253
 20
126.36045
 10
-353.199253
 20
126.763666
 10
-353.199253
 20
127.166911
  0
LWPOLYLINE
  5
29B
100
AcDbEntity
  8
LY_1
  6
CONTINUOUS
 62
     7
100
AcDbPolyline
 90
       25
 70
     0
 10
-354.021645
 20
127.166911
 10
-354.021645
 20
126.763666
 10
-354.021645
 20
126.360451
 10
-354.021645
 20
125.957266
 10
-354.021645
 20
125.554112
 10
-354.021645
 20
125.150988
 10
-354.021645
 20
124.747896
 10
-354.021645
 20
124.344833
 10
-354.021645
 20
123.941802
 10
-354.021645
 20
123.5388
 10
-354.021645
 20
123.135829
 10
-354.021645
 20
122.732889
 10
-354.021645
 20
122.329979
 10
-354.021645
 20
121.9271
 10
-354.021645
 20
121.524252
 10
-354.021645
 20
121.121434
 10
-354.021645
 20
120.718646
 10
-354.021645
 20
120.31589
 10
-354.021645
 20
119.913163
 10
-354.021645
 20
119.510467
 10
-354.021645
 20
119.107802
 10
-354.021645
 20
118.705167
 10
-354.021645
 20
118.302562
 10
-354.021645
 20
117.899988
 10
-354.021645
 20
117.497445
  0
LINE
  5
29C
100
AcDbEntity
  8
LY_1
  6
CONTINUOUS
 62
     7
100
AcDbLine
 10
-347.806636
 20
117.497445
 30
0.0
 11
-347.806636
 21
127.166912
 31
0.0
  0
LINE
  5
29D
100
AcDbEntity
  8
LY_1
  6
CONTINUOUS
 62
     7
100
AcDbLine
 10
-348.606636
 20
127.166912
 30
0.0
 11
-348.606636
 21
117.497445
 31
0.0
  0
LINE
  5
29E
100
AcDbEntity
  8
LY_1
  6
CONTINUOUS
 62
     7
100
AcDbLine
 10
-342.406636
 20
117.497445
 30
0.0
 11
-342.406636
 21
127.166912
 31
0.0
  0
LINE
  5
29F
100
AcDbEntity
  8
LY_1
  6
CONTINUOUS
 62
     7
100
AcDbLine
 10
-343.206636
 20
127.166912
 30
0.0
 11
-343.206636
 21
117.497445
 31
0.0
  0
LINE
  5
2A0
100
AcDbEntity
  8
LY_1
  6
CONTINUOUS
 62
     7
100
AcDbLine
 10
-337.806636
 20
127.166912
 30
0.0
 11
-337.806636
 21
117.497445
 31
0.0
  0
LINE
  5
2A1
100
AcDbEntity
  8
LY_1
  6
CONTINUOUS
 62
     7
100
AcDbLine
 10
-370.506636
 20
116.732341
 30
0.0
 11
-370.506636
 21
128.732341
 31
0.0
  0
LWPOLYLINE
  5
2A2
100
AcDbEntity
  8
LY_1
  6
CONTINUOUS
 62
     7
100
AcDbPolyline
 90
       25
 70
     0
 10
-363.870159
 20
127.166911
 10
-363.870159
 20
127.263726
 10
-363.870159
 20
127.362898
 10
-363.870159
 20
127.464655
 10
-363.870159
 20
127.566581
 10
-363.870159
 20
127.666255
 10
-363.870159
 20
127.761262
 10
-363.870159
 20
127.850544
 10
-363.870159
 20
127.939893
 10
-363.870159
 20
128.028577
 10
-363.870159
 20
128.114555
 10
-363.870159
 20
128.19578
 10
-363.870159
 20
128.270211
 10
-363.870159
 20
128.337695
 10
-363.870159
 20
128.402504
 10
-363.870159
 20
128.463704
 10
-363.870159
 20
128.519938
 10
-363.870159
 20
128.569841
 10
-363.870159
 20
128.612054
 10
-363.870159
 20
128.646861
 10
-363.870159
 20
128.676362
 10
-363.870159
 20
128.700138
 10
-363.870159
 20
128.717711
 10
-363.870159
 20
128.728604
 10
-363.870159
 20
128.73234
  0
LWPOLYLINE
  5
2A3
100
AcDbEntity
  8
LY_1
  6
CONTINUOUS
 62
     7
100
AcDbPolyline
 90
       25
 70
     0
 10
-310.943113
 20
117.497445
 10
-310.943113
 20
117.446958
 10
-310.943113
 20
117.395589
 10
-310.943113
 20
117.344416
 10
-310.943113
 20
117.29452
 10
-310.943113
 20
117.246981
 10
-310.943113
 20
117.202124
 10
-310.943113
 20
117.157146
 10
-310.943113
 20
117.112439
 10
-310.943113
 20
117.068919
 10
-310.943113
 20
117.027505
 10
-310.943113
 20
116.989111
 10
-310.943113
 20
116.954388
 10
-310.943113
 20
116.921282
 10
-310.943113
 20
116.889643
 10
-310.943113
 20
116.86008
 10
-310.943113
 20
116.833206
 10
-310.943113
 20
116.809628
 10
-310.943113
 20
116.789922
 10
-310.943113
 20
116.773219
 10
-310.943113
 20
116.759073
 10
-310.943113
 20
116.747698
 10
-310.943113
 20
116.739309
 10
-310.943113
 20
116.734118
 10
-310.943113
 20
116.732341
  0
LWPOLYLINE
  5
2A4
100
AcDbEntity
  8
LY_1
  6
CONTINUOUS
 62
     7
100
AcDbPolyline
 90
       25
 70
     0
 10
-315.331155
 20
116.732341
 10
-315.331155
 20
116.734119
 10
-315.331155
 20
116.739312
 10
-315.331155
 20
116.747705
 10
-315.331155
 20
116.759085
 10
-315.331155
 20
116.773236
 10
-315.331155
 20
116.789945
 10
-315.331155
 20
116.809661
 10
-315.331155
 20
116.833248
 10
-315.331155
 20
116.860131
 10
-315.331155
 20
116.889699
 10
-315.331155
 20
116.921342
 10
-315.331155
 20
116.954449
 10
-315.331155
 20
116.989178
 10
-315.331155
 20
117.027579
 10
-315.331155
 20
117.068996
 10
-315.331155
 20
117.112513
 10
-315.331155
 20
117.157214
 10
-315.331155
 20
117.202183
 10
-315.331155
 20
117.247034
 10
-315.331155
 20
117.294568
 10
-315.331155
 20
117.344454
 10
-315.331155
 20
117.395615
 10
-315.331155
 20
117.446972
 10
-315.331155
 20
117.497445
  0
LWPOLYLINE
  5
2A5
100
AcDbEntity
  8
LY_1
  6
CONTINUOUS
 62
     7
100
AcDbPolyline
 90
       25
 70
     0
 10
-320.791627
 20
116.732341
 10
-320.791627
 20
116.73412
 10
-320.791627
 20
116.739315
 10
-320.791627
 20
116.747712
 10
-320.791627
 20
116.759096
 10
-320.791627
 20
116.773253
 10
-320.791627
 20
116.789968
 10
-320.791627
 20
116.809693
 10
-320.791627
 20
116.83329
 10
-320.791627
 20
116.860181
 10
-320.791627
 20
116.889755
 10
-320.791627
 20
116.921402
 10
-320.791627
 20
116.95451
 10
-320.791627
 20
116.989246
 10
-320.791627
 20
117.027653
 10
-320.791627
 20
117.069072
 10
-320.791627
 20
117.112587
 10
-320.791627
 20
117.157283
 10
-320.791627
 20
117.202242
 10
-320.791627
 20
117.247085
 10
-320.791627
 20
117.294614
 10
-320.791627
 20
117.344493
 10
-320.791627
 20
117.395642
 10
-320.791627
 20
117.446985
 10
-320.791627
 20
117.497445
  0
LINE
  5
2A6
100
AcDbEntity
  8
LY_1
  6
CONTINUOUS
 62
     7
100
AcDbLine
 10
-326.206636
 20
117.497445
 30
0.0
 11
-326.206636
 21
116.732341
 31
0.0
  0
LINE
  5
2A7
100
AcDbEntity
  8
LY_1
  6
CONTINUOUS
 62
     7
100
AcDbLine
 10
-331.606636
 20
117.497445
 30
0.0
 11
-331.606636
 21
116.732341
 31
0.0
  0
LINE
  5
2A8
100
AcDbEntity
  8
LY_1
  6
CONTINUOUS
 62
     7
100
AcDbLine
 10
-337.006636
 20
117.497445
 30
0.0
 11
-337.006636
 21
116.732341
 31
0.0
  0
LINE
  5
2A9
100
AcDbEntity
  8
LY_1
  6
CONTINUOUS
 62
     7
100
AcDbLine
 10
-342.406636
 20
117.497445
 30
0.0
 11
-342.406636
 21
116.732341
 31
0.0
  0
LINE
  5
2AA
100
AcDbEntity
  8
LY_1
  6
CONTINUOUS
 62
     7
100
AcDbLine
 10
-347.806636
 20
117.497445
 30
0.0
 11
-347.806636
 21
116.732341
 31
0.0
  0
LWPOLYLINE
  5
2AB
100
AcDbEntity
  8
LY_1
  6
CONTINUOUS
 62
     7
100
AcDbPolyline
 90
       25
 70
     0
 10
-353.199253
 20
116.732341
 10
-353.199253
 20
116.73412
 10
-353.199253
 20
116.739316
 10
-353.199253
 20
116.747713
 10
-353.199253
 20
116.759098
 10
-353.199253
 20
116.773255
 10
-353.199253
 20
116.78997
 10
-353.199253
 20
116.809697
 10
-353.199253
 20
116.833295
 10
-353.199253
 20
116.860187
 10
-353.199253
 20
116.889762
 10
-353.199253
 20
116.92141
 10
-353.199253
 20
116.954518
 10
-353.199253
 20
116.989254
 10
-353.199253
 20
117.027662
 10
-353.199253
 20
117.069082
 10
-353.199253
 20
117.112596
 10
-353.199253
 20
117.157291
 10
-353.199253
 20
117.202249
 10
-353.199253
 20
117.247092
 10
-353.199253
 20
117.29462
 10
-353.199253
 20
117.344497
 10
-353.199253
 20
117.395645
 10
-353.199253
 20
117.446987
 10
-353.199253
 20
117.497445
  0
LWPOLYLINE
  5
2AC
100
AcDbEntity
  8
LY_1
  6
CONTINUOUS
 62
     7
100
AcDbPolyline
 90
       25
 70
     0
 10
-358.542774
 20
116.732341
 10
-358.542774
 20
116.734119
 10
-358.542774
 20
116.739313
 10
-358.542774
 20
116.747707
 10
-358.542774
 20
116.759087
 10
-358.542774
 20
116.773239
 10
-358.542774
 20
116.789949
 10
-358.542774
 20
116.809667
 10
-358.542774
 20
116.833256
 10
-358.542774
 20
116.86014
 10
-358.542774
 20
116.88971
 10
-358.542774
 20
116.921354
 10
-358.542774
 20
116.954461
 10
-358.542774
 20
116.989191
 10
-358.542774
 20
117.027593
 10
-358.542774
 20
117.069011
 10
-358.542774
 20
117.112527
 10
-358.542774
 20
117.157228
 10
-358.542774
 20
117.202194
 10
-358.542774
 20
117.247044
 10
-358.542774
 20
117.294577
 10
-358.542774
 20
117.344462
 10
-358.542774
 20
117.39562
 10
-358.542774
 20
117.446974
 10
-358.542774
 20
117.497445
  0
LWPOLYLINE
  5
2AD
100
AcDbEntity
  8
LY_1
  6
CONTINUOUS
 62
     7
100
AcDbPolyline
 90
       25
 70
     0
 10
-364.959977
 20
128.73234
 10
-364.959977
 20
128.728604
 10
-364.959977
 20
128.717712
 10
-364.959977
 20
128.700142
 10
-364.959977
 20
128.676369
 10
-364.959977
 20
128.646872
 10
-364.959977
 20
128.612069
 10
-364.959977
 20
128.569861
 10
-364.959977
 20
128.519964
 10
-364.959977
 20
128.463735
 10
-364.959977
 20
128.402537
 10
-364.959977
 20
128.33773
 10
-364.959977
 20
128.270248
 10
-364.959977
 20
128.195823
 10
-364.959977
 20
128.114599
 10
-364.959977
 20
128.028622
 10
-364.959977
 20
127.939935
 10
-364.959977
 20
127.850581
 10
-364.959977
 20
127.761296
 10
-364.959977
 20
127.666286
 10
-364.959977
 20
127.566607
 10
-364.959977
 20
127.464677
 10
-364.959977
 20
127.362913
 10
-364.959977
 20
127.263733
 10
-364.959977
 20
127.166911
  0
LWPOLYLINE
  5
2AE
100
AcDbEntity
  8
LY_1
  6
CONTINUOUS
 62
     7
100
AcDbPolyline
 90
       25
 70
     0
 10
-363.870159
 20
116.732341
 10
-363.870159
 20
116.734118
 10
-363.870159
 20
116.739309
 10
-363.870159
 20
116.747698
 10
-363.870159
 20
116.759073
 10
-363.870159
 20
116.773219
 10
-363.870159
 20
116.789922
 10
-363.870159
 20
116.809628
 10
-363.870159
 20
116.833206
 10
-363.870159
 20
116.86008
 10
-363.870159
 20
116.889643
 10
-363.870159
 20
116.921282
 10
-363.870159
 20
116.954388
 10
-363.870159
 20
116.989111
 10
-363.870159
 20
117.027505
 10
-363.870159
 20
117.068919
 10
-363.870159
 20
117.112439
 10
-363.870159
 20
117.157146
 10
-363.870159
 20
117.202124
 10
-363.870159
 20
117.246981
 10
-363.870159
 20
117.29452
 10
-363.870159
 20
117.344416
 10
-363.870159
 20
117.395589
 10
-363.870159
 20
117.446958
 10
-363.870159
 20
117.497445
  0
LWPOLYLINE
  5
2AF
100
AcDbEntity
  8
LY_1
  6
CONTINUOUS
 62
     7
100
AcDbPolyline
 90
       25
 70
     0
 10
-364.959977
 20
117.497445
 10
-364.959977
 20
117.446954
 10
-364.959977
 20
117.395581
 10
-364.959977
 20
117.344405
 10
-364.959977
 20
117.294507
 10
-364.959977
 20
117.246966
 10
-364.959977
 20
117.202107
 10
-364.959977
 20
117.157127
 10
-364.959977
 20
117.112418
 10
-364.959977
 20
117.068898
 10
-364.959977
 20
117.027484
 10
-364.959977
 20
116.989092
 10
-364.959977
 20
116.954371
 10
-364.959977
 20
116.921265
 10
-364.959977
 20
116.889627
 10
-364.959977
 20
116.860066
 10
-364.959977
 20
116.833194
 10
-364.959977
 20
116.80962
 10
-364.959977
 20
116.789916
 10
-364.959977
 20
116.773214
 10
-364.959977
 20
116.75907
 10
-364.959977
 20
116.747696
 10
-364.959977
 20
116.739308
 10
-364.959977
 20
116.734118
 10
-364.959977
 20
116.732341
  0
LWPOLYLINE
  5
2B0
100
AcDbEntity
  8
LY_1
  6
CONTINUOUS
 62
     7
100
AcDbPolyline
 90
       25
 70
     0
 10
-359.482117
 20
117.497445
 10
-359.482117
 20
117.446972
 10
-359.482117
 20
117.395615
 10
-359.482117
 20
117.344454
 10
-359.482117
 20
117.294568
 10
-359.482117
 20
117.247034
 10
-359.482117
 20
117.202183
 10
-359.482117
 20
117.157214
 10
-359.482117
 20
117.112513
 10
-359.482117
 20
117.068996
 10
-359.482117
 20
117.027579
 10
-359.482117
 20
116.989178
 10
-359.482117
 20
116.954449
 10
-359.482117
 20
116.921342
 10
-359.482117
 20
116.889699
 10
-359.482117
 20
116.860131
 10
-359.482117
 20
116.833248
 10
-359.482117
 20
116.809661
 10
-359.482117
 20
116.789945
 10
-359.482117
 20
116.773236
 10
-359.482117
 20
116.759085
 10
-359.482117
 20
116.747705
 10
-359.482117
 20
116.739312
 10
-359.482117
 20
116.734119
 10
-359.482117
 20
116.732341
  0
LWPOLYLINE
  5
2B1
100
AcDbEntity
  8
LY_1
  6
CONTINUOUS
 62
     7
100
AcDbPolyline
 90
       25
 70
     0
 10
-359.482117
 20
128.73234
 10
-359.482117
 20
128.728602
 10
-359.482117
 20
128.717702
 10
-359.482117
 20
128.700121
 10
-359.482117
 20
128.676337
 10
-359.482117
 20
128.646823
 10
-359.482117
 20
128.612003
 10
-359.482117
 20
128.569767
 10
-359.482117
 20
128.519845
 10
-359.482117
 20
128.463596
 10
-359.482117
 20
128.402383
 10
-359.482117
 20
128.337569
 10
-359.482117
 20
128.270076
 10
-359.482117
 20
128.195628
 10
-359.482117
 20
128.114394
 10
-359.482117
 20
128.028418
 10
-359.482117
 20
127.939741
 10
-359.482117
 20
127.850411
 10
-359.482117
 20
127.76114
 10
-359.482117
 20
127.666139
 10
-359.482117
 20
127.566482
 10
-359.482117
 20
127.464579
 10
-359.482117
 20
127.362848
 10
-359.482117
 20
127.263702
 10
-359.482117
 20
127.166911
  0
LWPOLYLINE
  5
2B2
100
AcDbEntity
  8
LY_1
  6
CONTINUOUS
 62
     7
100
AcDbPolyline
 90
       25
 70
     0
 10
-358.542774
 20
127.166911
 10
-358.542774
 20
127.263697
 10
-358.542774
 20
127.362839
 10
-358.542774
 20
127.464565
 10
-358.542774
 20
127.566463
 10
-358.542774
 20
127.666118
 10
-358.542774
 20
127.761116
 10
-358.542774
 20
127.850386
 10
-358.542774
 20
127.939713
 10
-358.542774
 20
128.028387
 10
-358.542774
 20
128.114363
 10
-358.542774
 20
128.195598
 10
-358.542774
 20
128.27005
 10
-358.542774
 20
128.337545
 10
-358.542774
 20
128.402361
 10
-358.542774
 20
128.463574
 10
-358.542774
 20
128.519827
 10
-358.542774
 20
128.569754
 10
-358.542774
 20
128.611992
 10
-358.542774
 20
128.646816
 10
-358.542774
 20
128.676331
 10
-358.542774
 20
128.700119
 10
-358.542774
 20
128.717701
 10
-358.542774
 20
128.728602
 10
-358.542774
 20
128.73234
  0
LWPOLYLINE
  5
2B3
100
AcDbEntity
  8
LY_1
  6
CONTINUOUS
 62
     7
100
AcDbPolyline
 90
       25
 70
     0
 10
-354.021645
 20
117.497445
 10
-354.021645
 20
117.446985
 10
-354.021645
 20
117.395642
 10
-354.021645
 20
117.344493
 10
-354.021645
 20
117.294614
 10
-354.021645
 20
117.247085
 10
-354.021645
 20
117.202242
 10
-354.021645
 20
117.157283
 10
-354.021645
 20
117.112587
 10
-354.021645
 20
117.069072
 10
-354.021645
 20
117.027653
 10
-354.021645
 20
116.989246
 10
-354.021645
 20
116.95451
 10
-354.021645
 20
116.921402
 10
-354.021645
 20
116.889755
 10
-354.021645
 20
116.860181
 10
-354.021645
 20
116.83329
 10
-354.021645
 20
116.809693
 10
-354.021645
 20
116.789968
 10
-354.021645
 20
116.773253
 10
-354.021645
 20
116.759096
 10
-354.021645
 20
116.747712
 10
-354.021645
 20
116.739315
 10
-354.021645
 20
116.73412
 10
-354.021645
 20
116.732341
  0
LWPOLYLINE
  5
2B4
100
AcDbEntity
  8
LY_1
  6
CONTINUOUS
 62
     7
100
AcDbPolyline
 90
       25
 70
     0
 10
-354.021645
 20
128.73234
 10
-354.021645
 20
128.728599
 10
-354.021645
 20
128.717695
 10
-354.021645
 20
128.700106
 10
-354.021645
 20
128.676311
 10
-354.021645
 20
128.646786
 10
-354.021645
 20
128.611952
 10
-354.021645
 20
128.569695
 10
-354.021645
 20
128.519752
 10
-354.021645
 20
128.463487
 10
-354.021645
 20
128.402264
 10
-354.021645
 20
128.337444
 10
-354.021645
 20
128.269943
 10
-354.021645
 20
128.195476
 10
-354.021645
 20
128.114234
 10
-354.021645
 20
128.028258
 10
-354.021645
 20
127.939592
 10
-354.021645
 20
127.850278
 10
-354.021645
 20
127.761018
 10
-354.021645
 20
127.666026
 10
-354.021645
 20
127.566384
 10
-354.021645
 20
127.464504
 10
-354.021645
 20
127.362798
 10
-354.021645
 20
127.263677
 10
-354.021645
 20
127.166911
  0
LWPOLYLINE
  5
2B5
100
AcDbEntity
  8
LY_1
  6
CONTINUOUS
 62
     7
100
AcDbPolyline
 90
       25
 70
     0
 10
-353.199253
 20
127.166911
 10
-353.199253
 20
127.263675
 10
-353.199253
 20
127.362791
 10
-353.199253
 20
127.464495
 10
-353.199253
 20
127.566372
 10
-353.199253
 20
127.666012
 10
-353.199253
 20
127.761003
 10
-353.199253
 20
127.850262
 10
-353.199253
 20
127.939573
 10
-353.199253
 20
128.028239
 10
-353.199253
 20
128.114214
 10
-353.199253
 20
128.195457
 10
-353.199253
 20
128.269925
 10
-353.199253
 20
128.337428
 10
-353.199253
 20
128.402248
 10
-353.199253
 20
128.463474
 10
-353.199253
 20
128.519741
 10
-353.199253
 20
128.569685
 10
-353.199253
 20
128.611945
 10
-353.199253
 20
128.646781
 10
-353.199253
 20
128.676307
 10
-353.199253
 20
128.700105
 10
-353.199253
 20
128.717694
 10
-353.199253
 20
128.728599
 10
-353.199253
 20
128.73234
  0
LINE
  5
2B6
100
AcDbEntity
  8
LY_1
  6
CONTINUOUS
 62
     7
100
AcDbLine
 10
-348.606636
 20
116.732341
 30
0.0
 11
-348.606636
 21
117.497445
 31
0.0
  0
LINE
  5
2B7
100
AcDbEntity
  8
LY_1
  6
CONTINUOUS
 62
     7
100
AcDbLine
 10
-347.806636
 20
128.732341
 30
0.0
 11
-347.806636
 21
127.166912
 31
0.0
  0
LINE
  5
2B8
100
AcDbEntity
  8
LY_1
  6
CONTINUOUS
 62
     7
100
AcDbLine
 10
-348.606636
 20
127.166912
 30
0.0
 11
-348.606636
 21
128.732341
 31
0.0
  0
LINE
  5
2B9
100
AcDbEntity
  8
LY_1
  6
CONTINUOUS
 62
     7
100
AcDbLine
 10
-343.206636
 20
116.732341
 30
0.0
 11
-343.206636
 21
117.497445
 31
0.0
  0
LINE
  5
2BA
100
AcDbEntity
  8
LY_1
  6
CONTINUOUS
 62
     7
100
AcDbLine
 10
-342.406636
 20
128.732341
 30
0.0
 11
-342.406636
 21
127.166912
 31
0.0
  0
LINE
  5
2BB
100
AcDbEntity
  8
LY_1
  6
CONTINUOUS
 62
     7
100
AcDbLine
 10
-343.206636
 20
127.166912
 30
0.0
 11
-343.206636
 21
128.732341
 31
0.0
  0
LINE
  5
2BC
100
AcDbEntity
  8
LY_1
  6
CONTINUOUS
 62
     7
100
AcDbLine
 10
-337.806636
 20
116.732341
 30
0.0
 11
-337.806636
 21
117.497445
 31
0.0
  0
LINE
  5
2BD
100
AcDbEntity
  8
LY_1
  6
CONTINUOUS
 62
     7
100
AcDbLine
 10
-337.806636
 20
127.166912
 30
0.0
 11
-337.806636
 21
128.732341
 31
0.0
  0
LINE
  5
2BE
100
AcDbEntity
  8
LY_1
  6
CONTINUOUS
 62
     7
100
AcDbLine
 10
-337.006636
 20
128.732341
 30
0.0
 11
-337.006636
 21
127.166912
 31
0.0
  0
LINE
  5
2BF
100
AcDbEntity
  8
LY_1
  6
CONTINUOUS
 62
     7
100
AcDbLine
 10
-332.406636
 20
116.732341
 30
0.0
 11
-332.406636
 21
117.497445
 31
0.0
  0
LINE
  5
2C0
100
AcDbEntity
  8
LY_1
  6
CONTINUOUS
 62
     7
100
AcDbLine
 10
-332.406636
 20
127.166912
 30
0.0
 11
-332.406636
 21
128.732341
 31
0.0
  0
LINE
  5
2C1
100
AcDbEntity
  8
LY_1
  6
CONTINUOUS
 62
     7
100
AcDbLine
 10
-331.606636
 20
128.732341
 30
0.0
 11
-331.606636
 21
127.166912
 31
0.0
  0
LINE
  5
2C2
100
AcDbEntity
  8
LY_1
  6
CONTINUOUS
 62
     7
100
AcDbLine
 10
-327.006636
 20
116.732341
 30
0.0
 11
-327.006636
 21
117.497445
 31
0.0
  0
LINE
  5
2C3
100
AcDbEntity
  8
LY_1
  6
CONTINUOUS
 62
     7
100
AcDbLine
 10
-327.006636
 20
127.166912
 30
0.0
 11
-327.006636
 21
128.732341
 31
0.0
  0
LINE
  5
2C4
100
AcDbEntity
  8
LY_1
  6
CONTINUOUS
 62
     7
100
AcDbLine
 10
-326.206636
 20
128.732341
 30
0.0
 11
-326.206636
 21
127.166912
 31
0.0
  0
LWPOLYLINE
  5
2C5
100
AcDbEntity
  8
LY_1
  6
CONTINUOUS
 62
     7
100
AcDbPolyline
 90
       25
 70
     0
 10
-321.614019
 20
117.497445
 10
-321.614019
 20
117.446987
 10
-321.614019
 20
117.395645
 10
-321.614019
 20
117.344497
 10
-321.614019
 20
117.29462
 10
-321.614019
 20
117.247092
 10
-321.614019
 20
117.202249
 10
-321.614019
 20
117.157291
 10
-321.614019
 20
117.112596
 10
-321.614019
 20
117.069082
 10
-321.614019
 20
117.027662
 10
-321.614019
 20
116.989254
 10
-321.614019
 20
116.954518
 10
-321.614019
 20
116.92141
 10
-321.614019
 20
116.889762
 10
-321.614019
 20
116.860187
 10
-321.614019
 20
116.833295
 10
-321.614019
 20
116.809697
 10
-321.614019
 20
116.78997
 10
-321.614019
 20
116.773255
 10
-321.614019
 20
116.759098
 10
-321.614019
 20
116.747713
 10
-321.614019
 20
116.739316
 10
-321.614019
 20
116.73412
 10
-321.614019
 20
116.732341
  0
LWPOLYLINE
  5
2C6
100
AcDbEntity
  8
LY_1
  6
CONTINUOUS
 62
     7
100
AcDbPolyline
 90
       25
 70
     0
 10
-320.791627
 20
127.166911
 10
-320.791627
 20
127.263677
 10
-320.791627
 20
127.362798
 10
-320.791627
 20
127.464504
 10
-320.791627
 20
127.566384
 10
-320.791627
 20
127.666026
 10
-320.791627
 20
127.761018
 10
-320.791627
 20
127.850278
 10
-320.791627
 20
127.939592
 10
-320.791627
 20
128.028258
 10
-320.791627
 20
128.114234
 10
-320.791627
 20
128.195476
 10
-320.791627
 20
128.269943
 10
-320.791627
 20
128.337444
 10
-320.791627
 20
128.402264
 10
-320.791627
 20
128.463487
 10
-320.791627
 20
128.519752
 10
-320.791627
 20
128.569695
 10
-320.791627
 20
128.611952
 10
-320.791627
 20
128.646786
 10
-320.791627
 20
128.676311
 10
-320.791627
 20
128.700106
 10
-320.791627
 20
128.717695
 10
-320.791627
 20
128.728599
 10
-320.791627
 20
128.73234
  0
LWPOLYLINE
  5
2C7
100
AcDbEntity
  8
LY_1
  6
CONTINUOUS
 62
     7
100
AcDbPolyline
 90
       25
 70
     0
 10
-321.614019
 20
128.73234
 10
-321.614019
 20
128.728599
 10
-321.614019
 20
128.717694
 10
-321.614019
 20
128.700105
 10
-321.614019
 20
128.676307
 10
-321.614019
 20
128.646781
 10
-321.614019
 20
128.611945
 10
-321.614019
 20
128.569685
 10
-321.614019
 20
128.519741
 10
-321.614019
 20
128.463474
 10
-321.614019
 20
128.402248
 10
-321.614019
 20
128.337428
 10
-321.614019
 20
128.269925
 10
-321.614019
 20
128.195457
 10
-321.614019
 20
128.114214
 10
-321.614019
 20
128.028239
 10
-321.614019
 20
127.939573
 10
-321.614019
 20
127.850262
 10
-321.614019
 20
127.761003
 10
-321.614019
 20
127.666012
 10
-321.614019
 20
127.566372
 10
-321.614019
 20
127.464495
 10
-321.614019
 20
127.362791
 10
-321.614019
 20
127.263675
 10
-321.614019
 20
127.166911
  0
LWPOLYLINE
  5
2C8
100
AcDbEntity
  8
LY_1
  6
CONTINUOUS
 62
     7
100
AcDbPolyline
 90
       25
 70
     0
 10
-316.270498
 20
117.497445
 10
-316.270498
 20
117.446974
 10
-316.270498
 20
117.39562
 10
-316.270498
 20
117.344462
 10
-316.270498
 20
117.294577
 10
-316.270498
 20
117.247044
 10
-316.270498
 20
117.202194
 10
-316.270498
 20
117.157228
 10
-316.270498
 20
117.112527
 10
-316.270498
 20
117.069011
 10
-316.270498
 20
117.027593
 10
-316.270498
 20
116.989191
 10
-316.270498
 20
116.954461
 10
-316.270498
 20
116.921354
 10
-316.270498
 20
116.88971
 10
-316.270498
 20
116.86014
 10
-316.270498
 20
116.833256
 10
-316.270498
 20
116.809667
 10
-316.270498
 20
116.789949
 10
-316.270498
 20
116.773239
 10
-316.270498
 20
116.759087
 10
-316.270498
 20
116.747707
 10
-316.270498
 20
116.739313
 10
-316.270498
 20
116.734119
 10
-316.270498
 20
116.732341
  0
LWPOLYLINE
  5
2C9
100
AcDbEntity
  8
LY_1
  6
CONTINUOUS
 62
     7
100
AcDbPolyline
 90
       25
 70
     0
 10
-315.331155
 20
127.166911
 10
-315.331155
 20
127.263702
 10
-315.331155
 20
127.362848
 10
-315.331155
 20
127.464579
 10
-315.331155
 20
127.566482
 10
-315.331155
 20
127.666139
 10
-315.331155
 20
127.76114
 10
-315.331155
 20
127.850411
 10
-315.331155
 20
127.939741
 10
-315.331155
 20
128.028418
 10
-315.331155
 20
128.114394
 10
-315.331155
 20
128.195628
 10
-315.331155
 20
128.270076
 10
-315.331155
 20
128.337569
 10
-315.331155
 20
128.402383
 10
-315.331155
 20
128.463596
 10
-315.331155
 20
128.519845
 10
-315.331155
 20
128.569767
 10
-315.331155
 20
128.612003
 10
-315.331155
 20
128.646823
 10
-315.331155
 20
128.676337
 10
-315.331155
 20
128.700121
 10
-315.331155
 20
128.717702
 10
-315.331155
 20
128.728602
 10
-315.331155
 20
128.73234
  0
LWPOLYLINE
  5
2CA
100
AcDbEntity
  8
LY_1
  6
CONTINUOUS
 62
     7
100
AcDbPolyline
 90
       25
 70
     0
 10
-316.270498
 20
128.73234
 10
-316.270498
 20
128.728602
 10
-316.270498
 20
128.717701
 10
-316.270498
 20
128.700119
 10
-316.270498
 20
128.676331
 10
-316.270498
 20
128.646816
 10
-316.270498
 20
128.611992
 10
-316.270498
 20
128.569754
 10
-316.270498
 20
128.519827
 10
-316.270498
 20
128.463574
 10
-316.270498
 20
128.402361
 10
-316.270498
 20
128.337545
 10
-316.270498
 20
128.27005
 10
-316.270498
 20
128.195598
 10
-316.270498
 20
128.114363
 10
-316.270498
 20
128.028387
 10
-316.270498
 20
127.939713
 10
-316.270498
 20
127.850386
 10
-316.270498
 20
127.761116
 10
-316.270498
 20
127.666118
 10
-316.270498
 20
127.566463
 10
-316.270498
 20
127.464565
 10
-316.270498
 20
127.362839
 10
-316.270498
 20
127.263697
 10
-316.270498
 20
127.166911
  0
LWPOLYLINE
  5
2CB
100
AcDbEntity
  8
LY_1
  6
CONTINUOUS
 62
     7
100
AcDbPolyline
 90
       25
 70
     0
 10
-309.853295
 20
116.732341
 10
-309.853295
 20
116.734118
 10
-309.853295
 20
116.739308
 10
-309.853295
 20
116.747696
 10
-309.853295
 20
116.75907
 10
-309.853295
 20
116.773214
 10
-309.853295
 20
116.789916
 10
-309.853295
 20
116.80962
 10
-309.853295
 20
116.833194
 10
-309.853295
 20
116.860066
 10
-309.853295
 20
116.889627
 10
-309.853295
 20
116.921265
 10
-309.853295
 20
116.954371
 10
-309.853295
 20
116.989092
 10
-309.853295
 20
117.027484
 10
-309.853295
 20
117.068898
 10
-309.853295
 20
117.112418
 10
-309.853295
 20
117.157127
 10
-309.853295
 20
117.202107
 10
-309.853295
 20
117.246966
 10
-309.853295
 20
117.294507
 10
-309.853295
 20
117.344405
 10
-309.853295
 20
117.395581
 10
-309.853295
 20
117.446954
 10
-309.853295
 20
117.497445
  0
LINE
  5
2CC
100
AcDbEntity
  8
LY_1
  6
CONTINUOUS
 62
     7
100
AcDbLine
 10
-316.270496
 20
128.732341
 30
0.0
 11
-315.331155
 21
128.732341
 31
0.0
  0
LINE
  5
2CD
100
AcDbEntity
  8
LY_1
  6
CONTINUOUS
 62
     7
100
AcDbLine
 10
-321.614019
 20
128.732341
 30
0.0
 11
-320.791626
 21
128.732341
 31
0.0
  0
LINE
  5
2CE
100
AcDbEntity
  8
LY_1
  6
CONTINUOUS
 62
     7
100
AcDbLine
 10
-326.206636
 20
128.732341
 30
0.0
 11
-327.006636
 21
128.732341
 31
0.0
  0
LINE
  5
2CF
100
AcDbEntity
  8
LY_1
  6
CONTINUOUS
 62
     7
100
AcDbLine
 10
-347.806636
 20
128.732341
 30
0.0
 11
-348.606636
 21
128.732341
 31
0.0
  0
LINE
  5
2D0
100
AcDbEntity
  8
LY_1
  6
CONTINUOUS
 62
     7
100
AcDbLine
 10
-354.021646
 20
128.732341
 30
0.0
 11
-353.199253
 21
128.732341
 31
0.0
  0
LINE
  5
2D1
100
AcDbEntity
  8
LY_1
  6
CONTINUOUS
 62
     7
100
AcDbLine
 10
-359.482117
 20
128.732341
 30
0.0
 11
-358.542776
 21
128.732341
 31
0.0
  0
LINE
  5
2D2
100
AcDbEntity
  8
LY_1
  6
CONTINUOUS
 62
     7
100
AcDbLine
 10
-364.959977
 20
128.732341
 30
0.0
 11
-363.870159
 21
128.732341
 31
0.0
  0
LWPOLYLINE
  5
2D3
100
AcDbEntity
  8
LY_1
  6
CONTINUOUS
 62
     7
100
AcDbPolyline
 90
       25
 70
     0
 10
-310.943113
 20
128.73234
 10
-310.943113
 20
128.728604
 10
-310.943113
 20
128.717711
 10
-310.943113
 20
128.700138
 10
-310.943113
 20
128.676362
 10
-310.943113
 20
128.646861
 10
-310.943113
 20
128.612054
 10
-310.943113
 20
128.569841
 10
-310.943113
 20
128.519938
 10
-310.943113
 20
128.463704
 10
-310.943113
 20
128.402504
 10
-310.943113
 20
128.337695
 10
-310.943113
 20
128.270211
 10
-310.943113
 20
128.19578
 10
-310.943113
 20
128.114555
 10
-310.943113
 20
128.028577
 10
-310.943113
 20
127.939893
 10
-310.943113
 20
127.850544
 10
-310.943113
 20
127.761262
 10
-310.943113
 20
127.666255
 10
-310.943113
 20
127.566581
 10
-310.943113
 20
127.464655
 10
-310.943113
 20
127.362898
 10
-310.943113
 20
127.263726
 10
-310.943113
 20
127.166911
  0
LINE
  5
2D4
100
AcDbEntity
  8
LY_1
  6
CONTINUOUS
 62
     7
100
AcDbLine
 10
-310.943113
 20
128.732341
 30
0.0
 11
-309.853295
 21
128.732341
 31
0.0
  0
LWPOLYLINE
  5
2D5
100
AcDbEntity
  8
LY_1
  6
CONTINUOUS
 62
     7
100
AcDbPolyline
 90
       25
 70
     0
 10
-309.853295
 20
127.166911
 10
-309.853295
 20
127.263733
 10
-309.853295
 20
127.362913
 10
-309.853295
 20
127.464677
 10
-309.853295
 20
127.566607
 10
-309.853295
 20
127.666286
 10
-309.853295
 20
127.761296
 10
-309.853295
 20
127.850581
 10
-309.853295
 20
127.939935
 10
-309.853295
 20
128.028622
 10
-309.853295
 20
128.114599
 10
-309.853295
 20
128.195823
 10
-309.853295
 20
128.270248
 10
-309.853295
 20
128.33773
 10
-309.853295
 20
128.402537
 10
-309.853295
 20
128.463735
 10
-309.853295
 20
128.519964
 10
-309.853295
 20
128.569861
 10
-309.853295
 20
128.612069
 10
-309.853295
 20
128.646872
 10
-309.853295
 20
128.676369
 10
-309.853295
 20
128.700142
 10
-309.853295
 20
128.717712
 10
-309.853295
 20
128.728604
 10
-309.853295
 20
128.73234
  0
LINE
  5
2D6
100
AcDbEntity
  8
LY_1
  6
CONTINUOUS
 62
     7
100
AcDbLine
 10
-304.306636
 20
116.732341
 30
0.0
 11
-304.306636
 21
128.732341
 31
0.0
  0
LINE
  5
2D7
100
AcDbEntity
  8
LY_1
  6
CONTINUOUS
 62
     7
100
AcDbLine
 10
-304.106636
 20
128.732341
 30
0.0
 11
-304.106636
 21
116.732341
 31
0.0
  0
LINE
  5
2D8
100
AcDbEntity
  8
LY_1
  6
CONTINUOUS
 62
     7
100
AcDbLine
 10
-370.706636
 20
116.732341
 30
0.0
 11
-370.706636
 21
128.732341
 31
0.0
  0
LWPOLYLINE
  5
2D9
100
AcDbEntity
  8
LY_1
  6
CONTINUOUS
 62
     7
100
AcDbPolyline
 90
       25
 70
     0
 10
-371.314054
 20
139.855628
 10
-371.357239
 20
139.85084
 10
-371.400235
 20
139.846053
 10
-371.442798
 20
139.841323
 10
-371.484617
 20
139.83665
 10
-371.525481
 20
139.832091
 10
-371.56529
 20
139.827628
 10
-371.603952
 20
139.823298
 10
-371.641358
 20
139.819121
 10
-371.677309
 20
139.815078
 10
-371.711641
 20
139.811225
 10
-371.744238
 20
139.807563
 10
-371.774984
 20
139.80411
 10
-371.803768
 20
139.800868
 10
-371.830471
 20
139.797854
 10
-371.854981
 20
139.795089
 10
-371.877173
 20
139.79259
 10
-371.896919
 20
139.790358
 10
-371.914168
 20
139.788413
 10
-371.928876
 20
139.786734
 10
-371.941002
 20
139.78538
 10
-371.950508
 20
139.784293
 10
-371.957348
 20
139.78353
 10
-371.961482
 20
139.783053
 10
-371.96287
 20
139.782901
  0
ARC
  5
2DA
100
AcDbEntity
  8
LY_1
  6
CONTINUOUS
 62
     7
100
AcDbCircle
 10
-371.906636
 20
139.286068
 30
0.0
 40
0.5
100
AcDbArc
 50
96.457687
 51
180.0
  0
LWPOLYLINE
  5
2DB
100
AcDbEntity
  8
LY_1
  6
CONTINUOUS
 62
   251
100
AcDbPolyline
 90
      137
 70
     0
 10
-303.499218
 20
139.855628
 10
-303.994888
 20
139.910273
 10
-304.490705
 20
139.964099
 10
-304.986666
 20
140.017123
 10
-305.482765
 20
140.069365
 10
-305.979005
 20
140.120787
 10
-306.475378
 20
140.171428
 10
-306.971882
 20
140.221267
 10
-307.468518
 20
140.270285
 10
-307.965279
 20
140.318522
 10
-308.462163
 20
140.365939
 10
-308.959168
 20
140.412574
 10
-309.456292
 20
140.458388
 10
-309.953531
 20
140.503402
 10
-310.450881
 20
140.547614
 10
-310.948342
 20
140.591006
 10
-311.445909
 20
140.633616
 10
-311.943582
 20
140.675406
 10
-312.44135
 20
140.716395
 10
-312.939213
 20
140.756583
 10
-313.437169
 20
140.795951
 10
-313.935211
 20
140.834517
 10
-314.433342
 20
140.872264
 10
-314.931558
 20
140.909209
 10
-315.429855
 20
140.945353
 10
-315.928233
 20
140.980677
 10
-316.426688
 20
141.0152
 10
-316.925219
 20
141.048922
 10
-317.423825
 20
141.081824
 10
-317.922501
 20
141.113925
 10
-318.421248
 20
141.145205
 10
-318.92006
 20
141.175685
 10
-319.418938
 20
141.205344
 10
-319.917877
 20
141.234202
 10
-320.416878
 20
141.26224
 10
-320.915937
 20
141.289477
 10
-321.415052
 20
141.315894
 10
-321.914221
 20
141.341491
 10
-322.413442
 20
141.366305
 10
-322.91271
 20
141.390281
 10
-323.412028
 20
141.413455
 10
-323.91139
 20
141.435828
 10
-324.410794
 20
141.457381
 10
-324.91024
 20
141.478114
 10
-325.409724
 20
141.498027
 10
-325.909248
 20
141.517138
 10
-326.408818
 20
141.535449
 10
-326.908434
 20
141.552939
 10
-327.408092
 20
141.569609
 10
-327.907792
 20
141.585459
 10
-328.40753
 20
141.600508
 10
-328.907305
 20
141.614737
 10
-329.407116
 20
141.628165
 10
-329.90696
 20
141.640773
 10
-330.406835
 20
141.65256
 10
-330.906739
 20
141.663546
 10
-331.406672
 20
141.673713
 10
-331.906629
 20
141.683078
 10
-332.40661
 20
141.691603
 10
-332.906612
 20
141.699347
 10
-333.406635
 20
141.706252
 10
-333.906675
 20
141.712355
 10
-334.406731
 20
141.717639
 10
-334.9068
 20
141.722121
 10
-335.406882
 20
141.725783
 10
-335.906974
 20
141.728625
 10
-336.407074
 20
141.730666
 10
-336.90718
 20
141.731887
 10
-337.40729
 20
141.732287
 10
-337.907402
 20
141.731887
 10
-338.407515
 20
141.730666
 10
-338.907626
 20
141.728625
 10
-339.407734
 20
141.725783
 10
-339.907836
 20
141.722121
 10
-340.407931
 20
141.717639
 10
-340.908017
 20
141.712355
 10
-341.408091
 20
141.706252
 10
-341.908152
 20
141.699328
 10
-342.408198
 20
141.691603
 10
-342.908227
 20
141.683059
 10
-343.408237
 20
141.673693
 10
-343.908226
 20
141.663527
 10
-344.408192
 20
141.652541
 10
-344.908133
 20
141.640754
 10
-345.408048
 20
141.628127
 10
-345.907934
 20
141.614699
 10
-346.407789
 20
141.60047
 10
-346.907612
 20
141.585402
 10
-347.4074
 20
141.569533
 10
-347.907149
 20
141.552863
 10
-348.406856
 20
141.535353
 10
-348.906518
 20
141.517043
 10
-349.406133
 20
141.497931
 10
-349.905701
 20
141.47798
 10
-350.405219
 20
141.457248
 10
-350.904685
 20
141.435675
 10
-351.404097
 20
141.413302
 10
-351.903452
 20
141.390109
 10
-352.402751
 20
141.366114
 10
-352.901989
 20
141.341319
 10
-353.401165
 20
141.315684
 10
-353.900278
 20
141.289267
 10
-354.399325
 20
141.26203
 10
-354.898304
 20
141.233973
 10
-355.397214
 20
141.205115
 10
-355.896053
 20
141.175437
 10
-356.394819
 20
141.144957
 10
-356.893509
 20
141.113677
 10
-357.392121
 20
141.081576
 10
-357.890654
 20
141.048674
 10
-358.389109
 20
141.014952
 10
-358.887478
 20
140.980429
 10
-359.385761
 20
140.945105
 10
-359.88396
 20
140.908961
 10
-360.382069
 20
140.872016
 10
-360.880087
 20
140.834269
 10
-361.37801
 20
140.795722
 10
-361.875842
 20
140.756354
 10
-362.373574
 20
140.716185
 10
-362.871211
 20
140.675216
 10
-363.368746
 20
140.633426
 10
-363.866177
 20
140.590834
 10
-364.363507
 20
140.547461
 10
-364.860728
 20
140.503249
 10
-365.357841
 20
140.458255
 10
-365.854846
 20
140.412459
 10
-366.351736
 20
140.365844
 10
-366.848512
 20
140.318446
 10
-367.345174
 20
140.270228
 10
-367.841717
 20
140.221209
 10
-368.338142
 20
140.171389
 10
-368.834441
 20
140.120768
 10
-369.330621
 20
140.069346
 10
-369.826673
 20
140.017123
 10
-370.322598
 20
139.964099
 10
-370.818392
 20
139.910273
 10
-371.314054
 20
139.855628
  0
LWPOLYLINE
  5
2DC
100
AcDbEntity
  8
LY_1
  6
CONTINUOUS
 62
     7
100
AcDbPolyline
 90
       25
 70
     0
 10
-302.850402
 20
139.782901
 10
-302.851768
 20
139.783053
 10
-302.855869
 20
139.783511
 10
-302.862704
 20
139.784293
 10
-302.872236
 20
139.785361
 10
-302.884396
 20
139.786734
 10
-302.89914
 20
139.788413
 10
-302.916425
 20
139.790358
 10
-302.936211
 20
139.79259
 10
-302.958408
 20
139.795108
 10
-302.982906
 20
139.797873
 10
-303.009592
 20
139.800868
 10
-303.038362
 20
139.80411
 10
-303.069108
 20
139.807563
 10
-303.101724
 20
139.811244
 10
-303.136101
 20
139.815097
 10
-303.172127
 20
139.81914
 10
-303.209625
 20
139.823336
 10
-303.248428
 20
139.827685
 10
-303.288363
 20
139.832148
 10
-303.329268
 20
139.836707
 10
-303.370972
 20
139.841361
 10
-303.413311
 20
139.846091
 10
-303.456114
 20
139.85084
 10
-303.499218
 20
139.855628
  0
ARC
  5
2DD
100
AcDbEntity
  8
LY_1
  6
CONTINUOUS
 62
     7
100
AcDbCircle
 10
-302.906636
 20
139.286068
 30
0.0
 40
0.5
100
AcDbArc
 50
0.0
 51
83.542313
  0
LINE
  5
2DE
100
AcDbEntity
  8
LY_1
  6
CONTINUOUS
 62
     7
100
AcDbLine
 10
-304.106636
 20
128.732341
 30
0.0
 11
-309.853295
 21
128.732341
 31
0.0
  0
LINE
  5
2DF
100
AcDbEntity
  8
LY_1
  6
CONTINUOUS
 62
     7
100
AcDbLine
 10
-310.943113
 20
128.732341
 30
0.0
 11
-315.331155
 21
128.732341
 31
0.0
  0
LINE
  5
2E0
100
AcDbEntity
  8
LY_1
  6
CONTINUOUS
 62
     7
100
AcDbLine
 10
-316.270496
 20
128.732341
 30
0.0
 11
-320.791626
 21
128.732341
 31
0.0
  0
LINE
  5
2E1
100
AcDbEntity
  8
LY_1
  6
CONTINUOUS
 62
     7
100
AcDbLine
 10
-321.614019
 20
128.732341
 30
0.0
 11
-326.206636
 21
128.732341
 31
0.0
  0
LINE
  5
2E2
100
AcDbEntity
  8
LY_1
  6
CONTINUOUS
 62
     7
100
AcDbLine
 10
-327.006636
 20
128.732341
 30
0.0
 11
-347.806636
 21
128.732341
 31
0.0
  0
LINE
  5
2E3
100
AcDbEntity
  8
LY_1
  6
CONTINUOUS
 62
     7
100
AcDbLine
 10
-348.606636
 20
128.732341
 30
0.0
 11
-353.199253
 21
128.732341
 31
0.0
  0
LINE
  5
2E4
100
AcDbEntity
  8
LY_1
  6
CONTINUOUS
 62
     7
100
AcDbLine
 10
-354.021646
 20
128.732341
 30
0.0
 11
-358.542776
 21
128.732341
 31
0.0
  0
LINE
  5
2E5
100
AcDbEntity
  8
LY_1
  6
CONTINUOUS
 62
     7
100
AcDbLine
 10
-359.482117
 20
128.732341
 30
0.0
 11
-363.870159
 21
128.732341
 31
0.0
  0
LINE
  5
2E6
100
AcDbEntity
  8
LY_1
  6
CONTINUOUS
 62
     7
100
AcDbLine
 10
-364.959977
 20
128.732341
 30
0.0
 11
-370.706636
 21
128.732341
 31
0.0
  0
LINE
  5
2E7
100
AcDbEntity
  8
LY_1
  6
CONTINUOUS
 62
   251
100
AcDbLine
 10
-372.406636
 20
139.286068
 30
0.0
 11
-372.406636
 21
116.732341
 31
0.0
  0
LINE
  5
2E8
100
AcDbEntity
  8
LY_1
  6
CONTINUOUS
 62
   251
100
AcDbLine
 10
-302.406636
 20
116.732341
 30
0.0
 11
-302.406636
 21
139.286068
 31
0.0
  0
LINE
  5
2E9
100
AcDbEntity
  8
LY_1
  6
CONTINUOUS
 62
   251
100
AcDbLine
 10
-302.406636
 20
57.982341
 30
0.0
 11
-302.406636
 21
116.732341
 31
0.0
  0
LINE
  5
2EA
100
AcDbEntity
  8
LY_1
  6
CONTINUOUS
 62
   251
100
AcDbLine
 10
-372.406636
 20
116.732341
 30
0.0
 11
-372.406636
 21
57.982341
 31
0.0
  0
LINE
  5
2EB
100
AcDbEntity
  8
LY_1
  6
CONTINUOUS
 62
     7
100
AcDbLine
 10
-334.406636
 20
67.437346
 30
0.0
 11
-334.406636
 21
63.182341
 31
0.0
  0
LINE
  5
2EC
100
AcDbEntity
  8
LY_1
  6
CONTINUOUS
 62
     7
100
AcDbLine
 10
-340.406636
 20
63.182341
 30
0.0
 11
-340.406636
 21
67.437346
 31
0.0
  0
LINE
  5
2ED
100
AcDbEntity
  8
LY_1
  6
CONTINUOUS
 62
     7
100
AcDbLine
 10
-344.906636
 20
63.182341
 30
0.0
 11
-345.106636
 21
63.182341
 31
0.0
  0
LINE
  5
2EE
100
AcDbEntity
  8
LY_1
  6
CONTINUOUS
 62
     7
100
AcDbLine
 10
-329.706636
 20
63.182341
 30
0.0
 11
-329.706636
 21
60.482341
 31
0.0
  0
LINE
  5
2EF
100
AcDbEntity
  8
LY_1
  6
CONTINUOUS
 62
     7
100
AcDbLine
 10
-317.006636
 20
63.182341
 30
0.0
 11
-317.006636
 21
57.982341
 31
0.0
  0
LINE
  5
2F0
100
AcDbEntity
  8
LY_1
  6
CONTINUOUS
 62
     7
100
AcDbLine
 10
-306.999482
 20
114.232341
 30
0.0
 11
-306.99962
 21
114.232341
 31
0.0
  0
LINE
  5
2F1
100
AcDbEntity
  8
LY_1
  6
CONTINUOUS
 62
     7
100
AcDbLine
 10
-367.813652
 20
114.232341
 30
0.0
 11
-367.813791
 21
114.232341
 31
0.0
  0
LWPOLYLINE
  5
2F2
100
AcDbEntity
  8
LY_1
  6
CONTINUOUS
 62
     7
100
AcDbPolyline
 90
       25
 70
     0
 10
-367.813791
 20
114.23234
 10
-367.826601
 20
114.232254
 10
-367.839301
 20
114.232087
 10
-367.851854
 20
114.23184
 10
-367.864221
 20
114.231514
 10
-367.876359
 20
114.23111
 10
-367.888234
 20
114.230629
 10
-367.899776
 20
114.230073
 10
-367.910908
 20
114.229447
 10
-367.921596
 20
114.228752
 10
-367.931813
 20
114.227992
 10
-367.941526
 20
114.227168
 10
-367.9507
 20
114.226282
 10
-367.959285
 20
114.22534
 10
-367.967227
 20
114.224348
 10
-367.974504
 20
114.223309
 10
-367.981094
 20
114.222227
 10
-367.986978
 20
114.221104
 10
-367.992132
 20
114.219945
 10
-367.996536
 20
114.218755
 10
-368.000153
 20
114.217541
 10
-368.002978
 20
114.216309
 10
-368.005005
 20
114.215062
 10
-368.006228
 20
114.213803
 10
-368.006635
 20
114.212537
  0
LINE
  5
2F3
100
AcDbEntity
  8
LY_1
  6
CONTINUOUS
 62
     7
100
AcDbLine
 10
-368.006636
 20
114.212537
 30
0.0
 11
-368.006636
 21
57.982341
 31
0.0
  0
LWPOLYLINE
  5
2F4
100
AcDbEntity
  8
LY_1
  6
CONTINUOUS
 62
     7
100
AcDbPolyline
 90
       25
 70
     0
 10
-367.813655
 20
116.732341
 10
-367.826565
 20
116.732341
 10
-367.839356
 20
116.732341
 10
-367.851995
 20
116.732341
 10
-367.864438
 20
116.732341
 10
-367.876647
 20
116.732341
 10
-367.888585
 20
116.732341
 10
-367.900167
 20
116.732341
 10
-367.911325
 20
116.732341
 10
-367.922033
 20
116.732341
 10
-367.932254
 20
116.732341
 10
-367.94196
 20
116.732341
 10
-367.95112
 20
116.732341
 10
-367.959672
 20
116.732341
 10
-367.967575
 20
116.732341
 10
-367.974807
 20
116.732341
 10
-367.981351
 20
116.732341
 10
-367.987188
 20
116.732341
 10
-367.992299
 20
116.732341
 10
-367.996653
 20
116.732341
 10
-368.000231
 20
116.732341
 10
-368.003023
 20
116.732341
 10
-368.005026
 20
116.732341
 10
-368.006232
 20
116.732341
 10
-368.006635
 20
116.732341
  0
LWPOLYLINE
  5
2F5
100
AcDbEntity
  8
LY_1
  6
CONTINUOUS
 62
     7
100
AcDbPolyline
 90
       25
 70
     0
 10
-368.006635
 20
116.732341
 10
-368.006635
 20
116.627349
 10
-368.006635
 20
116.522357
 10
-368.006635
 20
116.417365
 10
-368.006635
 20
116.312373
 10
-368.006635
 20
116.207381
 10
-368.006635
 20
116.10239
 10
-368.006635
 20
115.997398
 10
-368.006635
 20
115.892406
 10
-368.006635
 20
115.787414
 10
-368.006635
 20
115.682422
 10
-368.006635
 20
115.57743
 10
-368.006635
 20
115.472439
 10
-368.006635
 20
115.367447
 10
-368.006635
 20
115.262455
 10
-368.006635
 20
115.157463
 10
-368.006635
 20
115.052471
 10
-368.006635
 20
114.94748
 10
-368.006635
 20
114.842488
 10
-368.006635
 20
114.737496
 10
-368.006635
 20
114.632504
 10
-368.006635
 20
114.527512
 10
-368.006635
 20
114.42252
 10
-368.006635
 20
114.317529
 10
-368.006635
 20
114.212537
  0
LWPOLYLINE
  5
2F6
100
AcDbEntity
  8
LY_1
  6
CONTINUOUS
 62
     7
100
AcDbPolyline
 90
       25
 70
     0
 10
-306.806637
 20
116.732341
 10
-306.807039
 20
116.732341
 10
-306.808246
 20
116.732341
 10
-306.810246
 20
116.732341
 10
-306.813038
 20
116.732341
 10
-306.816612
 20
116.732341
 10
-306.820963
 20
116.732341
 10
-306.826075
 20
116.732341
 10
-306.831914
 20
116.732341
 10
-306.838456
 20
116.732341
 10
-306.845687
 20
116.732341
 10
-306.853584
 20
116.732341
 10
-306.862128
 20
116.732341
 10
-306.871291
 20
116.732341
 10
-306.881002
 20
116.732341
 10
-306.891223
 20
116.732341
 10
-306.901925
 20
116.732341
 10
-306.913076
 20
116.732341
 10
-306.924644
 20
116.732341
 10
-306.936587
 20
116.732341
 10
-306.94881
 20
116.732341
 10
-306.961263
 20
116.732341
 10
-306.973909
 20
116.732341
 10
-306.986707
 20
116.732341
 10
-306.999617
 20
116.732341
  0
LWPOLYLINE
  5
2F7
100
AcDbEntity
  8
LY_1
  6
CONTINUOUS
 62
     7
100
AcDbPolyline
 90
       25
 70
     0
 10
-306.999481
 20
114.23234
 10
-306.986671
 20
114.232254
 10
-306.973971
 20
114.232087
 10
-306.961418
 20
114.23184
 10
-306.949051
 20
114.231514
 10
-306.936913
 20
114.23111
 10
-306.925038
 20
114.230629
 10
-306.913496
 20
114.230073
 10
-306.902364
 20
114.229447
 10
-306.891676
 20
114.228752
 10
-306.881459
 20
114.227992
 10
-306.871746
 20
114.227168
 10
-306.862572
 20
114.226282
 10
-306.853986
 20
114.22534
 10
-306.846045
 20
114.224348
 10
-306.838768
 20
114.223309
 10
-306.832178
 20
114.222227
 10
-306.826294
 20
114.221104
 10
-306.82114
 20
114.219945
 10
-306.816736
 20
114.218755
 10
-306.813119
 20
114.217541
 10
-306.810294
 20
114.216309
 10
-306.808267
 20
114.215062
 10
-306.807044
 20
114.213803
 10
-306.806637
 20
114.212537
  0
LWPOLYLINE
  5
2F8
100
AcDbEntity
  8
LY_1
  6
CONTINUOUS
 62
     7
100
AcDbPolyline
 90
       25
 70
     0
 10
-306.806637
 20
114.212537
 10
-306.806637
 20
114.317529
 10
-306.806637
 20
114.42252
 10
-306.806637
 20
114.527512
 10
-306.806637
 20
114.632504
 10
-306.806637
 20
114.737496
 10
-306.806637
 20
114.842488
 10
-306.806637
 20
114.94748
 10
-306.806637
 20
115.052471
 10
-306.806637
 20
115.157463
 10
-306.806637
 20
115.262455
 10
-306.806637
 20
115.367447
 10
-306.806637
 20
115.472439
 10
-306.806637
 20
115.57743
 10
-306.806637
 20
115.682422
 10
-306.806637
 20
115.787414
 10
-306.806637
 20
115.892406
 10
-306.806637
 20
115.997398
 10
-306.806637
 20
116.10239
 10
-306.806637
 20
116.207381
 10
-306.806637
 20
116.312373
 10
-306.806637
 20
116.417365
 10
-306.806637
 20
116.522357
 10
-306.806637
 20
116.627349
 10
-306.806637
 20
116.732341
  0
LINE
  5
2F9
100
AcDbEntity
  8
LY_1
  6
CONTINUOUS
 62
     7
100
AcDbLine
 10
-306.806636
 20
57.982341
 30
0.0
 11
-306.806636
 21
114.212537
 31
0.0
  0
LINE
  5
2FA
100
AcDbEntity
  8
LY_1
  6
CONTINUOUS
 62
     7
100
AcDbLine
 10
-306.99962
 20
114.232341
 30
0.0
 11
-367.813652
 21
114.232341
 31
0.0
  0
LINE
  5
2FB
100
AcDbEntity
  8
LY_1
  6
CONTINUOUS
 62
     7
100
AcDbLine
 10
-312.006636
 20
116.732341
 30
0.0
 11
-306.999616
 21
116.732341
 31
0.0
  0
LINE
  5
2FC
100
AcDbEntity
  8
LY_1
  6
CONTINUOUS
 62
     7
100
AcDbLine
 10
-320.366636
 20
116.732341
 30
0.0
 11
-313.006636
 21
116.732341
 31
0.0
  0
LINE
  5
2FD
100
AcDbEntity
  8
LY_1
  6
CONTINUOUS
 62
     7
100
AcDbLine
 10
-328.656636
 20
116.732341
 30
0.0
 11
-321.366636
 21
116.732341
 31
0.0
  0
LINE
  5
2FE
100
AcDbEntity
  8
LY_1
  6
CONTINUOUS
 62
     7
100
AcDbLine
 10
-336.906636
 20
116.732341
 30
0.0
 11
-329.656636
 21
116.732341
 31
0.0
  0
LINE
  5
2FF
100
AcDbEntity
  8
LY_1
  6
CONTINUOUS
 62
     7
100
AcDbLine
 10
-345.156636
 20
116.732341
 30
0.0
 11
-337.906636
 21
116.732341
 31
0.0
  0
LINE
  5
300
100
AcDbEntity
  8
LY_1
  6
CONTINUOUS
 62
     7
100
AcDbLine
 10
-353.446636
 20
116.732341
 30
0.0
 11
-346.156636
 21
116.732341
 31
0.0
  0
LINE
  5
301
100
AcDbEntity
  8
LY_1
  6
CONTINUOUS
 62
     7
100
AcDbLine
 10
-361.806636
 20
116.732341
 30
0.0
 11
-354.446636
 21
116.732341
 31
0.0
  0
LINE
  5
302
100
AcDbEntity
  8
LY_1
  6
CONTINUOUS
 62
     7
100
AcDbLine
 10
-367.813656
 20
116.732341
 30
0.0
 11
-362.806636
 21
116.732341
 31
0.0
  0
LINE
  5
303
100
AcDbEntity
  8
LY_1
  6
CONTINUOUS
 62
     7
100
AcDbLine
 10
-304.106636
 20
116.732341
 30
0.0
 11
-306.806636
 21
116.732341
 31
0.0
  0
LINE
  5
304
100
AcDbEntity
  8
LY_1
  6
CONTINUOUS
 62
     7
100
AcDbLine
 10
-368.006636
 20
116.732341
 30
0.0
 11
-370.706636
 21
116.732341
 31
0.0
  0
LINE
  5
305
100
AcDbEntity
  8
LY_1
  6
CONTINUOUS
 62
     7
100
AcDbLine
 10
-302.406636
 20
116.732341
 30
0.0
 11
-303.517081
 21
116.732341
 31
0.0
  0
LINE
  5
306
100
AcDbEntity
  8
LY_1
  6
CONTINUOUS
 62
     7
100
AcDbLine
 10
-371.296191
 20
116.732341
 30
0.0
 11
-372.406636
 21
116.732341
 31
0.0
  0
LINE
  5
307
100
AcDbEntity
  8
LY_1
  6
CONTINUOUS
 62
     7
100
AcDbLine
 10
-304.106636
 20
116.732341
 30
0.0
 11
-303.517081
 21
116.732341
 31
0.0
  0
LINE
  5
308
100
AcDbEntity
  8
LY_1
  6
CONTINUOUS
 62
     7
100
AcDbLine
 10
-371.296191
 20
116.732341
 30
0.0
 11
-370.706636
 21
116.732341
 31
0.0
  0
LINE
  5
309
100
AcDbEntity
  8
LY_1
  6
CONTINUOUS
 62
     7
100
AcDbLine
 10
-312.006636
 20
116.732341
 30
0.0
 11
-313.006636
 21
116.732341
 31
0.0
  0
LINE
  5
30A
100
AcDbEntity
  8
LY_1
  6
CONTINUOUS
 62
     7
100
AcDbLine
 10
-320.366636
 20
116.732341
 30
0.0
 11
-321.366636
 21
116.732341
 31
0.0
  0
LINE
  5
30B
100
AcDbEntity
  8
LY_1
  6
CONTINUOUS
 62
     7
100
AcDbLine
 10
-329.656636
 20
116.732341
 30
0.0
 11
-328.656636
 21
116.732341
 31
0.0
  0
LINE
  5
30C
100
AcDbEntity
  8
LY_1
  6
CONTINUOUS
 62
     7
100
AcDbLine
 10
-337.906636
 20
116.732341
 30
0.0
 11
-336.906636
 21
116.732341
 31
0.0
  0
LINE
  5
30D
100
AcDbEntity
  8
LY_1
  6
CONTINUOUS
 62
     7
100
AcDbLine
 10
-346.156636
 20
116.732341
 30
0.0
 11
-345.156636
 21
116.732341
 31
0.0
  0
LINE
  5
30E
100
AcDbEntity
  8
LY_1
  6
CONTINUOUS
 62
     7
100
AcDbLine
 10
-353.446636
 20
116.732341
 30
0.0
 11
-354.446636
 21
116.732341
 31
0.0
  0
LINE
  5
30F
100
AcDbEntity
  8
LY_1
  6
CONTINUOUS
 62
     7
100
AcDbLine
 10
-361.806636
 20
116.732341
 30
0.0
 11
-362.806636
 21
116.732341
 31
0.0
  0
LINE
  5
310
100
AcDbEntity
  8
LY_1
  6
CONTINUOUS
 62
     7
100
AcDbLine
 10
-329.706636
 20
60.482341
 30
0.0
 11
-328.906636
 21
59.682341
 31
0.0
  0
LINE
  5
311
100
AcDbEntity
  8
LY_1
  6
CONTINUOUS
 62
     7
100
AcDbLine
 10
-328.906636
 20
59.682341
 30
0.0
 11
-325.906636
 21
59.682341
 31
0.0
  0
LINE
  5
312
100
AcDbEntity
  8
LY_1
  6
CONTINUOUS
 62
     7
100
AcDbLine
 10
-329.706636
 20
60.682341
 30
0.0
 11
-329.686432
 21
60.682341
 31
0.0
  0
LINE
  5
313
100
AcDbEntity
  8
LY_1
  6
CONTINUOUS
 62
     7
100
AcDbLine
 10
-325.906636
 20
59.682341
 30
0.0
 11
-325.906636
 21
63.182341
 31
0.0
  0
LINE
  5
314
100
AcDbEntity
  8
LY_1
  6
CONTINUOUS
 62
     7
100
AcDbLine
 10
-340.406636
 20
67.437346
 30
0.0
 11
-334.406636
 21
67.437346
 31
0.0
  0
LINE
  5
315
100
AcDbEntity
  8
LY_1
  6
CONTINUOUS
 62
   251
100
AcDbLine
 10
-372.406636
 20
57.982341
 30
0.0
 11
-302.406636
 21
57.982341
 31
0.0
  0
LINE
  5
316
100
AcDbEntity
  8
LY_1
  6
CONTINUOUS
 62
     7
100
AcDbLine
 10
-327.706636
 20
63.182341
 30
0.0
 11
-327.706636
 21
59.682341
 31
0.0
  0
LINE
  5
317
100
AcDbEntity
  8
LY_1
  6
CONTINUOUS
 62
     7
100
AcDbLine
 10
-357.806636
 20
63.182341
 30
0.0
 11
-357.806636
 21
57.982341
 31
0.0
  0
LINE
  5
318
100
AcDbEntity
  8
LY_1
  6
CONTINUOUS
 62
     7
100
AcDbLine
 10
-347.106636
 20
63.182341
 30
0.0
 11
-347.106636
 21
59.682341
 31
0.0
  0
LINE
  5
319
100
AcDbEntity
  8
LY_1
  6
CONTINUOUS
 62
     7
100
AcDbLine
 10
-357.806636
 20
63.182341
 30
0.0
 11
-347.106636
 21
63.182341
 31
0.0
  0
LINE
  5
31A
100
AcDbEntity
  8
LY_1
  6
CONTINUOUS
 62
     7
100
AcDbLine
 10
-348.906636
 20
59.682341
 30
0.0
 11
-348.906636
 21
63.182341
 31
0.0
  0
LINE
  5
31B
100
AcDbEntity
  8
LY_1
  6
CONTINUOUS
 62
     7
100
AcDbLine
 10
-345.106636
 20
60.682341
 30
0.0
 11
-345.12684
 21
60.682341
 31
0.0
  0
LINE
  5
31C
100
AcDbEntity
  8
LY_1
  6
CONTINUOUS
 62
     7
100
AcDbLine
 10
-345.906636
 20
59.682341
 30
0.0
 11
-348.906636
 21
59.682341
 31
0.0
  0
LINE
  5
31D
100
AcDbEntity
  8
LY_1
  6
CONTINUOUS
 62
     7
100
AcDbLine
 10
-345.106636
 20
60.482341
 30
0.0
 11
-345.906636
 21
59.682341
 31
0.0
  0
LINE
  5
31E
100
AcDbEntity
  8
LY_1
  6
CONTINUOUS
 62
     7
100
AcDbLine
 10
-345.106636
 20
63.182341
 30
0.0
 11
-345.106636
 21
60.482341
 31
0.0
  0
LINE
  5
31F
100
AcDbEntity
  8
LY_1
  6
CONTINUOUS
 62
     7
100
AcDbLine
 10
-318.906636
 20
63.182341
 30
0.0
 11
-318.906636
 21
57.982341
 31
0.0
  0
LINE
  5
320
100
AcDbEntity
  8
LY_1
  6
CONTINUOUS
 62
     7
100
AcDbLine
 10
-317.006636
 20
63.182341
 30
0.0
 11
-327.706636
 21
63.182341
 31
0.0
  0
LINE
  5
321
100
AcDbEntity
  8
LY_1
  6
CONTINUOUS
 62
     7
100
AcDbLine
 10
-355.906636
 20
63.182341
 30
0.0
 11
-355.906636
 21
57.982341
 31
0.0
  0
LINE
  5
322
100
AcDbEntity
  8
LY_1
  6
CONTINUOUS
 62
     7
100
AcDbLine
 10
-345.106636
 20
63.182341
 30
0.0
 11
-329.706636
 21
63.182341
 31
0.0
  0
LINE
  5
323
100
AcDbEntity
  8
LY_1
  6
CONTINUOUS
 62
     7
100
AcDbLine
 10
-307.706636
 20
178.490727
 30
0.0
 11
-367.106636
 21
178.490727
 31
0.0
  0
LWPOLYLINE
  5
324
100
AcDbEntity
  8
LY_1
  6
CONTINUOUS
 62
     7
100
AcDbPolyline
 90
       25
 70
     0
 10
-367.106636
 20
174.290727
 10
-367.374109
 20
174.30828
 10
-367.644428
 20
174.361217
 10
-367.90875
 20
174.449951
 10
-368.158696
 20
174.573771
 10
-368.387776
 20
174.727365
 10
-368.589993
 20
174.904237
 10
-368.767243
 20
175.105998
 10
-368.921505
 20
175.335093
 10
-369.046112
 20
175.585474
 10
-369.135531
 20
175.850616
 10
-369.18892
 20
176.12203
 10
-369.206637
 20
176.390726
 10
-369.18892
 20
176.659423
 10
-369.135531
 20
176.930837
 10
-369.046112
 20
177.195979
 10
-368.921505
 20
177.44636
 10
-368.767243
 20
177.675454
 10
-368.589993
 20
177.877216
 10
-368.387776
 20
178.054088
 10
-368.158696
 20
178.207682
 10
-367.90875
 20
178.331502
 10
-367.644428
 20
178.420236
 10
-367.374109
 20
178.473173
 10
-367.106636
 20
178.490727
  0
LINE
  5
325
100
AcDbEntity
  8
LY_1
  6
CONTINUOUS
 62
     7
100
AcDbLine
 10
-367.106636
 20
174.290727
 30
0.0
 11
-307.706636
 21
174.290727
 31
0.0
  0
CIRCLE
  5
326
100
AcDbEntity
  8
LY_1
  6
CONTINUOUS
 62
   251
100
AcDbCircle
 10
-367.106636
 20
176.390727
 30
0.0
 40
2.1
  0
LINE
  5
327
100
AcDbEntity
  8
LY_1
  6
CONTINUOUS
 62
   251
100
AcDbLine
 10
-369.175408
 20
176.003802
 30
0.0
 11
-367.563386
 21
176.003802
 31
0.0
  0
LINE
  5
328
100
AcDbEntity
  8
LY_1
  6
CONTINUOUS
 62
   251
100
AcDbLine
 10
-369.161903
 20
176.843802
 30
0.0
 11
-367.563386
 21
176.843802
 31
0.0
  0
LINE
  5
329
100
AcDbEntity
  8
LY_1
  6
CONTINUOUS
 62
   251
100
AcDbLine
 10
-366.723386
 20
176.843802
 30
0.0
 11
-365.060819
 21
176.843802
 31
0.0
  0
LINE
  5
32A
100
AcDbEntity
  8
LY_1
  6
CONTINUOUS
 62
   251
100
AcDbLine
 10
-366.723386
 20
176.003802
 30
0.0
 11
-365.047314
 21
176.003802
 31
0.0
  0
LINE
  5
32B
100
AcDbEntity
  8
LY_1
  6
CONTINUOUS
 62
   251
100
AcDbLine
 10
-367.563386
 20
176.843802
 30
0.0
 11
-367.563386
 21
177.683802
 31
0.0
  0
LINE
  5
32C
100
AcDbEntity
  8
LY_1
  6
CONTINUOUS
 62
   251
100
AcDbLine
 10
-366.723386
 20
176.843802
 30
0.0
 11
-366.723386
 21
177.683802
 31
0.0
  0
LINE
  5
32D
100
AcDbEntity
  8
LY_1
  6
CONTINUOUS
 62
   251
100
AcDbLine
 10
-367.563386
 20
177.683802
 30
0.0
 11
-366.723386
 21
177.683802
 31
0.0
  0
LINE
  5
32E
100
AcDbEntity
  8
LY_1
  6
CONTINUOUS
 62
   251
100
AcDbLine
 10
-366.723386
 20
175.163802
 30
0.0
 11
-366.723386
 21
176.003802
 31
0.0
  0
LINE
  5
32F
100
AcDbEntity
  8
LY_1
  6
CONTINUOUS
 62
   251
100
AcDbLine
 10
-367.563386
 20
175.163802
 30
0.0
 11
-367.563386
 21
176.003802
 31
0.0
  0
LINE
  5
330
100
AcDbEntity
  8
LY_1
  6
CONTINUOUS
 62
   251
100
AcDbLine
 10
-367.563386
 20
175.163802
 30
0.0
 11
-366.723386
 21
175.163802
 31
0.0
  0
CIRCLE
  5
331
100
AcDbEntity
  8
LY_1
  6
CONTINUOUS
 62
   251
100
AcDbCircle
 10
-361.707005
 20
176.390727
 30
0.0
 40
2.1
  0
LINE
  5
332
100
AcDbEntity
  8
LY_1
  6
CONTINUOUS
 62
   251
100
AcDbLine
 10
-363.775777
 20
176.003802
 30
0.0
 11
-362.163755
 21
176.003802
 31
0.0
  0
LINE
  5
333
100
AcDbEntity
  8
LY_1
  6
CONTINUOUS
 62
   251
100
AcDbLine
 10
-363.762272
 20
176.843802
 30
0.0
 11
-362.163755
 21
176.843802
 31
0.0
  0
LINE
  5
334
100
AcDbEntity
  8
LY_1
  6
CONTINUOUS
 62
   251
100
AcDbLine
 10
-361.323755
 20
176.843802
 30
0.0
 11
-359.661188
 21
176.843802
 31
0.0
  0
LINE
  5
335
100
AcDbEntity
  8
LY_1
  6
CONTINUOUS
 62
   251
100
AcDbLine
 10
-361.323755
 20
176.003802
 30
0.0
 11
-359.647683
 21
176.003802
 31
0.0
  0
LINE
  5
336
100
AcDbEntity
  8
LY_1
  6
CONTINUOUS
 62
   251
100
AcDbLine
 10
-362.163755
 20
176.843802
 30
0.0
 11
-362.163755
 21
177.683802
 31
0.0
  0
LINE
  5
337
100
AcDbEntity
  8
LY_1
  6
CONTINUOUS
 62
   251
100
AcDbLine
 10
-361.323755
 20
176.843802
 30
0.0
 11
-361.323755
 21
177.683802
 31
0.0
  0
LINE
  5
338
100
AcDbEntity
  8
LY_1
  6
CONTINUOUS
 62
   251
100
AcDbLine
 10
-362.163755
 20
177.683802
 30
0.0
 11
-361.323755
 21
177.683802
 31
0.0
  0
LINE
  5
339
100
AcDbEntity
  8
LY_1
  6
CONTINUOUS
 62
   251
100
AcDbLine
 10
-361.323755
 20
175.163802
 30
0.0
 11
-361.323755
 21
176.003802
 31
0.0
  0
LINE
  5
33A
100
AcDbEntity
  8
LY_1
  6
CONTINUOUS
 62
   251
100
AcDbLine
 10
-362.163755
 20
175.163802
 30
0.0
 11
-362.163755
 21
176.003802
 31
0.0
  0
LINE
  5
33B
100
AcDbEntity
  8
LY_1
  6
CONTINUOUS
 62
   251
100
AcDbLine
 10
-362.163755
 20
175.163802
 30
0.0
 11
-361.323755
 21
175.163802
 31
0.0
  0
CIRCLE
  5
33C
100
AcDbEntity
  8
LY_1
  6
CONTINUOUS
 62
   251
100
AcDbCircle
 10
-356.307374
 20
176.390726
 30
0.0
 40
2.1
  0
LINE
  5
33D
100
AcDbEntity
  8
LY_1
  6
CONTINUOUS
 62
   251
100
AcDbLine
 10
-358.376146
 20
176.003801
 30
0.0
 11
-356.764124
 21
176.003801
 31
0.0
  0
LINE
  5
33E
100
AcDbEntity
  8
LY_1
  6
CONTINUOUS
 62
   251
100
AcDbLine
 10
-358.362641
 20
176.843801
 30
0.0
 11
-356.764124
 21
176.843801
 31
0.0
  0
LINE
  5
33F
100
AcDbEntity
  8
LY_1
  6
CONTINUOUS
 62
   251
100
AcDbLine
 10
-355.924124
 20
176.843801
 30
0.0
 11
-354.261557
 21
176.843801
 31
0.0
  0
LINE
  5
340
100
AcDbEntity
  8
LY_1
  6
CONTINUOUS
 62
   251
100
AcDbLine
 10
-355.924124
 20
176.003801
 30
0.0
 11
-354.248052
 21
176.003801
 31
0.0
  0
LINE
  5
341
100
AcDbEntity
  8
LY_1
  6
CONTINUOUS
 62
   251
100
AcDbLine
 10
-356.764124
 20
176.843801
 30
0.0
 11
-356.764124
 21
177.683801
 31
0.0
  0
LINE
  5
342
100
AcDbEntity
  8
LY_1
  6
CONTINUOUS
 62
   251
100
AcDbLine
 10
-355.924124
 20
176.843801
 30
0.0
 11
-355.924124
 21
177.683801
 31
0.0
  0
LINE
  5
343
100
AcDbEntity
  8
LY_1
  6
CONTINUOUS
 62
   251
100
AcDbLine
 10
-356.764124
 20
177.683801
 30
0.0
 11
-355.924124
 21
177.683801
 31
0.0
  0
LINE
  5
344
100
AcDbEntity
  8
LY_1
  6
CONTINUOUS
 62
   251
100
AcDbLine
 10
-355.924124
 20
175.163801
 30
0.0
 11
-355.924124
 21
176.003801
 31
0.0
  0
LINE
  5
345
100
AcDbEntity
  8
LY_1
  6
CONTINUOUS
 62
   251
100
AcDbLine
 10
-356.764124
 20
175.163801
 30
0.0
 11
-356.764124
 21
176.003801
 31
0.0
  0
LINE
  5
346
100
AcDbEntity
  8
LY_1
  6
CONTINUOUS
 62
   251
100
AcDbLine
 10
-356.764124
 20
175.163801
 30
0.0
 11
-355.924124
 21
175.163801
 31
0.0
  0
CIRCLE
  5
347
100
AcDbEntity
  8
LY_1
  6
CONTINUOUS
 62
   251
100
AcDbCircle
 10
-350.907743
 20
176.390726
 30
0.0
 40
2.1
  0
LINE
  5
348
100
AcDbEntity
  8
LY_1
  6
CONTINUOUS
 62
   251
100
AcDbLine
 10
-352.976515
 20
176.003801
 30
0.0
 11
-351.364493
 21
176.003801
 31
0.0
  0
LINE
  5
349
100
AcDbEntity
  8
LY_1
  6
CONTINUOUS
 62
   251
100
AcDbLine
 10
-352.96301
 20
176.843801
 30
0.0
 11
-351.364493
 21
176.843801
 31
0.0
  0
LINE
  5
34A
100
AcDbEntity
  8
LY_1
  6
CONTINUOUS
 62
   251
100
AcDbLine
 10
-350.524493
 20
176.843801
 30
0.0
 11
-348.861926
 21
176.843801
 31
0.0
  0
LINE
  5
34B
100
AcDbEntity
  8
LY_1
  6
CONTINUOUS
 62
   251
100
AcDbLine
 10
-350.524493
 20
176.003801
 30
0.0
 11
-348.848421
 21
176.003801
 31
0.0
  0
LINE
  5
34C
100
AcDbEntity
  8
LY_1
  6
CONTINUOUS
 62
   251
100
AcDbLine
 10
-351.364493
 20
176.843801
 30
0.0
 11
-351.364493
 21
177.683801
 31
0.0
  0
LINE
  5
34D
100
AcDbEntity
  8
LY_1
  6
CONTINUOUS
 62
   251
100
AcDbLine
 10
-350.524493
 20
176.843801
 30
0.0
 11
-350.524493
 21
177.683801
 31
0.0
  0
LINE
  5
34E
100
AcDbEntity
  8
LY_1
  6
CONTINUOUS
 62
   251
100
AcDbLine
 10
-351.364493
 20
177.683801
 30
0.0
 11
-350.524493
 21
177.683801
 31
0.0
  0
LINE
  5
34F
100
AcDbEntity
  8
LY_1
  6
CONTINUOUS
 62
   251
100
AcDbLine
 10
-350.524493
 20
175.163801
 30
0.0
 11
-350.524493
 21
176.003801
 31
0.0
  0
LINE
  5
350
100
AcDbEntity
  8
LY_1
  6
CONTINUOUS
 62
   251
100
AcDbLine
 10
-351.364493
 20
175.163801
 30
0.0
 11
-351.364493
 21
176.003801
 31
0.0
  0
LINE
  5
351
100
AcDbEntity
  8
LY_1
  6
CONTINUOUS
 62
   251
100
AcDbLine
 10
-351.364493
 20
175.163801
 30
0.0
 11
-350.524493
 21
175.163801
 31
0.0
  0
CIRCLE
  5
352
100
AcDbEntity
  8
LY_1
  6
CONTINUOUS
 62
   251
100
AcDbCircle
 10
-345.508112
 20
176.390726
 30
0.0
 40
2.1
  0
LINE
  5
353
100
AcDbEntity
  8
LY_1
  6
CONTINUOUS
 62
   251
100
AcDbLine
 10
-347.576884
 20
176.003801
 30
0.0
 11
-345.964862
 21
176.003801
 31
0.0
  0
LINE
  5
354
100
AcDbEntity
  8
LY_1
  6
CONTINUOUS
 62
   251
100
AcDbLine
 10
-347.563379
 20
176.843801
 30
0.0
 11
-345.964862
 21
176.843801
 31
0.0
  0
LINE
  5
355
100
AcDbEntity
  8
LY_1
  6
CONTINUOUS
 62
   251
100
AcDbLine
 10
-345.124862
 20
176.843801
 30
0.0
 11
-343.462295
 21
176.843801
 31
0.0
  0
LINE
  5
356
100
AcDbEntity
  8
LY_1
  6
CONTINUOUS
 62
   251
100
AcDbLine
 10
-345.124862
 20
176.003801
 30
0.0
 11
-343.44879
 21
176.003801
 31
0.0
  0
LINE
  5
357
100
AcDbEntity
  8
LY_1
  6
CONTINUOUS
 62
   251
100
AcDbLine
 10
-345.964862
 20
176.843801
 30
0.0
 11
-345.964862
 21
177.683801
 31
0.0
  0
LINE
  5
358
100
AcDbEntity
  8
LY_1
  6
CONTINUOUS
 62
   251
100
AcDbLine
 10
-345.124862
 20
176.843801
 30
0.0
 11
-345.124862
 21
177.683801
 31
0.0
  0
LINE
  5
359
100
AcDbEntity
  8
LY_1
  6
CONTINUOUS
 62
   251
100
AcDbLine
 10
-345.964862
 20
177.683801
 30
0.0
 11
-345.124862
 21
177.683801
 31
0.0
  0
LINE
  5
35A
100
AcDbEntity
  8
LY_1
  6
CONTINUOUS
 62
   251
100
AcDbLine
 10
-345.124862
 20
175.163801
 30
0.0
 11
-345.124862
 21
176.003801
 31
0.0
  0
LINE
  5
35B
100
AcDbEntity
  8
LY_1
  6
CONTINUOUS
 62
   251
100
AcDbLine
 10
-345.964862
 20
175.163801
 30
0.0
 11
-345.964862
 21
176.003801
 31
0.0
  0
LINE
  5
35C
100
AcDbEntity
  8
LY_1
  6
CONTINUOUS
 62
   251
100
AcDbLine
 10
-345.964862
 20
175.163801
 30
0.0
 11
-345.124862
 21
175.163801
 31
0.0
  0
CIRCLE
  5
35D
100
AcDbEntity
  8
LY_1
  6
CONTINUOUS
 62
   251
100
AcDbCircle
 10
-340.108481
 20
176.390726
 30
0.0
 40
2.1
  0
LINE
  5
35E
100
AcDbEntity
  8
LY_1
  6
CONTINUOUS
 62
   251
100
AcDbLine
 10
-342.177253
 20
176.003801
 30
0.0
 11
-340.565231
 21
176.003801
 31
0.0
  0
LINE
  5
35F
100
AcDbEntity
  8
LY_1
  6
CONTINUOUS
 62
   251
100
AcDbLine
 10
-342.163748
 20
176.843801
 30
0.0
 11
-340.565231
 21
176.843801
 31
0.0
  0
LINE
  5
360
100
AcDbEntity
  8
LY_1
  6
CONTINUOUS
 62
   251
100
AcDbLine
 10
-339.725231
 20
176.843801
 30
0.0
 11
-338.062664
 21
176.843801
 31
0.0
  0
LINE
  5
361
100
AcDbEntity
  8
LY_1
  6
CONTINUOUS
 62
   251
100
AcDbLine
 10
-339.725231
 20
176.003801
 30
0.0
 11
-338.049159
 21
176.003801
 31
0.0
  0
LINE
  5
362
100
AcDbEntity
  8
LY_1
  6
CONTINUOUS
 62
   251
100
AcDbLine
 10
-340.565231
 20
176.843801
 30
0.0
 11
-340.565231
 21
177.683801
 31
0.0
  0
LINE
  5
363
100
AcDbEntity
  8
LY_1
  6
CONTINUOUS
 62
   251
100
AcDbLine
 10
-339.725231
 20
176.843801
 30
0.0
 11
-339.725231
 21
177.683801
 31
0.0
  0
LINE
  5
364
100
AcDbEntity
  8
LY_1
  6
CONTINUOUS
 62
   251
100
AcDbLine
 10
-340.565231
 20
177.683801
 30
0.0
 11
-339.725231
 21
177.683801
 31
0.0
  0
LINE
  5
365
100
AcDbEntity
  8
LY_1
  6
CONTINUOUS
 62
   251
100
AcDbLine
 10
-339.725231
 20
175.163801
 30
0.0
 11
-339.725231
 21
176.003801
 31
0.0
  0
LINE
  5
366
100
AcDbEntity
  8
LY_1
  6
CONTINUOUS
 62
   251
100
AcDbLine
 10
-340.565231
 20
175.163801
 30
0.0
 11
-340.565231
 21
176.003801
 31
0.0
  0
LINE
  5
367
100
AcDbEntity
  8
LY_1
  6
CONTINUOUS
 62
   251
100
AcDbLine
 10
-340.565231
 20
175.163801
 30
0.0
 11
-339.725231
 21
175.163801
 31
0.0
  0
CIRCLE
  5
368
100
AcDbEntity
  8
LY_1
  6
CONTINUOUS
 62
   251
100
AcDbCircle
 10
-334.70885
 20
176.390726
 30
0.0
 40
2.1
  0
LINE
  5
369
100
AcDbEntity
  8
LY_1
  6
CONTINUOUS
 62
   251
100
AcDbLine
 10
-336.777622
 20
176.003801
 30
0.0
 11
-335.1656
 21
176.003801
 31
0.0
  0
LINE
  5
36A
100
AcDbEntity
  8
LY_1
  6
CONTINUOUS
 62
   251
100
AcDbLine
 10
-336.764117
 20
176.843801
 30
0.0
 11
-335.1656
 21
176.843801
 31
0.0
  0
LINE
  5
36B
100
AcDbEntity
  8
LY_1
  6
CONTINUOUS
 62
   251
100
AcDbLine
 10
-334.3256
 20
176.843801
 30
0.0
 11
-332.663033
 21
176.843801
 31
0.0
  0
LINE
  5
36C
100
AcDbEntity
  8
LY_1
  6
CONTINUOUS
 62
   251
100
AcDbLine
 10
-334.3256
 20
176.003801
 30
0.0
 11
-332.649528
 21
176.003801
 31
0.0
  0
LINE
  5
36D
100
AcDbEntity
  8
LY_1
  6
CONTINUOUS
 62
   251
100
AcDbLine
 10
-335.1656
 20
176.843801
 30
0.0
 11
-335.1656
 21
177.683801
 31
0.0
  0
LINE
  5
36E
100
AcDbEntity
  8
LY_1
  6
CONTINUOUS
 62
   251
100
AcDbLine
 10
-334.3256
 20
176.843801
 30
0.0
 11
-334.3256
 21
177.683801
 31
0.0
  0
LINE
  5
36F
100
AcDbEntity
  8
LY_1
  6
CONTINUOUS
 62
   251
100
AcDbLine
 10
-335.1656
 20
177.683801
 30
0.0
 11
-334.3256
 21
177.683801
 31
0.0
  0
LINE
  5
370
100
AcDbEntity
  8
LY_1
  6
CONTINUOUS
 62
   251
100
AcDbLine
 10
-334.3256
 20
175.163801
 30
0.0
 11
-334.3256
 21
176.003801
 31
0.0
  0
LINE
  5
371
100
AcDbEntity
  8
LY_1
  6
CONTINUOUS
 62
   251
100
AcDbLine
 10
-335.1656
 20
175.163801
 30
0.0
 11
-335.1656
 21
176.003801
 31
0.0
  0
LINE
  5
372
100
AcDbEntity
  8
LY_1
  6
CONTINUOUS
 62
   251
100
AcDbLine
 10
-335.1656
 20
175.163801
 30
0.0
 11
-334.3256
 21
175.163801
 31
0.0
  0
CIRCLE
  5
373
100
AcDbEntity
  8
LY_1
  6
CONTINUOUS
 62
   251
100
AcDbCircle
 10
-329.309219
 20
176.390726
 30
0.0
 40
2.1
  0
LINE
  5
374
100
AcDbEntity
  8
LY_1
  6
CONTINUOUS
 62
   251
100
AcDbLine
 10
-331.377991
 20
176.003801
 30
0.0
 11
-329.765969
 21
176.003801
 31
0.0
  0
LINE
  5
375
100
AcDbEntity
  8
LY_1
  6
CONTINUOUS
 62
   251
100
AcDbLine
 10
-331.364486
 20
176.843801
 30
0.0
 11
-329.765969
 21
176.843801
 31
0.0
  0
LINE
  5
376
100
AcDbEntity
  8
LY_1
  6
CONTINUOUS
 62
   251
100
AcDbLine
 10
-328.925969
 20
176.843801
 30
0.0
 11
-327.263402
 21
176.843801
 31
0.0
  0
LINE
  5
377
100
AcDbEntity
  8
LY_1
  6
CONTINUOUS
 62
   251
100
AcDbLine
 10
-328.925969
 20
176.003801
 30
0.0
 11
-327.249897
 21
176.003801
 31
0.0
  0
LINE
  5
378
100
AcDbEntity
  8
LY_1
  6
CONTINUOUS
 62
   251
100
AcDbLine
 10
-329.765969
 20
176.843801
 30
0.0
 11
-329.765969
 21
177.683801
 31
0.0
  0
LINE
  5
379
100
AcDbEntity
  8
LY_1
  6
CONTINUOUS
 62
   251
100
AcDbLine
 10
-328.925969
 20
176.843801
 30
0.0
 11
-328.925969
 21
177.683801
 31
0.0
  0
LINE
  5
37A
100
AcDbEntity
  8
LY_1
  6
CONTINUOUS
 62
   251
100
AcDbLine
 10
-329.765969
 20
177.683801
 30
0.0
 11
-328.925969
 21
177.683801
 31
0.0
  0
LINE
  5
37B
100
AcDbEntity
  8
LY_1
  6
CONTINUOUS
 62
   251
100
AcDbLine
 10
-328.925969
 20
175.163801
 30
0.0
 11
-328.925969
 21
176.003801
 31
0.0
  0
LINE
  5
37C
100
AcDbEntity
  8
LY_1
  6
CONTINUOUS
 62
   251
100
AcDbLine
 10
-329.765969
 20
175.163801
 30
0.0
 11
-329.765969
 21
176.003801
 31
0.0
  0
LINE
  5
37D
100
AcDbEntity
  8
LY_1
  6
CONTINUOUS
 62
   251
100
AcDbLine
 10
-329.765969
 20
175.163801
 30
0.0
 11
-328.925969
 21
175.163801
 31
0.0
  0
CIRCLE
  5
37E
100
AcDbEntity
  8
LY_1
  6
CONTINUOUS
 62
   251
100
AcDbCircle
 10
-323.909588
 20
176.390726
 30
0.0
 40
2.1
  0
LINE
  5
37F
100
AcDbEntity
  8
LY_1
  6
CONTINUOUS
 62
   251
100
AcDbLine
 10
-325.97836
 20
176.003801
 30
0.0
 11
-324.366338
 21
176.003801
 31
0.0
  0
LINE
  5
380
100
AcDbEntity
  8
LY_1
  6
CONTINUOUS
 62
   251
100
AcDbLine
 10
-325.964855
 20
176.843801
 30
0.0
 11
-324.366338
 21
176.843801
 31
0.0
  0
LINE
  5
381
100
AcDbEntity
  8
LY_1
  6
CONTINUOUS
 62
   251
100
AcDbLine
 10
-323.526338
 20
176.843801
 30
0.0
 11
-321.863771
 21
176.843801
 31
0.0
  0
LINE
  5
382
100
AcDbEntity
  8
LY_1
  6
CONTINUOUS
 62
   251
100
AcDbLine
 10
-323.526338
 20
176.003801
 30
0.0
 11
-321.850266
 21
176.003801
 31
0.0
  0
LINE
  5
383
100
AcDbEntity
  8
LY_1
  6
CONTINUOUS
 62
   251
100
AcDbLine
 10
-324.366338
 20
176.843801
 30
0.0
 11
-324.366338
 21
177.683801
 31
0.0
  0
LINE
  5
384
100
AcDbEntity
  8
LY_1
  6
CONTINUOUS
 62
   251
100
AcDbLine
 10
-323.526338
 20
176.843801
 30
0.0
 11
-323.526338
 21
177.683801
 31
0.0
  0
LINE
  5
385
100
AcDbEntity
  8
LY_1
  6
CONTINUOUS
 62
   251
100
AcDbLine
 10
-324.366338
 20
177.683801
 30
0.0
 11
-323.526338
 21
177.683801
 31
0.0
  0
LINE
  5
386
100
AcDbEntity
  8
LY_1
  6
CONTINUOUS
 62
   251
100
AcDbLine
 10
-323.526338
 20
175.163801
 30
0.0
 11
-323.526338
 21
176.003801
 31
0.0
  0
LINE
  5
387
100
AcDbEntity
  8
LY_1
  6
CONTINUOUS
 62
   251
100
AcDbLine
 10
-324.366338
 20
175.163801
 30
0.0
 11
-324.366338
 21
176.003801
 31
0.0
  0
LINE
  5
388
100
AcDbEntity
  8
LY_1
  6
CONTINUOUS
 62
   251
100
AcDbLine
 10
-324.366338
 20
175.163801
 30
0.0
 11
-323.526338
 21
175.163801
 31
0.0
  0
CIRCLE
  5
389
100
AcDbEntity
  8
LY_1
  6
CONTINUOUS
 62
   251
100
AcDbCircle
 10
-318.509957
 20
176.390726
 30
0.0
 40
2.1
  0
LINE
  5
38A
100
AcDbEntity
  8
LY_1
  6
CONTINUOUS
 62
   251
100
AcDbLine
 10
-320.578729
 20
176.003801
 30
0.0
 11
-318.966707
 21
176.003801
 31
0.0
  0
LINE
  5
38B
100
AcDbEntity
  8
LY_1
  6
CONTINUOUS
 62
   251
100
AcDbLine
 10
-320.565224
 20
176.843801
 30
0.0
 11
-318.966707
 21
176.843801
 31
0.0
  0
LINE
  5
38C
100
AcDbEntity
  8
LY_1
  6
CONTINUOUS
 62
   251
100
AcDbLine
 10
-318.126707
 20
176.843801
 30
0.0
 11
-316.46414
 21
176.843801
 31
0.0
  0
LINE
  5
38D
100
AcDbEntity
  8
LY_1
  6
CONTINUOUS
 62
   251
100
AcDbLine
 10
-318.126707
 20
176.003801
 30
0.0
 11
-316.450635
 21
176.003801
 31
0.0
  0
LINE
  5
38E
100
AcDbEntity
  8
LY_1
  6
CONTINUOUS
 62
   251
100
AcDbLine
 10
-318.966707
 20
176.843801
 30
0.0
 11
-318.966707
 21
177.683801
 31
0.0
  0
LINE
  5
38F
100
AcDbEntity
  8
LY_1
  6
CONTINUOUS
 62
   251
100
AcDbLine
 10
-318.126707
 20
176.843801
 30
0.0
 11
-318.126707
 21
177.683801
 31
0.0
  0
LINE
  5
390
100
AcDbEntity
  8
LY_1
  6
CONTINUOUS
 62
   251
100
AcDbLine
 10
-318.966707
 20
177.683801
 30
0.0
 11
-318.126707
 21
177.683801
 31
0.0
  0
LINE
  5
391
100
AcDbEntity
  8
LY_1
  6
CONTINUOUS
 62
   251
100
AcDbLine
 10
-318.126707
 20
175.163801
 30
0.0
 11
-318.126707
 21
176.003801
 31
0.0
  0
LINE
  5
392
100
AcDbEntity
  8
LY_1
  6
CONTINUOUS
 62
   251
100
AcDbLine
 10
-318.966707
 20
175.163801
 30
0.0
 11
-318.966707
 21
176.003801
 31
0.0
  0
LINE
  5
393
100
AcDbEntity
  8
LY_1
  6
CONTINUOUS
 62
   251
100
AcDbLine
 10
-318.966707
 20
175.163801
 30
0.0
 11
-318.126707
 21
175.163801
 31
0.0
  0
CIRCLE
  5
394
100
AcDbEntity
  8
LY_1
  6
CONTINUOUS
 62
   251
100
AcDbCircle
 10
-313.110326
 20
176.390726
 30
0.0
 40
2.1
  0
LINE
  5
395
100
AcDbEntity
  8
LY_1
  6
CONTINUOUS
 62
   251
100
AcDbLine
 10
-315.179098
 20
176.003801
 30
0.0
 11
-313.567076
 21
176.003801
 31
0.0
  0
LINE
  5
396
100
AcDbEntity
  8
LY_1
  6
CONTINUOUS
 62
   251
100
AcDbLine
 10
-315.165593
 20
176.843801
 30
0.0
 11
-313.567076
 21
176.843801
 31
0.0
  0
LINE
  5
397
100
AcDbEntity
  8
LY_1
  6
CONTINUOUS
 62
   251
100
AcDbLine
 10
-312.727076
 20
176.843801
 30
0.0
 11
-311.064509
 21
176.843801
 31
0.0
  0
LINE
  5
398
100
AcDbEntity
  8
LY_1
  6
CONTINUOUS
 62
   251
100
AcDbLine
 10
-312.727076
 20
176.003801
 30
0.0
 11
-311.051004
 21
176.003801
 31
0.0
  0
LINE
  5
399
100
AcDbEntity
  8
LY_1
  6
CONTINUOUS
 62
   251
100
AcDbLine
 10
-313.567076
 20
176.843801
 30
0.0
 11
-313.567076
 21
177.683801
 31
0.0
  0
LINE
  5
39A
100
AcDbEntity
  8
LY_1
  6
CONTINUOUS
 62
   251
100
AcDbLine
 10
-312.727076
 20
176.843801
 30
0.0
 11
-312.727076
 21
177.683801
 31
0.0
  0
LINE
  5
39B
100
AcDbEntity
  8
LY_1
  6
CONTINUOUS
 62
   251
100
AcDbLine
 10
-313.567076
 20
177.683801
 30
0.0
 11
-312.727076
 21
177.683801
 31
0.0
  0
LINE
  5
39C
100
AcDbEntity
  8
LY_1
  6
CONTINUOUS
 62
   251
100
AcDbLine
 10
-312.727076
 20
175.163801
 30
0.0
 11
-312.727076
 21
176.003801
 31
0.0
  0
LINE
  5
39D
100
AcDbEntity
  8
LY_1
  6
CONTINUOUS
 62
   251
100
AcDbLine
 10
-313.567076
 20
175.163801
 30
0.0
 11
-313.567076
 21
176.003801
 31
0.0
  0
LINE
  5
39E
100
AcDbEntity
  8
LY_1
  6
CONTINUOUS
 62
   251
100
AcDbLine
 10
-313.567076
 20
175.163801
 30
0.0
 11
-312.727076
 21
175.163801
 31
0.0
  0
CIRCLE
  5
39F
100
AcDbEntity
  8
LY_1
  6
CONTINUOUS
 62
   251
100
AcDbCircle
 10
-307.710695
 20
176.390726
 30
0.0
 40
2.1
  0
LINE
  5
3A0
100
AcDbEntity
  8
LY_1
  6
CONTINUOUS
 62
   251
100
AcDbLine
 10
-309.779467
 20
176.003801
 30
0.0
 11
-308.167445
 21
176.003801
 31
0.0
  0
LINE
  5
3A1
100
AcDbEntity
  8
LY_1
  6
CONTINUOUS
 62
   251
100
AcDbLine
 10
-309.765962
 20
176.843801
 30
0.0
 11
-308.167445
 21
176.843801
 31
0.0
  0
LINE
  5
3A2
100
AcDbEntity
  8
LY_1
  6
CONTINUOUS
 62
   251
100
AcDbLine
 10
-307.327445
 20
176.843801
 30
0.0
 11
-305.664878
 21
176.843801
 31
0.0
  0
LINE
  5
3A3
100
AcDbEntity
  8
LY_1
  6
CONTINUOUS
 62
   251
100
AcDbLine
 10
-307.327445
 20
176.003801
 30
0.0
 11
-305.651373
 21
176.003801
 31
0.0
  0
LINE
  5
3A4
100
AcDbEntity
  8
LY_1
  6
CONTINUOUS
 62
   251
100
AcDbLine
 10
-308.167445
 20
176.843801
 30
0.0
 11
-308.167445
 21
177.683801
 31
0.0
  0
LINE
  5
3A5
100
AcDbEntity
  8
LY_1
  6
CONTINUOUS
 62
   251
100
AcDbLine
 10
-307.327445
 20
176.843801
 30
0.0
 11
-307.327445
 21
177.683801
 31
0.0
  0
LINE
  5
3A6
100
AcDbEntity
  8
LY_1
  6
CONTINUOUS
 62
   251
100
AcDbLine
 10
-308.167445
 20
177.683801
 30
0.0
 11
-307.327445
 21
177.683801
 31
0.0
  0
LINE
  5
3A7
100
AcDbEntity
  8
LY_1
  6
CONTINUOUS
 62
   251
100
AcDbLine
 10
-307.327445
 20
175.163801
 30
0.0
 11
-307.327445
 21
176.003801
 31
0.0
  0
LINE
  5
3A8
100
AcDbEntity
  8
LY_1
  6
CONTINUOUS
 62
   251
100
AcDbLine
 10
-308.167445
 20
175.163801
 30
0.0
 11
-308.167445
 21
176.003801
 31
0.0
  0
LINE
  5
3A9
100
AcDbEntity
  8
LY_1
  6
CONTINUOUS
 62
   251
100
AcDbLine
 10
-308.167445
 20
175.163801
 30
0.0
 11
-307.327445
 21
175.163801
 31
0.0
  0
LEADER
  5
3AA
100
AcDbEntity
  8
LY_1
  6
CONTINUOUS
 62
     7
100
AcDbLeader
  3
MXDIMSTYLE
 73
     3
 74
     0
 75
     0
 40
0.0
 76
     3
 10
-293.911318
 20
188.536492
 30
0.0
 10
-270.674331
 20
138.757635
 30
0.0
 10
-248.753081
 20
138.757635
 30
0.0
 77
     7
1001
ACAD
1000
DSTYLE
1002
{
1070
     6
1000
_OPEN
1070
     7
1000
_OPEN
1070
    41
1040
3.0
1070
   173
1070
     1
1070
   341
1005
27
1002
}
  0
MTEXT
  5
3AB
100
AcDbEntity
  8
LY_1
  6
CONTINUOUS
 62
   255
100
AcDbMText
 10
-267.953081
 20
141.857635
 30
0.0
 40
3.2
 41
0.0
 71
     4
 72
     1
  1
\W0.833;\A1;取付プレート
  0
DIMENSION
  5
3B9
100
AcDbEntity
  8
LY_1
  6
CONTINUOUS
 62
   130
100
AcDbDimension
  2
*D10
 10
-372.406636
 20
158.972209
 30
0.0
 11
-337.406636
 21
158.972209
 31
0.0
 70
   128
  1
<>
  3
MX_DIMSTYLE_CLASS1
100
AcDbAlignedDimension
 13
-302.406636
 23
172.353724
 33
0.0
 14
-372.406636
 24
172.353724
 34
0.0
100
AcDbRotatedDimension
1001
ACAD
1000
DSTYLE
1002
{
1070
     6
1000
_OPEN
1070
     7
1000
_OPEN
1070
    41
1040
3.0
1070
   173
1070
     1
1070
   271
1070
     2
1070
   284
1070
     8
1070
   340
1005
3B3
1070
   341
1005
27
1002
}
  0
DIMENSION
  5
3C6
100
AcDbEntity
  8
LY_1
  6
CONTINUOUS
 62
   130
100
AcDbDimension
  2
*D11
 10
-378.406636
 20
152.536659
 30
0.0
 11
-337.256638
 21
152.536659
 31
0.0
 70
   128
  1
82
  3
MX_DIMSTYLE_CLASS1
100
AcDbAlignedDimension
 13
-296.106636
 23
197.924221
 33
0.0
 14
-378.406636
 24
197.80661
 34
0.0
100
AcDbRotatedDimension
1001
ACAD
1000
DSTYLE
1002
{
1070
     6
1000
_OPEN
1070
     7
1000
_OPEN
1070
    41
1040
3.0
1070
   173
1070
     1
1070
   271
1070
     2
1070
   340
1005
2F
1070
   341
1005
27
1002
}
  0
LINE
  5
3C8
100
AcDbEntity
  8
LY_1
  6
CENTER
 62
   130
100
AcDbLine
 10
-367.106636
 20
230.490727
 30
0.0
 11
-352.706636
 21
230.490727
 31
0.0
  0
LINE
  5
3C9
100
AcDbEntity
  8
LY_1
  6
CENTER
 62
   130
100
AcDbLine
 10
-359.906636
 20
223.290727
 30
0.0
 11
-359.906636
 21
237.690727
 31
0.0
  0
LINE
  5
3CA
100
AcDbEntity
  8
LY_1
  6
CENTER
 62
   130
100
AcDbLine
 10
-337.406636
 20
223.290727
 30
0.0
 11
-337.406636
 21
237.690727
 31
0.0
  0
LINE
  5
3CB
100
AcDbEntity
  8
LY_1
  6
CENTER
 62
   130
100
AcDbLine
 10
-314.906636
 20
223.290727
 30
0.0
 11
-314.906636
 21
237.690727
 31
0.0
  0
LINE
  5
3CC
100
AcDbEntity
  8
LY_1
  6
CENTER
 62
   130
100
AcDbLine
 10
-344.606636
 20
230.490727
 30
0.0
 11
-330.206636
 21
230.490727
 31
0.0
  0
LINE
  5
3CD
100
AcDbEntity
  8
LY_1
  6
CENTER
 62
   130
100
AcDbLine
 10
-322.106636
 20
230.490727
 30
0.0
 11
-307.706636
 21
230.490727
 31
0.0
  0
LINE
  5
3CE
100
AcDbEntity
  8
LY_1
  6
CENTER
 62
   130
100
AcDbLine
 10
-381.781636
 20
201.190727
 30
0.0
 11
-375.031636
 21
201.190727
 31
0.0
  0
LINE
  5
3CF
100
AcDbEntity
  8
LY_1
  6
CENTER
 62
   130
100
AcDbLine
 10
-378.406636
 20
197.815727
 30
0.0
 11
-378.406636
 21
204.565727
 31
0.0
  0
DIMENSION
  5
3DC
100
AcDbEntity
  8
LY_1
  6
CONTINUOUS
 62
   130
100
AcDbDimension
  2
*D12
 10
-337.406636
 20
251.840195
 30
0.0
 11
-348.656636
 21
251.840195
 31
0.0
 70
   128
  1
<>
  3
MX_DIMSTYLE_CLASS1
100
AcDbAlignedDimension
 13
-359.906636
 23
237.690727
 33
0.0
 14
-337.406636
 24
237.690727
 34
0.0
100
AcDbRotatedDimension
1001
ACAD
1000
DSTYLE
1002
{
1070
     6
1000
SOLID
1070
     7
1000
SOLID
1070
    44
1040
1.0
1070
   140
1040
3.0
1070
   173
1070
     1
1070
   271
1070
     2
1070
   284
1070
     8
1070
   340
1005
2F
1002
}
  0
DIMENSION
  5
3E9
100
AcDbEntity
  8
LY_1
  6
CONTINUOUS
 62
   130
100
AcDbDimension
  2
*D13
 10
-314.906636
 20
251.840195
 30
0.0
 11
-326.156636
 21
251.840195
 31
0.0
 70
   128
  1
<>
  3
MX_DIMSTYLE_CLASS1
100
AcDbAlignedDimension
 13
-337.406636
 23
237.690727
 33
0.0
 14
-314.906636
 24
237.690727
 34
0.0
100
AcDbRotatedDimension
1001
ACAD
1000
DSTYLE
1002
{
1070
     6
1000
SOLID
1070
     7
1000
SOLID
1070
    44
1040
1.0
1070
   140
1040
3.0
1070
   173
1070
     1
1070
   271
1070
     2
1070
   284
1070
     8
1070
   340
1005
2F
1002
}
  0
DIMENSION
  5
3F5
100
AcDbEntity
  8
LY_1
  6
CONTINUOUS
 62
   130
100
AcDbDimension
  2
*D14
 10
-377.548848
 20
203.352265
 30
0.0
 11
-393.709051
 21
186.387622
 31
0.0
 70
   131
  1
<>
  3
MX_DIMSTYLE_CLASS1
100
AcDbDiametricDimension
 15
-379.860965
 25
199.491681
 35
0.0
 40
0.0
1001
ACAD
1000
DSTYLE
1002
{
1070
     7
1000
SOLID
1070
    41
1040
2.0
1070
    73
1070
     1
1070
    74
1070
     1
1070
   140
1040
3.0
1070
   141
1040
0.0
1070
   172
1070
     0
1070
   173
1070
     1
1070
   271
1070
     2
1070
   284
1070
     8
1070
   340
1005
3F0
1002
}
  0
LINE
  5
3F6
100
AcDbEntity
  8
LY_1
  6
CONTINUOUS
 62
     7
100
AcDbLine
 10
-322.606636
 20
185.890727
 30
0.0
 11
-323.106636
 21
185.890727
 31
0.0
  0
LINE
  5
3F7
100
AcDbEntity
  8
LY_1
  6
CONTINUOUS
 62
     7
100
AcDbLine
 10
-312.106636
 20
185.890727
 30
0.0
 11
-312.606636
 21
185.890727
 31
0.0
  0
LINE
  5
3F8
100
AcDbEntity
  8
LY_1
  6
CONTINUOUS
 62
     7
100
AcDbLine
 10
-323.106636
 20
215.190727
 30
0.0
 11
-322.606636
 21
215.190727
 31
0.0
  0
LINE
  5
3F9
100
AcDbEntity
  8
LY_1
  6
CONTINUOUS
 62
     7
100
AcDbLine
 10
-312.606636
 20
216.790727
 30
0.0
 11
-312.116738
 21
216.790727
 31
0.0
  0
LINE
  5
3FA
100
AcDbEntity
  8
LY_1
  6
CONTINUOUS
 62
     7
100
AcDbLine
 10
-324.503556
 20
208.940727
 30
0.0
 11
-310.709716
 21
208.940727
 31
0.0
  0
LINE
  5
3FB
100
AcDbEntity
  8
LY_1
  6
CONTINUOUS
 62
     7
100
AcDbLine
 10
-324.656636
 20
193.781565
 30
0.0
 11
-324.656636
 21
208.799888
 31
0.0
  0
LINE
  5
3FC
100
AcDbEntity
  8
LY_1
  6
CONTINUOUS
 62
     7
100
AcDbLine
 10
-310.709716
 20
193.640727
 30
0.0
 11
-324.503556
 21
193.640727
 31
0.0
  0
LINE
  5
3FD
100
AcDbEntity
  8
LY_1
  6
CONTINUOUS
 62
     7
100
AcDbLine
 10
-309.556636
 20
207.716262
 30
0.0
 11
-309.556636
 21
194.865192
 31
0.0
  0
LINE
  5
3FE
100
AcDbEntity
  8
LY_1
  6
CONTINUOUS
 62
     7
100
AcDbLine
 10
-324.156636
 20
203.290727
 30
0.0
 11
-322.856636
 21
203.290727
 31
0.0
  0
LINE
  5
3FF
100
AcDbEntity
  8
LY_1
  6
CONTINUOUS
 62
     7
100
AcDbLine
 10
-324.156636
 20
199.290727
 30
0.0
 11
-324.156636
 21
203.290727
 31
0.0
  0
LINE
  5
400
100
AcDbEntity
  8
LY_1
  6
CONTINUOUS
 62
     7
100
AcDbLine
 10
-322.856636
 20
199.290727
 30
0.0
 11
-324.156636
 21
199.290727
 31
0.0
  0
LINE
  5
401
100
AcDbEntity
  8
LY_1
  6
CONTINUOUS
 62
     7
100
AcDbLine
 10
-322.856636
 20
197.990727
 30
0.0
 11
-322.856636
 21
199.290727
 31
0.0
  0
LINE
  5
402
100
AcDbEntity
  8
LY_1
  6
CONTINUOUS
 62
     7
100
AcDbLine
 10
-321.056636
 20
197.990727
 30
0.0
 11
-322.856636
 21
197.990727
 31
0.0
  0
LINE
  5
403
100
AcDbEntity
  8
LY_1
  6
CONTINUOUS
 62
     7
100
AcDbLine
 10
-321.056636
 20
195.690727
 30
0.0
 11
-321.056636
 21
197.990727
 31
0.0
  0
LINE
  5
404
100
AcDbEntity
  8
LY_1
  6
CONTINUOUS
 62
     7
100
AcDbLine
 10
-314.156636
 20
195.690727
 30
0.0
 11
-321.056636
 21
195.690727
 31
0.0
  0
LINE
  5
405
100
AcDbEntity
  8
LY_1
  6
CONTINUOUS
 62
     7
100
AcDbLine
 10
-314.156636
 20
206.890727
 30
0.0
 11
-314.156636
 21
195.690727
 31
0.0
  0
LINE
  5
406
100
AcDbEntity
  8
LY_1
  6
CONTINUOUS
 62
     7
100
AcDbLine
 10
-321.056636
 20
206.890727
 30
0.0
 11
-314.156636
 21
206.890727
 31
0.0
  0
LINE
  5
407
100
AcDbEntity
  8
LY_1
  6
CONTINUOUS
 62
     7
100
AcDbLine
 10
-321.056636
 20
204.590727
 30
0.0
 11
-321.056636
 21
206.890727
 31
0.0
  0
LINE
  5
408
100
AcDbEntity
  8
LY_1
  6
CONTINUOUS
 62
     7
100
AcDbLine
 10
-322.856636
 20
204.590727
 30
0.0
 11
-321.056636
 21
204.590727
 31
0.0
  0
LINE
  5
409
100
AcDbEntity
  8
LY_1
  6
CONTINUOUS
 62
     7
100
AcDbLine
 10
-322.856636
 20
203.290727
 30
0.0
 11
-322.856636
 21
204.590727
 31
0.0
  0
LINE
  5
40A
100
AcDbEntity
  8
LY_1
  6
CONTINUOUS
 62
     7
100
AcDbLine
 10
-344.906636
 20
169.672815
 30
0.0
 11
-344.906636
 21
169.140727
 31
0.0
  0
LINE
  5
40B
100
AcDbEntity
  8
LY_1
  6
CONTINUOUS
 62
     7
100
AcDbLine
 10
-319.906636
 20
169.140727
 30
0.0
 11
-319.212901
 21
169.834462
 31
0.0
  0
LINE
  5
40C
100
AcDbEntity
  8
LY_1
  6
CONTINUOUS
 62
     7
100
AcDbLine
 10
-355.600371
 20
169.834462
 30
0.0
 11
-354.906636
 21
169.140727
 31
0.0
  0
LINE
  5
40D
100
AcDbEntity
  8
LY_1
  6
CONTINUOUS
 62
     7
100
AcDbLine
 10
-321.614019
 20
169.140727
 30
0.0
 11
-324.906636
 21
169.140727
 31
0.0
  0
LINE
  5
40E
100
AcDbEntity
  8
LY_1
  6
CONTINUOUS
 62
     7
100
AcDbLine
 10
-319.906636
 20
169.140727
 30
0.0
 11
-320.791626
 21
169.140727
 31
0.0
  0
LINE
  5
40F
100
AcDbEntity
  8
LY_1
  6
CONTINUOUS
 62
     7
100
AcDbLine
 10
-349.906636
 20
169.140727
 30
0.0
 11
-349.324087
 21
169.723275
 31
0.0
  0
LINE
  5
410
100
AcDbEntity
  8
LY_1
  6
CONTINUOUS
 62
     7
100
AcDbLine
 10
-325.489185
 20
169.723275
 30
0.0
 11
-324.906636
 21
169.140727
 31
0.0
  0
LINE
  5
411
100
AcDbEntity
  8
LY_1
  6
CONTINUOUS
 62
     7
100
AcDbLine
 10
-354.021646
 20
169.140727
 30
0.0
 11
-354.906636
 21
169.140727
 31
0.0
  0
LINE
  5
412
100
AcDbEntity
  8
LY_1
  6
CONTINUOUS
 62
     7
100
AcDbLine
 10
-349.906636
 20
169.140727
 30
0.0
 11
-353.199253
 21
169.140727
 31
0.0
  0
LINE
  5
413
100
AcDbEntity
  8
LY_1
  6
CONTINUOUS
 62
     7
100
AcDbLine
 10
-353.906636
 20
168.140727
 30
0.0
 11
-354.906636
 21
169.140727
 31
0.0
  0
LINE
  5
414
100
AcDbEntity
  8
LY_1
  6
CONTINUOUS
 62
     7
100
AcDbLine
 10
-345.906636
 20
169.682228
 30
0.0
 11
-345.906636
 21
168.140727
 31
0.0
  0
LINE
  5
415
100
AcDbEntity
  8
LY_1
  6
CONTINUOUS
 62
     7
100
AcDbLine
 10
-353.906636
 20
168.140727
 30
0.0
 11
-345.906636
 21
168.140727
 31
0.0
  0
LINE
  5
416
100
AcDbEntity
  8
LY_1
  6
CONTINUOUS
 62
     7
100
AcDbLine
 10
-345.906636
 20
168.140727
 30
0.0
 11
-343.906636
 21
168.140727
 31
0.0
  0
LINE
  5
417
100
AcDbEntity
  8
LY_1
  6
CONTINUOUS
 62
     7
100
AcDbLine
 10
-343.906636
 20
168.140727
 30
0.0
 11
-330.906636
 21
168.140727
 31
0.0
  0
LINE
  5
418
100
AcDbEntity
  8
LY_1
  6
CONTINUOUS
 62
     7
100
AcDbLine
 10
-343.906636
 20
168.140727
 30
0.0
 11
-344.906636
 21
169.140727
 31
0.0
  0
LINE
  5
419
100
AcDbEntity
  8
LY_1
  6
CONTINUOUS
 62
     7
100
AcDbLine
 10
-319.906636
 20
169.140727
 30
0.0
 11
-320.906636
 21
168.140727
 31
0.0
  0
LINE
  5
41A
100
AcDbEntity
  8
LY_1
  6
CONTINUOUS
 62
     7
100
AcDbLine
 10
-328.906636
 20
168.140727
 30
0.0
 11
-320.906636
 21
168.140727
 31
0.0
  0
LINE
  5
41B
100
AcDbEntity
  8
LY_1
  6
CONTINUOUS
 62
     7
100
AcDbLine
 10
-328.906636
 20
168.140727
 30
0.0
 11
-328.906636
 21
169.682228
 31
0.0
  0
LINE
  5
41C
100
AcDbEntity
  8
LY_1
  6
CONTINUOUS
 62
     7
100
AcDbLine
 10
-330.906636
 20
168.140727
 30
0.0
 11
-328.906636
 21
168.140727
 31
0.0
  0
LINE
  5
41D
100
AcDbEntity
  8
LY_1
  6
CONTINUOUS
 62
     7
100
AcDbLine
 10
-329.906636
 20
169.140727
 30
0.0
 11
-329.906636
 21
169.672815
 31
0.0
  0
LINE
  5
41E
100
AcDbEntity
  8
LY_1
  6
CONTINUOUS
 62
     7
100
AcDbLine
 10
-329.906636
 20
169.140727
 30
0.0
 11
-330.906636
 21
168.140727
 31
0.0
  0
LINE
  5
41F
100
AcDbEntity
  8
LY_1
  6
CONTINUOUS
 62
     7
100
AcDbLine
 10
-312.406636
 20
216.790727
 30
0.0
 11
-312.406636
 21
217.148984
 31
0.0
  0
CIRCLE
  5
420
100
AcDbEntity
  8
LY_1
  6
CONTINUOUS
 62
   251
100
AcDbCircle
 10
-314.906636
 20
230.490727
 30
0.0
 40
6.0
  0
CIRCLE
  5
421
100
AcDbEntity
  8
LY_1
  6
CONTINUOUS
 62
   251
100
AcDbCircle
 10
-337.406636
 20
230.490727
 30
0.0
 40
6.0
  0
CIRCLE
  5
422
100
AcDbEntity
  8
LY_1
  6
CONTINUOUS
 62
   251
100
AcDbCircle
 10
-359.906636
 20
230.490727
 30
0.0
 40
6.0
  0
ARC
  5
423
100
AcDbEntity
  8
LY_1
  6
CONTINUOUS
 62
   251
100
AcDbCircle
 10
-359.906636
 20
230.490727
 30
0.0
 40
12.1
100
AcDbArc
 50
90.0
 51
200.951363
  0
LINE
  5
424
100
AcDbEntity
  8
LY_1
  6
CONTINUOUS
 62
   251
100
AcDbLine
 10
-314.906636
 20
242.590727
 30
0.0
 11
-359.906636
 21
242.590727
 31
0.0
  0
ARC
  5
425
100
AcDbEntity
  8
LY_1
  6
CONTINUOUS
 62
   251
100
AcDbCircle
 10
-314.906636
 20
230.490727
 30
0.0
 40
12.1
100
AcDbArc
 50
339.048637
 51
90.0
  0
LINE
  5
426
100
AcDbEntity
  8
LY_1
  6
CONTINUOUS
 62
   251
100
AcDbLine
 10
-303.606636
 20
224.390727
 30
0.0
 11
-303.606636
 21
226.164065
 31
0.0
  0
LINE
  5
427
100
AcDbEntity
  8
LY_1
  6
CONTINUOUS
 62
   251
100
AcDbLine
 10
-371.206636
 20
226.164065
 30
0.0
 11
-371.206636
 21
224.390727
 31
0.0
  0
LINE
  5
428
100
AcDbEntity
  8
LY_1
  6
CONTINUOUS
 62
     7
100
AcDbLine
 10
-309.853295
 20
170.727413
 30
0.0
 11
-309.853295
 21
170.546623
 31
0.0
  0
LINE
  5
429
100
AcDbEntity
  8
LY_1
  6
CONTINUOUS
 62
     7
100
AcDbLine
 10
-310.943113
 20
170.481823
 30
0.0
 11
-310.943113
 21
170.662479
 31
0.0
  0
LINE
  5
42A
100
AcDbEntity
  8
LY_1
  6
CONTINUOUS
 62
     7
100
AcDbLine
 10
-315.331155
 20
170.427623
 30
0.0
 11
-315.331155
 21
170.247448
 31
0.0
  0
LINE
  5
42B
100
AcDbEntity
  8
LY_1
  6
CONTINUOUS
 62
     7
100
AcDbLine
 10
-316.270496
 20
170.202796
 30
0.0
 11
-316.270496
 21
170.38288
 31
0.0
  0
LINE
  5
42C
100
AcDbEntity
  8
LY_1
  6
CONTINUOUS
 62
     7
100
AcDbLine
 10
-320.791626
 20
170.194787
 30
0.0
 11
-320.791626
 21
170.015087
 31
0.0
  0
LINE
  5
42D
100
AcDbEntity
  8
LY_1
  6
CONTINUOUS
 62
     7
100
AcDbLine
 10
-321.614019
 20
169.985783
 30
0.0
 11
-321.614019
 21
170.165423
 31
0.0
  0
LINE
  5
42E
100
AcDbEntity
  8
LY_1
  6
CONTINUOUS
 62
     7
100
AcDbLine
 10
-326.206636
 20
170.028865
 30
0.0
 11
-326.206636
 21
169.957647
 31
0.0
  0
LINE
  5
42F
100
AcDbEntity
  8
LY_1
  6
CONTINUOUS
 62
     7
100
AcDbLine
 10
-327.006636
 20
170.009834
 30
0.0
 11
-327.006636
 21
169.957647
 31
0.0
  0
ARC
  5
430
100
AcDbEntity
  8
LY_1
  6
CONTINUOUS
 62
     7
100
AcDbCircle
 10
-337.406636
 20
624.744727
 30
0.0
 40
456.53308
100
AcDbArc
 50
266.5399
 51
266.676914
  0
ARC
  5
431
100
AcDbEntity
  8
LY_1
  6
CONTINUOUS
 62
     7
100
AcDbCircle
 10
-337.406636
 20
624.744727
 30
0.0
 40
456.53308
100
AcDbArc
 50
267.228404
 51
267.346425
  0
ARC
  5
432
100
AcDbEntity
  8
LY_1
  6
CONTINUOUS
 62
     7
100
AcDbCircle
 10
-337.406636
 20
624.744727
 30
0.0
 40
456.53308
100
AcDbArc
 50
267.914324
 51
268.017601
  0
LINE
  5
433
100
AcDbEntity
  8
LY_1
  6
CONTINUOUS
 62
     7
100
AcDbLine
 10
-347.806636
 20
168.457647
 30
0.0
 11
-348.606636
 21
168.457647
 31
0.0
  0
LINE
  5
434
100
AcDbEntity
  8
LY_1
  6
CONTINUOUS
 62
     7
100
AcDbLine
 10
-342.406636
 20
168.457647
 30
0.0
 11
-343.206636
 21
168.457647
 31
0.0
  0
LINE
  5
435
100
AcDbEntity
  8
LY_1
  6
CONTINUOUS
 62
     7
100
AcDbLine
 10
-337.806636
 20
168.457647
 30
0.0
 11
-337.006636
 21
168.457647
 31
0.0
  0
LINE
  5
436
100
AcDbEntity
  8
LY_1
  6
CONTINUOUS
 62
     7
100
AcDbLine
 10
-332.406636
 20
168.457647
 30
0.0
 11
-331.606636
 21
168.457647
 31
0.0
  0
LINE
  5
437
100
AcDbEntity
  8
LY_1
  6
CONTINUOUS
 62
     7
100
AcDbLine
 10
-327.006636
 20
168.457647
 30
0.0
 11
-326.206636
 21
168.457647
 31
0.0
  0
ARC
  5
438
100
AcDbEntity
  8
LY_1
  6
CONTINUOUS
 62
     7
100
AcDbCircle
 10
-337.406636
 20
624.744727
 30
0.0
 40
456.53308
100
AcDbArc
 50
271.982399
 51
272.085676
  0
ARC
  5
439
100
AcDbEntity
  8
LY_1
  6
CONTINUOUS
 62
     7
100
AcDbCircle
 10
-337.406636
 20
624.744727
 30
0.0
 40
456.53308
100
AcDbArc
 50
272.653575
 51
272.771596
  0
ARC
  5
43A
100
AcDbEntity
  8
LY_1
  6
CONTINUOUS
 62
     7
100
AcDbCircle
 10
-337.406636
 20
624.744727
 30
0.0
 40
456.53308
100
AcDbArc
 50
273.323086
 51
273.4601
  0
LWPOLYLINE
  5
43B
100
AcDbEntity
  8
LY_1
  6
CONTINUOUS
 62
     7
100
AcDbPolyline
 90
       25
 70
     0
 10
-363.870159
 20
168.979288
 10
-363.870159
 20
168.982838
 10
-363.870159
 20
168.993194
 10
-363.870159
 20
169.009912
 10
-363.870159
 20
169.032549
 10
-363.870159
 20
169.060664
 10
-363.870159
 20
169.093814
 10
-363.870159
 20
169.133544
 10
-363.870159
 20
169.180788
 10
-363.870159
 20
169.234291
 10
-363.870159
 20
169.292793
 10
-363.870159
 20
169.355037
 10
-363.870159
 20
169.419767
 10
-363.870159
 20
169.489571
 10
-363.870159
 20
169.566449
 10
-363.870159
 20
169.648526
 10
-363.870159
 20
169.733926
 10
-363.870159
 20
169.820774
 10
-363.870159
 20
169.907193
 10
-363.870159
 20
169.996381
 10
-363.870159
 20
170.091144
 10
-363.870159
 20
170.189277
 10
-363.870159
 20
170.288573
 10
-363.870159
 20
170.386824
 10
-363.870159
 20
170.481823
  0
LWPOLYLINE
  5
43C
100
AcDbEntity
  8
LY_1
  6
CONTINUOUS
 62
     7
100
AcDbPolyline
 90
       25
 70
     0
 10
-364.959977
 20
170.546623
 10
-364.959977
 20
170.451617
 10
-364.959977
 20
170.353359
 10
-364.959977
 20
170.254057
 10
-364.959977
 20
170.155915
 10
-364.959977
 20
170.061142
 10
-364.959977
 20
169.971943
 10
-364.959977
 20
169.885516
 10
-364.959977
 20
169.79866
 10
-364.959977
 20
169.71325
 10
-364.959977
 20
169.631161
 10
-364.959977
 20
169.554269
 10
-364.959977
 20
169.48445
 10
-364.959977
 20
169.41971
 10
-364.959977
 20
169.357455
 10
-364.959977
 20
169.298942
 10
-364.959977
 20
169.245428
 10
-364.959977
 20
169.198171
 10
-364.959977
 20
169.158429
 10
-364.959977
 20
169.125272
 10
-364.959977
 20
169.09715
 10
-364.959977
 20
169.074506
 10
-364.959977
 20
169.057784
 10
-364.959977
 20
169.047426
 10
-364.959977
 20
169.043875
  0
LWPOLYLINE
  5
43D
100
AcDbEntity
  8
LY_1
  6
CONTINUOUS
 62
     7
100
AcDbPolyline
 90
       25
 70
     0
 10
-359.482117
 20
170.247448
 10
-359.482117
 20
170.152472
 10
-359.482117
 20
170.054246
 10
-359.482117
 20
169.954978
 10
-359.482117
 20
169.856876
 10
-359.482117
 20
169.762148
 10
-359.482117
 20
169.673002
 10
-359.482117
 20
169.586606
 10
-359.482117
 20
169.499789
 10
-359.482117
 20
169.414426
 10
-359.482117
 20
169.332393
 10
-359.482117
 20
169.255565
 10
-359.482117
 20
169.185817
 10
-359.482117
 20
169.121121
 10
-359.482117
 20
169.058915
 10
-359.482117
 20
169.000455
 10
-359.482117
 20
168.946995
 10
-359.482117
 20
168.899794
 10
-359.482117
 20
168.860105
 10
-359.482117
 20
168.826984
 10
-359.482117
 20
168.798895
 10
-359.482117
 20
168.776278
 10
-359.482117
 20
168.759577
 10
-359.482117
 20
168.749232
 10
-359.482117
 20
168.745685
  0
LWPOLYLINE
  5
43E
100
AcDbEntity
  8
LY_1
  6
CONTINUOUS
 62
     7
100
AcDbPolyline
 90
       25
 70
     0
 10
-358.542774
 20
168.70118
 10
-358.542774
 20
168.704726
 10
-358.542774
 20
168.715069
 10
-358.542774
 20
168.731768
 10
-358.542774
 20
168.75438
 10
-358.542774
 20
168.782465
 10
-358.542774
 20
168.81558
 10
-358.542774
 20
168.855261
 10
-358.542774
 20
168.902454
 10
-358.542774
 20
168.955905
 10
-358.542774
 20
169.014358
 10
-358.542774
 20
169.076557
 10
-358.542774
 20
169.141245
 10
-358.542774
 20
169.210983
 10
-358.542774
 20
169.287802
 10
-358.542774
 20
169.369827
 10
-358.542774
 20
169.455183
 10
-358.542774
 20
169.541993
 10
-358.542774
 20
169.628385
 10
-358.542774
 20
169.717523
 10
-358.542774
 20
169.812244
 10
-358.542774
 20
169.91034
 10
-358.542774
 20
170.009603
 10
-358.542774
 20
170.107824
 10
-358.542774
 20
170.202796
  0
LWPOLYLINE
  5
43F
100
AcDbEntity
  8
LY_1
  6
CONTINUOUS
 62
     7
100
AcDbPolyline
 90
       25
 70
     0
 10
-354.021645
 20
170.015087
 10
-354.021645
 20
169.920135
 10
-354.021645
 20
169.821934
 10
-354.021645
 20
169.722692
 10
-354.021645
 20
169.624621
 10
-354.021645
 20
169.529928
 10
-354.021645
 20
169.440824
 10
-354.021645
 20
169.354452
 10
-354.021645
 20
169.267665
 10
-354.021645
 20
169.18234
 10
-354.021645
 20
169.10035
 10
-354.021645
 20
169.023571
 10
-354.021645
 20
168.953877
 10
-354.021645
 20
168.889216
 10
-354.021645
 20
168.827048
 10
-354.021645
 20
168.768629
 10
-354.021645
 20
168.715212
 10
-354.021645
 20
168.668053
 10
-354.021645
 20
168.628406
 10
-354.021645
 20
168.595313
 10
-354.021645
 20
168.567248
 10
-354.021645
 20
168.544653
 10
-354.021645
 20
168.527967
 10
-354.021645
 20
168.517632
 10
-354.021645
 20
168.51409
  0
LWPOLYLINE
  5
440
100
AcDbEntity
  8
LY_1
  6
CONTINUOUS
 62
     7
100
AcDbPolyline
 90
       25
 70
     0
 10
-353.199253
 20
168.484882
 10
-353.199253
 20
168.488424
 10
-353.199253
 20
168.498758
 10
-353.199253
 20
168.515441
 10
-353.199253
 20
168.538034
 10
-353.199253
 20
168.566096
 10
-353.199253
 20
168.599185
 10
-353.199253
 20
168.638827
 10
-353.199253
 20
168.685981
 10
-353.199253
 20
168.739392
 10
-353.199253
 20
168.797806
 10
-353.199253
 20
168.859969
 10
-353.199253
 20
168.924626
 10
-353.199253
 20
168.994313
 10
-353.199253
 20
169.071085
 10
-353.199253
 20
169.15307
 10
-353.199253
 20
169.238391
 10
-353.199253
 20
169.325173
 10
-353.199253
 20
169.411543
 10
-353.199253
 20
169.500641
 10
-353.199253
 20
169.59533
 10
-353.199253
 20
169.693398
 10
-353.199253
 20
169.792636
 10
-353.199253
 20
169.890834
 10
-353.199253
 20
169.985783
  0
LINE
  5
441
100
AcDbEntity
  8
LY_1
  6
CONTINUOUS
 62
     7
100
AcDbLine
 10
-347.806636
 20
169.957647
 30
0.0
 11
-347.806636
 21
168.457647
 31
0.0
  0
LINE
  5
442
100
AcDbEntity
  8
LY_1
  6
CONTINUOUS
 62
     7
100
AcDbLine
 10
-348.606636
 20
168.457647
 30
0.0
 11
-348.606636
 21
169.957647
 31
0.0
  0
LINE
  5
443
100
AcDbEntity
  8
LY_1
  6
CONTINUOUS
 62
     7
100
AcDbLine
 10
-342.406636
 20
169.918254
 30
0.0
 11
-342.406636
 21
168.457647
 31
0.0
  0
LINE
  5
444
100
AcDbEntity
  8
LY_1
  6
CONTINUOUS
 62
     7
100
AcDbLine
 10
-343.206636
 20
168.457647
 30
0.0
 11
-343.206636
 21
169.927768
 31
0.0
  0
LINE
  5
445
100
AcDbEntity
  8
LY_1
  6
CONTINUOUS
 62
     7
100
AcDbLine
 10
-337.806636
 20
168.457647
 30
0.0
 11
-337.806636
 21
169.890903
 31
0.0
  0
LINE
  5
446
100
AcDbEntity
  8
LY_1
  6
CONTINUOUS
 62
     7
100
AcDbLine
 10
-337.006636
 20
169.890903
 30
0.0
 11
-337.006636
 21
168.457647
 31
0.0
  0
LINE
  5
447
100
AcDbEntity
  8
LY_1
  6
CONTINUOUS
 62
     7
100
AcDbLine
 10
-332.406636
 20
168.457647
 30
0.0
 11
-332.406636
 21
169.918254
 31
0.0
  0
LINE
  5
448
100
AcDbEntity
  8
LY_1
  6
CONTINUOUS
 62
     7
100
AcDbLine
 10
-331.606636
 20
169.927768
 30
0.0
 11
-331.606636
 21
168.457647
 31
0.0
  0
LINE
  5
449
100
AcDbEntity
  8
LY_1
  6
CONTINUOUS
 62
     7
100
AcDbLine
 10
-327.006636
 20
168.457647
 30
0.0
 11
-327.006636
 21
169.957647
 31
0.0
  0
LINE
  5
44A
100
AcDbEntity
  8
LY_1
  6
CONTINUOUS
 62
     7
100
AcDbLine
 10
-326.206636
 20
169.957647
 30
0.0
 11
-326.206636
 21
168.457647
 31
0.0
  0
LWPOLYLINE
  5
44B
100
AcDbEntity
  8
LY_1
  6
CONTINUOUS
 62
     7
100
AcDbPolyline
 90
       25
 70
     0
 10
-320.791627
 20
168.51409
 10
-320.791627
 20
168.517632
 10
-320.791627
 20
168.527967
 10
-320.791627
 20
168.544653
 10
-320.791627
 20
168.567248
 10
-320.791627
 20
168.595313
 10
-320.791627
 20
168.628406
 10
-320.791627
 20
168.668053
 10
-320.791627
 20
168.715212
 10
-320.791627
 20
168.768629
 10
-320.791627
 20
168.827048
 10
-320.791627
 20
168.889216
 10
-320.791627
 20
168.953877
 10
-320.791627
 20
169.023571
 10
-320.791627
 20
169.10035
 10
-320.791627
 20
169.18234
 10
-320.791627
 20
169.267665
 10
-320.791627
 20
169.354452
 10
-320.791627
 20
169.440824
 10
-320.791627
 20
169.529928
 10
-320.791627
 20
169.624621
 10
-320.791627
 20
169.722692
 10
-320.791627
 20
169.821934
 10
-320.791627
 20
169.920135
 10
-320.791627
 20
170.015087
  0
LWPOLYLINE
  5
44C
100
AcDbEntity
  8
LY_1
  6
CONTINUOUS
 62
     7
100
AcDbPolyline
 90
       25
 70
     0
 10
-321.614019
 20
169.985783
 10
-321.614019
 20
169.890834
 10
-321.614019
 20
169.792636
 10
-321.614019
 20
169.693398
 10
-321.614019
 20
169.59533
 10
-321.614019
 20
169.500641
 10
-321.614019
 20
169.411543
 10
-321.614019
 20
169.325173
 10
-321.614019
 20
169.238391
 10
-321.614019
 20
169.15307
 10
-321.614019
 20
169.071085
 10
-321.614019
 20
168.994313
 10
-321.614019
 20
168.924626
 10
-321.614019
 20
168.859969
 10
-321.614019
 20
168.797806
 10
-321.614019
 20
168.739392
 10
-321.614019
 20
168.685981
 10
-321.614019
 20
168.638827
 10
-321.614019
 20
168.599185
 10
-321.614019
 20
168.566096
 10
-321.614019
 20
168.538034
 10
-321.614019
 20
168.515441
 10
-321.614019
 20
168.498758
 10
-321.614019
 20
168.488424
 10
-321.614019
 20
168.484882
  0
LWPOLYLINE
  5
44D
100
AcDbEntity
  8
LY_1
  6
CONTINUOUS
 62
     7
100
AcDbPolyline
 90
       25
 70
     0
 10
-315.331155
 20
168.745685
 10
-315.331155
 20
168.749232
 10
-315.331155
 20
168.759577
 10
-315.331155
 20
168.776278
 10
-315.331155
 20
168.798895
 10
-315.331155
 20
168.826984
 10
-315.331155
 20
168.860105
 10
-315.331155
 20
168.899794
 10
-315.331155
 20
168.946995
 10
-315.331155
 20
169.000455
 10
-315.331155
 20
169.058915
 10
-315.331155
 20
169.121121
 10
-315.331155
 20
169.185817
 10
-315.331155
 20
169.255565
 10
-315.331155
 20
169.332393
 10
-315.331155
 20
169.414426
 10
-315.331155
 20
169.499789
 10
-315.331155
 20
169.586606
 10
-315.331155
 20
169.673002
 10
-315.331155
 20
169.762148
 10
-315.331155
 20
169.856876
 10
-315.331155
 20
169.954978
 10
-315.331155
 20
170.054246
 10
-315.331155
 20
170.152472
 10
-315.331155
 20
170.247448
  0
LWPOLYLINE
  5
44E
100
AcDbEntity
  8
LY_1
  6
CONTINUOUS
 62
     7
100
AcDbPolyline
 90
       25
 70
     0
 10
-316.270498
 20
170.202796
 10
-316.270498
 20
170.107824
 10
-316.270498
 20
170.009603
 10
-316.270498
 20
169.91034
 10
-316.270498
 20
169.812244
 10
-316.270498
 20
169.717523
 10
-316.270498
 20
169.628385
 10
-316.270498
 20
169.541993
 10
-316.270498
 20
169.455183
 10
-316.270498
 20
169.369827
 10
-316.270498
 20
169.287802
 10
-316.270498
 20
169.210983
 10
-316.270498
 20
169.141245
 10
-316.270498
 20
169.076557
 10
-316.270498
 20
169.014358
 10
-316.270498
 20
168.955905
 10
-316.270498
 20
168.902454
 10
-316.270498
 20
168.855261
 10
-316.270498
 20
168.81558
 10
-316.270498
 20
168.782465
 10
-316.270498
 20
168.75438
 10
-316.270498
 20
168.731768
 10
-316.270498
 20
168.715069
 10
-316.270498
 20
168.704726
 10
-316.270498
 20
168.70118
  0
LWPOLYLINE
  5
44F
100
AcDbEntity
  8
LY_1
  6
CONTINUOUS
 62
     7
100
AcDbPolyline
 90
       25
 70
     0
 10
-310.943113
 20
170.481823
 10
-310.943113
 20
170.386824
 10
-310.943113
 20
170.288573
 10
-310.943113
 20
170.189277
 10
-310.943113
 20
170.091144
 10
-310.943113
 20
169.996381
 10
-310.943113
 20
169.907193
 10
-310.943113
 20
169.820774
 10
-310.943113
 20
169.733926
 10
-310.943113
 20
169.648526
 10
-310.943113
 20
169.566449
 10
-310.943113
 20
169.489571
 10
-310.943113
 20
169.419767
 10
-310.943113
 20
169.355037
 10
-310.943113
 20
169.292793
 10
-310.943113
 20
169.234291
 10
-310.943113
 20
169.180788
 10
-310.943113
 20
169.133544
 10
-310.943113
 20
169.093814
 10
-310.943113
 20
169.060664
 10
-310.943113
 20
169.032549
 10
-310.943113
 20
169.009912
 10
-310.943113
 20
168.993194
 10
-310.943113
 20
168.982838
 10
-310.943113
 20
168.979288
  0
LWPOLYLINE
  5
450
100
AcDbEntity
  8
LY_1
  6
CONTINUOUS
 62
     7
100
AcDbPolyline
 90
       25
 70
     0
 10
-309.853295
 20
169.043875
 10
-309.853295
 20
169.047426
 10
-309.853295
 20
169.057784
 10
-309.853295
 20
169.074506
 10
-309.853295
 20
169.09715
 10
-309.853295
 20
169.125272
 10
-309.853295
 20
169.158429
 10
-309.853295
 20
169.198171
 10
-309.853295
 20
169.245428
 10
-309.853295
 20
169.298942
 10
-309.853295
 20
169.357455
 10
-309.853295
 20
169.41971
 10
-309.853295
 20
169.48445
 10
-309.853295
 20
169.554269
 10
-309.853295
 20
169.631161
 10
-309.853295
 20
169.71325
 10
-309.853295
 20
169.79866
 10
-309.853295
 20
169.885516
 10
-309.853295
 20
169.971943
 10
-309.853295
 20
170.061142
 10
-309.853295
 20
170.155915
 10
-309.853295
 20
170.254057
 10
-309.853295
 20
170.353359
 10
-309.853295
 20
170.451617
 10
-309.853295
 20
170.546623
  0
LINE
  5
451
100
AcDbEntity
  8
LY_1
  6
CONTINUOUS
 62
     7
100
AcDbLine
 10
-347.806636
 20
170.009834
 30
0.0
 11
-347.806636
 21
169.957647
 31
0.0
  0
LINE
  5
452
100
AcDbEntity
  8
LY_1
  6
CONTINUOUS
 62
     7
100
AcDbLine
 10
-348.606636
 20
170.028865
 30
0.0
 11
-348.606636
 21
169.957647
 31
0.0
  0
LINE
  5
453
100
AcDbEntity
  8
LY_1
  6
CONTINUOUS
 62
     7
100
AcDbLine
 10
-353.199253
 20
169.985783
 30
0.0
 11
-353.199253
 21
170.165423
 31
0.0
  0
LINE
  5
454
100
AcDbEntity
  8
LY_1
  6
CONTINUOUS
 62
     7
100
AcDbLine
 10
-354.021646
 20
170.194787
 30
0.0
 11
-354.021646
 21
170.015087
 31
0.0
  0
LINE
  5
455
100
AcDbEntity
  8
LY_1
  6
CONTINUOUS
 62
     7
100
AcDbLine
 10
-358.542776
 20
170.202796
 30
0.0
 11
-358.542776
 21
170.38288
 31
0.0
  0
LINE
  5
456
100
AcDbEntity
  8
LY_1
  6
CONTINUOUS
 62
     7
100
AcDbLine
 10
-359.482117
 20
170.427623
 30
0.0
 11
-359.482117
 21
170.247448
 31
0.0
  0
LINE
  5
457
100
AcDbEntity
  8
LY_1
  6
CONTINUOUS
 62
     7
100
AcDbLine
 10
-363.870159
 20
170.481823
 30
0.0
 11
-363.870159
 21
170.662479
 31
0.0
  0
LINE
  5
458
100
AcDbEntity
  8
LY_1
  6
CONTINUOUS
 62
     7
100
AcDbLine
 10
-364.959977
 20
170.727413
 30
0.0
 11
-364.959977
 21
170.546623
 31
0.0
  0
LINE
  5
459
100
AcDbEntity
  8
LY_1
  6
CONTINUOUS
 62
   251
100
AcDbLine
 10
-303.606636
 20
224.390727
 30
0.0
 11
-331.053426
 21
224.390727
 31
0.0
  0
LINE
  5
45A
100
AcDbEntity
  8
LY_1
  6
CONTINUOUS
 62
     7
100
AcDbLine
 10
-331.053426
 20
224.390727
 30
0.0
 11
-332.556478
 21
224.390727
 31
0.0
  0
ELLIPSE
  5
45B
100
AcDbEntity
  8
LY_1
  6
CONTINUOUS
 62
     7
100
AcDbEllipse
 10
-331.053426
 20
223.890727
 30
0.0
 11
-0.0000000000000163
 21
0.5000000000000004
 31
0.0
210
0.0
220
0.0
230
1.0
 40
0.49358
 41
4.7123889803851711
 42
6.2831853071786359
  0
LWPOLYLINE
  5
45C
100
AcDbEntity
  8
LY_1
  6
CONTINUOUS
 62
     7
100
AcDbPolyline
 90
       25
 70
     0
 10
-332.306636
 20
223.890728
 10
-332.30723
 20
223.925189
 10
-332.308999
 20
223.959335
 10
-332.311925
 20
223.993047
 10
-332.315987
 20
224.026221
 10
-332.321166
 20
224.058732
 10
-332.327417
 20
224.090351
 10
-332.334665
 20
224.120801
 10
-332.342862
 20
224.150008
 10
-332.351964
 20
224.177898
 10
-332.361924
 20
224.204386
 10
-332.372688
 20
224.229392
 10
-332.384157
 20
224.252738
 10
-332.39627
 20
224.274372
 10
-332.408975
 20
224.294265
 10
-332.422224
 20
224.31238
 10
-332.435964
 20
224.328693
 10
-332.450139
 20
224.34316
 10
-332.464672
 20
224.355734
 10
-332.47951
 20
224.366396
 10
-332.494605
 20
224.375146
 10
-332.509901
 20
224.381956
 10
-332.525343
 20
224.386829
 10
-332.540884
 20
224.389752
 10
-332.556478
 20
224.390725
  0
LINE
  5
45D
100
AcDbEntity
  8
LY_1
  6
CONTINUOUS
 62
   251
100
AcDbLine
 10
-371.206636
 20
224.390727
 30
0.0
 11
-332.556478
 21
224.390727
 31
0.0
  0
LINE
  5
45E
100
AcDbEntity
  8
LY_1
  6
CONTINUOUS
 62
     7
100
AcDbLine
 10
-371.962871
 20
217.890727
 30
0.0
 11
-372.406636
 21
217.890727
 31
0.0
  0
LWPOLYLINE
  5
45F
100
AcDbEntity
  8
LY_1
  6
CONTINUOUS
 62
   251
100
AcDbPolyline
 90
       25
 70
     0
 10
-371.206637
 20
224.390725
 10
-371.284698
 20
224.388174
 10
-371.362742
 20
224.38052
 10
-371.440271
 20
224.367765
 10
-371.516696
 20
224.349988
 10
-371.591626
 20
224.32731
 10
-371.664878
 20
224.299806
 10
-371.736265
 20
224.267529
 10
-371.805592
 20
224.230555
 10
-371.87238
 20
224.189075
 10
-371.936267
 20
224.143318
 10
-371.997026
 20
224.093493
 10
-372.054427
 20
224.039811
 10
-372.108248
 20
223.982471
 10
-372.158254
 20
223.921689
 10
-372.204223
 20
223.857664
 10
-372.245899
 20
223.790649
 10
-372.282971
 20
223.721121
 10
-372.315341
 20
223.649424
 10
-372.342931
 20
223.575862
 10
-372.365669
 20
223.500737
 10
-372.383481
 20
223.424352
 10
-372.396296
 20
223.347023
 10
-372.40404
 20
223.269046
 10
-372.406636
 20
223.190726
  0
LINE
  5
460
100
AcDbEntity
  8
LY_1
  6
CONTINUOUS
 62
   251
100
AcDbLine
 10
-302.406636
 20
183.790727
 30
0.0
 11
-302.406636
 21
223.190727
 31
0.0
  0
ARC
  5
461
100
AcDbEntity
  8
LY_1
  6
CONTINUOUS
 62
   251
100
AcDbCircle
 10
-303.606636
 20
223.190727
 30
0.0
 40
1.2
100
AcDbArc
 50
0.0
 51
90.0
  0
LINE
  5
462
100
AcDbEntity
  8
LY_1
  6
CONTINUOUS
 62
   251
100
AcDbLine
 10
-372.406636
 20
223.190727
 30
0.0
 11
-372.406636
 21
217.890727
 31
0.0
  0
LINE
  5
463
100
AcDbEntity
  8
LY_1
  6
CONTINUOUS
 62
   251
100
AcDbLine
 10
-372.406636
 20
217.890727
 30
0.0
 11
-372.406636
 21
183.790727
 31
0.0
  0
LINE
  5
464
100
AcDbEntity
  8
LY_1
  6
CONTINUOUS
 62
     7
100
AcDbLine
 10
-332.306636
 20
217.890727
 30
0.0
 11
-371.962871
 21
217.890727
 31
0.0
  0
LINE
  5
465
100
AcDbEntity
  8
LY_1
  6
CONTINUOUS
 62
     7
100
AcDbLine
 10
-371.962871
 20
183.790727
 30
0.0
 11
-302.850401
 21
183.790727
 31
0.0
  0
LINE
  5
466
100
AcDbEntity
  8
LY_1
  6
CONTINUOUS
 62
   251
100
AcDbLine
 10
-372.406636
 20
183.790727
 30
0.0
 11
-372.406636
 21
172.353723
 31
0.0
  0
LINE
  5
467
100
AcDbEntity
  8
LY_1
  6
CONTINUOUS
 62
     7
100
AcDbLine
 10
-372.406636
 20
183.790727
 30
0.0
 11
-371.962871
 21
183.790727
 31
0.0
  0
LWPOLYLINE
  5
468
100
AcDbEntity
  8
LY_1
  6
CONTINUOUS
 62
   251
100
AcDbPolyline
 90
       25
 70
     0
 10
-372.406636
 20
172.353723
 10
-372.404261
 20
172.279126
 10
-372.397185
 20
172.204711
 10
-372.385476
 20
172.130777
 10
-372.369209
 20
172.057627
 10
-372.348452
 20
171.98556
 10
-372.32328
 20
171.914877
 10
-372.293761
 20
171.84588
 10
-372.259966
 20
171.778868
 10
-372.221983
 20
171.71415
 10
-372.180036
 20
171.652028
 10
-372.134331
 20
171.592708
 10
-372.085069
 20
171.536381
 10
-372.032445
 20
171.483239
 10
-371.976658
 20
171.433474
 10
-371.917899
 20
171.387277
 10
-371.856371
 20
171.344841
 10
-371.792346
 20
171.306369
 10
-371.72618
 20
171.272013
 10
-371.658045
 20
171.241853
 10
-371.588107
 20
171.215966
 10
-371.516536
 20
171.194429
 10
-371.44369
 20
171.177379
 10
-371.370099
 20
171.164918
 10
-371.296192
 20
171.15707
  0
LWPOLYLINE
  5
469
100
AcDbEntity
  8
LY_1
  6
CONTINUOUS
 62
   251
100
AcDbPolyline
 90
      136
 70
     0
 10
-371.296192
 20
171.15707
 10
-370.79712
 20
171.119997
 10
-370.297912
 20
171.083469
 10
-369.798575
 20
171.047486
 10
-369.29911
 20
171.012048
 10
-368.799515
 20
170.977155
 10
-368.299795
 20
170.942807
 10
-367.799953
 20
170.909006
 10
-367.299989
 20
170.875751
 10
-366.799904
 20
170.843042
 10
-366.299704
 20
170.81088
 10
-365.799385
 20
170.779265
 10
-365.298956
 20
170.748198
 10
-364.798413
 20
170.717678
 10
-364.29776
 20
170.687707
 10
-363.797003
 20
170.658284
 10
-363.296138
 20
170.629409
 10
-362.795168
 20
170.601083
 10
-362.294098
 20
170.573306
 10
-361.792927
 20
170.546079
 10
-361.29166
 20
170.519402
 10
-360.790296
 20
170.493275
 10
-360.28884
 20
170.467698
 10
-359.787291
 20
170.442672
 10
-359.285651
 20
170.418197
 10
-358.783925
 20
170.394273
 10
-358.282111
 20
170.370901
 10
-357.780216
 20
170.348081
 10
-357.278237
 20
170.325812
 10
-356.776179
 20
170.304097
 10
-356.274043
 20
170.282934
 10
-355.771831
 20
170.262324
 10
-355.269545
 20
170.242268
 10
-354.767187
 20
170.222765
 10
-354.264758
 20
170.203817
 10
-353.762263
 20
170.185422
 10
-353.259701
 20
170.167583
 10
-352.757074
 20
170.150298
 10
-352.254387
 20
170.133568
 10
-351.751638
 20
170.117394
 10
-351.248832
 20
170.101775
 10
-350.74597
 20
170.086713
 10
-350.243053
 20
170.072207
 10
-349.740084
 20
170.058258
 10
-349.237065
 20
170.044865
 10
-348.733998
 20
170.03203
 10
-348.230885
 20
170.019753
 10
-347.727726
 20
170.008033
 10
-347.224527
 20
169.996872
 10
-346.721289
 20
169.986269
 10
-346.218017
 20
169.976224
 10
-345.714712
 20
169.966737
 10
-345.211377
 20
169.957809
 10
-344.708014
 20
169.949439
 10
-344.204625
 20
169.941627
 10
-343.701211
 20
169.934373
 10
-343.197775
 20
169.927677
 10
-342.694318
 20
169.92154
 10
-342.190844
 20
169.91596
 10
-341.687352
 20
169.910939
 10
-341.183846
 20
169.906476
 10
-340.680328
 20
169.90257
 10
-340.176799
 20
169.899223
 10
-339.673261
 20
169.896434
 10
-339.169717
 20
169.894202
 10
-338.666168
 20
169.892529
 10
-338.162617
 20
169.891413
 10
-337.659065
 20
169.890856
 10
-337.155514
 20
169.890856
 10
-336.651967
 20
169.891414
 10
-336.148425
 20
169.89253
 10
-335.64489
 20
169.894204
 10
-335.141365
 20
169.896436
 10
-334.63785
 20
169.899225
 10
-334.134349
 20
169.902573
 10
-333.630863
 20
169.906477
 10
-333.127394
 20
169.91094
 10
-332.623944
 20
169.91596
 10
-332.120516
 20
169.921538
 10
-331.61711
 20
169.927674
 10
-331.11373
 20
169.934367
 10
-330.610376
 20
169.941618
 10
-330.107051
 20
169.949427
 10
-329.603758
 20
169.957793
 10
-329.100497
 20
169.966716
 10
-328.597272
 20
169.976197
 10
-328.094083
 20
169.986236
 10
-327.590933
 20
169.996832
 10
-327.087824
 20
170.007985
 10
-326.584757
 20
170.019696
 10
-326.081736
 20
170.031965
 10
-325.578762
 20
170.04479
 10
-325.075831
 20
170.058173
 10
-324.572938
 20
170.072113
 10
-324.070086
 20
170.08661
 10
-323.567278
 20
170.101663
 10
-323.064514
 20
170.117273
 10
-322.561796
 20
170.133438
 10
-322.059129
 20
170.150159
 10
-321.556514
 20
170.167435
 10
-321.053951
 20
170.185267
 10
-320.551446
 20
170.203654
 10
-320.048999
 20
170.222596
 10
-319.546613
 20
170.242092
 10
-319.04429
 20
170.262142
 10
-318.542033
 20
170.282747
 10
-318.039842
 20
170.303905
 10
-317.537722
 20
170.325617
 10
-317.035673
 20
170.347883
 10
-316.5337
 20
170.370701
 10
-316.0318
 20
170.394073
 10
-315.529981
 20
170.417997
 10
-315.028244
 20
170.442473
 10
-314.526587
 20
170.467502
 10
-314.025019
 20
170.493082
 10
-313.523536
 20
170.519215
 10
-313.022145
 20
170.545898
 10
-312.520846
 20
170.573133
 10
-312.01964
 20
170.600919
 10
-311.518534
 20
170.629255
 10
-311.017533
 20
170.658142
 10
-310.516639
 20
170.687577
 10
-310.015858
 20
170.717561
 10
-309.515188
 20
170.748094
 10
-309.014636
 20
170.779174
 10
-308.514205
 20
170.810801
 10
-308.013893
 20
170.842976
 10
-307.51371
 20
170.875696
 10
-307.013653
 20
170.908963
 10
-306.513725
 20
170.942774
 10
-306.013933
 20
170.977131
 10
-305.514279
 20
171.012032
 10
-305.014764
 20
171.047477
 10
-304.515389
 20
171.083465
 10
-304.016162
 20
171.119996
 10
-303.51708
 20
171.15707
  0
LWPOLYLINE
  5
46A
100
AcDbEntity
  8
LY_1
  6
CONTINUOUS
 62
   251
100
AcDbPolyline
 90
       25
 70
     0
 10
-303.51708
 20
171.15707
 10
-303.443311
 20
171.164939
 10
-303.370054
 20
171.177427
 10
-303.297592
 20
171.194449
 10
-303.226214
 20
171.21592
 10
-303.156207
 20
171.241757
 10
-303.087855
 20
171.271875
 10
-303.021446
 20
171.306192
 10
-302.957268
 20
171.344622
 10
-302.895611
 20
171.387065
 10
-302.836774
 20
171.433289
 10
-302.780953
 20
171.483079
 10
-302.728329
 20
171.536235
 10
-302.679089
 20
171.592554
 10
-302.633415
 20
171.651837
 10
-302.591489
 20
171.713882
 10
-302.553497
 20
171.778487
 10
-302.519634
 20
171.845357
 10
-302.490049
 20
171.91411
 10
-302.464817
 20
171.984567
 10
-302.444008
 20
172.056554
 10
-302.427695
 20
172.1299
 10
-302.415994
 20
172.204227
 10
-302.408975
 20
172.278982
 10
-302.406636
 20
172.353723
  0
LINE
  5
46B
100
AcDbEntity
  8
LY_1
  6
CONTINUOUS
 62
   251
100
AcDbLine
 10
-302.406636
 20
172.353723
 30
0.0
 11
-302.406636
 21
183.790727
 31
0.0
  0
LINE
  5
46C
100
AcDbEntity
  8
LY_1
  6
CONTINUOUS
 62
     7
100
AcDbLine
 10
-302.850401
 20
183.790727
 30
0.0
 11
-302.406636
 21
183.790727
 31
0.0
  0
LINE
  5
46D
100
AcDbEntity
  8
LY_1
  6
CONTINUOUS
 62
     7
100
AcDbLine
 10
-331.918339
 20
217.890727
 30
0.0
 11
-332.306636
 21
217.890727
 31
0.0
  0
LINE
  5
46E
100
AcDbEntity
  8
LY_1
  6
CONTINUOUS
 62
     7
100
AcDbLine
 10
-332.306636
 20
217.890727
 30
0.0
 11
-332.306636
 21
223.890727
 31
0.0
  0
LINE
  5
46F
100
AcDbEntity
  8
LY_1
  6
CONTINUOUS
 62
     7
100
AcDbLine
 10
-331.918339
 20
183.790727
 30
0.0
 11
-331.918339
 21
217.890727
 31
0.0
  0
LINE
  5
470
100
AcDbEntity
  8
LY_1
  6
CONTINUOUS
 62
     7
100
AcDbLine
 10
-330.806636
 20
183.790727
 30
0.0
 11
-330.806636
 21
223.890727
 31
0.0
  0
LINE
  5
471
100
AcDbEntity
  8
LY_1
  6
CONTINUOUS
 62
     7
100
AcDbLine
 10
-312.606636
 20
214.790727
 30
0.0
 11
-312.606636
 21
217.190727
 31
0.0
  0
LINE
  5
472
100
AcDbEntity
  8
LY_1
  6
CONTINUOUS
 62
     7
100
AcDbLine
 10
-322.606636
 20
214.790727
 30
0.0
 11
-312.606636
 21
214.790727
 31
0.0
  0
LINE
  5
473
100
AcDbEntity
  8
LY_1
  6
CONTINUOUS
 62
     7
100
AcDbLine
 10
-322.606636
 20
187.790727
 30
0.0
 11
-312.606636
 21
187.790727
 31
0.0
  0
LINE
  5
474
100
AcDbEntity
  8
LY_1
  6
CONTINUOUS
 62
     7
100
AcDbLine
 10
-312.606636
 20
185.390727
 30
0.0
 11
-312.606636
 21
187.790727
 31
0.0
  0
LINE
  5
475
100
AcDbEntity
  8
LY_1
  6
CONTINUOUS
 62
     7
100
AcDbLine
 10
-322.606636
 20
187.790727
 30
0.0
 11
-322.606636
 21
185.390727
 31
0.0
  0
LINE
  5
476
100
AcDbEntity
  8
LY_1
  6
CONTINUOUS
 62
     7
100
AcDbLine
 10
-322.606636
 20
217.190727
 30
0.0
 11
-322.606636
 21
214.790727
 31
0.0
  0
LINE
  5
477
100
AcDbEntity
  8
LY_1
  6
CONTINUOUS
 62
     7
100
AcDbLine
 10
-312.106636
 20
188.290727
 30
0.0
 11
-312.106636
 21
185.890727
 31
0.0
  0
LINE
  5
478
100
AcDbEntity
  8
LY_1
  6
CONTINUOUS
 62
     7
100
AcDbLine
 10
-323.106636
 20
188.290727
 30
0.0
 11
-312.106636
 21
188.290727
 31
0.0
  0
LINE
  5
479
100
AcDbEntity
  8
LY_1
  6
CONTINUOUS
 62
     7
100
AcDbLine
 10
-312.106636
 20
214.290727
 30
0.0
 11
-323.106636
 21
214.290727
 31
0.0
  0
LINE
  5
47A
100
AcDbEntity
  8
LY_1
  6
CONTINUOUS
 62
     7
100
AcDbLine
 10
-312.106636
 20
216.690727
 30
0.0
 11
-312.106636
 21
214.290727
 31
0.0
  0
LINE
  5
47B
100
AcDbEntity
  8
LY_1
  6
CONTINUOUS
 62
     7
100
AcDbLine
 10
-322.606636
 20
217.190727
 30
0.0
 11
-312.606636
 21
217.190727
 31
0.0
  0
LINE
  5
47C
100
AcDbEntity
  8
LY_1
  6
CONTINUOUS
 62
     7
100
AcDbLine
 10
-323.106636
 20
214.290727
 30
0.0
 11
-323.106636
 21
216.690727
 31
0.0
  0
LINE
  5
47D
100
AcDbEntity
  8
LY_1
  6
CONTINUOUS
 62
     7
100
AcDbLine
 10
-312.606636
 20
185.390727
 30
0.0
 11
-322.606636
 21
185.390727
 31
0.0
  0
LINE
  5
47E
100
AcDbEntity
  8
LY_1
  6
CONTINUOUS
 62
     7
100
AcDbLine
 10
-323.106636
 20
185.890727
 30
0.0
 11
-323.106636
 21
188.290727
 31
0.0
  0
ARC
  5
47F
100
AcDbEntity
  8
LY_1
  6
CONTINUOUS
 62
     7
100
AcDbCircle
 10
-312.606636
 20
216.690727
 30
0.0
 40
0.5
100
AcDbArc
 50
0.0
 51
90.0
  0
ARC
  5
480
100
AcDbEntity
  8
LY_1
  6
CONTINUOUS
 62
     7
100
AcDbCircle
 10
-322.606636
 20
216.690727
 30
0.0
 40
0.5
100
AcDbArc
 50
90.0
 51
180.0
  0
CIRCLE
  5
481
100
AcDbEntity
  8
LY_1
  6
CONTINUOUS
 62
     7
100
AcDbCircle
 10
-317.606636
 20
201.290727
 30
0.0
 40
10.3
  0
ARC
  5
482
100
AcDbEntity
  8
LY_1
  6
CONTINUOUS
 62
     7
100
AcDbCircle
 10
-312.606636
 20
185.890727
 30
0.0
 40
0.5
100
AcDbArc
 50
270.0
 51
0.0
  0
ARC
  5
483
100
AcDbEntity
  8
LY_1
  6
CONTINUOUS
 62
     7
100
AcDbCircle
 10
-322.606636
 20
185.890727
 30
0.0
 40
0.5
100
AcDbArc
 50
180.0
 51
270.0
  0
LINE
  5
484
100
AcDbEntity
  8
LY_1
  6
CONTINUOUS
 62
     7
100
AcDbLine
 10
-324.275032
 20
209.140727
 30
0.0
 11
-310.93824
 21
209.140727
 31
0.0
  0
LINE
  5
485
100
AcDbEntity
  8
LY_1
  6
CONTINUOUS
 62
     7
100
AcDbLine
 10
-324.856636
 20
193.974478
 30
0.0
 11
-324.856636
 21
208.606976
 31
0.0
  0
LINE
  5
486
100
AcDbEntity
  8
LY_1
  6
CONTINUOUS
 62
     7
100
AcDbLine
 10
-310.93824
 20
193.440727
 30
0.0
 11
-324.275032
 21
193.440727
 31
0.0
  0
LINE
  5
487
100
AcDbEntity
  8
LY_1
  6
CONTINUOUS
 62
     7
100
AcDbLine
 10
-309.356636
 20
207.457371
 30
0.0
 11
-309.356636
 21
195.124082
 31
0.0
  0
LINE
  5
488
100
AcDbEntity
  8
LY_1
  6
CONTINUOUS
 62
     7
100
AcDbLine
 10
-306.806636
 20
170.887936
 30
0.0
 11
-306.806636
 21
170.922895
 31
0.0
  0
LINE
  5
489
100
AcDbEntity
  8
LY_1
  6
CONTINUOUS
 62
     7
100
AcDbLine
 10
-368.006636
 20
170.922895
 30
0.0
 11
-368.006636
 21
170.887936
 31
0.0
  0
ARC
  5
48A
100
AcDbEntity
  8
LY_1
  6
CONTINUOUS
 62
     7
100
AcDbCircle
 10
-337.406636
 20
1019.639727
 30
0.0
 40
849.5
100
AcDbArc
 50
267.948716
 51
268.141298
  0
ARC
  5
48B
100
AcDbEntity
  8
LY_1
  6
CONTINUOUS
 62
     7
100
AcDbCircle
 10
-337.406636
 20
1019.639727
 30
0.0
 40
849.5
100
AcDbArc
 50
268.21484
 51
268.510919
  0
ARC
  5
48C
100
AcDbEntity
  8
LY_1
  6
CONTINUOUS
 62
     7
100
AcDbCircle
 10
-337.406636
 20
1019.639727
 30
0.0
 40
849.5
100
AcDbArc
 50
271.489081
 51
271.78516
  0
ARC
  5
48D
100
AcDbEntity
  8
LY_1
  6
CONTINUOUS
 62
     7
100
AcDbCircle
 10
-337.406636
 20
1019.639727
 30
0.0
 40
849.5
100
AcDbArc
 50
271.858702
 51
272.051284
  0
ARC
  5
48E
100
AcDbEntity
  8
LY_1
  6
CONTINUOUS
 62
     7
100
AcDbCircle
 10
-337.406636
 20
1019.639727
 30
0.0
 40
850.0
100
AcDbArc
 50
271.857608
 51
272.050077
  0
ARC
  5
48F
100
AcDbEntity
  8
LY_1
  6
CONTINUOUS
 62
     7
100
AcDbCircle
 10
-337.406636
 20
1019.639727
 30
0.0
 40
850.0
100
AcDbArc
 50
271.488205
 51
271.78411
  0
ARC
  5
490
100
AcDbEntity
  8
LY_1
  6
CONTINUOUS
 62
     7
100
AcDbCircle
 10
-337.406636
 20
1019.639727
 30
0.0
 40
850.0
100
AcDbArc
 50
271.120036
 51
271.424866
  0
ARC
  5
491
100
AcDbEntity
  8
LY_1
  6
CONTINUOUS
 62
     7
100
AcDbCircle
 10
-337.406636
 20
1019.639727
 30
0.0
 40
850.0
100
AcDbArc
 50
270.754978
 51
271.064591
  0
ARC
  5
492
100
AcDbEntity
  8
LY_1
  6
CONTINUOUS
 62
     7
100
AcDbCircle
 10
-337.406636
 20
1019.639727
 30
0.0
 40
850.0
100
AcDbArc
 50
270.390962
 51
270.701048
  0
ARC
  5
493
100
AcDbEntity
  8
LY_1
  6
CONTINUOUS
 62
     7
100
AcDbCircle
 10
-337.406636
 20
1019.639727
 30
0.0
 40
850.0
100
AcDbArc
 50
270.026963
 51
270.337036
  0
ARC
  5
494
100
AcDbEntity
  8
LY_1
  6
CONTINUOUS
 62
     7
100
AcDbCircle
 10
-337.406636
 20
1019.639727
 30
0.0
 40
850.0
100
AcDbArc
 50
269.662964
 51
269.973037
  0
ARC
  5
495
100
AcDbEntity
  8
LY_1
  6
CONTINUOUS
 62
     7
100
AcDbCircle
 10
-337.406636
 20
1019.639727
 30
0.0
 40
850.0
100
AcDbArc
 50
269.298952
 51
269.609038
  0
ARC
  5
496
100
AcDbEntity
  8
LY_1
  6
CONTINUOUS
 62
     7
100
AcDbCircle
 10
-337.406636
 20
1019.639727
 30
0.0
 40
850.0
100
AcDbArc
 50
268.935409
 51
269.245022
  0
ARC
  5
497
100
AcDbEntity
  8
LY_1
  6
CONTINUOUS
 62
     7
100
AcDbCircle
 10
-337.406636
 20
1019.639727
 30
0.0
 40
850.0
100
AcDbArc
 50
268.575134
 51
268.879964
  0
ARC
  5
498
100
AcDbEntity
  8
LY_1
  6
CONTINUOUS
 62
     7
100
AcDbCircle
 10
-337.406636
 20
1019.639727
 30
0.0
 40
850.0
100
AcDbArc
 50
268.21589
 51
268.511795
  0
ARC
  5
499
100
AcDbEntity
  8
LY_1
  6
CONTINUOUS
 62
     7
100
AcDbCircle
 10
-337.406636
 20
1019.639727
 30
0.0
 40
850.0
100
AcDbArc
 50
267.949923
 51
268.142392
  0
LWPOLYLINE
  5
49A
100
AcDbEntity
  8
LY_1
  6
CONTINUOUS
 62
     7
100
AcDbPolyline
 90
       25
 70
     0
 10
-306.806637
 20
170.383669
 10
-306.806637
 20
170.40465
 10
-306.806637
 20
170.425707
 10
-306.806637
 20
170.446688
 10
-306.806637
 20
170.467668
 10
-306.806637
 20
170.488726
 10
-306.806637
 20
170.509706
 10
-306.806637
 20
170.530764
 10
-306.806637
 20
170.551744
 10
-306.806637
 20
170.572725
 10
-306.806637
 20
170.593782
 10
-306.806637
 20
170.614763
 10
-306.806637
 20
170.63582
 10
-306.806637
 20
170.656801
 10
-306.806637
 20
170.677782
 10
-306.806637
 20
170.698839
 10
-306.806637
 20
170.71982
 10
-306.806637
 20
170.740877
 10
-306.806637
 20
170.761858
 10
-306.806637
 20
170.782839
 10
-306.806637
 20
170.803896
 10
-306.806637
 20
170.824877
 10
-306.806637
 20
170.845934
 10
-306.806637
 20
170.866915
 10
-306.806637
 20
170.887972
  0
LWPOLYLINE
  5
49B
100
AcDbEntity
  8
LY_1
  6
CONTINUOUS
 62
     7
100
AcDbPolyline
 90
       25
 70
     0
 10
-306.999481
 20
170.183779
 10
-306.986671
 20
170.184618
 10
-306.973971
 20
170.186373
 10
-306.961418
 20
170.188814
 10
-306.949051
 20
170.192095
 10
-306.936913
 20
170.196215
 10
-306.925038
 20
170.201021
 10
-306.913496
 20
170.206667
 10
-306.902364
 20
170.212999
 10
-306.891676
 20
170.220018
 10
-306.881459
 20
170.227648
 10
-306.871746
 20
170.235964
 10
-306.862572
 20
170.24489
 10
-306.853986
 20
170.254427
 10
-306.846045
 20
170.264421
 10
-306.838768
 20
170.27495
 10
-306.832178
 20
170.28586
 10
-306.826294
 20
170.297151
 10
-306.82114
 20
170.308901
 10
-306.816736
 20
170.320879
 10
-306.813119
 20
170.333162
 10
-306.810294
 20
170.345598
 10
-306.808267
 20
170.358187
 10
-306.807044
 20
170.370851
 10
-306.806637
 20
170.383669
  0
LWPOLYLINE
  5
49C
100
AcDbEntity
  8
LY_1
  6
CONTINUOUS
 62
     7
100
AcDbPolyline
 90
       25
 70
     0
 10
-306.806637
 20
170.887972
 10
-306.807039
 20
170.875002
 10
-306.808246
 20
170.862108
 10
-306.810246
 20
170.849367
 10
-306.813038
 20
170.836779
 10
-306.816612
 20
170.824343
 10
-306.820963
 20
170.812136
 10
-306.826075
 20
170.800234
 10
-306.831914
 20
170.788713
 10
-306.838456
 20
170.777574
 10
-306.845687
 20
170.766893
 10
-306.853584
 20
170.75667
 10
-306.862128
 20
170.746904
 10
-306.871291
 20
170.737749
 10
-306.881002
 20
170.729204
 10
-306.891223
 20
170.721346
 10
-306.901925
 20
170.714174
 10
-306.913076
 20
170.707689
 10
-306.924644
 20
170.701891
 10
-306.936587
 20
170.696855
 10
-306.94881
 20
170.692659
 10
-306.961263
 20
170.689302
 10
-306.973909
 20
170.686708
 10
-306.986707
 20
170.684954
 10
-306.999617
 20
170.684114
  0
LWPOLYLINE
  5
49D
100
AcDbEntity
  8
LY_1
  6
CONTINUOUS
 62
     7
100
AcDbPolyline
 90
       25
 70
     0
 10
-368.006635
 20
170.887972
 10
-368.006635
 20
170.866915
 10
-368.006635
 20
170.845934
 10
-368.006635
 20
170.824877
 10
-368.006635
 20
170.803896
 10
-368.006635
 20
170.782839
 10
-368.006635
 20
170.761858
 10
-368.006635
 20
170.740877
 10
-368.006635
 20
170.71982
 10
-368.006635
 20
170.698839
 10
-368.006635
 20
170.677782
 10
-368.006635
 20
170.656801
 10
-368.006635
 20
170.63582
 10
-368.006635
 20
170.614763
 10
-368.006635
 20
170.593782
 10
-368.006635
 20
170.572725
 10
-368.006635
 20
170.551744
 10
-368.006635
 20
170.530764
 10
-368.006635
 20
170.509706
 10
-368.006635
 20
170.488726
 10
-368.006635
 20
170.467668
 10
-368.006635
 20
170.446688
 10
-368.006635
 20
170.425707
 10
-368.006635
 20
170.40465
 10
-368.006635
 20
170.383669
  0
LWPOLYLINE
  5
49E
100
AcDbEntity
  8
LY_1
  6
CONTINUOUS
 62
     7
100
AcDbPolyline
 90
       25
 70
     0
 10
-367.813655
 20
170.684114
 10
-367.826565
 20
170.684954
 10
-367.839356
 20
170.686708
 10
-367.851995
 20
170.689302
 10
-367.864438
 20
170.692659
 10
-367.876647
 20
170.696855
 10
-367.888585
 20
170.701891
 10
-367.900167
 20
170.707613
 10
-367.911325
 20
170.714174
 10
-367.922033
 20
170.721346
 10
-367.932254
 20
170.729204
 10
-367.94196
 20
170.737749
 10
-367.95112
 20
170.746904
 10
-367.959672
 20
170.756594
 10
-367.967575
 20
170.766817
 10
-367.974807
 20
170.777574
 10
-367.981351
 20
170.788637
 10
-367.987188
 20
170.800234
 10
-367.992299
 20
170.812136
 10
-367.996653
 20
170.824266
 10
-368.000231
 20
170.836702
 10
-368.003023
 20
170.849367
 10
-368.005026
 20
170.862108
 10
-368.006232
 20
170.875002
 10
-368.006635
 20
170.887972
  0
LWPOLYLINE
  5
49F
100
AcDbEntity
  8
LY_1
  6
CONTINUOUS
 62
     7
100
AcDbPolyline
 90
       25
 70
     0
 10
-367.813791
 20
170.183779
 10
-367.826601
 20
170.184618
 10
-367.839301
 20
170.186373
 10
-367.851854
 20
170.188814
 10
-367.864221
 20
170.192095
 10
-367.876359
 20
170.196215
 10
-367.888234
 20
170.201021
 10
-367.899776
 20
170.206667
 10
-367.910908
 20
170.212999
 10
-367.921596
 20
170.220018
 10
-367.931813
 20
170.227648
 10
-367.941526
 20
170.235964
 10
-367.9507
 20
170.24489
 10
-367.959285
 20
170.254427
 10
-367.967227
 20
170.264421
 10
-367.974504
 20
170.27495
 10
-367.981094
 20
170.28586
 10
-367.986978
 20
170.297151
 10
-367.992132
 20
170.308901
 10
-367.996536
 20
170.320879
 10
-368.000153
 20
170.333162
 10
-368.002978
 20
170.345598
 10
-368.005005
 20
170.358187
 10
-368.006228
 20
170.370851
 10
-368.006635
 20
170.383669
  0
LINE
  5
4A0
100
AcDbEntity
  8
LY_1
  6
CONTINUOUS
 62
     7
100
AcDbLine
 10
-367.813791
 20
170.18378
 30
0.0
 11
-367.813652
 21
170.183775
 31
0.0
  0
LINE
  5
4A1
100
AcDbEntity
  8
LY_1
  6
CONTINUOUS
 62
     7
100
AcDbLine
 10
-306.99962
 20
170.183775
 30
0.0
 11
-306.999482
 21
170.18378
 31
0.0
  0
ARC
  5
4A2
100
AcDbEntity
  8
LY_1
  6
CONTINUOUS
 62
     7
100
AcDbCircle
 10
-313.506636
 20
218.190727
 30
0.0
 40
1.5
100
AcDbArc
 50
306.869898
 51
316.340491
  0
ARC
  5
4A3
100
AcDbEntity
  8
LY_1
  6
CONTINUOUS
 62
     7
100
AcDbCircle
 10
-321.506636
 20
218.190727
 30
0.0
 40
1.5
100
AcDbArc
 50
221.826472
 51
222.833428
  0
DIMENSION
  5
4AF
100
AcDbEntity
  8
LY_1
  6
CONTINUOUS
 62
   130
100
AcDbDimension
  2
*D15
 10
-318.885218
 20
226.099526
 30
0.0
 11
-288.358934
 21
251.447546
 31
0.0
 70
   131
  1
3-\U+220512
  3
MX_DIMSTYLE_CLASS1
100
AcDbDiametricDimension
 15
-310.928054
 25
235.081927
 35
0.0
 40
0.0
1001
ACAD
1000
DSTYLE
1002
{
1070
     7
1000
SOLID
1070
    41
1040
2.0
1070
    73
1070
     1
1070
    74
1070
     1
1070
   140
1040
3.0
1070
   141
1040
0.0
1070
   172
1070
     0
1070
   173
1070
     1
1070
   271
1070
     2
1070
   340
1005
4AA
1002
}
  0
LINE
  5
4B0
100
AcDbEntity
  8
LY_1
  6
CENTER
 62
     7
100
AcDbLine
 10
-296.106636
 20
204.665727
 30
0.0
 11
-296.106636
 21
197.915727
 31
0.0
  0
ARC
  5
4B1
100
AcDbEntity
  8
LY_1
  6
HIDDEN
 62
   254
100
AcDbCircle
 10
-376.471844
 20
181.821111
 30
0.0
 40
2.0
100
AcDbArc
 50
198.689004
 51
270.0
  0
ARC
  5
4B2
100
AcDbEntity
  8
LY_1
  6
HIDDEN
 62
   254
100
AcDbCircle
 10
-297.406636
 20
201.321111
 30
0.0
 40
2.25
100
AcDbArc
 50
90.0
 51
270.0
  0
LINE
  5
4B3
100
AcDbEntity
  8
LY_1
  6
HIDDEN
 62
   254
100
AcDbLine
 10
-297.406636
 20
203.571111
 30
0.0
 11
-294.806636
 21
203.571111
 31
0.0
  0
LINE
  5
4B4
100
AcDbEntity
  8
LY_1
  6
HIDDEN
 62
   254
100
AcDbLine
 10
-298.341428
 20
179.821111
 30
0.0
 11
-302.406636
 21
179.821111
 31
0.0
  0
LINE
  5
4B5
100
AcDbEntity
  8
LY_1
  6
HIDDEN
 62
   254
100
AcDbLine
 10
-290.165004
 20
199.750998
 30
0.0
 11
-296.446884
 21
181.180248
 31
0.0
  0
ARC
  5
4B6
100
AcDbEntity
  8
LY_1
  6
HIDDEN
 62
   254
100
AcDbCircle
 10
-294.806636
 20
201.321111
 30
0.0
 40
4.9
100
AcDbArc
 50
341.310996
 51
18.689004
  0
LINE
  5
4B7
100
AcDbEntity
  8
LY_1
  6
HIDDEN
 62
   254
100
AcDbLine
 10
-296.446884
 20
221.461973
 30
0.0
 11
-290.165004
 21
202.891223
 31
0.0
  0
LINE
  5
4B8
100
AcDbEntity
  8
LY_1
  6
HIDDEN
 62
   254
100
AcDbLine
 10
-302.406636
 20
222.821111
 30
0.0
 11
-298.341428
 21
222.821111
 31
0.0
  0
ARC
  5
4B9
100
AcDbEntity
  8
LY_1
  6
HIDDEN
 62
   254
100
AcDbCircle
 10
-294.806636
 20
201.321111
 30
0.0
 40
2.25
100
AcDbArc
 50
270.0
 51
90.0
  0
LINE
  5
4BA
100
AcDbEntity
  8
LY_1
  6
HIDDEN
 62
   254
100
AcDbLine
 10
-294.806636
 20
199.071111
 30
0.0
 11
-297.406636
 21
199.071111
 31
0.0
  0
ARC
  5
4BB
100
AcDbEntity
  8
LY_1
  6
HIDDEN
 62
   254
100
AcDbCircle
 10
-298.341428
 20
181.821111
 30
0.0
 40
2.0
100
AcDbArc
 50
270.0
 51
341.310996
  0
ARC
  5
4BC
100
AcDbEntity
  8
LY_1
  6
HIDDEN
 62
   254
100
AcDbCircle
 10
-298.341428
 20
220.821111
 30
0.0
 40
2.0
100
AcDbArc
 50
18.689004
 51
90.0
  0
ARC
  5
4BD
100
AcDbEntity
  8
LY_1
  6
HIDDEN
 62
   254
100
AcDbCircle
 10
-376.474142
 20
220.821111
 30
0.0
 40
2.0
100
AcDbArc
 50
90.0
 51
161.224028
  0
LINE
  5
4BE
100
AcDbEntity
  8
LY_1
  6
HIDDEN
 62
   254
100
AcDbLine
 10
-378.367711
 20
181.177373
 30
0.0
 11
-384.61395
 21
199.550833
 31
0.0
  0
CIRCLE
  5
4BF
100
AcDbEntity
  8
LY_1
  6
HIDDEN
 62
   254
100
AcDbCircle
 10
-378.406636
 20
201.230226
 30
0.0
 40
2.25
  0
LINE
  5
4C0
100
AcDbEntity
  8
LY_1
  6
HIDDEN
 62
   254
100
AcDbLine
 10
-372.406636
 20
179.821111
 30
0.0
 11
-376.474142
 21
179.821111
 31
0.0
  0
LINE
  5
4C1
100
AcDbEntity
  8
LY_1
  6
HIDDEN
 62
   254
100
AcDbLine
 10
-376.474142
 20
222.821111
 30
0.0
 11
-372.406636
 21
222.821111
 31
0.0
  0
LINE
  5
4C2
100
AcDbEntity
  8
LY_1
  6
HIDDEN
 62
   254
100
AcDbLine
 10
-384.61395
 20
203.091388
 30
0.0
 11
-378.367711
 21
221.464848
 31
0.0
  0
ARC
  5
4C3
100
AcDbEntity
  8
LY_1
  6
HIDDEN
 62
   254
100
AcDbCircle
 10
-379.406636
 20
201.321111
 30
0.0
 40
5.5
100
AcDbArc
 50
161.224028
 51
198.775972
  0
ENDSEC
  0
SECTION
  2
OBJECTS
  0
DICTIONARY
  5
19
100
AcDbDictionary
  3
ACAD_GROUP
350
1A
  3
ACAD_MLINESTYLE
350
1B
  0
DICTIONARY
  5
1A
102
{ACAD_REACTORS
330
19
102
}
100
AcDbDictionary
  0
DICTIONARY
  5
1B
102
{ACAD_REACTORS
330
19
102
}
100
AcDbDictionary
  3
STANDARD
350
1C
  0
MLINESTYLE
  5
1C
102
{ACAD_REACTORS
330
1B
102
}
100
AcDbMlineStyle
  2
Standard
 70
     0
  3

 62
     0
 51
90.0
 52
90.0
 71
     2
 49
0.5
 62
   256
  6
ByLayer
 49
-0.5
 62
   256
  6
ByLayer
  0
ENDSEC
  0
EOF
