  0
SECTION
  2
HEADER
  9
$ACADVER
  1
AC1014
  9
$ACADMAINTVER
 70
     9
  9
$DWGCODEPAGE
  3
ANSI_932
  9
$INSBASE
 10
0.0
 20
0.0
 30
0.0
  9
$EXTMIN
 10
-394.0170379999999
 20
60.49998499999998
 30
0.0
  9
$EXTMAX
 10
-12.146385
 20
265.9607905623731
 30
0.0
  9
$LIMMIN
 10
-391.0180379999999
 20
-0.001
  9
$LIMMAX
 10
0.001
 20
265.5475769999999
  9
$ORTHOMODE
 70
     0
  9
$REGENMODE
 70
     1
  9
$FILLMODE
 70
     1
  9
$QTEXTMODE
 70
     0
  9
$MIRRTEXT
 70
     1
  9
$DRAGMODE
 70
     2
  9
$LTSCALE
 40
6.516951
  9
$OSMODE
 70
    37
  9
$ATTMODE
 70
     1
  9
$TEXTSIZE
 40
0.2
  9
$TRACEWID
 40
0.05
  9
$TEXTSTYLE
  7
STANDARD
  9
$CLAYER
  8
0
  9
$CELTYPE
  6
CONTINUOUS
  9
$CECOLOR
 62
   256
  9
$CELTSCALE
 40
1.0
  9
$DELOBJ
 70
     1
  9
$DISPSILH
 70
     0
  9
$DIMSCALE
 40
1.0
  9
$DIMASZ
 40
0.18
  9
$DIMEXO
 40
0.0625
  9
$DIMDLI
 40
0.38
  9
$DIMRND
 40
0.0
  9
$DIMDLE
 40
0.0
  9
$DIMEXE
 40
0.18
  9
$DIMTP
 40
0.0
  9
$DIMTM
 40
0.0
  9
$DIMTXT
 40
0.18
  9
$DIMCEN
 40
0.09
  9
$DIMTSZ
 40
0.0
  9
$DIMTOL
 70
     0
  9
$DIMLIM
 70
     0
  9
$DIMTIH
 70
     1
  9
$DIMTOH
 70
     1
  9
$DIMSE1
 70
     0
  9
$DIMSE2
 70
     0
  9
$DIMTAD
 70
     0
  9
$DIMZIN
 70
     0
  9
$DIMBLK
  1

  9
$DIMASO
 70
     1
  9
$DIMSHO
 70
     1
  9
$DIMPOST
  1

  9
$DIMAPOST
  1

  9
$DIMALT
 70
     0
  9
$DIMALTD
 70
     2
  9
$DIMALTF
 40
25.4
  9
$DIMLFAC
 40
1.0
  9
$DIMTOFL
 70
     0
  9
$DIMTVP
 40
0.0
  9
$DIMTIX
 70
     0
  9
$DIMSOXD
 70
     0
  9
$DIMSAH
 70
     0
  9
$DIMBLK1
  1

  9
$DIMBLK2
  1

  9
$DIMSTYLE
  2
STANDARD
  9
$DIMCLRD
 70
     0
  9
$DIMCLRE
 70
     0
  9
$DIMCLRT
 70
     0
  9
$DIMTFAC
 40
1.0
  9
$DIMGAP
 40
0.09
  9
$DIMJUST
 70
     0
  9
$DIMSD1
 70
     0
  9
$DIMSD2
 70
     0
  9
$DIMTOLJ
 70
     1
  9
$DIMTZIN
 70
     0
  9
$DIMALTZ
 70
     0
  9
$DIMALTTZ
 70
     0
  9
$DIMFIT
 70
     3
  9
$DIMUPT
 70
     0
  9
$DIMUNIT
 70
     2
  9
$DIMDEC
 70
     4
  9
$DIMTDEC
 70
     4
  9
$DIMALTU
 70
     2
  9
$DIMALTTD
 70
     2
  9
$DIMTXSTY
  7
STANDARD
  9
$DIMAUNIT
 70
     0
  9
$LUNITS
 70
     2
  9
$LUPREC
 70
     4
  9
$SKETCHINC
 40
0.1
  9
$FILLETRAD
 40
0.0
  9
$AUNITS
 70
     0
  9
$AUPREC
 70
     0
  9
$MENU
  1
acad
  9
$ELEVATION
 40
0.0
  9
$PELEVATION
 40
0.0
  9
$THICKNESS
 40
0.0
  9
$LIMCHECK
 70
     0
  9
$BLIPMODE
 70
     0
  9
$CHAMFERA
 40
0.0
  9
$CHAMFERB
 40
0.0
  9
$CHAMFERC
 40
0.0
  9
$CHAMFERD
 40
0.0
  9
$SKPOLY
 70
     0
  9
$TDCREATE
 40
2374168.762499710
  9
$TDUPDATE
 40
2452263.289117824
  9
$TDINDWG
 40
0.0004328704
  9
$TDUSRTIMER
 40
0.0004322917
  9
$USRTIMER
 70
     1
  9
$ANGBASE
 50
0.0
  9
$ANGDIR
 70
     0
  9
$PDMODE
 70
     0
  9
$PDSIZE
 40
0.0
  9
$PLINEWID
 40
0.0
  9
$COORDS
 70
     1
  9
$SPLFRAME
 70
     0
  9
$SPLINETYPE
 70
     6
  9
$SPLINESEGS
 70
     8
  9
$ATTDIA
 70
     0
  9
$ATTREQ
 70
     1
  9
$HANDLING
 70
-16383
  9
$HANDSEED
  5
D5B
  9
$SURFTAB1
 70
     6
  9
$SURFTAB2
 70
     6
  9
$SURFTYPE
 70
     6
  9
$SURFU
 70
     6
  9
$SURFV
 70
     6
  9
$UCSNAME
  2

  9
$UCSORG
 10
0.0
 20
0.0
 30
0.0
  9
$UCSXDIR
 10
1.0
 20
0.0
 30
0.0
  9
$UCSYDIR
 10
0.0
 20
1.0
 30
0.0
  9
$PUCSNAME
  2

  9
$PUCSORG
 10
0.0
 20
0.0
 30
0.0
  9
$PUCSXDIR
 10
1.0
 20
0.0
 30
0.0
  9
$PUCSYDIR
 10
0.0
 20
1.0
 30
0.0
  9
$USERI1
 70
     0
  9
$USERI2
 70
     0
  9
$USERI3
 70
     0
  9
$USERI4
 70
     0
  9
$USERI5
 70
     0
  9
$USERR1
 40
0.0
  9
$USERR2
 40
0.0
  9
$USERR3
 40
0.0
  9
$USERR4
 40
0.0
  9
$USERR5
 40
0.0
  9
$WORLDVIEW
 70
     1
  9
$SHADEDGE
 70
     3
  9
$SHADEDIF
 70
    70
  9
$TILEMODE
 70
     1
  9
$MAXACTVP
 70
    16
  9
$PINSBASE
 10
0.0
 20
0.0
 30
0.0
  9
$PLIMCHECK
 70
     0
  9
$PEXTMIN
 10
1.000000000000000E+20
 20
1.000000000000000E+20
 30
1.000000000000000E+20
  9
$PEXTMAX
 10
-1.000000000000000E+20
 20
-1.000000000000000E+20
 30
-1.000000000000000E+20
  9
$PLIMMIN
 10
0.0
 20
0.0
  9
$PLIMMAX
 10
12.0
 20
9.0
  9
$UNITMODE
 70
     0
  9
$VISRETAIN
 70
     0
  9
$PLINEGEN
 70
     0
  9
$PSLTSCALE
 70
     1
  9
$TREEDEPTH
 70
  3020
  9
$PICKSTYLE
 70
     1
  9
$CMLSTYLE
  2
STANDARD
  9
$CMLJUST
 70
     0
  9
$CMLSCALE
 40
1.0
  9
$PROXYGRAPHICS
 70
     1
  9
$MEASUREMENT
 70
     0
  0
ENDSEC
  0
SECTION
  2
CLASSES
  0
CLASS
  1
ACDBDICTIONARYWDFLT
  2
AcDbDictionaryWithDefault
  3
AutoCAD 2000
 90
        0
280
     0
281
     0
  0
CLASS
  1
ACDBPLACEHOLDER
  2
AcDbPlaceHolder
  3
AutoCAD 2000
 90
        0
280
     0
281
     0
  0
CLASS
  1
LAYOUT
  2
AcDbLayout
  3
AutoCAD 2000
 90
        0
280
     0
281
     0
  0
CLASS
  1
LONG_TRANSACTION
  2
AcDbLongTransaction
  3
AutoCAD 2000
 90
        0
280
     0
281
     0
  0
CLASS
  1
LWPOLYLINE
  2
AcDbPolyline
  3
AutoCAD 2000
 90
        0
280
     0
281
     1
  0
CLASS
  1
HATCH
  2
AcDbHatch
  3
AutoCAD 2000
 90
        0
280
     0
281
     1
  0
CLASS
  1
XRECORD
  2
AcDbXrecord
  3
AutoCAD 2000
 90
        0
280
     0
281
     0
  0
ENDSEC
  0
SECTION
  2
TABLES
  0
TABLE
  2
VPORT
  5
8
330
0
100
AcDbSymbolTable
 70
     2
  0
VPORT
  5
D36
330
8
100
AcDbSymbolTableRecord
100
AcDbViewportTableRecord
  2
*ACTIVE
 70
     0
 10
0.0
 20
0.0
 11
1.0
 21
1.0
 12
-344.5366077582201
 22
215.6421028935289
 13
0.0
 23
0.0
 14
1.0
 24
1.0
 15
0.0
 25
0.0
 16
0.0
 26
0.0
 36
1.0
 17
0.0
 27
0.0
 37
0.0
 40
21.48708568727154
 41
1.768971332209106
 42
50.0
 43
0.0
 44
0.0
 50
0.0
 51
0.0
 71
     0
 72
   100
 73
     1
 74
     1
 75
     0
 76
     0
 77
     0
 78
     0
  0
ENDTAB
  0
TABLE
  2
LTYPE
  5
5
330
0
100
AcDbSymbolTable
 70
     5
  0
LTYPE
  5
13
330
5
100
AcDbSymbolTableRecord
100
AcDbLinetypeTableRecord
  2
BYBLOCK
 70
     0
  3

 72
    65
 73
     0
 40
0.0
  0
LTYPE
  5
14
330
5
100
AcDbSymbolTableRecord
100
AcDbLinetypeTableRecord
  2
BYLAYER
 70
     0
  3

 72
    65
 73
     0
 40
0.0
  0
LTYPE
  5
15
330
5
100
AcDbSymbolTableRecord
100
AcDbLinetypeTableRecord
  2
CONTINUOUS
 70
     0
  3
Solid-Line
 72
    65
 73
     0
 40
0.0
  0
LTYPE
  5
1E
330
5
100
AcDbSymbolTableRecord
100
AcDbLinetypeTableRecord
  2
DASHED
 70
     0
  3
DASHED
 72
    65
 73
     2
 40
0.75
 49
0.5
 74
     0
 49
-0.25
 74
     0
  0
LTYPE
  5
1F
330
5
100
AcDbSymbolTableRecord
100
AcDbLinetypeTableRecord
  2
HIDDEN
 70
     0
  3
HIDDEN
 72
    65
 73
     2
 40
0.375
 49
0.25
 74
     0
 49
-0.125
 74
     0
  0
LTYPE
  5
20
330
5
100
AcDbSymbolTableRecord
100
AcDbLinetypeTableRecord
  2
CENTER
 70
     0
  3
CENTER
 72
    65
 73
     4
 40
2.0
 49
1.25
 74
     0
 49
-0.25
 74
     0
 49
0.25
 74
     0
 49
-0.25
 74
     0
  0
LTYPE
  5
21
330
5
100
AcDbSymbolTableRecord
100
AcDbLinetypeTableRecord
  2
PHANTOM
 70
     0
  3
PHANTOM
 72
    65
 73
     6
 40
2.5
 49
1.25
 74
     0
 49
-0.25
 74
     0
 49
0.25
 74
     0
 49
-0.25
 74
     0
 49
0.25
 74
     0
 49
-0.25
 74
     0
  0
ENDTAB
  0
TABLE
  2
LAYER
  5
2
330
0
100
AcDbSymbolTable
 70
     2
  0
LAYER
  5
F
330
2
100
AcDbSymbolTableRecord
100
AcDbLayerTableRecord
  2
0
 70
     0
 62
     7
  6
CONTINUOUS
  0
LAYER
  5
22
330
2
100
AcDbSymbolTableRecord
100
AcDbLayerTableRecord
  2
PV
 70
     0
 62
     3
  6
CONTINUOUS
  0
ENDTAB
  0
TABLE
  2
STYLE
  5
3
330
0
100
AcDbSymbolTable
 70
     3
  0
STYLE
  5
10
330
3
100
AcDbSymbolTableRecord
100
AcDbTextStyleTableRecord
  2
STANDARD
 70
     0
 40
0.0
 41
1.0
 50
0.0
 71
     0
 42
0.2
  3
txt
  4

  0
STYLE
  5
23
330
3
100
AcDbSymbolTableRecord
100
AcDbTextStyleTableRecord
  2
MONOTXT
 70
     0
 40
0.0
 41
1.0
 50
0.0
 71
     0
 42
0.2
  3
monotxt
  4

  0
STYLE
  5
24
330
3
100
AcDbSymbolTableRecord
100
AcDbTextStyleTableRecord
  2
BIGFONT
 70
     0
 40
0.0
 41
1.0
 50
0.0
 71
     0
 42
0.2
  3
txt
  4
bigfont
  0
ENDTAB
  0
TABLE
  2
VIEW
  5
6
330
0
100
AcDbSymbolTable
 70
     0
  0
ENDTAB
  0
TABLE
  2
UCS
  5
7
330
0
100
AcDbSymbolTable
 70
     0
  0
ENDTAB
  0
TABLE
  2
APPID
  5
9
330
0
100
AcDbSymbolTable
 70
     1
  0
APPID
  5
11
330
9
100
AcDbSymbolTableRecord
100
AcDbRegAppTableRecord
  2
ACAD
 70
     0
  0
ENDTAB
  0
TABLE
  2
DIMSTYLE
  5
A
330
0
100
AcDbSymbolTable
 70
     1
  0
DIMSTYLE
105
D28
330
A
100
AcDbSymbolTableRecord
100
AcDbDimStyleTableRecord
  2
STANDARD
 70
     0
  3

  4

  5

  6

  7

 40
1.0
 41
0.18
 42
0.0625
 43
0.38
 44
0.18
 45
0.0
 46
0.0
 47
0.0
 48
0.0
140
0.18
141
0.09
142
0.0
143
25.4
144
1.0
145
0.0
146
1.0
147
0.09
 71
     0
 72
     0
 73
     1
 74
     1
 75
     0
 76
     0
 77
     0
 78
     0
170
     0
171
     2
172
     0
173
     0
174
     0
175
     0
176
     0
177
     0
178
     0
270
     2
271
     4
272
     4
273
     2
274
     2
340
10
275
     0
280
     0
281
     0
282
     0
283
     1
284
     0
285
     0
286
     0
287
     3
288
     0
  0
ENDTAB
  0
TABLE
  2
BLOCK_RECORD
  5
1
330
0
100
AcDbSymbolTable
 70
    10
  0
BLOCK_RECORD
  5
19
102
{ACAD_XDICTIONARY
360
D59
102
}
330
1
100
AcDbSymbolTableRecord
100
AcDbBlockTableRecord
  2
*MODEL_SPACE
  0
BLOCK_RECORD
  5
16
102
{ACAD_XDICTIONARY
360
D57
102
}
330
1
100
AcDbSymbolTableRecord
100
AcDbBlockTableRecord
  2
*PAPER_SPACE
  0
BLOCK_RECORD
  5
27
330
1
100
AcDbSymbolTableRecord
100
AcDbBlockTableRecord
  2
ARROW
  0
BLOCK_RECORD
  5
2F
330
1
100
AcDbSymbolTableRecord
100
AcDbBlockTableRecord
  2
DOT
  0
BLOCK_RECORD
  5
36
330
1
100
AcDbSymbolTableRecord
100
AcDbBlockTableRecord
  2
*D2
  0
BLOCK_RECORD
  5
42
330
1
100
AcDbSymbolTableRecord
100
AcDbBlockTableRecord
  2
*D3
  0
BLOCK_RECORD
  5
4E
330
1
100
AcDbSymbolTableRecord
100
AcDbBlockTableRecord
  2
*D4
  0
BLOCK_RECORD
  5
5A
330
1
100
AcDbSymbolTableRecord
100
AcDbBlockTableRecord
  2
*D5
  0
BLOCK_RECORD
  5
66
330
1
100
AcDbSymbolTableRecord
100
AcDbBlockTableRecord
  2
*D6
  0
BLOCK_RECORD
  5
74
330
1
100
AcDbSymbolTableRecord
100
AcDbBlockTableRecord
  2
*D7
  0
BLOCK_RECORD
  5
82
330
1
100
AcDbSymbolTableRecord
100
AcDbBlockTableRecord
  2
*D8
  0
BLOCK_RECORD
  5
8E
330
1
100
AcDbSymbolTableRecord
100
AcDbBlockTableRecord
  2
*D9
  0
ENDTAB
  0
ENDSEC
  0
SECTION
  2
BLOCKS
  0
BLOCK
  5
1A
330
19
100
AcDbEntity
  8
0
100
AcDbBlockBegin
  2
*MODEL_SPACE
 70
     0
 10
0.0
 20
0.0
 30
0.0
  3
*MODEL_SPACE
  1

  0
ENDBLK
  5
1B
330
19
100
AcDbEntity
  8
0
100
AcDbBlockEnd
  0
BLOCK
  5
17
330
16
100
AcDbEntity
 67
     1
  8
0
100
AcDbBlockBegin
  2
*PAPER_SPACE
 70
     0
 10
0.0
 20
0.0
 30
0.0
  3
*PAPER_SPACE
  1

  0
ENDBLK
  5
18
330
16
100
AcDbEntity
 67
     1
  8
0
100
AcDbBlockEnd
  0
BLOCK
  5
28
330
27
100
AcDbEntity
  8
0
100
AcDbBlockBegin
  2
ARROW
 70
    10
 10
0.0
 20
0.0
 30
0.0
  3
ARROW
  1

  0
LWPOLYLINE
  5
29
330
27
100
AcDbEntity
  8
0
  6
CONTINUOUS
 62
     0
100
AcDbPolyline
 90
        3
 70
     0
 43
0.0
 10
1.137307999999999
 20
0.304741
 10
0.0
 20
0.0
 10
1.137307999999999
 20
-0.304741
  0
ENDBLK
  5
2E
330
27
100
AcDbEntity
  8
0
100
AcDbBlockEnd
  0
BLOCK
  5
30
330
2F
100
AcDbEntity
  8
0
100
AcDbBlockBegin
  2
DOT
 70
    10
 10
0.0
 20
0.0
 30
0.0
  3
DOT
  1

  0
LWPOLYLINE
  5
31
330
2F
100
AcDbEntity
  8
0
  6
CONTINUOUS
 62
     0
100
AcDbPolyline
 90
        2
 70
     1
 43
0.227462
 10
0.0
 20
0.113731
 42
1.0
 10
0.0
 20
-0.113731
 42
1.0
  0
ENDBLK
  5
35
330
2F
100
AcDbEntity
  8
0
100
AcDbBlockEnd
  0
BLOCK
  5
37
330
36
100
AcDbEntity
  8
0
100
AcDbBlockBegin
  2
*D2
 70
     1
 10
0.0
 20
0.0
 30
0.0
  3
*D2
  1

  0
LINE
  5
38
330
36
100
AcDbEntity
  8
PV
 62
     7
100
AcDbLine
 10
-314.410322
 20
93.04657699999999
 30
0.0
 11
-314.410322
 21
82.046577
 31
0.0
  0
LINE
  5
39
330
36
100
AcDbEntity
  8
PV
 62
     7
100
AcDbLine
 10
-323.434996
 20
93.04657699999999
 30
0.0
 11
-312.410322
 21
93.04657699999999
 31
0.0
  0
LINE
  5
3A
330
36
100
AcDbEntity
  8
PV
 62
     7
100
AcDbLine
 10
-323.364483
 20
82.046577
 30
0.0
 11
-312.410322
 21
82.046577
 31
0.0
  0
INSERT
  5
3B
330
36
100
AcDbEntity
  8
PV
  6
BYBLOCK
 62
     7
100
AcDbBlockReference
  2
ARROW
 10
-314.410322
 20
93.04657699999999
 30
0.0
 50
270.0
  0
INSERT
  5
3C
330
36
100
AcDbEntity
  8
PV
  6
BYBLOCK
 62
     7
100
AcDbBlockReference
  2
ARROW
 10
-314.410322
 20
82.046577
 30
0.0
 50
90.0
  0
TEXT
  5
3D
330
36
100
AcDbEntity
  8
PV
 62
     7
100
AcDbText
 10
-316.210322
 20
83.138243
 30
0.0
 40
3.2
  1
11
 50
90.0
  7
MONOTXT
100
AcDbText
  0
POINT
  5
3E
330
36
100
AcDbEntity
  8
PV
 62
     7
100
AcDbPoint
 10
-323.434996
 20
93.04657699999999
 30
0.0
  0
POINT
  5
3F
330
36
100
AcDbEntity
  8
PV
 62
     7
100
AcDbPoint
 10
-323.364483
 20
82.046577
 30
0.0
  0
POINT
  5
40
330
36
100
AcDbEntity
  8
PV
 62
     7
100
AcDbPoint
 10
-314.410322
 20
82.046577
 30
0.0
  0
ENDBLK
  5
41
330
36
100
AcDbEntity
  8
0
100
AcDbBlockEnd
  0
BLOCK
  5
43
330
42
100
AcDbEntity
  8
0
100
AcDbBlockBegin
  2
*D3
 70
     1
 10
0.0
 20
0.0
 30
0.0
  3
*D3
  1

  0
LINE
  5
44
330
42
100
AcDbEntity
  8
PV
 62
     7
100
AcDbLine
 10
-301.2106729999999
 20
160.046577
 30
0.0
 11
-301.2106729999999
 21
82.046577
 31
0.0
  0
LINE
  5
45
330
42
100
AcDbEntity
  8
PV
 62
     7
100
AcDbLine
 10
-323.864484
 20
160.046577
 30
0.0
 11
-299.2106729999999
 21
160.046577
 31
0.0
  0
LINE
  5
46
330
42
100
AcDbEntity
  8
PV
 62
     7
100
AcDbLine
 10
-323.364484
 20
82.046577
 30
0.0
 11
-299.2106729999999
 21
82.046577
 31
0.0
  0
INSERT
  5
47
330
42
100
AcDbEntity
  8
PV
  6
BYBLOCK
 62
     7
100
AcDbBlockReference
  2
ARROW
 10
-301.2106729999999
 20
160.046577
 30
0.0
 50
270.0
  0
INSERT
  5
48
330
42
100
AcDbEntity
  8
PV
  6
BYBLOCK
 62
     7
100
AcDbBlockReference
  2
ARROW
 10
-301.2106729999999
 20
82.046577
 30
0.0
 50
90.0
  0
TEXT
  5
49
330
42
100
AcDbEntity
  8
PV
 62
     7
100
AcDbText
 10
-303.0106729999999
 20
116.6382389999999
 30
0.0
 40
3.2
  1
78
 50
90.0
  7
MONOTXT
100
AcDbText
  0
POINT
  5
4A
330
42
100
AcDbEntity
  8
PV
 62
     7
100
AcDbPoint
 10
-323.864484
 20
160.046577
 30
0.0
  0
POINT
  5
4B
330
42
100
AcDbEntity
  8
PV
 62
     7
100
AcDbPoint
 10
-323.364484
 20
82.046577
 30
0.0
  0
POINT
  5
4C
330
42
100
AcDbEntity
  8
PV
 62
     7
100
AcDbPoint
 10
-301.2106729999999
 20
82.046577
 30
0.0
  0
ENDBLK
  5
4D
330
42
100
AcDbEntity
  8
0
100
AcDbBlockEnd
  0
BLOCK
  5
4F
330
4E
100
AcDbEntity
  8
0
100
AcDbBlockBegin
  2
*D4
 70
     1
 10
0.0
 20
0.0
 30
0.0
  3
*D4
  1

  0
LINE
  5
50
330
4E
100
AcDbEntity
  8
PV
 62
     7
100
AcDbLine
 10
-323.364483
 20
175.1581129999999
 30
0.0
 11
-383.364483
 21
175.1581129999999
 31
0.0
  0
LINE
  5
51
330
4E
100
AcDbEntity
  8
PV
 62
     7
100
AcDbLine
 10
-323.364483
 20
197.546577
 30
0.0
 11
-323.364483
 21
173.1581129999999
 31
0.0
  0
LINE
  5
52
330
4E
100
AcDbEntity
  8
PV
 62
     7
100
AcDbLine
 10
-383.364483
 20
196.546577
 30
0.0
 11
-383.364483
 21
173.1581129999999
 31
0.0
  0
INSERT
  5
53
330
4E
100
AcDbEntity
  8
PV
  6
BYBLOCK
 62
     7
100
AcDbBlockReference
  2
ARROW
 10
-323.364483
 20
175.1581129999999
 30
0.0
 50
180.0
  0
INSERT
  5
54
330
4E
100
AcDbEntity
  8
PV
  6
BYBLOCK
 62
     7
100
AcDbBlockReference
  2
ARROW
 10
-383.364483
 20
175.1581129999999
 30
0.0
  0
TEXT
  5
55
330
4E
100
AcDbEntity
  8
PV
 62
     7
100
AcDbText
 10
-357.7728169999999
 20
176.9581129999999
 30
0.0
 40
3.2
  1
60
  7
MONOTXT
100
AcDbText
  0
POINT
  5
56
330
4E
100
AcDbEntity
  8
PV
 62
     7
100
AcDbPoint
 10
-323.364483
 20
197.546577
 30
0.0
  0
POINT
  5
57
330
4E
100
AcDbEntity
  8
PV
 62
     7
100
AcDbPoint
 10
-383.364483
 20
196.546577
 30
0.0
  0
POINT
  5
58
330
4E
100
AcDbEntity
  8
PV
 62
     7
100
AcDbPoint
 10
-383.364483
 20
175.1581129999999
 30
0.0
  0
ENDBLK
  5
59
330
4E
100
AcDbEntity
  8
0
100
AcDbBlockEnd
  0
BLOCK
  5
5B
330
5A
100
AcDbEntity
  8
0
100
AcDbBlockBegin
  2
*D5
 70
     1
 10
0.0
 20
0.0
 30
0.0
  3
*D5
  1

  0
LINE
  5
5C
330
5A
100
AcDbEntity
  8
PV
 62
     7
100
AcDbLine
 10
-328.364483
 20
182.839128
 30
0.0
 11
-378.364483
 21
182.839128
 31
0.0
  0
LINE
  5
5D
330
5A
100
AcDbEntity
  8
PV
 62
     7
100
AcDbLine
 10
-328.364483
 20
196.546577
 30
0.0
 11
-328.364483
 21
180.839128
 31
0.0
  0
LINE
  5
5E
330
5A
100
AcDbEntity
  8
PV
 62
     7
100
AcDbLine
 10
-378.364483
 20
254.546579
 30
0.0
 11
-378.364483
 21
180.839128
 31
0.0
  0
INSERT
  5
5F
330
5A
100
AcDbEntity
  8
PV
  6
BYBLOCK
 62
     7
100
AcDbBlockReference
  2
ARROW
 10
-328.364483
 20
182.839128
 30
0.0
 50
180.0
  0
INSERT
  5
60
330
5A
100
AcDbEntity
  8
PV
  6
BYBLOCK
 62
     7
100
AcDbBlockReference
  2
ARROW
 10
-378.364483
 20
182.839128
 30
0.0
  0
TEXT
  5
61
330
5A
100
AcDbEntity
  8
PV
 62
     7
100
AcDbText
 10
-357.7728169999999
 20
184.6391279999999
 30
0.0
 40
3.2
  1
50
  7
MONOTXT
100
AcDbText
  0
POINT
  5
62
330
5A
100
AcDbEntity
  8
PV
 62
     7
100
AcDbPoint
 10
-328.364483
 20
196.546577
 30
0.0
  0
POINT
  5
63
330
5A
100
AcDbEntity
  8
PV
 62
     7
100
AcDbPoint
 10
-378.364483
 20
254.546579
 30
0.0
  0
POINT
  5
64
330
5A
100
AcDbEntity
  8
PV
 62
     7
100
AcDbPoint
 10
-378.364483
 20
182.839128
 30
0.0
  0
ENDBLK
  5
65
330
5A
100
AcDbEntity
  8
0
100
AcDbBlockEnd
  0
BLOCK
  5
67
330
66
100
AcDbEntity
  8
0
100
AcDbBlockBegin
  2
*D6
 70
     1
 10
0.0
 20
0.0
 30
0.0
  3
*D6
  1

  0
LINE
  5
68
330
66
100
AcDbEntity
  8
PV
 62
     7
100
AcDbLine
 10
-326.114483
 20
187.639762
 30
0.0
 11
-330.614483
 21
187.639762
 31
0.0
  0
LINE
  5
69
330
66
100
AcDbEntity
  8
PV
 62
     7
100
AcDbLine
 10
-326.114483
 20
200.546577
 30
0.0
 11
-326.114483
 21
185.639762
 31
0.0
  0
LINE
  5
6A
330
66
100
AcDbEntity
  8
PV
 62
     7
100
AcDbLine
 10
-330.614483
 20
200.546577
 30
0.0
 11
-330.614483
 21
185.639762
 31
0.0
  0
INSERT
  5
6B
330
66
100
AcDbEntity
  8
PV
  6
BYBLOCK
 62
     7
100
AcDbBlockReference
  2
ARROW
 10
-326.114483
 20
187.639762
 30
0.0
  0
INSERT
  5
6C
330
66
100
AcDbEntity
  8
PV
  6
BYBLOCK
 62
     7
100
AcDbBlockReference
  2
ARROW
 10
-330.614483
 20
187.639762
 30
0.0
 50
180.0
  0
TEXT
  5
6D
330
66
100
AcDbEntity
  8
PV
 62
     7
100
AcDbText
 10
-343.12113
 20
189.439762
 30
0.0
 40
3.2
  1
4.5
  7
MONOTXT
100
AcDbText
  0
POINT
  5
6E
330
66
100
AcDbEntity
  8
PV
 62
     7
100
AcDbPoint
 10
-326.114483
 20
200.546577
 30
0.0
  0
POINT
  5
6F
330
66
100
AcDbEntity
  8
PV
 62
     7
100
AcDbPoint
 10
-330.614483
 20
200.546577
 30
0.0
  0
POINT
  5
70
330
66
100
AcDbEntity
  8
PV
 62
     7
100
AcDbPoint
 10
-330.614483
 20
187.639762
 30
0.0
  0
LINE
  5
71
330
66
100
AcDbEntity
  8
PV
 62
     7
100
AcDbLine
 10
-343.3461299999999
 20
187.639762
 30
0.0
 11
-330.614483
 21
187.639762
 31
0.0
  0
LINE
  5
72
330
66
100
AcDbEntity
  8
PV
 62
     7
100
AcDbLine
 10
-326.114483
 20
187.639762
 30
0.0
 11
-325.614483
 21
187.639762
 31
0.0
  0
ENDBLK
  5
73
330
66
100
AcDbEntity
  8
0
100
AcDbBlockEnd
  0
BLOCK
  5
75
330
74
100
AcDbEntity
  8
0
100
AcDbBlockBegin
  2
*D7
 70
     1
 10
0.0
 20
0.0
 30
0.0
  3
*D7
  1

  0
LINE
  5
76
330
74
100
AcDbEntity
  8
PV
 62
     7
100
AcDbLine
 10
-389.017038
 20
256.296577
 30
0.0
 11
-389.017038
 21
262.796577
 31
0.0
  0
LINE
  5
77
330
74
100
AcDbEntity
  8
PV
 62
     7
100
AcDbLine
 10
-378.364482
 20
256.296577
 30
0.0
 11
-391.017038
 21
256.296577
 31
0.0
  0
LINE
  5
78
330
74
100
AcDbEntity
  8
PV
 62
     7
100
AcDbLine
 10
-378.364482
 20
262.796577
 30
0.0
 11
-391.017038
 21
262.796577
 31
0.0
  0
INSERT
  5
79
330
74
100
AcDbEntity
  8
PV
  6
BYBLOCK
 62
     7
100
AcDbBlockReference
  2
ARROW
 10
-389.017038
 20
256.296577
 30
0.0
 50
270.0
  0
INSERT
  5
7A
330
74
100
AcDbEntity
  8
PV
  6
BYBLOCK
 62
     7
100
AcDbBlockReference
  2
ARROW
 10
-389.017038
 20
262.796577
 30
0.0
 50
90.0
  0
TEXT
  5
7B
330
74
100
AcDbEntity
  8
PV
 62
     7
100
AcDbText
 10
-390.8170379999999
 20
243.955895
 30
0.0
 40
3.2
  1
6.5
 50
90.0
  7
MONOTXT
100
AcDbText
  0
POINT
  5
7C
330
74
100
AcDbEntity
  8
PV
 62
     7
100
AcDbPoint
 10
-378.364482
 20
256.296577
 30
0.0
  0
POINT
  5
7D
330
74
100
AcDbEntity
  8
PV
 62
     7
100
AcDbPoint
 10
-378.364482
 20
262.796577
 30
0.0
  0
POINT
  5
7E
330
74
100
AcDbEntity
  8
PV
 62
     7
100
AcDbPoint
 10
-389.017038
 20
262.796577
 30
0.0
  0
LINE
  5
7F
330
74
100
AcDbEntity
  8
PV
 62
     7
100
AcDbLine
 10
-389.017038
 20
256.296577
 30
0.0
 11
-389.017038
 21
243.730895
 31
0.0
  0
LINE
  5
80
330
74
100
AcDbEntity
  8
PV
 62
     7
100
AcDbLine
 10
-389.017038
 20
262.796577
 30
0.0
 11
-389.017038
 21
263.296577
 31
0.0
  0
ENDBLK
  5
81
330
74
100
AcDbEntity
  8
0
100
AcDbBlockEnd
  0
BLOCK
  5
83
330
82
100
AcDbEntity
  8
0
100
AcDbBlockBegin
  2
*D8
 70
     1
 10
0.0
 20
0.0
 30
0.0
  3
*D8
  1

  0
LINE
  5
84
330
82
100
AcDbEntity
  8
PV
 62
     7
100
AcDbLine
 10
-301.2106729999999
 20
265.546577
 30
0.0
 11
-301.2106729999999
 21
195.546577
 31
0.0
  0
LINE
  5
85
330
82
100
AcDbEntity
  8
PV
 62
     7
100
AcDbLine
 10
-324.3644839999999
 20
265.546577
 30
0.0
 11
-299.2106729999999
 21
265.546577
 31
0.0
  0
LINE
  5
86
330
82
100
AcDbEntity
  8
PV
 62
     7
100
AcDbLine
 10
-325.364484
 20
195.546577
 30
0.0
 11
-299.2106729999999
 21
195.546577
 31
0.0
  0
INSERT
  5
87
330
82
100
AcDbEntity
  8
PV
  6
BYBLOCK
 62
     7
100
AcDbBlockReference
  2
ARROW
 10
-301.2106729999999
 20
265.546577
 30
0.0
 50
270.0
  0
INSERT
  5
88
330
82
100
AcDbEntity
  8
PV
  6
BYBLOCK
 62
     7
100
AcDbBlockReference
  2
ARROW
 10
-301.2106729999999
 20
195.546577
 30
0.0
 50
90.0
  0
TEXT
  5
89
330
82
100
AcDbEntity
  8
PV
 62
     7
100
AcDbText
 10
-303.0106729999999
 20
226.138239
 30
0.0
 40
3.2
  1
70
 50
90.0
  7
MONOTXT
100
AcDbText
  0
POINT
  5
8A
330
82
100
AcDbEntity
  8
PV
 62
     7
100
AcDbPoint
 10
-324.3644839999999
 20
265.546577
 30
0.0
  0
POINT
  5
8B
330
82
100
AcDbEntity
  8
PV
 62
     7
100
AcDbPoint
 10
-325.364484
 20
195.546577
 30
0.0
  0
POINT
  5
8C
330
82
100
AcDbEntity
  8
PV
 62
     7
100
AcDbPoint
 10
-301.2106729999999
 20
195.546577
 30
0.0
  0
ENDBLK
  5
8D
330
82
100
AcDbEntity
  8
0
100
AcDbBlockEnd
  0
BLOCK
  5
8F
330
8E
100
AcDbEntity
  8
0
100
AcDbBlockBegin
  2
*D9
 70
     1
 10
0.0
 20
0.0
 30
0.0
  3
*D9
  1

  0
LINE
  5
90
330
8E
100
AcDbEntity
  8
PV
 62
     7
100
AcDbLine
 10
-314.410322
 20
259.546577
 30
0.0
 11
-314.410322
 21
201.546577
 31
0.0
  0
LINE
  5
91
330
8E
100
AcDbEntity
  8
PV
 62
     7
100
AcDbLine
 10
-375.864481
 20
259.546577
 30
0.0
 11
-312.410322
 21
259.546577
 31
0.0
  0
LINE
  5
92
330
8E
100
AcDbEntity
  8
PV
 62
     7
100
AcDbLine
 10
-325.864483
 20
201.546577
 30
0.0
 11
-312.410322
 21
201.546577
 31
0.0
  0
INSERT
  5
93
330
8E
100
AcDbEntity
  8
PV
  6
BYBLOCK
 62
     7
100
AcDbBlockReference
  2
ARROW
 10
-314.410322
 20
259.546577
 30
0.0
 50
270.0
  0
INSERT
  5
94
330
8E
100
AcDbEntity
  8
PV
  6
BYBLOCK
 62
     7
100
AcDbBlockReference
  2
ARROW
 10
-314.410322
 20
201.546577
 30
0.0
 50
90.0
  0
TEXT
  5
95
330
8E
100
AcDbEntity
  8
PV
 62
     7
100
AcDbText
 10
-316.210322
 20
226.138243
 30
0.0
 40
3.2
  1
58
 50
90.0
  7
MONOTXT
100
AcDbText
  0
POINT
  5
96
330
8E
100
AcDbEntity
  8
PV
 62
     7
100
AcDbPoint
 10
-375.864481
 20
259.546577
 30
0.0
  0
POINT
  5
97
330
8E
100
AcDbEntity
  8
PV
 62
     7
100
AcDbPoint
 10
-325.864483
 20
201.546577
 30
0.0
  0
POINT
  5
98
330
8E
100
AcDbEntity
  8
PV
 62
     7
100
AcDbPoint
 10
-314.410322
 20
201.546577
 30
0.0
  0
ENDBLK
  5
99
330
8E
100
AcDbEntity
  8
0
100
AcDbBlockEnd
  0
ENDSEC
  0
SECTION
  2
ENTITIES
  0
TEXT
  5
9A
330
19
100
AcDbEntity
  8
0
100
AcDbText
 10
-66.0
 20
60.499985
 30
0.0
 40
4.0
  1
TSB50
 41
0.9375
  7
MONOTXT
100
AcDbText
  0
LINE
  5
9B
330
19
100
AcDbEntity
  8
0
100
AcDbLine
 10
-12.146385
 20
249.0818809999999
 30
0.0
 11
-12.146385
 21
106.081881
 31
0.0
  0
TEXT
  5
9C
330
19
100
AcDbEntity
  8
0
100
AcDbText
 10
-72.850385
 20
208.081881
 30
0.0
 40
3.5
  1
5mA(100%)
 41
0.9520000000000001
  7
MONOTXT
100
AcDbText
  0
TEXT
  5
9D
330
19
100
AcDbEntity
  8
0
100
AcDbText
 10
-79.462051
 20
202.081881
 30
0.0
 40
3.5
  1
スタートタイム経過後、点灯
 41
0.793333
  7
BIGFONT
100
AcDbText
  0
TEXT
  5
9E
330
19
100
AcDbEntity
  8
0
100
AcDbText
 10
-130.616385
 20
208.081881
 30
0.0
 40
3.5
  1
入力電流
 41
0.8
  7
BIGFONT
100
AcDbText
  0
TEXT
  5
9F
330
19
100
AcDbEntity
  8
0
100
AcDbText
 10
-130.616385
 20
202.081881
 30
0.0
 40
3.5
  1
入力表示
 41
0.8
  7
BIGFONT
100
AcDbText
  0
LINE
  5
A0
330
19
100
AcDbEntity
  8
0
100
AcDbLine
 10
-133.296385
 20
201.0818809999999
 30
0.0
 11
-12.446385
 21
201.0818809999999
 31
0.0
  0
LINE
  5
A1
330
19
100
AcDbEntity
  8
0
100
AcDbLine
 10
-133.296385
 20
207.081881
 30
0.0
 11
-12.446385
 21
207.081881
 31
0.0
  0
LINE
  5
A2
330
19
100
AcDbEntity
  8
0
100
AcDbLine
 10
-133.296385
 20
106.081881
 30
0.0
 11
-12.446385
 21
106.081881
 31
0.0
  0
LINE
  5
A3
330
19
100
AcDbEntity
  8
0
100
AcDbLine
 10
-128.296385
 20
159.081881
 30
0.0
 11
-128.296385
 21
129.081881
 31
0.0
  0
LINE
  5
A4
330
19
100
AcDbEntity
  8
0
100
AcDbLine
 10
-133.296385
 20
118.081881
 30
0.0
 11
-12.446385
 21
118.081881
 31
0.0
  0
LINE
  5
A5
330
19
100
AcDbEntity
  8
0
100
AcDbLine
 10
-133.296385
 20
129.081881
 30
0.0
 11
-12.446385
 21
129.081881
 31
0.0
  0
LINE
  5
A6
330
19
100
AcDbEntity
  8
0
100
AcDbLine
 10
-133.296385
 20
112.081881
 30
0.0
 11
-12.446385
 21
112.081881
 31
0.0
  0
LINE
  5
A7
330
19
100
AcDbEntity
  8
0
100
AcDbLine
 10
-128.296385
 20
141.081881
 30
0.0
 11
-12.446385
 21
141.081881
 31
0.0
  0
LINE
  5
A8
330
19
100
AcDbEntity
  8
0
100
AcDbLine
 10
-128.296385
 20
147.081881
 30
0.0
 11
-12.446385
 21
147.081881
 31
0.0
  0
LINE
  5
A9
330
19
100
AcDbEntity
  8
0
100
AcDbLine
 10
-133.296385
 20
159.081881
 30
0.0
 11
-12.446385
 21
159.081881
 31
0.0
  0
LINE
  5
AA
330
19
100
AcDbEntity
  8
0
100
AcDbLine
 10
-128.296385
 20
153.081881
 30
0.0
 11
-12.446385
 21
153.081881
 31
0.0
  0
TEXT
  5
AB
330
19
100
AcDbEntity
  8
0
100
AcDbText
 10
-63.916385
 20
244.081881
 30
0.0
 40
3.5
  1
TSB50
 41
0.9599999999999999
  7
MONOTXT
100
AcDbText
  0
LINE
  5
AC
330
19
100
AcDbEntity
  8
0
100
AcDbLine
 10
-99.29638500000001
 20
243.081881
 30
0.0
 11
-133.296385
 21
249.0818809999999
 31
0.0
  0
TEXT
  5
AD
330
19
100
AcDbEntity
  8
0
100
AcDbText
 10
-104.6163849999999
 20
245.081881
 30
0.0
 40
3.5
  1
形番
 41
0.8
  7
BIGFONT
100
AcDbText
  0
LINE
  5
AE
330
19
100
AcDbEntity
  8
0
100
AcDbLine
 10
-99.29638500000001
 20
249.0818809999999
 30
0.0
 11
-99.29638500000001
 21
106.081881
 31
0.0
  0
LINE
  5
AF
330
19
100
AcDbEntity
  8
0
100
AcDbLine
 10
-133.296385
 20
249.0818809999999
 30
0.0
 11
-133.296385
 21
106.081881
 31
0.0
  0
LINE
  5
B0
330
19
100
AcDbEntity
  8
0
100
AcDbLine
 10
-128.296385
 20
231.081881
 30
0.0
 11
-128.296385
 21
213.081881
 31
0.0
  0
TEXT
  5
B1
330
19
100
AcDbEntity
  8
0
100
AcDbText
 10
-130.616385
 20
243.581881
 30
0.0
 40
3.5
  1
項目
 41
0.8
  7
BIGFONT
100
AcDbText
  0
LINE
  5
B2
330
19
100
AcDbEntity
  8
0
100
AcDbLine
 10
-128.296385
 20
225.081881
 30
0.0
 11
-12.446385
 21
225.081881
 31
0.0
  0
LINE
  5
B3
330
19
100
AcDbEntity
  8
0
100
AcDbLine
 10
-128.296385
 20
171.081881
 30
0.0
 11
-12.446385
 21
171.081881
 31
0.0
  0
LINE
  5
B4
330
19
100
AcDbEntity
  8
0
100
AcDbLine
 10
-128.296385
 20
165.081881
 30
0.0
 11
-12.446385
 21
165.081881
 31
0.0
  0
LINE
  5
B5
330
19
100
AcDbEntity
  8
0
100
AcDbLine
 10
-133.296385
 20
231.081881
 30
0.0
 11
-12.446385
 21
231.081881
 31
0.0
  0
LINE
  5
B6
330
19
100
AcDbEntity
  8
0
100
AcDbLine
 10
-133.296385
 20
243.081881
 30
0.0
 11
-12.446385
 21
243.081881
 31
0.0
  0
LINE
  5
B7
330
19
100
AcDbEntity
  8
0
100
AcDbLine
 10
-133.296385
 20
249.0818809999999
 30
0.0
 11
-99.29638500000001
 21
249.0818809999999
 31
0.0
  0
TEXT
  5
B8
330
19
100
AcDbEntity
  8
0
100
AcDbText
 10
-131.616385
 20
159.981881
 30
0.0
 40
3.5
  1
囲
 41
0.8
  7
BIGFONT
100
AcDbText
  0
TEXT
  5
B9
330
19
100
AcDbEntity
  8
0
100
AcDbText
 10
-131.616385
 20
164.181881
 30
0.0
 40
3.5
  1
範
 41
0.8
  7
BIGFONT
100
AcDbText
  0
TEXT
  5
BA
330
19
100
AcDbEntity
  8
0
100
AcDbText
 10
-131.616385
 20
168.3818809999999
 30
0.0
 40
3.5
  1
定
 41
0.8
  7
BIGFONT
100
AcDbText
  0
TEXT
  5
BB
330
19
100
AcDbEntity
  8
0
100
AcDbText
 10
-131.616385
 20
172.5818809999999
 30
0.0
 40
3.5
  1
設
 41
0.8
  7
BIGFONT
100
AcDbText
  0
TEXT
  5
BC
330
19
100
AcDbEntity
  8
0
100
AcDbText
 10
-125.616385
 20
154.081881
 30
0.0
 40
3.5
  1
周囲温度
 41
0.8
  7
BIGFONT
100
AcDbText
  0
TEXT
  5
BD
330
19
100
AcDbEntity
  8
0
100
AcDbText
 10
-125.616385
 20
142.081881
 30
0.0
 40
3.5
  1
標高
 41
0.8
  7
BIGFONT
100
AcDbText
  0
TEXT
  5
BE
330
19
100
AcDbEntity
  8
0
100
AcDbText
 10
-125.616385
 20
136.081881
 30
0.0
 40
3.5
  1
雰囲気
 41
0.8
  7
BIGFONT
100
AcDbText
  0
TEXT
  5
BF
330
19
100
AcDbEntity
  8
0
100
AcDbText
 10
-125.616385
 20
148.081881
 30
0.0
 40
3.5
  1
相対湿度
 41
0.8
  7
BIGFONT
100
AcDbText
  0
LINE
  5
C0
330
19
100
AcDbEntity
  8
0
100
AcDbLine
 10
-132.796385
 20
253.0818809999999
 30
0.0
 11
-115.296385
 21
253.0818809999999
 31
0.0
  0
TEXT
  5
C1
330
19
100
AcDbEntity
  8
0
100
AcDbText
 10
-129.4713849999999
 20
253.706881
 30
0.0
 40
5.0
  1
仕　様
 41
0.8
  7
BIGFONT
100
AcDbText
  0
TEXT
  5
C2
330
19
100
AcDbEntity
  8
0
100
AcDbText
 10
-71.18771800000001
 20
113.081881
 30
0.0
 40
3.5
  1
マンセル　Ｎ－２．０
 41
0.786667
  7
BIGFONT
100
AcDbText
  0
TEXT
  5
C3
330
19
100
AcDbEntity
  8
0
100
AcDbText
 10
-64.192385
 20
107.081881
 30
0.0
 40
3.5
  1
0.3kg
 41
0.9279999999999999
  7
MONOTXT
100
AcDbText
  0
TEXT
  5
C4
330
19
100
AcDbEntity
  8
0
100
AcDbText
 10
-130.616385
 20
107.081881
 30
0.0
 40
3.5
  1
概略質量
 41
0.8
  7
BIGFONT
100
AcDbText
  0
TEXT
  5
C5
330
19
100
AcDbEntity
  8
0
100
AcDbText
 10
-130.616385
 20
113.081881
 30
0.0
 40
3.5
  1
外　形　色
 41
0.8
  7
BIGFONT
100
AcDbText
  0
TEXT
  5
C6
330
19
100
AcDbEntity
  8
0
100
AcDbText
 10
-130.616385
 20
121.581881
 30
0.0
 40
3.5
  1
耐　電　圧
 41
0.8
  7
BIGFONT
100
AcDbText
  0
TEXT
  5
C7
330
19
100
AcDbEntity
  8
0
100
AcDbText
 10
-125.616385
 20
160.0818809999999
 30
0.0
 40
3.5
  1
ショックタイム
 41
0.8
  7
BIGFONT
100
AcDbText
  0
TEXT
  5
C8
330
19
100
AcDbEntity
  8
0
100
AcDbText
 10
-125.616385
 20
166.081881
 30
0.0
 40
3.5
  1
スタ－トタイム
 41
0.8
  7
BIGFONT
100
AcDbText
  0
TEXT
  5
C9
330
19
100
AcDbEntity
  8
0
100
AcDbText
 10
-125.616385
 20
172.081881
 30
0.0
 40
3.5
  1
ロ－ドカレント
 41
0.8
  7
BIGFONT
100
AcDbText
  0
TEXT
  5
CA
330
19
100
AcDbEntity
  8
0
100
AcDbText
 10
-130.616385
 20
235.581881
 30
0.0
 40
3.5
  1
適用モ－タ容量
 41
0.8
  7
BIGFONT
100
AcDbText
  0
TEXT
  5
CB
330
19
100
AcDbEntity
  8
0
100
AcDbText
 10
-131.616385
 20
214.081881
 30
0.0
 40
3.5
  1
源
 41
0.8
  7
BIGFONT
100
AcDbText
  0
TEXT
  5
CC
330
19
100
AcDbEntity
  8
0
100
AcDbText
 10
-131.616385
 20
226.0818809999999
 30
0.0
 40
3.5
  1
電
 41
0.8
  7
BIGFONT
100
AcDbText
  0
LINE
  5
CD
330
19
100
AcDbEntity
  8
0
100
AcDbLine
 10
-128.296385
 20
177.081881
 30
0.0
 11
-128.296385
 21
155.081881
 31
0.0
  0
TEXT
  5
CE
330
19
100
AcDbEntity
  8
0
100
AcDbText
 10
-125.616385
 20
226.0818809999999
 30
0.0
 40
3.5
  1
定格電圧
 41
0.8
  7
BIGFONT
100
AcDbText
  0
LINE
  5
CF
330
19
100
AcDbEntity
  8
0
100
AcDbLine
 10
-128.296385
 20
219.081881
 30
0.0
 11
-12.446385
 21
219.081881
 31
0.0
  0
TEXT
  5
D0
330
19
100
AcDbEntity
  8
0
100
AcDbText
 10
-125.616385
 20
220.081881
 30
0.0
 40
3.5
  1
許容電圧変動
 41
0.8
  7
BIGFONT
100
AcDbText
  0
TEXT
  5
D1
330
19
100
AcDbEntity
  8
0
100
AcDbText
 10
-125.616385
 20
214.081881
 30
0.0
 40
3.5
  1
周波数
 41
0.8
  7
BIGFONT
100
AcDbText
  0
LINE
  5
D2
330
19
100
AcDbEntity
  8
0
100
AcDbLine
 10
-99.29638500000001
 20
249.0818809999999
 30
0.0
 11
-12.146385
 21
249.0818809999999
 31
0.0
  0
TEXT
  5
D3
330
19
100
AcDbEntity
  8
0
100
AcDbText
 10
-68.790459
 20
238.081881
 30
0.0
 40
3.5
  1
０．２～３．７ｋＷ
 41
0.77037
  7
BIGFONT
100
AcDbText
  0
TEXT
  5
D4
330
19
100
AcDbEntity
  8
0
100
AcDbText
 10
-72.31638499999999
 20
232.081881
 30
0.0
 40
3.5
  1
AC200/400V
 41
0.9599999999999999
  7
MONOTXT
100
AcDbText
  0
TEXT
  5
D5
330
19
100
AcDbEntity
  8
0
100
AcDbText
 10
-79.316385
 20
172.081881
 30
0.0
 40
3.5
  1
モータ定格電流の５０～１３０％
 41
0.8
  7
BIGFONT
100
AcDbText
  0
TEXT
  5
D6
330
19
100
AcDbEntity
  8
0
100
AcDbText
 10
-58.03638499999999
 20
166.081881
 30
0.0
 40
3.5
  1
3s
 41
0.937143
  7
MONOTXT
100
AcDbText
  0
TEXT
  5
D7
330
19
100
AcDbEntity
  8
0
100
AcDbText
 10
-64.001941
 20
160.0818809999999
 30
0.0
 40
3.5
  1
０．３　～　３ｓ
 41
0.777778
  7
BIGFONT
100
AcDbText
  0
TEXT
  5
D8
330
19
100
AcDbEntity
  8
0
100
AcDbText
 10
-93.81638499999999
 20
226.0818809999999
 30
0.0
 40
3.5
  1
100/110VAC
 41
0.9599999999999999
  7
MONOTXT
100
AcDbText
  0
TEXT
  5
D9
330
19
100
AcDbEntity
  8
0
100
AcDbText
 10
-49.81638499999999
 20
226.0818809999999
 30
0.0
 40
3.5
  1
200/220VAC
 41
0.9599999999999999
  7
MONOTXT
100
AcDbText
  0
TEXT
  5
DA
330
19
100
AcDbEntity
  8
0
100
AcDbText
 10
-71.09769
 20
220.081881
 30
0.0
 40
3.5
  1
定格電圧の　%%p１０％
 41
0.735519
  7
BIGFONT
100
AcDbText
  0
TEXT
  5
DB
330
19
100
AcDbEntity
  8
0
100
AcDbText
 10
-67.27638500000001
 20
214.081881
 30
0.0
 40
3.5
  1
50/60Hz
 41
0.9599999999999999
  7
MONOTXT
100
AcDbText
  0
LINE
  5
DC
330
19
100
AcDbEntity
  8
0
100
AcDbLine
 10
-133.296385
 20
195.081881
 30
0.0
 11
-12.446385
 21
195.081881
 31
0.0
  0
TEXT
  5
DD
330
19
100
AcDbEntity
  8
0
100
AcDbText
 10
-131.616385
 20
154.081881
 30
0.0
 40
3.5
  1
使
 41
0.8
  7
BIGFONT
100
AcDbText
  0
TEXT
  5
DE
330
19
100
AcDbEntity
  8
0
100
AcDbText
 10
-131.616385
 20
146.081881
 30
0.0
 40
3.5
  1
用
 41
0.8
  7
BIGFONT
100
AcDbText
  0
TEXT
  5
DF
330
19
100
AcDbEntity
  8
0
100
AcDbText
 10
-131.616385
 20
138.081881
 30
0.0
 40
3.5
  1
環
 41
0.8
  7
BIGFONT
100
AcDbText
  0
TEXT
  5
E0
330
19
100
AcDbEntity
  8
0
100
AcDbText
 10
-131.616385
 20
130.081881
 30
0.0
 40
3.5
  1
境
 41
0.8
  7
BIGFONT
100
AcDbText
  0
TEXT
  5
E1
330
19
100
AcDbEntity
  8
0
100
AcDbText
 10
-67.55638499999999
 20
154.081881
 30
0.0
 40
3.5
  1
－１０～＋５０℃
 41
0.8
  7
BIGFONT
100
AcDbText
  0
TEXT
  5
E2
330
19
100
AcDbEntity
  8
0
100
AcDbText
 10
-86.036385
 20
148.081881
 30
0.0
 40
3.5
  1
４５～８５％　（ただし結露のないこと）
 41
0.8
  7
BIGFONT
100
AcDbText
  0
TEXT
  5
E3
330
19
100
AcDbEntity
  8
0
100
AcDbText
 10
-65.876385
 20
142.081881
 30
0.0
 40
3.5
  1
１０００ｍ以下
 41
0.8
  7
BIGFONT
100
AcDbText
  0
TEXT
  5
E4
330
19
100
AcDbEntity
  8
0
100
AcDbText
 10
-77.636385
 20
136.081881
 30
0.0
 40
3.5
  1
腐食性ガス、塵あいのないこと
 41
0.8
  7
BIGFONT
100
AcDbText
  0
TEXT
  5
E5
330
19
100
AcDbEntity
  8
0
100
AcDbText
 10
-56.09638399999999
 20
226.0818809999999
 30
0.0
 40
2.5
  1
又は
 41
0.8
  7
BIGFONT
100
AcDbText
  0
LINE
  5
E6
330
19
100
AcDbEntity
  8
0
100
AcDbLine
 10
-133.296385
 20
213.081881
 30
0.0
 11
-12.446385
 21
213.081881
 31
0.0
  0
TEXT
  5
E7
330
19
100
AcDbEntity
  8
0
100
AcDbText
 10
-130.616385
 20
196.081881
 30
0.0
 40
3.5
  1
消費電力
 41
0.8
  7
BIGFONT
100
AcDbText
  0
TEXT
  5
E8
330
19
100
AcDbEntity
  8
0
100
AcDbText
 10
-87.462051
 20
196.081881
 30
0.0
 40
3.5
  1
通常時　０．５ＶＡ　リレー動作時　２ＶＡ
 41
0.793333
  7
BIGFONT
100
AcDbText
  0
LINE
  5
E9
330
19
100
AcDbEntity
  8
0
100
AcDbLine
 10
-121.796385
 20
189.081881
 30
0.0
 11
-12.446385
 21
189.081881
 31
0.0
  0
TEXT
  5
EA
330
19
100
AcDbEntity
  8
0
100
AcDbText
 10
-56.78208299999999
 20
184.081881
 30
0.0
 40
3.5
  1
（誘導負荷ｃｏｓ%%c＝０．４）
 41
0.7445310000000001
  7
BIGFONT
100
AcDbText
  0
TEXT
  5
EB
330
19
100
AcDbEntity
  8
0
100
AcDbText
 10
-58.991385
 20
178.206881
 30
0.0
 40
3.5
  1
自動復帰
 41
0.8
  7
BIGFONT
100
AcDbText
  0
TEXT
  5
EC
330
19
100
AcDbEntity
  8
0
100
AcDbText
 10
-71.58638499999999
 20
184.081881
 30
0.0
 40
3.5
  1
0.1A
 41
0.9200000000000001
  7
MONOTXT
100
AcDbText
  0
TEXT
  5
ED
330
19
100
AcDbEntity
  8
0
100
AcDbText
 10
-94.016385
 20
184.081881
 30
0.0
 40
3.5
  1
250VAC
 41
0.9599999999999999
  7
MONOTXT
100
AcDbText
  0
TEXT
  5
EE
330
19
100
AcDbEntity
  8
0
100
AcDbText
 10
-58.376385
 20
190.081881
 30
0.0
 40
3.5
  1
1c
 41
0.9599999999999999
  7
MONOTXT
100
AcDbText
  0
TEXT
  5
EF
330
19
100
AcDbEntity
  8
0
100
AcDbText
 10
-118.996385
 20
184.081881
 30
0.0
 40
3.75
  1
接点容量
 41
0.8
  7
BIGFONT
100
AcDbText
  0
TEXT
  5
F0
330
19
100
AcDbEntity
  8
0
100
AcDbText
 10
-119.116385
 20
190.081881
 30
0.0
 40
3.5
  1
接点構成
 41
0.8
  7
BIGFONT
100
AcDbText
  0
TEXT
  5
F1
330
19
100
AcDbEntity
  8
0
100
AcDbText
 10
-130.616385
 20
187.081881
 30
0.0
 40
3.5
  1
リレー
 41
0.8
  7
BIGFONT
100
AcDbText
  0
LINE
  5
F2
330
19
100
AcDbEntity
  8
0
100
AcDbLine
 10
-121.796385
 20
183.081881
 30
0.0
 11
-12.446385
 21
183.081881
 31
0.0
  0
LINE
  5
F3
330
19
100
AcDbEntity
  8
0
100
AcDbLine
 10
-133.296385
 20
177.081881
 30
0.0
 11
-12.446385
 21
177.081881
 31
0.0
  0
TEXT
  5
F4
330
19
100
AcDbEntity
  8
0
100
AcDbText
 10
-118.996385
 20
178.081881
 30
0.0
 40
3.75
  1
復　帰
 41
0.8
  7
BIGFONT
100
AcDbText
  0
LINE
  5
F5
330
19
100
AcDbEntity
  8
0
100
AcDbLine
 10
-121.796385
 20
195.081881
 30
0.0
 11
-121.796385
 21
177.081881
 31
0.0
  0
TEXT
  5
F6
330
19
100
AcDbEntity
  8
0
100
AcDbText
 10
-130.616385
 20
181.581881
 30
0.0
 40
3.5
  1
出力
 41
0.8
  7
BIGFONT
100
AcDbText
  0
TEXT
  5
F7
330
19
100
AcDbEntity
  8
0
100
AcDbText
 10
-90.43725400000001
 20
130.081881
 30
0.0
 40
3.5
  1
５．９ｍ／ｓ　以下　（ＪＩＳ　Ｃ０９１１準拠）
 41
0.747826
  7
BIGFONT
100
AcDbText
  0
LINE
  5
F8
330
19
100
AcDbEntity
  8
0
100
AcDbLine
 10
-128.296385
 20
135.081881
 30
0.0
 11
-12.446385
 21
135.081881
 31
0.0
  0
TEXT
  5
F9
330
19
100
AcDbEntity
  8
0
100
AcDbText
 10
-125.616385
 20
130.081881
 30
0.0
 40
3.5
  1
振動
 41
0.8
  7
BIGFONT
100
AcDbText
  0
TEXT
  5
FA
330
19
100
AcDbEntity
  8
0
100
AcDbText
 10
-97.33638499999999
 20
124.081881
 30
0.0
 40
3.5
  1
リレー出力端子、電源端子と対地間　１５００ＶＡＣ１分間
 41
0.742857
  7
BIGFONT
100
AcDbText
  0
TEXT
  5
FB
330
19
100
AcDbEntity
  8
0
100
AcDbText
 10
-97.595495
 20
119.081881
 30
0.0
 40
3.5
  1
リレー出力端子、電源端子相互間　　　　１５００ＶＡＣ　１分間
 41
0.6755560000000001
  7
BIGFONT
100
AcDbText
  0
TEXT
  5
FC
330
19
100
AcDbEntity
  8
0
100
AcDbText
 10
-73.796385
 20
132.581881
 30
0.0
 40
2.0
  1
2
 41
0.8
  7
MONOTXT
100
AcDbText
  0
LINE
  5
FD
330
19
100
AcDbEntity
  8
0
100
AcDbLine
 10
-99.29638500000001
 20
237.081881
 30
0.0
 11
-12.446385
 21
237.081881
 31
0.0
  0
DIMENSION
  5
FE
330
19
100
AcDbEntity
  8
PV
100
AcDbDimension
  2
*D2
 10
-314.410322
 20
82.046577
 30
0.0
 11
83.13824399999999
 21
317.810322
 31
0.0
100
AcDbAlignedDimension
 13
-323.434996
 23
93.04657699999999
 33
0.0
 14
-323.364483
 24
82.046577
 34
0.0
 50
270.0
100
AcDbRotatedDimension
  0
DIMENSION
  5
FF
330
19
100
AcDbEntity
  8
PV
100
AcDbDimension
  2
*D3
 10
-301.2106729999999
 20
82.046577
 30
0.0
 11
116.63824
 21
304.610673
 31
0.0
100
AcDbAlignedDimension
 13
-323.864484
 23
160.046577
 33
0.0
 14
-323.364484
 24
82.046577
 34
0.0
 50
270.0
100
AcDbRotatedDimension
  0
DIMENSION
  5
100
330
19
100
AcDbEntity
  8
PV
100
AcDbDimension
  2
*D4
 10
-383.364483
 20
175.1581129999999
 30
0.0
 11
-357.7728169999999
 21
178.5581129999999
 31
0.0
100
AcDbAlignedDimension
 13
-323.364483
 23
197.546577
 33
0.0
 14
-383.364483
 24
196.546577
 34
0.0
 50
180.0
100
AcDbRotatedDimension
  0
DIMENSION
  5
101
330
19
100
AcDbEntity
  8
PV
100
AcDbDimension
  2
*D5
 10
-378.364483
 20
182.839128
 30
0.0
 11
-357.7728169999999
 21
186.2391279999999
 31
0.0
100
AcDbAlignedDimension
 13
-328.364483
 23
196.546577
 33
0.0
 14
-378.364483
 24
254.546579
 34
0.0
 50
180.0
100
AcDbRotatedDimension
  0
DIMENSION
  5
102
330
19
100
AcDbEntity
  8
PV
100
AcDbDimension
  2
*D6
 10
-330.614483
 20
187.639762
 30
0.0
 11
-343.12113
 21
191.039762
 31
0.0
100
AcDbAlignedDimension
 13
-326.114483
 23
200.546577
 33
0.0
 14
-330.614483
 24
200.546577
 34
0.0
 50
180.0
100
AcDbRotatedDimension
  0
DIMENSION
  5
103
330
19
100
AcDbEntity
  8
PV
100
AcDbDimension
  2
*D7
 10
-389.017038
 20
262.796577
 30
0.0
 11
243.9558959999999
 21
392.417037
 31
0.0
100
AcDbAlignedDimension
 13
-378.364482
 23
256.296577
 33
0.0
 14
-378.364482
 24
262.796577
 34
0.0
 50
90.0
100
AcDbRotatedDimension
  0
LINE
  5
104
330
19
100
AcDbEntity
  8
PV
  6
CENTER
100
AcDbLine
 10
-328.364483
 20
206.546577
 30
0.0
 11
-328.364483
 21
196.546577
 31
0.0
  0
LINE
  5
105
330
19
100
AcDbEntity
  8
PV
  6
CENTER
100
AcDbLine
 10
-323.364483
 20
201.546577
 30
0.0
 11
-333.364483
 21
201.546577
 31
0.0
  0
LINE
  5
106
330
19
100
AcDbEntity
  8
PV
  6
CENTER
100
AcDbLine
 10
-378.364483
 20
264.546577
 30
0.0
 11
-378.364483
 21
254.546577
 31
0.0
  0
LINE
  5
107
330
19
100
AcDbEntity
  8
PV
  6
CENTER
100
AcDbLine
 10
-373.364483
 20
259.546577
 30
0.0
 11
-383.364483
 21
259.546577
 31
0.0
  0
DIMENSION
  5
108
330
19
100
AcDbEntity
  8
PV
100
AcDbDimension
  2
*D8
 10
-301.2106729999999
 20
195.546577
 30
0.0
 11
226.13824
 21
304.610672
 31
0.0
100
AcDbAlignedDimension
 13
-324.3644839999999
 23
265.546577
 33
0.0
 14
-325.364484
 24
195.546577
 34
0.0
 50
270.0
100
AcDbRotatedDimension
  0
DIMENSION
  5
109
330
19
100
AcDbEntity
  8
PV
100
AcDbDimension
  2
*D9
 10
-314.410322
 20
201.546577
 30
0.0
 11
226.1382439999999
 21
317.8103209999999
 31
0.0
100
AcDbAlignedDimension
 13
-375.864481
 23
259.546577
 33
0.0
 14
-325.864483
 24
201.546577
 34
0.0
 50
270.0
100
AcDbRotatedDimension
  0
CIRCLE
  5
10A
330
19
100
AcDbEntity
  8
PV
100
AcDbCircle
 10
-378.9387319999999
 20
247.4422
 30
0.0
 40
0.9943790000000001
  0
TEXT
  5
10B
330
19
100
AcDbEntity
  8
PV
100
AcDbText
 10
-331.2590589999999
 20
225.744128
 30
0.0
 40
1.7
  1
3
 41
0.9375
  7
MONOTXT
100
AcDbText
  0
TEXT
  5
10C
330
19
100
AcDbEntity
  8
PV
100
AcDbText
 10
-332.859373
 20
235.715316
 30
0.0
 40
1.7
  1
2
 41
0.9375
  7
MONOTXT
100
AcDbText
  0
TEXT
  5
10D
330
19
100
AcDbEntity
  8
PV
100
AcDbText
 10
-343.127712
 20
232.755193
 30
0.0
 40
2.0
  1
1
 41
0.9375
  7
MONOTXT
100
AcDbText
  0
TEXT
  5
10E
330
19
100
AcDbEntity
  8
PV
100
AcDbText
 10
-345.395773
 20
227.713746
 30
0.0
 40
1.7
  1
0.5
 41
0.6400000000000001
  7
MONOTXT
100
AcDbText
  0
TEXT
  5
10F
330
19
100
AcDbEntity
  8
PV
100
AcDbText
 10
-344.1647619999999
 20
225.067072
 30
0.0
 40
1.7
  1
0.3
 41
0.6400000000000001
  7
MONOTXT
100
AcDbText
  0
TEXT
  5
110
330
19
100
AcDbEntity
  8
PV
100
AcDbText
 10
-350.5178139999999
 20
224.6362189999999
 30
0.0
 40
1.7
  1
130
 41
0.9375
  7
MONOTXT
100
AcDbText
  0
TEXT
  5
111
330
19
100
AcDbEntity
  8
PV
100
AcDbText
 10
-350.5178139999999
 20
235.2229109999999
 30
0.0
 40
1.7
  1
100
 41
0.9375
  7
MONOTXT
100
AcDbText
  0
TEXT
  5
112
330
19
100
AcDbEntity
  8
PV
100
AcDbText
 10
-361.538642
 20
232.883991
 30
0.0
 40
1.7
  1
70
 41
0.9375
  7
MONOTXT
100
AcDbText
  0
TEXT
  5
113
330
19
100
AcDbEntity
  8
PV
100
AcDbText
 10
-360.492283
 20
224.943971
 30
0.0
 40
1.7
  1
50
 41
0.9375
  7
MONOTXT
100
AcDbText
  0
LINE
  5
29B
330
19
100
AcDbEntity
  8
PV
100
AcDbLine
 10
-345.024211
 20
214.5344039999999
 30
0.0
 11
-345.024211
 21
214.395908
 31
0.0
  0
LINE
  5
29C
330
19
100
AcDbEntity
  8
PV
100
AcDbLine
 10
-345.9825089999999
 20
214.5344039999999
 30
0.0
 11
-345.9825089999999
 21
214.395908
 31
0.0
  0
LWPOLYLINE
  5
29D
330
19
100
AcDbEntity
  8
PV
100
AcDbPolyline
 90
       73
 70
     0
 43
0.0
 10
-325.9408829999999
 20
213.515178
 10
-325.9413739999999
 20
213.524231
 10
-325.9428419999999
 20
213.5332149999999
 10
-325.9452759999999
 20
213.542062
 10
-325.948658
 20
213.5507039999999
 10
-325.952962
 20
213.5590759999999
 10
-325.958155
 20
213.5671139999999
 10
-325.964198
 20
213.5747569999999
 10
-325.971044
 20
213.581946
 10
-325.9786419999999
 20
213.5886269999999
 10
-325.9869339999999
 20
213.594749
 10
-325.995857
 20
213.600265
 10
-326.0053419999999
 20
213.6051339999999
 10
-326.015318
 20
213.609318
 10
-326.025709
 20
213.612786
 10
-326.0364349999999
 20
213.615511
 10
-326.047415
 20
213.617472
 10
-326.058566
 20
213.618655
 10
-326.0698019999999
 20
213.61905
 10
-326.0810379999999
 20
213.618655
 10
-326.092189
 20
213.617472
 10
-326.1031689999999
 20
213.615511
 10
-326.113895
 20
213.612786
 10
-326.1242859999999
 20
213.609318
 10
-326.134262
 20
213.6051339999999
 10
-326.143747
 20
213.600265
 10
-326.15267
 20
213.594749
 10
-326.1609619999999
 20
213.5886269999999
 10
-326.16856
 20
213.581946
 10
-326.175406
 20
213.5747569999999
 10
-326.181449
 20
213.5671139999999
 10
-326.186642
 20
213.5590759999999
 10
-326.190946
 20
213.5507039999999
 10
-326.194328
 20
213.542062
 10
-326.196762
 20
213.5332149999999
 10
-326.1982299999999
 20
213.524231
 10
-326.198721
 20
213.515178
 10
-326.1982299999999
 20
213.506125
 10
-326.196762
 20
213.497141
 10
-326.194328
 20
213.488294
 10
-326.190946
 20
213.479652
 10
-326.186642
 20
213.4712799999999
 10
-326.181449
 20
213.4632419999999
 10
-326.175406
 20
213.455599
 10
-326.16856
 20
213.4484099999999
 10
-326.1609619999999
 20
213.441729
 10
-326.15267
 20
213.4356069999999
 10
-326.143747
 20
213.4300909999999
 10
-326.134262
 20
213.425222
 10
-326.1242859999999
 20
213.4210379999999
 10
-326.113895
 20
213.41757
 10
-326.1031689999999
 20
213.414845
 10
-326.092189
 20
213.4128839999999
 10
-326.0810379999999
 20
213.4117009999999
 10
-326.0698019999999
 20
213.411306
 10
-326.058566
 20
213.4117009999999
 10
-326.047415
 20
213.4128839999999
 10
-326.0364349999999
 20
213.414845
 10
-326.025709
 20
213.41757
 10
-326.015318
 20
213.4210379999999
 10
-326.0053419999999
 20
213.425222
 10
-325.995857
 20
213.4300909999999
 10
-325.9869339999999
 20
213.4356069999999
 10
-325.9786419999999
 20
213.441729
 10
-325.971044
 20
213.4484099999999
 10
-325.964198
 20
213.455599
 10
-325.958155
 20
213.4632419999999
 10
-325.952962
 20
213.4712799999999
 10
-325.948658
 20
213.479652
 10
-325.9452759999999
 20
213.488294
 10
-325.9428419999999
 20
213.497141
 10
-325.9413739999999
 20
213.506125
 10
-325.9408829999999
 20
213.515178
  0
LINE
  5
2E8
330
19
100
AcDbEntity
  8
PV
100
AcDbLine
 10
-336.571421
 20
214.5344039999999
 30
0.0
 11
-336.571421
 21
214.395908
 31
0.0
  0
LINE
  5
2E9
330
19
100
AcDbEntity
  8
PV
100
AcDbLine
 10
-335.6131229999999
 20
214.5344039999999
 30
0.0
 11
-335.6131229999999
 21
214.395908
 31
0.0
  0
LINE
  5
2EA
330
19
100
AcDbEntity
  8
PV
100
AcDbLine
 10
-345.9825089999999
 20
214.5344039999999
 30
0.0
 11
-345.024211
 21
214.5344039999999
 31
0.0
  0
LINE
  5
2EB
330
19
100
AcDbEntity
  8
PV
100
AcDbLine
 10
-345.9825089999999
 20
214.395908
 30
0.0
 11
-345.589306
 21
214.395908
 31
0.0
  0
LINE
  5
2EC
330
19
100
AcDbEntity
  8
PV
100
AcDbLine
 10
-345.417414
 20
214.395908
 30
0.0
 11
-345.024211
 21
214.395908
 31
0.0
  0
LINE
  5
2ED
330
19
100
AcDbEntity
  8
PV
100
AcDbLine
 10
-345.589306
 20
214.395908
 30
0.0
 11
-345.589306
 21
213.391812
 31
0.0
  0
LINE
  5
2EE
330
19
100
AcDbEntity
  8
PV
100
AcDbLine
 10
-345.417414
 20
214.395908
 30
0.0
 11
-345.417414
 21
213.391812
 31
0.0
  0
LINE
  5
2EF
330
19
100
AcDbEntity
  8
PV
100
AcDbLine
 10
-345.589306
 20
213.391812
 30
0.0
 11
-345.417414
 21
213.391812
 31
0.0
  0
LWPOLYLINE
  5
2F0
330
19
100
AcDbEntity
  8
PV
100
AcDbPolyline
 90
       41
 70
     0
 43
0.0
 10
-344.046067
 20
214.188164
 10
-344.045754
 20
214.2170549999999
 10
-344.048589
 20
214.245856
 10
-344.05455
 20
214.274346
 10
-344.063591
 20
214.302305
 10
-344.075642
 20
214.329517
 10
-344.09061
 20
214.355771
 10
-344.1083799999999
 20
214.380866
 10
-344.128814
 20
214.4046079999999
 10
-344.1517549999999
 20
214.4268129999999
 10
-344.177027
 20
214.4473109999999
 10
-344.2044329999999
 20
214.465943
 10
-344.2337619999999
 20
214.482565
 10
-344.2647889999999
 20
214.4970499999999
 10
-344.297274
 20
214.509285
 10
-344.330966
 20
214.5191759999999
 10
-344.3656049999999
 20
214.526646
 10
-344.4009249999999
 20
214.531639
 10
-344.4366519999999
 20
214.534116
 10
-344.4725099999999
 20
214.534056
 10
-344.508224
 20
214.531462
 10
-344.543518
 20
214.5263529999999
 10
-344.578119
 20
214.518768
 10
-344.61176
 20
214.5087649999999
 10
-344.6441819999999
 20
214.4964229999999
 10
-344.6751349999999
 20
214.4818359999999
 10
-344.7043799999999
 20
214.4651169999999
 10
-344.731691
 20
214.446395
 10
-344.756858
 20
214.425814
 10
-344.7796859999999
 20
214.403533
 10
-344.8
 20
214.379724
 10
-344.8176419999999
 20
214.354571
 10
-344.8324759999999
 20
214.328267
 10
-344.8443879999999
 20
214.301016
 10
-344.853287
 20
214.273027
 10
-344.859103
 20
214.244518
 10
-344.861791
 20
214.2157069999999
 10
-344.861331
 20
214.186818
 10
-344.857727
 20
214.158072
 10
-344.8510059999999
 20
214.129692
 10
-344.8412189999999
 20
214.101897
  0
LINE
  5
31B
330
19
100
AcDbEntity
  8
PV
100
AcDbLine
 10
-344.046067
 20
214.188164
 30
0.0
 11
-344.218372
 21
214.188164
 31
0.0
  0
LWPOLYLINE
  5
31C
330
19
100
AcDbEntity
  8
PV
100
AcDbPolyline
 90
       42
 70
     0
 43
0.0
 10
-344.218372
 20
214.188164
 10
-344.217395
 20
214.204835
 10
-344.218233
 20
214.22151
 10
-344.2208799999999
 20
214.2380629999999
 10
-344.2253149999999
 20
214.2543649999999
 10
-344.2315049999999
 20
214.270292
 10
-344.239402
 20
214.28572
 10
-344.248945
 20
214.300533
 10
-344.2600609999999
 20
214.314615
 10
-344.272664
 20
214.3278589999999
 10
-344.2866589999999
 20
214.3401639999999
 10
-344.301937
 20
214.351433
 10
-344.3183799999999
 20
214.3615819999999
 10
-344.335864
 20
214.370532
 10
-344.3542529999999
 20
214.378214
 10
-344.373406
 20
214.384569
 10
-344.3931759999999
 20
214.389549
 10
-344.413411
 20
214.3931149999999
 10
-344.433956
 20
214.3952389999999
 10
-344.454653
 20
214.395907
 10
-344.475343
 20
214.3951109999999
 10
-344.4958669999999
 20
214.3928589999999
 10
-344.516068
 20
214.389168
 10
-344.5357899999999
 20
214.384066
 10
-344.5548819999999
 20
214.377593
 10
-344.573197
 20
214.369797
 10
-344.590594
 20
214.36074
 10
-344.606941
 20
214.3504889999999
 10
-344.6221109999999
 20
214.339125
 10
-344.635987
 20
214.326735
 10
-344.6484639999999
 20
214.3134129999999
 10
-344.659446
 20
214.299262
 10
-344.668847
 20
214.284391
 10
-344.676597
 20
214.268914
 10
-344.682634
 20
214.252949
 10
-344.6869139999999
 20
214.23662
 10
-344.6894029999999
 20
214.220052
 10
-344.6900819999999
 20
214.203372
 10
-344.6889459999999
 20
214.186708
 10
-344.6860029999999
 20
214.1701879999999
 10
-344.6812759999999
 20
214.153939
 10
-344.674802
 20
214.1380859999999
  0
LINE
  5
348
330
19
100
AcDbEntity
  8
PV
100
AcDbLine
 10
-344.1937299999999
 20
213.9369959999999
 30
0.0
 11
-344.618123
 21
214.0896789999999
 31
0.0
  0
LWPOLYLINE
  5
349
330
19
100
AcDbEntity
  8
PV
100
AcDbPolyline
 90
       10
 70
     0
 43
0.0
 10
-344.674802
 20
214.138085
 10
-344.671086
 20
214.131113
 10
-344.666628
 20
214.1244299999999
 10
-344.66146
 20
214.1180879999999
 10
-344.655623
 20
214.112134
 10
-344.6491609999999
 20
214.1066149999999
 10
-344.642124
 20
214.101574
 10
-344.6345659999999
 20
214.097048
 10
-344.626545
 20
214.093072
 10
-344.618123
 20
214.0896779999999
  0
LWPOLYLINE
  5
355
330
19
100
AcDbEntity
  8
PV
100
AcDbPolyline
 90
       10
 70
     0
 43
0.0
 10
-344.065076
 20
213.8213729999999
 10
-344.0727939999999
 20
213.8380149999999
 10
-344.0824029999999
 20
213.854004
 10
-344.093819
 20
213.8692029999999
 10
-344.106944
 20
213.883479
 10
-344.121662
 20
213.896706
 10
-344.137847
 20
213.908772
 10
-344.155356
 20
213.919569
 10
-344.174038
 20
213.929005
 10
-344.1937299999999
 20
213.936997
  0
LWPOLYLINE
  5
361
330
19
100
AcDbEntity
  8
PV
100
AcDbPolyline
 90
       41
 70
     0
 43
0.0
 10
-344.861423
 20
213.738052
 10
-344.8617389999999
 20
213.709239
 10
-344.858924
 20
213.6805129999999
 10
-344.853
 20
213.652097
 10
-344.844012
 20
213.6242069999999
 10
-344.8320289999999
 20
213.5970579999999
 10
-344.817143
 20
213.5708589999999
 10
-344.7994689999999
 20
213.5458089999999
 10
-344.779141
 20
213.5221019999999
 10
-344.756316
 20
213.499919
 10
-344.73117
 20
213.479431
 10
-344.703894
 20
213.4607939999999
 10
-344.674699
 20
213.4441529999999
 10
-344.643808
 20
213.429634
 10
-344.611458
 20
213.417349
 10
-344.5778989999999
 20
213.407392
 10
-344.543386
 20
213.399839
 10
-344.5081859999999
 20
213.39475
 10
-344.472568
 20
213.392162
 10
-344.436805
 20
213.392095
 10
-344.4011729999999
 20
213.3945509999999
 10
-344.365943
 20
213.3995089999999
 10
-344.331388
 20
213.4069329999999
 10
-344.297772
 20
213.416765
 10
-344.265352
 20
213.4289299999999
 10
-344.2343789999999
 20
213.443334
 10
-344.205088
 20
213.4598669999999
 10
-344.177706
 20
213.478401
 10
-344.152442
 20
213.498796
 10
-344.129491
 20
213.520894
 10
-344.109027
 20
213.544525
 10
-344.0912089999999
 20
213.569508
 10
-344.076174
 20
213.595652
 10
-344.0640349999999
 20
213.6227569999999
 10
-344.054888
 20
213.650612
 10
-344.0488009999999
 20
213.6790069999999
 10
-344.045821
 20
213.707721
 10
-344.045972
 20
213.736535
 10
-344.0492529999999
 20
213.7652279999999
 10
-344.0556369999999
 20
213.79358
 10
-344.0650769999999
 20
213.8213729999999
  0
LWPOLYLINE
  5
38C
330
19
100
AcDbEntity
  8
PV
100
AcDbPolyline
 90
       41
 70
     0
 43
0.0
 10
-344.689118
 20
213.738052
 10
-344.690095
 20
213.721409
 10
-344.6892629999999
 20
213.7047609999999
 10
-344.686628
 20
213.688235
 10
-344.6822099999999
 20
213.671958
 10
-344.6760429999999
 20
213.656054
 10
-344.668175
 20
213.6406459999999
 10
-344.6586649999999
 20
213.62585
 10
-344.647586
 20
213.6117819999999
 10
-344.635023
 20
213.598547
 10
-344.621073
 20
213.586247
 10
-344.6058419999999
 20
213.5749779999999
 10
-344.589446
 20
213.564824
 10
-344.572012
 20
213.5558629999999
 10
-344.553672
 20
213.548165
 10
-344.534567
 20
213.5417879999999
 10
-344.514844
 20
213.536781
 10
-344.4946519999999
 20
213.5331819999999
 10
-344.474148
 20
213.5310189999999
 10
-344.453487
 20
213.530308
 10
-344.432829
 20
213.5310549999999
 10
-344.41233
 20
213.5332539999999
 10
-344.392149
 20
213.536889
 10
-344.3724389999999
 20
213.5419299999999
 10
-344.3533509999999
 20
213.548341
 10
-344.335033
 20
213.556071
 10
-344.317622
 20
213.565062
 10
-344.301254
 20
213.575245
 10
-344.2860529999999
 20
213.586542
 10
-344.272136
 20
213.5988649999999
 10
-344.25961
 20
213.612122
 10
-344.2485689999999
 20
213.626211
 10
-344.239099
 20
213.641023
 10
-344.231272
 20
213.656445
 10
-344.2251479999999
 20
213.6723589999999
 10
-344.220775
 20
213.688644
 10
-344.2181839999999
 20
213.705174
 10
-344.217397
 20
213.721824
 10
-344.21842
 20
213.7384649999999
 10
-344.221243
 20
213.754971
 10
-344.225847
 20
213.771215
  0
LINE
  5
3B7
330
19
100
AcDbEntity
  8
PV
100
AcDbLine
 10
-344.284042
 20
213.826724
 30
0.0
 11
-344.7167609999999
 21
213.989267
 31
0.0
  0
LWPOLYLINE
  5
3B8
330
19
100
AcDbEntity
  8
PV
100
AcDbPolyline
 90
       10
 70
     0
 43
0.0
 10
-344.225847
 20
213.771214
 10
-344.229063
 20
213.779129
 10
-344.2332079999999
 20
213.7867589999999
 10
-344.238245
 20
213.7940319999999
 10
-344.2441249999999
 20
213.800881
 10
-344.250795
 20
213.807244
 10
-344.258194
 20
213.81306
 10
-344.266252
 20
213.8182769999999
 10
-344.274894
 20
213.822846
 10
-344.284042
 20
213.826724
  0
LWPOLYLINE
  5
3C4
330
19
100
AcDbEntity
  8
PV
100
AcDbPolyline
 90
       10
 70
     0
 43
0.0
 10
-344.8412189999999
 20
214.101897
 10
-344.8335779999999
 20
214.085814
 10
-344.8241649999999
 20
214.070352
 10
-344.813056
 20
214.0556389999999
 10
-344.8003429999999
 20
214.0417939999999
 10
-344.7861299999999
 20
214.0289319999999
 10
-344.770532
 20
214.017156
 10
-344.753678
 20
214.006564
 10
-344.7357049999999
 20
213.997243
 10
-344.7167609999999
 20
213.989267
  0
LINE
  5
3D0
330
19
100
AcDbEntity
  8
PV
100
AcDbLine
 10
-344.861422
 20
213.738052
 30
0.0
 11
-344.689117
 21
213.738052
 31
0.0
  0
LINE
  5
3D1
330
19
100
AcDbEntity
  8
PV
100
AcDbLine
 10
-343.7833659999999
 20
213.7207399999999
 30
0.0
 11
-343.7833659999999
 21
214.5344039999999
 31
0.0
  0
LINE
  5
3D2
330
19
100
AcDbEntity
  8
PV
100
AcDbLine
 10
-343.7833659999999
 20
214.5344039999999
 30
0.0
 11
-343.611474
 21
214.5344039999999
 31
0.0
  0
LINE
  5
3D3
330
19
100
AcDbEntity
  8
PV
100
AcDbLine
 10
-343.611474
 20
213.7207399999999
 30
0.0
 11
-343.611474
 21
214.5344039999999
 31
0.0
  0
LWPOLYLINE
  5
3D4
330
19
100
AcDbEntity
  8
PV
100
AcDbPolyline
 90
       36
 70
     0
 43
0.0
 10
-343.7833659999999
 20
213.7207399999999
 10
-343.7817219999999
 20
213.6912549999999
 10
-343.7768049999999
 20
213.662008
 10
-343.768654
 20
213.633233
 10
-343.7573339999999
 20
213.6051629999999
 10
-343.7429369999999
 20
213.5780229999999
 10
-343.725578
 20
213.5520329999999
 10
-343.7053979999999
 20
213.5274009999999
 10
-343.6825589999999
 20
213.5043259999999
 10
-343.6572439999999
 20
213.482993
 10
-343.629658
 20
213.463574
 10
-343.600022
 20
213.4462249999999
 10
-343.5685759999999
 20
213.431087
 10
-343.535572
 20
213.4182819999999
 10
-343.5012759999999
 20
213.407911
 10
-343.4659649999999
 20
213.4000589999999
 10
-343.429922
 20
213.3947889999999
 10
-343.393438
 20
213.392143
 10
-343.356806
 20
213.392143
 10
-343.320322
 20
213.3947889999999
 10
-343.284279
 20
213.4000589999999
 10
-343.2489679999999
 20
213.407911
 10
-343.2146719999999
 20
213.4182819999999
 10
-343.181668
 20
213.431087
 10
-343.150222
 20
213.4462249999999
 10
-343.1205859999999
 20
213.463574
 10
-343.093
 20
213.482993
 10
-343.0676849999999
 20
213.5043259999999
 10
-343.044846
 20
213.5274009999999
 10
-343.024666
 20
213.5520329999999
 10
-343.0073069999999
 20
213.5780229999999
 10
-342.9929099999999
 20
213.6051629999999
 10
-342.9815899999999
 20
213.633233
 10
-342.973439
 20
213.662008
 10
-342.968522
 20
213.6912549999999
 10
-342.9668779999999
 20
213.7207399999999
  0
LWPOLYLINE
  5
3FA
330
19
100
AcDbEntity
  8
PV
100
AcDbPolyline
 90
       36
 70
     0
 43
0.0
 10
-343.611474
 20
213.7207399999999
 10
-343.6105219999999
 20
213.70367
 10
-343.6076749999999
 20
213.686737
 10
-343.602956
 20
213.6700779999999
 10
-343.5964029999999
 20
213.6538269999999
 10
-343.5880669999999
 20
213.638115
 10
-343.578018
 20
213.623068
 10
-343.566334
 20
213.608807
 10
-343.553112
 20
213.595447
 10
-343.538456
 20
213.583097
 10
-343.522485
 20
213.571854
 10
-343.505327
 20
213.5618109999999
 10
-343.487122
 20
213.553046
 10
-343.468014
 20
213.5456319999999
 10
-343.4481589999999
 20
213.539628
 10
-343.4277149999999
 20
213.535083
 10
-343.406848
 20
213.532031
 10
-343.3857259999999
 20
213.5304999999999
 10
-343.364518
 20
213.5304999999999
 10
-343.3433959999999
 20
213.532031
 10
-343.322529
 20
213.535083
 10
-343.302085
 20
213.539628
 10
-343.2822299999999
 20
213.5456319999999
 10
-343.263122
 20
213.553046
 10
-343.2449169999999
 20
213.5618109999999
 10
-343.2277589999999
 20
213.571854
 10
-343.211788
 20
213.583097
 10
-343.197132
 20
213.595447
 10
-343.18391
 20
213.608807
 10
-343.1722259999999
 20
213.623068
 10
-343.162177
 20
213.638115
 10
-343.1538409999999
 20
213.6538269999999
 10
-343.147288
 20
213.6700779999999
 10
-343.1425689999999
 20
213.686737
 10
-343.139722
 20
213.70367
 10
-343.13877
 20
213.7207399999999
  0
LINE
  5
420
330
19
100
AcDbEntity
  8
PV
100
AcDbLine
 10
-343.138771
 20
213.7207399999999
 30
0.0
 11
-343.138771
 21
214.5344039999999
 31
0.0
  0
LINE
  5
421
330
19
100
AcDbEntity
  8
PV
100
AcDbLine
 10
-342.966879
 20
213.7207399999999
 30
0.0
 11
-342.966879
 21
214.5344039999999
 31
0.0
  0
LINE
  5
422
330
19
100
AcDbEntity
  8
PV
100
AcDbLine
 10
-342.966879
 20
214.5344039999999
 30
0.0
 11
-343.138771
 21
214.5344039999999
 31
0.0
  0
LINE
  5
423
330
19
100
AcDbEntity
  8
PV
100
AcDbLine
 10
-342.65425
 20
213.388349
 30
0.0
 11
-342.65425
 21
214.5378659999999
 31
0.0
  0
LINE
  5
424
330
19
100
AcDbEntity
  8
PV
100
AcDbLine
 10
-342.65425
 20
214.5378659999999
 30
0.0
 11
-342.252452
 21
214.5378659999999
 31
0.0
  0
LWPOLYLINE
  5
425
330
19
100
AcDbEntity
  8
PV
100
AcDbPolyline
 90
       28
 70
     0
 43
0.0
 10
-341.984868
 20
213.976689
 10
-341.959492
 20
213.9968419999999
 10
-341.9364449999999
 20
214.018736
 10
-341.9159099999999
 20
214.042197
 10
-341.8980499999999
 20
214.0670379999999
 10
-341.8830069999999
 20
214.093062
 10
-341.8709
 20
214.1200629999999
 10
-341.8618259999999
 20
214.147824
 10
-341.855858
 20
214.1761269999999
 10
-341.853041
 20
214.204746
 10
-341.8534
 20
214.2334529999999
 10
-341.8569299999999
 20
214.26202
 10
-341.8636039999999
 20
214.2902199999999
 10
-341.8733689999999
 20
214.317829
 10
-341.8861479999999
 20
214.344627
 10
-341.901838
 20
214.3704029999999
 10
-341.920315
 20
214.394949
 10
-341.941431
 20
214.4180729999999
 10
-341.9650209999999
 20
214.439589
 10
-341.9908939999999
 20
214.4593259999999
 10
-342.0188469999999
 20
214.4771289999999
 10
-342.048657
 20
214.4928539999999
 10
-342.0800859999999
 20
214.506378
 10
-342.112886
 20
214.517593
 10
-342.146795
 20
214.5264089999999
 10
-342.1815439999999
 20
214.5327569999999
 10
-342.216857
 20
214.536586
 10
-342.252452
 20
214.5378659999999
  0
LWPOLYLINE
  5
443
330
19
100
AcDbEntity
  8
PV
100
AcDbPolyline
 90
       30
 70
     0
 43
0.0
 10
-342.209479
 20
213.38835
 10
-342.1744549999999
 20
213.389589
 10
-342.1397
 20
213.393296
 10
-342.105482
 20
213.399443
 10
-342.072064
 20
213.407983
 10
-342.039704
 20
213.418849
 10
-342.00865
 20
213.431959
 10
-341.9791419999999
 20
213.4472109999999
 10
-341.951406
 20
213.4644879999999
 10
-341.925656
 20
213.483656
 10
-341.90209
 20
213.50457
 10
-341.8808899999999
 20
213.527067
 10
-341.862218
 20
213.550974
 10
-341.846218
 20
213.5761079999999
 10
-341.833014
 20
213.6022749999999
 10
-341.8227069999999
 20
213.629273
 10
-341.8153759999999
 20
213.6568959999999
 10
-341.8110779999999
 20
213.684929
 10
-341.809845
 20
213.713159
 10
-341.8116879999999
 20
213.7413669999999
 10
-341.816592
 20
213.7693359999999
 10
-341.824519
 20
213.7968509999999
 10
-341.8354089999999
 20
213.8237009999999
 10
-341.849177
 20
213.849678
 10
-341.865718
 20
213.8745839999999
 10
-341.884904
 20
213.898225
 10
-341.906588
 20
213.9204209999999
 10
-341.930602
 20
213.9409999999999
 10
-341.9567629999999
 20
213.959805
 10
-341.984868
 20
213.976689
  0
LINE
  5
463
330
19
100
AcDbEntity
  8
PV
100
AcDbLine
 10
-342.65425
 20
213.388349
 30
0.0
 11
-342.209479
 21
213.388349
 31
0.0
  0
LINE
  5
464
330
19
100
AcDbEntity
  8
PV
100
AcDbLine
 10
-341.6911299999999
 20
213.391812
 30
0.0
 11
-341.27095
 21
214.5344039999999
 31
0.0
  0
LINE
  5
465
330
19
100
AcDbEntity
  8
PV
100
AcDbLine
 10
-341.6911299999999
 20
213.391812
 30
0.0
 11
-341.511852
 21
213.391812
 31
0.0
  0
LINE
  5
466
330
19
100
AcDbEntity
  8
PV
100
AcDbLine
 10
-341.402859
 20
213.688193
 30
0.0
 11
-340.9095629999999
 21
213.688193
 31
0.0
  0
LINE
  5
467
330
19
100
AcDbEntity
  8
PV
100
AcDbLine
 10
-341.3519289999999
 20
213.826689
 30
0.0
 11
-340.9604939999999
 21
213.826689
 31
0.0
  0
LINE
  5
468
330
19
100
AcDbEntity
  8
PV
100
AcDbLine
 10
-341.3519289999999
 20
213.826689
 30
0.0
 11
-341.1562109999999
 21
214.3589009999999
 31
0.0
  0
LINE
  5
469
330
19
100
AcDbEntity
  8
PV
100
AcDbLine
 10
-340.9604939999999
 20
213.826689
 30
0.0
 11
-341.1562109999999
 21
214.3589009999999
 31
0.0
  0
LINE
  5
46A
330
19
100
AcDbEntity
  8
PV
100
AcDbLine
 10
-340.6212919999999
 20
213.391812
 30
0.0
 11
-341.0414719999999
 21
214.5344039999999
 31
0.0
  0
LINE
  5
46B
330
19
100
AcDbEntity
  8
PV
100
AcDbLine
 10
-341.27095
 20
214.5344039999999
 30
0.0
 11
-341.0414719999999
 21
214.5344039999999
 31
0.0
  0
LINE
  5
46C
330
19
100
AcDbEntity
  8
PV
100
AcDbLine
 10
-340.6212919999999
 20
213.391812
 30
0.0
 11
-340.8005709999999
 21
213.391812
 31
0.0
  0
LINE
  5
46D
330
19
100
AcDbEntity
  8
PV
100
AcDbLine
 10
-340.8005709999999
 20
213.391812
 30
0.0
 11
-340.9095629999999
 21
213.688193
 31
0.0
  0
LINE
  5
46E
330
19
100
AcDbEntity
  8
PV
100
AcDbLine
 10
-340.494362
 20
214.5344039999999
 30
0.0
 11
-340.494362
 21
213.391812
 31
0.0
  0
LINE
  5
46F
330
19
100
AcDbEntity
  8
PV
100
AcDbLine
 10
-340.3224699999999
 20
213.8813929999999
 30
0.0
 11
-340.3224699999999
 21
213.391812
 31
0.0
  0
LINE
  5
470
330
19
100
AcDbEntity
  8
PV
100
AcDbLine
 10
-339.878531
 20
214.5344039999999
 30
0.0
 11
-340.3224699999999
 21
214.0994419999999
 31
0.0
  0
LINE
  5
471
330
19
100
AcDbEntity
  8
PV
100
AcDbLine
 10
-340.494362
 20
214.5344039999999
 30
0.0
 11
-340.3224699999999
 21
214.5344039999999
 31
0.0
  0
LINE
  5
472
330
19
100
AcDbEntity
  8
PV
100
AcDbLine
 10
-339.878531
 20
214.5344039999999
 30
0.0
 11
-339.655982
 21
214.5344039999999
 31
0.0
  0
LINE
  5
473
330
19
100
AcDbEntity
  8
PV
100
AcDbLine
 10
-339.655982
 20
214.5344039999999
 30
0.0
 11
-340.1246049999999
 21
214.075257
 31
0.0
  0
LINE
  5
474
330
19
100
AcDbEntity
  8
PV
100
AcDbLine
 10
-339.602842
 20
213.391812
 30
0.0
 11
-340.1246049999999
 21
214.075257
 31
0.0
  0
LINE
  5
475
330
19
100
AcDbEntity
  8
PV
100
AcDbLine
 10
-339.804649
 20
213.391812
 30
0.0
 11
-340.2400559999999
 21
213.962141
 31
0.0
  0
LINE
  5
476
330
19
100
AcDbEntity
  8
PV
100
AcDbLine
 10
-339.804649
 20
213.391812
 30
0.0
 11
-339.602842
 21
213.391812
 31
0.0
  0
LINE
  5
477
330
19
100
AcDbEntity
  8
PV
100
AcDbLine
 10
-340.494362
 20
213.391812
 30
0.0
 11
-340.3224699999999
 21
213.391812
 31
0.0
  0
LINE
  5
478
330
19
100
AcDbEntity
  8
PV
100
AcDbLine
 10
-339.3555779999999
 20
214.5344039999999
 30
0.0
 11
-339.3555779999999
 21
213.391812
 31
0.0
  0
LINE
  5
479
330
19
100
AcDbEntity
  8
PV
100
AcDbLine
 10
-339.1836859999999
 20
214.5344039999999
 30
0.0
 11
-339.1836859999999
 21
213.391812
 31
0.0
  0
LINE
  5
47A
330
19
100
AcDbEntity
  8
PV
100
AcDbLine
 10
-339.3555779999999
 20
214.5344039999999
 30
0.0
 11
-339.1836859999999
 21
214.5344039999999
 31
0.0
  0
LINE
  5
47B
330
19
100
AcDbEntity
  8
PV
100
AcDbLine
 10
-339.3555779999999
 20
213.391812
 30
0.0
 11
-339.1836859999999
 21
213.391812
 31
0.0
  0
LINE
  5
47C
330
19
100
AcDbEntity
  8
PV
100
AcDbLine
 10
-338.9397049999999
 20
214.5344039999999
 30
0.0
 11
-338.9397049999999
 21
213.391812
 31
0.0
  0
LINE
  5
47D
330
19
100
AcDbEntity
  8
PV
100
AcDbLine
 10
-338.7678129999999
 20
214.0922409999999
 30
0.0
 11
-338.7678129999999
 21
213.391812
 31
0.0
  0
LINE
  5
47E
330
19
100
AcDbEntity
  8
PV
100
AcDbLine
 10
-338.482566
 20
213.391812
 30
0.0
 11
-338.7678129999999
 21
214.0922409999999
 31
0.0
  0
LINE
  5
47F
330
19
100
AcDbEntity
  8
PV
100
AcDbLine
 10
-338.401525
 20
213.624433
 30
0.0
 11
-338.765049
 21
214.5344039999999
 31
0.0
  0
LINE
  5
480
330
19
100
AcDbEntity
  8
PV
100
AcDbLine
 10
-338.0291769999999
 20
214.5344039999999
 30
0.0
 11
-338.401525
 21
213.624433
 31
0.0
  0
LINE
  5
481
330
19
100
AcDbEntity
  8
PV
100
AcDbLine
 10
-338.0351239999999
 20
214.094229
 30
0.0
 11
-338.3225429999999
 21
213.391812
 31
0.0
  0
LINE
  5
482
330
19
100
AcDbEntity
  8
PV
100
AcDbLine
 10
-338.0351239999999
 20
214.094229
 30
0.0
 11
-338.0351239999999
 21
213.391812
 31
0.0
  0
LINE
  5
483
330
19
100
AcDbEntity
  8
PV
100
AcDbLine
 10
-337.8632319999999
 20
214.5344039999999
 30
0.0
 11
-337.8632319999999
 21
213.391812
 31
0.0
  0
LINE
  5
484
330
19
100
AcDbEntity
  8
PV
100
AcDbLine
 10
-338.0291769999999
 20
214.5344039999999
 30
0.0
 11
-337.8632319999999
 21
214.5344039999999
 31
0.0
  0
LINE
  5
485
330
19
100
AcDbEntity
  8
PV
100
AcDbLine
 10
-338.9397049999999
 20
214.5344039999999
 30
0.0
 11
-338.765049
 21
214.5344039999999
 31
0.0
  0
LINE
  5
486
330
19
100
AcDbEntity
  8
PV
100
AcDbLine
 10
-338.482566
 20
213.391812
 30
0.0
 11
-338.3225429999999
 21
213.391812
 31
0.0
  0
LINE
  5
487
330
19
100
AcDbEntity
  8
PV
100
AcDbLine
 10
-338.9397049999999
 20
213.391812
 30
0.0
 11
-338.7678129999999
 21
213.391812
 31
0.0
  0
LINE
  5
488
330
19
100
AcDbEntity
  8
PV
100
AcDbLine
 10
-338.0351239999999
 20
213.391812
 30
0.0
 11
-337.8632319999999
 21
213.391812
 31
0.0
  0
LINE
  5
489
330
19
100
AcDbEntity
  8
PV
100
AcDbLine
 10
-336.178218
 20
214.395908
 30
0.0
 11
-336.178218
 21
213.391812
 31
0.0
  0
LINE
  5
48A
330
19
100
AcDbEntity
  8
PV
100
AcDbLine
 10
-336.571421
 20
214.395908
 30
0.0
 11
-336.178218
 21
214.395908
 31
0.0
  0
LINE
  5
48B
330
19
100
AcDbEntity
  8
PV
100
AcDbLine
 10
-336.571421
 20
214.5344039999999
 30
0.0
 11
-335.6131229999999
 21
214.5344039999999
 31
0.0
  0
LINE
  5
48C
330
19
100
AcDbEntity
  8
PV
100
AcDbLine
 10
-336.0063259999999
 20
214.395908
 30
0.0
 11
-336.0063259999999
 21
213.391812
 31
0.0
  0
LINE
  5
48D
330
19
100
AcDbEntity
  8
PV
100
AcDbLine
 10
-336.0063259999999
 20
214.395908
 30
0.0
 11
-335.6131229999999
 21
214.395908
 31
0.0
  0
LINE
  5
48E
330
19
100
AcDbEntity
  8
PV
100
AcDbLine
 10
-336.178218
 20
213.391812
 30
0.0
 11
-336.0063259999999
 21
213.391812
 31
0.0
  0
LINE
  5
48F
330
19
100
AcDbEntity
  8
PV
100
AcDbLine
 10
-333.1343509999999
 20
214.118916
 30
0.0
 11
-332.958874
 21
214.118916
 31
0.0
  0
LINE
  5
490
330
19
100
AcDbEntity
  8
PV
100
AcDbLine
 10
-333.1343509999999
 20
213.8072999999999
 30
0.0
 11
-332.958874
 21
213.8072999999999
 31
0.0
  0
LINE
  5
491
330
19
100
AcDbEntity
  8
PV
100
AcDbLine
 10
-332.787648
 20
214.5344039999999
 30
0.0
 11
-332.787648
 21
213.391812
 31
0.0
  0
LINE
  5
492
330
19
100
AcDbEntity
  8
PV
100
AcDbLine
 10
-332.615756
 20
214.5344039999999
 30
0.0
 11
-332.615756
 21
214.032356
 31
0.0
  0
LINE
  5
493
330
19
100
AcDbEntity
  8
PV
100
AcDbLine
 10
-332.787648
 20
214.5344039999999
 30
0.0
 11
-332.615756
 21
214.5344039999999
 31
0.0
  0
LINE
  5
494
330
19
100
AcDbEntity
  8
PV
100
AcDbLine
 10
-332.615756
 20
214.032356
 30
0.0
 11
-332.0027039999999
 21
214.032356
 31
0.0
  0
LINE
  5
495
330
19
100
AcDbEntity
  8
PV
100
AcDbLine
 10
-332.0027039999999
 20
214.5344039999999
 30
0.0
 11
-332.0027039999999
 21
214.032356
 31
0.0
  0
LINE
  5
496
330
19
100
AcDbEntity
  8
PV
100
AcDbLine
 10
-332.0027039999999
 20
214.5344039999999
 30
0.0
 11
-331.830812
 21
214.5344039999999
 31
0.0
  0
LINE
  5
497
330
19
100
AcDbEntity
  8
PV
100
AcDbLine
 10
-331.830812
 20
214.5344039999999
 30
0.0
 11
-331.830812
 21
213.391812
 31
0.0
  0
LINE
  5
498
330
19
100
AcDbEntity
  8
PV
100
AcDbLine
 10
-332.0027039999999
 20
213.391812
 30
0.0
 11
-331.830812
 21
213.391812
 31
0.0
  0
LINE
  5
499
330
19
100
AcDbEntity
  8
PV
100
AcDbLine
 10
-332.615756
 20
213.89386
 30
0.0
 11
-332.0027039999999
 21
213.89386
 31
0.0
  0
LINE
  5
49A
330
19
100
AcDbEntity
  8
PV
100
AcDbLine
 10
-332.0027039999999
 20
213.89386
 30
0.0
 11
-332.0027039999999
 21
213.391812
 31
0.0
  0
LINE
  5
49B
330
19
100
AcDbEntity
  8
PV
100
AcDbLine
 10
-332.615756
 20
213.89386
 30
0.0
 11
-332.615756
 21
213.391812
 31
0.0
  0
LINE
  5
49C
330
19
100
AcDbEntity
  8
PV
100
AcDbLine
 10
-332.787648
 20
213.391812
 30
0.0
 11
-332.615756
 21
213.391812
 31
0.0
  0
LINE
  5
49D
330
19
100
AcDbEntity
  8
PV
100
AcDbLine
 10
-330.508554
 20
214.5344039999999
 30
0.0
 11
-330.508554
 21
213.391812
 31
0.0
  0
LINE
  5
49E
330
19
100
AcDbEntity
  8
PV
100
AcDbLine
 10
-330.3366619999999
 20
214.5344039999999
 30
0.0
 11
-330.3366619999999
 21
213.391812
 31
0.0
  0
LINE
  5
49F
330
19
100
AcDbEntity
  8
PV
100
AcDbLine
 10
-330.508554
 20
214.5344039999999
 30
0.0
 11
-330.3366619999999
 21
214.5344039999999
 31
0.0
  0
LINE
  5
4A0
330
19
100
AcDbEntity
  8
PV
100
AcDbLine
 10
-330.508554
 20
213.391812
 30
0.0
 11
-330.3366619999999
 21
213.391812
 31
0.0
  0
LINE
  5
4A1
330
19
100
AcDbEntity
  8
PV
100
AcDbLine
 10
-330.0937129999999
 20
214.5344039999999
 30
0.0
 11
-330.0937129999999
 21
213.391812
 31
0.0
  0
LINE
  5
4A2
330
19
100
AcDbEntity
  8
PV
100
AcDbLine
 10
-330.0937129999999
 20
213.391812
 30
0.0
 11
-329.921821
 21
213.391812
 31
0.0
  0
LINE
  5
4A3
330
19
100
AcDbEntity
  8
PV
100
AcDbLine
 10
-329.921821
 20
214.256222
 30
0.0
 11
-329.921821
 21
213.391812
 31
0.0
  0
LINE
  5
4A4
330
19
100
AcDbEntity
  8
PV
100
AcDbLine
 10
-329.3099559999999
 20
213.391812
 30
0.0
 11
-329.1370909999999
 21
213.391812
 31
0.0
  0
LINE
  5
4A5
330
19
100
AcDbEntity
  8
PV
100
AcDbLine
 10
-329.1370909999999
 20
214.5344039999999
 30
0.0
 11
-329.1370909999999
 21
213.391812
 31
0.0
  0
LINE
  5
4A6
330
19
100
AcDbEntity
  8
PV
100
AcDbLine
 10
-329.3089829999999
 20
214.5344039999999
 30
0.0
 11
-329.1370909999999
 21
214.5344039999999
 31
0.0
  0
LINE
  5
4A7
330
19
100
AcDbEntity
  8
PV
100
AcDbLine
 10
-329.3089829999999
 20
214.5344039999999
 30
0.0
 11
-329.3089829999999
 21
213.669994
 31
0.0
  0
LINE
  5
4A8
330
19
100
AcDbEntity
  8
PV
100
AcDbLine
 10
-330.0937129999999
 20
214.5344039999999
 30
0.0
 11
-329.920847
 21
214.5344039999999
 31
0.0
  0
LINE
  5
4A9
330
19
100
AcDbEntity
  8
PV
100
AcDbLine
 10
-340.2400559999999
 20
213.962141
 30
0.0
 11
-340.3224699999999
 21
213.8813929999999
 31
0.0
  0
LINE
  5
4AA
330
19
100
AcDbEntity
  8
PV
100
AcDbLine
 10
-340.3224699999999
 20
214.5344039999999
 30
0.0
 11
-340.3224699999999
 21
214.0994419999999
 31
0.0
  0
LINE
  5
4AB
330
19
100
AcDbEntity
  8
PV
100
AcDbLine
 10
-341.511852
 20
213.391812
 30
0.0
 11
-341.402859
 21
213.688193
 31
0.0
  0
LWPOLYLINE
  5
4AC
330
19
100
AcDbEntity
  8
PV
100
AcDbPolyline
 90
        7
 70
     0
 43
0.0
 10
-335.0433009999999
 20
213.5129959999999
 10
-335.0261619999999
 20
213.513622
 10
-335.009163
 20
213.515493
 10
-334.992443
 20
213.5185949999999
 10
-334.9761399999999
 20
213.522902
 10
-334.960387
 20
213.5283789999999
 10
-334.945314
 20
213.534981
  0
LWPOLYLINE
  5
4B5
330
19
100
AcDbEntity
  8
PV
100
AcDbPolyline
 90
        5
 70
     0
 43
0.0
 10
-334.945314
 20
213.534981
 10
-334.910385
 20
213.554089
 10
-334.878176
 20
213.5760819999999
 10
-334.849054
 20
213.600712
 10
-334.823349
 20
213.627697
  0
LWPOLYLINE
  5
4BC
330
19
100
AcDbEntity
  8
PV
100
AcDbPolyline
 90
        5
 70
     0
 43
0.0
 10
-334.823348
 20
213.627698
 10
-334.7974089999999
 20
213.6609779999999
 10
-334.774901
 20
213.695842
 10
-334.7559729999999
 20
213.73206
 10
-334.740749
 20
213.769395
  0
LWPOLYLINE
  5
4C3
330
19
100
AcDbEntity
  8
PV
100
AcDbPolyline
 90
        5
 70
     0
 43
0.0
 10
-334.740749
 20
213.769395
 10
-334.7261459999999
 20
213.8170059999999
 10
-334.715665
 20
213.865316
 10
-334.709357
 20
213.914095
 10
-334.7072509999999
 20
213.963108
  0
LWPOLYLINE
  5
4CA
330
19
100
AcDbEntity
  8
PV
100
AcDbPolyline
 90
        5
 70
     0
 43
0.0
 10
-334.7072509999999
 20
213.963108
 10
-334.709357
 20
214.012121
 10
-334.715665
 20
214.0608999999999
 10
-334.7261459999999
 20
214.10921
 10
-334.740749
 20
214.1568209999999
  0
LWPOLYLINE
  5
4D1
330
19
100
AcDbEntity
  8
PV
100
AcDbPolyline
 90
        5
 70
     0
 43
0.0
 10
-334.740749
 20
214.1568209999999
 10
-334.7559729999999
 20
214.1941559999999
 10
-334.774901
 20
214.230374
 10
-334.7974089999999
 20
214.2652379999999
 10
-334.823348
 20
214.298518
  0
LWPOLYLINE
  5
4D8
330
19
100
AcDbEntity
  8
PV
100
AcDbPolyline
 90
        5
 70
     0
 43
0.0
 10
-334.823349
 20
214.298519
 10
-334.849054
 20
214.325504
 10
-334.878176
 20
214.3501339999999
 10
-334.910385
 20
214.3721269999999
 10
-334.945314
 20
214.391235
  0
LWPOLYLINE
  5
4DF
330
19
100
AcDbEntity
  8
PV
100
AcDbPolyline
 90
        7
 70
     0
 43
0.0
 10
-334.945314
 20
214.391235
 10
-334.960387
 20
214.397837
 10
-334.9761399999999
 20
214.403314
 10
-334.992443
 20
214.407621
 10
-335.009163
 20
214.4107229999999
 10
-335.0261619999999
 20
214.4125939999999
 10
-335.0433009999999
 20
214.41322
  0
LWPOLYLINE
  5
4E8
330
19
100
AcDbEntity
  8
PV
100
AcDbPolyline
 90
        7
 70
     0
 43
0.0
 10
-335.0433009999999
 20
214.41322
 10
-335.0604399999999
 20
214.4125939999999
 10
-335.077439
 20
214.4107229999999
 10
-335.094159
 20
214.407621
 10
-335.110462
 20
214.403314
 10
-335.126215
 20
214.397837
 10
-335.1412879999999
 20
214.391235
  0
LWPOLYLINE
  5
4F1
330
19
100
AcDbEntity
  8
PV
100
AcDbPolyline
 90
        5
 70
     0
 43
0.0
 10
-335.141289
 20
214.391235
 10
-335.176218
 20
214.3721269999999
 10
-335.208427
 20
214.3501339999999
 10
-335.237549
 20
214.325504
 10
-335.263254
 20
214.298519
  0
LWPOLYLINE
  5
4F8
330
19
100
AcDbEntity
  8
PV
100
AcDbPolyline
 90
        5
 70
     0
 43
0.0
 10
-335.2632549999999
 20
214.298518
 10
-335.289194
 20
214.2652379999999
 10
-335.311702
 20
214.230374
 10
-335.3306299999999
 20
214.1941559999999
 10
-335.345854
 20
214.1568209999999
  0
LWPOLYLINE
  5
4FF
330
19
100
AcDbEntity
  8
PV
100
AcDbPolyline
 90
        5
 70
     0
 43
0.0
 10
-335.345854
 20
214.1568209999999
 10
-335.3604569999999
 20
214.10921
 10
-335.3709379999999
 20
214.0608999999999
 10
-335.377246
 20
214.012121
 10
-335.3793519999999
 20
213.963108
  0
LWPOLYLINE
  5
506
330
19
100
AcDbEntity
  8
PV
100
AcDbPolyline
 90
        5
 70
     0
 43
0.0
 10
-335.3793519999999
 20
213.963108
 10
-335.377246
 20
213.914095
 10
-335.3709379999999
 20
213.865316
 10
-335.3604569999999
 20
213.8170059999999
 10
-335.345854
 20
213.769395
  0
LWPOLYLINE
  5
50D
330
19
100
AcDbEntity
  8
PV
100
AcDbPolyline
 90
        5
 70
     0
 43
0.0
 10
-335.345854
 20
213.769395
 10
-335.3306299999999
 20
213.73206
 10
-335.311702
 20
213.695842
 10
-335.289194
 20
213.6609779999999
 10
-335.2632549999999
 20
213.627698
  0
LWPOLYLINE
  5
514
330
19
100
AcDbEntity
  8
PV
100
AcDbPolyline
 90
        5
 70
     0
 43
0.0
 10
-335.263254
 20
213.627697
 10
-335.237549
 20
213.600712
 10
-335.208427
 20
213.5760819999999
 10
-335.176218
 20
213.554089
 10
-335.141289
 20
213.534981
  0
LWPOLYLINE
  5
51B
330
19
100
AcDbEntity
  8
PV
100
AcDbPolyline
 90
        7
 70
     0
 43
0.0
 10
-335.1412879999999
 20
213.534981
 10
-335.126215
 20
213.5283789999999
 10
-335.110462
 20
213.522902
 10
-335.094159
 20
213.5185949999999
 10
-335.077439
 20
213.515493
 10
-335.0604399999999
 20
213.513622
 10
-335.0433009999999
 20
213.5129959999999
  0
LWPOLYLINE
  5
524
330
19
100
AcDbEntity
  8
PV
100
AcDbPolyline
 90
        7
 70
     0
 43
0.0
 10
-335.0433009999999
 20
213.3745
 10
-335.010622
 20
213.375693
 10
-334.97821
 20
213.3792609999999
 10
-334.9463309999999
 20
213.385175
 10
-334.915247
 20
213.3933879999999
 10
-334.8852109999999
 20
213.403831
 10
-334.85647
 20
213.4164189999999
  0
LWPOLYLINE
  5
52D
330
19
100
AcDbEntity
  8
PV
100
AcDbPolyline
 90
        5
 70
     0
 43
0.0
 10
-334.856471
 20
213.416418
 10
-334.806392
 20
213.4438139999999
 10
-334.760214
 20
213.475346
 10
-334.7184609999999
 20
213.510657
 10
-334.681607
 20
213.549347
  0
LWPOLYLINE
  5
534
330
19
100
AcDbEntity
  8
PV
100
AcDbPolyline
 90
        5
 70
     0
 43
0.0
 10
-334.681607
 20
213.549347
 10
-334.648255
 20
213.592137
 10
-334.6193149999999
 20
213.636964
 10
-334.5949779999999
 20
213.683533
 10
-334.575403
 20
213.731537
  0
LWPOLYLINE
  5
53B
330
19
100
AcDbEntity
  8
PV
100
AcDbPolyline
 90
        5
 70
     0
 43
0.0
 10
-334.575403
 20
213.731537
 10
-334.557947
 20
213.788452
 10
-334.545418
 20
213.8462039999999
 10
-334.537876
 20
213.904516
 10
-334.5353589999999
 20
213.963108
  0
LWPOLYLINE
  5
542
330
19
100
AcDbEntity
  8
PV
100
AcDbPolyline
 90
        5
 70
     0
 43
0.0
 10
-334.5353589999999
 20
213.963108
 10
-334.537876
 20
214.0217
 10
-334.545418
 20
214.080012
 10
-334.557947
 20
214.1377639999999
 10
-334.575403
 20
214.1946789999999
  0
LWPOLYLINE
  5
549
330
19
100
AcDbEntity
  8
PV
100
AcDbPolyline
 90
        5
 70
     0
 43
0.0
 10
-334.575403
 20
214.1946789999999
 10
-334.5949779999999
 20
214.242683
 10
-334.6193149999999
 20
214.289252
 10
-334.648255
 20
214.3340789999999
 10
-334.681607
 20
214.3768689999999
  0
LWPOLYLINE
  5
550
330
19
100
AcDbEntity
  8
PV
100
AcDbPolyline
 90
        5
 70
     0
 43
0.0
 10
-334.681607
 20
214.3768689999999
 10
-334.7184609999999
 20
214.415559
 10
-334.760214
 20
214.45087
 10
-334.806392
 20
214.482402
 10
-334.856471
 20
214.509798
  0
LWPOLYLINE
  5
557
330
19
100
AcDbEntity
  8
PV
100
AcDbPolyline
 90
        7
 70
     0
 43
0.0
 10
-334.85647
 20
214.509797
 10
-334.8852109999999
 20
214.522385
 10
-334.915247
 20
214.5328279999999
 10
-334.9463309999999
 20
214.541041
 10
-334.97821
 20
214.5469549999999
 10
-335.010622
 20
214.5505229999999
 10
-335.0433009999999
 20
214.551716
  0
LWPOLYLINE
  5
560
330
19
100
AcDbEntity
  8
PV
100
AcDbPolyline
 90
        7
 70
     0
 43
0.0
 10
-335.0433009999999
 20
214.551716
 10
-335.0759799999999
 20
214.5505229999999
 10
-335.1083919999999
 20
214.5469549999999
 10
-335.1402709999999
 20
214.541041
 10
-335.1713549999999
 20
214.5328279999999
 10
-335.201391
 20
214.522385
 10
-335.2301319999999
 20
214.509797
  0
LWPOLYLINE
  5
569
330
19
100
AcDbEntity
  8
PV
100
AcDbPolyline
 90
        5
 70
     0
 43
0.0
 10
-335.2301319999999
 20
214.509798
 10
-335.280211
 20
214.482402
 10
-335.326389
 20
214.45087
 10
-335.368142
 20
214.415559
 10
-335.4049959999999
 20
214.3768689999999
  0
LWPOLYLINE
  5
570
330
19
100
AcDbEntity
  8
PV
100
AcDbPolyline
 90
        5
 70
     0
 43
0.0
 10
-335.4049959999999
 20
214.3768689999999
 10
-335.438348
 20
214.3340789999999
 10
-335.4672879999999
 20
214.289252
 10
-335.491625
 20
214.242683
 10
-335.5111999999999
 20
214.1946789999999
  0
LWPOLYLINE
  5
577
330
19
100
AcDbEntity
  8
PV
100
AcDbPolyline
 90
        5
 70
     0
 43
0.0
 10
-335.5111999999999
 20
214.1946789999999
 10
-335.528656
 20
214.1377639999999
 10
-335.5411849999999
 20
214.080012
 10
-335.5487269999999
 20
214.0217
 10
-335.5512449999999
 20
213.963108
  0
LWPOLYLINE
  5
57E
330
19
100
AcDbEntity
  8
PV
100
AcDbPolyline
 90
        5
 70
     0
 43
0.0
 10
-335.5512449999999
 20
213.963108
 10
-335.5487269999999
 20
213.904516
 10
-335.5411849999999
 20
213.8462039999999
 10
-335.528656
 20
213.788452
 10
-335.5111999999999
 20
213.731537
  0
LWPOLYLINE
  5
585
330
19
100
AcDbEntity
  8
PV
100
AcDbPolyline
 90
        5
 70
     0
 43
0.0
 10
-335.5111999999999
 20
213.731537
 10
-335.491625
 20
213.683533
 10
-335.4672879999999
 20
213.636964
 10
-335.438348
 20
213.592137
 10
-335.4049959999999
 20
213.549347
  0
LWPOLYLINE
  5
58C
330
19
100
AcDbEntity
  8
PV
100
AcDbPolyline
 90
        5
 70
     0
 43
0.0
 10
-335.404995
 20
213.549347
 10
-335.368142
 20
213.510657
 10
-335.326389
 20
213.475346
 10
-335.280211
 20
213.4438139999999
 10
-335.2301319999999
 20
213.416418
  0
LWPOLYLINE
  5
593
330
19
100
AcDbEntity
  8
PV
100
AcDbPolyline
 90
        7
 70
     0
 43
0.0
 10
-335.2301319999999
 20
213.4164189999999
 10
-335.201391
 20
213.403831
 10
-335.1713549999999
 20
213.3933879999999
 10
-335.1402709999999
 20
213.385175
 10
-335.1083919999999
 20
213.3792609999999
 10
-335.0759799999999
 20
213.375693
 10
-335.0433009999999
 20
213.3745
  0
LWPOLYLINE
  5
59C
330
19
100
AcDbEntity
  8
PV
100
AcDbPolyline
 90
        7
 70
     0
 43
0.0
 10
-333.4488799999999
 20
213.3745
 10
-333.416201
 20
213.375693
 10
-333.383789
 20
213.3792609999999
 10
-333.35191
 20
213.385175
 10
-333.3208259999999
 20
213.3933879999999
 10
-333.29079
 20
213.403831
 10
-333.262049
 20
213.4164189999999
  0
LWPOLYLINE
  5
5A5
330
19
100
AcDbEntity
  8
PV
100
AcDbPolyline
 90
        5
 70
     0
 43
0.0
 10
-333.2620499999999
 20
213.416418
 10
-333.211971
 20
213.4438139999999
 10
-333.1657929999999
 20
213.475346
 10
-333.1240399999999
 20
213.510657
 10
-333.0871859999999
 20
213.549347
  0
LWPOLYLINE
  5
5AC
330
19
100
AcDbEntity
  8
PV
100
AcDbPolyline
 90
        5
 70
     0
 43
0.0
 10
-333.0871859999999
 20
213.549347
 10
-333.0538339999999
 20
213.592137
 10
-333.024894
 20
213.636964
 10
-333.0005569999999
 20
213.683533
 10
-332.9809819999999
 20
213.731537
  0
LWPOLYLINE
  5
5B3
330
19
100
AcDbEntity
  8
PV
100
AcDbPolyline
 90
        5
 70
     0
 43
0.0
 10
-332.9809819999999
 20
213.731537
 10
-332.9746459999999
 20
213.7503189999999
 10
-332.9688479999999
 20
213.7692139999999
 10
-332.963589
 20
213.788211
 10
-332.958874
 20
213.8072999999999
  0
LWPOLYLINE
  5
5BA
330
19
100
AcDbEntity
  8
PV
100
AcDbPolyline
 90
        5
 70
     0
 43
0.0
 10
-332.958874
 20
214.118916
 10
-332.963589
 20
214.1380049999999
 10
-332.9688479999999
 20
214.157002
 10
-332.9746459999999
 20
214.175897
 10
-332.9809819999999
 20
214.1946789999999
  0
LWPOLYLINE
  5
5C1
330
19
100
AcDbEntity
  8
PV
100
AcDbPolyline
 90
        5
 70
     0
 43
0.0
 10
-332.9809819999999
 20
214.1946789999999
 10
-333.0005569999999
 20
214.242683
 10
-333.024894
 20
214.289252
 10
-333.0538339999999
 20
214.3340789999999
 10
-333.0871859999999
 20
214.3768689999999
  0
LWPOLYLINE
  5
5C8
330
19
100
AcDbEntity
  8
PV
100
AcDbPolyline
 90
        5
 70
     0
 43
0.0
 10
-333.0871859999999
 20
214.3768689999999
 10
-333.1240399999999
 20
214.415559
 10
-333.1657929999999
 20
214.45087
 10
-333.211971
 20
214.482402
 10
-333.2620499999999
 20
214.509798
  0
LWPOLYLINE
  5
5CF
330
19
100
AcDbEntity
  8
PV
100
AcDbPolyline
 90
        7
 70
     0
 43
0.0
 10
-333.262049
 20
214.509797
 10
-333.29079
 20
214.522385
 10
-333.3208259999999
 20
214.5328279999999
 10
-333.35191
 20
214.541041
 10
-333.383789
 20
214.5469549999999
 10
-333.416201
 20
214.5505229999999
 10
-333.4488799999999
 20
214.551716
  0
LWPOLYLINE
  5
5D8
330
19
100
AcDbEntity
  8
PV
100
AcDbPolyline
 90
        7
 70
     0
 43
0.0
 10
-333.4488799999999
 20
214.551716
 10
-333.481559
 20
214.5505229999999
 10
-333.5139709999999
 20
214.5469549999999
 10
-333.5458499999999
 20
214.541041
 10
-333.576934
 20
214.5328279999999
 10
-333.60697
 20
214.522385
 10
-333.635711
 20
214.509797
  0
LWPOLYLINE
  5
5E1
330
19
100
AcDbEntity
  8
PV
100
AcDbPolyline
 90
        5
 70
     0
 43
0.0
 10
-333.635711
 20
214.509798
 10
-333.68579
 20
214.482402
 10
-333.731968
 20
214.45087
 10
-333.773721
 20
214.415559
 10
-333.8105749999999
 20
214.3768689999999
  0
LWPOLYLINE
  5
5E8
330
19
100
AcDbEntity
  8
PV
100
AcDbPolyline
 90
        5
 70
     0
 43
0.0
 10
-333.810574
 20
214.3768689999999
 10
-333.8439259999999
 20
214.3340789999999
 10
-333.872866
 20
214.289252
 10
-333.8972029999999
 20
214.242683
 10
-333.9167779999999
 20
214.1946789999999
  0
LWPOLYLINE
  5
5EF
330
19
100
AcDbEntity
  8
PV
100
AcDbPolyline
 90
        5
 70
     0
 43
0.0
 10
-333.9167779999999
 20
214.1946789999999
 10
-333.9342339999999
 20
214.1377639999999
 10
-333.9467629999999
 20
214.080012
 10
-333.9543049999999
 20
214.0217
 10
-333.956822
 20
213.963108
  0
LWPOLYLINE
  5
5F6
330
19
100
AcDbEntity
  8
PV
100
AcDbPolyline
 90
        5
 70
     0
 43
0.0
 10
-333.956822
 20
213.963108
 10
-333.9543049999999
 20
213.904516
 10
-333.9467629999999
 20
213.8462039999999
 10
-333.9342339999999
 20
213.788452
 10
-333.9167779999999
 20
213.731537
  0
LWPOLYLINE
  5
5FD
330
19
100
AcDbEntity
  8
PV
100
AcDbPolyline
 90
        5
 70
     0
 43
0.0
 10
-333.9167779999999
 20
213.731537
 10
-333.8972029999999
 20
213.683533
 10
-333.872866
 20
213.636964
 10
-333.8439259999999
 20
213.592137
 10
-333.810574
 20
213.549347
  0
LWPOLYLINE
  5
604
330
19
100
AcDbEntity
  8
PV
100
AcDbPolyline
 90
        5
 70
     0
 43
0.0
 10
-333.810574
 20
213.549347
 10
-333.773721
 20
213.510657
 10
-333.731968
 20
213.475346
 10
-333.68579
 20
213.4438139999999
 10
-333.635711
 20
213.416418
  0
LWPOLYLINE
  5
60B
330
19
100
AcDbEntity
  8
PV
100
AcDbPolyline
 90
        7
 70
     0
 43
0.0
 10
-333.635711
 20
213.4164189999999
 10
-333.60697
 20
213.403831
 10
-333.576934
 20
213.3933879999999
 10
-333.5458499999999
 20
213.385175
 10
-333.5139709999999
 20
213.3792609999999
 10
-333.481559
 20
213.375693
 10
-333.4488799999999
 20
213.3745
  0
LWPOLYLINE
  5
614
330
19
100
AcDbEntity
  8
PV
100
AcDbPolyline
 90
        7
 70
     0
 43
0.0
 10
-333.4488799999999
 20
213.5129959999999
 10
-333.431741
 20
213.513622
 10
-333.4147419999999
 20
213.515493
 10
-333.398022
 20
213.5185949999999
 10
-333.3817189999999
 20
213.522902
 10
-333.365966
 20
213.5283789999999
 10
-333.350893
 20
213.534981
  0
LWPOLYLINE
  5
61D
330
19
100
AcDbEntity
  8
PV
100
AcDbPolyline
 90
        5
 70
     0
 43
0.0
 10
-333.350893
 20
213.534981
 10
-333.315964
 20
213.554089
 10
-333.2837549999999
 20
213.5760819999999
 10
-333.254633
 20
213.600712
 10
-333.2289279999999
 20
213.627697
  0
LWPOLYLINE
  5
624
330
19
100
AcDbEntity
  8
PV
100
AcDbPolyline
 90
        5
 70
     0
 43
0.0
 10
-333.2289269999999
 20
213.627698
 10
-333.202988
 20
213.6609779999999
 10
-333.18048
 20
213.695842
 10
-333.161552
 20
213.73206
 10
-333.1463279999999
 20
213.769395
  0
LWPOLYLINE
  5
62B
330
19
100
AcDbEntity
  8
PV
100
AcDbPolyline
 90
        5
 70
     0
 43
0.0
 10
-333.1463279999999
 20
213.769395
 10
-333.1430899999999
 20
213.77882
 10
-333.140015
 20
213.788281
 10
-333.137102
 20
213.797775
 10
-333.1343509999999
 20
213.8072999999999
  0
LWPOLYLINE
  5
632
330
19
100
AcDbEntity
  8
PV
100
AcDbPolyline
 90
        5
 70
     0
 43
0.0
 10
-333.1343509999999
 20
214.118916
 10
-333.137102
 20
214.128441
 10
-333.140015
 20
214.137935
 10
-333.1430899999999
 20
214.1473959999999
 10
-333.1463279999999
 20
214.1568209999999
  0
LWPOLYLINE
  5
639
330
19
100
AcDbEntity
  8
PV
100
AcDbPolyline
 90
        5
 70
     0
 43
0.0
 10
-333.1463279999999
 20
214.1568209999999
 10
-333.161552
 20
214.1941559999999
 10
-333.18048
 20
214.230374
 10
-333.202988
 20
214.2652379999999
 10
-333.2289269999999
 20
214.298518
  0
LWPOLYLINE
  5
640
330
19
100
AcDbEntity
  8
PV
100
AcDbPolyline
 90
        5
 70
     0
 43
0.0
 10
-333.2289279999999
 20
214.298519
 10
-333.254633
 20
214.325504
 10
-333.2837549999999
 20
214.3501339999999
 10
-333.315964
 20
214.3721269999999
 10
-333.350893
 20
214.391235
  0
LWPOLYLINE
  5
647
330
19
100
AcDbEntity
  8
PV
100
AcDbPolyline
 90
        7
 70
     0
 43
0.0
 10
-333.350893
 20
214.391235
 10
-333.365966
 20
214.397837
 10
-333.3817189999999
 20
214.403314
 10
-333.398022
 20
214.407621
 10
-333.4147419999999
 20
214.4107229999999
 10
-333.431741
 20
214.4125939999999
 10
-333.4488799999999
 20
214.41322
  0
LWPOLYLINE
  5
650
330
19
100
AcDbEntity
  8
PV
100
AcDbPolyline
 90
        7
 70
     0
 43
0.0
 10
-333.4488799999999
 20
214.41322
 10
-333.466019
 20
214.4125939999999
 10
-333.483018
 20
214.4107229999999
 10
-333.4997379999999
 20
214.407621
 10
-333.516041
 20
214.403314
 10
-333.5317939999999
 20
214.397837
 10
-333.546867
 20
214.391235
  0
LWPOLYLINE
  5
659
330
19
100
AcDbEntity
  8
PV
100
AcDbPolyline
 90
        5
 70
     0
 43
0.0
 10
-333.546868
 20
214.391235
 10
-333.5817969999999
 20
214.3721269999999
 10
-333.614006
 20
214.3501339999999
 10
-333.6431279999999
 20
214.325504
 10
-333.668833
 20
214.298519
  0
LWPOLYLINE
  5
660
330
19
100
AcDbEntity
  8
PV
100
AcDbPolyline
 90
        5
 70
     0
 43
0.0
 10
-333.668833
 20
214.298518
 10
-333.6947719999999
 20
214.2652379999999
 10
-333.7172799999999
 20
214.230374
 10
-333.736208
 20
214.1941559999999
 10
-333.7514319999999
 20
214.1568209999999
  0
LWPOLYLINE
  5
667
330
19
100
AcDbEntity
  8
PV
100
AcDbPolyline
 90
        5
 70
     0
 43
0.0
 10
-333.7514319999999
 20
214.1568209999999
 10
-333.766035
 20
214.10921
 10
-333.776516
 20
214.0608999999999
 10
-333.782824
 20
214.012121
 10
-333.7849299999999
 20
213.963108
  0
LWPOLYLINE
  5
66E
330
19
100
AcDbEntity
  8
PV
100
AcDbPolyline
 90
        5
 70
     0
 43
0.0
 10
-333.7849299999999
 20
213.963108
 10
-333.782824
 20
213.914095
 10
-333.776516
 20
213.865316
 10
-333.766035
 20
213.8170059999999
 10
-333.7514319999999
 20
213.769395
  0
LWPOLYLINE
  5
675
330
19
100
AcDbEntity
  8
PV
100
AcDbPolyline
 90
        5
 70
     0
 43
0.0
 10
-333.7514319999999
 20
213.769395
 10
-333.736208
 20
213.73206
 10
-333.7172799999999
 20
213.695842
 10
-333.6947719999999
 20
213.6609779999999
 10
-333.668833
 20
213.627698
  0
LWPOLYLINE
  5
67C
330
19
100
AcDbEntity
  8
PV
100
AcDbPolyline
 90
        5
 70
     0
 43
0.0
 10
-333.668833
 20
213.627697
 10
-333.6431279999999
 20
213.600712
 10
-333.614006
 20
213.5760819999999
 10
-333.5817969999999
 20
213.554089
 10
-333.546868
 20
213.534981
  0
LWPOLYLINE
  5
683
330
19
100
AcDbEntity
  8
PV
100
AcDbPolyline
 90
        7
 70
     0
 43
0.0
 10
-333.546867
 20
213.534981
 10
-333.5317939999999
 20
213.5283789999999
 10
-333.516041
 20
213.522902
 10
-333.4997379999999
 20
213.5185949999999
 10
-333.483018
 20
213.515493
 10
-333.466019
 20
213.513622
 10
-333.4488799999999
 20
213.5129959999999
  0
LWPOLYLINE
  5
68C
330
19
100
AcDbEntity
  8
PV
100
AcDbPolyline
 90
        7
 70
     0
 43
0.0
 10
-337.1413659999999
 20
213.3745
 10
-337.108687
 20
213.375693
 10
-337.076275
 20
213.3792609999999
 10
-337.044396
 20
213.385175
 10
-337.0133119999999
 20
213.3933879999999
 10
-336.9832759999999
 20
213.403831
 10
-336.954535
 20
213.4164189999999
  0
LWPOLYLINE
  5
695
330
19
100
AcDbEntity
  8
PV
100
AcDbPolyline
 90
        5
 70
     0
 43
0.0
 10
-336.9545359999999
 20
213.416418
 10
-336.9044569999999
 20
213.4438139999999
 10
-336.858279
 20
213.475346
 10
-336.8165259999999
 20
213.510657
 10
-336.779672
 20
213.549347
  0
LWPOLYLINE
  5
69C
330
19
100
AcDbEntity
  8
PV
100
AcDbPolyline
 90
        5
 70
     0
 43
0.0
 10
-336.779672
 20
213.549347
 10
-336.74632
 20
213.592137
 10
-336.7173799999999
 20
213.636964
 10
-336.693043
 20
213.683533
 10
-336.673468
 20
213.731537
  0
LWPOLYLINE
  5
6A3
330
19
100
AcDbEntity
  8
PV
100
AcDbPolyline
 90
        5
 70
     0
 43
0.0
 10
-336.673468
 20
213.731537
 10
-336.656012
 20
213.788452
 10
-336.643483
 20
213.8462039999999
 10
-336.635941
 20
213.904516
 10
-336.633423
 20
213.963108
  0
LWPOLYLINE
  5
6AA
330
19
100
AcDbEntity
  8
PV
100
AcDbPolyline
 90
        5
 70
     0
 43
0.0
 10
-336.633423
 20
213.963108
 10
-336.635941
 20
214.0217
 10
-336.643483
 20
214.080012
 10
-336.656012
 20
214.1377639999999
 10
-336.673468
 20
214.1946789999999
  0
LWPOLYLINE
  5
6B1
330
19
100
AcDbEntity
  8
PV
100
AcDbPolyline
 90
        5
 70
     0
 43
0.0
 10
-336.673468
 20
214.1946789999999
 10
-336.693043
 20
214.242683
 10
-336.7173799999999
 20
214.289252
 10
-336.74632
 20
214.3340789999999
 10
-336.779672
 20
214.3768689999999
  0
LWPOLYLINE
  5
6B8
330
19
100
AcDbEntity
  8
PV
100
AcDbPolyline
 90
        5
 70
     0
 43
0.0
 10
-336.779672
 20
214.3768689999999
 10
-336.8165259999999
 20
214.415559
 10
-336.858279
 20
214.45087
 10
-336.9044569999999
 20
214.482402
 10
-336.9545359999999
 20
214.509798
  0
LWPOLYLINE
  5
6BF
330
19
100
AcDbEntity
  8
PV
100
AcDbPolyline
 90
        7
 70
     0
 43
0.0
 10
-336.954535
 20
214.509797
 10
-336.9832759999999
 20
214.522385
 10
-337.0133119999999
 20
214.5328279999999
 10
-337.044396
 20
214.541041
 10
-337.076275
 20
214.5469549999999
 10
-337.108687
 20
214.5505229999999
 10
-337.1413659999999
 20
214.551716
  0
LWPOLYLINE
  5
6C8
330
19
100
AcDbEntity
  8
PV
100
AcDbPolyline
 90
        7
 70
     0
 43
0.0
 10
-337.1413659999999
 20
214.551716
 10
-337.174045
 20
214.5505229999999
 10
-337.206457
 20
214.5469549999999
 10
-337.238336
 20
214.541041
 10
-337.26942
 20
214.5328279999999
 10
-337.299456
 20
214.522385
 10
-337.328197
 20
214.509797
  0
LWPOLYLINE
  5
6D1
330
19
100
AcDbEntity
  8
PV
100
AcDbPolyline
 90
        5
 70
     0
 43
0.0
 10
-337.328197
 20
214.509798
 10
-337.3782759999999
 20
214.482402
 10
-337.424454
 20
214.45087
 10
-337.4662069999999
 20
214.415559
 10
-337.503061
 20
214.3768689999999
  0
LWPOLYLINE
  5
6D8
330
19
100
AcDbEntity
  8
PV
100
AcDbPolyline
 90
        5
 70
     0
 43
0.0
 10
-337.50306
 20
214.3768689999999
 10
-337.5364119999999
 20
214.3340789999999
 10
-337.565352
 20
214.289252
 10
-337.589689
 20
214.242683
 10
-337.6092639999999
 20
214.1946789999999
  0
LWPOLYLINE
  5
6DF
330
19
100
AcDbEntity
  8
PV
100
AcDbPolyline
 90
        5
 70
     0
 43
0.0
 10
-337.6092639999999
 20
214.1946789999999
 10
-337.62672
 20
214.1377639999999
 10
-337.639249
 20
214.080012
 10
-337.646791
 20
214.0217
 10
-337.6493089999999
 20
213.963108
  0
LWPOLYLINE
  5
6E6
330
19
100
AcDbEntity
  8
PV
100
AcDbPolyline
 90
        5
 70
     0
 43
0.0
 10
-337.6493089999999
 20
213.963108
 10
-337.646791
 20
213.904516
 10
-337.639249
 20
213.8462039999999
 10
-337.62672
 20
213.788452
 10
-337.6092639999999
 20
213.731537
  0
LWPOLYLINE
  5
6ED
330
19
100
AcDbEntity
  8
PV
100
AcDbPolyline
 90
        5
 70
     0
 43
0.0
 10
-337.6092639999999
 20
213.731537
 10
-337.589689
 20
213.683533
 10
-337.565352
 20
213.636964
 10
-337.5364119999999
 20
213.592137
 10
-337.50306
 20
213.549347
  0
LWPOLYLINE
  5
6F4
330
19
100
AcDbEntity
  8
PV
100
AcDbPolyline
 90
        5
 70
     0
 43
0.0
 10
-337.50306
 20
213.549347
 10
-337.4662069999999
 20
213.510657
 10
-337.424454
 20
213.475346
 10
-337.3782759999999
 20
213.4438139999999
 10
-337.328197
 20
213.416418
  0
LWPOLYLINE
  5
6FB
330
19
100
AcDbEntity
  8
PV
100
AcDbPolyline
 90
        7
 70
     0
 43
0.0
 10
-337.328197
 20
213.4164189999999
 10
-337.299456
 20
213.403831
 10
-337.26942
 20
213.3933879999999
 10
-337.238336
 20
213.385175
 10
-337.206457
 20
213.3792609999999
 10
-337.174045
 20
213.375693
 10
-337.1413659999999
 20
213.3745
  0
LWPOLYLINE
  5
704
330
19
100
AcDbEntity
  8
PV
100
AcDbPolyline
 90
        7
 70
     0
 43
0.0
 10
-337.1413659999999
 20
213.5129959999999
 10
-337.124227
 20
213.513622
 10
-337.1072279999999
 20
213.515493
 10
-337.0905079999999
 20
213.5185949999999
 10
-337.074205
 20
213.522902
 10
-337.0584519999999
 20
213.5283789999999
 10
-337.043379
 20
213.534981
  0
LWPOLYLINE
  5
70D
330
19
100
AcDbEntity
  8
PV
100
AcDbPolyline
 90
        5
 70
     0
 43
0.0
 10
-337.043379
 20
213.534981
 10
-337.0084499999999
 20
213.554089
 10
-336.976241
 20
213.5760819999999
 10
-336.947119
 20
213.600712
 10
-336.921414
 20
213.627697
  0
LWPOLYLINE
  5
714
330
19
100
AcDbEntity
  8
PV
100
AcDbPolyline
 90
        5
 70
     0
 43
0.0
 10
-336.9214129999999
 20
213.627698
 10
-336.895474
 20
213.6609779999999
 10
-336.872966
 20
213.695842
 10
-336.854038
 20
213.73206
 10
-336.838814
 20
213.769395
  0
LWPOLYLINE
  5
71B
330
19
100
AcDbEntity
  8
PV
100
AcDbPolyline
 90
        5
 70
     0
 43
0.0
 10
-336.838814
 20
213.769395
 10
-336.824211
 20
213.8170059999999
 10
-336.8137299999999
 20
213.865316
 10
-336.807422
 20
213.914095
 10
-336.805316
 20
213.963108
  0
LWPOLYLINE
  5
722
330
19
100
AcDbEntity
  8
PV
100
AcDbPolyline
 90
        5
 70
     0
 43
0.0
 10
-336.805316
 20
213.963108
 10
-336.807422
 20
214.012121
 10
-336.8137299999999
 20
214.0608999999999
 10
-336.824211
 20
214.10921
 10
-336.838814
 20
214.1568209999999
  0
LWPOLYLINE
  5
729
330
19
100
AcDbEntity
  8
PV
100
AcDbPolyline
 90
        5
 70
     0
 43
0.0
 10
-336.838814
 20
214.1568209999999
 10
-336.854038
 20
214.1941559999999
 10
-336.872966
 20
214.230374
 10
-336.895474
 20
214.2652379999999
 10
-336.9214129999999
 20
214.298518
  0
LWPOLYLINE
  5
730
330
19
100
AcDbEntity
  8
PV
100
AcDbPolyline
 90
        5
 70
     0
 43
0.0
 10
-336.921414
 20
214.298519
 10
-336.947119
 20
214.325504
 10
-336.976241
 20
214.3501339999999
 10
-337.0084499999999
 20
214.3721269999999
 10
-337.043379
 20
214.391235
  0
LWPOLYLINE
  5
737
330
19
100
AcDbEntity
  8
PV
100
AcDbPolyline
 90
        7
 70
     0
 43
0.0
 10
-337.043379
 20
214.391235
 10
-337.0584519999999
 20
214.397837
 10
-337.074205
 20
214.403314
 10
-337.0905079999999
 20
214.407621
 10
-337.1072279999999
 20
214.4107229999999
 10
-337.124227
 20
214.4125939999999
 10
-337.1413659999999
 20
214.41322
  0
LWPOLYLINE
  5
740
330
19
100
AcDbEntity
  8
PV
100
AcDbPolyline
 90
        7
 70
     0
 43
0.0
 10
-337.1413659999999
 20
214.41322
 10
-337.158505
 20
214.4125939999999
 10
-337.175504
 20
214.4107229999999
 10
-337.1922239999999
 20
214.407621
 10
-337.2085269999999
 20
214.403314
 10
-337.2242799999999
 20
214.397837
 10
-337.239353
 20
214.391235
  0
LWPOLYLINE
  5
749
330
19
100
AcDbEntity
  8
PV
100
AcDbPolyline
 90
        5
 70
     0
 43
0.0
 10
-337.239354
 20
214.391235
 10
-337.274283
 20
214.3721269999999
 10
-337.306492
 20
214.3501339999999
 10
-337.335614
 20
214.325504
 10
-337.3613189999999
 20
214.298519
  0
LWPOLYLINE
  5
750
330
19
100
AcDbEntity
  8
PV
100
AcDbPolyline
 90
        5
 70
     0
 43
0.0
 10
-337.3613189999999
 20
214.298518
 10
-337.387258
 20
214.2652379999999
 10
-337.4097659999999
 20
214.230374
 10
-337.428694
 20
214.1941559999999
 10
-337.4439179999999
 20
214.1568209999999
  0
LWPOLYLINE
  5
757
330
19
100
AcDbEntity
  8
PV
100
AcDbPolyline
 90
        5
 70
     0
 43
0.0
 10
-337.4439179999999
 20
214.1568209999999
 10
-337.458521
 20
214.10921
 10
-337.469002
 20
214.0608999999999
 10
-337.47531
 20
214.012121
 10
-337.477416
 20
213.963108
  0
LWPOLYLINE
  5
75E
330
19
100
AcDbEntity
  8
PV
100
AcDbPolyline
 90
        5
 70
     0
 43
0.0
 10
-337.477416
 20
213.963108
 10
-337.47531
 20
213.914095
 10
-337.469002
 20
213.865316
 10
-337.458521
 20
213.8170059999999
 10
-337.4439179999999
 20
213.769395
  0
LWPOLYLINE
  5
765
330
19
100
AcDbEntity
  8
PV
100
AcDbPolyline
 90
        5
 70
     0
 43
0.0
 10
-337.4439179999999
 20
213.769395
 10
-337.428694
 20
213.73206
 10
-337.4097659999999
 20
213.695842
 10
-337.387258
 20
213.6609779999999
 10
-337.3613189999999
 20
213.627698
  0
LWPOLYLINE
  5
76C
330
19
100
AcDbEntity
  8
PV
100
AcDbPolyline
 90
        5
 70
     0
 43
0.0
 10
-337.3613189999999
 20
213.627697
 10
-337.335614
 20
213.600712
 10
-337.306492
 20
213.5760819999999
 10
-337.274283
 20
213.554089
 10
-337.239354
 20
213.534981
  0
LWPOLYLINE
  5
773
330
19
100
AcDbEntity
  8
PV
100
AcDbPolyline
 90
        7
 70
     0
 43
0.0
 10
-337.239353
 20
213.534981
 10
-337.2242799999999
 20
213.5283789999999
 10
-337.2085269999999
 20
213.522902
 10
-337.1922239999999
 20
213.5185949999999
 10
-337.175504
 20
213.515493
 10
-337.158505
 20
213.513622
 10
-337.1413659999999
 20
213.5129959999999
  0
LINE
  5
77C
330
19
100
AcDbEntity
  8
PV
100
AcDbLine
 10
-342.482358
 20
214.032356
 30
0.0
 11
-342.482358
 21
214.39937
 31
0.0
  0
LINE
  5
77D
330
19
100
AcDbEntity
  8
PV
100
AcDbLine
 10
-342.482358
 20
214.39937
 30
0.0
 11
-342.252452
 21
214.39937
 31
0.0
  0
LWPOLYLINE
  5
77E
330
19
100
AcDbEntity
  8
PV
100
AcDbPolyline
 90
       36
 70
     0
 43
0.0
 10
-342.252452
 20
214.032356
 10
-342.232036
 20
214.033095
 10
-342.2117839999999
 20
214.0353049999999
 10
-342.19186
 20
214.0389689999999
 10
-342.172424
 20
214.0440569999999
 10
-342.1536319999999
 20
214.050529
 10
-342.1356359999999
 20
214.058331
 10
-342.1185799999999
 20
214.067403
 10
-342.1026019999999
 20
214.077669
 10
-342.08783
 20
214.0890479999999
 10
-342.074384
 20
214.1014479999999
 10
-342.062372
 20
214.1147689999999
 10
-342.05189
 20
214.1289049999999
 10
-342.043023
 20
214.14374
 10
-342.0358419999999
 20
214.159156
 10
-342.0304049999999
 20
214.175029
 10
-342.0267559999999
 20
214.1912299999999
 10
-342.0249239999999
 20
214.2076299999999
 10
-342.0249239999999
 20
214.224096
 10
-342.0267559999999
 20
214.2404959999999
 10
-342.0304049999999
 20
214.256697
 10
-342.0358419999999
 20
214.27257
 10
-342.043023
 20
214.2879859999999
 10
-342.05189
 20
214.302821
 10
-342.062372
 20
214.3169569999999
 10
-342.074384
 20
214.3302779999999
 10
-342.08783
 20
214.3426779999999
 10
-342.1026019999999
 20
214.3540569999999
 10
-342.1185799999999
 20
214.3643229999999
 10
-342.1356359999999
 20
214.373395
 10
-342.1536319999999
 20
214.381197
 10
-342.172424
 20
214.3876689999999
 10
-342.19186
 20
214.3927569999999
 10
-342.2117839999999
 20
214.396421
 10
-342.232036
 20
214.3986309999999
 10
-342.252452
 20
214.39937
  0
LINE
  5
7A4
330
19
100
AcDbEntity
  8
PV
100
AcDbLine
 10
-342.482358
 20
214.032356
 30
0.0
 11
-342.252452
 21
214.032356
 31
0.0
  0
LINE
  5
7A5
330
19
100
AcDbEntity
  8
PV
100
AcDbLine
 10
-342.482358
 20
213.89386
 30
0.0
 11
-342.209479
 21
213.89386
 31
0.0
  0
LINE
  5
7A6
330
19
100
AcDbEntity
  8
PV
100
AcDbLine
 10
-342.482358
 20
213.89386
 30
0.0
 11
-342.482358
 21
213.526845
 31
0.0
  0
LWPOLYLINE
  5
7A7
330
19
100
AcDbEntity
  8
PV
100
AcDbPolyline
 90
       36
 70
     0
 43
0.0
 10
-342.209479
 20
213.526846
 10
-342.189063
 20
213.527585
 10
-342.168811
 20
213.529795
 10
-342.148887
 20
213.5334589999999
 10
-342.1294509999999
 20
213.538547
 10
-342.1106589999999
 20
213.5450189999999
 10
-342.092663
 20
213.5528209999999
 10
-342.0756069999999
 20
213.561893
 10
-342.059629
 20
213.572159
 10
-342.044857
 20
213.5835379999999
 10
-342.031411
 20
213.595938
 10
-342.019399
 20
213.609259
 10
-342.008917
 20
213.623395
 10
-342.0000499999999
 20
213.63823
 10
-341.9928689999999
 20
213.653646
 10
-341.9874319999999
 20
213.669519
 10
-341.983783
 20
213.68572
 10
-341.9819509999999
 20
213.7021199999999
 10
-341.9819509999999
 20
213.7185859999999
 10
-341.983783
 20
213.734986
 10
-341.9874319999999
 20
213.751187
 10
-341.9928689999999
 20
213.76706
 10
-342.0000499999999
 20
213.7824759999999
 10
-342.008917
 20
213.7973109999999
 10
-342.019399
 20
213.811447
 10
-342.031411
 20
213.824768
 10
-342.044857
 20
213.837168
 10
-342.059629
 20
213.848547
 10
-342.0756069999999
 20
213.858813
 10
-342.092663
 20
213.867885
 10
-342.1106589999999
 20
213.8756869999999
 10
-342.1294509999999
 20
213.8821589999999
 10
-342.148887
 20
213.887247
 10
-342.168811
 20
213.8909109999999
 10
-342.189063
 20
213.8931209999999
 10
-342.209479
 20
213.89386
  0
LINE
  5
7CD
330
19
100
AcDbEntity
  8
PV
100
AcDbLine
 10
-342.482358
 20
213.526845
 30
0.0
 11
-342.209479
 21
213.526845
 31
0.0
  0
LINE
  5
7CE
330
19
100
AcDbEntity
  8
PV
100
AcDbLine
 10
-331.5253549999999
 20
213.391812
 30
0.0
 11
-331.4163629999999
 21
213.688193
 31
0.0
  0
LINE
  5
7CF
330
19
100
AcDbEntity
  8
PV
100
AcDbLine
 10
-330.814074
 20
213.391812
 30
0.0
 11
-330.923067
 21
213.688193
 31
0.0
  0
LINE
  5
7D0
330
19
100
AcDbEntity
  8
PV
100
AcDbLine
 10
-330.634796
 20
213.391812
 30
0.0
 11
-330.814074
 21
213.391812
 31
0.0
  0
LINE
  5
7D1
330
19
100
AcDbEntity
  8
PV
100
AcDbLine
 10
-331.2844539999999
 20
214.5344039999999
 30
0.0
 11
-331.0549759999999
 21
214.5344039999999
 31
0.0
  0
LINE
  5
7D2
330
19
100
AcDbEntity
  8
PV
100
AcDbLine
 10
-330.634796
 20
213.391812
 30
0.0
 11
-331.0549759999999
 21
214.5344039999999
 31
0.0
  0
LINE
  5
7D3
330
19
100
AcDbEntity
  8
PV
100
AcDbLine
 10
-330.9739979999999
 20
213.826689
 30
0.0
 11
-331.169715
 21
214.3589009999999
 31
0.0
  0
LINE
  5
7D4
330
19
100
AcDbEntity
  8
PV
100
AcDbLine
 10
-331.3654319999999
 20
213.826689
 30
0.0
 11
-331.169715
 21
214.3589009999999
 31
0.0
  0
LINE
  5
7D5
330
19
100
AcDbEntity
  8
PV
100
AcDbLine
 10
-331.3654319999999
 20
213.826689
 30
0.0
 11
-330.9739979999999
 21
213.826689
 31
0.0
  0
LINE
  5
7D6
330
19
100
AcDbEntity
  8
PV
100
AcDbLine
 10
-331.4163629999999
 20
213.688193
 30
0.0
 11
-330.923067
 21
213.688193
 31
0.0
  0
LINE
  5
7D7
330
19
100
AcDbEntity
  8
PV
100
AcDbLine
 10
-331.704634
 20
213.391812
 30
0.0
 11
-331.5253549999999
 21
213.391812
 31
0.0
  0
LINE
  5
7D8
330
19
100
AcDbEntity
  8
PV
100
AcDbLine
 10
-331.704634
 20
213.391812
 30
0.0
 11
-331.2844539999999
 21
214.5344039999999
 31
0.0
  0
LINE
  5
7D9
330
19
100
AcDbEntity
  8
PV
100
AcDbLine
 10
-329.3089829999999
 20
213.669994
 30
0.0
 11
-329.920847
 21
214.5344039999999
 31
0.0
  0
LINE
  5
7DA
330
19
100
AcDbEntity
  8
PV
100
AcDbLine
 10
-329.3099559999999
 20
213.391812
 30
0.0
 11
-329.921821
 21
214.256222
 31
0.0
  0
LWPOLYLINE
  5
7DB
330
19
100
AcDbEntity
  8
PV
100
AcDbPolyline
 90
        7
 70
     0
 43
0.0
 10
-326.808692
 20
213.3745
 10
-326.7760129999999
 20
213.375693
 10
-326.7436009999999
 20
213.3792609999999
 10
-326.711722
 20
213.385175
 10
-326.6806379999999
 20
213.3933879999999
 10
-326.650602
 20
213.403831
 10
-326.6218609999999
 20
213.4164189999999
  0
LWPOLYLINE
  5
7E4
330
19
100
AcDbEntity
  8
PV
100
AcDbPolyline
 90
        5
 70
     0
 43
0.0
 10
-326.6218609999999
 20
213.416418
 10
-326.5717819999999
 20
213.4438139999999
 10
-326.525604
 20
213.475346
 10
-326.4838509999999
 20
213.510657
 10
-326.446997
 20
213.549347
  0
LWPOLYLINE
  5
7EB
330
19
100
AcDbEntity
  8
PV
100
AcDbPolyline
 90
        5
 70
     0
 43
0.0
 10
-326.446997
 20
213.549347
 10
-326.413645
 20
213.592137
 10
-326.3847049999999
 20
213.636964
 10
-326.360368
 20
213.683533
 10
-326.340793
 20
213.731537
  0
LWPOLYLINE
  5
7F2
330
19
100
AcDbEntity
  8
PV
100
AcDbPolyline
 90
        5
 70
     0
 43
0.0
 10
-326.340793
 20
213.731537
 10
-326.323337
 20
213.788452
 10
-326.310808
 20
213.8462039999999
 10
-326.303266
 20
213.904516
 10
-326.300749
 20
213.963108
  0
LWPOLYLINE
  5
7F9
330
19
100
AcDbEntity
  8
PV
100
AcDbPolyline
 90
        5
 70
     0
 43
0.0
 10
-326.300749
 20
213.963108
 10
-326.303266
 20
214.0217
 10
-326.310808
 20
214.080012
 10
-326.323337
 20
214.1377639999999
 10
-326.340793
 20
214.1946789999999
  0
LWPOLYLINE
  5
800
330
19
100
AcDbEntity
  8
PV
100
AcDbPolyline
 90
        5
 70
     0
 43
0.0
 10
-326.340793
 20
214.1946789999999
 10
-326.360368
 20
214.242683
 10
-326.3847049999999
 20
214.289252
 10
-326.413645
 20
214.3340789999999
 10
-326.446997
 20
214.3768689999999
  0
LWPOLYLINE
  5
807
330
19
100
AcDbEntity
  8
PV
100
AcDbPolyline
 90
        5
 70
     0
 43
0.0
 10
-326.446997
 20
214.3768689999999
 10
-326.4838509999999
 20
214.415559
 10
-326.525604
 20
214.45087
 10
-326.5717819999999
 20
214.482402
 10
-326.6218609999999
 20
214.509798
  0
LWPOLYLINE
  5
80E
330
19
100
AcDbEntity
  8
PV
100
AcDbPolyline
 90
        7
 70
     0
 43
0.0
 10
-326.6218609999999
 20
214.509797
 10
-326.650602
 20
214.522385
 10
-326.6806379999999
 20
214.5328279999999
 10
-326.711722
 20
214.541041
 10
-326.7436009999999
 20
214.5469549999999
 10
-326.7760129999999
 20
214.5505229999999
 10
-326.808692
 20
214.551716
  0
LWPOLYLINE
  5
817
330
19
100
AcDbEntity
  8
PV
100
AcDbPolyline
 90
        7
 70
     0
 43
0.0
 10
-326.808692
 20
214.551716
 10
-326.8413709999999
 20
214.5505229999999
 10
-326.873783
 20
214.5469549999999
 10
-326.905662
 20
214.541041
 10
-326.9367459999999
 20
214.5328279999999
 10
-326.9667819999999
 20
214.522385
 10
-326.9955229999999
 20
214.509797
  0
LWPOLYLINE
  5
820
330
19
100
AcDbEntity
  8
PV
100
AcDbPolyline
 90
        5
 70
     0
 43
0.0
 10
-326.9955219999999
 20
214.509798
 10
-327.0456009999999
 20
214.482402
 10
-327.091779
 20
214.45087
 10
-327.1335319999999
 20
214.415559
 10
-327.170386
 20
214.3768689999999
  0
LWPOLYLINE
  5
827
330
19
100
AcDbEntity
  8
PV
100
AcDbPolyline
 90
        5
 70
     0
 43
0.0
 10
-327.170386
 20
214.3768689999999
 10
-327.2037379999999
 20
214.3340789999999
 10
-327.2326779999999
 20
214.289252
 10
-327.2570149999999
 20
214.242683
 10
-327.27659
 20
214.1946789999999
  0
LWPOLYLINE
  5
82E
330
19
100
AcDbEntity
  8
PV
100
AcDbPolyline
 90
        5
 70
     0
 43
0.0
 10
-327.27659
 20
214.1946789999999
 10
-327.294046
 20
214.1377639999999
 10
-327.306575
 20
214.080012
 10
-327.314117
 20
214.0217
 10
-327.3166339999999
 20
213.963108
  0
LWPOLYLINE
  5
835
330
19
100
AcDbEntity
  8
PV
100
AcDbPolyline
 90
        5
 70
     0
 43
0.0
 10
-327.3166339999999
 20
213.963108
 10
-327.314117
 20
213.904516
 10
-327.306575
 20
213.8462039999999
 10
-327.294046
 20
213.788452
 10
-327.27659
 20
213.731537
  0
LWPOLYLINE
  5
83C
330
19
100
AcDbEntity
  8
PV
100
AcDbPolyline
 90
        5
 70
     0
 43
0.0
 10
-327.27659
 20
213.731537
 10
-327.2570149999999
 20
213.683533
 10
-327.2326779999999
 20
213.636964
 10
-327.2037379999999
 20
213.592137
 10
-327.170386
 20
213.549347
  0
LWPOLYLINE
  5
843
330
19
100
AcDbEntity
  8
PV
100
AcDbPolyline
 90
        5
 70
     0
 43
0.0
 10
-327.170385
 20
213.549347
 10
-327.1335319999999
 20
213.510657
 10
-327.091779
 20
213.475346
 10
-327.0456009999999
 20
213.4438139999999
 10
-326.9955219999999
 20
213.416418
  0
LWPOLYLINE
  5
84A
330
19
100
AcDbEntity
  8
PV
100
AcDbPolyline
 90
        7
 70
     0
 43
0.0
 10
-326.9955229999999
 20
213.4164189999999
 10
-326.9667819999999
 20
213.403831
 10
-326.9367459999999
 20
213.3933879999999
 10
-326.905662
 20
213.385175
 10
-326.873783
 20
213.3792609999999
 10
-326.8413709999999
 20
213.375693
 10
-326.808692
 20
213.3745
  0
LWPOLYLINE
  5
853
330
19
100
AcDbEntity
  8
PV
100
AcDbPolyline
 90
        7
 70
     0
 43
0.0
 10
-326.808692
 20
213.5129959999999
 10
-326.7915529999999
 20
213.513622
 10
-326.774554
 20
213.515493
 10
-326.757834
 20
213.5185949999999
 10
-326.741531
 20
213.522902
 10
-326.725778
 20
213.5283789999999
 10
-326.7107049999999
 20
213.534981
  0
LWPOLYLINE
  5
85C
330
19
100
AcDbEntity
  8
PV
100
AcDbPolyline
 90
        5
 70
     0
 43
0.0
 10
-326.710704
 20
213.534981
 10
-326.675775
 20
213.554089
 10
-326.643566
 20
213.5760819999999
 10
-326.614444
 20
213.600712
 10
-326.588739
 20
213.627697
  0
LWPOLYLINE
  5
863
330
19
100
AcDbEntity
  8
PV
100
AcDbPolyline
 90
        5
 70
     0
 43
0.0
 10
-326.5887379999999
 20
213.627698
 10
-326.562799
 20
213.6609779999999
 10
-326.540291
 20
213.695842
 10
-326.521363
 20
213.73206
 10
-326.506139
 20
213.769395
  0
LWPOLYLINE
  5
86A
330
19
100
AcDbEntity
  8
PV
100
AcDbPolyline
 90
        5
 70
     0
 43
0.0
 10
-326.506139
 20
213.769395
 10
-326.4915359999999
 20
213.8170059999999
 10
-326.4810549999999
 20
213.865316
 10
-326.474747
 20
213.914095
 10
-326.472641
 20
213.963108
  0
LWPOLYLINE
  5
871
330
19
100
AcDbEntity
  8
PV
100
AcDbPolyline
 90
        5
 70
     0
 43
0.0
 10
-326.472641
 20
213.963108
 10
-326.474747
 20
214.012121
 10
-326.4810549999999
 20
214.0608999999999
 10
-326.4915359999999
 20
214.10921
 10
-326.506139
 20
214.1568209999999
  0
LWPOLYLINE
  5
878
330
19
100
AcDbEntity
  8
PV
100
AcDbPolyline
 90
        5
 70
     0
 43
0.0
 10
-326.506139
 20
214.1568209999999
 10
-326.521363
 20
214.1941559999999
 10
-326.540291
 20
214.230374
 10
-326.562799
 20
214.2652379999999
 10
-326.5887379999999
 20
214.298518
  0
LWPOLYLINE
  5
87F
330
19
100
AcDbEntity
  8
PV
100
AcDbPolyline
 90
        5
 70
     0
 43
0.0
 10
-326.588739
 20
214.298519
 10
-326.614444
 20
214.325504
 10
-326.643566
 20
214.3501339999999
 10
-326.675775
 20
214.3721269999999
 10
-326.710704
 20
214.391235
  0
LWPOLYLINE
  5
886
330
19
100
AcDbEntity
  8
PV
100
AcDbPolyline
 90
        7
 70
     0
 43
0.0
 10
-326.7107049999999
 20
214.391235
 10
-326.725778
 20
214.397837
 10
-326.741531
 20
214.403314
 10
-326.757834
 20
214.407621
 10
-326.774554
 20
214.4107229999999
 10
-326.7915529999999
 20
214.4125939999999
 10
-326.808692
 20
214.41322
  0
LWPOLYLINE
  5
88F
330
19
100
AcDbEntity
  8
PV
100
AcDbPolyline
 90
        7
 70
     0
 43
0.0
 10
-326.808692
 20
214.41322
 10
-326.825831
 20
214.4125939999999
 10
-326.84283
 20
214.4107229999999
 10
-326.8595499999999
 20
214.407621
 10
-326.8758529999999
 20
214.403314
 10
-326.891606
 20
214.397837
 10
-326.906679
 20
214.391235
  0
LWPOLYLINE
  5
898
330
19
100
AcDbEntity
  8
PV
100
AcDbPolyline
 90
        5
 70
     0
 43
0.0
 10
-326.906679
 20
214.391235
 10
-326.941608
 20
214.3721269999999
 10
-326.973817
 20
214.3501339999999
 10
-327.002939
 20
214.325504
 10
-327.028644
 20
214.298519
  0
LWPOLYLINE
  5
89F
330
19
100
AcDbEntity
  8
PV
100
AcDbPolyline
 90
        5
 70
     0
 43
0.0
 10
-327.028645
 20
214.298518
 10
-327.054584
 20
214.2652379999999
 10
-327.0770919999999
 20
214.230374
 10
-327.09602
 20
214.1941559999999
 10
-327.111244
 20
214.1568209999999
  0
LWPOLYLINE
  5
8A6
330
19
100
AcDbEntity
  8
PV
100
AcDbPolyline
 90
        5
 70
     0
 43
0.0
 10
-327.111244
 20
214.1568209999999
 10
-327.125847
 20
214.10921
 10
-327.136328
 20
214.0608999999999
 10
-327.1426359999999
 20
214.012121
 10
-327.144742
 20
213.963108
  0
LWPOLYLINE
  5
8AD
330
19
100
AcDbEntity
  8
PV
100
AcDbPolyline
 90
        5
 70
     0
 43
0.0
 10
-327.144742
 20
213.963108
 10
-327.1426359999999
 20
213.914095
 10
-327.136328
 20
213.865316
 10
-327.125847
 20
213.8170059999999
 10
-327.111244
 20
213.769395
  0
LWPOLYLINE
  5
8B4
330
19
100
AcDbEntity
  8
PV
100
AcDbPolyline
 90
        5
 70
     0
 43
0.0
 10
-327.111244
 20
213.769395
 10
-327.09602
 20
213.73206
 10
-327.0770919999999
 20
213.695842
 10
-327.054584
 20
213.6609779999999
 10
-327.028645
 20
213.627698
  0
LWPOLYLINE
  5
8BB
330
19
100
AcDbEntity
  8
PV
100
AcDbPolyline
 90
        5
 70
     0
 43
0.0
 10
-327.028644
 20
213.627697
 10
-327.002939
 20
213.600712
 10
-326.973817
 20
213.5760819999999
 10
-326.941608
 20
213.554089
 10
-326.906679
 20
213.534981
  0
LWPOLYLINE
  5
8C2
330
19
100
AcDbEntity
  8
PV
100
AcDbPolyline
 90
        7
 70
     0
 43
0.0
 10
-326.906679
 20
213.534981
 10
-326.891606
 20
213.5283789999999
 10
-326.8758529999999
 20
213.522902
 10
-326.8595499999999
 20
213.5185949999999
 10
-326.84283
 20
213.515493
 10
-326.825831
 20
213.513622
 10
-326.808692
 20
213.5129959999999
  0
LWPOLYLINE
  5
8CB
330
19
100
AcDbEntity
  8
PV
100
AcDbPolyline
 90
        5
 70
     0
 43
0.0
 10
-327.6338069999999
 20
214.118916
 10
-327.6365579999999
 20
214.128441
 10
-327.639471
 20
214.137935
 10
-327.642546
 20
214.1473959999999
 10
-327.6457839999999
 20
214.1568209999999
  0
LWPOLYLINE
  5
8D2
330
19
100
AcDbEntity
  8
PV
100
AcDbPolyline
 90
        5
 70
     0
 43
0.0
 10
-327.6457839999999
 20
214.1568209999999
 10
-327.6610079999999
 20
214.1941559999999
 10
-327.679936
 20
214.230374
 10
-327.702444
 20
214.2652379999999
 10
-327.728383
 20
214.298518
  0
LWPOLYLINE
  5
8D9
330
19
100
AcDbEntity
  8
PV
100
AcDbPolyline
 90
        5
 70
     0
 43
0.0
 10
-327.728383
 20
214.298519
 10
-327.7540879999999
 20
214.325504
 10
-327.7832099999999
 20
214.3501339999999
 10
-327.815419
 20
214.3721269999999
 10
-327.8503479999999
 20
214.391235
  0
LWPOLYLINE
  5
8E0
330
19
100
AcDbEntity
  8
PV
100
AcDbPolyline
 90
        7
 70
     0
 43
0.0
 10
-327.8503489999999
 20
214.391235
 10
-327.865422
 20
214.397837
 10
-327.881175
 20
214.403314
 10
-327.8974779999999
 20
214.407621
 10
-327.9141979999999
 20
214.4107229999999
 10
-327.931197
 20
214.4125939999999
 10
-327.9483359999999
 20
214.41322
  0
LWPOLYLINE
  5
8E9
330
19
100
AcDbEntity
  8
PV
100
AcDbPolyline
 90
        7
 70
     0
 43
0.0
 10
-327.9483359999999
 20
214.41322
 10
-327.965475
 20
214.4125939999999
 10
-327.982474
 20
214.4107229999999
 10
-327.9991939999999
 20
214.407621
 10
-328.015497
 20
214.403314
 10
-328.0312499999999
 20
214.397837
 10
-328.0463229999999
 20
214.391235
  0
LWPOLYLINE
  5
8F2
330
19
100
AcDbEntity
  8
PV
100
AcDbPolyline
 90
        5
 70
     0
 43
0.0
 10
-328.0463229999999
 20
214.391235
 10
-328.081252
 20
214.3721269999999
 10
-328.1134609999999
 20
214.3501339999999
 10
-328.1425829999999
 20
214.325504
 10
-328.1682879999999
 20
214.298519
  0
LWPOLYLINE
  5
8F9
330
19
100
AcDbEntity
  8
PV
100
AcDbPolyline
 90
        5
 70
     0
 43
0.0
 10
-328.168289
 20
214.298518
 10
-328.1942279999999
 20
214.2652379999999
 10
-328.2167359999999
 20
214.230374
 10
-328.2356639999999
 20
214.1941559999999
 10
-328.2508879999999
 20
214.1568209999999
  0
LWPOLYLINE
  5
900
330
19
100
AcDbEntity
  8
PV
100
AcDbPolyline
 90
        5
 70
     0
 43
0.0
 10
-328.2508879999999
 20
214.1568209999999
 10
-328.265491
 20
214.10921
 10
-328.275972
 20
214.0608999999999
 10
-328.2822799999999
 20
214.012121
 10
-328.2843859999999
 20
213.963108
  0
LWPOLYLINE
  5
907
330
19
100
AcDbEntity
  8
PV
100
AcDbPolyline
 90
        5
 70
     0
 43
0.0
 10
-328.2843859999999
 20
213.963108
 10
-328.2822799999999
 20
213.914095
 10
-328.275972
 20
213.865316
 10
-328.265491
 20
213.8170059999999
 10
-328.2508879999999
 20
213.769395
  0
LWPOLYLINE
  5
90E
330
19
100
AcDbEntity
  8
PV
100
AcDbPolyline
 90
        5
 70
     0
 43
0.0
 10
-328.2508879999999
 20
213.769395
 10
-328.2356639999999
 20
213.73206
 10
-328.2167359999999
 20
213.695842
 10
-328.1942279999999
 20
213.6609779999999
 10
-328.168289
 20
213.627698
  0
LWPOLYLINE
  5
915
330
19
100
AcDbEntity
  8
PV
100
AcDbPolyline
 90
        5
 70
     0
 43
0.0
 10
-328.1682879999999
 20
213.627697
 10
-328.1425829999999
 20
213.600712
 10
-328.1134609999999
 20
213.5760819999999
 10
-328.081252
 20
213.554089
 10
-328.0463229999999
 20
213.534981
  0
LWPOLYLINE
  5
91C
330
19
100
AcDbEntity
  8
PV
100
AcDbPolyline
 90
        7
 70
     0
 43
0.0
 10
-328.0463229999999
 20
213.534981
 10
-328.0312499999999
 20
213.5283789999999
 10
-328.015497
 20
213.522902
 10
-327.9991939999999
 20
213.5185949999999
 10
-327.982474
 20
213.515493
 10
-327.965475
 20
213.513622
 10
-327.9483359999999
 20
213.5129959999999
  0
LWPOLYLINE
  5
925
330
19
100
AcDbEntity
  8
PV
100
AcDbPolyline
 90
        7
 70
     0
 43
0.0
 10
-327.9483359999999
 20
213.5129959999999
 10
-327.931197
 20
213.513622
 10
-327.9141979999999
 20
213.515493
 10
-327.8974779999999
 20
213.5185949999999
 10
-327.881175
 20
213.522902
 10
-327.865422
 20
213.5283789999999
 10
-327.8503489999999
 20
213.534981
  0
LWPOLYLINE
  5
92E
330
19
100
AcDbEntity
  8
PV
100
AcDbPolyline
 90
        5
 70
     0
 43
0.0
 10
-327.8503479999999
 20
213.534981
 10
-327.815419
 20
213.554089
 10
-327.7832099999999
 20
213.5760819999999
 10
-327.7540879999999
 20
213.600712
 10
-327.728383
 20
213.627697
  0
LWPOLYLINE
  5
935
330
19
100
AcDbEntity
  8
PV
100
AcDbPolyline
 90
        5
 70
     0
 43
0.0
 10
-327.728383
 20
213.627698
 10
-327.702444
 20
213.6609779999999
 10
-327.679936
 20
213.695842
 10
-327.6610079999999
 20
213.73206
 10
-327.6457839999999
 20
213.769395
  0
LWPOLYLINE
  5
93C
330
19
100
AcDbEntity
  8
PV
100
AcDbPolyline
 90
        5
 70
     0
 43
0.0
 10
-327.6457839999999
 20
213.769395
 10
-327.642546
 20
213.77882
 10
-327.639471
 20
213.788281
 10
-327.6365579999999
 20
213.797775
 10
-327.6338069999999
 20
213.8072999999999
  0
LWPOLYLINE
  5
943
330
19
100
AcDbEntity
  8
PV
100
AcDbPolyline
 90
        5
 70
     0
 43
0.0
 10
-327.4583299999999
 20
214.118916
 10
-327.463045
 20
214.1380049999999
 10
-327.4683039999999
 20
214.157002
 10
-327.474102
 20
214.175897
 10
-327.4804379999999
 20
214.1946789999999
  0
LWPOLYLINE
  5
94A
330
19
100
AcDbEntity
  8
PV
100
AcDbPolyline
 90
        5
 70
     0
 43
0.0
 10
-327.4804379999999
 20
214.1946789999999
 10
-327.5000129999999
 20
214.242683
 10
-327.52435
 20
214.289252
 10
-327.5532899999999
 20
214.3340789999999
 10
-327.5866419999999
 20
214.3768689999999
  0
LWPOLYLINE
  5
951
330
19
100
AcDbEntity
  8
PV
100
AcDbPolyline
 90
        5
 70
     0
 43
0.0
 10
-327.586641
 20
214.3768689999999
 10
-327.623495
 20
214.415559
 10
-327.665248
 20
214.45087
 10
-327.7114259999999
 20
214.482402
 10
-327.761505
 20
214.509798
  0
LWPOLYLINE
  5
958
330
19
100
AcDbEntity
  8
PV
100
AcDbPolyline
 90
        7
 70
     0
 43
0.0
 10
-327.761505
 20
214.509797
 10
-327.790246
 20
214.522385
 10
-327.8202819999999
 20
214.5328279999999
 10
-327.851366
 20
214.541041
 10
-327.883245
 20
214.5469549999999
 10
-327.915657
 20
214.5505229999999
 10
-327.9483359999999
 20
214.551716
  0
LWPOLYLINE
  5
961
330
19
100
AcDbEntity
  8
PV
100
AcDbPolyline
 90
        7
 70
     0
 43
0.0
 10
-327.9483359999999
 20
214.551716
 10
-327.981015
 20
214.5505229999999
 10
-328.013427
 20
214.5469549999999
 10
-328.0453059999999
 20
214.541041
 10
-328.07639
 20
214.5328279999999
 10
-328.1064259999999
 20
214.522385
 10
-328.1351669999999
 20
214.509797
  0
LWPOLYLINE
  5
96A
330
19
100
AcDbEntity
  8
PV
100
AcDbPolyline
 90
        5
 70
     0
 43
0.0
 10
-328.135166
 20
214.509798
 10
-328.185245
 20
214.482402
 10
-328.231423
 20
214.45087
 10
-328.2731759999999
 20
214.415559
 10
-328.31003
 20
214.3768689999999
  0
LWPOLYLINE
  5
971
330
19
100
AcDbEntity
  8
PV
100
AcDbPolyline
 90
        5
 70
     0
 43
0.0
 10
-328.31003
 20
214.3768689999999
 10
-328.3433819999999
 20
214.3340789999999
 10
-328.372322
 20
214.289252
 10
-328.3966589999999
 20
214.242683
 10
-328.4162339999999
 20
214.1946789999999
  0
LWPOLYLINE
  5
978
330
19
100
AcDbEntity
  8
PV
100
AcDbPolyline
 90
        5
 70
     0
 43
0.0
 10
-328.4162339999999
 20
214.1946789999999
 10
-328.43369
 20
214.1377639999999
 10
-328.4462189999999
 20
214.080012
 10
-328.453761
 20
214.0217
 10
-328.4562789999999
 20
213.963108
  0
LWPOLYLINE
  5
97F
330
19
100
AcDbEntity
  8
PV
100
AcDbPolyline
 90
        5
 70
     0
 43
0.0
 10
-328.4562789999999
 20
213.963108
 10
-328.453761
 20
213.904516
 10
-328.4462189999999
 20
213.8462039999999
 10
-328.43369
 20
213.788452
 10
-328.4162339999999
 20
213.731537
  0
LWPOLYLINE
  5
986
330
19
100
AcDbEntity
  8
PV
100
AcDbPolyline
 90
        5
 70
     0
 43
0.0
 10
-328.4162339999999
 20
213.731537
 10
-328.3966589999999
 20
213.683533
 10
-328.372322
 20
213.636964
 10
-328.3433819999999
 20
213.592137
 10
-328.31003
 20
213.549347
  0
LWPOLYLINE
  5
98D
330
19
100
AcDbEntity
  8
PV
100
AcDbPolyline
 90
        5
 70
     0
 43
0.0
 10
-328.310029
 20
213.549347
 10
-328.2731759999999
 20
213.510657
 10
-328.231423
 20
213.475346
 10
-328.185245
 20
213.4438139999999
 10
-328.135166
 20
213.416418
  0
LWPOLYLINE
  5
994
330
19
100
AcDbEntity
  8
PV
100
AcDbPolyline
 90
        7
 70
     0
 43
0.0
 10
-328.1351669999999
 20
213.4164189999999
 10
-328.1064259999999
 20
213.403831
 10
-328.07639
 20
213.3933879999999
 10
-328.0453059999999
 20
213.385175
 10
-328.013427
 20
213.3792609999999
 10
-327.981015
 20
213.375693
 10
-327.9483359999999
 20
213.3745
  0
LWPOLYLINE
  5
99D
330
19
100
AcDbEntity
  8
PV
100
AcDbPolyline
 90
        7
 70
     0
 43
0.0
 10
-327.9483359999999
 20
213.3745
 10
-327.915657
 20
213.375693
 10
-327.883245
 20
213.3792609999999
 10
-327.851366
 20
213.385175
 10
-327.8202819999999
 20
213.3933879999999
 10
-327.790246
 20
213.403831
 10
-327.761505
 20
213.4164189999999
  0
LWPOLYLINE
  5
9A6
330
19
100
AcDbEntity
  8
PV
100
AcDbPolyline
 90
        5
 70
     0
 43
0.0
 10
-327.761505
 20
213.416418
 10
-327.7114259999999
 20
213.4438139999999
 10
-327.665248
 20
213.475346
 10
-327.623495
 20
213.510657
 10
-327.586641
 20
213.549347
  0
LWPOLYLINE
  5
9AD
330
19
100
AcDbEntity
  8
PV
100
AcDbPolyline
 90
        5
 70
     0
 43
0.0
 10
-327.5866419999999
 20
213.549347
 10
-327.5532899999999
 20
213.592137
 10
-327.52435
 20
213.636964
 10
-327.5000129999999
 20
213.683533
 10
-327.4804379999999
 20
213.731537
  0
LWPOLYLINE
  5
9B4
330
19
100
AcDbEntity
  8
PV
100
AcDbPolyline
 90
        5
 70
     0
 43
0.0
 10
-327.4804379999999
 20
213.731537
 10
-327.474102
 20
213.7503189999999
 10
-327.4683039999999
 20
213.7692139999999
 10
-327.463045
 20
213.788211
 10
-327.4583299999999
 20
213.8072999999999
  0
LINE
  5
9BB
330
19
100
AcDbEntity
  8
PV
100
AcDbLine
 10
-327.6338069999999
 20
213.8072999999999
 30
0.0
 11
-327.4583289999999
 21
213.8072999999999
 31
0.0
  0
LINE
  5
9BC
330
19
100
AcDbEntity
  8
PV
100
AcDbLine
 10
-327.6338069999999
 20
214.118916
 30
0.0
 11
-327.4583289999999
 21
214.118916
 31
0.0
  0
TEXT
  5
9BD
330
19
100
AcDbEntity
  8
PV
100
AcDbText
 10
-380.833233
 20
244.359077
 30
0.0
 40
1.25
  1
MADE IN JAPAN
 41
0.8813559999999998
  7
MONOTXT
100
AcDbText
  0
LINE
  5
9BE
330
19
100
AcDbEntity
  8
PV
100
AcDbLine
 10
-338.533233
 20
241.7951009999999
 30
0.0
 11
-338.1702569999999
 21
241.7951009999999
 31
0.0
  0
LINE
  5
9BF
330
19
100
AcDbEntity
  8
PV
100
AcDbLine
 10
-337.531191
 20
238.968747
 30
0.0
 11
-337.227282
 21
238.968747
 31
0.0
  0
LINE
  5
9C0
330
19
100
AcDbEntity
  8
PV
100
AcDbLine
 10
-336.225239
 20
241.7951009999999
 30
0.0
 11
-336.588215
 21
241.7951009999999
 31
0.0
  0
LINE
  5
9C1
330
19
100
AcDbEntity
  8
PV
100
AcDbLine
 10
-337.227282
 20
240.260724
 30
0.0
 11
-337.227282
 21
238.968747
 31
0.0
  0
LINE
  5
9C2
330
19
100
AcDbEntity
  8
PV
100
AcDbLine
 10
-337.531191
 20
240.260724
 30
0.0
 11
-337.531191
 21
238.968747
 31
0.0
  0
LINE
  5
9C3
330
19
100
AcDbEntity
  8
PV
100
AcDbLine
 10
-338.1702569999999
 20
241.7951009999999
 30
0.0
 11
-337.3792359999999
 21
240.58385
 31
0.0
  0
LINE
  5
9C4
330
19
100
AcDbEntity
  8
PV
100
AcDbLine
 10
-338.533233
 20
241.7951009999999
 30
0.0
 11
-337.531191
 21
240.260724
 31
0.0
  0
LINE
  5
9C5
330
19
100
AcDbEntity
  8
PV
100
AcDbLine
 10
-337.3792359999999
 20
240.58385
 30
0.0
 11
-336.588215
 21
241.7951009999999
 31
0.0
  0
LINE
  5
9C6
330
19
100
AcDbEntity
  8
PV
100
AcDbLine
 10
-337.227282
 20
240.260724
 30
0.0
 11
-336.225239
 21
241.7951009999999
 31
0.0
  0
LINE
  5
9C7
330
19
100
AcDbEntity
  8
PV
100
AcDbLine
 10
-341.7882329999999
 20
238.936404
 30
0.0
 11
-340.7697609999999
 21
241.806643
 31
0.0
  0
LINE
  5
9C8
330
19
100
AcDbEntity
  8
PV
100
AcDbLine
 10
-340.323165
 20
241.806643
 30
0.0
 11
-339.3664189999999
 21
238.936404
 31
0.0
  0
LINE
  5
9C9
330
19
100
AcDbEntity
  8
PV
100
AcDbLine
 10
-340.7697609999999
 20
241.806643
 30
0.0
 11
-340.323165
 21
241.806643
 31
0.0
  0
LINE
  5
9CA
330
19
100
AcDbEntity
  8
PV
100
AcDbLine
 10
-341.130968
 20
239.9240129999999
 30
0.0
 11
-340.000422
 21
239.9240129999999
 31
0.0
  0
LINE
  5
9CB
330
19
100
AcDbEntity
  8
PV
100
AcDbLine
 10
-341.028363
 20
240.213172
 30
0.0
 11
-340.096809
 21
240.213172
 31
0.0
  0
LINE
  5
9CC
330
19
100
AcDbEntity
  8
PV
100
AcDbLine
 10
-341.48141
 20
238.936404
 30
0.0
 11
-341.130968
 21
239.9240129999999
 31
0.0
  0
LINE
  5
9CD
330
19
100
AcDbEntity
  8
PV
100
AcDbLine
 10
-340.5480299999999
 20
241.566837
 30
0.0
 11
-340.096809
 21
240.213172
 31
0.0
  0
LINE
  5
9CE
330
19
100
AcDbEntity
  8
PV
100
AcDbLine
 10
-341.7882329999999
 20
238.936404
 30
0.0
 11
-341.48141
 21
238.936404
 31
0.0
  0
LINE
  5
9CF
330
19
100
AcDbEntity
  8
PV
100
AcDbLine
 10
-339.671219
 20
238.936404
 30
0.0
 11
-339.3664189999999
 21
238.936404
 31
0.0
  0
LINE
  5
9D0
330
19
100
AcDbEntity
  8
PV
100
AcDbLine
 10
-340.000422
 20
239.9240129999999
 30
0.0
 11
-339.671219
 21
238.936404
 31
0.0
  0
LINE
  5
9D1
330
19
100
AcDbEntity
  8
PV
100
AcDbLine
 10
-341.028363
 20
240.213172
 30
0.0
 11
-340.5480299999999
 21
241.566837
 31
0.0
  0
LINE
  5
9D2
330
19
100
AcDbEntity
  8
PV
100
AcDbLine
 10
-345.0432329999999
 20
241.699953
 30
0.0
 11
-344.7654679999999
 21
241.699953
 31
0.0
  0
LINE
  5
9D3
330
19
100
AcDbEntity
  8
PV
100
AcDbLine
 10
-343.6266319999999
 20
238.9778559999999
 30
0.0
 11
-343.6266319999999
 21
239.2556209999999
 31
0.0
  0
LINE
  5
9D4
330
19
100
AcDbEntity
  8
PV
100
AcDbLine
 10
-344.7654679999999
 20
241.699953
 30
0.0
 11
-344.7654679999999
 21
239.2556209999999
 31
0.0
  0
LINE
  5
9D5
330
19
100
AcDbEntity
  8
PV
100
AcDbLine
 10
-345.0432329999999
 20
241.699953
 30
0.0
 11
-345.0432329999999
 21
238.9778559999999
 31
0.0
  0
LINE
  5
9D6
330
19
100
AcDbEntity
  8
PV
100
AcDbLine
 10
-344.7654679999999
 20
239.2556209999999
 30
0.0
 11
-343.6266319999999
 21
239.2556209999999
 31
0.0
  0
LINE
  5
9D7
330
19
100
AcDbEntity
  8
PV
100
AcDbLine
 10
-345.0432329999999
 20
238.9778559999999
 30
0.0
 11
-343.6266319999999
 21
238.9778559999999
 31
0.0
  0
LINE
  5
9D8
330
19
100
AcDbEntity
  8
PV
100
AcDbLine
 10
-347.128752
 20
240.2943609999999
 30
0.0
 11
-347.128752
 21
240.5663339999999
 31
0.0
  0
LINE
  5
9D9
330
19
100
AcDbEntity
  8
PV
100
AcDbLine
 10
-348.298233
 20
241.79021
 30
0.0
 11
-348.298233
 21
238.988894
 31
0.0
  0
LINE
  5
9DA
330
19
100
AcDbEntity
  8
PV
100
AcDbLine
 10
-348.298233
 20
238.988894
 30
0.0
 11
-346.775188
 21
238.988894
 31
0.0
  0
LINE
  5
9DB
330
19
100
AcDbEntity
  8
PV
100
AcDbLine
 10
-348.026261
 20
239.260866
 30
0.0
 11
-346.775188
 21
239.260866
 31
0.0
  0
LINE
  5
9DC
330
19
100
AcDbEntity
  8
PV
100
AcDbLine
 10
-347.128752
 20
240.2943609999999
 30
0.0
 11
-348.026261
 21
240.2943609999999
 31
0.0
  0
LINE
  5
9DD
330
19
100
AcDbEntity
  8
PV
100
AcDbLine
 10
-347.128752
 20
240.5663339999999
 30
0.0
 11
-348.026261
 21
240.5663339999999
 31
0.0
  0
LINE
  5
9DE
330
19
100
AcDbEntity
  8
PV
100
AcDbLine
 10
-346.775188
 20
241.518237
 30
0.0
 11
-348.026261
 21
241.518237
 31
0.0
  0
LINE
  5
9DF
330
19
100
AcDbEntity
  8
PV
100
AcDbLine
 10
-346.775188
 20
241.79021
 30
0.0
 11
-348.298233
 21
241.79021
 31
0.0
  0
LINE
  5
9E0
330
19
100
AcDbEntity
  8
PV
100
AcDbLine
 10
-346.775188
 20
241.518237
 30
0.0
 11
-346.775188
 21
241.79021
 31
0.0
  0
LINE
  5
9E1
330
19
100
AcDbEntity
  8
PV
100
AcDbLine
 10
-346.775188
 20
238.988894
 30
0.0
 11
-346.775188
 21
239.260866
 31
0.0
  0
LINE
  5
9E2
330
19
100
AcDbEntity
  8
PV
100
AcDbLine
 10
-348.026261
 20
239.260866
 30
0.0
 11
-348.026261
 21
240.2943609999999
 31
0.0
  0
LINE
  5
9E3
330
19
100
AcDbEntity
  8
PV
100
AcDbLine
 10
-348.026261
 20
240.5663339999999
 30
0.0
 11
-348.026261
 21
241.518237
 31
0.0
  0
LINE
  5
9E4
330
19
100
AcDbEntity
  8
PV
100
AcDbLine
 10
-351.272662
 20
238.991462
 30
0.0
 11
-351.553233
 21
238.991462
 31
0.0
  0
LINE
  5
9E5
330
19
100
AcDbEntity
  8
PV
100
AcDbLine
 10
-349.815487
 20
239.659629
 30
0.0
 11
-349.730702
 21
239.0096069999999
 31
0.0
  0
LINE
  5
9E6
330
19
100
AcDbEntity
  8
PV
100
AcDbLine
 10
-350.0924729999999
 20
239.613921
 30
0.0
 11
-350.0089159999999
 21
238.9733179999999
 31
0.0
  0
LINE
  5
9E7
330
19
100
AcDbEntity
  8
PV
100
AcDbLine
 10
-349.876217
 20
239.9632799999999
 30
0.0
 11
-349.815487
 21
239.659629
 31
0.0
  0
LINE
  5
9E8
330
19
100
AcDbEntity
  8
PV
100
AcDbLine
 10
-350.143971
 20
239.871412
 30
0.0
 11
-350.0924729999999
 21
239.613921
 31
0.0
  0
LINE
  5
9E9
330
19
100
AcDbEntity
  8
PV
100
AcDbLine
 10
-349.9789709999999
 20
240.1687869999999
 30
0.0
 11
-349.876217
 21
239.9632799999999
 31
0.0
  0
LINE
  5
9EA
330
19
100
AcDbEntity
  8
PV
100
AcDbLine
 10
-350.20956
 20
240.002589
 30
0.0
 11
-350.143971
 21
239.871412
 31
0.0
  0
LINE
  5
9EB
330
19
100
AcDbEntity
  8
PV
100
AcDbLine
 10
-350.115359
 20
240.3051749999999
 30
0.0
 11
-349.9789709999999
 21
240.1687869999999
 31
0.0
  0
LINE
  5
9EC
330
19
100
AcDbEntity
  8
PV
100
AcDbLine
 10
-350.31765
 20
240.110679
 30
0.0
 11
-350.20956
 21
240.002589
 31
0.0
  0
LINE
  5
9ED
330
19
100
AcDbEntity
  8
PV
100
AcDbLine
 10
-350.492124
 20
240.197916
 30
0.0
 11
-350.31765
 21
240.110679
 31
0.0
  0
LINE
  5
9EE
330
19
100
AcDbEntity
  8
PV
100
AcDbLine
 10
-350.492124
 20
240.197916
 30
0.0
 11
-351.272662
 21
240.197916
 31
0.0
  0
LINE
  5
9EF
330
19
100
AcDbEntity
  8
PV
100
AcDbLine
 10
-350.4762769999999
 20
240.4784869999999
 30
0.0
 11
-351.272662
 21
240.4784869999999
 31
0.0
  0
LINE
  5
9F0
330
19
100
AcDbEntity
  8
PV
100
AcDbLine
 10
-350.2921489999999
 20
240.524519
 30
0.0
 11
-350.4762769999999
 21
240.4784869999999
 31
0.0
  0
LINE
  5
9F1
330
19
100
AcDbEntity
  8
PV
100
AcDbLine
 10
-349.962145
 20
240.407318
 30
0.0
 11
-350.115359
 21
240.3051749999999
 31
0.0
  0
LINE
  5
9F2
330
19
100
AcDbEntity
  8
PV
100
AcDbLine
 10
-350.170272
 20
240.60577
 30
0.0
 11
-350.2921489999999
 21
240.524519
 31
0.0
  0
LINE
  5
9F3
330
19
100
AcDbEntity
  8
PV
100
AcDbLine
 10
-349.85382
 20
240.5878579999999
 30
0.0
 11
-349.962145
 21
240.407318
 31
0.0
  0
LINE
  5
9F4
330
19
100
AcDbEntity
  8
PV
100
AcDbLine
 10
-350.110254
 20
240.7058009999999
 30
0.0
 11
-350.170272
 21
240.60577
 31
0.0
  0
LINE
  5
9F5
330
19
100
AcDbEntity
  8
PV
100
AcDbLine
 10
-349.7856379999999
 20
240.7924069999999
 30
0.0
 11
-349.85382
 21
240.5878579999999
 31
0.0
  0
LINE
  5
9F6
330
19
100
AcDbEntity
  8
PV
100
AcDbLine
 10
-350.066208
 20
240.837937
 30
0.0
 11
-350.110254
 21
240.7058009999999
 31
0.0
  0
LINE
  5
9F7
330
19
100
AcDbEntity
  8
PV
100
AcDbLine
 10
-349.7856379999999
 20
241.1153899999999
 30
0.0
 11
-349.7856379999999
 21
240.7924069999999
 31
0.0
  0
LINE
  5
9F8
330
19
100
AcDbEntity
  8
PV
100
AcDbLine
 10
-350.066208
 20
241.076095
 30
0.0
 11
-350.066208
 21
240.837937
 31
0.0
  0
LINE
  5
9F9
330
19
100
AcDbEntity
  8
PV
100
AcDbLine
 10
-349.852229
 20
241.348462
 30
0.0
 11
-349.7856379999999
 21
241.1153899999999
 31
0.0
  0
LINE
  5
9FA
330
19
100
AcDbEntity
  8
PV
100
AcDbLine
 10
-350.111845
 20
241.235823
 30
0.0
 11
-350.066208
 21
241.076095
 31
0.0
  0
LINE
  5
9FB
330
19
100
AcDbEntity
  8
PV
100
AcDbLine
 10
-349.962145
 20
241.531654
 30
0.0
 11
-349.852229
 21
241.348462
 31
0.0
  0
LINE
  5
9FC
330
19
100
AcDbEntity
  8
PV
100
AcDbLine
 10
-350.170272
 20
241.3332009999999
 30
0.0
 11
-350.111845
 21
241.235823
 31
0.0
  0
LINE
  5
9FD
330
19
100
AcDbEntity
  8
PV
100
AcDbLine
 10
-350.1769529999999
 20
241.674859
 30
0.0
 11
-349.962145
 21
241.531654
 31
0.0
  0
LINE
  5
9FE
330
19
100
AcDbEntity
  8
PV
100
AcDbLine
 10
-350.2921489999999
 20
241.414452
 30
0.0
 11
-350.170272
 21
241.3332009999999
 31
0.0
  0
LINE
  5
9FF
330
19
100
AcDbEntity
  8
PV
100
AcDbLine
 10
-350.441737
 20
241.741055
 30
0.0
 11
-350.1769529999999
 21
241.674859
 31
0.0
  0
LINE
  5
A00
330
19
100
AcDbEntity
  8
PV
100
AcDbLine
 10
-350.4762769999999
 20
241.4604849999999
 30
0.0
 11
-350.2921489999999
 21
241.414452
 31
0.0
  0
LINE
  5
A01
330
19
100
AcDbEntity
  8
PV
100
AcDbLine
 10
-351.553233
 20
241.741055
 30
0.0
 11
-350.441737
 21
241.741055
 31
0.0
  0
LINE
  5
A02
330
19
100
AcDbEntity
  8
PV
100
AcDbLine
 10
-351.272662
 20
241.4604849999999
 30
0.0
 11
-350.4762769999999
 21
241.4604849999999
 31
0.0
  0
LINE
  5
A03
330
19
100
AcDbEntity
  8
PV
100
AcDbLine
 10
-351.553233
 20
238.991462
 30
0.0
 11
-351.553233
 21
241.741055
 31
0.0
  0
LINE
  5
A04
330
19
100
AcDbEntity
  8
PV
100
AcDbLine
 10
-351.272662
 20
238.991462
 30
0.0
 11
-351.272662
 21
240.197916
 31
0.0
  0
LINE
  5
A05
330
19
100
AcDbEntity
  8
PV
100
AcDbLine
 10
-351.272662
 20
240.4784869999999
 30
0.0
 11
-351.272662
 21
241.4604849999999
 31
0.0
  0
LINE
  5
A06
330
19
100
AcDbEntity
  8
PV
100
AcDbLine
 10
-350.0089159999999
 20
238.9733179999999
 30
0.0
 11
-349.730702
 21
239.0096069999999
 31
0.0
  0
LINE
  5
A07
330
19
100
AcDbEntity
  8
PV
100
AcDbLine
 10
-358.063233
 20
241.656581
 30
0.0
 11
-357.774219
 21
241.656581
 31
0.0
  0
LINE
  5
A08
330
19
100
AcDbEntity
  8
PV
100
AcDbLine
 10
-358.063233
 20
238.968747
 30
0.0
 11
-357.774219
 21
238.968747
 31
0.0
  0
LINE
  5
A09
330
19
100
AcDbEntity
  8
PV
100
AcDbLine
 10
-356.116977
 20
238.968747
 30
0.0
 11
-356.483513
 21
238.968747
 31
0.0
  0
LINE
  5
A0A
330
19
100
AcDbEntity
  8
PV
100
AcDbLine
 10
-356.1981069999999
 20
241.656581
 30
0.0
 11
-356.5757919999999
 21
241.656581
 31
0.0
  0
LINE
  5
A0B
330
19
100
AcDbEntity
  8
PV
100
AcDbLine
 10
-357.774219
 20
241.656581
 30
0.0
 11
-357.774219
 21
240.232036
 31
0.0
  0
LINE
  5
A0C
330
19
100
AcDbEntity
  8
PV
100
AcDbLine
 10
-358.063233
 20
241.656581
 30
0.0
 11
-358.063233
 21
238.968747
 31
0.0
  0
LINE
  5
A0D
330
19
100
AcDbEntity
  8
PV
100
AcDbLine
 10
-357.774219
 20
239.7830899999999
 30
0.0
 11
-357.434073
 21
240.187414
 31
0.0
  0
LINE
  5
A0E
330
19
100
AcDbEntity
  8
PV
100
AcDbLine
 10
-357.774219
 20
240.232036
 30
0.0
 11
-356.5757919999999
 21
241.656581
 31
0.0
  0
LINE
  5
A0F
330
19
100
AcDbEntity
  8
PV
100
AcDbLine
 10
-356.116977
 20
238.968747
 30
0.0
 11
-357.243879
 21
240.413493
 31
0.0
  0
LINE
  5
A10
330
19
100
AcDbEntity
  8
PV
100
AcDbLine
 10
-356.483513
 20
238.968747
 30
0.0
 11
-357.434073
 21
240.187414
 31
0.0
  0
LINE
  5
A11
330
19
100
AcDbEntity
  8
PV
100
AcDbLine
 10
-357.243879
 20
240.413493
 30
0.0
 11
-356.1981069999999
 21
241.656581
 31
0.0
  0
LINE
  5
A12
330
19
100
AcDbEntity
  8
PV
100
AcDbLine
 10
-357.774219
 20
239.7830899999999
 30
0.0
 11
-357.774219
 21
238.968747
 31
0.0
  0
LINE
  5
A13
330
19
100
AcDbEntity
  8
PV
100
AcDbLine
 10
-359.5977459999999
 20
241.0292399999999
 30
0.0
 11
-359.6580169999999
 21
241.3305919999999
 31
0.0
  0
LINE
  5
A14
330
19
100
AcDbEntity
  8
PV
100
AcDbLine
 10
-359.6580169999999
 20
241.3305919999999
 30
0.0
 11
-359.796848
 21
241.5041309999999
 31
0.0
  0
LINE
  5
A15
330
19
100
AcDbEntity
  8
PV
100
AcDbLine
 10
-359.796848
 20
241.5041309999999
 30
0.0
 11
-359.9237689999999
 21
241.599322
 31
0.0
  0
LINE
  5
A16
330
19
100
AcDbEntity
  8
PV
100
AcDbLine
 10
-359.9237689999999
 20
241.599322
 30
0.0
 11
-360.084336
 21
241.695662
 31
0.0
  0
LINE
  5
A17
330
19
100
AcDbEntity
  8
PV
100
AcDbLine
 10
-360.084336
 20
241.695662
 30
0.0
 11
-360.254889
 21
241.729773
 31
0.0
  0
LINE
  5
A18
330
19
100
AcDbEntity
  8
PV
100
AcDbLine
 10
-360.254889
 20
241.729773
 30
0.0
 11
-360.473255
 21
241.729773
 31
0.0
  0
LINE
  5
A19
330
19
100
AcDbEntity
  8
PV
100
AcDbLine
 10
-360.473255
 20
241.729773
 30
0.0
 11
-360.6164589999999
 21
241.693971
 31
0.0
  0
LINE
  5
A1A
330
19
100
AcDbEntity
  8
PV
100
AcDbLine
 10
-360.6164589999999
 20
241.693971
 30
0.0
 11
-360.7742079999999
 21
241.599322
 31
0.0
  0
LINE
  5
A1B
330
19
100
AcDbEntity
  8
PV
100
AcDbLine
 10
-360.7742079999999
 20
241.599322
 30
0.0
 11
-360.895111
 21
241.508645
 31
0.0
  0
LINE
  5
A1C
330
19
100
AcDbEntity
  8
PV
100
AcDbLine
 10
-360.895111
 20
241.508645
 30
0.0
 11
-361.0417659999999
 21
241.361991
 31
0.0
  0
LINE
  5
A1D
330
19
100
AcDbEntity
  8
PV
100
AcDbLine
 10
-361.0417659999999
 20
241.361991
 30
0.0
 11
-361.1691149999999
 21
241.202803
 31
0.0
  0
LINE
  5
A1E
330
19
100
AcDbEntity
  8
PV
100
AcDbLine
 10
-361.1691149999999
 20
241.202803
 30
0.0
 11
-361.233895
 21
241.0084649999999
 31
0.0
  0
LINE
  5
A1F
330
19
100
AcDbEntity
  8
PV
100
AcDbLine
 10
-361.233895
 20
241.0084649999999
 30
0.0
 11
-361.2625549999999
 21
240.836506
 31
0.0
  0
LINE
  5
A20
330
19
100
AcDbEntity
  8
PV
100
AcDbLine
 10
-361.2625549999999
 20
240.836506
 30
0.0
 11
-361.318233
 21
240.502435
 31
0.0
  0
LINE
  5
A21
330
19
100
AcDbEntity
  8
PV
100
AcDbLine
 10
-361.318233
 20
240.502435
 30
0.0
 11
-361.318233
 21
240.135183
 31
0.0
  0
LINE
  5
A22
330
19
100
AcDbEntity
  8
PV
100
AcDbLine
 10
-361.318233
 20
240.135183
 30
0.0
 11
-361.289175
 21
239.815545
 31
0.0
  0
LINE
  5
A23
330
19
100
AcDbEntity
  8
PV
100
AcDbLine
 10
-361.289175
 20
239.815545
 30
0.0
 11
-361.171582
 21
239.492165
 31
0.0
  0
LINE
  5
A24
330
19
100
AcDbEntity
  8
PV
100
AcDbLine
 10
-361.171582
 20
239.492165
 30
0.0
 11
-361.0558849999999
 21
239.2896939999999
 31
0.0
  0
LINE
  5
A25
330
19
100
AcDbEntity
  8
PV
100
AcDbLine
 10
-361.0558849999999
 20
239.2896939999999
 30
0.0
 11
-360.992072
 21
239.193975
 31
0.0
  0
LINE
  5
A26
330
19
100
AcDbEntity
  8
PV
100
AcDbLine
 10
-360.886429
 20
239.0883319999999
 30
0.0
 11
-360.992072
 21
239.193975
 31
0.0
  0
LINE
  5
A27
330
19
100
AcDbEntity
  8
PV
100
AcDbLine
 10
-360.886429
 20
239.0883319999999
 30
0.0
 11
-360.744374
 21
239.017305
 31
0.0
  0
LINE
  5
A28
330
19
100
AcDbEntity
  8
PV
100
AcDbLine
 10
-360.744374
 20
239.017305
 30
0.0
 11
-360.47146
 21
238.9566569999999
 31
0.0
  0
LINE
  5
A29
330
19
100
AcDbEntity
  8
PV
100
AcDbLine
 10
-360.47146
 20
238.9566569999999
 30
0.0
 11
-360.2516459999999
 21
238.9566569999999
 31
0.0
  0
LINE
  5
A2A
330
19
100
AcDbEntity
  8
PV
100
AcDbLine
 10
-360.2516459999999
 20
238.9566569999999
 30
0.0
 11
-359.9953849999999
 21
239.020722
 31
0.0
  0
LINE
  5
A2B
330
19
100
AcDbEntity
  8
PV
100
AcDbLine
 10
-359.9953849999999
 20
239.020722
 30
0.0
 11
-359.7709189999999
 21
239.1810549999999
 31
0.0
  0
LINE
  5
A2C
330
19
100
AcDbEntity
  8
PV
100
AcDbLine
 10
-359.7709189999999
 20
239.1810549999999
 30
0.0
 11
-359.635238
 21
239.350656
 31
0.0
  0
LINE
  5
A2D
330
19
100
AcDbEntity
  8
PV
100
AcDbLine
 10
-359.635238
 20
239.350656
 30
0.0
 11
-359.546963
 21
239.644908
 31
0.0
  0
LINE
  5
A2E
330
19
100
AcDbEntity
  8
PV
100
AcDbLine
 10
-359.878108
 20
239.4780549999999
 30
0.0
 11
-359.804842
 21
239.722272
 31
0.0
  0
LINE
  5
A2F
330
19
100
AcDbEntity
  8
PV
100
AcDbLine
 10
-359.9578139999999
 20
239.378422
 30
0.0
 11
-359.878108
 21
239.4780549999999
 31
0.0
  0
LINE
  5
A30
330
19
100
AcDbEntity
  8
PV
100
AcDbLine
 10
-360.110277
 20
239.26952
 30
0.0
 11
-359.9578139999999
 21
239.378422
 31
0.0
  0
LINE
  5
A31
330
19
100
AcDbEntity
  8
PV
100
AcDbLine
 10
-360.284791
 20
239.2258919999999
 30
0.0
 11
-360.110277
 21
239.26952
 31
0.0
  0
LINE
  5
A32
330
19
100
AcDbEntity
  8
PV
100
AcDbLine
 10
-360.4419049999999
 20
239.2258919999999
 30
0.0
 11
-360.284791
 21
239.2258919999999
 31
0.0
  0
LINE
  5
A33
330
19
100
AcDbEntity
  8
PV
100
AcDbLine
 10
-360.653614
 20
239.272938
 30
0.0
 11
-360.4419049999999
 21
239.2258919999999
 31
0.0
  0
LINE
  5
A34
330
19
100
AcDbEntity
  8
PV
100
AcDbLine
 10
-360.7269459999999
 20
239.309604
 30
0.0
 11
-360.653614
 21
239.272938
 31
0.0
  0
LINE
  5
A35
330
19
100
AcDbEntity
  8
PV
100
AcDbLine
 10
-360.782843
 20
239.365502
 30
0.0
 11
-360.7269459999999
 21
239.309604
 31
0.0
  0
LINE
  5
A36
330
19
100
AcDbEntity
  8
PV
100
AcDbLine
 10
-360.826725
 20
239.4313229999999
 30
0.0
 11
-360.782843
 21
239.365502
 31
0.0
  0
LINE
  5
A37
330
19
100
AcDbEntity
  8
PV
100
AcDbLine
 10
-360.9264149999999
 20
239.605781
 30
0.0
 11
-360.826725
 21
239.4313229999999
 31
0.0
  0
LINE
  5
A38
330
19
100
AcDbEntity
  8
PV
100
AcDbLine
 10
-361.0242099999999
 20
239.874717
 30
0.0
 11
-360.9264149999999
 21
239.605781
 31
0.0
  0
LINE
  5
A39
330
19
100
AcDbEntity
  8
PV
100
AcDbLine
 10
-361.048999
 20
240.147395
 30
0.0
 11
-361.0242099999999
 21
239.874717
 31
0.0
  0
LINE
  5
A3A
330
19
100
AcDbEntity
  8
PV
100
AcDbLine
 10
-361.048999
 20
240.4801529999999
 30
0.0
 11
-361.048999
 21
240.147395
 31
0.0
  0
LINE
  5
A3B
330
19
100
AcDbEntity
  8
PV
100
AcDbLine
 10
-360.996983
 20
240.7922439999999
 30
0.0
 11
-361.048999
 21
240.4801529999999
 31
0.0
  0
LINE
  5
A3C
330
19
100
AcDbEntity
  8
PV
100
AcDbLine
 10
-360.9717959999999
 20
240.9433669999999
 30
0.0
 11
-360.996983
 21
240.7922439999999
 31
0.0
  0
LINE
  5
A3D
330
19
100
AcDbEntity
  8
PV
100
AcDbLine
 10
-360.9288819999999
 20
241.0721099999999
 30
0.0
 11
-360.9717959999999
 21
240.9433669999999
 31
0.0
  0
LINE
  5
A3E
330
19
100
AcDbEntity
  8
PV
100
AcDbLine
 10
-360.840844
 20
241.1821569999999
 30
0.0
 11
-360.9288819999999
 21
241.0721099999999
 31
0.0
  0
LINE
  5
A3F
330
19
100
AcDbEntity
  8
PV
100
AcDbLine
 10
-360.718264
 20
241.304738
 30
0.0
 11
-360.840844
 21
241.1821569999999
 31
0.0
  0
LINE
  5
A40
330
19
100
AcDbEntity
  8
PV
100
AcDbLine
 10
-360.623779
 20
241.3756009999999
 30
0.0
 11
-360.718264
 21
241.304738
 31
0.0
  0
LINE
  5
A41
330
19
100
AcDbEntity
  8
PV
100
AcDbLine
 10
-360.512293
 20
241.442492
 30
0.0
 11
-360.623779
 21
241.3756009999999
 31
0.0
  0
LINE
  5
A42
330
19
100
AcDbEntity
  8
PV
100
AcDbLine
 10
-360.44011
 20
241.4605379999999
 30
0.0
 11
-360.512293
 21
241.442492
 31
0.0
  0
LINE
  5
A43
330
19
100
AcDbEntity
  8
PV
100
AcDbLine
 10
-360.2815479999999
 20
241.4605379999999
 30
0.0
 11
-360.44011
 21
241.4605379999999
 31
0.0
  0
LINE
  5
A44
330
19
100
AcDbEntity
  8
PV
100
AcDbLine
 10
-360.1828669999999
 20
241.4408019999999
 30
0.0
 11
-360.2815479999999
 21
241.4605379999999
 31
0.0
  0
LINE
  5
A45
330
19
100
AcDbEntity
  8
PV
100
AcDbLine
 10
-360.074199
 20
241.3756009999999
 30
0.0
 11
-360.1828669999999
 21
241.4408019999999
 31
0.0
  0
LINE
  5
A46
330
19
100
AcDbEntity
  8
PV
100
AcDbLine
 10
-359.9857319999999
 20
241.3092509999999
 30
0.0
 11
-360.074199
 21
241.3756009999999
 31
0.0
  0
LINE
  5
A47
330
19
100
AcDbEntity
  8
PV
100
AcDbLine
 10
-359.909176
 20
241.213556
 30
0.0
 11
-359.9857319999999
 21
241.3092509999999
 31
0.0
  0
LINE
  5
A48
330
19
100
AcDbEntity
  8
PV
100
AcDbLine
 10
-359.861752
 20
240.9764389999999
 30
0.0
 11
-359.909176
 21
241.213556
 31
0.0
  0
LINE
  5
A49
330
19
100
AcDbEntity
  8
PV
100
AcDbLine
 10
-359.804842
 20
239.722272
 30
0.0
 11
-359.546963
 21
239.644908
 31
0.0
  0
LINE
  5
A4A
330
19
100
AcDbEntity
  8
PV
100
AcDbLine
 10
-359.861752
 20
240.9764389999999
 30
0.0
 11
-359.5977459999999
 21
241.0292399999999
 31
0.0
  0
LINE
  5
A4B
330
19
100
AcDbEntity
  8
PV
100
AcDbLine
 10
-362.6131229999999
 20
240.679741
 30
0.0
 11
-362.6131229999999
 21
240.034247
 31
0.0
  0
LINE
  5
A4C
330
19
100
AcDbEntity
  8
PV
100
AcDbLine
 10
-362.885361
 20
240.660393
 30
0.0
 11
-362.885361
 21
240.053594
 31
0.0
  0
LINE
  5
A4D
330
19
100
AcDbEntity
  8
PV
100
AcDbLine
 10
-362.6131229999999
 20
240.034247
 30
0.0
 11
-362.670675
 21
239.631388
 31
0.0
  0
LINE
  5
A4E
330
19
100
AcDbEntity
  8
PV
100
AcDbLine
 10
-362.885361
 20
240.053594
 30
0.0
 11
-362.936704
 21
239.694189
 31
0.0
  0
LINE
  5
A4F
330
19
100
AcDbEntity
  8
PV
100
AcDbLine
 10
-362.670675
 20
239.631388
 30
0.0
 11
-362.704839
 21
239.528895
 31
0.0
  0
LINE
  5
A50
330
19
100
AcDbEntity
  8
PV
100
AcDbLine
 10
-362.936704
 20
239.694189
 30
0.0
 11
-362.9569879999999
 21
239.633339
 31
0.0
  0
LINE
  5
A51
330
19
100
AcDbEntity
  8
PV
100
AcDbLine
 10
-362.704839
 20
239.528895
 30
0.0
 11
-362.8007149999999
 21
239.337143
 31
0.0
  0
LINE
  5
A52
330
19
100
AcDbEntity
  8
PV
100
AcDbLine
 10
-362.9569879999999
 20
239.633339
 30
0.0
 11
-363.024454
 21
239.498406
 31
0.0
  0
LINE
  5
A53
330
19
100
AcDbEntity
  8
PV
100
AcDbLine
 10
-362.8007149999999
 20
239.337143
 30
0.0
 11
-362.925229
 21
239.2126289999999
 31
0.0
  0
LINE
  5
A54
330
19
100
AcDbEntity
  8
PV
100
AcDbLine
 10
-363.024454
 20
239.498406
 30
0.0
 11
-363.11773
 21
239.40513
 31
0.0
  0
LINE
  5
A55
330
19
100
AcDbEntity
  8
PV
100
AcDbLine
 10
-362.925229
 20
239.2126289999999
 30
0.0
 11
-363.045973
 21
239.091885
 31
0.0
  0
LINE
  5
A56
330
19
100
AcDbEntity
  8
PV
100
AcDbLine
 10
-363.11773
 20
239.40513
 30
0.0
 11
-363.2147759999999
 21
239.3080839999999
 31
0.0
  0
LINE
  5
A57
330
19
100
AcDbEntity
  8
PV
100
AcDbLine
 10
-363.045973
 20
239.091885
 30
0.0
 11
-363.218622
 21
238.988296
 31
0.0
  0
LINE
  5
A58
330
19
100
AcDbEntity
  8
PV
100
AcDbLine
 10
-363.2147759999999
 20
239.3080839999999
 30
0.0
 11
-363.314364
 21
239.248331
 31
0.0
  0
LINE
  5
A59
330
19
100
AcDbEntity
  8
PV
100
AcDbLine
 10
-363.218622
 20
238.988296
 30
0.0
 11
-363.41857
 21
238.954971
 31
0.0
  0
LINE
  5
A5A
330
19
100
AcDbEntity
  8
PV
100
AcDbLine
 10
-363.314364
 20
239.248331
 30
0.0
 11
-363.4411009999999
 21
239.227208
 31
0.0
  0
LINE
  5
A5B
330
19
100
AcDbEntity
  8
PV
100
AcDbLine
 10
-363.41857
 20
238.954971
 30
0.0
 11
-363.5931779999999
 21
238.954971
 31
0.0
  0
LINE
  5
A5C
330
19
100
AcDbEntity
  8
PV
100
AcDbLine
 10
-363.4411009999999
 20
239.227208
 30
0.0
 11
-363.5931779999999
 21
239.227208
 31
0.0
  0
LINE
  5
A5D
330
19
100
AcDbEntity
  8
PV
100
AcDbLine
 10
-363.7452549999999
 20
239.227208
 30
0.0
 11
-363.5931779999999
 21
239.227208
 31
0.0
  0
LINE
  5
A5E
330
19
100
AcDbEntity
  8
PV
100
AcDbLine
 10
-363.767786
 20
238.954971
 30
0.0
 11
-363.5931779999999
 21
238.954971
 31
0.0
  0
LINE
  5
A5F
330
19
100
AcDbEntity
  8
PV
100
AcDbLine
 10
-363.8719919999999
 20
239.248331
 30
0.0
 11
-363.7452549999999
 21
239.227208
 31
0.0
  0
LINE
  5
A60
330
19
100
AcDbEntity
  8
PV
100
AcDbLine
 10
-363.9677339999999
 20
238.988296
 30
0.0
 11
-363.767786
 21
238.954971
 31
0.0
  0
LINE
  5
A61
330
19
100
AcDbEntity
  8
PV
100
AcDbLine
 10
-363.9715799999999
 20
239.3080839999999
 30
0.0
 11
-363.8719919999999
 21
239.248331
 31
0.0
  0
LINE
  5
A62
330
19
100
AcDbEntity
  8
PV
100
AcDbLine
 10
-364.1403829999999
 20
239.091885
 30
0.0
 11
-363.9677339999999
 21
238.988296
 31
0.0
  0
LINE
  5
A63
330
19
100
AcDbEntity
  8
PV
100
AcDbLine
 10
-364.0686259999999
 20
239.40513
 30
0.0
 11
-363.9715799999999
 21
239.3080839999999
 31
0.0
  0
LINE
  5
A64
330
19
100
AcDbEntity
  8
PV
100
AcDbLine
 10
-364.2611269999999
 20
239.2126289999999
 30
0.0
 11
-364.1403829999999
 21
239.091885
 31
0.0
  0
LINE
  5
A65
330
19
100
AcDbEntity
  8
PV
100
AcDbLine
 10
-364.161902
 20
239.498406
 30
0.0
 11
-364.0686259999999
 21
239.40513
 31
0.0
  0
LINE
  5
A66
330
19
100
AcDbEntity
  8
PV
100
AcDbLine
 10
-364.385642
 20
239.337143
 30
0.0
 11
-364.2611269999999
 21
239.2126289999999
 31
0.0
  0
LINE
  5
A67
330
19
100
AcDbEntity
  8
PV
100
AcDbLine
 10
-364.229369
 20
239.633339
 30
0.0
 11
-364.161902
 21
239.498406
 31
0.0
  0
LINE
  5
A68
330
19
100
AcDbEntity
  8
PV
100
AcDbLine
 10
-364.481518
 20
239.528895
 30
0.0
 11
-364.385642
 21
239.337143
 31
0.0
  0
LINE
  5
A69
330
19
100
AcDbEntity
  8
PV
100
AcDbLine
 10
-364.249652
 20
239.694189
 30
0.0
 11
-364.229369
 21
239.633339
 31
0.0
  0
LINE
  5
A6A
330
19
100
AcDbEntity
  8
PV
100
AcDbLine
 10
-364.5156819999999
 20
239.631388
 30
0.0
 11
-364.481518
 21
239.528895
 31
0.0
  0
LINE
  5
A6B
330
19
100
AcDbEntity
  8
PV
100
AcDbLine
 10
-364.300996
 20
240.053594
 30
0.0
 11
-364.249652
 21
239.694189
 31
0.0
  0
LINE
  5
A6C
330
19
100
AcDbEntity
  8
PV
100
AcDbLine
 10
-364.573233
 20
240.034247
 30
0.0
 11
-364.5156819999999
 21
239.631388
 31
0.0
  0
LINE
  5
A6D
330
19
100
AcDbEntity
  8
PV
100
AcDbLine
 10
-364.300996
 20
240.660393
 30
0.0
 11
-364.300996
 21
240.053594
 31
0.0
  0
LINE
  5
A6E
330
19
100
AcDbEntity
  8
PV
100
AcDbLine
 10
-364.573233
 20
240.679741
 30
0.0
 11
-364.573233
 21
240.034247
 31
0.0
  0
LINE
  5
A6F
330
19
100
AcDbEntity
  8
PV
100
AcDbLine
 10
-364.249652
 20
241.019799
 30
0.0
 11
-364.300996
 21
240.660393
 31
0.0
  0
LINE
  5
A70
330
19
100
AcDbEntity
  8
PV
100
AcDbLine
 10
-364.5156819999999
 20
241.0826
 30
0.0
 11
-364.573233
 21
240.679741
 31
0.0
  0
LINE
  5
A71
330
19
100
AcDbEntity
  8
PV
100
AcDbLine
 10
-364.229369
 20
241.080649
 30
0.0
 11
-364.249652
 21
241.019799
 31
0.0
  0
LINE
  5
A72
330
19
100
AcDbEntity
  8
PV
100
AcDbLine
 10
-364.481518
 20
241.185092
 30
0.0
 11
-364.5156819999999
 21
241.0826
 31
0.0
  0
LINE
  5
A73
330
19
100
AcDbEntity
  8
PV
100
AcDbLine
 10
-364.161902
 20
241.2155819999999
 30
0.0
 11
-364.229369
 21
241.080649
 31
0.0
  0
LINE
  5
A74
330
19
100
AcDbEntity
  8
PV
100
AcDbLine
 10
-364.385642
 20
241.376844
 30
0.0
 11
-364.481518
 21
241.185092
 31
0.0
  0
LINE
  5
A75
330
19
100
AcDbEntity
  8
PV
100
AcDbLine
 10
-363.9715799999999
 20
241.405904
 30
0.0
 11
-364.161902
 21
241.2155819999999
 31
0.0
  0
LINE
  5
A76
330
19
100
AcDbEntity
  8
PV
100
AcDbLine
 10
-364.1403829999999
 20
241.6221029999999
 30
0.0
 11
-364.385642
 21
241.376844
 31
0.0
  0
LINE
  5
A77
330
19
100
AcDbEntity
  8
PV
100
AcDbLine
 10
-363.8719919999999
 20
241.465657
 30
0.0
 11
-363.9715799999999
 21
241.405904
 31
0.0
  0
LINE
  5
A78
330
19
100
AcDbEntity
  8
PV
100
AcDbLine
 10
-363.9677339999999
 20
241.7256919999999
 30
0.0
 11
-364.1403829999999
 21
241.6221029999999
 31
0.0
  0
LINE
  5
A79
330
19
100
AcDbEntity
  8
PV
100
AcDbLine
 10
-363.7452549999999
 20
241.486779
 30
0.0
 11
-363.8719919999999
 21
241.465657
 31
0.0
  0
LINE
  5
A7A
330
19
100
AcDbEntity
  8
PV
100
AcDbLine
 10
-363.767786
 20
241.7590169999999
 30
0.0
 11
-363.9677339999999
 21
241.7256919999999
 31
0.0
  0
LINE
  5
A7B
330
19
100
AcDbEntity
  8
PV
100
AcDbLine
 10
-363.5931779999999
 20
241.486779
 30
0.0
 11
-363.7452549999999
 21
241.486779
 31
0.0
  0
LINE
  5
A7C
330
19
100
AcDbEntity
  8
PV
100
AcDbLine
 10
-363.5931779999999
 20
241.7590169999999
 30
0.0
 11
-363.767786
 21
241.7590169999999
 31
0.0
  0
LINE
  5
A7D
330
19
100
AcDbEntity
  8
PV
100
AcDbLine
 10
-363.5931779999999
 20
241.7590169999999
 30
0.0
 11
-363.41857
 21
241.7590169999999
 31
0.0
  0
LINE
  5
A7E
330
19
100
AcDbEntity
  8
PV
100
AcDbLine
 10
-363.5931779999999
 20
241.486779
 30
0.0
 11
-363.4411009999999
 21
241.486779
 31
0.0
  0
LINE
  5
A7F
330
19
100
AcDbEntity
  8
PV
100
AcDbLine
 10
-363.41857
 20
241.7590169999999
 30
0.0
 11
-363.218622
 21
241.7256919999999
 31
0.0
  0
LINE
  5
A80
330
19
100
AcDbEntity
  8
PV
100
AcDbLine
 10
-363.4411009999999
 20
241.486779
 30
0.0
 11
-363.314364
 21
241.465657
 31
0.0
  0
LINE
  5
A81
330
19
100
AcDbEntity
  8
PV
100
AcDbLine
 10
-363.218622
 20
241.7256919999999
 30
0.0
 11
-363.045973
 21
241.6221029999999
 31
0.0
  0
LINE
  5
A82
330
19
100
AcDbEntity
  8
PV
100
AcDbLine
 10
-363.314364
 20
241.465657
 30
0.0
 11
-363.2147759999999
 21
241.405904
 31
0.0
  0
LINE
  5
A83
330
19
100
AcDbEntity
  8
PV
100
AcDbLine
 10
-363.045973
 20
241.6221029999999
 30
0.0
 11
-362.8007149999999
 21
241.376844
 31
0.0
  0
LINE
  5
A84
330
19
100
AcDbEntity
  8
PV
100
AcDbLine
 10
-363.2147759999999
 20
241.405904
 30
0.0
 11
-363.024454
 21
241.2155819999999
 31
0.0
  0
LINE
  5
A85
330
19
100
AcDbEntity
  8
PV
100
AcDbLine
 10
-362.8007149999999
 20
241.376844
 30
0.0
 11
-362.704839
 21
241.185092
 31
0.0
  0
LINE
  5
A86
330
19
100
AcDbEntity
  8
PV
100
AcDbLine
 10
-363.024454
 20
241.2155819999999
 30
0.0
 11
-362.9569879999999
 21
241.080649
 31
0.0
  0
LINE
  5
A87
330
19
100
AcDbEntity
  8
PV
100
AcDbLine
 10
-362.670675
 20
241.0826
 30
0.0
 11
-362.6131229999999
 21
240.679741
 31
0.0
  0
LINE
  5
A88
330
19
100
AcDbEntity
  8
PV
100
AcDbLine
 10
-362.936704
 20
241.019799
 30
0.0
 11
-362.885361
 21
240.660393
 31
0.0
  0
LINE
  5
A89
330
19
100
AcDbEntity
  8
PV
100
AcDbLine
 10
-362.704839
 20
241.185092
 30
0.0
 11
-362.670675
 21
241.0826
 31
0.0
  0
LINE
  5
A8A
330
19
100
AcDbEntity
  8
PV
100
AcDbLine
 10
-362.9569879999999
 20
241.080649
 30
0.0
 11
-362.936704
 21
241.019799
 31
0.0
  0
LINE
  5
A8B
330
19
100
AcDbEntity
  8
PV
100
AcDbLine
 10
-365.968425
 20
238.926399
 30
0.0
 11
-366.2545489999999
 21
238.926399
 31
0.0
  0
LINE
  5
A8C
330
19
100
AcDbEntity
  8
PV
100
AcDbLine
 10
-367.5421089999999
 20
238.926399
 30
0.0
 11
-367.828233
 21
238.926399
 31
0.0
  0
LINE
  5
A8D
330
19
100
AcDbEntity
  8
PV
100
AcDbLine
 10
-367.5421089999999
 20
240.2617339999999
 30
0.0
 11
-366.2545489999999
 21
240.2617339999999
 31
0.0
  0
LINE
  5
A8E
330
19
100
AcDbEntity
  8
PV
100
AcDbLine
 10
-367.5421089999999
 20
240.547858
 30
0.0
 11
-366.2545489999999
 21
240.547858
 31
0.0
  0
LINE
  5
A8F
330
19
100
AcDbEntity
  8
PV
100
AcDbLine
 10
-366.2545489999999
 20
241.762355
 30
0.0
 11
-366.2545489999999
 21
240.547858
 31
0.0
  0
LINE
  5
A90
330
19
100
AcDbEntity
  8
PV
100
AcDbLine
 10
-365.968425
 20
241.762355
 30
0.0
 11
-365.968425
 21
238.926399
 31
0.0
  0
LINE
  5
A91
330
19
100
AcDbEntity
  8
PV
100
AcDbLine
 10
-367.5421089999999
 20
238.926399
 30
0.0
 11
-367.5421089999999
 21
240.2617339999999
 31
0.0
  0
LINE
  5
A92
330
19
100
AcDbEntity
  8
PV
100
AcDbLine
 10
-367.828233
 20
238.926399
 30
0.0
 11
-367.828233
 21
241.762355
 31
0.0
  0
LINE
  5
A93
330
19
100
AcDbEntity
  8
PV
100
AcDbLine
 10
-366.2545489999999
 20
240.2617339999999
 30
0.0
 11
-366.2545489999999
 21
238.926399
 31
0.0
  0
LINE
  5
A94
330
19
100
AcDbEntity
  8
PV
100
AcDbLine
 10
-367.5421089999999
 20
240.547858
 30
0.0
 11
-367.5421089999999
 21
241.762355
 31
0.0
  0
LINE
  5
A95
330
19
100
AcDbEntity
  8
PV
100
AcDbLine
 10
-366.2545489999999
 20
241.762355
 30
0.0
 11
-365.968425
 21
241.762355
 31
0.0
  0
LINE
  5
A96
330
19
100
AcDbEntity
  8
PV
100
AcDbLine
 10
-367.828233
 20
241.762355
 30
0.0
 11
-367.5421089999999
 21
241.762355
 31
0.0
  0
LINE
  5
A97
330
19
100
AcDbEntity
  8
PV
100
AcDbLine
 10
-371.023424
 20
239.4987959999999
 30
0.0
 11
-371.083233
 21
239.827744
 31
0.0
  0
LINE
  5
A98
330
19
100
AcDbEntity
  8
PV
100
AcDbLine
 10
-370.758651
 20
239.5952959999999
 30
0.0
 11
-370.809948
 21
239.8774319999999
 31
0.0
  0
LINE
  5
A99
330
19
100
AcDbEntity
  8
PV
100
AcDbLine
 10
-370.886255
 20
239.2587499999999
 30
0.0
 11
-371.023424
 21
239.4987959999999
 31
0.0
  0
LINE
  5
A9A
330
19
100
AcDbEntity
  8
PV
100
AcDbLine
 10
-370.673608
 20
239.446471
 30
0.0
 11
-370.758651
 21
239.5952959999999
 31
0.0
  0
LINE
  5
A9B
330
19
100
AcDbEntity
  8
PV
100
AcDbLine
 10
-370.533656
 20
239.002058
 30
0.0
 11
-370.7508629999999
 21
239.157206
 31
0.0
  0
LINE
  5
A9C
330
19
100
AcDbEntity
  8
PV
100
AcDbLine
 10
-370.415124
 20
239.258739
 30
0.0
 11
-370.586788
 21
239.381356
 31
0.0
  0
LINE
  5
A9D
330
19
100
AcDbEntity
  8
PV
100
AcDbLine
 10
-370.7508629999999
 20
239.157206
 30
0.0
 11
-370.886255
 21
239.2587499999999
 31
0.0
  0
LINE
  5
A9E
330
19
100
AcDbEntity
  8
PV
100
AcDbLine
 10
-370.586788
 20
239.381356
 30
0.0
 11
-370.673608
 21
239.446471
 31
0.0
  0
LINE
  5
A9F
330
19
100
AcDbEntity
  8
PV
100
AcDbLine
 10
-370.269275
 20
238.9359629999999
 30
0.0
 11
-370.533656
 21
239.002058
 31
0.0
  0
LINE
  5
AA0
330
19
100
AcDbEntity
  8
PV
100
AcDbLine
 10
-370.2350809999999
 20
239.2137279999999
 30
0.0
 11
-370.415124
 21
239.258739
 31
0.0
  0
LINE
  5
AA1
330
19
100
AcDbEntity
  8
PV
100
AcDbLine
 10
-369.8994089999999
 20
238.9359629999999
 30
0.0
 11
-370.269275
 21
238.9359629999999
 31
0.0
  0
LINE
  5
AA2
330
19
100
AcDbEntity
  8
PV
100
AcDbLine
 10
-369.9383109999999
 20
239.2137279999999
 30
0.0
 11
-370.2350809999999
 21
239.2137279999999
 31
0.0
  0
LINE
  5
AA3
330
19
100
AcDbEntity
  8
PV
100
AcDbLine
 10
-369.6674319999999
 20
239.002242
 30
0.0
 11
-369.8994089999999
 21
238.9359629999999
 31
0.0
  0
LINE
  5
AA4
330
19
100
AcDbEntity
  8
PV
100
AcDbLine
 10
-369.781418
 20
239.2585549999999
 30
0.0
 11
-369.9383109999999
 21
239.2137279999999
 31
0.0
  0
LINE
  5
AA5
330
19
100
AcDbEntity
  8
PV
100
AcDbLine
 10
-369.395468
 20
239.17222
 30
0.0
 11
-369.6674319999999
 21
239.002242
 31
0.0
  0
LINE
  5
AA6
330
19
100
AcDbEntity
  8
PV
100
AcDbLine
 10
-369.6089569999999
 20
239.366343
 30
0.0
 11
-369.781418
 21
239.2585549999999
 31
0.0
  0
LINE
  5
AA7
330
19
100
AcDbEntity
  8
PV
100
AcDbLine
 10
-369.2888899999999
 20
239.385375
 30
0.0
 11
-369.395468
 21
239.17222
 31
0.0
  0
LINE
  5
AA8
330
19
100
AcDbEntity
  8
PV
100
AcDbLine
 10
-369.5488759999999
 20
239.4865049999999
 30
0.0
 11
-369.6089569999999
 21
239.366343
 31
0.0
  0
LINE
  5
AA9
330
19
100
AcDbEntity
  8
PV
100
AcDbLine
 10
-369.2244479999999
 20
239.610924
 30
0.0
 11
-369.2888899999999
 21
239.385375
 31
0.0
  0
LINE
  5
AAA
330
19
100
AcDbEntity
  8
PV
100
AcDbLine
 10
-369.5022129999999
 20
239.6498269999999
 30
0.0
 11
-369.5488759999999
 21
239.4865049999999
 31
0.0
  0
LINE
  5
AAB
330
19
100
AcDbEntity
  8
PV
100
AcDbLine
 10
-369.2244479999999
 20
239.9029019999999
 30
0.0
 11
-369.2244479999999
 21
239.610924
 31
0.0
  0
LINE
  5
AAC
330
19
100
AcDbEntity
  8
PV
100
AcDbLine
 10
-369.5022129999999
 20
239.857827
 30
0.0
 11
-369.5022129999999
 21
239.6498269999999
 31
0.0
  0
LINE
  5
AAD
330
19
100
AcDbEntity
  8
PV
100
AcDbLine
 10
-369.2954149999999
 20
240.115802
 30
0.0
 11
-369.2244479999999
 21
239.9029019999999
 31
0.0
  0
LINE
  5
AAE
330
19
100
AcDbEntity
  8
PV
100
AcDbLine
 10
-369.5423519999999
 20
239.978244
 30
0.0
 11
-369.5022129999999
 21
239.857827
 31
0.0
  0
LINE
  5
AAF
330
19
100
AcDbEntity
  8
PV
100
AcDbLine
 10
-369.467664
 20
240.3225009999999
 30
0.0
 11
-369.2954149999999
 21
240.115802
 31
0.0
  0
LINE
  5
AB0
330
19
100
AcDbEntity
  8
PV
100
AcDbLine
 10
-369.647867
 20
240.104863
 30
0.0
 11
-369.5423519999999
 21
239.978244
 31
0.0
  0
LINE
  5
AB1
330
19
100
AcDbEntity
  8
PV
100
AcDbLine
 10
-369.7592579999999
 20
240.484498
 30
0.0
 11
-369.467664
 21
240.3225009999999
 31
0.0
  0
LINE
  5
AB2
330
19
100
AcDbEntity
  8
PV
100
AcDbLine
 10
-369.8562499999999
 20
240.2206309999999
 30
0.0
 11
-369.647867
 21
240.104863
 31
0.0
  0
LINE
  5
AB3
330
19
100
AcDbEntity
  8
PV
100
AcDbLine
 10
-370.320949
 20
240.596836
 30
0.0
 11
-369.7592579999999
 21
240.484498
 31
0.0
  0
LINE
  5
AB4
330
19
100
AcDbEntity
  8
PV
100
AcDbLine
 10
-370.40562
 20
240.3305049999999
 30
0.0
 11
-369.8562499999999
 21
240.2206309999999
 31
0.0
  0
LINE
  5
AB5
330
19
100
AcDbEntity
  8
PV
100
AcDbLine
 10
-370.528224
 20
240.688959
 30
0.0
 11
-370.320949
 21
240.596836
 31
0.0
  0
LINE
  5
AB6
330
19
100
AcDbEntity
  8
PV
100
AcDbLine
 10
-370.698321
 20
240.4605939999999
 30
0.0
 11
-370.40562
 21
240.3305049999999
 31
0.0
  0
LINE
  5
AB7
330
19
100
AcDbEntity
  8
PV
100
AcDbLine
 10
-370.656779
 20
240.8389399999999
 30
0.0
 11
-370.528224
 21
240.688959
 31
0.0
  0
LINE
  5
AB8
330
19
100
AcDbEntity
  8
PV
100
AcDbLine
 10
-370.903084
 20
240.6994839999999
 30
0.0
 11
-370.698321
 21
240.4605939999999
 31
0.0
  0
LINE
  5
AB9
330
19
100
AcDbEntity
  8
PV
100
AcDbLine
 10
-370.6966019999999
 20
240.958409
 30
0.0
 11
-370.656779
 21
240.8389399999999
 31
0.0
  0
LINE
  5
ABA
330
19
100
AcDbEntity
  8
PV
100
AcDbLine
 10
-370.9743669999999
 20
240.9133339999999
 30
0.0
 11
-370.903084
 21
240.6994839999999
 31
0.0
  0
LINE
  5
ABB
330
19
100
AcDbEntity
  8
PV
100
AcDbLine
 10
-370.6966019999999
 20
241.1386319999999
 30
0.0
 11
-370.6966019999999
 21
240.958409
 31
0.0
  0
LINE
  5
ABC
330
19
100
AcDbEntity
  8
PV
100
AcDbLine
 10
-370.9743669999999
 20
241.1775339999999
 30
0.0
 11
-370.9743669999999
 21
240.9133339999999
 31
0.0
  0
LINE
  5
ABD
330
19
100
AcDbEntity
  8
PV
100
AcDbLine
 10
-370.652349
 20
241.293519
 30
0.0
 11
-370.6966019999999
 21
241.1386319999999
 31
0.0
  0
LINE
  5
ABE
330
19
100
AcDbEntity
  8
PV
100
AcDbLine
 10
-370.9075149999999
 20
241.411518
 30
0.0
 11
-370.9743669999999
 21
241.1775339999999
 31
0.0
  0
LINE
  5
ABF
330
19
100
AcDbEntity
  8
PV
100
AcDbLine
 10
-369.499516
 20
240.964187
 30
0.0
 11
-369.5492229999999
 21
241.212722
 31
0.0
  0
LINE
  5
AC0
330
19
100
AcDbEntity
  8
PV
100
AcDbLine
 10
-369.227145
 20
241.0186609999999
 30
0.0
 11
-369.2885439999999
 21
241.325656
 31
0.0
  0
LINE
  5
AC1
330
19
100
AcDbEntity
  8
PV
100
AcDbLine
 10
-369.5492229999999
 20
241.212722
 30
0.0
 11
-369.6582879999999
 21
241.3654129999999
 31
0.0
  0
LINE
  5
AC2
330
19
100
AcDbEntity
  8
PV
100
AcDbLine
 10
-369.2885439999999
 20
241.325656
 30
0.0
 11
-369.4572439999999
 21
241.5618359999999
 31
0.0
  0
LINE
  5
AC3
330
19
100
AcDbEntity
  8
PV
100
AcDbLine
 10
-369.6582879999999
 20
241.3654129999999
 30
0.0
 11
-369.742183
 21
241.4283339999999
 31
0.0
  0
LINE
  5
AC4
330
19
100
AcDbEntity
  8
PV
100
AcDbLine
 10
-369.4572439999999
 20
241.5618359999999
 30
0.0
 11
-369.5955609999999
 21
241.665574
 31
0.0
  0
LINE
  5
AC5
330
19
100
AcDbEntity
  8
PV
100
AcDbLine
 10
-369.742183
 20
241.4283339999999
 30
0.0
 11
-369.83326
 21
241.4738729999999
 31
0.0
  0
LINE
  5
AC6
330
19
100
AcDbEntity
  8
PV
100
AcDbLine
 10
-369.5955609999999
 20
241.665574
 30
0.0
 11
-369.726696
 21
241.7311409999999
 31
0.0
  0
LINE
  5
AC7
330
19
100
AcDbEntity
  8
PV
100
AcDbLine
 10
-369.83326
 20
241.4738729999999
 30
0.0
 11
-369.969174
 21
241.5191779999999
 31
0.0
  0
LINE
  5
AC8
330
19
100
AcDbEntity
  8
PV
100
AcDbLine
 10
-369.726696
 20
241.7311409999999
 30
0.0
 11
-369.924099
 21
241.796943
 31
0.0
  0
LINE
  5
AC9
330
19
100
AcDbEntity
  8
PV
100
AcDbLine
 10
-369.969174
 20
241.5191779999999
 30
0.0
 11
-370.2662029999999
 21
241.5191779999999
 31
0.0
  0
LINE
  5
ACA
330
19
100
AcDbEntity
  8
PV
100
AcDbLine
 10
-369.924099
 20
241.796943
 30
0.0
 11
-370.2937069999999
 21
241.796943
 31
0.0
  0
LINE
  5
ACB
330
19
100
AcDbEntity
  8
PV
100
AcDbLine
 10
-370.2662029999999
 20
241.5191779999999
 30
0.0
 11
-370.3733619999999
 21
241.497746
 31
0.0
  0
LINE
  5
ACC
330
19
100
AcDbEntity
  8
PV
100
AcDbLine
 10
-370.2937069999999
 20
241.796943
 30
0.0
 11
-370.464312
 21
241.762822
 31
0.0
  0
LINE
  5
ACD
330
19
100
AcDbEntity
  8
PV
100
AcDbLine
 10
-370.3733619999999
 20
241.497746
 30
0.0
 11
-370.463062
 21
241.452896
 31
0.0
  0
LINE
  5
ACE
330
19
100
AcDbEntity
  8
PV
100
AcDbLine
 10
-370.464312
 20
241.762822
 30
0.0
 11
-370.596824
 21
241.696566
 31
0.0
  0
LINE
  5
ACF
330
19
100
AcDbEntity
  8
PV
100
AcDbLine
 10
-370.463062
 20
241.452896
 30
0.0
 11
-370.5827109999999
 21
241.3811069999999
 31
0.0
  0
LINE
  5
AD0
330
19
100
AcDbEntity
  8
PV
100
AcDbLine
 10
-370.596824
 20
241.696566
 30
0.0
 11
-370.754941
 21
241.6016949999999
 31
0.0
  0
LINE
  5
AD1
330
19
100
AcDbEntity
  8
PV
100
AcDbLine
 10
-370.5827109999999
 20
241.3811069999999
 30
0.0
 11
-370.6164499999999
 21
241.347368
 31
0.0
  0
LINE
  5
AD2
330
19
100
AcDbEntity
  8
PV
100
AcDbLine
 10
-370.754941
 20
241.6016949999999
 30
0.0
 11
-370.8323079999999
 21
241.5243289999999
 31
0.0
  0
LINE
  5
AD3
330
19
100
AcDbEntity
  8
PV
100
AcDbLine
 10
-370.6164499999999
 20
241.347368
 30
0.0
 11
-370.652349
 21
241.293519
 31
0.0
  0
LINE
  5
AD4
330
19
100
AcDbEntity
  8
PV
100
AcDbLine
 10
-370.8323079999999
 20
241.5243289999999
 30
0.0
 11
-370.9075149999999
 21
241.411518
 31
0.0
  0
LINE
  5
AD5
330
19
100
AcDbEntity
  8
PV
100
AcDbLine
 10
-369.499516
 20
240.964187
 30
0.0
 11
-369.227145
 21
241.0186609999999
 31
0.0
  0
LINE
  5
AD6
330
19
100
AcDbEntity
  8
PV
100
AcDbLine
 10
-371.083233
 20
239.827744
 30
0.0
 11
-370.809948
 21
239.8774319999999
 31
0.0
  0
TEXT
  5
AD7
330
19
100
AcDbEntity
  8
PV
100
AcDbText
 10
-340.4894829999999
 20
243.5465769999999
 30
0.0
 40
2.0
  1
(INPUT)
 41
0.9375
  7
MONOTXT
100
AcDbText
  0
TEXT
  5
AD8
330
19
100
AcDbEntity
  8
PV
100
AcDbText
 10
-330.114483
 20
246.546577
 30
0.0
 40
2.0
  1
l
 41
0.9375
  7
MONOTXT
100
AcDbText
  0
TEXT
  5
AD9
330
19
100
AcDbEntity
  8
PV
100
AcDbText
 10
-339.614483
 20
246.546577
 30
0.0
 40
2.0
  1
k
 41
0.9375
  7
MONOTXT
100
AcDbText
  0
TEXT
  5
ADA
330
19
100
AcDbEntity
  8
PV
100
AcDbText
 10
-359.114483
 20
213.546577
 30
0.0
 40
2.0
  1
b
 41
0.9375
  7
MONOTXT
100
AcDbText
  0
TEXT
  5
ADB
330
19
100
AcDbEntity
  8
PV
100
AcDbText
 10
-368.6144829999999
 20
213.546577
 30
0.0
 40
2.0
  1
c
 41
0.9375
  7
MONOTXT
100
AcDbText
  0
TEXT
  5
ADC
330
19
100
AcDbEntity
  8
PV
100
AcDbText
 10
-378.114483
 20
213.546577
 30
0.0
 40
2.0
  1
a
 41
0.9375
  7
MONOTXT
100
AcDbText
  0
TEXT
  5
ADD
330
19
100
AcDbEntity
  8
PV
100
AcDbText
 10
-339.926983
 20
217.546577
 30
0.0
 40
2.0
  1
TIME
 41
0.9375
  7
MONOTXT
100
AcDbText
  0
TEXT
  5
ADE
330
19
100
AcDbEntity
  8
PV
100
AcDbText
 10
-340.864483
 20
220.5465769999999
 30
0.0
 40
2.0
  1
SHOCK
 41
0.9375
  7
MONOTXT
100
AcDbText
  0
TEXT
  5
ADF
330
19
100
AcDbEntity
  8
PV
100
AcDbText
 10
-340.864483
 20
223.546577
 30
0.0
 40
2.0
  1
(sec)
 41
0.9375
  7
MONOTXT
100
AcDbText
  0
TEXT
  5
AE0
330
19
100
AcDbEntity
  8
PV
100
AcDbText
 10
-355.989483
 20
223.546577
 30
0.0
 40
2.0
  1
(%)
 41
0.9375
  7
MONOTXT
100
AcDbText
  0
TEXT
  5
AE1
330
19
100
AcDbEntity
  8
PV
100
AcDbText
 10
-356.926983
 20
220.5465769999999
 30
0.0
 40
2.0
  1
LOAD
 41
0.9375
  7
MONOTXT
100
AcDbText
  0
TEXT
  5
AE2
330
19
100
AcDbEntity
  8
PV
100
AcDbText
 10
-357.239483
 20
217.546577
 30
0.0
 40
2.0
  1
CURRENT
 41
0.9375
  7
MONOTXT
100
AcDbText
  0
TEXT
  5
AE3
330
19
100
AcDbEntity
  8
PV
100
AcDbText
 10
-379.176983
 20
220.5465769999999
 30
0.0
 40
2.0
  1
(OUT PUT)
 41
1.004464
  7
MONOTXT
100
AcDbText
  0
TEXT
  5
AE4
330
19
100
AcDbEntity
  8
PV
100
AcDbText
 10
-379.676983
 20
224.546577
 30
0.0
 40
2.0
  1
INPUT
 41
0.9375
  7
MONOTXT
100
AcDbText
  0
TEXT
  5
AE5
330
19
100
AcDbEntity
  8
PV
100
AcDbText
 10
-377.130108
 20
231.171577
 30
0.0
 40
2.5
  1
TSB50
 41
0.9375
  7
MONOTXT
100
AcDbText
  0
TEXT
  5
AE6
330
19
100
AcDbEntity
  8
PV
100
AcDbText
 10
-379.176983
 20
234.546577
 30
0.0
 40
2.0
  1
TYPE
 41
0.9375
  7
MONOTXT
100
AcDbText
  0
ARC
  5
AE7
330
19
100
AcDbEntity
  8
PV
100
AcDbCircle
 10
-336.364483
 20
230.546577
 30
0.0
 40
4.5
100
AcDbArc
 50
326.099689
 51
6.452682
  0
ARC
  5
AE8
330
19
100
AcDbEntity
  8
PV
100
AcDbCircle
 10
-336.364483
 20
230.546577
 30
0.0
 40
4.5
100
AcDbArc
 50
11.54731799999999
 51
50.900311
  0
ARC
  5
AE9
330
19
100
AcDbEntity
  8
PV
100
AcDbCircle
 10
-336.364483
 20
230.546577
 30
0.0
 40
4.5
100
AcDbArc
 50
61.099689
 51
101.4526819999999
  0
ARC
  5
AEA
330
19
100
AcDbEntity
  8
PV
100
AcDbCircle
 10
-336.364483
 20
230.546577
 30
0.0
 40
4.5
100
AcDbArc
 50
106.5473179999999
 51
146.900311
  0
ARC
  5
AEB
330
19
100
AcDbEntity
  8
PV
100
AcDbCircle
 10
-336.364483
 20
230.546577
 30
0.0
 40
4.5
100
AcDbArc
 50
157.0996889999999
 51
194.900311
  0
ARC
  5
AEC
330
19
100
AcDbEntity
  8
PV
100
AcDbCircle
 10
-336.364483
 20
230.546577
 30
0.0
 40
4.5
100
AcDbArc
 50
205.0996889999999
 51
213.9003109999999
  0
ARC
  5
AED
330
19
100
AcDbEntity
  8
PV
100
AcDbCircle
 10
-336.364483
 20
230.546577
 30
0.0
 40
4.5
100
AcDbArc
 50
224.099689
 51
237.452682
  0
LINE
  5
AEE
330
19
100
AcDbEntity
  8
PV
100
AcDbLine
 10
-339.5960679999999
 20
227.414987
 30
0.0
 11
-340.387058
 21
226.774456
 31
0.0
  0
ARC
  5
AEF
330
19
100
AcDbEntity
  8
PV
100
AcDbCircle
 10
-336.364483
 20
230.546577
 30
0.0
 40
5.299999999999999
100
AcDbArc
 50
6.837382
 51
11.16261799999999
  0
ARC
  5
AF0
330
19
100
AcDbEntity
  8
PV
100
AcDbCircle
 10
-336.364483
 20
230.546577
 30
0.0
 40
5.299999999999999
100
AcDbArc
 50
101.8373819999999
 51
106.1626179999999
  0
ARC
  5
AF1
330
19
100
AcDbEntity
  8
PV
100
AcDbCircle
 10
-336.364483
 20
230.546577
 30
0.0
 40
5.299999999999999
100
AcDbArc
 50
237.837381
 51
242.162619
  0
ARC
  5
AF2
330
19
100
AcDbEntity
  8
PV
100
AcDbCircle
 10
-336.364483
 20
230.546577
 30
0.0
 40
5.5
100
AcDbArc
 50
316.829352
 51
325.1706479999999
  0
ARC
  5
AF3
330
19
100
AcDbEntity
  8
PV
100
AcDbCircle
 10
-336.364483
 20
230.546577
 30
0.0
 40
5.5
100
AcDbArc
 50
51.829352
 51
60.17064799999999
  0
ARC
  5
AF4
330
19
100
AcDbEntity
  8
PV
100
AcDbCircle
 10
-336.364483
 20
230.546577
 30
0.0
 40
5.5
100
AcDbArc
 50
147.829352
 51
156.1706479999999
  0
ARC
  5
AF5
330
19
100
AcDbEntity
  8
PV
100
AcDbCircle
 10
-336.364483
 20
230.546577
 30
0.0
 40
5.5
100
AcDbArc
 50
195.829352
 51
204.170648
  0
LINE
  5
AF6
330
19
100
AcDbEntity
  8
PV
100
AcDbLine
 10
-333.132898
 20
227.414987
 30
0.0
 11
-332.3419079999999
 21
226.774456
 31
0.0
  0
LINE
  5
AF7
330
19
100
AcDbEntity
  8
PV
100
AcDbLine
 10
-332.629441
 20
228.036704
 30
0.0
 11
-331.838452
 21
227.3961729999999
 31
0.0
  0
LINE
  5
AF8
330
19
100
AcDbEntity
  8
PV
100
AcDbLine
 10
-333.5264609999999
 20
234.0388009999999
 30
0.0
 11
-332.9654509999999
 21
234.870532
 31
0.0
  0
LINE
  5
AF9
330
19
100
AcDbEntity
  8
PV
100
AcDbLine
 10
-334.189691
 20
234.4861549999999
 30
0.0
 11
-333.6286819999999
 21
235.3178859999999
 31
0.0
  0
LINE
  5
AFA
330
19
100
AcDbEntity
  8
PV
100
AcDbLine
 10
-340.1342309999999
 20
233.0040149999999
 30
0.0
 11
-341.032906
 21
233.4818489999999
 31
0.0
  0
LINE
  5
AFB
330
19
100
AcDbEntity
  8
PV
100
AcDbLine
 10
-340.509808
 20
232.2976569999999
 30
0.0
 11
-341.408483
 21
232.775491
 31
0.0
  0
LINE
  5
AFC
330
19
100
AcDbEntity
  8
PV
100
AcDbLine
 10
-340.7131689999999
 20
229.389456
 30
0.0
 11
-341.6559139999999
 21
229.046325
 31
0.0
  0
LINE
  5
AFD
330
19
100
AcDbEntity
  8
PV
100
AcDbLine
 10
-340.4395529999999
 20
228.6377019999999
 30
0.0
 11
-341.3822979999999
 21
228.29457
 31
0.0
  0
LINE
  5
AFE
330
19
100
AcDbEntity
  8
PV
100
AcDbLine
 10
-340.099525
 20
228.036704
 30
0.0
 11
-340.8905139999999
 21
227.3961729999999
 31
0.0
  0
LINE
  5
AFF
330
19
100
AcDbEntity
  8
PV
100
AcDbLine
 10
-334.690393
 20
227.2469669999999
 30
0.0
 11
-333.8895759999999
 21
225.859911
 31
0.0
  0
LINE
  5
B00
330
19
100
AcDbEntity
  8
PV
100
AcDbLine
 10
-333.9435009999999
 20
226.7533129999999
 30
0.0
 11
-333.5431649999999
 21
226.059911
 31
0.0
  0
LINE
  5
B01
330
19
100
AcDbEntity
  8
PV
100
AcDbLine
 10
-331.892991
 20
231.052299
 30
0.0
 11
-331.102176
 21
231.1775509999999
 31
0.0
  0
LINE
  5
B02
330
19
100
AcDbEntity
  8
PV
100
AcDbLine
 10
-331.955564
 20
231.447374
 30
0.0
 11
-331.16475
 21
231.572627
 31
0.0
  0
LINE
  5
B03
330
19
100
AcDbEntity
  8
PV
100
AcDbLine
 10
-337.257997
 20
234.956977
 30
0.0
 11
-337.451697
 21
235.7338659999999
 31
0.0
  0
LINE
  5
B04
330
19
100
AcDbEntity
  8
PV
100
AcDbLine
 10
-337.646115
 20
234.8602089999999
 30
0.0
 11
-337.8398149999999
 21
235.6370969999999
 31
0.0
  0
LINE
  5
B05
330
19
100
AcDbEntity
  8
PV
100
AcDbLine
 10
-338.7854649999999
 20
226.7533129999999
 30
0.0
 11
-339.1858009999999
 21
226.059911
 31
0.0
  0
LINE
  5
B06
330
19
100
AcDbEntity
  8
PV
100
AcDbLine
 10
-338.0385729999999
 20
227.2469669999999
 30
0.0
 11
-338.839391
 21
225.859911
 31
0.0
  0
LINE
  5
B07
330
19
100
AcDbEntity
  8
PV
100
AcDbLine
 10
-350.564483
 20
226.046577
 30
0.0
 11
-350.564483
 21
226.096835
 31
0.0
  0
LINE
  5
B08
330
19
100
AcDbEntity
  8
PV
100
AcDbLine
 10
-356.164483
 20
226.046577
 30
0.0
 11
-356.164483
 21
226.096835
 31
0.0
  0
ARC
  5
B09
330
19
100
AcDbEntity
  8
PV
100
AcDbCircle
 10
-353.364483
 20
230.546577
 30
0.0
 40
4.5
100
AcDbArc
 50
92.54731800000001
 51
119.452682
  0
ARC
  5
B0A
330
19
100
AcDbEntity
  8
PV
100
AcDbCircle
 10
-353.364483
 20
230.546577
 30
0.0
 40
4.5
100
AcDbArc
 50
63.099689
 51
87.45268199999999
  0
ARC
  5
B0B
330
19
100
AcDbEntity
  8
PV
100
AcDbCircle
 10
-353.364483
 20
230.546577
 30
0.0
 40
4.5
100
AcDbArc
 50
28.547318
 51
52.900311
  0
ARC
  5
B0C
330
19
100
AcDbEntity
  8
PV
100
AcDbCircle
 10
-353.364483
 20
230.546577
 30
0.0
 40
4.5
100
AcDbArc
 50
355.547318
 51
23.452682
  0
ARC
  5
B0D
330
19
100
AcDbEntity
  8
PV
100
AcDbCircle
 10
-353.364483
 20
230.546577
 30
0.0
 40
4.5
100
AcDbArc
 50
326.099689
 51
350.4526819999999
  0
ARC
  5
B0E
330
19
100
AcDbEntity
  8
PV
100
AcDbCircle
 10
-353.364483
 20
230.546577
 30
0.0
 40
4.5
100
AcDbArc
 50
302.547318
 51
315.900311
  0
ARC
  5
B0F
330
19
100
AcDbEntity
  8
PV
100
AcDbCircle
 10
-353.364483
 20
230.546577
 30
0.0
 40
4.5
100
AcDbArc
 50
224.099689
 51
237.452682
  0
ARC
  5
B10
330
19
100
AcDbEntity
  8
PV
100
AcDbCircle
 10
-353.364483
 20
230.546577
 30
0.0
 40
4.5
100
AcDbArc
 50
189.5473179999999
 51
213.9003109999999
  0
ARC
  5
B11
330
19
100
AcDbEntity
  8
PV
100
AcDbCircle
 10
-353.364483
 20
230.546577
 30
0.0
 40
4.5
100
AcDbArc
 50
159.0996889999999
 51
184.452682
  0
ARC
  5
B12
330
19
100
AcDbEntity
  8
PV
100
AcDbCircle
 10
-353.364483
 20
230.546577
 30
0.0
 40
5.299999999999999
100
AcDbArc
 50
87.837382
 51
92.16261899999999
  0
ARC
  5
B13
330
19
100
AcDbEntity
  8
PV
100
AcDbCircle
 10
-353.364483
 20
230.546577
 30
0.0
 40
5.299999999999999
100
AcDbArc
 50
119.837382
 51
124.162618
  0
ARC
  5
B14
330
19
100
AcDbEntity
  8
PV
100
AcDbCircle
 10
-353.364483
 20
230.546577
 30
0.0
 40
5.299999999999999
100
AcDbArc
 50
23.837382
 51
28.16261799999999
  0
ARC
  5
B15
330
19
100
AcDbEntity
  8
PV
100
AcDbCircle
 10
-353.364483
 20
230.546577
 30
0.0
 40
5.299999999999999
100
AcDbArc
 50
297.8373819999999
 51
302.162619
  0
ARC
  5
B16
330
19
100
AcDbEntity
  8
PV
100
AcDbCircle
 10
-353.364483
 20
230.546577
 30
0.0
 40
5.299999999999999
100
AcDbArc
 50
237.837381
 51
242.162619
  0
ARC
  5
B17
330
19
100
AcDbEntity
  8
PV
100
AcDbCircle
 10
-353.364483
 20
230.546577
 30
0.0
 40
5.299999999999999
100
AcDbArc
 50
350.837382
 51
355.1626179999999
  0
ARC
  5
B18
330
19
100
AcDbEntity
  8
PV
100
AcDbCircle
 10
-353.364483
 20
230.546577
 30
0.0
 40
5.5
100
AcDbArc
 50
149.829352
 51
158.170648
  0
ARC
  5
B19
330
19
100
AcDbEntity
  8
PV
100
AcDbCircle
 10
-353.364483
 20
230.546577
 30
0.0
 40
5.5
100
AcDbArc
 50
214.829352
 51
223.170648
  0
ARC
  5
B1A
330
19
100
AcDbEntity
  8
PV
100
AcDbCircle
 10
-353.364483
 20
230.546577
 30
0.0
 40
5.5
100
AcDbArc
 50
53.829352
 51
62.17064800000001
  0
LINE
  5
B1B
330
19
100
AcDbEntity
  8
PV
100
AcDbLine
 10
-353.164483
 20
235.0421299999999
 30
0.0
 11
-353.164483
 21
235.842802
 31
0.0
  0
LINE
  5
B1C
330
19
100
AcDbEntity
  8
PV
100
AcDbLine
 10
-353.5644829999999
 20
235.0421299999999
 30
0.0
 11
-353.5644829999999
 21
235.842802
 31
0.0
  0
LINE
  5
B1D
330
19
100
AcDbEntity
  8
PV
100
AcDbLine
 10
-351.690393
 20
227.2469669999999
 30
0.0
 11
-350.8895759999999
 21
225.859911
 31
0.0
  0
LINE
  5
B1E
330
19
100
AcDbEntity
  8
PV
100
AcDbLine
 10
-350.9435009999999
 20
226.7533129999999
 30
0.0
 11
-350.5431649999999
 21
226.059911
 31
0.0
  0
LINE
  5
B1F
330
19
100
AcDbEntity
  8
PV
100
AcDbLine
 10
-348.9268129999999
 20
229.800197
 30
0.0
 11
-348.1321089999999
 21
229.70262
 31
0.0
  0
LINE
  5
B20
330
19
100
AcDbEntity
  8
PV
100
AcDbLine
 10
-348.8780649999999
 20
230.197216
 30
0.0
 11
-348.0833609999999
 21
230.099639
 31
0.0
  0
LINE
  5
B21
330
19
100
AcDbEntity
  8
PV
100
AcDbLine
 10
-349.2362319999999
 20
232.337539
 30
0.0
 11
-348.5165929999999
 21
232.6885299999999
 31
0.0
  0
LINE
  5
B22
330
19
100
AcDbEntity
  8
PV
100
AcDbLine
 10
-349.411581
 20
232.6970569999999
 30
0.0
 11
-348.6919419999999
 21
233.0480479999999
 31
0.0
  0
LINE
  5
B23
330
19
100
AcDbEntity
  8
PV
100
AcDbLine
 10
-355.577154
 20
234.465006
 30
0.0
 11
-356.001445
 21
235.144014
 31
0.0
  0
LINE
  5
B24
330
19
100
AcDbEntity
  8
PV
100
AcDbLine
 10
-355.916373
 20
234.2530379999999
 30
0.0
 11
-356.340664
 21
234.932047
 31
0.0
  0
LINE
  5
B25
330
19
100
AcDbEntity
  8
PV
100
AcDbLine
 10
-357.8509009999999
 20
230.197216
 30
0.0
 11
-358.6456049999999
 21
230.099639
 31
0.0
  0
LINE
  5
B26
330
19
100
AcDbEntity
  8
PV
100
AcDbLine
 10
-357.802153
 20
229.800197
 30
0.0
 11
-358.5968569999999
 21
229.70262
 31
0.0
  0
LINE
  5
B27
330
19
100
AcDbEntity
  8
PV
100
AcDbLine
 10
-355.7854649999999
 20
226.7533129999999
 30
0.0
 11
-356.1858009999999
 21
226.059911
 31
0.0
  0
LINE
  5
B28
330
19
100
AcDbEntity
  8
PV
100
AcDbLine
 10
-355.0385729999999
 20
227.2469669999999
 30
0.0
 11
-355.839391
 21
225.859911
 31
0.0
  0
LINE
  5
B29
330
19
100
AcDbEntity
  8
PV
100
AcDbLine
 10
-350.132898
 20
227.414987
 30
0.0
 11
-349.353227
 21
226.7836219999999
 31
0.0
  0
LINE
  5
B2A
330
19
100
AcDbEntity
  8
PV
100
AcDbLine
 10
-349.629441
 20
228.036704
 30
0.0
 11
-348.8497709999999
 21
227.405339
 31
0.0
  0
LINE
  5
B2B
330
19
100
AcDbEntity
  8
PV
100
AcDbLine
 10
-350.6500669999999
 20
234.135719
 30
0.0
 11
-350.118426
 21
234.986522
 31
0.0
  0
LINE
  5
B2C
330
19
100
AcDbEntity
  8
PV
100
AcDbLine
 10
-351.328505
 20
234.5596549999999
 30
0.0
 11
-350.796864
 21
235.410457
 31
0.0
  0
LINE
  5
B2D
330
19
100
AcDbEntity
  8
PV
100
AcDbLine
 10
-357.217698
 20
232.870956
 30
0.0
 11
-358.119411
 21
233.310751
 31
0.0
  0
LINE
  5
B2E
330
19
100
AcDbEntity
  8
PV
100
AcDbLine
 10
-357.568394
 20
232.1519209999999
 30
0.0
 11
-358.4701079999999
 21
232.591716
 31
0.0
  0
LINE
  5
B2F
330
19
100
AcDbEntity
  8
PV
100
AcDbLine
 10
-357.099525
 20
228.036704
 30
0.0
 11
-357.879195
 21
227.405339
 31
0.0
  0
LINE
  5
B30
330
19
100
AcDbEntity
  8
PV
100
AcDbLine
 10
-356.5960679999999
 20
227.414987
 30
0.0
 11
-357.375739
 21
226.7836219999999
 31
0.0
  0
ARC
  5
B31
330
19
100
AcDbEntity
  8
PV
100
AcDbCircle
 10
-353.364483
 20
230.546577
 30
0.0
 40
5.5
100
AcDbArc
 50
316.829352
 51
325.1706479999999
  0
ARC
  5
B32
330
19
100
AcDbEntity
  8
PV
100
AcDbCircle
 10
-336.364483
 20
230.546577
 30
0.0
 40
5.5
100
AcDbArc
 50
214.829352
 51
223.170648
  0
ARC
  5
B33
330
19
100
AcDbEntity
  8
PV
100
AcDbCircle
 10
-336.364483
 20
230.546577
 30
0.0
 40
5.299999999999999
100
AcDbArc
 50
297.8373819999999
 51
302.162619
  0
ARC
  5
B34
330
19
100
AcDbEntity
  8
PV
100
AcDbCircle
 10
-353.364483
 20
230.546577
 30
0.0
 40
5.299999999999999
100
AcDbArc
 50
184.837382
 51
189.1626179999999
  0
ARC
  5
B35
330
19
100
AcDbEntity
  8
PV
100
AcDbCircle
 10
-336.364483
 20
230.546577
 30
0.0
 40
4.5
100
AcDbArc
 50
302.547318
 51
315.900311
  0
ARC
  5
B36
330
19
100
AcDbEntity
  8
PV
100
AcDbCircle
 10
-353.364483
 20
230.546577
 30
0.0
 40
4.5
100
AcDbArc
 50
124.5473179999999
 51
148.900311
  0
ARC
  5
B37
330
19
100
AcDbEntity
  8
PV
100
AcDbCircle
 10
-336.364483
 20
230.546577
 30
0.0
 40
3.7
100
AcDbArc
 50
296.90142
 51
243.0985799999999
  0
ARC
  5
B38
330
19
100
AcDbEntity
  8
PV
100
AcDbCircle
 10
-353.364483
 20
230.546577
 30
0.0
 40
3.7
100
AcDbArc
 50
296.90142
 51
243.0985799999999
  0
CIRCLE
  5
B39
330
19
100
AcDbEntity
  8
PV
100
AcDbCircle
 10
-368.3644829999999
 20
225.546577
 30
0.0
 40
1.75
  0
CIRCLE
  5
B3A
330
19
100
AcDbEntity
  8
PV
100
AcDbCircle
 10
-367.864483
 20
218.046577
 30
0.0
 40
0.25
  0
LINE
  5
B3B
330
19
100
AcDbEntity
  8
PV
100
AcDbLine
 10
-367.864483
 20
216.046577
 30
0.0
 11
-367.864483
 21
218.046577
 31
0.0
  0
LINE
  5
B3C
330
19
100
AcDbEntity
  8
PV
100
AcDbLine
 10
-377.364483
 20
216.046577
 30
0.0
 11
-377.364483
 21
218.046577
 31
0.0
  0
LINE
  5
B3D
330
19
100
AcDbEntity
  8
PV
100
AcDbLine
 10
-358.364483
 20
216.046577
 30
0.0
 11
-358.364483
 21
218.046577
 31
0.0
  0
ARC
  5
B3E
330
19
100
AcDbEntity
  8
PV
100
AcDbCircle
 10
-326.364483
 20
248.046577
 30
0.0
 40
1.0
100
AcDbArc
 50
0.0
 51
90.0
  0
ARC
  5
B3F
330
19
100
AcDbEntity
  8
PV
100
AcDbCircle
 10
-326.364483
 20
213.046577
 30
0.0
 40
1.0
100
AcDbArc
 50
270.0
 51
0.0
  0
LINE
  5
B40
330
19
100
AcDbEntity
  8
PV
100
AcDbLine
 10
-325.364483
 20
248.046577
 30
0.0
 11
-325.364483
 21
213.046577
 31
0.0
  0
LINE
  5
B41
330
19
100
AcDbEntity
  8
PV
100
AcDbLine
 10
-348.364483
 20
245.046577
 30
0.0
 11
-348.364483
 21
249.046577
 31
0.0
  0
LWPOLYLINE
  5
B42
330
19
100
AcDbEntity
  8
PV
 62
     7
100
AcDbPolyline
 90
        2
 70
     1
 43
0.5
 10
-336.114483
 20
233.0465769999999
 42
1.0
 10
-336.614483
 20
233.0465769999999
 42
1.0
  0
LINE
  5
B46
330
19
100
AcDbEntity
  8
PV
100
AcDbLine
 10
-357.8644829999999
 20
249.046577
 30
0.0
 11
-357.8644829999999
 21
247.546577
 31
0.0
  0
TEXT
  5
B47
330
19
100
AcDbEntity
  8
PV
100
AcDbText
 10
-361.364483
 20
244.546577
 30
0.0
 40
1.5
  1
AC200V
 41
0.8199999999999999
  7
MONOTXT
100
AcDbText
  0
LINE
  5
B48
330
19
100
AcDbEntity
  8
PV
100
AcDbLine
 10
-357.8644829999999
 20
247.546577
 30
0.0
 11
-358.864483
 21
247.546577
 31
0.0
  0
LWPOLYLINE
  5
B49
330
19
100
AcDbEntity
  8
PV
 62
     7
100
AcDbPolyline
 90
        2
 70
     1
 43
0.5
 10
-353.114483
 20
233.0465769999999
 42
1.0
 10
-353.614483
 20
233.0465769999999
 42
1.0
  0
LINE
  5
B4D
330
19
100
AcDbEntity
  8
PV
100
AcDbLine
 10
-352.364483
 20
245.046577
 30
0.0
 11
-348.364483
 21
245.046577
 31
0.0
  0
LINE
  5
B4E
330
19
100
AcDbEntity
  8
PV
100
AcDbLine
 10
-356.828585
 20
231.0465769999999
 30
0.0
 11
-349.900381
 21
231.0465769999999
 31
0.0
  0
LINE
  5
B4F
330
19
100
AcDbEntity
  8
PV
100
AcDbLine
 10
-356.828585
 20
230.046577
 30
0.0
 11
-349.900381
 21
230.046577
 31
0.0
  0
LINE
  5
B50
330
19
100
AcDbEntity
  8
PV
100
AcDbLine
 10
-367.364483
 20
247.546577
 30
0.0
 11
-366.864483
 21
247.546577
 31
0.0
  0
LINE
  5
B51
330
19
100
AcDbEntity
  8
PV
100
AcDbLine
 10
-367.364483
 20
249.046577
 30
0.0
 11
-367.364483
 21
245.046577
 31
0.0
  0
ARC
  5
B52
330
19
100
AcDbEntity
  8
PV
100
AcDbCircle
 10
-380.3644829999999
 20
248.046577
 30
0.0
 40
1.0
100
AcDbArc
 50
90.0
 51
180.0
  0
TEXT
  5
B53
330
19
100
AcDbEntity
  8
PV
100
AcDbText
 10
-366.3644829999999
 20
246.546577
 30
0.0
 40
1.5
  1
AC100V
 41
0.8199999999999999
  7
MONOTXT
100
AcDbText
  0
LINE
  5
B54
330
19
100
AcDbEntity
  8
PV
100
AcDbLine
 10
-367.364483
 20
245.046577
 30
0.0
 11
-362.864483
 21
245.046577
 31
0.0
  0
LINE
  5
B55
330
19
100
AcDbEntity
  8
PV
100
AcDbLine
 10
-362.614483
 20
218.046577
 30
0.0
 11
-358.364483
 21
218.046577
 31
0.0
  0
LINE
  5
B56
330
19
100
AcDbEntity
  8
PV
100
AcDbLine
 10
-363.614483
 20
219.046577
 30
0.0
 11
-363.614483
 21
217.046577
 31
0.0
  0
LINE
  5
B57
330
19
100
AcDbEntity
  8
PV
100
AcDbLine
 10
-362.614483
 20
219.046577
 30
0.0
 11
-362.614483
 21
217.046577
 31
0.0
  0
LINE
  5
B58
330
19
100
AcDbEntity
  8
PV
100
AcDbLine
 10
-364.1144829999999
 20
217.046577
 30
0.0
 11
-362.1144829999999
 21
219.046577
 31
0.0
  0
LINE
  5
B59
330
19
100
AcDbEntity
  8
PV
100
AcDbLine
 10
-372.114483
 20
218.046577
 30
0.0
 11
-367.864483
 21
218.046577
 31
0.0
  0
LINE
  5
B5A
330
19
100
AcDbEntity
  8
PV
100
AcDbLine
 10
-373.114483
 20
219.046577
 30
0.0
 11
-373.114483
 21
217.046577
 31
0.0
  0
LINE
  5
B5B
330
19
100
AcDbEntity
  8
PV
100
AcDbLine
 10
-372.114483
 20
219.046577
 30
0.0
 11
-372.114483
 21
217.046577
 31
0.0
  0
LINE
  5
B5C
330
19
100
AcDbEntity
  8
PV
100
AcDbLine
 10
-373.114483
 20
218.046577
 30
0.0
 11
-377.364483
 21
218.046577
 31
0.0
  0
ARC
  5
B5D
330
19
100
AcDbEntity
  8
PV
100
AcDbCircle
 10
-380.3644829999999
 20
213.046577
 30
0.0
 40
1.0
100
AcDbArc
 50
180.0
 51
270.0
  0
LINE
  5
B5E
330
19
100
AcDbEntity
  8
PV
100
AcDbLine
 10
-363.614483
 20
218.046577
 30
0.0
 11
-367.864483
 21
218.046577
 31
0.0
  0
LINE
  5
B5F
330
19
100
AcDbEntity
  8
PV
100
AcDbLine
 10
-381.364483
 20
248.046577
 30
0.0
 11
-381.364483
 21
213.046577
 31
0.0
  0
CIRCLE
  5
B60
330
19
100
AcDbEntity
  8
PV
100
AcDbCircle
 10
-353.364483
 20
230.546577
 30
0.0
 40
3.5
  0
LINE
  5
B61
330
19
100
AcDbEntity
  8
PV
100
AcDbLine
 10
-326.364483
 20
249.046577
 30
0.0
 11
-380.3644829999999
 21
249.046577
 31
0.0
  0
LINE
  5
B62
330
19
100
AcDbEntity
  8
PV
100
AcDbLine
 10
-326.364483
 20
212.046577
 30
0.0
 11
-380.3644829999999
 21
212.046577
 31
0.0
  0
CIRCLE
  5
B63
330
19
100
AcDbEntity
  8
PV
100
AcDbCircle
 10
-336.364483
 20
230.546577
 30
0.0
 40
3.5
  0
LINE
  5
B64
330
19
100
AcDbEntity
  8
PV
100
AcDbLine
 10
-339.828585
 20
231.0465769999999
 30
0.0
 11
-332.9003809999999
 21
231.0465769999999
 31
0.0
  0
LINE
  5
B65
330
19
100
AcDbEntity
  8
PV
100
AcDbLine
 10
-339.828585
 20
230.046577
 30
0.0
 11
-332.9003809999999
 21
230.046577
 31
0.0
  0
LINE
  5
B66
330
19
100
AcDbEntity
  8
PV
  6
CENTER
100
AcDbLine
 10
-328.364483
 20
95.046577
 30
0.0
 11
-328.364483
 21
80.046577
 31
0.0
  0
LINE
  5
B67
330
19
100
AcDbEntity
  8
PV
  6
CENTER
100
AcDbLine
 10
-189.866731
 20
201.546577
 30
0.0
 11
-174.866731
 21
201.546577
 31
0.0
  0
ARC
  5
B68
330
19
100
AcDbEntity
  8
PV
100
AcDbCircle
 10
-324.364483
 20
264.546577
 30
0.0
 40
1.0
100
AcDbArc
 50
0.0
 51
90.0
  0
ARC
  5
B69
330
19
100
AcDbEntity
  8
PV
100
AcDbCircle
 10
-324.8644829999999
 20
263.546577
 30
0.0
 40
1.0
100
AcDbArc
 50
0.0
 51
90.0
  0
LINE
  5
B6A
330
19
100
AcDbEntity
  8
PV
100
AcDbLine
 10
-333.364483
 20
262.546577
 30
0.0
 11
-325.364483
 21
262.546577
 31
0.0
  0
LINE
  5
B6B
330
19
100
AcDbEntity
  8
PV
100
AcDbLine
 10
-327.364483
 20
258.0465769999999
 30
0.0
 11
-327.364483
 21
257.046577
 31
0.0
  0
LINE
  5
B6C
330
19
100
AcDbEntity
  8
PV
100
AcDbLine
 10
-326.364483
 20
260.546577
 30
0.0
 11
-326.364483
 21
254.546577
 31
0.0
  0
LINE
  5
B6D
330
19
100
AcDbEntity
  8
PV
100
AcDbLine
 10
-331.364483
 20
257.046577
 30
0.0
 11
-331.364483
 21
258.0465769999999
 31
0.0
  0
LINE
  5
B6E
330
19
100
AcDbEntity
  8
PV
100
AcDbLine
 10
-331.364483
 20
258.0465769999999
 30
0.0
 11
-330.364483
 21
258.0465769999999
 31
0.0
  0
LINE
  5
B6F
330
19
100
AcDbEntity
  8
PV
100
AcDbLine
 10
-329.864483
 20
259.546577
 30
0.0
 11
-328.8644829999999
 21
259.546577
 31
0.0
  0
LINE
  5
B70
330
19
100
AcDbEntity
  8
PV
100
AcDbLine
 10
-328.8644829999999
 20
259.546577
 30
0.0
 11
-328.8644829999999
 21
258.546577
 31
0.0
  0
LINE
  5
B71
330
19
100
AcDbEntity
  8
PV
100
AcDbLine
 10
-329.864483
 20
258.546577
 30
0.0
 11
-329.864483
 21
259.546577
 31
0.0
  0
LINE
  5
B72
330
19
100
AcDbEntity
  8
PV
100
AcDbLine
 10
-330.364483
 20
257.046577
 30
0.0
 11
-331.364483
 21
257.046577
 31
0.0
  0
ARC
  5
B73
330
19
100
AcDbEntity
  8
PV
100
AcDbCircle
 10
-328.364483
 20
258.546577
 30
0.0
 40
0.5
100
AcDbArc
 50
180.0
 51
270.0
  0
ARC
  5
B74
330
19
100
AcDbEntity
  8
PV
100
AcDbCircle
 10
-330.364483
 20
258.546577
 30
0.0
 40
0.5
100
AcDbArc
 50
270.0
 51
0.0
  0
ARC
  5
B75
330
19
100
AcDbEntity
  8
PV
100
AcDbCircle
 10
-330.364483
 20
256.546577
 30
0.0
 40
0.5
100
AcDbArc
 50
0.0
 51
90.0
  0
ARC
  5
B76
330
19
100
AcDbEntity
  8
PV
100
AcDbCircle
 10
-328.364483
 20
256.546577
 30
0.0
 40
0.5
100
AcDbArc
 50
90.0
 51
180.0
  0
LINE
  5
B77
330
19
100
AcDbEntity
  8
PV
100
AcDbLine
 10
-328.8644829999999
 20
255.546577
 30
0.0
 11
-329.864483
 21
255.546577
 31
0.0
  0
LINE
  5
B78
330
19
100
AcDbEntity
  8
PV
100
AcDbLine
 10
-329.864483
 20
255.546577
 30
0.0
 11
-329.864483
 21
256.546577
 31
0.0
  0
LINE
  5
B79
330
19
100
AcDbEntity
  8
PV
100
AcDbLine
 10
-328.8644829999999
 20
256.546577
 30
0.0
 11
-328.8644829999999
 21
255.546577
 31
0.0
  0
LINE
  5
B7A
330
19
100
AcDbEntity
  8
PV
100
AcDbLine
 10
-332.364483
 20
254.546577
 30
0.0
 11
-332.364483
 21
260.546577
 31
0.0
  0
LINE
  5
B7B
330
19
100
AcDbEntity
  8
PV
100
AcDbLine
 10
-325.364483
 20
251.046577
 30
0.0
 11
-333.364483
 21
251.046577
 31
0.0
  0
LINE
  5
B7C
330
19
100
AcDbEntity
  8
PV
100
AcDbLine
 10
-325.864483
 20
252.546577
 30
0.0
 11
-332.8644829999999
 21
252.546577
 31
0.0
  0
LINE
  5
B7D
330
19
100
AcDbEntity
  8
PV
100
AcDbLine
 10
-332.364483
 20
260.6090779999999
 30
0.0
 11
-326.364483
 21
260.6090779999999
 31
0.0
  0
LINE
  5
B7E
330
19
100
AcDbEntity
  8
PV
100
AcDbLine
 10
-326.364483
 20
254.546577
 30
0.0
 11
-332.364483
 21
254.546577
 31
0.0
  0
LINE
  5
B7F
330
19
100
AcDbEntity
  8
PV
100
AcDbLine
 10
-327.364483
 20
257.046577
 30
0.0
 11
-328.364483
 21
257.046577
 31
0.0
  0
LINE
  5
B80
330
19
100
AcDbEntity
  8
PV
100
AcDbLine
 10
-328.364483
 20
258.0465769999999
 30
0.0
 11
-327.364483
 21
258.0465769999999
 31
0.0
  0
CIRCLE
  5
B81
330
19
100
AcDbEntity
  8
PV
100
AcDbCircle
 10
-329.364483
 20
257.546577
 30
0.0
 40
2.5
  0
LINE
  5
B82
330
19
100
AcDbEntity
  8
PV
100
AcDbLine
 10
-325.364483
 20
264.546577
 30
0.0
 11
-325.364483
 21
251.046577
 31
0.0
  0
LINE
  5
B83
330
19
100
AcDbEntity
  8
PV
100
AcDbLine
 10
-333.364483
 20
251.046577
 30
0.0
 11
-333.364483
 21
264.546577
 31
0.0
  0
LINE
  5
B84
330
19
100
AcDbEntity
  8
PV
100
AcDbLine
 10
-334.864483
 20
264.546577
 30
0.0
 11
-334.864483
 21
251.046577
 31
0.0
  0
LINE
  5
B85
330
19
100
AcDbEntity
  8
PV
100
AcDbLine
 10
-325.864483
 20
262.546577
 30
0.0
 11
-325.864483
 21
252.546577
 31
0.0
  0
LINE
  5
B86
330
19
100
AcDbEntity
  8
PV
100
AcDbLine
 10
-332.8644829999999
 20
252.546577
 30
0.0
 11
-332.8644829999999
 21
262.546577
 31
0.0
  0
LINE
  5
B87
330
19
100
AcDbEntity
  8
PV
100
AcDbLine
 10
-335.364483
 20
262.546577
 30
0.0
 11
-335.364483
 21
252.546577
 31
0.0
  0
LINE
  5
B88
330
19
100
AcDbEntity
  8
PV
100
AcDbLine
 10
-333.864483
 20
210.046577
 30
0.0
 11
-323.864483
 21
210.046577
 31
0.0
  0
LINE
  5
B89
330
19
100
AcDbEntity
  8
PV
100
AcDbLine
 10
-326.114483
 20
200.546577
 30
0.0
 11
-326.114483
 21
202.546577
 31
0.0
  0
LINE
  5
B8A
330
19
100
AcDbEntity
  8
PV
100
AcDbLine
 10
-330.614483
 20
202.546577
 30
0.0
 11
-330.614483
 21
200.546577
 31
0.0
  0
ARC
  5
B8B
330
19
100
AcDbEntity
  8
PV
100
AcDbCircle
 10
-328.364483
 20
202.546577
 30
0.0
 40
2.25
100
AcDbArc
 50
0.0
 51
180.0
  0
LINE
  5
B8C
330
19
100
AcDbEntity
  8
PV
100
AcDbLine
 10
-333.864483
 20
207.546577
 30
0.0
 11
-323.364483
 21
207.546577
 31
0.0
  0
ARC
  5
B8D
330
19
100
AcDbEntity
  8
PV
100
AcDbCircle
 10
-325.364483
 20
197.546577
 30
0.0
 40
2.0
100
AcDbArc
 50
270.0
 51
0.0
  0
ARC
  5
B8E
330
19
100
AcDbEntity
  8
PV
100
AcDbCircle
 10
-328.364483
 20
200.546577
 30
0.0
 40
2.25
100
AcDbArc
 50
180.0
 51
0.0
  0
LINE
  5
B8F
330
19
100
AcDbEntity
  8
PV
100
AcDbLine
 10
-335.364483
 20
196.546577
 30
0.0
 11
-335.364483
 21
210.046577
 31
0.0
  0
LINE
  5
B90
330
19
100
AcDbEntity
  8
PV
100
AcDbLine
 10
-333.864483
 20
196.546577
 30
0.0
 11
-333.864483
 21
210.046577
 31
0.0
  0
LINE
  5
B91
330
19
100
AcDbEntity
  8
PV
100
AcDbLine
 10
-323.864483
 20
210.046577
 30
0.0
 11
-323.364483
 21
207.546577
 31
0.0
  0
LINE
  5
B92
330
19
100
AcDbEntity
  8
PV
100
AcDbLine
 10
-323.364483
 20
197.546577
 30
0.0
 11
-323.364483
 21
264.546577
 31
0.0
  0
LINE
  5
B93
330
19
100
AcDbEntity
  8
PV
100
AcDbLine
 10
-323.864483
 20
210.046577
 30
0.0
 11
-323.864483
 21
263.546577
 31
0.0
  0
ARC
  5
B94
330
19
100
AcDbEntity
  8
PV
100
AcDbCircle
 10
-337.864483
 20
256.546577
 30
0.0
 40
0.5
100
AcDbArc
 50
90.0
 51
180.0
  0
ARC
  5
B95
330
19
100
AcDbEntity
  8
PV
100
AcDbCircle
 10
-337.864483
 20
258.546577
 30
0.0
 40
0.5
100
AcDbArc
 50
180.0
 51
270.0
  0
LINE
  5
B96
330
19
100
AcDbEntity
  8
PV
100
AcDbLine
 10
-337.864483
 20
258.0465769999999
 30
0.0
 11
-336.864483
 21
258.0465769999999
 31
0.0
  0
LINE
  5
B97
330
19
100
AcDbEntity
  8
PV
100
AcDbLine
 10
-339.3644829999999
 20
258.546577
 30
0.0
 11
-339.3644829999999
 21
259.546577
 31
0.0
  0
LINE
  5
B98
330
19
100
AcDbEntity
  8
PV
100
AcDbLine
 10
-338.364483
 20
259.546577
 30
0.0
 11
-338.364483
 21
258.546577
 31
0.0
  0
LINE
  5
B99
330
19
100
AcDbEntity
  8
PV
100
AcDbLine
 10
-339.3644829999999
 20
259.546577
 30
0.0
 11
-338.364483
 21
259.546577
 31
0.0
  0
LINE
  5
B9A
330
19
100
AcDbEntity
  8
PV
100
AcDbLine
 10
-336.864483
 20
257.046577
 30
0.0
 11
-337.864483
 21
257.046577
 31
0.0
  0
LINE
  5
B9B
330
19
100
AcDbEntity
  8
PV
100
AcDbLine
 10
-336.864483
 20
258.0465769999999
 30
0.0
 11
-336.864483
 21
257.046577
 31
0.0
  0
LINE
  5
B9C
330
19
100
AcDbEntity
  8
PV
100
AcDbLine
 10
-339.864483
 20
257.046577
 30
0.0
 11
-340.864483
 21
257.046577
 31
0.0
  0
LINE
  5
B9D
330
19
100
AcDbEntity
  8
PV
100
AcDbLine
 10
-340.864483
 20
258.0465769999999
 30
0.0
 11
-339.864483
 21
258.0465769999999
 31
0.0
  0
LINE
  5
B9E
330
19
100
AcDbEntity
  8
PV
100
AcDbLine
 10
-340.864483
 20
257.046577
 30
0.0
 11
-340.864483
 21
258.0465769999999
 31
0.0
  0
ARC
  5
B9F
330
19
100
AcDbEntity
  8
PV
100
AcDbCircle
 10
-339.864483
 20
256.546577
 30
0.0
 40
0.5
100
AcDbArc
 50
0.0
 51
90.0
  0
ARC
  5
BA0
330
19
100
AcDbEntity
  8
PV
100
AcDbCircle
 10
-339.864483
 20
258.546577
 30
0.0
 40
0.5
100
AcDbArc
 50
270.0
 51
0.0
  0
LINE
  5
BA1
330
19
100
AcDbEntity
  8
PV
100
AcDbLine
 10
-341.864483
 20
260.6090779999999
 30
0.0
 11
-335.864483
 21
260.6090779999999
 31
0.0
  0
LINE
  5
BA2
330
19
100
AcDbEntity
  8
PV
100
AcDbLine
 10
-338.364483
 20
255.546577
 30
0.0
 11
-339.3644829999999
 21
255.546577
 31
0.0
  0
LINE
  5
BA3
330
19
100
AcDbEntity
  8
PV
100
AcDbLine
 10
-335.864483
 20
254.546577
 30
0.0
 11
-341.864483
 21
254.546577
 31
0.0
  0
LINE
  5
BA4
330
19
100
AcDbEntity
  8
PV
100
AcDbLine
 10
-341.864483
 20
254.546577
 30
0.0
 11
-341.864483
 21
260.546577
 31
0.0
  0
LINE
  5
BA5
330
19
100
AcDbEntity
  8
PV
100
AcDbLine
 10
-335.864483
 20
260.546577
 30
0.0
 11
-335.864483
 21
254.546577
 31
0.0
  0
CIRCLE
  5
BA6
330
19
100
AcDbEntity
  8
PV
100
AcDbCircle
 10
-338.864483
 20
257.546577
 30
0.0
 40
2.5
  0
LINE
  5
BA7
330
19
100
AcDbEntity
  8
PV
100
AcDbLine
 10
-338.364483
 20
256.546577
 30
0.0
 11
-338.364483
 21
255.546577
 31
0.0
  0
LINE
  5
BA8
330
19
100
AcDbEntity
  8
PV
100
AcDbLine
 10
-339.3644829999999
 20
255.546577
 30
0.0
 11
-339.3644829999999
 21
256.546577
 31
0.0
  0
LINE
  5
BA9
330
19
100
AcDbEntity
  8
PV
100
AcDbLine
 10
-346.364483
 20
258.0465769999999
 30
0.0
 11
-346.364483
 21
257.046577
 31
0.0
  0
ARC
  5
BAA
330
19
100
AcDbEntity
  8
PV
100
AcDbCircle
 10
-347.364483
 20
256.546577
 30
0.0
 40
0.5
100
AcDbArc
 50
90.0
 51
180.0
  0
ARC
  5
BAB
330
19
100
AcDbEntity
  8
PV
100
AcDbCircle
 10
-349.364483
 20
256.546577
 30
0.0
 40
0.5
100
AcDbArc
 50
0.0
 51
90.0
  0
ARC
  5
BAC
330
19
100
AcDbEntity
  8
PV
100
AcDbCircle
 10
-349.364483
 20
258.546577
 30
0.0
 40
0.5
100
AcDbArc
 50
270.0
 51
0.0
  0
ARC
  5
BAD
330
19
100
AcDbEntity
  8
PV
100
AcDbCircle
 10
-347.364483
 20
258.546577
 30
0.0
 40
0.5
100
AcDbArc
 50
180.0
 51
270.0
  0
LINE
  5
BAE
330
19
100
AcDbEntity
  8
PV
100
AcDbLine
 10
-349.364483
 20
257.046577
 30
0.0
 11
-350.364483
 21
257.046577
 31
0.0
  0
LINE
  5
BAF
330
19
100
AcDbEntity
  8
PV
100
AcDbLine
 10
-348.864483
 20
258.546577
 30
0.0
 11
-348.864483
 21
259.546577
 31
0.0
  0
LINE
  5
BB0
330
19
100
AcDbEntity
  8
PV
100
AcDbLine
 10
-347.864483
 20
259.546577
 30
0.0
 11
-347.864483
 21
258.546577
 31
0.0
  0
LINE
  5
BB1
330
19
100
AcDbEntity
  8
PV
100
AcDbLine
 10
-348.864483
 20
259.546577
 30
0.0
 11
-347.864483
 21
259.546577
 31
0.0
  0
LINE
  5
BB2
330
19
100
AcDbEntity
  8
PV
100
AcDbLine
 10
-350.364483
 20
258.0465769999999
 30
0.0
 11
-349.364483
 21
258.0465769999999
 31
0.0
  0
LINE
  5
BB3
330
19
100
AcDbEntity
  8
PV
100
AcDbLine
 10
-350.364483
 20
257.046577
 30
0.0
 11
-350.364483
 21
258.0465769999999
 31
0.0
  0
LINE
  5
BB4
330
19
100
AcDbEntity
  8
PV
100
AcDbLine
 10
-347.364483
 20
258.0465769999999
 30
0.0
 11
-346.364483
 21
258.0465769999999
 31
0.0
  0
LINE
  5
BB5
330
19
100
AcDbEntity
  8
PV
100
AcDbLine
 10
-346.364483
 20
257.046577
 30
0.0
 11
-347.364483
 21
257.046577
 31
0.0
  0
LINE
  5
BB6
330
19
100
AcDbEntity
  8
PV
100
AcDbLine
 10
-347.864483
 20
255.546577
 30
0.0
 11
-348.864483
 21
255.546577
 31
0.0
  0
LINE
  5
BB7
330
19
100
AcDbEntity
  8
PV
100
AcDbLine
 10
-345.3644829999999
 20
260.546577
 30
0.0
 11
-345.3644829999999
 21
254.546577
 31
0.0
  0
CIRCLE
  5
BB8
330
19
100
AcDbEntity
  8
PV
100
AcDbCircle
 10
-348.364483
 20
257.546577
 30
0.0
 40
2.5
  0
LINE
  5
BB9
330
19
100
AcDbEntity
  8
PV
100
AcDbLine
 10
-347.864483
 20
256.546577
 30
0.0
 11
-347.864483
 21
255.546577
 31
0.0
  0
LINE
  5
BBA
330
19
100
AcDbEntity
  8
PV
100
AcDbLine
 10
-348.864483
 20
255.546577
 30
0.0
 11
-348.864483
 21
256.546577
 31
0.0
  0
LINE
  5
BBB
330
19
100
AcDbEntity
  8
PV
100
AcDbLine
 10
-342.864483
 20
251.046577
 30
0.0
 11
-342.864483
 21
264.546577
 31
0.0
  0
LINE
  5
BBC
330
19
100
AcDbEntity
  8
PV
100
AcDbLine
 10
-344.364483
 20
264.546577
 30
0.0
 11
-344.364483
 21
251.046577
 31
0.0
  0
LINE
  5
BBD
330
19
100
AcDbEntity
  8
PV
100
AcDbLine
 10
-342.364483
 20
252.546577
 30
0.0
 11
-342.364483
 21
262.546577
 31
0.0
  0
LINE
  5
BBE
330
19
100
AcDbEntity
  8
PV
100
AcDbLine
 10
-344.864483
 20
262.546577
 30
0.0
 11
-344.864483
 21
252.546577
 31
0.0
  0
LINE
  5
BBF
330
19
100
AcDbEntity
  8
PV
100
AcDbLine
 10
-361.864483
 20
262.546577
 30
0.0
 11
-353.8644829999999
 21
262.546577
 31
0.0
  0
ARC
  5
BC0
330
19
100
AcDbEntity
  8
PV
100
AcDbCircle
 10
-356.864483
 20
256.546577
 30
0.0
 40
0.5
100
AcDbArc
 50
90.0
 51
180.0
  0
ARC
  5
BC1
330
19
100
AcDbEntity
  8
PV
100
AcDbCircle
 10
-356.864483
 20
258.546577
 30
0.0
 40
0.5
100
AcDbArc
 50
180.0
 51
270.0
  0
LINE
  5
BC2
330
19
100
AcDbEntity
  8
PV
100
AcDbLine
 10
-356.864483
 20
258.0465769999999
 30
0.0
 11
-355.8644829999999
 21
258.0465769999999
 31
0.0
  0
LINE
  5
BC3
330
19
100
AcDbEntity
  8
PV
100
AcDbLine
 10
-358.364483
 20
258.546577
 30
0.0
 11
-358.364483
 21
259.546577
 31
0.0
  0
LINE
  5
BC4
330
19
100
AcDbEntity
  8
PV
100
AcDbLine
 10
-357.364483
 20
259.546577
 30
0.0
 11
-357.364483
 21
258.546577
 31
0.0
  0
LINE
  5
BC5
330
19
100
AcDbEntity
  8
PV
100
AcDbLine
 10
-358.364483
 20
259.546577
 30
0.0
 11
-357.364483
 21
259.546577
 31
0.0
  0
LINE
  5
BC6
330
19
100
AcDbEntity
  8
PV
100
AcDbLine
 10
-355.8644829999999
 20
257.046577
 30
0.0
 11
-356.864483
 21
257.046577
 31
0.0
  0
LINE
  5
BC7
330
19
100
AcDbEntity
  8
PV
100
AcDbLine
 10
-355.8644829999999
 20
258.0465769999999
 30
0.0
 11
-355.8644829999999
 21
257.046577
 31
0.0
  0
LINE
  5
BC8
330
19
100
AcDbEntity
  8
PV
100
AcDbLine
 10
-357.364483
 20
255.546577
 30
0.0
 11
-358.364483
 21
255.546577
 31
0.0
  0
LINE
  5
BC9
330
19
100
AcDbEntity
  8
PV
100
AcDbLine
 10
-351.364483
 20
254.546577
 30
0.0
 11
-351.364483
 21
260.546577
 31
0.0
  0
LINE
  5
BCA
330
19
100
AcDbEntity
  8
PV
100
AcDbLine
 10
-354.864483
 20
260.546577
 30
0.0
 11
-354.864483
 21
254.546577
 31
0.0
  0
LINE
  5
BCB
330
19
100
AcDbEntity
  8
PV
100
AcDbLine
 10
-357.364483
 20
256.546577
 30
0.0
 11
-357.364483
 21
255.546577
 31
0.0
  0
LINE
  5
BCC
330
19
100
AcDbEntity
  8
PV
100
AcDbLine
 10
-358.364483
 20
255.546577
 30
0.0
 11
-358.364483
 21
256.546577
 31
0.0
  0
LINE
  5
BCD
330
19
100
AcDbEntity
  8
PV
100
AcDbLine
 10
-358.864483
 20
257.046577
 30
0.0
 11
-359.864483
 21
257.046577
 31
0.0
  0
LINE
  5
BCE
330
19
100
AcDbEntity
  8
PV
100
AcDbLine
 10
-359.864483
 20
258.0465769999999
 30
0.0
 11
-358.864483
 21
258.0465769999999
 31
0.0
  0
LINE
  5
BCF
330
19
100
AcDbEntity
  8
PV
100
AcDbLine
 10
-359.864483
 20
257.046577
 30
0.0
 11
-359.864483
 21
258.0465769999999
 31
0.0
  0
LINE
  5
BD0
330
19
100
AcDbEntity
  8
PV
100
AcDbLine
 10
-365.364483
 20
258.0465769999999
 30
0.0
 11
-365.364483
 21
257.046577
 31
0.0
  0
LINE
  5
BD1
330
19
100
AcDbEntity
  8
PV
100
AcDbLine
 10
-360.864483
 20
254.546577
 30
0.0
 11
-360.864483
 21
260.546577
 31
0.0
  0
LINE
  5
BD2
330
19
100
AcDbEntity
  8
PV
100
AcDbLine
 10
-364.3644829999999
 20
260.546577
 30
0.0
 11
-364.3644829999999
 21
254.546577
 31
0.0
  0
CIRCLE
  5
BD3
330
19
100
AcDbEntity
  8
PV
100
AcDbCircle
 10
-357.8644829999999
 20
257.546577
 30
0.0
 40
2.5
  0
ARC
  5
BD4
330
19
100
AcDbEntity
  8
PV
100
AcDbCircle
 10
-358.864483
 20
256.546577
 30
0.0
 40
0.5
100
AcDbArc
 50
0.0
 51
90.0
  0
ARC
  5
BD5
330
19
100
AcDbEntity
  8
PV
100
AcDbCircle
 10
-358.864483
 20
258.546577
 30
0.0
 40
0.5
100
AcDbArc
 50
270.0
 51
0.0
  0
LINE
  5
BD6
330
19
100
AcDbEntity
  8
PV
100
AcDbLine
 10
-354.864483
 20
254.546577
 30
0.0
 11
-360.864483
 21
254.546577
 31
0.0
  0
LINE
  5
BD7
330
19
100
AcDbEntity
  8
PV
100
AcDbLine
 10
-360.864483
 20
260.6090779999999
 30
0.0
 11
-354.864483
 21
260.6090779999999
 31
0.0
  0
LINE
  5
BD8
330
19
100
AcDbEntity
  8
PV
100
AcDbLine
 10
-354.364483
 20
252.546577
 30
0.0
 11
-361.364483
 21
252.546577
 31
0.0
  0
LINE
  5
BD9
330
19
100
AcDbEntity
  8
PV
100
AcDbLine
 10
-353.8644829999999
 20
251.046577
 30
0.0
 11
-361.864483
 21
251.046577
 31
0.0
  0
LINE
  5
BDA
330
19
100
AcDbEntity
  8
PV
100
AcDbLine
 10
-352.364483
 20
251.046577
 30
0.0
 11
-352.364483
 21
264.546577
 31
0.0
  0
LINE
  5
BDB
330
19
100
AcDbEntity
  8
PV
100
AcDbLine
 10
-361.864483
 20
251.046577
 30
0.0
 11
-361.864483
 21
264.546577
 31
0.0
  0
LINE
  5
BDC
330
19
100
AcDbEntity
  8
PV
100
AcDbLine
 10
-353.8644829999999
 20
264.546577
 30
0.0
 11
-353.8644829999999
 21
251.046577
 31
0.0
  0
LINE
  5
BDD
330
19
100
AcDbEntity
  8
PV
100
AcDbLine
 10
-363.364483
 20
264.546577
 30
0.0
 11
-363.364483
 21
251.046577
 31
0.0
  0
LINE
  5
BDE
330
19
100
AcDbEntity
  8
PV
100
AcDbLine
 10
-351.8644829999999
 20
252.546577
 30
0.0
 11
-351.8644829999999
 21
262.546577
 31
0.0
  0
LINE
  5
BDF
330
19
100
AcDbEntity
  8
PV
100
AcDbLine
 10
-361.364483
 20
252.546577
 30
0.0
 11
-361.364483
 21
262.546577
 31
0.0
  0
LINE
  5
BE0
330
19
100
AcDbEntity
  8
PV
100
AcDbLine
 10
-354.364483
 20
262.546577
 30
0.0
 11
-354.364483
 21
252.546577
 31
0.0
  0
LINE
  5
BE1
330
19
100
AcDbEntity
  8
PV
100
AcDbLine
 10
-363.864483
 20
262.546577
 30
0.0
 11
-363.864483
 21
252.546577
 31
0.0
  0
LINE
  5
BE2
330
19
100
AcDbEntity
  8
PV
100
AcDbLine
 10
-345.3644829999999
 20
254.546577
 30
0.0
 11
-351.364483
 21
254.546577
 31
0.0
  0
LINE
  5
BE3
330
19
100
AcDbEntity
  8
PV
100
AcDbLine
 10
-351.364483
 20
260.6090779999999
 30
0.0
 11
-345.3644829999999
 21
260.6090779999999
 31
0.0
  0
LINE
  5
BE4
330
19
100
AcDbEntity
  8
PV
100
AcDbLine
 10
-344.864483
 20
252.546577
 30
0.0
 11
-351.8644829999999
 21
252.546577
 31
0.0
  0
LINE
  5
BE5
330
19
100
AcDbEntity
  8
PV
100
AcDbLine
 10
-352.364483
 20
262.546577
 30
0.0
 11
-344.364483
 21
262.546577
 31
0.0
  0
LINE
  5
BE6
330
19
100
AcDbEntity
  8
PV
100
AcDbLine
 10
-344.364483
 20
251.046577
 30
0.0
 11
-352.364483
 21
251.046577
 31
0.0
  0
ARC
  5
BE7
330
19
100
AcDbEntity
  8
PV
100
AcDbCircle
 10
-366.3644829999999
 20
256.546577
 30
0.0
 40
0.5
100
AcDbArc
 50
90.0
 51
180.0
  0
ARC
  5
BE8
330
19
100
AcDbEntity
  8
PV
100
AcDbCircle
 10
-368.3644829999999
 20
256.546577
 30
0.0
 40
0.5
100
AcDbArc
 50
0.0
 51
90.0
  0
ARC
  5
BE9
330
19
100
AcDbEntity
  8
PV
100
AcDbCircle
 10
-368.3644829999999
 20
258.546577
 30
0.0
 40
0.5
100
AcDbArc
 50
270.0
 51
0.0
  0
ARC
  5
BEA
330
19
100
AcDbEntity
  8
PV
100
AcDbCircle
 10
-366.3644829999999
 20
258.546577
 30
0.0
 40
0.5
100
AcDbArc
 50
180.0
 51
270.0
  0
LINE
  5
BEB
330
19
100
AcDbEntity
  8
PV
100
AcDbLine
 10
-368.3644829999999
 20
257.046577
 30
0.0
 11
-369.364483
 21
257.046577
 31
0.0
  0
LINE
  5
BEC
330
19
100
AcDbEntity
  8
PV
100
AcDbLine
 10
-367.864483
 20
258.546577
 30
0.0
 11
-367.864483
 21
259.546577
 31
0.0
  0
LINE
  5
BED
330
19
100
AcDbEntity
  8
PV
100
AcDbLine
 10
-366.864483
 20
259.546577
 30
0.0
 11
-366.864483
 21
258.546577
 31
0.0
  0
LINE
  5
BEE
330
19
100
AcDbEntity
  8
PV
100
AcDbLine
 10
-367.864483
 20
259.546577
 30
0.0
 11
-366.864483
 21
259.546577
 31
0.0
  0
LINE
  5
BEF
330
19
100
AcDbEntity
  8
PV
100
AcDbLine
 10
-369.364483
 20
258.0465769999999
 30
0.0
 11
-368.3644829999999
 21
258.0465769999999
 31
0.0
  0
LINE
  5
BF0
330
19
100
AcDbEntity
  8
PV
100
AcDbLine
 10
-369.364483
 20
257.046577
 30
0.0
 11
-369.364483
 21
258.0465769999999
 31
0.0
  0
LINE
  5
BF1
330
19
100
AcDbEntity
  8
PV
100
AcDbLine
 10
-366.864483
 20
255.546577
 30
0.0
 11
-367.864483
 21
255.546577
 31
0.0
  0
LINE
  5
BF2
330
19
100
AcDbEntity
  8
PV
100
AcDbLine
 10
-370.3644829999999
 20
254.546577
 30
0.0
 11
-370.3644829999999
 21
260.546577
 31
0.0
  0
LINE
  5
BF3
330
19
100
AcDbEntity
  8
PV
100
AcDbLine
 10
-366.864483
 20
256.546577
 30
0.0
 11
-366.864483
 21
255.546577
 31
0.0
  0
LINE
  5
BF4
330
19
100
AcDbEntity
  8
PV
100
AcDbLine
 10
-367.864483
 20
255.546577
 30
0.0
 11
-367.864483
 21
256.546577
 31
0.0
  0
LINE
  5
BF5
330
19
100
AcDbEntity
  8
PV
100
AcDbLine
 10
-376.114483
 20
260.546577
 30
0.0
 11
-376.114483
 21
258.546577
 31
0.0
  0
LINE
  5
BF6
330
19
100
AcDbEntity
  8
PV
100
AcDbLine
 10
-380.614483
 20
258.546577
 30
0.0
 11
-380.614483
 21
260.546577
 31
0.0
  0
ARC
  5
BF7
330
19
100
AcDbEntity
  8
PV
100
AcDbCircle
 10
-378.364483
 20
258.546577
 30
0.0
 40
2.25
100
AcDbArc
 50
180.0
 51
0.0
  0
LINE
  5
BF8
330
19
100
AcDbEntity
  8
PV
100
AcDbLine
 10
-372.864483
 20
251.046577
 30
0.0
 11
-372.864483
 21
264.546577
 31
0.0
  0
LINE
  5
BF9
330
19
100
AcDbEntity
  8
PV
100
AcDbLine
 10
-371.364483
 20
251.046577
 30
0.0
 11
-371.364483
 21
264.546577
 31
0.0
  0
LINE
  5
BFA
330
19
100
AcDbEntity
  8
PV
100
AcDbLine
 10
-370.864483
 20
252.546577
 30
0.0
 11
-370.864483
 21
262.546577
 31
0.0
  0
ARC
  5
BFB
330
19
100
AcDbEntity
  8
PV
100
AcDbCircle
 10
-378.364483
 20
260.546577
 30
0.0
 40
2.25
100
AcDbArc
 50
0.0
 51
180.0
  0
ARC
  5
BFC
330
19
100
AcDbEntity
  8
PV
100
AcDbCircle
 10
-381.364483
 20
263.546577
 30
0.0
 40
2.0
100
AcDbArc
 50
90.0
 51
180.0
  0
LINE
  5
BFD
330
19
100
AcDbEntity
  8
PV
100
AcDbLine
 10
-382.8644829999999
 20
251.046577
 30
0.0
 11
-383.364483
 21
253.546577
 31
0.0
  0
LINE
  5
BFE
330
19
100
AcDbEntity
  8
PV
100
AcDbLine
 10
-372.864483
 20
253.546577
 30
0.0
 11
-383.364483
 21
253.546577
 31
0.0
  0
LINE
  5
BFF
330
19
100
AcDbEntity
  8
PV
100
AcDbLine
 10
-372.864483
 20
251.046577
 30
0.0
 11
-382.8644829999999
 21
251.046577
 31
0.0
  0
CIRCLE
  5
C00
330
19
100
AcDbEntity
  8
PV
100
AcDbCircle
 10
-367.364483
 20
257.546577
 30
0.0
 40
2.5
  0
LINE
  5
C01
330
19
100
AcDbEntity
  8
PV
100
AcDbLine
 10
-366.3644829999999
 20
258.0465769999999
 30
0.0
 11
-365.364483
 21
258.0465769999999
 31
0.0
  0
LINE
  5
C02
330
19
100
AcDbEntity
  8
PV
100
AcDbLine
 10
-365.364483
 20
257.046577
 30
0.0
 11
-366.3644829999999
 21
257.046577
 31
0.0
  0
LINE
  5
C03
330
19
100
AcDbEntity
  8
PV
100
AcDbLine
 10
-364.3644829999999
 20
254.546577
 30
0.0
 11
-370.3644829999999
 21
254.546577
 31
0.0
  0
LINE
  5
C04
330
19
100
AcDbEntity
  8
PV
100
AcDbLine
 10
-370.3644829999999
 20
260.6090779999999
 30
0.0
 11
-364.3644829999999
 21
260.6090779999999
 31
0.0
  0
LINE
  5
C05
330
19
100
AcDbEntity
  8
PV
100
AcDbLine
 10
-363.864483
 20
252.546577
 30
0.0
 11
-370.864483
 21
252.546577
 31
0.0
  0
LINE
  5
C06
330
19
100
AcDbEntity
  8
PV
100
AcDbLine
 10
-371.364483
 20
262.546577
 30
0.0
 11
-363.364483
 21
262.546577
 31
0.0
  0
LINE
  5
C07
330
19
100
AcDbEntity
  8
PV
100
AcDbLine
 10
-363.364483
 20
251.046577
 30
0.0
 11
-371.364483
 21
251.046577
 31
0.0
  0
LINE
  5
C08
330
19
100
AcDbEntity
  8
PV
100
AcDbLine
 10
-362.3644829999999
 20
210.046577
 30
0.0
 11
-354.364483
 21
210.046577
 31
0.0
  0
LINE
  5
C09
330
19
100
AcDbEntity
  8
PV
100
AcDbLine
 10
-352.864483
 20
210.046577
 30
0.0
 11
-344.864483
 21
210.046577
 31
0.0
  0
ARC
  5
C0A
330
19
100
AcDbEntity
  8
PV
100
AcDbCircle
 10
-338.364483
 20
204.546577
 30
0.0
 40
0.5
100
AcDbArc
 50
180.0
 51
270.0
  0
LINE
  5
C0B
330
19
100
AcDbEntity
  8
PV
100
AcDbLine
 10
-338.864483
 20
204.546577
 30
0.0
 11
-338.864483
 21
205.546577
 31
0.0
  0
LINE
  5
C0C
330
19
100
AcDbEntity
  8
PV
100
AcDbLine
 10
-337.3644829999999
 20
204.0465769999999
 30
0.0
 11
-338.364483
 21
204.0465769999999
 31
0.0
  0
ARC
  5
C0D
330
19
100
AcDbEntity
  8
PV
100
AcDbCircle
 10
-340.364483
 20
204.546577
 30
0.0
 40
0.5
100
AcDbArc
 50
270.0
 51
0.0
  0
LINE
  5
C0E
330
19
100
AcDbEntity
  8
PV
100
AcDbLine
 10
-340.364483
 20
204.0465769999999
 30
0.0
 11
-341.3644829999999
 21
204.0465769999999
 31
0.0
  0
LINE
  5
C0F
330
19
100
AcDbEntity
  8
PV
100
AcDbLine
 10
-339.864483
 20
205.546577
 30
0.0
 11
-339.864483
 21
204.546577
 31
0.0
  0
LINE
  5
C10
330
19
100
AcDbEntity
  8
PV
100
AcDbLine
 10
-338.864483
 20
205.546577
 30
0.0
 11
-339.864483
 21
205.546577
 31
0.0
  0
LINE
  5
C11
330
19
100
AcDbEntity
  8
PV
100
AcDbLine
 10
-336.364483
 20
206.546577
 30
0.0
 11
-342.364483
 21
206.546577
 31
0.0
  0
LINE
  5
C12
330
19
100
AcDbEntity
  8
PV
100
AcDbLine
 10
-335.864483
 20
208.546577
 30
0.0
 11
-342.864483
 21
208.546577
 31
0.0
  0
ARC
  5
C13
330
19
100
AcDbEntity
  8
PV
100
AcDbCircle
 10
-338.364483
 20
202.546577
 30
0.0
 40
0.5
100
AcDbArc
 50
90.0
 51
180.0
  0
LINE
  5
C14
330
19
100
AcDbEntity
  8
PV
100
AcDbLine
 10
-338.364483
 20
203.046577
 30
0.0
 11
-337.3644829999999
 21
203.046577
 31
0.0
  0
LINE
  5
C15
330
19
100
AcDbEntity
  8
PV
100
AcDbLine
 10
-338.864483
 20
201.546577
 30
0.0
 11
-338.864483
 21
202.546577
 31
0.0
  0
ARC
  5
C16
330
19
100
AcDbEntity
  8
PV
100
AcDbCircle
 10
-340.364483
 20
202.546577
 30
0.0
 40
0.5
100
AcDbArc
 50
0.0
 51
90.0
  0
LINE
  5
C17
330
19
100
AcDbEntity
  8
PV
100
AcDbLine
 10
-339.864483
 20
202.546577
 30
0.0
 11
-339.864483
 21
201.546577
 31
0.0
  0
LINE
  5
C18
330
19
100
AcDbEntity
  8
PV
100
AcDbLine
 10
-341.3644829999999
 20
203.046577
 30
0.0
 11
-340.364483
 21
203.046577
 31
0.0
  0
LINE
  5
C19
330
19
100
AcDbEntity
  8
PV
100
AcDbLine
 10
-339.864483
 20
201.546577
 30
0.0
 11
-338.864483
 21
201.546577
 31
0.0
  0
LINE
  5
C1A
330
19
100
AcDbEntity
  8
PV
100
AcDbLine
 10
-342.364483
 20
200.484075
 30
0.0
 11
-336.364483
 21
200.484075
 31
0.0
  0
LINE
  5
C1B
330
19
100
AcDbEntity
  8
PV
100
AcDbLine
 10
-342.364483
 20
206.546577
 30
0.0
 11
-342.364483
 21
200.546577
 31
0.0
  0
LINE
  5
C1C
330
19
100
AcDbEntity
  8
PV
100
AcDbLine
 10
-336.364483
 20
200.546577
 30
0.0
 11
-336.364483
 21
206.546577
 31
0.0
  0
CIRCLE
  5
C1D
330
19
100
AcDbEntity
  8
PV
100
AcDbCircle
 10
-339.3644829999999
 20
203.546577
 30
0.0
 40
2.5
  0
LINE
  5
C1E
330
19
100
AcDbEntity
  8
PV
100
AcDbLine
 10
-337.3644829999999
 20
203.046577
 30
0.0
 11
-337.3644829999999
 21
204.0465769999999
 31
0.0
  0
LINE
  5
C1F
330
19
100
AcDbEntity
  8
PV
100
AcDbLine
 10
-341.3644829999999
 20
204.0465769999999
 30
0.0
 11
-341.3644829999999
 21
203.046577
 31
0.0
  0
LINE
  5
C20
330
19
100
AcDbEntity
  8
PV
100
AcDbLine
 10
-348.364483
 20
205.546577
 30
0.0
 11
-349.364483
 21
205.546577
 31
0.0
  0
LINE
  5
C21
330
19
100
AcDbEntity
  8
PV
100
AcDbLine
 10
-349.364483
 20
205.546577
 30
0.0
 11
-349.364483
 21
204.546577
 31
0.0
  0
LINE
  5
C22
330
19
100
AcDbEntity
  8
PV
100
AcDbLine
 10
-348.364483
 20
204.546577
 30
0.0
 11
-348.364483
 21
205.546577
 31
0.0
  0
LINE
  5
C23
330
19
100
AcDbEntity
  8
PV
100
AcDbLine
 10
-349.8644829999999
 20
204.0465769999999
 30
0.0
 11
-350.864483
 21
204.0465769999999
 31
0.0
  0
ARC
  5
C24
330
19
100
AcDbEntity
  8
PV
100
AcDbCircle
 10
-349.8644829999999
 20
204.546577
 30
0.0
 40
0.5
100
AcDbArc
 50
270.0
 51
0.0
  0
ARC
  5
C25
330
19
100
AcDbEntity
  8
PV
100
AcDbCircle
 10
-347.864483
 20
204.546577
 30
0.0
 40
0.5
100
AcDbArc
 50
180.0
 51
270.0
  0
LINE
  5
C26
330
19
100
AcDbEntity
  8
PV
100
AcDbLine
 10
-346.864483
 20
204.0465769999999
 30
0.0
 11
-347.864483
 21
204.0465769999999
 31
0.0
  0
LINE
  5
C27
330
19
100
AcDbEntity
  8
PV
100
AcDbLine
 10
-350.864483
 20
203.046577
 30
0.0
 11
-349.8644829999999
 21
203.046577
 31
0.0
  0
LINE
  5
C28
330
19
100
AcDbEntity
  8
PV
100
AcDbLine
 10
-349.364483
 20
201.546577
 30
0.0
 11
-348.364483
 21
201.546577
 31
0.0
  0
LINE
  5
C29
330
19
100
AcDbEntity
  8
PV
100
AcDbLine
 10
-348.364483
 20
201.546577
 30
0.0
 11
-348.364483
 21
202.546577
 31
0.0
  0
LINE
  5
C2A
330
19
100
AcDbEntity
  8
PV
100
AcDbLine
 10
-349.364483
 20
202.546577
 30
0.0
 11
-349.364483
 21
201.546577
 31
0.0
  0
ARC
  5
C2B
330
19
100
AcDbEntity
  8
PV
100
AcDbCircle
 10
-347.864483
 20
202.546577
 30
0.0
 40
0.5
100
AcDbArc
 50
90.0
 51
180.0
  0
ARC
  5
C2C
330
19
100
AcDbEntity
  8
PV
100
AcDbCircle
 10
-349.8644829999999
 20
202.546577
 30
0.0
 40
0.5
100
AcDbArc
 50
0.0
 51
90.0
  0
LINE
  5
C2D
330
19
100
AcDbEntity
  8
PV
100
AcDbLine
 10
-347.864483
 20
203.046577
 30
0.0
 11
-346.864483
 21
203.046577
 31
0.0
  0
LINE
  5
C2E
330
19
100
AcDbEntity
  8
PV
100
AcDbLine
 10
-350.864483
 20
204.0465769999999
 30
0.0
 11
-350.864483
 21
203.046577
 31
0.0
  0
LINE
  5
C2F
330
19
100
AcDbEntity
  8
PV
100
AcDbLine
 10
-346.864483
 20
203.046577
 30
0.0
 11
-346.864483
 21
204.0465769999999
 31
0.0
  0
LINE
  5
C30
330
19
100
AcDbEntity
  8
PV
100
AcDbLine
 10
-345.864483
 20
200.546577
 30
0.0
 11
-345.864483
 21
206.546577
 31
0.0
  0
LINE
  5
C31
330
19
100
AcDbEntity
  8
PV
100
AcDbLine
 10
-342.864483
 20
198.546577
 30
0.0
 11
-335.864483
 21
198.546577
 31
0.0
  0
LINE
  5
C32
330
19
100
AcDbEntity
  8
PV
100
AcDbLine
 10
-345.3644829999999
 20
198.546577
 30
0.0
 11
-345.3644829999999
 21
208.546577
 31
0.0
  0
LINE
  5
C33
330
19
100
AcDbEntity
  8
PV
100
AcDbLine
 10
-342.864483
 20
208.546577
 30
0.0
 11
-342.864483
 21
198.546577
 31
0.0
  0
LINE
  5
C34
330
19
100
AcDbEntity
  8
PV
100
AcDbLine
 10
-335.864483
 20
198.546577
 30
0.0
 11
-335.864483
 21
208.546577
 31
0.0
  0
LINE
  5
C35
330
19
100
AcDbEntity
  8
PV
100
AcDbLine
 10
-356.364483
 20
204.0465769999999
 30
0.0
 11
-357.364483
 21
204.0465769999999
 31
0.0
  0
LINE
  5
C36
330
19
100
AcDbEntity
  8
PV
100
AcDbLine
 10
-357.8644829999999
 20
204.546577
 30
0.0
 11
-357.8644829999999
 21
205.546577
 31
0.0
  0
ARC
  5
C37
330
19
100
AcDbEntity
  8
PV
100
AcDbCircle
 10
-357.364483
 20
204.546577
 30
0.0
 40
0.5
100
AcDbArc
 50
180.0
 51
270.0
  0
LINE
  5
C38
330
19
100
AcDbEntity
  8
PV
100
AcDbLine
 10
-357.8644829999999
 20
201.546577
 30
0.0
 11
-357.8644829999999
 21
202.546577
 31
0.0
  0
LINE
  5
C39
330
19
100
AcDbEntity
  8
PV
100
AcDbLine
 10
-357.364483
 20
203.046577
 30
0.0
 11
-356.364483
 21
203.046577
 31
0.0
  0
ARC
  5
C3A
330
19
100
AcDbEntity
  8
PV
100
AcDbCircle
 10
-357.364483
 20
202.546577
 30
0.0
 40
0.5
100
AcDbArc
 50
90.0
 51
180.0
  0
LINE
  5
C3B
330
19
100
AcDbEntity
  8
PV
100
AcDbLine
 10
-356.364483
 20
203.046577
 30
0.0
 11
-356.364483
 21
204.0465769999999
 31
0.0
  0
LINE
  5
C3C
330
19
100
AcDbEntity
  8
PV
100
AcDbLine
 10
-355.364483
 20
200.546577
 30
0.0
 11
-355.364483
 21
206.546577
 31
0.0
  0
LINE
  5
C3D
330
19
100
AcDbEntity
  8
PV
100
AcDbLine
 10
-351.8644829999999
 20
206.546577
 30
0.0
 11
-351.8644829999999
 21
200.546577
 31
0.0
  0
LINE
  5
C3E
330
19
100
AcDbEntity
  8
PV
100
AcDbLine
 10
-358.864483
 20
205.546577
 30
0.0
 11
-358.864483
 21
204.546577
 31
0.0
  0
LINE
  5
C3F
330
19
100
AcDbEntity
  8
PV
100
AcDbLine
 10
-359.364483
 20
204.0465769999999
 30
0.0
 11
-360.364483
 21
204.0465769999999
 31
0.0
  0
ARC
  5
C40
330
19
100
AcDbEntity
  8
PV
100
AcDbCircle
 10
-359.364483
 20
204.546577
 30
0.0
 40
0.5
100
AcDbArc
 50
270.0
 51
0.0
  0
LINE
  5
C41
330
19
100
AcDbEntity
  8
PV
100
AcDbLine
 10
-360.364483
 20
203.046577
 30
0.0
 11
-359.364483
 21
203.046577
 31
0.0
  0
LINE
  5
C42
330
19
100
AcDbEntity
  8
PV
100
AcDbLine
 10
-358.864483
 20
202.546577
 30
0.0
 11
-358.864483
 21
201.546577
 31
0.0
  0
ARC
  5
C43
330
19
100
AcDbEntity
  8
PV
100
AcDbCircle
 10
-359.364483
 20
202.546577
 30
0.0
 40
0.5
100
AcDbArc
 50
0.0
 51
90.0
  0
LINE
  5
C44
330
19
100
AcDbEntity
  8
PV
100
AcDbLine
 10
-365.864483
 20
203.046577
 30
0.0
 11
-365.864483
 21
204.0465769999999
 31
0.0
  0
LINE
  5
C45
330
19
100
AcDbEntity
  8
PV
100
AcDbLine
 10
-364.864483
 20
200.546577
 30
0.0
 11
-364.864483
 21
206.546577
 31
0.0
  0
LINE
  5
C46
330
19
100
AcDbEntity
  8
PV
100
AcDbLine
 10
-360.364483
 20
204.0465769999999
 30
0.0
 11
-360.364483
 21
203.046577
 31
0.0
  0
LINE
  5
C47
330
19
100
AcDbEntity
  8
PV
100
AcDbLine
 10
-361.364483
 20
206.546577
 30
0.0
 11
-361.364483
 21
200.546577
 31
0.0
  0
LINE
  5
C48
330
19
100
AcDbEntity
  8
PV
100
AcDbLine
 10
-354.864483
 20
208.546577
 30
0.0
 11
-361.864483
 21
208.546577
 31
0.0
  0
LINE
  5
C49
330
19
100
AcDbEntity
  8
PV
100
AcDbLine
 10
-361.364483
 20
200.484075
 30
0.0
 11
-355.364483
 21
200.484075
 31
0.0
  0
LINE
  5
C4A
330
19
100
AcDbEntity
  8
PV
100
AcDbLine
 10
-355.364483
 20
206.546577
 30
0.0
 11
-361.364483
 21
206.546577
 31
0.0
  0
LINE
  5
C4B
330
19
100
AcDbEntity
  8
PV
100
AcDbLine
 10
-358.864483
 20
201.546577
 30
0.0
 11
-357.8644829999999
 21
201.546577
 31
0.0
  0
LINE
  5
C4C
330
19
100
AcDbEntity
  8
PV
100
AcDbLine
 10
-357.8644829999999
 20
205.546577
 30
0.0
 11
-358.864483
 21
205.546577
 31
0.0
  0
CIRCLE
  5
C4D
330
19
100
AcDbEntity
  8
PV
100
AcDbCircle
 10
-358.364483
 20
203.546577
 30
0.0
 40
2.5
  0
LINE
  5
C4E
330
19
100
AcDbEntity
  8
PV
100
AcDbLine
 10
-361.864483
 20
198.546577
 30
0.0
 11
-354.864483
 21
198.546577
 31
0.0
  0
LINE
  5
C4F
330
19
100
AcDbEntity
  8
PV
100
AcDbLine
 10
-364.3644829999999
 20
198.546577
 30
0.0
 11
-364.3644829999999
 21
208.546577
 31
0.0
  0
LINE
  5
C50
330
19
100
AcDbEntity
  8
PV
100
AcDbLine
 10
-354.864483
 20
198.546577
 30
0.0
 11
-354.864483
 21
208.546577
 31
0.0
  0
LINE
  5
C51
330
19
100
AcDbEntity
  8
PV
100
AcDbLine
 10
-361.864483
 20
208.546577
 30
0.0
 11
-361.864483
 21
198.546577
 31
0.0
  0
LINE
  5
C52
330
19
100
AcDbEntity
  8
PV
100
AcDbLine
 10
-352.364483
 20
208.546577
 30
0.0
 11
-352.364483
 21
198.546577
 31
0.0
  0
LINE
  5
C53
330
19
100
AcDbEntity
  8
PV
100
AcDbLine
 10
-352.364483
 20
198.546577
 30
0.0
 11
-345.3644829999999
 21
198.546577
 31
0.0
  0
LINE
  5
C54
330
19
100
AcDbEntity
  8
PV
100
AcDbLine
 10
-345.3644829999999
 20
208.546577
 30
0.0
 11
-352.364483
 21
208.546577
 31
0.0
  0
LINE
  5
C55
330
19
100
AcDbEntity
  8
PV
100
AcDbLine
 10
-351.8644829999999
 20
200.484075
 30
0.0
 11
-345.864483
 21
200.484075
 31
0.0
  0
LINE
  5
C56
330
19
100
AcDbEntity
  8
PV
100
AcDbLine
 10
-345.864483
 20
206.546577
 30
0.0
 11
-351.8644829999999
 21
206.546577
 31
0.0
  0
CIRCLE
  5
C57
330
19
100
AcDbEntity
  8
PV
100
AcDbCircle
 10
-348.864483
 20
203.546577
 30
0.0
 40
2.5
  0
LINE
  5
C58
330
19
100
AcDbEntity
  8
PV
100
AcDbLine
 10
-363.864483
 20
196.546577
 30
0.0
 11
-363.864483
 21
210.046577
 31
0.0
  0
LINE
  5
C59
330
19
100
AcDbEntity
  8
PV
100
AcDbLine
 10
-354.364483
 20
196.546577
 30
0.0
 11
-354.364483
 21
210.046577
 31
0.0
  0
LINE
  5
C5A
330
19
100
AcDbEntity
  8
PV
100
AcDbLine
 10
-362.3644829999999
 20
210.046577
 30
0.0
 11
-362.3644829999999
 21
196.546577
 31
0.0
  0
LINE
  5
C5B
330
19
100
AcDbEntity
  8
PV
100
AcDbLine
 10
-344.864483
 20
196.546577
 30
0.0
 11
-344.864483
 21
210.046577
 31
0.0
  0
LINE
  5
C5C
330
19
100
AcDbEntity
  8
PV
100
AcDbLine
 10
-352.864483
 20
210.046577
 30
0.0
 11
-352.864483
 21
196.546577
 31
0.0
  0
LINE
  5
C5D
330
19
100
AcDbEntity
  8
PV
100
AcDbLine
 10
-343.3644829999999
 20
210.046577
 30
0.0
 11
-343.3644829999999
 21
196.546577
 31
0.0
  0
LINE
  5
C5E
330
19
100
AcDbEntity
  8
PV
100
AcDbLine
 10
-381.364483
 20
210.046577
 30
0.0
 11
-373.364483
 21
210.046577
 31
0.0
  0
LINE
  5
C5F
330
19
100
AcDbEntity
  8
PV
100
AcDbLine
 10
-367.364483
 20
205.546577
 30
0.0
 11
-368.3644829999999
 21
205.546577
 31
0.0
  0
LINE
  5
C60
330
19
100
AcDbEntity
  8
PV
100
AcDbLine
 10
-368.3644829999999
 20
205.546577
 30
0.0
 11
-368.3644829999999
 21
204.546577
 31
0.0
  0
LINE
  5
C61
330
19
100
AcDbEntity
  8
PV
100
AcDbLine
 10
-367.364483
 20
204.546577
 30
0.0
 11
-367.364483
 21
205.546577
 31
0.0
  0
ARC
  5
C62
330
19
100
AcDbEntity
  8
PV
100
AcDbCircle
 10
-368.864483
 20
204.546577
 30
0.0
 40
0.5
100
AcDbArc
 50
270.0
 51
0.0
  0
ARC
  5
C63
330
19
100
AcDbEntity
  8
PV
100
AcDbCircle
 10
-366.864483
 20
204.546577
 30
0.0
 40
0.5
100
AcDbArc
 50
180.0
 51
270.0
  0
LINE
  5
C64
330
19
100
AcDbEntity
  8
PV
100
AcDbLine
 10
-368.864483
 20
204.0465769999999
 30
0.0
 11
-369.864483
 21
204.0465769999999
 31
0.0
  0
LINE
  5
C65
330
19
100
AcDbEntity
  8
PV
100
AcDbLine
 10
-368.3644829999999
 20
201.546577
 30
0.0
 11
-367.364483
 21
201.546577
 31
0.0
  0
LINE
  5
C66
330
19
100
AcDbEntity
  8
PV
100
AcDbLine
 10
-367.364483
 20
201.546577
 30
0.0
 11
-367.364483
 21
202.546577
 31
0.0
  0
LINE
  5
C67
330
19
100
AcDbEntity
  8
PV
100
AcDbLine
 10
-368.3644829999999
 20
202.546577
 30
0.0
 11
-368.3644829999999
 21
201.546577
 31
0.0
  0
ARC
  5
C68
330
19
100
AcDbEntity
  8
PV
100
AcDbCircle
 10
-366.864483
 20
202.546577
 30
0.0
 40
0.5
100
AcDbArc
 50
90.0
 51
180.0
  0
ARC
  5
C69
330
19
100
AcDbEntity
  8
PV
100
AcDbCircle
 10
-368.864483
 20
202.546577
 30
0.0
 40
0.5
100
AcDbArc
 50
0.0
 51
90.0
  0
LINE
  5
C6A
330
19
100
AcDbEntity
  8
PV
100
AcDbLine
 10
-369.864483
 20
203.046577
 30
0.0
 11
-368.864483
 21
203.046577
 31
0.0
  0
LINE
  5
C6B
330
19
100
AcDbEntity
  8
PV
100
AcDbLine
 10
-369.864483
 20
204.0465769999999
 30
0.0
 11
-369.864483
 21
203.046577
 31
0.0
  0
LINE
  5
C6C
330
19
100
AcDbEntity
  8
PV
100
AcDbLine
 10
-370.864483
 20
206.546577
 30
0.0
 11
-370.864483
 21
200.546577
 31
0.0
  0
LINE
  5
C6D
330
19
100
AcDbEntity
  8
PV
100
AcDbLine
 10
-375.364483
 20
204.0465769999999
 30
0.0
 11
-376.364483
 21
204.0465769999999
 31
0.0
  0
LINE
  5
C6E
330
19
100
AcDbEntity
  8
PV
100
AcDbLine
 10
-376.8644829999999
 20
204.546577
 30
0.0
 11
-376.8644829999999
 21
205.546577
 31
0.0
  0
ARC
  5
C6F
330
19
100
AcDbEntity
  8
PV
100
AcDbCircle
 10
-376.364483
 20
204.546577
 30
0.0
 40
0.5
100
AcDbArc
 50
180.0
 51
270.0
  0
LINE
  5
C70
330
19
100
AcDbEntity
  8
PV
100
AcDbLine
 10
-377.864483
 20
205.546577
 30
0.0
 11
-377.864483
 21
204.546577
 31
0.0
  0
LINE
  5
C71
330
19
100
AcDbEntity
  8
PV
100
AcDbLine
 10
-378.364483
 20
204.0465769999999
 30
0.0
 11
-379.364483
 21
204.0465769999999
 31
0.0
  0
ARC
  5
C72
330
19
100
AcDbEntity
  8
PV
100
AcDbCircle
 10
-378.364483
 20
204.546577
 30
0.0
 40
0.5
100
AcDbArc
 50
270.0
 51
0.0
  0
LINE
  5
C73
330
19
100
AcDbEntity
  8
PV
100
AcDbLine
 10
-373.864483
 20
208.546577
 30
0.0
 11
-380.864483
 21
208.546577
 31
0.0
  0
LINE
  5
C74
330
19
100
AcDbEntity
  8
PV
100
AcDbLine
 10
-374.364483
 20
206.546577
 30
0.0
 11
-380.3644829999999
 21
206.546577
 31
0.0
  0
LINE
  5
C75
330
19
100
AcDbEntity
  8
PV
100
AcDbLine
 10
-376.8644829999999
 20
205.546577
 30
0.0
 11
-377.864483
 21
205.546577
 31
0.0
  0
LINE
  5
C76
330
19
100
AcDbEntity
  8
PV
100
AcDbLine
 10
-376.8644829999999
 20
201.546577
 30
0.0
 11
-376.8644829999999
 21
202.546577
 31
0.0
  0
LINE
  5
C77
330
19
100
AcDbEntity
  8
PV
100
AcDbLine
 10
-376.364483
 20
203.046577
 30
0.0
 11
-375.364483
 21
203.046577
 31
0.0
  0
ARC
  5
C78
330
19
100
AcDbEntity
  8
PV
100
AcDbCircle
 10
-376.364483
 20
202.546577
 30
0.0
 40
0.5
100
AcDbArc
 50
90.0
 51
180.0
  0
LINE
  5
C79
330
19
100
AcDbEntity
  8
PV
100
AcDbLine
 10
-379.364483
 20
203.046577
 30
0.0
 11
-378.364483
 21
203.046577
 31
0.0
  0
LINE
  5
C7A
330
19
100
AcDbEntity
  8
PV
100
AcDbLine
 10
-377.864483
 20
202.546577
 30
0.0
 11
-377.864483
 21
201.546577
 31
0.0
  0
ARC
  5
C7B
330
19
100
AcDbEntity
  8
PV
100
AcDbCircle
 10
-378.364483
 20
202.546577
 30
0.0
 40
0.5
100
AcDbArc
 50
0.0
 51
90.0
  0
LINE
  5
C7C
330
19
100
AcDbEntity
  8
PV
100
AcDbLine
 10
-380.3644829999999
 20
200.484075
 30
0.0
 11
-374.364483
 21
200.484075
 31
0.0
  0
LINE
  5
C7D
330
19
100
AcDbEntity
  8
PV
100
AcDbLine
 10
-377.864483
 20
201.546577
 30
0.0
 11
-376.8644829999999
 21
201.546577
 31
0.0
  0
LINE
  5
C7E
330
19
100
AcDbEntity
  8
PV
100
AcDbLine
 10
-379.364483
 20
204.0465769999999
 30
0.0
 11
-379.364483
 21
203.046577
 31
0.0
  0
LINE
  5
C7F
330
19
100
AcDbEntity
  8
PV
100
AcDbLine
 10
-375.364483
 20
203.046577
 30
0.0
 11
-375.364483
 21
204.0465769999999
 31
0.0
  0
CIRCLE
  5
C80
330
19
100
AcDbEntity
  8
PV
100
AcDbCircle
 10
-377.364483
 20
203.546577
 30
0.0
 40
2.5
  0
LINE
  5
C81
330
19
100
AcDbEntity
  8
PV
100
AcDbLine
 10
-374.364483
 20
200.546577
 30
0.0
 11
-374.364483
 21
206.546577
 31
0.0
  0
LINE
  5
C82
330
19
100
AcDbEntity
  8
PV
100
AcDbLine
 10
-380.3644829999999
 20
206.546577
 30
0.0
 11
-380.3644829999999
 21
200.546577
 31
0.0
  0
LINE
  5
C83
330
19
100
AcDbEntity
  8
PV
100
AcDbLine
 10
-380.864483
 20
198.546577
 30
0.0
 11
-373.864483
 21
198.546577
 31
0.0
  0
LINE
  5
C84
330
19
100
AcDbEntity
  8
PV
100
AcDbLine
 10
-373.864483
 20
198.546577
 30
0.0
 11
-373.864483
 21
208.546577
 31
0.0
  0
LINE
  5
C85
330
19
100
AcDbEntity
  8
PV
100
AcDbLine
 10
-380.864483
 20
208.546577
 30
0.0
 11
-380.864483
 21
198.546577
 31
0.0
  0
LINE
  5
C86
330
19
100
AcDbEntity
  8
PV
100
AcDbLine
 10
-371.364483
 20
208.546577
 30
0.0
 11
-371.364483
 21
198.546577
 31
0.0
  0
ARC
  5
C87
330
19
100
AcDbEntity
  8
PV
100
AcDbCircle
 10
-382.364483
 20
196.546577
 30
0.0
 40
1.0
100
AcDbArc
 50
180.0
 51
270.0
  0
ARC
  5
C88
330
19
100
AcDbEntity
  8
PV
100
AcDbCircle
 10
-381.864483
 20
197.546577
 30
0.0
 40
1.0
100
AcDbArc
 50
180.0
 51
270.0
  0
LINE
  5
C89
330
19
100
AcDbEntity
  8
PV
100
AcDbLine
 10
-373.364483
 20
196.546577
 30
0.0
 11
-373.364483
 21
210.046577
 31
0.0
  0
LINE
  5
C8A
330
19
100
AcDbEntity
  8
PV
100
AcDbLine
 10
-381.364483
 20
210.046577
 30
0.0
 11
-381.364483
 21
196.546577
 31
0.0
  0
LINE
  5
C8B
330
19
100
AcDbEntity
  8
PV
100
AcDbLine
 10
-371.864483
 20
210.046577
 30
0.0
 11
-371.864483
 21
196.546577
 31
0.0
  0
LINE
  5
C8C
330
19
100
AcDbEntity
  8
PV
100
AcDbLine
 10
-371.364483
 20
198.546577
 30
0.0
 11
-364.3644829999999
 21
198.546577
 31
0.0
  0
LINE
  5
C8D
330
19
100
AcDbEntity
  8
PV
100
AcDbLine
 10
-364.3644829999999
 20
208.546577
 30
0.0
 11
-371.364483
 21
208.546577
 31
0.0
  0
LINE
  5
C8E
330
19
100
AcDbEntity
  8
PV
100
AcDbLine
 10
-370.864483
 20
200.484075
 30
0.0
 11
-364.864483
 21
200.484075
 31
0.0
  0
LINE
  5
C8F
330
19
100
AcDbEntity
  8
PV
100
AcDbLine
 10
-364.864483
 20
206.546577
 30
0.0
 11
-370.864483
 21
206.546577
 31
0.0
  0
LINE
  5
C90
330
19
100
AcDbEntity
  8
PV
100
AcDbLine
 10
-365.864483
 20
204.0465769999999
 30
0.0
 11
-366.864483
 21
204.0465769999999
 31
0.0
  0
LINE
  5
C91
330
19
100
AcDbEntity
  8
PV
100
AcDbLine
 10
-366.864483
 20
203.046577
 30
0.0
 11
-365.864483
 21
203.046577
 31
0.0
  0
CIRCLE
  5
C92
330
19
100
AcDbEntity
  8
PV
100
AcDbCircle
 10
-367.864483
 20
203.546577
 30
0.0
 40
2.5
  0
LINE
  5
C93
330
19
100
AcDbEntity
  8
PV
100
AcDbLine
 10
-371.864483
 20
210.046577
 30
0.0
 11
-363.864483
 21
210.046577
 31
0.0
  0
LINE
  5
C94
330
19
100
AcDbEntity
  8
PV
100
AcDbLine
 10
-383.364483
 20
263.546577
 30
0.0
 11
-383.364483
 21
196.546577
 31
0.0
  0
LINE
  5
C95
330
19
100
AcDbEntity
  8
PV
100
AcDbLine
 10
-382.8644829999999
 20
251.046577
 30
0.0
 11
-382.8644829999999
 21
197.546577
 31
0.0
  0
LINE
  5
C96
330
19
100
AcDbEntity
  8
PV
100
AcDbLine
 10
-382.364483
 20
195.546577
 30
0.0
 11
-325.364483
 21
195.546577
 31
0.0
  0
LINE
  5
C97
330
19
100
AcDbEntity
  8
PV
100
AcDbLine
 10
-324.364483
 20
265.546577
 30
0.0
 11
-381.364483
 21
265.546577
 31
0.0
  0
LINE
  5
C98
330
19
100
AcDbEntity
  8
PV
100
AcDbLine
 10
-335.364483
 20
252.546577
 30
0.0
 11
-342.364483
 21
252.546577
 31
0.0
  0
LINE
  5
C99
330
19
100
AcDbEntity
  8
PV
100
AcDbLine
 10
-342.864483
 20
262.546577
 30
0.0
 11
-334.864483
 21
262.546577
 31
0.0
  0
LINE
  5
C9A
330
19
100
AcDbEntity
  8
PV
100
AcDbLine
 10
-372.864483
 20
264.546577
 30
0.0
 11
-324.8644829999999
 21
264.546577
 31
0.0
  0
LINE
  5
C9B
330
19
100
AcDbEntity
  8
PV
100
AcDbLine
 10
-334.864483
 20
251.046577
 30
0.0
 11
-342.864483
 21
251.046577
 31
0.0
  0
LINE
  5
C9C
330
19
100
AcDbEntity
  8
PV
100
AcDbLine
 10
-343.3644829999999
 20
210.046577
 30
0.0
 11
-335.364483
 21
210.046577
 31
0.0
  0
LINE
  5
C9D
330
19
100
AcDbEntity
  8
PV
100
AcDbLine
 10
-381.864483
 20
196.546577
 30
0.0
 11
-333.864483
 21
196.546577
 31
0.0
  0
LINE
  5
C9E
330
19
100
AcDbEntity
  8
PV
100
AcDbLine
 10
-178.366731
 20
234.546577
 30
0.0
 11
-178.366731
 21
254.546577
 31
0.0
  0
LINE
  5
C9F
330
19
100
AcDbEntity
  8
PV
100
AcDbLine
 10
-176.866731
 20
254.546577
 30
0.0
 11
-178.366731
 21
254.546577
 31
0.0
  0
LINE
  5
CA0
330
19
100
AcDbEntity
  8
PV
100
AcDbLine
 10
-176.866731
 20
234.546577
 30
0.0
 11
-178.366731
 21
234.546577
 31
0.0
  0
LINE
  5
CA1
330
19
100
AcDbEntity
  8
PV
100
AcDbLine
 10
-176.866731
 20
224.546577
 30
0.0
 11
-178.366731
 21
224.546577
 31
0.0
  0
LINE
  5
CA2
330
19
100
AcDbEntity
  8
PV
100
AcDbLine
 10
-176.866731
 20
206.546577
 30
0.0
 11
-178.366731
 21
206.546577
 31
0.0
  0
LINE
  5
CA3
330
19
100
AcDbEntity
  8
PV
100
AcDbLine
 10
-178.366731
 20
206.546577
 30
0.0
 11
-178.366731
 21
224.546577
 31
0.0
  0
ARC
  5
CA4
330
19
100
AcDbEntity
  8
PV
100
AcDbCircle
 10
-250.866731
 20
260.59753
 30
0.0
 40
4.0
100
AcDbArc
 50
90.734521
 51
180.0
  0
ARC
  5
CA5
330
19
100
AcDbEntity
  8
PV
100
AcDbCircle
 10
-250.866731
 20
200.4956229999999
 30
0.0
 40
4.0
100
AcDbArc
 50
180.0
 51
269.265479
  0
LINE
  5
CA6
330
19
100
AcDbEntity
  8
PV
100
AcDbLine
 10
-187.866731
 20
207.546577
 30
0.0
 11
-254.866731
 21
210.046577
 31
0.0
  0
LINE
  5
CA7
330
19
100
AcDbEntity
  8
PV
100
AcDbLine
 10
-187.866731
 20
195.6876019999999
 30
0.0
 11
-187.866731
 21
207.546577
 31
0.0
  0
LINE
  5
CA8
330
19
100
AcDbEntity
  8
PV
100
AcDbLine
 10
-176.866731
 20
265.546577
 30
0.0
 11
-250.918009
 21
264.5972009999999
 31
0.0
  0
LINE
  5
CA9
330
19
100
AcDbEntity
  8
PV
100
AcDbLine
 10
-176.866731
 20
195.546577
 30
0.0
 11
-176.866731
 21
265.546577
 31
0.0
  0
LINE
  5
CAA
330
19
100
AcDbEntity
  8
PV
100
AcDbLine
 10
-250.918009
 20
196.4959519999999
 30
0.0
 11
-176.866731
 21
195.546577
 31
0.0
  0
LINE
  5
CAB
330
19
100
AcDbEntity
  8
PV
100
AcDbLine
 10
-254.866731
 20
260.59753
 30
0.0
 11
-254.866731
 21
200.4956229999999
 31
0.0
  0
LINE
  5
CAC
330
19
100
AcDbEntity
  8
PV
100
AcDbLine
 10
-373.364483
 20
83.546577
 30
0.0
 11
-333.364483
 21
83.546577
 31
0.0
  0
LINE
  5
CAD
330
19
100
AcDbEntity
  8
PV
100
AcDbLine
 10
-373.364483
 20
83.546577
 30
0.0
 11
-373.364483
 21
82.046577
 31
0.0
  0
LINE
  5
CAE
330
19
100
AcDbEntity
  8
PV
100
AcDbLine
 10
-333.364483
 20
82.046577
 30
0.0
 11
-333.364483
 21
83.546577
 31
0.0
  0
LINE
  5
CAF
330
19
100
AcDbEntity
  8
PV
100
AcDbLine
 10
-342.864483
 20
150.046577
 30
0.0
 11
-342.864483
 21
145.046577
 31
0.0
  0
LINE
  5
CB0
330
19
100
AcDbEntity
  8
PV
100
AcDbLine
 10
-335.864483
 20
145.046577
 30
0.0
 11
-335.864483
 21
150.046577
 31
0.0
  0
LINE
  5
CB1
330
19
100
AcDbEntity
  8
PV
100
AcDbLine
 10
-342.864483
 20
145.046577
 30
0.0
 11
-335.864483
 21
145.046577
 31
0.0
  0
LINE
  5
CB2
330
19
100
AcDbEntity
  8
PV
100
AcDbLine
 10
-342.864483
 20
150.046577
 30
0.0
 11
-335.864483
 21
150.046577
 31
0.0
  0
LINE
  5
CB3
330
19
100
AcDbEntity
  8
PV
100
AcDbLine
 10
-343.3644829999999
 20
146.046577
 30
0.0
 11
-342.864483
 21
146.046577
 31
0.0
  0
LINE
  5
CB4
330
19
100
AcDbEntity
  8
PV
100
AcDbLine
 10
-343.3644829999999
 20
149.046577
 30
0.0
 11
-342.864483
 21
149.046577
 31
0.0
  0
LINE
  5
CB5
330
19
100
AcDbEntity
  8
PV
100
AcDbLine
 10
-335.864483
 20
149.046577
 30
0.0
 11
-335.364483
 21
149.046577
 31
0.0
  0
LINE
  5
CB6
330
19
100
AcDbEntity
  8
PV
100
AcDbLine
 10
-335.864483
 20
146.046577
 30
0.0
 11
-335.364483
 21
146.046577
 31
0.0
  0
LINE
  5
CB7
330
19
100
AcDbEntity
  8
PV
100
AcDbLine
 10
-342.364483
 20
150.046577
 30
0.0
 11
-342.364483
 21
151.046577
 31
0.0
  0
LINE
  5
CB8
330
19
100
AcDbEntity
  8
PV
100
AcDbLine
 10
-342.364483
 20
151.046577
 30
0.0
 11
-336.364483
 21
151.046577
 31
0.0
  0
LINE
  5
CB9
330
19
100
AcDbEntity
  8
PV
100
AcDbLine
 10
-336.364483
 20
151.046577
 30
0.0
 11
-336.364483
 21
150.046577
 31
0.0
  0
LINE
  5
CBA
330
19
100
AcDbEntity
  8
PV
100
AcDbLine
 10
-341.864483
 20
152.046577
 30
0.0
 11
-341.864483
 21
151.046577
 31
0.0
  0
LINE
  5
CBB
330
19
100
AcDbEntity
  8
PV
100
AcDbLine
 10
-336.864483
 20
152.046577
 30
0.0
 11
-336.864483
 21
151.046577
 31
0.0
  0
LINE
  5
CBC
330
19
100
AcDbEntity
  8
PV
100
AcDbLine
 10
-340.864483
 20
153.046577
 30
0.0
 11
-339.864483
 21
153.046577
 31
0.0
  0
ARC
  5
CBD
330
19
100
AcDbEntity
  8
PV
100
AcDbCircle
 10
-337.864483
 20
152.046577
 30
0.0
 40
1.0
100
AcDbArc
 50
0.0
 51
90.0
  0
ARC
  5
CBE
330
19
100
AcDbEntity
  8
PV
100
AcDbCircle
 10
-340.864483
 20
152.046577
 30
0.0
 40
1.0
100
AcDbArc
 50
90.0
 51
180.0
  0
LINE
  5
CBF
330
19
100
AcDbEntity
  8
PV
100
AcDbLine
 10
-339.864483
 20
153.046577
 30
0.0
 11
-339.864483
 21
152.233218
 31
0.0
  0
LINE
  5
CC0
330
19
100
AcDbEntity
  8
PV
100
AcDbLine
 10
-338.864483
 20
153.046577
 30
0.0
 11
-338.864483
 21
152.233218
 31
0.0
  0
LINE
  5
CC1
330
19
100
AcDbEntity
  8
PV
100
AcDbLine
 10
-339.864483
 20
152.233218
 30
0.0
 11
-338.864483
 21
152.233218
 31
0.0
  0
LINE
  5
CC2
330
19
100
AcDbEntity
  8
PV
100
AcDbLine
 10
-338.864483
 20
153.046577
 30
0.0
 11
-337.864483
 21
153.046577
 31
0.0
  0
LINE
  5
CC3
330
19
100
AcDbEntity
  8
PV
100
AcDbLine
 10
-361.864483
 20
150.046577
 30
0.0
 11
-361.864483
 21
145.046577
 31
0.0
  0
LINE
  5
CC4
330
19
100
AcDbEntity
  8
PV
100
AcDbLine
 10
-354.864483
 20
145.046577
 30
0.0
 11
-354.864483
 21
150.046577
 31
0.0
  0
LINE
  5
CC5
330
19
100
AcDbEntity
  8
PV
100
AcDbLine
 10
-361.864483
 20
145.046577
 30
0.0
 11
-354.864483
 21
145.046577
 31
0.0
  0
LINE
  5
CC6
330
19
100
AcDbEntity
  8
PV
100
AcDbLine
 10
-361.864483
 20
150.046577
 30
0.0
 11
-354.864483
 21
150.046577
 31
0.0
  0
LINE
  5
CC7
330
19
100
AcDbEntity
  8
PV
100
AcDbLine
 10
-362.3644829999999
 20
146.046577
 30
0.0
 11
-361.864483
 21
146.046577
 31
0.0
  0
LINE
  5
CC8
330
19
100
AcDbEntity
  8
PV
100
AcDbLine
 10
-362.3644829999999
 20
149.046577
 30
0.0
 11
-361.864483
 21
149.046577
 31
0.0
  0
LINE
  5
CC9
330
19
100
AcDbEntity
  8
PV
100
AcDbLine
 10
-354.864483
 20
149.046577
 30
0.0
 11
-354.364483
 21
149.046577
 31
0.0
  0
LINE
  5
CCA
330
19
100
AcDbEntity
  8
PV
100
AcDbLine
 10
-354.864483
 20
146.046577
 30
0.0
 11
-354.364483
 21
146.046577
 31
0.0
  0
LINE
  5
CCB
330
19
100
AcDbEntity
  8
PV
100
AcDbLine
 10
-361.364483
 20
150.046577
 30
0.0
 11
-361.364483
 21
151.046577
 31
0.0
  0
LINE
  5
CCC
330
19
100
AcDbEntity
  8
PV
100
AcDbLine
 10
-361.364483
 20
151.046577
 30
0.0
 11
-355.364483
 21
151.046577
 31
0.0
  0
LINE
  5
CCD
330
19
100
AcDbEntity
  8
PV
100
AcDbLine
 10
-355.364483
 20
151.046577
 30
0.0
 11
-355.364483
 21
150.046577
 31
0.0
  0
LINE
  5
CCE
330
19
100
AcDbEntity
  8
PV
100
AcDbLine
 10
-360.864483
 20
152.046577
 30
0.0
 11
-360.864483
 21
151.046577
 31
0.0
  0
LINE
  5
CCF
330
19
100
AcDbEntity
  8
PV
100
AcDbLine
 10
-355.8644829999999
 20
152.046577
 30
0.0
 11
-355.8644829999999
 21
151.046577
 31
0.0
  0
LINE
  5
CD0
330
19
100
AcDbEntity
  8
PV
100
AcDbLine
 10
-359.864483
 20
153.046577
 30
0.0
 11
-358.864483
 21
153.046577
 31
0.0
  0
ARC
  5
CD1
330
19
100
AcDbEntity
  8
PV
100
AcDbCircle
 10
-356.864483
 20
152.046577
 30
0.0
 40
1.0
100
AcDbArc
 50
0.0
 51
90.0
  0
ARC
  5
CD2
330
19
100
AcDbEntity
  8
PV
100
AcDbCircle
 10
-359.864483
 20
152.046577
 30
0.0
 40
1.0
100
AcDbArc
 50
90.0
 51
180.0
  0
LINE
  5
CD3
330
19
100
AcDbEntity
  8
PV
100
AcDbLine
 10
-358.864483
 20
153.046577
 30
0.0
 11
-358.864483
 21
152.233218
 31
0.0
  0
LINE
  5
CD4
330
19
100
AcDbEntity
  8
PV
100
AcDbLine
 10
-357.8644829999999
 20
153.046577
 30
0.0
 11
-357.8644829999999
 21
152.233218
 31
0.0
  0
LINE
  5
CD5
330
19
100
AcDbEntity
  8
PV
100
AcDbLine
 10
-358.864483
 20
152.233218
 30
0.0
 11
-357.8644829999999
 21
152.233218
 31
0.0
  0
LINE
  5
CD6
330
19
100
AcDbEntity
  8
PV
100
AcDbLine
 10
-357.8644829999999
 20
153.046577
 30
0.0
 11
-356.864483
 21
153.046577
 31
0.0
  0
LINE
  5
CD7
330
19
100
AcDbEntity
  8
PV
100
AcDbLine
 10
-348.364483
 20
153.046577
 30
0.0
 11
-347.364483
 21
153.046577
 31
0.0
  0
LINE
  5
CD8
330
19
100
AcDbEntity
  8
PV
100
AcDbLine
 10
-349.364483
 20
152.233218
 30
0.0
 11
-348.364483
 21
152.233218
 31
0.0
  0
LINE
  5
CD9
330
19
100
AcDbEntity
  8
PV
100
AcDbLine
 10
-348.364483
 20
153.046577
 30
0.0
 11
-348.364483
 21
152.233218
 31
0.0
  0
LINE
  5
CDA
330
19
100
AcDbEntity
  8
PV
100
AcDbLine
 10
-349.364483
 20
153.046577
 30
0.0
 11
-349.364483
 21
152.233218
 31
0.0
  0
ARC
  5
CDB
330
19
100
AcDbEntity
  8
PV
100
AcDbCircle
 10
-350.364483
 20
152.046577
 30
0.0
 40
1.0
100
AcDbArc
 50
90.0
 51
180.0
  0
ARC
  5
CDC
330
19
100
AcDbEntity
  8
PV
100
AcDbCircle
 10
-347.364483
 20
152.046577
 30
0.0
 40
1.0
100
AcDbArc
 50
0.0
 51
90.0
  0
LINE
  5
CDD
330
19
100
AcDbEntity
  8
PV
100
AcDbLine
 10
-350.364483
 20
153.046577
 30
0.0
 11
-349.364483
 21
153.046577
 31
0.0
  0
LINE
  5
CDE
330
19
100
AcDbEntity
  8
PV
100
AcDbLine
 10
-346.364483
 20
152.046577
 30
0.0
 11
-346.364483
 21
151.046577
 31
0.0
  0
LINE
  5
CDF
330
19
100
AcDbEntity
  8
PV
100
AcDbLine
 10
-351.364483
 20
152.046577
 30
0.0
 11
-351.364483
 21
151.046577
 31
0.0
  0
LINE
  5
CE0
330
19
100
AcDbEntity
  8
PV
100
AcDbLine
 10
-345.864483
 20
151.046577
 30
0.0
 11
-345.864483
 21
150.046577
 31
0.0
  0
LINE
  5
CE1
330
19
100
AcDbEntity
  8
PV
100
AcDbLine
 10
-351.8644829999999
 20
151.046577
 30
0.0
 11
-345.864483
 21
151.046577
 31
0.0
  0
LINE
  5
CE2
330
19
100
AcDbEntity
  8
PV
100
AcDbLine
 10
-351.8644829999999
 20
150.046577
 30
0.0
 11
-351.8644829999999
 21
151.046577
 31
0.0
  0
LINE
  5
CE3
330
19
100
AcDbEntity
  8
PV
100
AcDbLine
 10
-345.3644829999999
 20
146.046577
 30
0.0
 11
-344.864483
 21
146.046577
 31
0.0
  0
LINE
  5
CE4
330
19
100
AcDbEntity
  8
PV
100
AcDbLine
 10
-345.3644829999999
 20
149.046577
 30
0.0
 11
-344.864483
 21
149.046577
 31
0.0
  0
LINE
  5
CE5
330
19
100
AcDbEntity
  8
PV
100
AcDbLine
 10
-352.864483
 20
149.046577
 30
0.0
 11
-352.364483
 21
149.046577
 31
0.0
  0
LINE
  5
CE6
330
19
100
AcDbEntity
  8
PV
100
AcDbLine
 10
-352.864483
 20
146.046577
 30
0.0
 11
-352.364483
 21
146.046577
 31
0.0
  0
LINE
  5
CE7
330
19
100
AcDbEntity
  8
PV
100
AcDbLine
 10
-352.364483
 20
150.046577
 30
0.0
 11
-345.3644829999999
 21
150.046577
 31
0.0
  0
LINE
  5
CE8
330
19
100
AcDbEntity
  8
PV
100
AcDbLine
 10
-352.364483
 20
145.046577
 30
0.0
 11
-345.3644829999999
 21
145.046577
 31
0.0
  0
LINE
  5
CE9
330
19
100
AcDbEntity
  8
PV
100
AcDbLine
 10
-345.3644829999999
 20
145.046577
 30
0.0
 11
-345.3644829999999
 21
150.046577
 31
0.0
  0
LINE
  5
CEA
330
19
100
AcDbEntity
  8
PV
100
AcDbLine
 10
-352.364483
 20
150.046577
 30
0.0
 11
-352.364483
 21
145.046577
 31
0.0
  0
LINE
  5
CEB
330
19
100
AcDbEntity
  8
PV
100
AcDbLine
 10
-371.364483
 20
150.046577
 30
0.0
 11
-371.364483
 21
145.046577
 31
0.0
  0
LINE
  5
CEC
330
19
100
AcDbEntity
  8
PV
100
AcDbLine
 10
-364.3644829999999
 20
145.046577
 30
0.0
 11
-364.3644829999999
 21
150.046577
 31
0.0
  0
LINE
  5
CED
330
19
100
AcDbEntity
  8
PV
100
AcDbLine
 10
-371.364483
 20
145.046577
 30
0.0
 11
-364.3644829999999
 21
145.046577
 31
0.0
  0
LINE
  5
CEE
330
19
100
AcDbEntity
  8
PV
100
AcDbLine
 10
-371.364483
 20
150.046577
 30
0.0
 11
-364.3644829999999
 21
150.046577
 31
0.0
  0
LINE
  5
CEF
330
19
100
AcDbEntity
  8
PV
100
AcDbLine
 10
-371.864483
 20
146.046577
 30
0.0
 11
-371.364483
 21
146.046577
 31
0.0
  0
LINE
  5
CF0
330
19
100
AcDbEntity
  8
PV
100
AcDbLine
 10
-371.864483
 20
149.046577
 30
0.0
 11
-371.364483
 21
149.046577
 31
0.0
  0
LINE
  5
CF1
330
19
100
AcDbEntity
  8
PV
100
AcDbLine
 10
-364.3644829999999
 20
149.046577
 30
0.0
 11
-363.864483
 21
149.046577
 31
0.0
  0
LINE
  5
CF2
330
19
100
AcDbEntity
  8
PV
100
AcDbLine
 10
-364.3644829999999
 20
146.046577
 30
0.0
 11
-363.864483
 21
146.046577
 31
0.0
  0
LINE
  5
CF3
330
19
100
AcDbEntity
  8
PV
100
AcDbLine
 10
-370.864483
 20
150.046577
 30
0.0
 11
-370.864483
 21
151.046577
 31
0.0
  0
LINE
  5
CF4
330
19
100
AcDbEntity
  8
PV
100
AcDbLine
 10
-370.864483
 20
151.046577
 30
0.0
 11
-364.864483
 21
151.046577
 31
0.0
  0
LINE
  5
CF5
330
19
100
AcDbEntity
  8
PV
100
AcDbLine
 10
-364.864483
 20
151.046577
 30
0.0
 11
-364.864483
 21
150.046577
 31
0.0
  0
LINE
  5
CF6
330
19
100
AcDbEntity
  8
PV
100
AcDbLine
 10
-370.3644829999999
 20
152.046577
 30
0.0
 11
-370.3644829999999
 21
151.046577
 31
0.0
  0
LINE
  5
CF7
330
19
100
AcDbEntity
  8
PV
100
AcDbLine
 10
-365.364483
 20
152.046577
 30
0.0
 11
-365.364483
 21
151.046577
 31
0.0
  0
LINE
  5
CF8
330
19
100
AcDbEntity
  8
PV
100
AcDbLine
 10
-369.364483
 20
153.046577
 30
0.0
 11
-368.3644829999999
 21
153.046577
 31
0.0
  0
ARC
  5
CF9
330
19
100
AcDbEntity
  8
PV
100
AcDbCircle
 10
-366.3644829999999
 20
152.046577
 30
0.0
 40
1.0
100
AcDbArc
 50
0.0
 51
90.0
  0
ARC
  5
CFA
330
19
100
AcDbEntity
  8
PV
100
AcDbCircle
 10
-369.364483
 20
152.046577
 30
0.0
 40
1.0
100
AcDbArc
 50
90.0
 51
180.0
  0
LINE
  5
CFB
330
19
100
AcDbEntity
  8
PV
100
AcDbLine
 10
-368.3644829999999
 20
153.046577
 30
0.0
 11
-368.3644829999999
 21
152.233218
 31
0.0
  0
LINE
  5
CFC
330
19
100
AcDbEntity
  8
PV
100
AcDbLine
 10
-367.364483
 20
153.046577
 30
0.0
 11
-367.364483
 21
152.233218
 31
0.0
  0
LINE
  5
CFD
330
19
100
AcDbEntity
  8
PV
100
AcDbLine
 10
-368.3644829999999
 20
152.233218
 30
0.0
 11
-367.364483
 21
152.233218
 31
0.0
  0
LINE
  5
CFE
330
19
100
AcDbEntity
  8
PV
100
AcDbLine
 10
-367.364483
 20
153.046577
 30
0.0
 11
-366.3644829999999
 21
153.046577
 31
0.0
  0
LINE
  5
CFF
330
19
100
AcDbEntity
  8
PV
100
AcDbLine
 10
-343.3644829999999
 20
143.046577
 30
0.0
 11
-335.364483
 21
143.046577
 31
0.0
  0
LINE
  5
D00
330
19
100
AcDbEntity
  8
PV
100
AcDbLine
 10
-352.864483
 20
143.046577
 30
0.0
 11
-344.864483
 21
143.046577
 31
0.0
  0
LINE
  5
D01
330
19
100
AcDbEntity
  8
PV
100
AcDbLine
 10
-362.3644829999999
 20
143.046577
 30
0.0
 11
-354.364483
 21
143.046577
 31
0.0
  0
LINE
  5
D02
330
19
100
AcDbEntity
  8
PV
100
AcDbLine
 10
-371.864483
 20
143.046577
 30
0.0
 11
-363.864483
 21
143.046577
 31
0.0
  0
LINE
  5
D03
330
19
100
AcDbEntity
  8
PV
100
AcDbLine
 10
-376.8644829999999
 20
153.046577
 30
0.0
 11
-375.864483
 21
153.046577
 31
0.0
  0
LINE
  5
D04
330
19
100
AcDbEntity
  8
PV
100
AcDbLine
 10
-377.864483
 20
152.233218
 30
0.0
 11
-376.8644829999999
 21
152.233218
 31
0.0
  0
LINE
  5
D05
330
19
100
AcDbEntity
  8
PV
100
AcDbLine
 10
-376.8644829999999
 20
153.046577
 30
0.0
 11
-376.8644829999999
 21
152.233218
 31
0.0
  0
LINE
  5
D06
330
19
100
AcDbEntity
  8
PV
100
AcDbLine
 10
-377.864483
 20
153.046577
 30
0.0
 11
-377.864483
 21
152.233218
 31
0.0
  0
ARC
  5
D07
330
19
100
AcDbEntity
  8
PV
100
AcDbCircle
 10
-378.8644829999999
 20
152.046577
 30
0.0
 40
1.0
100
AcDbArc
 50
90.0
 51
180.0
  0
ARC
  5
D08
330
19
100
AcDbEntity
  8
PV
100
AcDbCircle
 10
-375.864483
 20
152.046577
 30
0.0
 40
1.0
100
AcDbArc
 50
0.0
 51
90.0
  0
LINE
  5
D09
330
19
100
AcDbEntity
  8
PV
100
AcDbLine
 10
-378.8644829999999
 20
153.046577
 30
0.0
 11
-377.864483
 21
153.046577
 31
0.0
  0
LINE
  5
D0A
330
19
100
AcDbEntity
  8
PV
100
AcDbLine
 10
-374.8644829999999
 20
152.046577
 30
0.0
 11
-374.8644829999999
 21
151.046577
 31
0.0
  0
LINE
  5
D0B
330
19
100
AcDbEntity
  8
PV
100
AcDbLine
 10
-379.864483
 20
152.046577
 30
0.0
 11
-379.864483
 21
151.046577
 31
0.0
  0
LINE
  5
D0C
330
19
100
AcDbEntity
  8
PV
100
AcDbLine
 10
-374.364483
 20
151.046577
 30
0.0
 11
-374.364483
 21
150.046577
 31
0.0
  0
LINE
  5
D0D
330
19
100
AcDbEntity
  8
PV
100
AcDbLine
 10
-380.3644829999999
 20
151.046577
 30
0.0
 11
-374.364483
 21
151.046577
 31
0.0
  0
LINE
  5
D0E
330
19
100
AcDbEntity
  8
PV
100
AcDbLine
 10
-380.3644829999999
 20
150.046577
 30
0.0
 11
-380.3644829999999
 21
151.046577
 31
0.0
  0
LINE
  5
D0F
330
19
100
AcDbEntity
  8
PV
100
AcDbLine
 10
-373.864483
 20
146.046577
 30
0.0
 11
-373.364483
 21
146.046577
 31
0.0
  0
LINE
  5
D10
330
19
100
AcDbEntity
  8
PV
100
AcDbLine
 10
-373.864483
 20
149.046577
 30
0.0
 11
-373.364483
 21
149.046577
 31
0.0
  0
LINE
  5
D11
330
19
100
AcDbEntity
  8
PV
100
AcDbLine
 10
-381.364483
 20
149.046577
 30
0.0
 11
-380.864483
 21
149.046577
 31
0.0
  0
LINE
  5
D12
330
19
100
AcDbEntity
  8
PV
100
AcDbLine
 10
-381.364483
 20
146.046577
 30
0.0
 11
-380.864483
 21
146.046577
 31
0.0
  0
LINE
  5
D13
330
19
100
AcDbEntity
  8
PV
100
AcDbLine
 10
-380.864483
 20
150.046577
 30
0.0
 11
-373.864483
 21
150.046577
 31
0.0
  0
LINE
  5
D14
330
19
100
AcDbEntity
  8
PV
100
AcDbLine
 10
-380.864483
 20
145.046577
 30
0.0
 11
-373.864483
 21
145.046577
 31
0.0
  0
LINE
  5
D15
330
19
100
AcDbEntity
  8
PV
100
AcDbLine
 10
-373.864483
 20
145.046577
 30
0.0
 11
-373.864483
 21
150.046577
 31
0.0
  0
LINE
  5
D16
330
19
100
AcDbEntity
  8
PV
100
AcDbLine
 10
-380.864483
 20
150.046577
 30
0.0
 11
-380.864483
 21
145.046577
 31
0.0
  0
LINE
  5
D17
330
19
100
AcDbEntity
  8
PV
100
AcDbLine
 10
-363.864483
 20
143.046577
 30
0.0
 11
-363.864483
 21
160.046577
 31
0.0
  0
LINE
  5
D18
330
19
100
AcDbEntity
  8
PV
100
AcDbLine
 10
-371.864483
 20
160.046577
 30
0.0
 11
-371.864483
 21
143.046577
 31
0.0
  0
LINE
  5
D19
330
19
100
AcDbEntity
  8
PV
100
AcDbLine
 10
-354.364483
 20
143.046577
 30
0.0
 11
-354.364483
 21
160.046577
 31
0.0
  0
LINE
  5
D1A
330
19
100
AcDbEntity
  8
PV
100
AcDbLine
 10
-362.3644829999999
 20
160.046577
 30
0.0
 11
-362.3644829999999
 21
143.046577
 31
0.0
  0
LINE
  5
D1B
330
19
100
AcDbEntity
  8
PV
100
AcDbLine
 10
-344.864483
 20
143.046577
 30
0.0
 11
-344.864483
 21
160.046577
 31
0.0
  0
LINE
  5
D1C
330
19
100
AcDbEntity
  8
PV
100
AcDbLine
 10
-352.864483
 20
160.046577
 30
0.0
 11
-352.864483
 21
143.046577
 31
0.0
  0
LINE
  5
D1D
330
19
100
AcDbEntity
  8
PV
100
AcDbLine
 10
-343.3644829999999
 20
160.046577
 30
0.0
 11
-343.3644829999999
 21
143.046577
 31
0.0
  0
LINE
  5
D1E
330
19
100
AcDbEntity
  8
PV
100
AcDbLine
 10
-335.364483
 20
143.046577
 30
0.0
 11
-335.364483
 21
160.046577
 31
0.0
  0
LINE
  5
D1F
330
19
100
AcDbEntity
  8
PV
100
AcDbLine
 10
-373.364483
 20
143.046577
 30
0.0
 11
-373.364483
 21
160.046577
 31
0.0
  0
LINE
  5
D20
330
19
100
AcDbEntity
  8
PV
100
AcDbLine
 10
-381.364483
 20
160.046577
 30
0.0
 11
-381.364483
 21
143.046577
 31
0.0
  0
LINE
  5
D21
330
19
100
AcDbEntity
  8
PV
100
AcDbLine
 10
-381.364483
 20
143.046577
 30
0.0
 11
-373.364483
 21
143.046577
 31
0.0
  0
LINE
  5
D22
330
19
100
AcDbEntity
  8
PV
100
AcDbLine
 10
-333.864483
 20
93.04657699999999
 30
0.0
 11
-323.434996
 21
93.04657699999999
 31
0.0
  0
LINE
  5
D23
330
19
100
AcDbEntity
  8
PV
100
AcDbLine
 10
-333.864483
 20
160.046577
 30
0.0
 11
-333.864483
 21
93.04657699999999
 31
0.0
  0
LINE
  5
D24
330
19
100
AcDbEntity
  8
PV
100
AcDbLine
 10
-323.364483
 20
82.046577
 30
0.0
 11
-323.864483
 21
160.046577
 31
0.0
  0
LINE
  5
D25
330
19
100
AcDbEntity
  8
PV
100
AcDbLine
 10
-383.364483
 20
82.046577
 30
0.0
 11
-323.364483
 21
82.046577
 31
0.0
  0
LINE
  5
D26
330
19
100
AcDbEntity
  8
PV
100
AcDbLine
 10
-382.8644829999999
 20
160.046577
 30
0.0
 11
-383.364483
 21
82.046577
 31
0.0
  0
LINE
  5
D27
330
19
100
AcDbEntity
  8
PV
100
AcDbLine
 10
-382.8644829999999
 20
160.046577
 30
0.0
 11
-323.864483
 21
160.046577
 31
0.0
  0
ENDSEC
  0
SECTION
  2
OBJECTS
  0
DICTIONARY
  5
C
330
0
100
AcDbDictionary
  3
ACAD_GROUP
350
D
  3
ACAD_LAYOUT
350
D31
  3
ACAD_MLINESTYLE
350
E
  3
ACAD_PLOTSETTINGS
350
D32
  3
ACAD_PLOTSTYLENAME
350
D2F
  3
ACDBHEADERROUNDTRIPXREC
350
D37
  0
DICTIONARY
  5
D59
330
19
100
AcDbDictionary
280
     1
  3
ACAD_LAYOUTSELFREF
360
D5A
  0
DICTIONARY
  5
D57
330
16
100
AcDbDictionary
280
     1
  3
ACAD_LAYOUTSELFREF
360
D58
  0
DICTIONARY
  5
D
102
{ACAD_REACTORS
330
C
102
}
330
C
100
AcDbDictionary
  0
DICTIONARY
  5
D31
102
{ACAD_REACTORS
330
C
102
}
330
C
100
AcDbDictionary
  0
DICTIONARY
  5
E
102
{ACAD_REACTORS
330
C
102
}
330
C
100
AcDbDictionary
  3
STANDARD
350
1C
  0
DICTIONARY
  5
D32
102
{ACAD_REACTORS
330
C
102
}
330
C
100
AcDbDictionary
  0
ACDBDICTIONARYWDFLT
  5
D2F
102
{ACAD_REACTORS
330
C
102
}
330
C
100
AcDbDictionary
281
     1
  3
Normal
350
D30
100
AcDbDictionaryWithDefault
340
D30
  0
DICTIONARY
  5
D37
102
{ACAD_REACTORS
330
C
102
}
330
C
100
AcDbDictionary
  3
CEPSNTYPE
350
D41
  3
FINGERPRINTGUID
350
D42
  3
HYPERLINKBASE
350
D3A
  3
INSUNITS
350
D40
  3
LAYOUTDICT
350
D3C
  3
LWETCUNION
350
D3F
  3
PLOTSETDICT
350
D3D
  3
PLOTSTYLNAMDICT
350
D3E
  3
PSVPSCALE
350
D44
  3
PUCSBASE
350
D47
  3
PUCSORGBACK
350
D4D
  3
PUCSORGBOTTOM
350
D49
  3
PUCSORGFRONT
350
D4C
  3
PUCSORGLEFT
350
D4A
  3
PUCSORGRIGHT
350
D4B
  3
PUCSORGTOP
350
D48
  3
PUCSORTHOREF
350
D45
  3
PUCSORTHOVIEW
350
D46
  3
STYLESHEET
350
D3B
  3
TSTACKALIGN
350
D38
  3
TSTACKSIZE
350
D39
  3
UCSBASE
350
D50
  3
UCSORGBACK
350
D56
  3
UCSORGBOTTOM
350
D52
  3
UCSORGFRONT
350
D55
  3
UCSORGLEFT
350
D53
  3
UCSORGRIGHT
350
D54
  3
UCSORGTOP
350
D51
  3
UCSORTHOREF
350
D4E
  3
UCSORTHOVIEW
350
D4F
  3
VERSIONGUID
350
D43
  0
XRECORD
  5
D5A
102
{ACAD_REACTORS
330
D59
102
}
330
D59
100
AcDbXrecord
340
19
  0
XRECORD
  5
D58
102
{ACAD_REACTORS
330
D57
102
}
330
D57
100
AcDbXrecord
340
16
  0
MLINESTYLE
  5
1C
102
{ACAD_REACTORS
330
E
102
}
330
E
100
AcDbMlineStyle
  2
STANDARD
 70
     0
  3

 62
     0
 51
90.0
 52
90.0
 71
     2
 49
0.5
 62
   256
  6
BYLAYER
 49
-0.5
 62
   256
  6
BYLAYER
  0
ACDBPLACEHOLDER
  5
D30
102
{ACAD_REACTORS
330
D2F
102
}
330
D2F
100
AcDbPlaceHolder
280
     0
  0
XRECORD
  5
D41
102
{ACAD_REACTORS
330
D37
102
}
330
D37
100
AcDbXrecord
 90
        0
  0
XRECORD
  5
D42
102
{ACAD_REACTORS
330
D37
102
}
330
D37
100
AcDbXrecord
  1
{8C76DA82-39A7-4CFE-B577-7EBD30E33565}
  0
XRECORD
  5
D3A
102
{ACAD_REACTORS
330
D37
102
}
330
D37
100
AcDbXrecord
  1

  0
XRECORD
  5
D40
102
{ACAD_REACTORS
330
D37
102
}
330
D37
100
AcDbXrecord
 90
        0
  0
XRECORD
  5
D3C
102
{ACAD_REACTORS
330
D37
102
}
330
D37
100
AcDbXrecord
340
D31
  0
XRECORD
  5
D3F
102
{ACAD_REACTORS
330
D37
102
}
330
D37
100
AcDbXrecord
 90
    10781
  0
XRECORD
  5
D3D
102
{ACAD_REACTORS
330
D37
102
}
330
D37
100
AcDbXrecord
340
D32
  0
XRECORD
  5
D3E
102
{ACAD_REACTORS
330
D37
102
}
330
D37
100
AcDbXrecord
340
D2F
  0
XRECORD
  5
D44
102
{ACAD_REACTORS
330
D37
102
}
330
D37
100
AcDbXrecord
 40
0.0
  0
XRECORD
  5
D47
102
{ACAD_REACTORS
330
D37
102
}
330
D37
100
AcDbXrecord
340
0
  0
XRECORD
  5
D4D
102
{ACAD_REACTORS
330
D37
102
}
330
D37
100
AcDbXrecord
 10
0.0
 20
0.0
 30
0.0
  0
XRECORD
  5
D49
102
{ACAD_REACTORS
330
D37
102
}
330
D37
100
AcDbXrecord
 10
0.0
 20
0.0
 30
0.0
  0
XRECORD
  5
D4C
102
{ACAD_REACTORS
330
D37
102
}
330
D37
100
AcDbXrecord
 10
0.0
 20
0.0
 30
0.0
  0
XRECORD
  5
D4A
102
{ACAD_REACTORS
330
D37
102
}
330
D37
100
AcDbXrecord
 10
0.0
 20
0.0
 30
0.0
  0
XRECORD
  5
D4B
102
{ACAD_REACTORS
330
D37
102
}
330
D37
100
AcDbXrecord
 10
0.0
 20
0.0
 30
0.0
  0
XRECORD
  5
D48
102
{ACAD_REACTORS
330
D37
102
}
330
D37
100
AcDbXrecord
 10
0.0
 20
0.0
 30
0.0
  0
XRECORD
  5
D45
102
{ACAD_REACTORS
330
D37
102
}
330
D37
100
AcDbXrecord
340
0
  0
XRECORD
  5
D46
102
{ACAD_REACTORS
330
D37
102
}
330
D37
100
AcDbXrecord
 70
     0
  0
XRECORD
  5
D3B
102
{ACAD_REACTORS
330
D37
102
}
330
D37
100
AcDbXrecord
  1

  0
XRECORD
  5
D38
102
{ACAD_REACTORS
330
D37
102
}
330
D37
100
AcDbXrecord
 90
        1
  0
XRECORD
  5
D39
102
{ACAD_REACTORS
330
D37
102
}
330
D37
100
AcDbXrecord
 90
       70
  0
XRECORD
  5
D50
102
{ACAD_REACTORS
330
D37
102
}
330
D37
100
AcDbXrecord
340
0
  0
XRECORD
  5
D56
102
{ACAD_REACTORS
330
D37
102
}
330
D37
100
AcDbXrecord
 10
0.0
 20
0.0
 30
0.0
  0
XRECORD
  5
D52
102
{ACAD_REACTORS
330
D37
102
}
330
D37
100
AcDbXrecord
 10
0.0
 20
0.0
 30
0.0
  0
XRECORD
  5
D55
102
{ACAD_REACTORS
330
D37
102
}
330
D37
100
AcDbXrecord
 10
0.0
 20
0.0
 30
0.0
  0
XRECORD
  5
D53
102
{ACAD_REACTORS
330
D37
102
}
330
D37
100
AcDbXrecord
 10
0.0
 20
0.0
 30
0.0
  0
XRECORD
  5
D54
102
{ACAD_REACTORS
330
D37
102
}
330
D37
100
AcDbXrecord
 10
0.0
 20
0.0
 30
0.0
  0
XRECORD
  5
D51
102
{ACAD_REACTORS
330
D37
102
}
330
D37
100
AcDbXrecord
 10
0.0
 20
0.0
 30
0.0
  0
XRECORD
  5
D4E
102
{ACAD_REACTORS
330
D37
102
}
330
D37
100
AcDbXrecord
340
0
  0
XRECORD
  5
D4F
102
{ACAD_REACTORS
330
D37
102
}
330
D37
100
AcDbXrecord
 70
     0
  0
XRECORD
  5
D43
102
{ACAD_REACTORS
330
D37
102
}
330
D37
100
AcDbXrecord
  1
{4DD5C897-E592-47E9-9658-8AC350771FE1}
  0
ENDSEC
  0
EOF
