  0
SECTION
  2
HEADER
  9
$ACADVER
  1
AC1012
  9
$DWGCODEPAGE
  3
dos932
  9
$INSBASE
 10
0.0
 20
0.0
 30
0.0
  9
$EXTMIN
 10
-386.0
 20
60.899985
 30
0.0
  9
$EXTMAX
 10
-32.266663
 20
278.0
 30
0.0
  9
$LIMMIN
 10
-386.001
 20
-0.001
  9
$LIMMAX
 10
0.001
 20
276.001
  9
$ORTHOMODE
 70
     0
  9
$REGENMODE
 70
     1
  9
$FILLMODE
 70
     1
  9
$QTEXTMODE
 70
     0
  9
$MIRRTEXT
 70
     1
  9
$DRAGMODE
 70
     2
  9
$LTSCALE
 40
6.433333
  9
$OSMODE
 70
     0
  9
$ATTMODE
 70
     1
  9
$TEXTSIZE
 40
3.2
  9
$TRACEWID
 40
0.05
  9
$TEXTSTYLE
  7
STANDARD
  9
$CLAYER
  8
0
  9
$CELTYPE
  6
CONTINUOUS
  9
$CECOLOR
 62
   256
  9
$CELTSCALE
 40
1.0
  9
$DELOBJ
 70
     1
  9
$DISPSILH
 70
     0
  9
$DIMSCALE
 40
1.0
  9
$DIMASZ
 40
0.18
  9
$DIMEXO
 40
0.0625
  9
$DIMDLI
 40
0.38
  9
$DIMRND
 40
0.0
  9
$DIMDLE
 40
0.0
  9
$DIMEXE
 40
0.18
  9
$DIMTP
 40
0.0
  9
$DIMTM
 40
0.0
  9
$DIMTXT
 40
0.18
  9
$DIMCEN
 40
0.09
  9
$DIMTSZ
 40
0.0
  9
$DIMTOL
 70
     0
  9
$DIMLIM
 70
     0
  9
$DIMTIH
 70
     1
  9
$DIMTOH
 70
     1
  9
$DIMSE1
 70
     0
  9
$DIMSE2
 70
     0
  9
$DIMTAD
 70
     0
  9
$DIMZIN
 70
     0
  9
$DIMBLK
  1

  9
$DIMASO
 70
     1
  9
$DIMSHO
 70
     1
  9
$DIMPOST
  1

  9
$DIMAPOST
  1

  9
$DIMALT
 70
     0
  9
$DIMALTD
 70
     2
  9
$DIMALTF
 40
25.4
  9
$DIMLFAC
 40
1.0
  9
$DIMTOFL
 70
     0
  9
$DIMTVP
 40
0.0
  9
$DIMTIX
 70
     0
  9
$DIMSOXD
 70
     0
  9
$DIMSAH
 70
     0
  9
$DIMBLK1
  1

  9
$DIMBLK2
  1

  9
$DIMSTYLE
  2
STANDARD
  9
$DIMCLRD
 70
     0
  9
$DIMCLRE
 70
     0
  9
$DIMCLRT
 70
     0
  9
$DIMTFAC
 40
1.0
  9
$DIMGAP
 40
0.09
  9
$DIMJUST
 70
     0
  9
$DIMSD1
 70
     0
  9
$DIMSD2
 70
     0
  9
$DIMTOLJ
 70
     1
  9
$DIMTZIN
 70
     0
  9
$DIMALTZ
 70
     0
  9
$DIMALTTZ
 70
     0
  9
$DIMFIT
 70
     3
  9
$DIMUPT
 70
     0
  9
$DIMUNIT
 70
     2
  9
$DIMDEC
 70
     4
  9
$DIMTDEC
 70
     4
  9
$DIMALTU
 70
     2
  9
$DIMALTTD
 70
     2
  9
$DIMTXSTY
  7
STANDARD
  9
$DIMAUNIT
 70
     0
  9
$LUNITS
 70
     2
  9
$LUPREC
 70
     4
  9
$SKETCHINC
 40
0.1
  9
$FILLETRAD
 40
0.0
  9
$AUNITS
 70
     0
  9
$AUPREC
 70
     0
  9
$MENU
  1
acad
  9
$ELEVATION
 40
0.0
  9
$PELEVATION
 40
0.0
  9
$THICKNESS
 40
0.0
  9
$LIMCHECK
 70
     0
  9
$BLIPMODE
 70
     1
  9
$CHAMFERA
 40
0.0
  9
$CHAMFERB
 40
0.0
  9
$CHAMFERC
 40
0.0
  9
$CHAMFERD
 40
0.0
  9
$SKPOLY
 70
     0
  9
$TDCREATE
 40
0.0000000000
  9
$TDUPDATE
 40
0.0000000000
  9
$TDINDWG
 40
0.0000000000
  9
$TDUSRTIMER
 40
0.0000000000
  9
$USRTIMER
 70
     1
  9
$ANGBASE
 50
0.0
  9
$ANGDIR
 70
     0
  9
$PDMODE
 70
     0
  9
$PDSIZE
 40
0.0
  9
$PLINEWID
 40
0.0
  9
$COORDS
 70
     1
  9
$SPLFRAME
 70
     0
  9
$SPLINETYPE
 70
     6
  9
$SPLINESEGS
 70
     8
  9
$ATTDIA
 70
     0
  9
$ATTREQ
 70
     1
  9
$HANDLING
 70
     1
  9
$HANDSEED
  5
17C
  9
$SURFTAB1
 70
     6
  9
$SURFTAB2
 70
     6
  9
$SURFTYPE
 70
     6
  9
$SURFU
 70
     6
  9
$SURFV
 70
     6
  9
$UCSNAME
  2

  9
$UCSORG
 10
0.0
 20
0.0
 30
0.0
  9
$UCSXDIR
 10
1.0
 20
0.0
 30
0.0
  9
$UCSYDIR
 10
0.0
 20
1.0
 30
0.0
  9
$PUCSNAME
  2

  9
$PUCSORG
 10
0.0
 20
0.0
 30
0.0
  9
$PUCSXDIR
 10
1.0
 20
0.0
 30
0.0
  9
$PUCSYDIR
 10
0.0
 20
1.0
 30
0.0
  9
$USERI1
 70
     0
  9
$USERI2
 70
     0
  9
$USERI3
 70
     0
  9
$USERI4
 70
     0
  9
$USERI5
 70
     0
  9
$USERR1
 40
0.0
  9
$USERR2
 40
0.0
  9
$USERR3
 40
0.0
  9
$USERR4
 40
0.0
  9
$USERR5
 40
0.0
  9
$WORLDVIEW
 70
     1
  9
$SHADEDGE
 70
     3
  9
$SHADEDIF
 70
    70
  9
$TILEMODE
 70
     1
  9
$MAXACTVP
 70
    16
  9
$PINSBASE
 10
0.0
 20
0.0
 30
0.0
  9
$PLIMCHECK
 70
     0
  9
$PEXTMIN
 10
1.000000E+20
 20
1.000000E+20
 30
1.000000E+20
  9
$PEXTMAX
 10
-1.000000E+20
 20
-1.000000E+20
 30
-1.000000E+20
  9
$PLIMMIN
 10
0.0
 20
0.0
  9
$PLIMMAX
 10
12.0
 20
9.0
  9
$UNITMODE
 70
     0
  9
$VISRETAIN
 70
     0
  9
$PLINEGEN
 70
     0
  9
$PSLTSCALE
 70
     1
  9
$TREEDEPTH
 70
  3020
  9
$PICKSTYLE
 70
     1
  9
$CMLSTYLE
  2
STANDARD
  9
$CMLJUST
 70
     0
  9
$CMLSCALE
 40
1.0
  9
$SAVEIMAGES
 70
     0
  0
ENDSEC
  0
SECTION
  2
CLASSES
  0
ENDSEC
  0
SECTION
  2
TABLES
  0
TABLE
  2
VPORT
  5
8
100
AcDbSymbolTable
 70
     2
  0
VPORT
  5
17B
100
AcDbSymbolTableRecord
100
AcDbViewportTableRecord
  2
*ACTIVE
 70
     0
 10
0.0
 20
0.0
 11
1.0
 21
1.0
 12
-172.728073
 22
138.9995
 13
0.0
 23
0.0
 14
1.0
 24
1.0
 15
0.0
 25
0.0
 16
0.0
 26
0.0
 36
1.0
 17
0.0
 27
0.0
 37
0.0
 40
278.001
 41
1.534332
 42
50.0
 43
0.0
 44
0.0
 50
0.0
 51
0.0
 71
     0
 72
   100
 73
     1
 74
     1
 75
     0
 76
     0
 77
     0
 78
     0
  0
ENDTAB
  0
TABLE
  2
LTYPE
  5
5
100
AcDbSymbolTable
 70
     5
  0
LTYPE
  5
13
100
AcDbSymbolTableRecord
100
AcDbLinetypeTableRecord
  2
BYBLOCK
 70
     0
  3

 72
    65
 73
     0
 40
0.0
  0
LTYPE
  5
14
100
AcDbSymbolTableRecord
100
AcDbLinetypeTableRecord
  2
BYLAYER
 70
     0
  3

 72
    65
 73
     0
 40
0.0
  0
LTYPE
  5
15
100
AcDbSymbolTableRecord
100
AcDbLinetypeTableRecord
  2
CONTINUOUS
 70
    64
  3
Solid-Line
 72
    65
 73
     0
 40
0.0
  0
LTYPE
  5
1E
100
AcDbSymbolTableRecord
100
AcDbLinetypeTableRecord
  2
DASHED
 70
    64
  3
DASHED
 72
    65
 73
     2
 40
0.75
 49
0.5
 74
     0
 49
-0.25
 74
     0
  0
LTYPE
  5
1F
100
AcDbSymbolTableRecord
100
AcDbLinetypeTableRecord
  2
HIDDEN
 70
    64
  3
HIDDEN
 72
    65
 73
     2
 40
0.375
 49
0.25
 74
     0
 49
-0.125
 74
     0
  0
LTYPE
  5
20
100
AcDbSymbolTableRecord
100
AcDbLinetypeTableRecord
  2
CENTER
 70
    64
  3
CENTER
 72
    65
 73
     4
 40
2.0
 49
1.25
 74
     0
 49
-0.25
 74
     0
 49
0.25
 74
     0
 49
-0.25
 74
     0
  0
LTYPE
  5
21
100
AcDbSymbolTableRecord
100
AcDbLinetypeTableRecord
  2
PHANTOM
 70
    64
  3
PHANTOM
 72
    65
 73
     6
 40
2.5
 49
1.25
 74
     0
 49
-0.25
 74
     0
 49
0.25
 74
     0
 49
-0.25
 74
     0
 49
0.25
 74
     0
 49
-0.25
 74
     0
  0
ENDTAB
  0
TABLE
  2
LAYER
  5
2
100
AcDbSymbolTable
 70
     2
  0
LAYER
  5
F
100
AcDbSymbolTableRecord
100
AcDbLayerTableRecord
  2
0
 70
     0
 62
     7
  6
CONTINUOUS
  0
LAYER
  5
22
100
AcDbSymbolTableRecord
100
AcDbLayerTableRecord
  2
PV
 70
     0
 62
     3
  6
CONTINUOUS
  0
ENDTAB
  0
TABLE
  2
STYLE
  5
3
100
AcDbSymbolTable
 70
     3
  0
STYLE
  5
10
100
AcDbSymbolTableRecord
100
AcDbTextStyleTableRecord
  2
STANDARD
 70
     0
 40
0.0
 41
1.0
 50
0.0
 71
     0
 42
0.2
  3
txt
  4

  0
STYLE
  5
23
100
AcDbSymbolTableRecord
100
AcDbTextStyleTableRecord
  2
MONOTXT
 70
     0
 40
0.0
 41
1.0
 50
0.0
 71
     0
 42
0.2
  3
monotxt
  4

  0
STYLE
  5
24
100
AcDbSymbolTableRecord
100
AcDbTextStyleTableRecord
  2
BIGFONT
 70
     0
 40
0.0
 41
1.0
 50
0.0
 71
     0
 42
0.2
  3
txt
  4
bigfont
  0
ENDTAB
  0
TABLE
  2
VIEW
  5
6
100
AcDbSymbolTable
 70
     0
  0
ENDTAB
  0
TABLE
  2
UCS
  5
7
100
AcDbSymbolTable
 70
     0
  0
ENDTAB
  0
TABLE
  2
APPID
  5
9
100
AcDbSymbolTable
 70
     1
  0
APPID
  5
11
100
AcDbSymbolTableRecord
100
AcDbRegAppTableRecord
  2
ACAD
 70
     0
  0
ENDTAB
  0
TABLE
  2
DIMSTYLE
  5
A
100
AcDbSymbolTable
 70
     1
  0
DIMSTYLE
105
17A
100
AcDbSymbolTableRecord
100
AcDbDimStyleTableRecord
  2
STANDARD
 70
     0
  3

  4

  5

  6

  7

 40
1.0
 41
0.18
 42
0.0625
 43
0.38
 44
0.18
 45
0.0
 46
0.0
 47
0.0
 48
0.0
140
0.18
141
0.09
142
0.0
143
25.4
144
1.0
145
0.0
146
1.0
147
0.09
 71
     0
 72
     0
 73
     1
 74
     1
 75
     0
 76
     0
 77
     0
 78
     0
170
     0
171
     2
172
     0
173
     0
174
     0
175
     0
176
     0
177
     0
178
     0
270
     2
271
     4
272
     4
273
     2
274
     2
340
10
275
     0
280
     0
281
     0
282
     0
283
     1
284
     0
285
     0
286
     0
287
     3
288
     0
  0
ENDTAB
  0
TABLE
  2
BLOCK_RECORD
  5
1
100
AcDbSymbolTable
 70
     6
  0
BLOCK_RECORD
  5
19
100
AcDbSymbolTableRecord
100
AcDbBlockTableRecord
  2
*MODEL_SPACE
  0
BLOCK_RECORD
  5
16
100
AcDbSymbolTableRecord
100
AcDbBlockTableRecord
  2
*PAPER_SPACE
  0
BLOCK_RECORD
  5
27
100
AcDbSymbolTableRecord
100
AcDbBlockTableRecord
  2
ARROW
  0
BLOCK_RECORD
  5
2F
100
AcDbSymbolTableRecord
100
AcDbBlockTableRecord
  2
*D1
  0
BLOCK_RECORD
  5
3B
100
AcDbSymbolTableRecord
100
AcDbBlockTableRecord
  2
*D2
  0
BLOCK_RECORD
  5
47
100
AcDbSymbolTableRecord
100
AcDbBlockTableRecord
  2
*D3
  0
BLOCK_RECORD
  5
53
100
AcDbSymbolTableRecord
100
AcDbBlockTableRecord
  2
*D4
  0
BLOCK_RECORD
  5
5F
100
AcDbSymbolTableRecord
100
AcDbBlockTableRecord
  2
*D5
  0
ENDTAB
  0
ENDSEC
  0
SECTION
  2
BLOCKS
  0
BLOCK
  5
1A
100
AcDbEntity
  8
0
100
AcDbBlockBegin
  2
*MODEL_SPACE
 70
     0
 10
0.0
 20
0.0
 30
0.0
  3
*MODEL_SPACE
  1

  0
ENDBLK
  5
1B
100
AcDbEntity
  8
0
100
AcDbBlockEnd
  0
BLOCK
  5
17
100
AcDbEntity
 67
     1
  8
0
100
AcDbBlockBegin
  2
*PAPER_SPACE
 70
     0
 10
0.0
 20
0.0
 30
0.0
  3
*PAPER_SPACE
  1

  0
ENDBLK
  5
18
100
AcDbEntity
 67
     1
  8
0
100
AcDbBlockEnd
  0
BLOCK
  5
28
100
AcDbEntity
  8
0
100
AcDbBlockBegin
  2
ARROW
 70
    74
 10
0.0
 20
0.0
 30
0.0
  3
ARROW
  1

  0
POLYLINE
  5
29
100
AcDbEntity
  8
0
  6
CONTINUOUS
 62
     0
100
AcDb2dPolyline
 66
     1
 10
0.0
 20
0.0
 30
0.0
  0
VERTEX
  5
2A
100
AcDbEntity
  8
0
  6
CONTINUOUS
 62
     0
100
AcDbVertex
100
AcDb2dVertex
 10
2.848851
 20
0.763347
 30
0.0
  0
VERTEX
  5
2B
100
AcDbEntity
  8
0
  6
CONTINUOUS
 62
     0
100
AcDbVertex
100
AcDb2dVertex
 10
0.0
 20
0.0
 30
0.0
  0
VERTEX
  5
2C
100
AcDbEntity
  8
0
  6
CONTINUOUS
 62
     0
100
AcDbVertex
100
AcDb2dVertex
 10
2.848851
 20
-0.763347
 30
0.0
  0
SEQEND
  5
2D
100
AcDbEntity
  8
0
 62
     0
  0
ENDBLK
  5
2E
100
AcDbEntity
  8
0
100
AcDbBlockEnd
  0
BLOCK
  5
30
100
AcDbEntity
  8
PV
100
AcDbBlockBegin
  2
*D1
 70
    65
 10
0.0
 20
0.0
 30
0.0
  3
*D1
  1

  0
LINE
  5
31
100
AcDbEntity
  8
PV
 62
     7
100
AcDbLine
 10
-185.0
 20
131.0
 30
0.0
 11
-227.0
 21
131.0
 31
0.0
  0
LINE
  5
32
100
AcDbEntity
  8
PV
 62
     7
100
AcDbLine
 10
-185.0
 20
154.0
 30
0.0
 11
-185.0
 21
129.0
 31
0.0
  0
LINE
  5
33
100
AcDbEntity
  8
PV
 62
     7
100
AcDbLine
 10
-227.0
 20
154.0
 30
0.0
 11
-227.0
 21
129.0
 31
0.0
  0
INSERT
  5
34
100
AcDbEntity
  8
PV
  6
BYBLOCK
 62
     7
100
AcDbBlockReference
  2
ARROW
 10
-185.0
 20
131.0
 30
0.0
 50
180.0
  0
INSERT
  5
35
100
AcDbEntity
  8
PV
  6
BYBLOCK
 62
     7
100
AcDbBlockReference
  2
ARROW
 10
-227.0
 20
131.0
 30
0.0
  0
TEXT
  5
36
100
AcDbEntity
  8
PV
 62
     7
100
AcDbText
 10
-210.716667
 20
132.8
 30
0.0
 40
3.2
  1
42
  7
MONOTXT
100
AcDbText
  0
POINT
  5
37
100
AcDbEntity
  8
PV
 62
     7
100
AcDbPoint
 10
-185.0
 20
154.0
 30
0.0
  0
POINT
  5
38
100
AcDbEntity
  8
PV
 62
     7
100
AcDbPoint
 10
-227.0
 20
154.0
 30
0.0
  0
POINT
  5
39
100
AcDbEntity
  8
PV
 62
     7
100
AcDbPoint
 10
-227.0
 20
131.0
 30
0.0
  0
ENDBLK
  5
3A
100
AcDbEntity
  8
PV
100
AcDbBlockEnd
  0
BLOCK
  5
3C
100
AcDbEntity
  8
PV
100
AcDbBlockBegin
  2
*D2
 70
    65
 10
0.0
 20
0.0
 30
0.0
  3
*D2
  1

  0
LINE
  5
3D
100
AcDbEntity
  8
PV
 62
     7
100
AcDbLine
 10
-202.0
 20
141.0
 30
0.0
 11
-210.0
 21
141.0
 31
0.0
  0
LINE
  5
3E
100
AcDbEntity
  8
PV
 62
     7
100
AcDbLine
 10
-202.0
 20
154.0
 30
0.0
 11
-202.0
 21
139.0
 31
0.0
  0
LINE
  5
3F
100
AcDbEntity
  8
PV
 62
     7
100
AcDbLine
 10
-210.0
 20
154.0
 30
0.0
 11
-210.0
 21
139.0
 31
0.0
  0
INSERT
  5
40
100
AcDbEntity
  8
PV
  6
BYBLOCK
 62
     7
100
AcDbBlockReference
  2
ARROW
 10
-202.0
 20
141.0
 30
0.0
 50
180.0
  0
INSERT
  5
41
100
AcDbEntity
  8
PV
  6
BYBLOCK
 62
     7
100
AcDbBlockReference
  2
ARROW
 10
-210.0
 20
141.0
 30
0.0
  0
TEXT
  5
42
100
AcDbEntity
  8
PV
 62
     7
100
AcDbText
 10
-207.991666
 20
142.8
 30
0.0
 40
3.2
  1
8
  7
MONOTXT
100
AcDbText
  0
POINT
  5
43
100
AcDbEntity
  8
PV
 62
     7
100
AcDbPoint
 10
-202.0
 20
154.0
 30
0.0
  0
POINT
  5
44
100
AcDbEntity
  8
PV
 62
     7
100
AcDbPoint
 10
-210.0
 20
154.0
 30
0.0
  0
POINT
  5
45
100
AcDbEntity
  8
PV
 62
     7
100
AcDbPoint
 10
-210.0
 20
141.0
 30
0.0
  0
ENDBLK
  5
46
100
AcDbEntity
  8
PV
100
AcDbBlockEnd
  0
BLOCK
  5
48
100
AcDbEntity
  8
PV
100
AcDbBlockBegin
  2
*D3
 70
    65
 10
0.0
 20
0.0
 30
0.0
  3
*D3
  1

  0
LINE
  5
49
100
AcDbEntity
  8
PV
 62
     7
100
AcDbLine
 10
-248.0
 20
154.0
 30
0.0
 11
-248.0
 21
253.0
 31
0.0
  0
LINE
  5
4A
100
AcDbEntity
  8
PV
 62
     7
100
AcDbLine
 10
-227.0
 20
154.0
 30
0.0
 11
-250.0
 21
154.0
 31
0.0
  0
LINE
  5
4B
100
AcDbEntity
  8
PV
 62
     7
100
AcDbLine
 10
-225.0
 20
253.0
 30
0.0
 11
-250.0
 21
253.0
 31
0.0
  0
INSERT
  5
4C
100
AcDbEntity
  8
PV
  6
BYBLOCK
 62
     7
100
AcDbBlockReference
  2
ARROW
 10
-248.0
 20
154.0
 30
0.0
 50
90.0
  0
INSERT
  5
4D
100
AcDbEntity
  8
PV
  6
BYBLOCK
 62
     7
100
AcDbBlockReference
  2
ARROW
 10
-248.0
 20
253.0
 30
0.0
 50
270.0
  0
TEXT
  5
4E
100
AcDbEntity
  8
PV
 62
     7
100
AcDbText
 10
-249.8
 20
198.783327
 30
0.0
 40
3.2
  1
99
 50
90.0
  7
MONOTXT
100
AcDbText
  0
POINT
  5
4F
100
AcDbEntity
  8
PV
 62
     7
100
AcDbPoint
 10
-227.0
 20
154.0
 30
0.0
  0
POINT
  5
50
100
AcDbEntity
  8
PV
 62
     7
100
AcDbPoint
 10
-225.0
 20
253.0
 30
0.0
  0
POINT
  5
51
100
AcDbEntity
  8
PV
 62
     7
100
AcDbPoint
 10
-248.0
 20
253.0
 30
0.0
  0
ENDBLK
  5
52
100
AcDbEntity
  8
PV
100
AcDbBlockEnd
  0
BLOCK
  5
54
100
AcDbEntity
  8
PV
100
AcDbBlockBegin
  2
*D4
 70
    65
 10
0.0
 20
0.0
 30
0.0
  3
*D4
  1

  0
LINE
  5
55
100
AcDbEntity
  8
PV
 62
     7
100
AcDbLine
 10
-294.0
 20
141.0
 30
0.0
 11
-378.0
 21
141.0
 31
0.0
  0
LINE
  5
56
100
AcDbEntity
  8
PV
 62
     7
100
AcDbLine
 10
-294.0
 20
149.582155
 30
0.0
 11
-294.0
 21
139.0
 31
0.0
  0
LINE
  5
57
100
AcDbEntity
  8
PV
 62
     7
100
AcDbLine
 10
-378.0
 20
149.582155
 30
0.0
 11
-378.0
 21
139.0
 31
0.0
  0
INSERT
  5
58
100
AcDbEntity
  8
PV
  6
BYBLOCK
 62
     7
100
AcDbBlockReference
  2
ARROW
 10
-294.0
 20
141.0
 30
0.0
 50
180.0
  0
INSERT
  5
59
100
AcDbEntity
  8
PV
  6
BYBLOCK
 62
     7
100
AcDbBlockReference
  2
ARROW
 10
-378.0
 20
141.0
 30
0.0
  0
TEXT
  5
5A
100
AcDbEntity
  8
PV
 62
     7
100
AcDbText
 10
-340.716673
 20
142.8
 30
0.0
 40
3.2
  1
84
  7
MONOTXT
100
AcDbText
  0
POINT
  5
5B
100
AcDbEntity
  8
PV
 62
     7
100
AcDbPoint
 10
-294.0
 20
149.582155
 30
0.0
  0
POINT
  5
5C
100
AcDbEntity
  8
PV
 62
     7
100
AcDbPoint
 10
-378.0
 20
149.582155
 30
0.0
  0
POINT
  5
5D
100
AcDbEntity
  8
PV
 62
     7
100
AcDbPoint
 10
-378.0
 20
141.0
 30
0.0
  0
ENDBLK
  5
5E
100
AcDbEntity
  8
PV
100
AcDbBlockEnd
  0
BLOCK
  5
60
100
AcDbEntity
  8
PV
100
AcDbBlockBegin
  2
*D5
 70
    65
 10
0.0
 20
0.0
 30
0.0
  3
*D5
  1

  0
LINE
  5
61
100
AcDbEntity
  8
PV
 62
     7
100
AcDbLine
 10
-286.0
 20
131.0
 30
0.0
 11
-386.0
 21
131.0
 31
0.0
  0
LINE
  5
62
100
AcDbEntity
  8
PV
 62
     7
100
AcDbLine
 10
-286.0
 20
154.0
 30
0.0
 11
-286.0
 21
129.0
 31
0.0
  0
LINE
  5
63
100
AcDbEntity
  8
PV
 62
     7
100
AcDbLine
 10
-386.0
 20
154.0
 30
0.0
 11
-386.0
 21
129.0
 31
0.0
  0
INSERT
  5
64
100
AcDbEntity
  8
PV
  6
BYBLOCK
 62
     7
100
AcDbBlockReference
  2
ARROW
 10
-286.0
 20
131.0
 30
0.0
 50
180.0
  0
INSERT
  5
65
100
AcDbEntity
  8
PV
  6
BYBLOCK
 62
     7
100
AcDbBlockReference
  2
ARROW
 10
-386.0
 20
131.0
 30
0.0
  0
TEXT
  5
66
100
AcDbEntity
  8
PV
 62
     7
100
AcDbText
 10
-342.316673
 20
132.8
 30
0.0
 40
3.2
  1
100
  7
MONOTXT
100
AcDbText
  0
POINT
  5
67
100
AcDbEntity
  8
PV
 62
     7
100
AcDbPoint
 10
-286.0
 20
154.0
 30
0.0
  0
POINT
  5
68
100
AcDbEntity
  8
PV
 62
     7
100
AcDbPoint
 10
-386.0
 20
154.0
 30
0.0
  0
POINT
  5
69
100
AcDbEntity
  8
PV
 62
     7
100
AcDbPoint
 10
-386.0
 20
131.0
 30
0.0
  0
ENDBLK
  5
6A
100
AcDbEntity
  8
PV
100
AcDbBlockEnd
  0
ENDSEC
  0
SECTION
  2
ENTITIES
  0
LINE
  5
6B
100
AcDbEntity
  8
0
100
AcDbLine
 10
-140.0
 20
100.0
 30
0.0
 11
-35.0
 21
100.0
 31
0.0
  0
LINE
  5
6C
100
AcDbEntity
  8
0
100
AcDbLine
 10
-140.0
 20
95.0
 30
0.0
 11
-140.0
 21
172.0
 31
0.0
  0
LINE
  5
6D
100
AcDbEntity
  8
0
100
AcDbLine
 10
-125.0
 20
95.0
 30
0.0
 11
-125.0
 21
172.0
 31
0.0
  0
LINE
  5
6E
100
AcDbEntity
  8
0
100
AcDbLine
 10
-110.0
 20
95.0
 30
0.0
 11
-110.0
 21
167.0
 31
0.0
  0
LINE
  5
6F
100
AcDbEntity
  8
0
100
AcDbLine
 10
-95.0
 20
95.0
 30
0.0
 11
-95.0
 21
167.0
 31
0.0
  0
LINE
  5
70
100
AcDbEntity
  8
0
100
AcDbLine
 10
-80.0
 20
95.0
 30
0.0
 11
-80.0
 21
172.0
 31
0.0
  0
LINE
  5
71
100
AcDbEntity
  8
0
100
AcDbLine
 10
-65.0
 20
95.0
 30
0.0
 11
-65.0
 21
167.0
 31
0.0
  0
LINE
  5
72
100
AcDbEntity
  8
0
100
AcDbLine
 10
-50.0
 20
95.0
 30
0.0
 11
-50.0
 21
167.0
 31
0.0
  0
LINE
  5
73
100
AcDbEntity
  8
0
100
AcDbLine
 10
-35.0
 20
95.0
 30
0.0
 11
-35.0
 21
172.0
 31
0.0
  0
TEXT
  5
74
100
AcDbEntity
  8
0
100
AcDbText
 10
-135.4
 20
96.25
 30
0.0
 40
2.5
  1
90
 41
1.2
  7
MONOTXT
100
AcDbText
  0
TEXT
  5
75
100
AcDbEntity
  8
0
100
AcDbText
 10
-122.4
 20
96.25
 30
0.0
 40
2.5
  1
300
 41
1.2
  7
MONOTXT
100
AcDbText
  0
TEXT
  5
76
100
AcDbEntity
  8
0
100
AcDbText
 10
-107.4
 20
96.25
 30
0.0
 40
2.5
  1
300
 41
1.2
  7
MONOTXT
100
AcDbText
  0
TEXT
  5
77
100
AcDbEntity
  8
0
100
AcDbText
 10
-77.4
 20
96.25
 30
0.0
 40
2.5
  1
150
 41
1.2
  7
MONOTXT
100
AcDbText
  0
TEXT
  5
78
100
AcDbEntity
  8
0
100
AcDbText
 10
-62.4
 20
96.25
 30
0.0
 40
2.5
  1
150
 41
1.2
  7
MONOTXT
100
AcDbText
  0
TEXT
  5
79
100
AcDbEntity
  8
0
100
AcDbText
 10
-89.2
 20
96.25
 30
0.0
 40
2.5
  1
1
 41
1.2
  7
MONOTXT
100
AcDbText
  0
TEXT
  5
7A
100
AcDbEntity
  8
0
100
AcDbText
 10
-44.2
 20
96.25
 30
0.0
 40
2.5
  1
1
 41
1.2
  7
MONOTXT
100
AcDbText
  0
TEXT
  5
7B
100
AcDbEntity
  8
0
100
AcDbText
 10
-44.2
 20
101.25
 30
0.0
 40
2.5
  1
1
 41
1.2
  7
MONOTXT
100
AcDbText
  0
TEXT
  5
7C
100
AcDbEntity
  8
0
100
AcDbText
 10
-89.2
 20
101.25
 30
0.0
 40
2.5
  1
1
 41
1.2
  7
MONOTXT
100
AcDbText
  0
TEXT
  5
7D
100
AcDbEntity
  8
0
100
AcDbText
 10
-62.4
 20
101.25
 30
0.0
 40
2.5
  1
150
 41
1.2
  7
MONOTXT
100
AcDbText
  0
TEXT
  5
7E
100
AcDbEntity
  8
0
100
AcDbText
 10
-77.4
 20
101.25
 30
0.0
 40
2.5
  1
130
 41
1.2
  7
MONOTXT
100
AcDbText
  0
TEXT
  5
7F
100
AcDbEntity
  8
0
100
AcDbText
 10
-107.4
 20
101.25
 30
0.0
 40
2.5
  1
250
 41
1.2
  7
MONOTXT
100
AcDbText
  0
TEXT
  5
80
100
AcDbEntity
  8
0
100
AcDbText
 10
-122.4
 20
101.25
 30
0.0
 40
2.5
  1
250
 41
1.2
  7
MONOTXT
100
AcDbText
  0
TEXT
  5
81
100
AcDbEntity
  8
0
100
AcDbText
 10
-135.4
 20
101.25
 30
0.0
 40
2.5
  1
75
 41
1.2
  7
MONOTXT
100
AcDbText
  0
TEXT
  5
82
100
AcDbEntity
  8
0
100
AcDbText
 10
-44.2
 20
111.25
 30
0.0
 40
2.5
  1
1
 41
1.2
  7
MONOTXT
100
AcDbText
  0
TEXT
  5
83
100
AcDbEntity
  8
0
100
AcDbText
 10
-89.2
 20
111.25
 30
0.0
 40
2.5
  1
1
 41
1.2
  7
MONOTXT
100
AcDbText
  0
TEXT
  5
84
100
AcDbEntity
  8
0
100
AcDbText
 10
-62.4
 20
111.25
 30
0.0
 40
2.5
  1
100
 41
1.2
  7
MONOTXT
100
AcDbText
  0
TEXT
  5
85
100
AcDbEntity
  8
0
100
AcDbText
 10
-77.4
 20
111.25
 30
0.0
 40
2.5
  1
85
 41
1.2
  7
MONOTXT
100
AcDbText
  0
TEXT
  5
86
100
AcDbEntity
  8
0
100
AcDbText
 10
-107.4
 20
111.25
 30
0.0
 40
2.5
  1
200
 41
1.2
  7
MONOTXT
100
AcDbText
  0
TEXT
  5
87
100
AcDbEntity
  8
0
100
AcDbText
 10
-122.4
 20
111.25
 30
0.0
 40
2.5
  1
170
 41
1.2
  7
MONOTXT
100
AcDbText
  0
TEXT
  5
88
100
AcDbEntity
  8
0
100
AcDbText
 10
-135.4
 20
111.25
 30
0.0
 40
2.5
  1
45
 41
1.2
  7
MONOTXT
100
AcDbText
  0
TEXT
  5
89
100
AcDbEntity
  8
0
100
AcDbText
 10
-44.2
 20
116.25
 30
0.0
 40
2.5
  1
2
 41
1.2
  7
MONOTXT
100
AcDbText
  0
TEXT
  5
8A
100
AcDbEntity
  8
0
100
AcDbText
 10
-89.2
 20
116.25
 30
0.0
 40
2.5
  1
1
 41
1.2
  7
MONOTXT
100
AcDbText
  0
TEXT
  5
8B
100
AcDbEntity
  8
0
100
AcDbText
 10
-62.4
 20
116.25
 30
0.0
 40
2.5
  1
150
 41
1.2
  7
MONOTXT
100
AcDbText
  0
TEXT
  5
8C
100
AcDbEntity
  8
0
100
AcDbText
 10
-77.4
 20
116.25
 30
0.0
 40
2.5
  1
75
 41
1.2
  7
MONOTXT
100
AcDbText
  0
TEXT
  5
8D
100
AcDbEntity
  8
0
100
AcDbText
 10
-107.4
 20
116.25
 30
0.0
 40
2.5
  1
150
 41
1.2
  7
MONOTXT
100
AcDbText
  0
TEXT
  5
8E
100
AcDbEntity
  8
0
100
AcDbText
 10
-122.4
 20
116.25
 30
0.0
 40
2.5
  1
150
 41
1.2
  7
MONOTXT
100
AcDbText
  0
TEXT
  5
8F
100
AcDbEntity
  8
0
100
AcDbText
 10
-135.4
 20
116.25
 30
0.0
 40
2.5
  1
37
 41
1.2
  7
MONOTXT
100
AcDbText
  0
TEXT
  5
90
100
AcDbEntity
  8
0
100
AcDbText
 10
-44.2
 20
121.25
 30
0.0
 40
2.5
  1
2
 41
1.2
  7
MONOTXT
100
AcDbText
  0
TEXT
  5
91
100
AcDbEntity
  8
0
100
AcDbText
 10
-89.2
 20
121.25
 30
0.0
 40
2.5
  1
1
 41
1.2
  7
MONOTXT
100
AcDbText
  0
TEXT
  5
92
100
AcDbEntity
  8
0
100
AcDbText
 10
-62.4
 20
121.25
 30
0.0
 40
2.5
  1
120
 41
1.2
  7
MONOTXT
100
AcDbText
  0
TEXT
  5
93
100
AcDbEntity
  8
0
100
AcDbText
 10
-77.4
 20
121.25
 30
0.0
 40
2.5
  1
60
 41
1.2
  7
MONOTXT
100
AcDbText
  0
TEXT
  5
94
100
AcDbEntity
  8
0
100
AcDbText
 10
-107.4
 20
121.25
 30
0.0
 40
2.5
  1
120
 41
1.2
  7
MONOTXT
100
AcDbText
  0
TEXT
  5
95
100
AcDbEntity
  8
0
100
AcDbText
 10
-122.4
 20
121.25
 30
0.0
 40
2.5
  1
120
 41
1.2
  7
MONOTXT
100
AcDbText
  0
TEXT
  5
96
100
AcDbEntity
  8
0
100
AcDbText
 10
-135.4
 20
121.25
 30
0.0
 40
2.5
  1
30
 41
1.2
  7
MONOTXT
100
AcDbText
  0
TEXT
  5
97
100
AcDbEntity
  8
0
100
AcDbText
 10
-44.2
 20
126.25
 30
0.0
 40
2.5
  1
2
 41
1.2
  7
MONOTXT
100
AcDbText
  0
TEXT
  5
98
100
AcDbEntity
  8
0
100
AcDbText
 10
-89.2
 20
126.25
 30
0.0
 40
2.5
  1
1
 41
1.2
  7
MONOTXT
100
AcDbText
  0
TEXT
  5
99
100
AcDbEntity
  8
0
100
AcDbText
 10
-62.4
 20
126.25
 30
0.0
 40
2.5
  1
100
 41
1.2
  7
MONOTXT
100
AcDbText
  0
TEXT
  5
9A
100
AcDbEntity
  8
0
100
AcDbText
 10
-77.4
 20
126.25
 30
0.0
 40
2.5
  1
50
 41
1.2
  7
MONOTXT
100
AcDbText
  0
TEXT
  5
9B
100
AcDbEntity
  8
0
100
AcDbText
 10
-107.4
 20
126.25
 30
0.0
 40
2.5
  1
100
 41
1.2
  7
MONOTXT
100
AcDbText
  0
TEXT
  5
9C
100
AcDbEntity
  8
0
100
AcDbText
 10
-122.4
 20
126.25
 30
0.0
 40
2.5
  1
100
 41
1.2
  7
MONOTXT
100
AcDbText
  0
TEXT
  5
9D
100
AcDbEntity
  8
0
100
AcDbText
 10
-135.4
 20
126.25
 30
0.0
 40
2.5
  1
22
 41
1.2
  7
MONOTXT
100
AcDbText
  0
TEXT
  5
9E
100
AcDbEntity
  8
0
100
AcDbText
 10
-44.2
 20
131.25
 30
0.0
 40
2.5
  1
4
 41
1.2
  7
MONOTXT
100
AcDbText
  0
TEXT
  5
9F
100
AcDbEntity
  8
0
100
AcDbText
 10
-89.2
 20
131.25
 30
0.0
 40
2.5
  1
2
 41
1.2
  7
MONOTXT
100
AcDbText
  0
TEXT
  5
A0
100
AcDbEntity
  8
0
100
AcDbText
 10
-62.4
 20
131.25
 30
0.0
 40
2.5
  1
150
 41
1.2
  7
MONOTXT
100
AcDbText
  0
TEXT
  5
A1
100
AcDbEntity
  8
0
100
AcDbText
 10
-77.4
 20
131.25
 30
0.0
 40
2.5
  1
37
 41
1.2
  7
MONOTXT
100
AcDbText
  0
TEXT
  5
A2
100
AcDbEntity
  8
0
100
AcDbText
 10
-107.4
 20
131.25
 30
0.0
 40
2.5
  1
150
 41
1.2
  7
MONOTXT
100
AcDbText
  0
TEXT
  5
A3
100
AcDbEntity
  8
0
100
AcDbText
 10
-122.4
 20
131.25
 30
0.0
 40
2.5
  1
75
 41
1.2
  7
MONOTXT
100
AcDbText
  0
TEXT
  5
A4
100
AcDbEntity
  8
0
100
AcDbText
 10
-135.4
 20
131.25
 30
0.0
 40
2.5
  1
19
 41
1.2
  7
MONOTXT
100
AcDbText
  0
TEXT
  5
A5
100
AcDbEntity
  8
0
100
AcDbText
 10
-44.2
 20
136.25
 30
0.0
 40
2.5
  1
4
 41
1.2
  7
MONOTXT
100
AcDbText
  0
TEXT
  5
A6
100
AcDbEntity
  8
0
100
AcDbText
 10
-89.2
 20
136.25
 30
0.0
 40
2.5
  1
2
 41
1.2
  7
MONOTXT
100
AcDbText
  0
TEXT
  5
A7
100
AcDbEntity
  8
0
100
AcDbText
 10
-62.4
 20
136.25
 30
0.0
 40
2.5
  1
120
 41
1.2
  7
MONOTXT
100
AcDbText
  0
TEXT
  5
A8
100
AcDbEntity
  8
0
100
AcDbText
 10
-77.4
 20
136.25
 30
0.0
 40
2.5
  1
30
 41
1.2
  7
MONOTXT
100
AcDbText
  0
TEXT
  5
A9
100
AcDbEntity
  8
0
100
AcDbText
 10
-107.4
 20
136.25
 30
0.0
 40
2.5
  1
120
 41
1.2
  7
MONOTXT
100
AcDbText
  0
TEXT
  5
AA
100
AcDbEntity
  8
0
100
AcDbText
 10
-122.4
 20
136.25
 30
0.0
 40
2.5
  1
60
 41
1.2
  7
MONOTXT
100
AcDbText
  0
TEXT
  5
AB
100
AcDbEntity
  8
0
100
AcDbText
 10
-135.4
 20
136.25
 30
0.0
 40
2.5
  1
15
 41
1.2
  7
MONOTXT
100
AcDbText
  0
TEXT
  5
AC
100
AcDbEntity
  8
0
100
AcDbText
 10
-44.2
 20
141.25
 30
0.0
 40
2.5
  1
4
 41
1.2
  7
MONOTXT
100
AcDbText
  0
TEXT
  5
AD
100
AcDbEntity
  8
0
100
AcDbText
 10
-89.2
 20
141.25
 30
0.0
 40
2.5
  1
2
 41
1.2
  7
MONOTXT
100
AcDbText
  0
TEXT
  5
AE
100
AcDbEntity
  8
0
100
AcDbText
 10
-62.4
 20
141.25
 30
0.0
 40
2.5
  1
100
 41
1.2
  7
MONOTXT
100
AcDbText
  0
TEXT
  5
AF
100
AcDbEntity
  8
0
100
AcDbText
 10
-77.4
 20
141.25
 30
0.0
 40
2.5
  1
25
 41
1.2
  7
MONOTXT
100
AcDbText
  0
TEXT
  5
B0
100
AcDbEntity
  8
0
100
AcDbText
 10
-107.4
 20
141.25
 30
0.0
 40
2.5
  1
100
 41
1.2
  7
MONOTXT
100
AcDbText
  0
TEXT
  5
B1
100
AcDbEntity
  8
0
100
AcDbText
 10
-122.4
 20
141.25
 30
0.0
 40
2.5
  1
50
 41
1.2
  7
MONOTXT
100
AcDbText
  0
TEXT
  5
B2
100
AcDbEntity
  8
0
100
AcDbText
 10
-135.4
 20
141.25
 30
0.0
 40
2.5
  1
11
 41
1.2
  7
MONOTXT
100
AcDbText
  0
TEXT
  5
B3
100
AcDbEntity
  8
0
100
AcDbText
 10
-44.2
 20
146.25
 30
0.0
 40
2.5
  1
5
 41
1.2
  7
MONOTXT
100
AcDbText
  0
TEXT
  5
B4
100
AcDbEntity
  8
0
100
AcDbText
 10
-89.2
 20
146.25
 30
0.0
 40
2.5
  1
4
 41
1.2
  7
MONOTXT
100
AcDbText
  0
TEXT
  5
B5
100
AcDbEntity
  8
0
100
AcDbText
 10
-62.4
 20
146.25
 30
0.0
 40
2.5
  1
100
 41
1.2
  7
MONOTXT
100
AcDbText
  0
TEXT
  5
B6
100
AcDbEntity
  8
0
100
AcDbText
 10
-77.4
 20
146.25
 30
0.0
 40
2.5
  1
20
 41
1.2
  7
MONOTXT
100
AcDbText
  0
TEXT
  5
B7
100
AcDbEntity
  8
0
100
AcDbText
 10
-107.4
 20
146.25
 30
0.0
 40
2.5
  1
120
 41
1.2
  7
MONOTXT
100
AcDbText
  0
TEXT
  5
B8
100
AcDbEntity
  8
0
100
AcDbText
 10
-122.4
 20
146.25
 30
0.0
 40
2.5
  1
30
 41
1.2
  7
MONOTXT
100
AcDbText
  0
TEXT
  5
B9
100
AcDbEntity
  8
0
100
AcDbText
 10
-140.4
 20
146.25
 30
0.0
 40
2.5
  1
 7.5
 41
1.411765
  7
MONOTXT
100
AcDbText
  0
TEXT
  5
BA
100
AcDbEntity
  8
0
100
AcDbText
 10
-44.2
 20
151.25
 30
0.0
 40
2.5
  1
7
 41
1.2
  7
MONOTXT
100
AcDbText
  0
TEXT
  5
BB
100
AcDbEntity
  8
0
100
AcDbText
 10
-89.2
 20
151.25
 30
0.0
 40
2.5
  1
4
 41
1.2
  7
MONOTXT
100
AcDbText
  0
TEXT
  5
BC
100
AcDbEntity
  8
0
100
AcDbText
 10
-62.4
 20
151.25
 30
0.0
 40
2.5
  1
100
 41
1.2
  7
MONOTXT
100
AcDbText
  0
TEXT
  5
BD
100
AcDbEntity
  8
0
100
AcDbText
 10
-77.4
 20
151.25
 30
0.0
 40
2.5
  1
14
 41
1.2
  7
MONOTXT
100
AcDbText
  0
TEXT
  5
BE
100
AcDbEntity
  8
0
100
AcDbText
 10
-107.4
 20
151.25
 30
0.0
 40
2.5
  1
100
 41
1.2
  7
MONOTXT
100
AcDbText
  0
TEXT
  5
BF
100
AcDbEntity
  8
0
100
AcDbText
 10
-122.4
 20
151.25
 30
0.0
 40
2.5
  1
25
 41
1.2
  7
MONOTXT
100
AcDbText
  0
TEXT
  5
C0
100
AcDbEntity
  8
0
100
AcDbText
 10
-140.4
 20
151.25
 30
0.0
 40
2.5
  1
 5.5
 41
1.411765
  7
MONOTXT
100
AcDbText
  0
TEXT
  5
C1
100
AcDbEntity
  8
0
100
AcDbText
 10
-91.75
 20
156.0
 30
0.0
 40
2.5
  1
(T)
 41
1.2
  7
MONOTXT
100
AcDbText
  0
TEXT
  5
C2
100
AcDbEntity
  8
0
100
AcDbText
 10
-107.75
 20
156.0
 30
0.0
 40
2.5
  1
(AT)
 41
1.2
  7
MONOTXT
100
AcDbText
  0
TEXT
  5
C3
100
AcDbEntity
  8
0
100
AcDbText
 10
-121.75
 20
156.0
 30
0.0
 40
2.5
  1
(A)
 41
1.2
  7
MONOTXT
100
AcDbText
  0
TEXT
  5
C4
100
AcDbEntity
  8
0
100
AcDbText
 10
-135.75
 20
156.0
 30
0.0
 40
2.5
  1
kw
 41
1.2
  7
MONOTXT
100
AcDbText
  0
LINE
  5
C5
100
AcDbEntity
  8
0
100
AcDbLine
 10
-140.0
 20
105.0
 30
0.0
 11
-35.0
 21
105.0
 31
0.0
  0
LINE
  5
C6
100
AcDbEntity
  8
0
100
AcDbLine
 10
-140.0
 20
110.0
 30
0.0
 11
-35.0
 21
110.0
 31
0.0
  0
LINE
  5
C7
100
AcDbEntity
  8
0
100
AcDbLine
 10
-140.0
 20
115.0
 30
0.0
 11
-35.0
 21
115.0
 31
0.0
  0
LINE
  5
C8
100
AcDbEntity
  8
0
100
AcDbLine
 10
-140.0
 20
120.0
 30
0.0
 11
-35.0
 21
120.0
 31
0.0
  0
LINE
  5
C9
100
AcDbEntity
  8
0
100
AcDbLine
 10
-140.0
 20
125.0
 30
0.0
 11
-35.0
 21
125.0
 31
0.0
  0
LINE
  5
CA
100
AcDbEntity
  8
0
100
AcDbLine
 10
-140.0
 20
130.0
 30
0.0
 11
-35.0
 21
130.0
 31
0.0
  0
LINE
  5
CB
100
AcDbEntity
  8
0
100
AcDbLine
 10
-140.0
 20
135.0
 30
0.0
 11
-35.0
 21
135.0
 31
0.0
  0
LINE
  5
CC
100
AcDbEntity
  8
0
100
AcDbLine
 10
-140.0
 20
140.0
 30
0.0
 11
-35.0
 21
140.0
 31
0.0
  0
LINE
  5
CD
100
AcDbEntity
  8
0
100
AcDbLine
 10
-140.0
 20
145.0
 30
0.0
 11
-35.0
 21
145.0
 31
0.0
  0
LINE
  5
CE
100
AcDbEntity
  8
0
100
AcDbLine
 10
-140.0
 20
150.0
 30
0.0
 11
-35.0
 21
150.0
 31
0.0
  0
LINE
  5
CF
100
AcDbEntity
  8
0
100
AcDbLine
 10
-140.0
 20
155.0
 30
0.0
 11
-35.0
 21
155.0
 31
0.0
  0
LINE
  5
D0
100
AcDbEntity
  8
0
100
AcDbLine
 10
-125.0
 20
167.0
 30
0.0
 11
-35.0
 21
167.0
 31
0.0
  0
TEXT
  5
D1
100
AcDbEntity
  8
0
100
AcDbText
 10
-122.8
 20
163.25
 30
0.0
 40
2.5
  1
モ－タ側
  7
BIGFONT
100
AcDbText
  0
TEXT
  5
D2
100
AcDbEntity
  8
0
100
AcDbText
 10
-122.8
 20
159.25
 30
0.0
 40
2.5
  1
定格電流
  7
BIGFONT
100
AcDbText
  0
TEXT
  5
D3
100
AcDbEntity
  8
0
100
AcDbText
 10
-106.4
 20
163.25
 30
0.0
 40
2.5
  1
C T
 41
1.5
  7
MONOTXT
100
AcDbText
  0
TEXT
  5
D4
100
AcDbEntity
  8
0
100
AcDbText
 10
-105.3
 20
159.25
 30
0.0
 40
2.5
  1
サイズ
  7
BIGFONT
100
AcDbText
  0
TEXT
  5
D5
100
AcDbEntity
  8
0
100
AcDbText
 10
-91.3
 20
163.0
 30
0.0
 40
3.0
  1
巻　線
 41
1.0
  7
BIGFONT
100
AcDbText
  0
TEXT
  5
D6
100
AcDbEntity
  8
0
100
AcDbText
 10
-46.3
 20
163.0
 30
0.0
 40
3.0
  1
巻　線
 41
1.0
  7
BIGFONT
100
AcDbText
  0
TEXT
  5
D7
100
AcDbEntity
  8
0
100
AcDbText
 10
-60.3
 20
159.25
 30
0.0
 40
2.5
  1
サイズ
  7
BIGFONT
100
AcDbText
  0
TEXT
  5
D8
100
AcDbEntity
  8
0
100
AcDbText
 10
-61.4
 20
163.25
 30
0.0
 40
2.5
  1
C T
 41
1.5
  7
MONOTXT
100
AcDbText
  0
TEXT
  5
D9
100
AcDbEntity
  8
0
100
AcDbText
 10
-77.8
 20
159.25
 30
0.0
 40
2.5
  1
定格電流
  7
BIGFONT
100
AcDbText
  0
TEXT
  5
DA
100
AcDbEntity
  8
0
100
AcDbText
 10
-77.8
 20
163.25
 30
0.0
 40
2.5
  1
モ－タ側
  7
BIGFONT
100
AcDbText
  0
TEXT
  5
DB
100
AcDbEntity
  8
0
100
AcDbText
 10
-76.75
 20
156.0
 30
0.0
 40
2.5
  1
(A)
 41
1.2
  7
MONOTXT
100
AcDbText
  0
TEXT
  5
DC
100
AcDbEntity
  8
0
100
AcDbText
 10
-62.75
 20
156.0
 30
0.0
 40
2.5
  1
(AT)
 41
1.2
  7
MONOTXT
100
AcDbText
  0
TEXT
  5
DD
100
AcDbEntity
  8
0
100
AcDbText
 10
-46.75
 20
156.0
 30
0.0
 40
2.5
  1
(T)
 41
1.2
  7
MONOTXT
100
AcDbText
  0
LINE
  5
DE
100
AcDbEntity
  8
0
100
AcDbLine
 10
-140.0
 20
172.0
 30
0.0
 11
-35.0
 21
172.0
 31
0.0
  0
TEXT
  5
DF
100
AcDbEntity
  8
0
100
AcDbText
 10
-135.8
 20
159.0
 30
0.0
 40
3.0
  1
モ－タ
 41
1.0
  7
BIGFONT
100
AcDbText
  0
TEXT
  5
E0
100
AcDbEntity
  8
0
100
AcDbText
 10
-135.8
 20
163.0
 30
0.0
 40
3.0
  1
適　用
 41
1.0
  7
BIGFONT
100
AcDbText
  0
TEXT
  5
E1
100
AcDbEntity
  8
0
100
AcDbText
 10
-101.64
 20
168.25
 30
0.0
 40
2.5
  1
AC200/220V
 41
0.72
  7
MONOTXT
100
AcDbText
  0
TEXT
  5
E2
100
AcDbEntity
  8
0
100
AcDbText
 10
-120.84
 20
168.25
 30
0.0
 40
2.5
  1
モ－タ電源電圧
 41
0.8
  7
BIGFONT
100
AcDbText
  0
TEXT
  5
E3
100
AcDbEntity
  8
0
100
AcDbText
 10
-75.84
 20
168.25
 30
0.0
 40
2.5
  1
モ－タ電源電圧
 41
0.8
  7
BIGFONT
100
AcDbText
  0
TEXT
  5
E4
100
AcDbEntity
  8
0
100
AcDbText
 10
-56.64
 20
168.25
 30
0.0
 40
2.5
  1
AC400/440V
 41
0.72
  7
MONOTXT
100
AcDbText
  0
LINE
  5
E5
100
AcDbEntity
  8
0
100
AcDbLine
 10
-140.0
 20
95.0
 30
0.0
 11
-35.0
 21
95.0
 31
0.0
  0
TEXT
  5
E6
100
AcDbEntity
  8
0
100
AcDbText
 10
-135.4
 20
106.25
 30
0.0
 40
2.5
  1
55
 41
1.2
  7
MONOTXT
100
AcDbText
  0
TEXT
  5
E7
100
AcDbEntity
  8
0
100
AcDbText
 10
-122.4
 20
106.25
 30
0.0
 40
2.5
  1
200
 41
1.2
  7
MONOTXT
100
AcDbText
  0
TEXT
  5
E8
100
AcDbEntity
  8
0
100
AcDbText
 10
-107.4
 20
106.25
 30
0.0
 40
2.5
  1
200
 41
1.2
  7
MONOTXT
100
AcDbText
  0
TEXT
  5
E9
100
AcDbEntity
  8
0
100
AcDbText
 10
-77.4
 20
106.25
 30
0.0
 40
2.5
  1
100
 41
1.2
  7
MONOTXT
100
AcDbText
  0
TEXT
  5
EA
100
AcDbEntity
  8
0
100
AcDbText
 10
-62.4
 20
106.25
 30
0.0
 40
2.5
  1
100
 41
1.2
  7
MONOTXT
100
AcDbText
  0
TEXT
  5
EB
100
AcDbEntity
  8
0
100
AcDbText
 10
-89.2
 20
106.25
 30
0.0
 40
2.5
  1
1
 41
1.2
  7
MONOTXT
100
AcDbText
  0
TEXT
  5
EC
100
AcDbEntity
  8
0
100
AcDbText
 10
-44.2
 20
106.25
 30
0.0
 40
2.5
  1
1
 41
1.2
  7
MONOTXT
100
AcDbText
  0
LINE
  5
ED
100
AcDbEntity
  8
PV
  6
DASHED
100
AcDbLine
 10
-227.0
 20
199.0
 30
0.0
 11
-185.0
 21
199.0
 31
0.0
  0
LINE
  5
EE
100
AcDbEntity
  8
PV
  6
DASHED
100
AcDbLine
 10
-227.0
 20
229.0
 30
0.0
 11
-185.0
 21
229.0
 31
0.0
  0
LINE
  5
EF
100
AcDbEntity
  8
PV
100
AcDbLine
 10
-346.521393
 20
221.635462
 30
0.0
 11
-346.116725
 21
221.34179
 31
0.0
  0
LINE
  5
F0
100
AcDbEntity
  8
PV
100
AcDbLine
 10
-325.478607
 20
206.364538
 30
0.0
 11
-325.883275
 21
206.65821
 31
0.0
  0
TEXT
  5
F1
100
AcDbEntity
  8
0
100
AcDbText
 10
-68.6
 20
264.0
 30
0.0
 40
4.0
  1
300A
 41
1.2
  7
MONOTXT
100
AcDbText
  0
TEXT
  5
F2
100
AcDbEntity
  8
0
100
AcDbText
 10
-140.2
 20
264.0
 30
0.0
 40
4.0
  1
定格一次電流
 41
1.0
  7
BIGFONT
100
AcDbText
  0
TEXT
  5
F3
100
AcDbEntity
  8
0
100
AcDbText
 10
-70.2
 20
60.899985
 30
0.0
 40
3.2
  1
TSB-300AT
 41
0.9375
  7
MONOTXT
100
AcDbText
  0
DIMENSION
  5
F4
100
AcDbEntity
  8
PV
100
AcDbDimension
  2
*D1
 10
-227.0
 20
131.0
 30
0.0
 11
-210.716667
 21
134.4
 31
0.0
100
AcDbAlignedDimension
 13
-185.0
 23
154.0
 33
0.0
 14
-227.0
 24
154.0
 34
0.0
 50
180.0
100
AcDbRotatedDimension
  0
DIMENSION
  5
F5
100
AcDbEntity
  8
PV
100
AcDbDimension
  2
*D2
 10
-210.0
 20
141.0
 30
0.0
 11
-207.991666
 21
144.4
 31
0.0
100
AcDbAlignedDimension
 13
-202.0
 23
154.0
 33
0.0
 14
-210.0
 24
154.0
 34
0.0
 50
180.0
100
AcDbRotatedDimension
  0
LINE
  5
F6
100
AcDbEntity
  8
PV
100
AcDbLine
 10
-210.0
 20
155.0
 30
0.0
 11
-210.0
 21
154.0
 31
0.0
  0
LINE
  5
F7
100
AcDbEntity
  8
PV
100
AcDbLine
 10
-202.0
 20
155.0
 30
0.0
 11
-202.0
 21
154.0
 31
0.0
  0
LINE
  5
F8
100
AcDbEntity
  8
PV
  6
CENTER
100
AcDbLine
 10
-206.0
 20
262.3139
 30
0.0
 11
-206.0
 21
148.008957
 31
0.0
  0
LINE
  5
F9
100
AcDbEntity
  8
PV
100
AcDbLine
 10
-226.0
 20
163.0
 30
0.0
 11
-226.0
 21
184.012503
 31
0.0
  0
LINE
  5
FA
100
AcDbEntity
  8
PV
100
AcDbLine
 10
-186.0
 20
184.012503
 30
0.0
 11
-186.0
 21
163.0
 31
0.0
  0
LINE
  5
FB
100
AcDbEntity
  8
PV
100
AcDbLine
 10
-185.0
 20
163.0
 30
0.0
 11
-185.0
 21
154.0
 31
0.0
  0
LINE
  5
FC
100
AcDbEntity
  8
PV
100
AcDbLine
 10
-227.0
 20
163.0
 30
0.0
 11
-227.0
 21
154.0
 31
0.0
  0
LINE
  5
FD
100
AcDbEntity
  8
PV
100
AcDbLine
 10
-227.0
 20
184.012503
 30
0.0
 11
-185.0
 21
184.012503
 31
0.0
  0
DIMENSION
  5
FE
100
AcDbEntity
  8
PV
100
AcDbDimension
  2
*D3
 10
-248.0
 20
253.0
 30
0.0
 11
198.783328
 21
251.399999
 31
0.0
100
AcDbAlignedDimension
 13
-227.0
 23
154.0
 33
0.0
 14
-225.0
 24
253.0
 34
0.0
 50
90.0
100
AcDbRotatedDimension
  0
POLYLINE
  5
FF
100
AcDbEntity
  8
0
100
AcDb2dPolyline
 66
     1
 10
0.0
 20
0.0
 30
0.0
  0
VERTEX
  5
100
100
AcDbEntity
  8
0
100
AcDbVertex
100
AcDb2dVertex
 10
-362.622905
 20
194.071453
 30
0.0
  0
VERTEX
  5
101
100
AcDbEntity
  8
0
100
AcDbVertex
100
AcDb2dVertex
 10
-364.029444
 20
192.214677
 30
0.0
  0
VERTEX
  5
102
100
AcDbEntity
  8
0
100
AcDbVertex
100
AcDb2dVertex
 10
-361.882957
 20
193.119423
 30
0.0
  0
SEQEND
  5
103
100
AcDbEntity
  8
0
  0
LINE
  5
104
100
AcDbEntity
  8
PV
100
AcDbLine
 10
-364.029444
 20
192.214677
 30
0.0
 11
-363.634663
 21
192.521513
 31
0.0
  0
POLYLINE
  5
105
100
AcDbEntity
  8
0
100
AcDb2dPolyline
 66
     1
 10
0.0
 20
0.0
 30
0.0
  0
VERTEX
  5
106
100
AcDbEntity
  8
0
100
AcDbVertex
100
AcDb2dVertex
 10
-309.377095
 20
233.928547
 30
0.0
  0
VERTEX
  5
107
100
AcDbEntity
  8
0
100
AcDbVertex
100
AcDb2dVertex
 10
-307.970556
 20
235.785323
 30
0.0
  0
VERTEX
  5
108
100
AcDbEntity
  8
0
100
AcDbVertex
100
AcDb2dVertex
 10
-310.117043
 20
234.880577
 30
0.0
  0
SEQEND
  5
109
100
AcDbEntity
  8
0
  0
LINE
  5
10A
100
AcDbEntity
  8
PV
100
AcDbLine
 10
-307.970556
 20
235.785323
 30
0.0
 11
-308.365337
 21
235.478487
 31
0.0
  0
LINE
  5
10B
100
AcDbEntity
  8
0
100
AcDbLine
 10
-364.029444
 20
192.214677
 30
0.0
 11
-307.970556
 21
235.785323
 31
0.0
  0
TEXT
  5
10C
100
AcDbEntity
  8
PV
100
AcDbText
 10
-354.532244
 20
200.86455
 30
0.0
 40
3.2
  1
%%c71
 50
37.8
 41
0.9375
  7
MONOTXT
100
AcDbText
  0
DIMENSION
  5
10D
100
AcDbEntity
  8
PV
100
AcDbDimension
  2
*D4
 10
-378.0
 20
141.0
 30
0.0
 11
-340.716673
 21
144.4
 31
0.0
100
AcDbAlignedDimension
 13
-294.0
 23
149.582155
 33
0.0
 14
-378.0
 24
149.582155
 34
0.0
 50
180.0
100
AcDbRotatedDimension
  0
DIMENSION
  5
10E
100
AcDbEntity
  8
PV
100
AcDbDimension
  2
*D5
 10
-386.0
 20
131.0
 30
0.0
 11
-342.316673
 21
134.4
 31
0.0
100
AcDbAlignedDimension
 13
-286.0
 23
154.0
 33
0.0
 14
-386.0
 24
154.0
 34
0.0
 50
180.0
100
AcDbRotatedDimension
  0
LINE
  5
10F
100
AcDbEntity
  8
PV
100
AcDbLine
 10
-386.0
 20
155.0
 30
0.0
 11
-386.0
 21
154.0
 31
0.0
  0
CIRCLE
  5
110
100
AcDbEntity
  8
PV
100
AcDbCircle
 10
-217.5
 20
246.0
 30
0.0
 40
3.0
  0
CIRCLE
  5
111
100
AcDbEntity
  8
PV
100
AcDbCircle
 10
-194.5
 20
246.0
 30
0.0
 40
3.0
  0
LINE
  5
112
100
AcDbEntity
  8
PV
100
AcDbLine
 10
-225.0
 20
237.0
 30
0.0
 11
-187.0
 21
237.0
 31
0.0
  0
LINE
  5
113
100
AcDbEntity
  8
PV
100
AcDbLine
 10
-209.0
 20
238.0
 30
0.0
 11
-203.0
 21
238.0
 31
0.0
  0
LINE
  5
114
100
AcDbEntity
  8
0
100
AcDbLine
 10
-154.0
 20
272.0
 30
0.0
 11
-136.0
 21
272.0
 31
0.0
  0
LINE
  5
115
100
AcDbEntity
  8
0
100
AcDbLine
 10
-154.0
 20
273.0
 30
0.0
 11
-136.0
 21
273.0
 31
0.0
  0
TEXT
  5
116
100
AcDbEntity
  8
0
100
AcDbText
 10
-123.9
 20
217.0
 30
0.0
 40
3.0
  1
（一次，二次，鉄芯間）
 41
1.0
  7
BIGFONT
100
AcDbText
  0
LINE
  5
117
100
AcDbEntity
  8
0
100
AcDbLine
 10
-145.0
 20
270.0
 30
0.0
 11
-145.0
 21
204.0
 31
0.0
  0
LINE
  5
118
100
AcDbEntity
  8
0
100
AcDbLine
 10
-86.0
 20
270.0
 30
0.0
 11
-86.0
 21
204.0
 31
0.0
  0
LINE
  5
119
100
AcDbEntity
  8
0
100
AcDbLine
 10
-145.0
 20
224.0
 30
0.0
 11
-35.0
 21
224.0
 31
0.0
  0
LINE
  5
11A
100
AcDbEntity
  8
0
100
AcDbLine
 10
-145.0
 20
211.0
 30
0.0
 11
-35.0
 21
211.0
 31
0.0
  0
LINE
  5
11B
100
AcDbEntity
  8
0
100
AcDbLine
 10
-145.0
 20
236.0
 30
0.0
 11
-35.0
 21
236.0
 31
0.0
  0
LINE
  5
11C
100
AcDbEntity
  8
0
100
AcDbLine
 10
-145.0
 20
247.0
 30
0.0
 11
-35.0
 21
247.0
 31
0.0
  0
LINE
  5
11D
100
AcDbEntity
  8
0
100
AcDbLine
 10
-145.0
 20
254.0
 30
0.0
 11
-35.0
 21
254.0
 31
0.0
  0
LINE
  5
11E
100
AcDbEntity
  8
0
100
AcDbLine
 10
-145.0
 20
262.0
 30
0.0
 11
-35.0
 21
262.0
 31
0.0
  0
LINE
  5
11F
100
AcDbEntity
  8
0
100
AcDbLine
 10
-35.0
 20
204.0
 30
0.0
 11
-145.0
 21
204.0
 31
0.0
  0
LINE
  5
120
100
AcDbEntity
  8
0
100
AcDbLine
 10
-35.0
 20
270.0
 30
0.0
 11
-35.0
 21
204.0
 31
0.0
  0
LINE
  5
121
100
AcDbEntity
  8
0
100
AcDbLine
 10
-145.0
 20
270.0
 30
0.0
 11
-35.0
 21
270.0
 31
0.0
  0
TEXT
  5
122
100
AcDbEntity
  8
0
100
AcDbText
 10
-139.2
 20
174.0
 30
0.0
 40
4.0
  1
（貫通数）ヲ選ンデ下サイ。
 41
1.0
  7
BIGFONT
100
AcDbText
  0
TEXT
  5
123
100
AcDbEntity
  8
0
100
AcDbText
 10
-79.199999
 20
179.0
 30
0.0
 40
4.0
  1
ＣＴサイズト一次巻線
 41
1.0
  7
BIGFONT
100
AcDbText
  0
TEXT
  5
124
100
AcDbEntity
  8
0
100
AcDbText
 10
-137.2
 20
179.0
 30
0.0
 40
4.0
  1
適用モータ容量ニ基ヅイテ
 41
1.0
  7
BIGFONT
100
AcDbText
  0
TEXT
  5
125
100
AcDbEntity
  8
0
100
AcDbText
 10
-64.6
 20
249.0
 30
0.0
 40
4.0
  1
5A
 41
1.2
  7
MONOTXT
100
AcDbText
  0
TEXT
  5
126
100
AcDbEntity
  8
0
100
AcDbText
 10
-140.2
 20
249.0
 30
0.0
 40
4.0
  1
定格出力
 41
1.0
  7
BIGFONT
100
AcDbText
  0
TEXT
  5
127
100
AcDbEntity
  8
0
100
AcDbText
 10
-69.84
 20
206.0
 30
0.0
 40
4.0
  1
0.6kg
 41
1.08
  7
MONOTXT
100
AcDbText
  0
TEXT
  5
128
100
AcDbEntity
  8
0
100
AcDbText
 10
-140.2
 20
206.0
 30
0.0
 40
4.0
  1
概略質量
 41
1.0
  7
BIGFONT
100
AcDbText
  0
TEXT
  5
129
100
AcDbEntity
  8
0
100
AcDbText
 10
-69.199999
 20
213.0
 30
0.0
 40
4.0
  1
２０ＭΩ以上
 41
1.0
  7
BIGFONT
100
AcDbText
  0
TEXT
  5
12A
100
AcDbEntity
  8
0
100
AcDbText
 10
-70.0
 20
218.0
 30
0.0
 40
4.0
  1
５００Ｖメカ゛ー
 41
0.833333
  7
BIGFONT
100
AcDbText
  0
TEXT
  5
12B
100
AcDbEntity
  8
0
100
AcDbText
 10
-142.2
 20
217.0
 30
0.0
 40
4.0
  1
絶縁抵抗
 41
1.0
  7
BIGFONT
100
AcDbText
  0
TEXT
  5
12C
100
AcDbEntity
  8
0
100
AcDbText
 10
-64.199999
 20
225.0
 30
0.0
 40
4.0
  1
１分間
 41
1.0
  7
BIGFONT
100
AcDbText
  0
TEXT
  5
12D
100
AcDbEntity
  8
0
100
AcDbText
 10
-74.0
 20
230.0
 30
0.0
 40
4.0
  1
AC4000V
  7
MONOTXT
100
AcDbText
  0
TEXT
  5
12E
100
AcDbEntity
  8
0
100
AcDbText
 10
-123.9
 20
229.0
 30
0.0
 40
3.0
  1
（一次，二次，鉄芯間）
 41
1.0
  7
BIGFONT
100
AcDbText
  0
TEXT
  5
12F
100
AcDbEntity
  8
0
100
AcDbText
 10
-141.2
 20
228.0
 30
0.0
 40
4.0
  1
耐電圧
 41
1.0
  7
BIGFONT
100
AcDbText
  0
TEXT
  5
130
100
AcDbEntity
  8
0
100
AcDbText
 10
-63.199999
 20
237.0
 30
0.0
 40
4.0
  1
１秒間
 41
1.0
  7
BIGFONT
100
AcDbText
  0
TEXT
  5
131
100
AcDbEntity
  8
0
100
AcDbText
 10
-76.199999
 20
242.0
 30
0.0
 40
4.0
  1
定格電流ノ４０倍
 41
1.0
  7
BIGFONT
100
AcDbText
  0
TEXT
  5
132
100
AcDbEntity
  8
0
100
AcDbText
 10
-141.2
 20
241.0
 30
0.0
 40
4.0
  1
過電流強度
 41
1.0
  7
BIGFONT
100
AcDbText
  0
TEXT
  5
133
100
AcDbEntity
  8
0
100
AcDbText
 10
-66.6
 20
256.0
 30
0.0
 40
4.0
  1
5VA
 41
1.2
  7
MONOTXT
100
AcDbText
  0
TEXT
  5
134
100
AcDbEntity
  8
0
100
AcDbText
 10
-140.2
 20
256.0
 30
0.0
 40
4.0
  1
定格負担
 41
1.0
  7
BIGFONT
100
AcDbText
  0
TEXT
  5
135
100
AcDbEntity
  8
0
100
AcDbText
 10
-147.2
 20
274.0
 30
0.0
 40
4.0
  1
仕様
 41
1.0
  7
BIGFONT
100
AcDbText
  0
LINE
  5
136
100
AcDbEntity
  8
PV
100
AcDbLine
 10
-294.0
 20
160.425421
 30
0.0
 11
-294.0
 21
149.582156
 31
0.0
  0
LINE
  5
137
100
AcDbEntity
  8
PV
100
AcDbLine
 10
-378.0
 20
160.425421
 30
0.0
 11
-378.0
 21
149.582156
 31
0.0
  0
LINE
  5
138
100
AcDbEntity
  8
PV
  6
CENTER
100
AcDbLine
 10
-294.0
 20
214.0
 30
0.0
 11
-381.0
 21
214.0
 31
0.0
  0
LINE
  5
139
100
AcDbEntity
  8
PV
  6
CENTER
100
AcDbLine
 10
-336.0
 20
261.0
 30
0.0
 11
-336.0
 21
143.0
 31
0.0
  0
LINE
  5
13A
100
AcDbEntity
  8
PV
100
AcDbLine
 10
-202.0
 20
253.0
 30
0.0
 11
-202.0
 21
237.0
 31
0.0
  0
LINE
  5
13B
100
AcDbEntity
  8
PV
100
AcDbLine
 10
-203.0
 20
253.0
 30
0.0
 11
-202.0
 21
253.0
 31
0.0
  0
LINE
  5
13C
100
AcDbEntity
  8
PV
100
AcDbLine
 10
-210.0
 20
253.0
 30
0.0
 11
-210.0
 21
237.0
 31
0.0
  0
LINE
  5
13D
100
AcDbEntity
  8
PV
100
AcDbLine
 10
-203.0
 20
253.0
 30
0.0
 11
-203.0
 21
238.0
 31
0.0
  0
LINE
  5
13E
100
AcDbEntity
  8
PV
100
AcDbLine
 10
-209.0
 20
253.0
 30
0.0
 11
-209.0
 21
238.0
 31
0.0
  0
LINE
  5
13F
100
AcDbEntity
  8
PV
100
AcDbLine
 10
-187.0
 20
250.0
 30
0.0
 11
-185.0
 21
250.0
 31
0.0
  0
LINE
  5
140
100
AcDbEntity
  8
PV
100
AcDbLine
 10
-225.0
 20
253.0
 30
0.0
 11
-187.0
 21
253.0
 31
0.0
  0
LINE
  5
141
100
AcDbEntity
  8
PV
100
AcDbLine
 10
-225.0
 20
231.0
 30
0.0
 11
-225.0
 21
253.0
 31
0.0
  0
LINE
  5
142
100
AcDbEntity
  8
PV
100
AcDbLine
 10
-187.0
 20
231.0
 30
0.0
 11
-187.0
 21
253.0
 31
0.0
  0
LINE
  5
143
100
AcDbEntity
  8
PV
100
AcDbLine
 10
-225.0
 20
231.0
 30
0.0
 11
-187.0
 21
231.0
 31
0.0
  0
LINE
  5
144
100
AcDbEntity
  8
PV
100
AcDbLine
 10
-227.0
 20
163.0
 30
0.0
 11
-185.0
 21
163.0
 31
0.0
  0
LINE
  5
145
100
AcDbEntity
  8
PV
100
AcDbLine
 10
-227.0
 20
155.0
 30
0.0
 11
-185.0
 21
155.0
 31
0.0
  0
LINE
  5
146
100
AcDbEntity
  8
PV
100
AcDbLine
 10
-185.0
 20
250.0
 30
0.0
 11
-185.0
 21
184.012503
 31
0.0
  0
LINE
  5
147
100
AcDbEntity
  8
PV
100
AcDbLine
 10
-227.0
 20
250.0
 30
0.0
 11
-225.0
 21
250.0
 31
0.0
  0
LINE
  5
148
100
AcDbEntity
  8
PV
100
AcDbLine
 10
-227.0
 20
154.0
 30
0.0
 11
-185.0
 21
154.0
 31
0.0
  0
LINE
  5
149
100
AcDbEntity
  8
PV
100
AcDbLine
 10
-227.0
 20
250.0
 30
0.0
 11
-227.0
 21
184.012503
 31
0.0
  0
ARC
  5
14A
100
AcDbEntity
  8
PV
100
AcDbCircle
 10
-304.778175
 20
245.221825
 30
0.0
 40
4.0
100
AcDbArc
 50
345.0
 51
105.0
  0
LINE
  5
14B
100
AcDbEntity
  8
PV
100
AcDbLine
 10
-300.535534
 20
243.807612
 30
0.0
 11
-306.192388
 21
249.464466
 31
0.0
  0
LINE
  5
14C
100
AcDbEntity
  8
PV
100
AcDbLine
 10
-306.192388
 20
249.464466
 30
0.0
 11
-306.899495
 21
248.757359
 31
0.0
  0
LINE
  5
14D
100
AcDbEntity
  8
PV
100
AcDbLine
 10
-301.242641
 20
243.100505
 30
0.0
 11
-300.535534
 21
243.807612
 31
0.0
  0
LINE
  5
14E
100
AcDbEntity
  8
PV
100
AcDbLine
 10
-304.843148
 20
231.014716
 30
0.0
 11
-297.0
 21
238.857864
 31
0.0
  0
LINE
  5
14F
100
AcDbEntity
  8
PV
100
AcDbLine
 10
-318.985284
 20
245.156852
 30
0.0
 11
-311.142136
 21
253.0
 31
0.0
  0
LINE
  5
150
100
AcDbEntity
  8
PV
100
AcDbLine
 10
-340.0
 20
162.0
 30
0.0
 11
-340.0
 21
161.0
 31
0.0
  0
LINE
  5
151
100
AcDbEntity
  8
PV
100
AcDbLine
 10
-332.0
 20
161.0
 30
0.0
 11
-332.0
 21
162.0
 31
0.0
  0
LINE
  5
152
100
AcDbEntity
  8
PV
100
AcDbLine
 10
-340.0
 20
161.0
 30
0.0
 11
-332.0
 21
161.0
 31
0.0
  0
ARC
  5
153
100
AcDbEntity
  8
PV
100
AcDbCircle
 10
-336.0
 20
163.0
 30
0.0
 40
4.0
100
AcDbArc
 50
210.0
 51
330.0
  0
LINE
  5
154
100
AcDbEntity
  8
PV
100
AcDbLine
 10
-315.704698
 20
162.147153
 30
0.0
 11
-311.297378
 21
155.852847
 31
0.0
  0
LINE
  5
155
100
AcDbEntity
  8
PV
100
AcDbLine
 10
-316.225265
 20
161.147153
 30
0.0
 11
-311.817945
 21
154.852847
 31
0.0
  0
ARC
  5
156
100
AcDbEntity
  8
PV
100
AcDbCircle
 10
-309.659073
 20
157.0
 30
0.0
 40
2.0
100
AcDbArc
 50
215.0
 51
270.0
  0
ARC
  5
157
100
AcDbEntity
  8
PV
100
AcDbCircle
 10
-310.17964
 20
156.0
 30
0.0
 40
2.0
100
AcDbArc
 50
215.0
 51
270.0
  0
ARC
  5
158
100
AcDbEntity
  8
PV
100
AcDbCircle
 10
-317.343002
 20
161.0
 30
0.0
 40
2.0
100
AcDbArc
 50
35.0
 51
90.0
  0
ARC
  5
159
100
AcDbEntity
  8
PV
100
AcDbCircle
 10
-317.863569
 20
160.0
 30
0.0
 40
2.0
100
AcDbArc
 50
35.0
 51
90.000055
  0
ARC
  5
15A
100
AcDbEntity
  8
PV
100
AcDbCircle
 10
-354.136431
 20
160.0
 30
0.0
 40
2.0
100
AcDbArc
 50
90.0
 51
145.0
  0
ARC
  5
15B
100
AcDbEntity
  8
PV
100
AcDbCircle
 10
-354.656998
 20
161.0
 30
0.0
 40
2.0
100
AcDbArc
 50
90.0
 51
145.0
  0
ARC
  5
15C
100
AcDbEntity
  8
PV
100
AcDbCircle
 10
-361.82036
 20
156.0
 30
0.0
 40
2.0
100
AcDbArc
 50
270.0
 51
325.0
  0
ARC
  5
15D
100
AcDbEntity
  8
PV
100
AcDbCircle
 10
-362.340927
 20
157.0
 30
0.0
 40
2.0
100
AcDbArc
 50
270.0
 51
325.0
  0
LINE
  5
15E
100
AcDbEntity
  8
PV
100
AcDbLine
 10
-355.774735
 20
161.147153
 30
0.0
 11
-360.182055
 21
154.852847
 31
0.0
  0
LINE
  5
15F
100
AcDbEntity
  8
PV
100
AcDbLine
 10
-356.295302
 20
162.147153
 30
0.0
 11
-360.702622
 21
155.852847
 31
0.0
  0
LINE
  5
160
100
AcDbEntity
  8
PV
100
AcDbLine
 10
-310.0
 20
155.0
 30
0.0
 11
-286.0
 21
155.0
 31
0.0
  0
LINE
  5
161
100
AcDbEntity
  8
PV
100
AcDbLine
 10
-310.0
 20
154.0
 30
0.0
 11
-286.0
 21
154.0
 31
0.0
  0
LINE
  5
162
100
AcDbEntity
  8
PV
100
AcDbLine
 10
-386.0
 20
154.0
 30
0.0
 11
-361.82036
 21
154.0
 31
0.0
  0
LINE
  5
163
100
AcDbEntity
  8
PV
100
AcDbLine
 10
-386.0
 20
155.0
 30
0.0
 11
-362.340927
 21
155.0
 31
0.0
  0
LINE
  5
164
100
AcDbEntity
  8
PV
100
AcDbLine
 10
-286.0
 20
155.0
 30
0.0
 11
-286.0
 21
154.0
 31
0.0
  0
LINE
  5
165
100
AcDbEntity
  8
PV
100
AcDbLine
 10
-354.136431
 20
162.0
 30
0.0
 11
-317.863571
 21
162.0
 31
0.0
  0
LINE
  5
166
100
AcDbEntity
  8
PV
100
AcDbLine
 10
-354.656998
 20
163.0
 30
0.0
 11
-317.343002
 21
163.0
 31
0.0
  0
LINE
  5
167
100
AcDbEntity
  8
PV
100
AcDbLine
 10
-317.0
 20
184.012503
 30
0.0
 11
-317.0
 21
163.0
 31
0.0
  0
LINE
  5
168
100
AcDbEntity
  8
PV
100
AcDbLine
 10
-355.0
 20
184.012503
 30
0.0
 11
-355.0
 21
163.0
 31
0.0
  0
LINE
  5
169
100
AcDbEntity
  8
PV
100
AcDbLine
 10
-311.142136
 20
253.0
 30
0.0
 11
-297.0
 21
238.857864
 31
0.0
  0
CIRCLE
  5
16A
100
AcDbEntity
  8
PV
100
AcDbCircle
 10
-336.0
 20
214.0
 30
0.0
 40
35.5
  0
CIRCLE
  5
16B
100
AcDbEntity
  8
PV
100
AcDbCircle
 10
-336.0
 20
214.0
 30
0.0
 40
15.0
  0
TEXT
  5
16C
100
AcDbEntity
  8
0
100
AcDbText
 10
-357.119976
 20
230.505143
 30
0.0
 40
3.2
  1
%%c30
 50
324.1
 41
0.9375
  7
MONOTXT
100
AcDbText
  0
LINE
  5
16D
100
AcDbEntity
  8
0
100
AcDbLine
 10
-357.948765
 20
229.869324
 30
0.0
 11
-323.844397
 21
205.211296
 31
0.0
  0
LINE
  5
16E
100
AcDbEntity
  8
PV
100
AcDbLine
 10
-323.844397
 20
205.211296
 30
0.0
 11
-324.249584
 21
205.504253
 31
0.0
  0
POLYLINE
  5
16F
100
AcDbEntity
  8
0
100
AcDb2dPolyline
 66
     1
 10
0.0
 20
0.0
 30
0.0
  0
VERTEX
  5
170
100
AcDbEntity
  8
0
100
AcDbVertex
100
AcDb2dVertex
 10
-326.431118
 20
206.197391
 30
0.0
  0
VERTEX
  5
171
100
AcDbEntity
  8
0
100
AcDbVertex
100
AcDb2dVertex
 10
-323.844397
 20
205.211296
 30
0.0
  0
VERTEX
  5
172
100
AcDbEntity
  8
0
100
AcDbVertex
100
AcDb2dVertex
 10
-325.591515
 20
207.358639
 30
0.0
  0
SEQEND
  5
173
100
AcDbEntity
  8
0
  0
LINE
  5
174
100
AcDbEntity
  8
PV
100
AcDbLine
 10
-348.155603
 20
222.788704
 30
0.0
 11
-347.750416
 21
222.495747
 31
0.0
  0
POLYLINE
  5
175
100
AcDbEntity
  8
0
100
AcDb2dPolyline
 66
     1
 10
0.0
 20
0.0
 30
0.0
  0
VERTEX
  5
176
100
AcDbEntity
  8
0
100
AcDbVertex
100
AcDb2dVertex
 10
-345.568882
 20
221.802609
 30
0.0
  0
VERTEX
  5
177
100
AcDbEntity
  8
0
100
AcDbVertex
100
AcDb2dVertex
 10
-348.155603
 20
222.788704
 30
0.0
  0
VERTEX
  5
178
100
AcDbEntity
  8
0
100
AcDbVertex
100
AcDb2dVertex
 10
-346.408485
 20
220.641361
 30
0.0
  0
SEQEND
  5
179
100
AcDbEntity
  8
0
  0
ENDSEC
  0
SECTION
  2
OBJECTS
  0
DICTIONARY
  5
C
100
AcDbDictionary
  3
ACAD_GROUP
350
D
  3
ACAD_MLINESTYLE
350
E
  0
DICTIONARY
  5
D
102
{ACAD_REACTORS
330
C
102
}
100
AcDbDictionary
  0
DICTIONARY
  5
E
102
{ACAD_REACTORS
330
C
102
}
100
AcDbDictionary
  3
STANDARD
350
1C
  0
MLINESTYLE
  5
1C
102
{ACAD_REACTORS
330
E
102
}
100
AcDbMlineStyle
  2
STANDARD
 70
     0
  3

 62
     0
 51
90.0
 52
90.0
 71
     2
 49
0.5
 62
   256
  6
BYLAYER
 49
-0.5
 62
   256
  6
BYLAYER
  0
ENDSEC
  0
EOF
