  0
SECTION
  2
HEADER
  9
$ACADVER
  1
AC1015
  9
$ACADMAINTVER
 70
     6
  9
$DWGCODEPAGE
  3
ANSI_932
  9
$INSBASE
 10
0.0
 20
0.0
 30
0.0
  9
$EXTMIN
 10
-383.734895
 20
45.200854
 30
0.0
  9
$EXTMAX
 10
-12.11234
 20
273.232874
 30
0.0
  9
$LIMMIN
 10
-383.734895
 20
45.200854
  9
$LIMMAX
 10
-12.11234
 20
273.232874
  9
$ORTHOMODE
 70
     0
  9
$REGENMODE
 70
     1
  9
$FILLMODE
 70
     1
  9
$QTEXTMODE
 70
     0
  9
$MIRRTEXT
 70
     1
  9
$LTSCALE
 40
1.0
  9
$ATTMODE
 70
     1
  9
$TEXTSIZE
 40
3.2
  9
$TRACEWID
 40
0.05
  9
$TEXTSTYLE
  7
MX_NOTE_STANDARD
  9
$CLAYER
  8
LY_1
  9
$CELTYPE
  6
CONTINUOUS
  9
$CECOLOR
 62
   256
  9
$CELTSCALE
 40
1.0
  9
$DISPSILH
 70
     0
  9
$DIMSCALE
 40
1.0
  9
$DIMASZ
 40
2.5
  9
$DIMEXO
 40
0.0
  9
$DIMDLI
 40
3.75
  9
$DIMRND
 40
0.0
  9
$DIMDLE
 40
0.0
  9
$DIMEXE
 40
2.5
  9
$DIMTP
 40
0.0
  9
$DIMTM
 40
0.0
  9
$DIMTXT
 40
3.2
  9
$DIMCEN
 40
2.5
  9
$DIMTSZ
 40
0.0
  9
$DIMTOL
 70
     0
  9
$DIMLIM
 70
     0
  9
$DIMTIH
 70
     0
  9
$DIMTOH
 70
     0
  9
$DIMSE1
 70
     0
  9
$DIMSE2
 70
     0
  9
$DIMTAD
 70
     1
  9
$DIMZIN
 70
     8
  9
$DIMBLK
  1

  9
$DIMASO
 70
     1
  9
$DIMSHO
 70
     1
  9
$DIMPOST
  1

  9
$DIMAPOST
  1

  9
$DIMALT
 70
     0
  9
$DIMALTD
 70
     4
  9
$DIMALTF
 40
0.03937
  9
$DIMLFAC
 40
1.0
  9
$DIMTOFL
 70
     1
  9
$DIMTVP
 40
0.0
  9
$DIMTIX
 70
     0
  9
$DIMSOXD
 70
     0
  9
$DIMSAH
 70
     1
  9
$DIMBLK1
  1
_OPEN30
  9
$DIMBLK2
  1
_OPEN30
  9
$DIMSTYLE
  2
MXDIMSTYLE
  9
$DIMCLRD
 70
     0
  9
$DIMCLRE
 70
     0
  9
$DIMCLRT
 70
     0
  9
$DIMTFAC
 40
1.0
  9
$DIMGAP
 40
1.0
  9
$DIMJUST
 70
     0
  9
$DIMSD1
 70
     0
  9
$DIMSD2
 70
     0
  9
$DIMTOLJ
 70
     0
  9
$DIMTZIN
 70
     0
  9
$DIMALTZ
 70
     0
  9
$DIMALTTZ
 70
     0
  9
$DIMUPT
 70
     0
  9
$DIMDEC
 70
     2
  9
$DIMTDEC
 70
     2
  9
$DIMALTU
 70
     2
  9
$DIMALTTD
 70
     4
  9
$DIMTXSTY
  7
MX_NOTE_STANDARD
  9
$DIMAUNIT
 70
     0
  9
$DIMADEC
 70
     0
  9
$DIMALTRND
 40
0.0
  9
$DIMAZIN
 70
     0
  9
$DIMDSEP
 70
    46
  9
$DIMATFIT
 70
     3
  9
$DIMFRAC
 70
     0
  9
$DIMLDRBLK
  1
_OPEN30
  9
$DIMLUNIT
 70
     2
  9
$DIMLWD
 70
    -2
  9
$DIMLWE
 70
    -2
  9
$DIMTMOVE
 70
     0
  9
$LUNITS
 70
     2
  9
$LUPREC
 70
     4
  9
$SKETCHINC
 40
0.1
  9
$FILLETRAD
 40
0.0
  9
$AUNITS
 70
     0
  9
$AUPREC
 70
     0
  9
$MENU
  1
acad
  9
$ELEVATION
 40
0.0
  9
$PELEVATION
 40
0.0
  9
$THICKNESS
 40
0.0
  9
$LIMCHECK
 70
     0
  9
$CHAMFERA
 40
0.0
  9
$CHAMFERB
 40
0.0
  9
$CHAMFERC
 40
0.0
  9
$CHAMFERD
 40
0.0
  9
$SKPOLY
 70
     0
  9
$TDCREATE
 40
2457847.669108796
  9
$TDUCREATE
 40
0.000000000
  9
$TDUPDATE
 40
2457847.669108796
  9
$TDUUPDATE
 40
0.000000000
  9
$TDINDWG
 40
0.0000000000
  9
$TDUSRTIMER
 40
0.0000000000
  9
$USRTIMER
 70
     1
  9
$ANGBASE
 50
0.0
  9
$ANGDIR
 70
     0
  9
$PDMODE
 70
     0
  9
$PDSIZE
 40
0.0
  9
$PLINEWID
 40
0.0
  9
$SPLFRAME
 70
     0
  9
$SPLINETYPE
 70
     6
  9
$SPLINESEGS
 70
     8
  9
$HANDSEED
  5
47F
  9
$SURFTAB1
 70
     6
  9
$SURFTAB2
 70
     6
  9
$SURFTYPE
 70
     6
  9
$SURFU
 70
     6
  9
$SURFV
 70
     6
  9
$UCSBASE
  2

  9
$UCSNAME
  2

  9
$UCSORG
 10
0.0
 20
0.0
 30
0.0
  9
$UCSXDIR
 10
1.0
 20
0.0
 30
0.0
  9
$UCSYDIR
 10
0.0
 20
1.0
 30
0.0
  9
$UCSORTHOREF
  2

  9
$UCSORTHOVIEW
 70
     0
  9
$UCSORGTOP
 10
0.0
 20
0.0
 30
0.0
  9
$UCSORGBOTTOM
 10
0.0
 20
0.0
 30
0.0
  9
$UCSORGLEFT
 10
0.0
 20
0.0
 30
0.0
  9
$UCSORGRIGHT
 10
0.0
 20
0.0
 30
0.0
  9
$UCSORGFRONT
 10
0.0
 20
0.0
 30
0.0
  9
$UCSORGBACK
 10
0.0
 20
0.0
 30
0.0
  9
$PUCSBASE
  2

  9
$PUCSNAME
  2

  9
$PUCSORG
 10
0.0
 20
0.0
 30
0.0
  9
$PUCSXDIR
 10
1.0
 20
0.0
 30
0.0
  9
$PUCSYDIR
 10
0.0
 20
1.0
 30
0.0
  9
$PUCSORTHOREF
  2

  9
$PUCSORTHOVIEW
 70
     0
  9
$PUCSORGTOP
 10
0.0
 20
0.0
 30
0.0
  9
$PUCSORGBOTTOM
 10
0.0
 20
0.0
 30
0.0
  9
$PUCSORGLEFT
 10
0.0
 20
0.0
 30
0.0
  9
$PUCSORGRIGHT
 10
0.0
 20
0.0
 30
0.0
  9
$PUCSORGFRONT
 10
0.0
 20
0.0
 30
0.0
  9
$PUCSORGBACK
 10
0.0
 20
0.0
 30
0.0
  9
$USERI1
 70
     0
  9
$USERI2
 70
     0
  9
$USERI3
 70
     0
  9
$USERI4
 70
     0
  9
$USERI5
 70
     0
  9
$USERR1
 40
0.0
  9
$USERR2
 40
0.0
  9
$USERR3
 40
0.0
  9
$USERR4
 40
0.0
  9
$USERR5
 40
0.0
  9
$WORLDVIEW
 70
     1
  9
$SHADEDGE
 70
     3
  9
$SHADEDIF
 70
    70
  9
$TILEMODE
 70
     1
  9
$MAXACTVP
 70
    16
  9
$PINSBASE
 10
0.0
 20
0.0
 30
0.0
  9
$PLIMCHECK
 70
     0
  9
$PEXTMIN
 10
1.000000E+20
 20
1.000000E+20
 30
1.000000E+20
  9
$PEXTMAX
 10
-1.000000E+20
 20
-1.000000E+20
 30
-1.000000E+20
  9
$PLIMMIN
 10
0.0
 20
0.0
  9
$PLIMMAX
 10
12.0
 20
9.0
  9
$UNITMODE
 70
     0
  9
$VISRETAIN
 70
     0
  9
$PLINEGEN
 70
     1
  9
$PSLTSCALE
 70
     0
  9
$TREEDEPTH
 70
  3020
  9
$CMLSTYLE
  2
Standard
  9
$CMLJUST
 70
     0
  9
$CMLSCALE
 40
1.0
  9
$PROXYGRAPHICS
 70
     0
  9
$MEASUREMENT
 70
     1
  9
$CELWEIGHT
370
     0
  9
$ENDCAPS
280
     0
  9
$JOINSTYLE
280
     0
  9
$LWDISPLAY
290
     0
  9
$INSUNITS
 70
     0
  9
$HYPERLINKBASE
  1

  9
$STYLESHEET
  1

  9
$XEDIT
290
     1
  9
$CEPSNTYPE
380
     0
  9
$PSTYLEMODE
290
     1
  9
$FINGERPRINTGUID
  2

  9
$VERSIONGUID
  2

  9
$EXTNAMES
290
     1
  9
$PSVPSCALE
 40
0.0
  0
ENDSEC
  0
SECTION
  2
CLASSES
  0
CLASS
  1
LWPOLYLINE
  2
AcDbPolyline
  3
AutoCAD 2000
 90
        0
280
     0
281
     1
  0
CLASS
  1
IMAGE
  2
AcDbRasterImage
  3
ISM
 90
      127
280
     0
281
     1
  0
CLASS
  1
OLE2FRAME
  2
AcDbOle2Frame
  3
AutoCAD 2000
 90
        0
280
     0
281
     1
  0
CLASS
  1
HATCH
  2
AcDbHatch
  3
AutoCAD 2000
 90
        0
280
     0
281
     1
  0
CLASS
  1
DICTIONARYVAR
  2
AcDbDictionaryVar
  3
AutoCAD 2000
 90
        0
280
     0
281
     0
  0
CLASS
  1
RASTERVARIABLES
  2
AcDbRasterVariables
  3
ISM
 90
        0
280
     0
281
     0
  0
CLASS
  1
IMAGEDEF
  2
AcDbRasterImageDef
  3
ISM
 90
        0
280
     0
281
     0
  0
CLASS
  1
IMAGEDEF_REACTOR
  2
AcDbRasterImageDefReactor
  3
ISM
 90
        1
280
     0
281
     0
  0
CLASS
  1
IDBUFFER
  2
AcDbIdBuffer
  3
AutoCAD 2000
 90
        0
280
     0
281
     0
  0
CLASS
  1
SPATIAL_FILTER
  2
AcDbSpatialFilter
  3
AutoCAD 2000
 90
        0
280
     0
281
     0
  0
CLASS
  1
XRECORD
  2
AcDbXrecord
  3
AutoCAD 2000
 90
        0
280
     0
281
     0
  0
CLASS
  1
SORTENTSTABLE
  2
AcDbSortentsTable
  3
AutoCAD 2000
 90
        0
280
     0
281
     0
  0
CLASS
  1
LAYER_INDEX
  2
AcDbLayerIndex
  3
AutoCAD 2000
 90
        0
280
     0
281
     0
  0
CLASS
  1
SPATIAL_INDEX
  2
AcDbSpatialIndex
  3
AutoCAD 2000
 90
        0
280
     0
281
     0
  0
CLASS
  1
OBJECT_PTR
  2
CAseDLPNTableRecord
  3
"ASE-LPNTableRecord"
 90
        1
280
     0
281
     0
  0
CLASS
  1
LAYOUT
  2
AcDbLayout
  3
AutoCAD 2000
 90
        0
280
     0
281
     0
  0
CLASS
  1
PLOTSETTINGS
  2
AcDbPlotSettings
  3
AutoCAD 2000
 90
        0
280
     0
281
     0
  0
CLASS
  1
ACDBDICTIONARYWDFLT
  2
AcDbDictionaryWithDefault
  3
AutoCAD 2000
 90
        0
280
     0
281
     0
  0
CLASS
  1
ACDBPLACEHOLDER
  2
AcDbPlaceHolder
  3
AutoCAD 2000
 90
        0
280
     0
281
     0
  0
ENDSEC
  0
SECTION
  2
TABLES
  0
TABLE
  2
VPORT
  5
7
100
AcDbSymbolTable
 70
     1
  0
VPORT
  5
15
100
AcDbSymbolTableRecord
100
AcDbViewportTableRecord
  2
*ACTIVE
 70
     0
 10
0.0
 20
0.0
 11
1.0
 21
1.0
 12
-197.923617
 22
159.216864
 13
0.0
 23
0.0
 14
1.0
 24
1.0
 15
0.0
 25
0.0
 16
0.0
 26
0.0
 36
1.0
 17
0.0
 27
0.0
 37
0.0
 40
230.31234
 41
1.732051
 42
50.0
 43
0.0
 44
0.0
 50
0.0
 51
0.0
 71
     0
 72
   100
 73
     1
 74
     1
 75
     0
 76
     0
 77
     0
 78
     0
281
     0
 65
     0
110
0.0
120
0.0
130
0.0
111
1.0
121
0.0
131
0.0
112
0.0
122
1.0
132
0.0
345
0
346
0
 79
     0
146
0.0
  0
ENDTAB
  0
TABLE
  2
LTYPE
  5
4
100
AcDbSymbolTable
 70
     4
  0
LTYPE
  5
11
100
AcDbSymbolTableRecord
100
AcDbLinetypeTableRecord
  2
BYBLOCK
 70
    64
  3

 72
    65
 73
     0
 40
0.0
  0
LTYPE
  5
12
100
AcDbSymbolTableRecord
100
AcDbLinetypeTableRecord
  2
BYLAYER
 70
    64
  3

 72
    65
 73
     0
 40
0.0
  0
LTYPE
  5
13
100
AcDbSymbolTableRecord
100
AcDbLinetypeTableRecord
  2
CONTINUOUS
 70
    64
  3
Solid line
 72
    65
 73
     0
 40
0.0
  0
LTYPE
  5
163
100
AcDbSymbolTableRecord
100
AcDbLinetypeTableRecord
  2
DASHED
 70
    64
  3
Dashed __ __ __ __ __ __ __ __ __ __ __ __ __ _
 72
    65
 73
     2
 40
19.05
 49
12.7
 74
     0
 49
-6.35
 74
     0
  0
ENDTAB
  0
TABLE
  2
LAYER
  5
2
100
AcDbSymbolTable
 70
     3
  0
LAYER
  5
14
100
AcDbSymbolTableRecord
100
AcDbLayerTableRecord
  2
0
 70
     0
 62
     7
  6
CONTINUOUS
290
     1
370
    -3
390
1D
  0
LAYER
  5
23
100
AcDbSymbolTableRecord
100
AcDbLayerTableRecord
  2
LY_1
 70
     0
 62
   151
  6
CONTINUOUS
290
     1
370
    -3
390
1D
  0
LAYER
  5
24
100
AcDbSymbolTableRecord
100
AcDbLayerTableRecord
  2
DEFPOINTS
 70
     0
 62
     7
  6
CONTINUOUS
290
     0
370
    -3
390
1D
  0
ENDTAB
  0
TABLE
  2
STYLE
  5
3
100
AcDbSymbolTable
 70
     5
  0
STYLE
  5
17
100
AcDbSymbolTableRecord
100
AcDbTextStyleTableRecord
  2
MX_NOTE_STANDARD
 70
     0
 40
0.0
 41
1.0
 50
0.0
 71
     0
 42
3.2
  3
txt.shx
  4
extfont.shx
  0
STYLE
  5
10D
100
AcDbSymbolTableRecord
100
AcDbTextStyleTableRecord
  2
MX_DIMTXSTY_2
 70
     0
 40
0.0
 41
1.25
 50
0.0
 71
     0
 42
3.2
  3
txt.shx
  4
extfont.shx
  0
STYLE
  5
14E
100
AcDbSymbolTableRecord
100
AcDbTextStyleTableRecord
  2
MX_DIMTXSTY_3
 70
     0
 40
0.0
 41
1.2
 50
0.0
 71
     0
 42
3.2
  3
txt.shx
  4
extfont.shx
  0
STYLE
  5
15C
100
AcDbSymbolTableRecord
100
AcDbTextStyleTableRecord
  2
MX_DIMTXSTY_4
 70
     0
 40
0.0
 41
1.35
 50
0.0
 71
     0
 42
3.2
  3
txt.shx
  4
extfont.shx
  0
STYLE
  5
1A8
100
AcDbSymbolTableRecord
100
AcDbTextStyleTableRecord
  2
MX_DIMTXSTY_5
 70
     0
 40
0.0
 41
1.1
 50
0.0
 71
     0
 42
3.2
  3
txt.shx
  4
extfont.shx
  0
ENDTAB
  0
TABLE
  2
VIEW
  5
5
100
AcDbSymbolTable
 70
     0
  0
ENDTAB
  0
TABLE
  2
UCS
  5
6
100
AcDbSymbolTable
 70
     0
  0
ENDTAB
  0
TABLE
  2
APPID
  5
8
100
AcDbSymbolTable
 70
     1
  0
APPID
  5
16
100
AcDbSymbolTableRecord
100
AcDbRegAppTableRecord
  2
ACAD
 70
     0
  0
ENDTAB
  0
TABLE
  2
DIMSTYLE
  5
9
100
AcDbSymbolTable
 70
     1
100
AcDbDimStyleTable
 71
     0
  0
DIMSTYLE
105
18
100
AcDbSymbolTableRecord
100
AcDbDimStyleTableRecord
  2
MXDIMSTYLE
 70
     0
  3

  4

 40
1.0
 41
2.5
 42
0.0
 43
3.75
 44
2.5
 45
0.0
 46
0.0
 47
0.0
 48
0.0
 71
     0
 72
     0
 73
     0
 74
     0
 75
     0
 76
     0
 77
     1
 78
     8
 79
     0
140
3.2
141
2.5
142
0.0
143
0.03937
144
1.0
145
0.0
146
1.0
147
1.0
148
0.0
170
     0
171
     4
172
     1
173
     1
174
     0
175
     0
176
     0
177
     0
178
     0
179
     0
271
     2
272
     2
273
     2
274
     4
275
     0
276
     0
277
     2
278
    46
279
     0
280
     0
281
     0
282
     0
283
     0
284
     0
285
     0
286
     0
288
     0
289
     3
340
17
341
25
342
0
343
25
344
25
371
    -2
372
    -2
  0
ENDTAB
  0
TABLE
  2
BLOCK_RECORD
  5
1
100
AcDbSymbolTable
 70
    17
  0
BLOCK_RECORD
  5
A
100
AcDbSymbolTableRecord
100
AcDbBlockTableRecord
  2
*MODEL_SPACE
340
20
  0
BLOCK_RECORD
  5
B
100
AcDbSymbolTableRecord
100
AcDbBlockTableRecord
  2
*PAPER_SPACE
340
21
  0
BLOCK_RECORD
  5
25
100
AcDbSymbolTableRecord
100
AcDbBlockTableRecord
  2
_OPEN30
340
0
102
{BLKREFS
331
203
331
207
102
}
  0
BLOCK_RECORD
  5
100
100
AcDbSymbolTableRecord
100
AcDbBlockTableRecord
  2
*D1
340
0
  0
BLOCK_RECORD
  5
105
100
AcDbSymbolTableRecord
100
AcDbBlockTableRecord
  2
_OPEN
340
0
102
{BLKREFS
331
10B
331
10C
331
119
331
11A
331
127
331
128
331
14C
331
14D
331
15A
331
15B
331
198
331
199
331
1A6
331
1A7
331
1B3
331
1BB
331
1BC
331
1C8
331
1C9
331
1D5
331
1D6
331
1E2
331
1E3
331
1EF
331
1F0
331
219
331
21A
331
226
331
227
331
233
331
234
102
}
  0
BLOCK_RECORD
  5
114
100
AcDbSymbolTableRecord
100
AcDbBlockTableRecord
  2
*D3
340
0
  0
BLOCK_RECORD
  5
121
100
AcDbSymbolTableRecord
100
AcDbBlockTableRecord
  2
*D4
340
0
  0
BLOCK_RECORD
  5
147
100
AcDbSymbolTableRecord
100
AcDbBlockTableRecord
  2
*D5
340
0
  0
BLOCK_RECORD
  5
155
100
AcDbSymbolTableRecord
100
AcDbBlockTableRecord
  2
*D6
340
0
  0
BLOCK_RECORD
  5
193
100
AcDbSymbolTableRecord
100
AcDbBlockTableRecord
  2
*D7
340
0
  0
BLOCK_RECORD
  5
1A0
100
AcDbSymbolTableRecord
100
AcDbBlockTableRecord
  2
*D8
340
0
  0
BLOCK_RECORD
  5
1B6
100
AcDbSymbolTableRecord
100
AcDbBlockTableRecord
  2
*D9
340
0
  0
BLOCK_RECORD
  5
1C3
100
AcDbSymbolTableRecord
100
AcDbBlockTableRecord
  2
*D10
340
0
  0
BLOCK_RECORD
  5
1D0
100
AcDbSymbolTableRecord
100
AcDbBlockTableRecord
  2
*D11
340
0
  0
BLOCK_RECORD
  5
1DD
100
AcDbSymbolTableRecord
100
AcDbBlockTableRecord
  2
*D12
340
0
  0
BLOCK_RECORD
  5
1EA
100
AcDbSymbolTableRecord
100
AcDbBlockTableRecord
  2
*D13
340
0
  0
BLOCK_RECORD
  5
214
100
AcDbSymbolTableRecord
100
AcDbBlockTableRecord
  2
*D14
340
0
  0
BLOCK_RECORD
  5
221
100
AcDbSymbolTableRecord
100
AcDbBlockTableRecord
  2
*D15
340
0
  0
BLOCK_RECORD
  5
22E
100
AcDbSymbolTableRecord
100
AcDbBlockTableRecord
  2
*D16
340
0
  0
ENDTAB
  0
ENDSEC
  0
SECTION
  2
BLOCKS
  0
BLOCK
  5
D
100
AcDbEntity
  8
0
390
0
100
AcDbBlockBegin
  2
*MODEL_SPACE
 70
     0
 10
0.0
 20
0.0
 30
0.0
  3
*MODEL_SPACE
  1

  0
ENDBLK
  5
E
100
AcDbEntity
  8
0
390
0
100
AcDbBlockEnd
  0
BLOCK
  5
F
100
AcDbEntity
 67
     1
  8
0
390
0
100
AcDbBlockBegin
  2
*PAPER_SPACE
 70
     0
 10
0.0
 20
0.0
 30
0.0
  3
*PAPER_SPACE
  1

  0
ENDBLK
  5
10
100
AcDbEntity
 67
     1
  8
0
390
0
100
AcDbBlockEnd
  0
BLOCK
  5
26
100
AcDbEntity
  8
0
370
    -2
390
0
  6
ByBlock
 62
     0
100
AcDbBlockBegin
  2
_OPEN30
 70
     2
 10
0.0
 20
0.0
 30
0.0
  3
_OPEN30
  1

  0
LINE
  5
27
100
AcDbEntity
  8
0
370
    -2
390
0
  6
ByBlock
 62
     0
100
AcDbLine
 10
-1.0
 20
0.267949
 30
0.0
 11
0.0
 21
0.0
 31
0.0
  0
LINE
  5
28
100
AcDbEntity
  8
0
370
    -2
390
0
  6
ByBlock
 62
     0
100
AcDbLine
 10
0.0
 20
0.0
 30
0.0
 11
-1.0
 21
-0.267949
 31
0.0
  0
LINE
  5
29
100
AcDbEntity
  8
0
370
    -2
390
0
  6
ByBlock
 62
     0
100
AcDbLine
 10
0.0
 20
0.0
 30
0.0
 11
-1.0
 21
0.0
 31
0.0
  0
ENDBLK
  5
2A
100
AcDbEntity
  8
0
370
    -2
390
0
  6
ByBlock
 62
     0
100
AcDbBlockEnd
  0
BLOCK
  5
101
100
AcDbEntity
  8
0
370
    -2
390
0
  6
ByBlock
 62
     0
100
AcDbBlockBegin
  2
*D1
 70
     1
 10
0.0
 20
0.0
 30
0.0
  3
*D1
  1

  0
LINE
  5
102
100
AcDbEntity
  8
0
390
0
  6
CONTINUOUS
 62
   230
100
AcDbLine
 10
-284.618741
 20
252.383171
 30
0.0
 11
-284.618741
 21
181.883171
 31
0.0
  0
LINE
  5
103
100
AcDbEntity
  8
0
390
0
  6
CONTINUOUS
 62
   230
100
AcDbLine
 10
-318.430905
 20
252.383171
 30
0.0
 11
-282.618741
 21
252.383171
 31
0.0
  0
LINE
  5
104
100
AcDbEntity
  8
0
390
0
  6
CONTINUOUS
 62
   230
100
AcDbLine
 10
-333.450906
 20
181.883171
 30
0.0
 11
-282.618741
 21
181.883171
 31
0.0
  0
INSERT
  5
10B
100
AcDbEntity
  8
0
390
0
  6
CONTINUOUS
 62
   230
100
AcDbBlockReference
  2
_OPEN
 10
-284.618741
 20
252.383171
 30
0.0
 41
3.0
 42
3.0
 43
3.0
 50
90.0
  0
INSERT
  5
10C
100
AcDbEntity
  8
0
390
0
  6
CONTINUOUS
 62
   230
100
AcDbBlockReference
  2
_OPEN
 10
-284.618741
 20
181.883171
 30
0.0
 41
3.0
 42
3.0
 43
3.0
 50
270.0
  0
MTEXT
  5
10E
100
AcDbEntity
  8
0
390
0
  6
CONTINUOUS
 62
   230
100
AcDbMText
 10
-287.193741
 20
216.755314
 30
0.0
 40
3.15
 41
0.0
 71
     5
 72
     1
  1
\A1;70.5
  7
MX_DIMTXSTY_2
 11
0.0
 21
1.0
 31
0.0
 73
     1
 44
0.9
  0
POINT
  5
10F
100
AcDbEntity
  8
DEFPOINTS
390
0
  6
CONTINUOUS
 62
     0
100
AcDbPoint
 10
-319.430905
 20
252.383171
 30
0.0
  0
POINT
  5
110
100
AcDbEntity
  8
DEFPOINTS
390
0
  6
CONTINUOUS
 62
     0
100
AcDbPoint
 10
-334.450906
 20
181.883171
 30
0.0
  0
POINT
  5
111
100
AcDbEntity
  8
DEFPOINTS
390
0
  6
CONTINUOUS
 62
     0
100
AcDbPoint
 10
-284.618741
 20
181.883171
 30
0.0
  0
ENDBLK
  5
112
100
AcDbEntity
  8
0
370
    -2
390
0
  6
ByBlock
 62
     0
100
AcDbBlockEnd
  0
BLOCK
  5
106
100
AcDbEntity
  8
0
370
    -2
390
0
  6
ByBlock
 62
     0
100
AcDbBlockBegin
  2
_OPEN
 70
     2
 10
0.0
 20
0.0
 30
0.0
  3
_OPEN
  1

  0
LINE
  5
107
100
AcDbEntity
  8
0
370
    -2
390
0
  6
ByBlock
 62
     0
100
AcDbLine
 10
-1.0
 20
0.166667
 30
0.0
 11
0.0
 21
0.0
 31
0.0
  0
LINE
  5
108
100
AcDbEntity
  8
0
370
    -2
390
0
  6
ByBlock
 62
     0
100
AcDbLine
 10
0.0
 20
0.0
 30
0.0
 11
-1.0
 21
-0.166667
 31
0.0
  0
LINE
  5
109
100
AcDbEntity
  8
0
370
    -2
390
0
  6
ByBlock
 62
     0
100
AcDbLine
 10
0.0
 20
0.0
 30
0.0
 11
-1.0
 21
0.0
 31
0.0
  0
ENDBLK
  5
10A
100
AcDbEntity
  8
0
370
    -2
390
0
  6
ByBlock
 62
     0
100
AcDbBlockEnd
  0
BLOCK
  5
115
100
AcDbEntity
  8
0
370
    -2
390
0
  6
ByBlock
 62
     0
100
AcDbBlockBegin
  2
*D3
 70
     1
 10
0.0
 20
0.0
 30
0.0
  3
*D3
  1

  0
LINE
  5
116
100
AcDbEntity
  8
0
390
0
  6
CONTINUOUS
 62
   230
100
AcDbLine
 10
-187.155693
 20
237.883171
 30
0.0
 11
-187.155693
 21
181.883171
 31
0.0
  0
LINE
  5
117
100
AcDbEntity
  8
0
390
0
  6
CONTINUOUS
 62
   230
100
AcDbLine
 10
-194.49322
 20
237.883171
 30
0.0
 11
-185.155693
 21
237.883171
 31
0.0
  0
LINE
  5
118
100
AcDbEntity
  8
0
390
0
  6
CONTINUOUS
 62
   230
100
AcDbLine
 10
-194.69322
 20
181.883171
 30
0.0
 11
-185.155693
 21
181.883171
 31
0.0
  0
INSERT
  5
119
100
AcDbEntity
  8
0
390
0
  6
CONTINUOUS
 62
   230
100
AcDbBlockReference
  2
_OPEN
 10
-187.155693
 20
237.883171
 30
0.0
 41
3.0
 42
3.0
 43
3.0
 50
90.0
  0
INSERT
  5
11A
100
AcDbEntity
  8
0
390
0
  6
CONTINUOUS
 62
   230
100
AcDbBlockReference
  2
_OPEN
 10
-187.155693
 20
181.883171
 30
0.0
 41
3.0
 42
3.0
 43
3.0
 50
270.0
  0
MTEXT
  5
11B
100
AcDbEntity
  8
0
390
0
  6
CONTINUOUS
 62
   230
100
AcDbMText
 10
-189.730693
 20
209.883171
 30
0.0
 40
3.15
 41
0.0
 71
     5
 72
     1
  1
\A1;56
 11
0.0
 21
1.0
 31
0.0
 73
     1
 44
0.9
  0
POINT
  5
11C
100
AcDbEntity
  8
DEFPOINTS
390
0
  6
CONTINUOUS
 62
     0
100
AcDbPoint
 10
-195.49322
 20
237.883171
 30
0.0
  0
POINT
  5
11D
100
AcDbEntity
  8
DEFPOINTS
390
0
  6
CONTINUOUS
 62
     0
100
AcDbPoint
 10
-195.69322
 20
181.883171
 30
0.0
  0
POINT
  5
11E
100
AcDbEntity
  8
DEFPOINTS
390
0
  6
CONTINUOUS
 62
     0
100
AcDbPoint
 10
-187.155693
 20
181.883171
 30
0.0
  0
ENDBLK
  5
11F
100
AcDbEntity
  8
0
370
    -2
390
0
  6
ByBlock
 62
     0
100
AcDbBlockEnd
  0
BLOCK
  5
122
100
AcDbEntity
  8
0
370
    -2
390
0
  6
ByBlock
 62
     0
100
AcDbBlockBegin
  2
*D4
 70
     1
 10
0.0
 20
0.0
 30
0.0
  3
*D4
  1

  0
LINE
  5
123
100
AcDbEntity
  8
0
390
0
  6
CONTINUOUS
 62
   230
100
AcDbLine
 10
-357.574439
 20
242.472517
 30
0.0
 11
-347.287371
 21
236.293826
 31
0.0
  0
LINE
  5
124
100
AcDbEntity
  8
0
390
0
  6
CONTINUOUS
 62
   230
100
AcDbLine
 10
-379.345494
 20
255.548802
 30
0.0
 11
-357.574439
 21
242.472517
 31
0.0
  0
LINE
  5
125
100
AcDbEntity
  8
0
390
0
  6
CONTINUOUS
 62
   230
100
AcDbLine
 10
-357.574439
 20
242.472517
 30
0.0
 11
-361.003462
 21
244.532081
 31
0.0
  0
LINE
  5
126
100
AcDbEntity
  8
0
390
0
  6
CONTINUOUS
 62
   230
100
AcDbLine
 10
-347.287371
 20
236.293826
 30
0.0
 11
-343.858348
 21
234.234262
 31
0.0
  0
INSERT
  5
127
100
AcDbEntity
  8
0
390
0
  6
CONTINUOUS
 62
   230
100
AcDbBlockReference
  2
_OPEN
 10
-347.287371
 20
236.293826
 30
0.0
 41
3.0
 42
3.0
 43
3.0
 50
149.009833
  0
INSERT
  5
128
100
AcDbEntity
  8
0
390
0
  6
CONTINUOUS
 62
   230
100
AcDbBlockReference
  2
_OPEN
 10
-357.574439
 20
242.472517
 30
0.0
 41
3.0
 42
3.0
 43
3.0
 50
329.009833
  0
MTEXT
  5
129
100
AcDbEntity
  8
0
390
0
  6
CONTINUOUS
 62
   230
100
AcDbMText
 10
-374.149127
 20
255.460657
 30
0.0
 40
3.2
 41
0.0
 71
     5
 72
     1
  1
\A1;\U+220512
 11
0.857256
 21
-0.514891
 31
0.0
 73
     1
 44
0.9
  0
POINT
  5
12A
100
AcDbEntity
  8
DEFPOINTS
390
0
  6
CONTINUOUS
 62
     0
100
AcDbPoint
 10
-347.287371
 20
236.293826
 30
0.0
  0
POINT
  5
12B
100
AcDbEntity
  8
DEFPOINTS
390
0
  6
CONTINUOUS
 62
     0
100
AcDbPoint
 10
-357.574439
 20
242.472517
 30
0.0
  0
ENDBLK
  5
12C
100
AcDbEntity
  8
0
370
    -2
390
0
  6
ByBlock
 62
     0
100
AcDbBlockEnd
  0
BLOCK
  5
148
100
AcDbEntity
  8
0
370
    -2
390
0
  6
ByBlock
 62
     0
100
AcDbBlockBegin
  2
*D5
 70
     1
 10
0.0
 20
0.0
 30
0.0
  3
*D5
  1

  0
LINE
  5
149
100
AcDbEntity
  8
0
390
0
  6
CONTINUOUS
 62
   230
100
AcDbLine
 10
-247.69322
 20
260.383171
 30
0.0
 11
-195.49322
 21
260.383171
 31
0.0
  0
LINE
  5
14A
100
AcDbEntity
  8
0
390
0
  6
CONTINUOUS
 62
   230
100
AcDbLine
 10
-247.69322
 20
253.383171
 30
0.0
 11
-247.69322
 21
262.383171
 31
0.0
  0
LINE
  5
14B
100
AcDbEntity
  8
0
390
0
  6
CONTINUOUS
 62
   230
100
AcDbLine
 10
-195.49322
 20
238.883171
 30
0.0
 11
-195.49322
 21
262.383171
 31
0.0
  0
INSERT
  5
14C
100
AcDbEntity
  8
0
390
0
  6
CONTINUOUS
 62
   230
100
AcDbBlockReference
  2
_OPEN
 10
-247.69322
 20
260.383171
 30
0.0
 41
3.0
 42
3.0
 43
3.0
 50
180.0
  0
INSERT
  5
14D
100
AcDbEntity
  8
0
390
0
  6
CONTINUOUS
 62
   230
100
AcDbBlockReference
  2
_OPEN
 10
-195.49322
 20
260.383171
 30
0.0
 41
3.0
 42
3.0
 43
3.0
  0
MTEXT
  5
14F
100
AcDbEntity
  8
0
390
0
  6
CONTINUOUS
 62
   230
100
AcDbMText
 10
-221.59322
 20
262.958171
 30
0.0
 40
3.15
 41
0.0
 71
     5
 72
     1
  1
\A1;52.2
  7
MX_DIMTXSTY_3
 73
     1
 44
0.9
  0
POINT
  5
150
100
AcDbEntity
  8
DEFPOINTS
390
0
  6
CONTINUOUS
 62
     0
100
AcDbPoint
 10
-247.69322
 20
252.383171
 30
0.0
  0
POINT
  5
151
100
AcDbEntity
  8
DEFPOINTS
390
0
  6
CONTINUOUS
 62
     0
100
AcDbPoint
 10
-195.49322
 20
237.883171
 30
0.0
  0
POINT
  5
152
100
AcDbEntity
  8
DEFPOINTS
390
0
  6
CONTINUOUS
 62
     0
100
AcDbPoint
 10
-195.49322
 20
260.383171
 30
0.0
  0
ENDBLK
  5
153
100
AcDbEntity
  8
0
370
    -2
390
0
  6
ByBlock
 62
     0
100
AcDbBlockEnd
  0
BLOCK
  5
156
100
AcDbEntity
  8
0
370
    -2
390
0
  6
ByBlock
 62
     0
100
AcDbBlockBegin
  2
*D6
 70
     1
 10
0.0
 20
0.0
 30
0.0
  3
*D6
  1

  0
LINE
  5
157
100
AcDbEntity
  8
0
390
0
  6
CONTINUOUS
 62
   230
100
AcDbLine
 10
-257.69322
 20
260.383171
 30
0.0
 11
-247.69322
 21
260.383171
 31
0.0
  0
LINE
  5
158
100
AcDbEntity
  8
0
390
0
  6
CONTINUOUS
 62
   230
100
AcDbLine
 10
-257.69322
 20
252.883171
 30
0.0
 11
-257.69322
 21
262.383171
 31
0.0
  0
LINE
  5
159
100
AcDbEntity
  8
0
390
0
  6
CONTINUOUS
 62
   230
100
AcDbLine
 10
-247.69322
 20
253.383171
 30
0.0
 11
-247.69322
 21
262.383171
 31
0.0
  0
INSERT
  5
15A
100
AcDbEntity
  8
0
390
0
  6
CONTINUOUS
 62
   230
100
AcDbBlockReference
  2
_OPEN
 10
-257.69322
 20
260.383171
 30
0.0
 41
3.0
 42
3.0
 43
3.0
 50
180.0
  0
INSERT
  5
15B
100
AcDbEntity
  8
0
390
0
  6
CONTINUOUS
 62
   230
100
AcDbBlockReference
  2
_OPEN
 10
-247.69322
 20
260.383171
 30
0.0
 41
3.0
 42
3.0
 43
3.0
  0
MTEXT
  5
15D
100
AcDbEntity
  8
0
390
0
  6
CONTINUOUS
 62
   230
100
AcDbMText
 10
-252.69322
 20
262.958171
 30
0.0
 40
3.15
 41
0.0
 71
     5
 72
     1
  1
\A1;10
  7
MX_DIMTXSTY_4
 73
     1
 44
0.9
  0
POINT
  5
15E
100
AcDbEntity
  8
DEFPOINTS
390
0
  6
CONTINUOUS
 62
     0
100
AcDbPoint
 10
-257.69322
 20
251.883171
 30
0.0
  0
POINT
  5
15F
100
AcDbEntity
  8
DEFPOINTS
390
0
  6
CONTINUOUS
 62
     0
100
AcDbPoint
 10
-247.69322
 20
252.383171
 30
0.0
  0
POINT
  5
160
100
AcDbEntity
  8
DEFPOINTS
390
0
  6
CONTINUOUS
 62
     0
100
AcDbPoint
 10
-247.69322
 20
260.383171
 30
0.0
  0
ENDBLK
  5
161
100
AcDbEntity
  8
0
370
    -2
390
0
  6
ByBlock
 62
     0
100
AcDbBlockEnd
  0
BLOCK
  5
194
100
AcDbEntity
  8
0
370
    -2
390
0
  6
ByBlock
 62
     0
100
AcDbBlockBegin
  2
*D7
 70
     1
 10
0.0
 20
0.0
 30
0.0
  3
*D7
  1

  0
LINE
  5
195
100
AcDbEntity
  8
0
390
0
  6
CONTINUOUS
 62
   230
100
AcDbLine
 10
-294.530905
 20
80.27759
 30
0.0
 11
-294.530905
 21
67.27759
 31
0.0
  0
LINE
  5
196
100
AcDbEntity
  8
0
390
0
  6
CONTINUOUS
 62
   230
100
AcDbLine
 10
-322.930904
 20
80.27759
 30
0.0
 11
-292.530905
 21
80.27759
 31
0.0
  0
LINE
  5
197
100
AcDbEntity
  8
0
390
0
  6
CONTINUOUS
 62
   230
100
AcDbLine
 10
-322.130905
 20
67.27759
 30
0.0
 11
-292.530905
 21
67.27759
 31
0.0
  0
INSERT
  5
198
100
AcDbEntity
  8
0
390
0
  6
CONTINUOUS
 62
   230
100
AcDbBlockReference
  2
_OPEN
 10
-294.530905
 20
80.27759
 30
0.0
 41
3.0
 42
3.0
 43
3.0
 50
90.0
  0
INSERT
  5
199
100
AcDbEntity
  8
0
390
0
  6
CONTINUOUS
 62
   230
100
AcDbBlockReference
  2
_OPEN
 10
-294.530905
 20
67.27759
 30
0.0
 41
3.0
 42
3.0
 43
3.0
 50
270.0
  0
MTEXT
  5
19A
100
AcDbEntity
  8
0
390
0
  6
CONTINUOUS
 62
   230
100
AcDbMText
 10
-297.105904
 20
73.3087
 30
0.0
 40
3.15
 41
0.0
 71
     5
 72
     1
  1
\A1;13
  7
MX_DIMTXSTY_3
 11
0.0
 21
1.0
 31
0.0
 73
     1
 44
0.9
  0
POINT
  5
19B
100
AcDbEntity
  8
DEFPOINTS
390
0
  6
CONTINUOUS
 62
     0
100
AcDbPoint
 10
-323.930904
 20
80.27759
 30
0.0
  0
POINT
  5
19C
100
AcDbEntity
  8
DEFPOINTS
390
0
  6
CONTINUOUS
 62
     0
100
AcDbPoint
 10
-323.130905
 20
67.27759
 30
0.0
  0
POINT
  5
19D
100
AcDbEntity
  8
DEFPOINTS
390
0
  6
CONTINUOUS
 62
     0
100
AcDbPoint
 10
-294.530905
 20
67.27759
 30
0.0
  0
ENDBLK
  5
19E
100
AcDbEntity
  8
0
370
    -2
390
0
  6
ByBlock
 62
     0
100
AcDbBlockEnd
  0
BLOCK
  5
1A1
100
AcDbEntity
  8
0
370
    -2
390
0
  6
ByBlock
 62
     0
100
AcDbBlockBegin
  2
*D8
 70
     1
 10
0.0
 20
0.0
 30
0.0
  3
*D8
  1

  0
LINE
  5
1A2
100
AcDbEntity
  8
0
390
0
  6
CONTINUOUS
 62
   230
100
AcDbLine
 10
-294.530905
 20
67.27759
 30
0.0
 11
-294.530905
 21
56.57759
 31
0.0
  0
LINE
  5
1A3
100
AcDbEntity
  8
0
390
0
  6
CONTINUOUS
 62
   230
100
AcDbLine
 10
-294.530905
 20
56.57759
 30
0.0
 11
-294.530905
 21
45.200854
 31
0.0
  0
LINE
  5
1A4
100
AcDbEntity
  8
0
390
0
  6
CONTINUOUS
 62
   230
100
AcDbLine
 10
-322.130905
 20
67.27759
 30
0.0
 11
-292.530905
 21
67.27759
 31
0.0
  0
LINE
  5
1A5
100
AcDbEntity
  8
0
390
0
  6
CONTINUOUS
 62
   230
100
AcDbLine
 10
-310.930904
 20
56.57759
 30
0.0
 11
-292.530905
 21
56.57759
 31
0.0
  0
INSERT
  5
1A6
100
AcDbEntity
  8
0
390
0
  6
CONTINUOUS
 62
   230
100
AcDbBlockReference
  2
_OPEN
 10
-294.530905
 20
67.27759
 30
0.0
 41
3.0
 42
3.0
 43
3.0
 50
90.0
  0
INSERT
  5
1A7
100
AcDbEntity
  8
0
390
0
  6
CONTINUOUS
 62
   230
100
AcDbBlockReference
  2
_OPEN
 10
-294.530905
 20
56.57759
 30
0.0
 41
3.0
 42
3.0
 43
3.0
 50
270.0
  0
MTEXT
  5
1A9
100
AcDbEntity
  8
0
390
0
  6
CONTINUOUS
 62
   230
100
AcDbMText
 10
-297.105905
 20
50.200854
 30
0.0
 40
3.15
 41
0.0
 71
     5
 72
     1
  1
\A1;10.7
  7
MX_DIMTXSTY_5
 11
0.0
 21
1.0
 31
0.0
 73
     1
 44
0.9
  0
POINT
  5
1AA
100
AcDbEntity
  8
DEFPOINTS
390
0
  6
CONTINUOUS
 62
     0
100
AcDbPoint
 10
-323.130905
 20
67.27759
 30
0.0
  0
POINT
  5
1AB
100
AcDbEntity
  8
DEFPOINTS
390
0
  6
CONTINUOUS
 62
     0
100
AcDbPoint
 10
-311.930904
 20
56.57759
 30
0.0
  0
POINT
  5
1AC
100
AcDbEntity
  8
DEFPOINTS
390
0
  6
CONTINUOUS
 62
     0
100
AcDbPoint
 10
-294.530905
 20
56.57759
 30
0.0
  0
ENDBLK
  5
1AD
100
AcDbEntity
  8
0
370
    -2
390
0
  6
ByBlock
 62
     0
100
AcDbBlockEnd
  0
BLOCK
  5
1B7
100
AcDbEntity
  8
0
370
    -2
390
0
  6
ByBlock
 62
     0
100
AcDbBlockBegin
  2
*D9
 70
     1
 10
0.0
 20
0.0
 30
0.0
  3
*D9
  1

  0
LINE
  5
1B8
100
AcDbEntity
  8
0
390
0
  6
CONTINUOUS
 62
   230
100
AcDbLine
 10
-378.797395
 20
56.87759
 30
0.0
 11
-378.797395
 21
117.07759
 31
0.0
  0
LINE
  5
1B9
100
AcDbEntity
  8
0
390
0
  6
CONTINUOUS
 62
   230
100
AcDbLine
 10
-368.930906
 20
56.87759
 30
0.0
 11
-380.797395
 21
56.87759
 31
0.0
  0
LINE
  5
1BA
100
AcDbEntity
  8
0
390
0
  6
CONTINUOUS
 62
   230
100
AcDbLine
 10
-366.830905
 20
117.07759
 30
0.0
 11
-380.797395
 21
117.07759
 31
0.0
  0
INSERT
  5
1BB
100
AcDbEntity
  8
0
390
0
  6
CONTINUOUS
 62
   230
100
AcDbBlockReference
  2
_OPEN
 10
-378.797395
 20
56.87759
 30
0.0
 41
3.0
 42
3.0
 43
3.0
 50
270.0
  0
INSERT
  5
1BC
100
AcDbEntity
  8
0
390
0
  6
CONTINUOUS
 62
   230
100
AcDbBlockReference
  2
_OPEN
 10
-378.797395
 20
117.07759
 30
0.0
 41
3.0
 42
3.0
 43
3.0
 50
90.0
  0
MTEXT
  5
1BD
100
AcDbEntity
  8
0
390
0
  6
CONTINUOUS
 62
   230
100
AcDbMText
 10
-381.372395
 20
88.081583
 30
0.0
 40
3.15
 41
0.0
 71
     5
 72
     1
  1
\A1;60.2
  7
MX_DIMTXSTY_2
 11
0.0
 21
1.0
 31
0.0
 73
     1
 44
0.9
  0
POINT
  5
1BE
100
AcDbEntity
  8
DEFPOINTS
390
0
  6
CONTINUOUS
 62
     0
100
AcDbPoint
 10
-367.930906
 20
56.87759
 30
0.0
  0
POINT
  5
1BF
100
AcDbEntity
  8
DEFPOINTS
390
0
  6
CONTINUOUS
 62
     0
100
AcDbPoint
 10
-365.830905
 20
117.07759
 30
0.0
  0
POINT
  5
1C0
100
AcDbEntity
  8
DEFPOINTS
390
0
  6
CONTINUOUS
 62
     0
100
AcDbPoint
 10
-378.797395
 20
117.07759
 30
0.0
  0
ENDBLK
  5
1C1
100
AcDbEntity
  8
0
370
    -2
390
0
  6
ByBlock
 62
     0
100
AcDbBlockEnd
  0
BLOCK
  5
1C4
100
AcDbEntity
  8
0
370
    -2
390
0
  6
ByBlock
 62
     0
100
AcDbBlockBegin
  2
*D10
 70
     1
 10
0.0
 20
0.0
 30
0.0
  3
*D10
  1

  0
LINE
  5
1C5
100
AcDbEntity
  8
0
390
0
  6
CONTINUOUS
 62
   230
100
AcDbLine
 10
-272.74322
 20
268.295374
 30
0.0
 11
-195.49322
 21
268.295374
 31
0.0
  0
LINE
  5
1C6
100
AcDbEntity
  8
0
390
0
  6
CONTINUOUS
 62
   230
100
AcDbLine
 10
-272.74322
 20
233.88317
 30
0.0
 11
-272.74322
 21
270.295374
 31
0.0
  0
LINE
  5
1C7
100
AcDbEntity
  8
0
390
0
  6
CONTINUOUS
 62
   230
100
AcDbLine
 10
-195.49322
 20
238.883172
 30
0.0
 11
-195.49322
 21
270.295374
 31
0.0
  0
INSERT
  5
1C8
100
AcDbEntity
  8
0
390
0
  6
CONTINUOUS
 62
   230
100
AcDbBlockReference
  2
_OPEN
 10
-272.74322
 20
268.295374
 30
0.0
 41
3.0
 42
3.0
 43
3.0
 50
180.0
  0
INSERT
  5
1C9
100
AcDbEntity
  8
0
390
0
  6
CONTINUOUS
 62
   230
100
AcDbBlockReference
  2
_OPEN
 10
-195.49322
 20
268.295374
 30
0.0
 41
3.0
 42
3.0
 43
3.0
  0
MTEXT
  5
1CA
100
AcDbEntity
  8
0
390
0
  6
CONTINUOUS
 62
   230
100
AcDbMText
 10
-234.11822
 20
270.870374
 30
0.0
 40
3.15
 41
0.0
 71
     5
 72
     1
  1
\A1;77.2
  7
MX_DIMTXSTY_3
 73
     1
 44
0.9
  0
POINT
  5
1CB
100
AcDbEntity
  8
DEFPOINTS
390
0
  6
CONTINUOUS
 62
     0
100
AcDbPoint
 10
-272.74322
 20
232.88317
 30
0.0
  0
POINT
  5
1CC
100
AcDbEntity
  8
DEFPOINTS
390
0
  6
CONTINUOUS
 62
     0
100
AcDbPoint
 10
-195.49322
 20
237.883172
 30
0.0
  0
POINT
  5
1CD
100
AcDbEntity
  8
DEFPOINTS
390
0
  6
CONTINUOUS
 62
     0
100
AcDbPoint
 10
-195.49322
 20
268.295374
 30
0.0
  0
ENDBLK
  5
1CE
100
AcDbEntity
  8
0
370
    -2
390
0
  6
ByBlock
 62
     0
100
AcDbBlockEnd
  0
BLOCK
  5
1D1
100
AcDbEntity
  8
0
370
    -2
390
0
  6
ByBlock
 62
     0
100
AcDbBlockBegin
  2
*D11
 70
     1
 10
0.0
 20
0.0
 30
0.0
  3
*D11
  1

  0
LINE
  5
1D2
100
AcDbEntity
  8
0
390
0
  6
CONTINUOUS
 62
   230
100
AcDbLine
 10
-365.430905
 20
260.383171
 30
0.0
 11
-314.430905
 21
260.383171
 31
0.0
  0
LINE
  5
1D3
100
AcDbEntity
  8
0
390
0
  6
CONTINUOUS
 62
   230
100
AcDbLine
 10
-365.430905
 20
248.383171
 30
0.0
 11
-365.430905
 21
262.383171
 31
0.0
  0
LINE
  5
1D4
100
AcDbEntity
  8
0
390
0
  6
CONTINUOUS
 62
   230
100
AcDbLine
 10
-314.430905
 20
248.383171
 30
0.0
 11
-314.430905
 21
262.383171
 31
0.0
  0
INSERT
  5
1D5
100
AcDbEntity
  8
0
390
0
  6
CONTINUOUS
 62
   230
100
AcDbBlockReference
  2
_OPEN
 10
-365.430905
 20
260.383171
 30
0.0
 41
3.0
 42
3.0
 43
3.0
 50
180.0
  0
INSERT
  5
1D6
100
AcDbEntity
  8
0
390
0
  6
CONTINUOUS
 62
   230
100
AcDbBlockReference
  2
_OPEN
 10
-314.430905
 20
260.383171
 30
0.0
 41
3.0
 42
3.0
 43
3.0
  0
MTEXT
  5
1D7
100
AcDbEntity
  8
0
390
0
  6
CONTINUOUS
 62
   230
100
AcDbMText
 10
-339.745818
 20
262.958171
 30
0.0
 40
3.15
 41
0.0
 71
     5
 72
     1
  1
\A1;51
  7
MX_DIMTXSTY_3
 73
     1
 44
0.9
  0
POINT
  5
1D8
100
AcDbEntity
  8
DEFPOINTS
390
0
  6
CONTINUOUS
 62
     0
100
AcDbPoint
 10
-365.430905
 20
247.383171
 30
0.0
  0
POINT
  5
1D9
100
AcDbEntity
  8
DEFPOINTS
390
0
  6
CONTINUOUS
 62
     0
100
AcDbPoint
 10
-314.430905
 20
247.383171
 30
0.0
  0
POINT
  5
1DA
100
AcDbEntity
  8
DEFPOINTS
390
0
  6
CONTINUOUS
 62
     0
100
AcDbPoint
 10
-314.430905
 20
260.383171
 30
0.0
  0
ENDBLK
  5
1DB
100
AcDbEntity
  8
0
370
    -2
390
0
  6
ByBlock
 62
     0
100
AcDbBlockEnd
  0
BLOCK
  5
1DE
100
AcDbEntity
  8
0
370
    -2
390
0
  6
ByBlock
 62
     0
100
AcDbBlockBegin
  2
*D12
 70
     1
 10
0.0
 20
0.0
 30
0.0
  3
*D12
  1

  0
LINE
  5
1DF
100
AcDbEntity
  8
0
390
0
  6
CONTINUOUS
 62
   230
100
AcDbLine
 10
-292.340031
 20
232.883171
 30
0.0
 11
-292.340031
 21
181.883171
 31
0.0
  0
LINE
  5
1E0
100
AcDbEntity
  8
0
390
0
  6
CONTINUOUS
 62
   230
100
AcDbLine
 10
-311.552715
 20
232.883171
 30
0.0
 11
-290.340031
 21
232.883171
 31
0.0
  0
LINE
  5
1E1
100
AcDbEntity
  8
0
390
0
  6
CONTINUOUS
 62
   230
100
AcDbLine
 10
-333.450905
 20
181.883171
 30
0.0
 11
-290.340031
 21
181.883171
 31
0.0
  0
INSERT
  5
1E2
100
AcDbEntity
  8
0
390
0
  6
CONTINUOUS
 62
   230
100
AcDbBlockReference
  2
_OPEN
 10
-292.340031
 20
232.883171
 30
0.0
 41
3.0
 42
3.0
 43
3.0
 50
90.0
  0
INSERT
  5
1E3
100
AcDbEntity
  8
0
390
0
  6
CONTINUOUS
 62
   230
100
AcDbBlockReference
  2
_OPEN
 10
-292.340031
 20
181.883171
 30
0.0
 41
3.0
 42
3.0
 43
3.0
 50
270.0
  0
MTEXT
  5
1E4
100
AcDbEntity
  8
0
390
0
  6
CONTINUOUS
 62
   230
100
AcDbMText
 10
-294.915031
 20
207.383171
 30
0.0
 40
3.15
 41
0.0
 71
     5
 72
     1
  1
\A1;51
  7
MX_DIMTXSTY_3
 11
0.0
 21
1.0
 31
0.0
 73
     1
 44
0.9
  0
POINT
  5
1E5
100
AcDbEntity
  8
DEFPOINTS
390
0
  6
CONTINUOUS
 62
     0
100
AcDbPoint
 10
-312.552715
 20
232.883171
 30
0.0
  0
POINT
  5
1E6
100
AcDbEntity
  8
DEFPOINTS
390
0
  6
CONTINUOUS
 62
     0
100
AcDbPoint
 10
-334.450905
 20
181.883171
 30
0.0
  0
POINT
  5
1E7
100
AcDbEntity
  8
DEFPOINTS
390
0
  6
CONTINUOUS
 62
     0
100
AcDbPoint
 10
-292.340031
 20
181.883171
 30
0.0
  0
ENDBLK
  5
1E8
100
AcDbEntity
  8
0
370
    -2
390
0
  6
ByBlock
 62
     0
100
AcDbBlockEnd
  0
BLOCK
  5
1EB
100
AcDbEntity
  8
0
370
    -2
390
0
  6
ByBlock
 62
     0
100
AcDbBlockBegin
  2
*D13
 70
     1
 10
0.0
 20
0.0
 30
0.0
  3
*D13
  1

  0
LINE
  5
1EC
100
AcDbEntity
  8
0
390
0
  6
CONTINUOUS
 62
   230
100
AcDbLine
 10
-292.340031
 20
252.383171
 30
0.0
 11
-292.340031
 21
232.883171
 31
0.0
  0
LINE
  5
1ED
100
AcDbEntity
  8
0
390
0
  6
CONTINUOUS
 62
   230
100
AcDbLine
 10
-318.430904
 20
252.383171
 30
0.0
 11
-290.340031
 21
252.383171
 31
0.0
  0
LINE
  5
1EE
100
AcDbEntity
  8
0
390
0
  6
CONTINUOUS
 62
   230
100
AcDbLine
 10
-291.340031
 20
232.883171
 30
0.0
 11
-290.340031
 21
232.883171
 31
0.0
  0
INSERT
  5
1EF
100
AcDbEntity
  8
0
390
0
  6
CONTINUOUS
 62
   230
100
AcDbBlockReference
  2
_OPEN
 10
-292.340031
 20
252.383171
 30
0.0
 41
3.0
 42
3.0
 43
3.0
 50
90.0
  0
INSERT
  5
1F0
100
AcDbEntity
  8
0
390
0
  6
CONTINUOUS
 62
   230
100
AcDbBlockReference
  2
_OPEN
 10
-292.340031
 20
232.883171
 30
0.0
 41
3.0
 42
3.0
 43
3.0
 50
270.0
  0
MTEXT
  5
1F1
100
AcDbEntity
  8
0
390
0
  6
CONTINUOUS
 62
   230
100
AcDbMText
 10
-294.915031
 20
242.633171
 30
0.0
 40
3.15
 41
0.0
 71
     5
 72
     1
  1
\A1;19.5
  7
MX_DIMTXSTY_4
 11
0.0
 21
1.0
 31
0.0
 73
     1
 44
0.9
  0
POINT
  5
1F2
100
AcDbEntity
  8
DEFPOINTS
390
0
  6
CONTINUOUS
 62
     0
100
AcDbPoint
 10
-319.430904
 20
252.383171
 30
0.0
  0
POINT
  5
1F3
100
AcDbEntity
  8
DEFPOINTS
390
0
  6
CONTINUOUS
 62
     0
100
AcDbPoint
 10
-292.340031
 20
232.883171
 30
0.0
  0
POINT
  5
1F4
100
AcDbEntity
  8
DEFPOINTS
390
0
  6
CONTINUOUS
 62
     0
100
AcDbPoint
 10
-292.340031
 20
232.883171
 30
0.0
  0
ENDBLK
  5
1F5
100
AcDbEntity
  8
0
370
    -2
390
0
  6
ByBlock
 62
     0
100
AcDbBlockEnd
  0
BLOCK
  5
215
100
AcDbEntity
  8
0
370
    -2
390
0
  6
ByBlock
 62
     0
100
AcDbBlockBegin
  2
*D14
 70
     1
 10
0.0
 20
0.0
 30
0.0
  3
*D14
  1

  0
LINE
  5
216
100
AcDbEntity
  8
0
390
0
  6
CONTINUOUS
 62
   230
100
AcDbLine
 10
-304.530905
 20
164.847288
 30
0.0
 11
-375.330905
 21
164.847288
 31
0.0
  0
LINE
  5
217
100
AcDbEntity
  8
0
390
0
  6
CONTINUOUS
 62
   230
100
AcDbLine
 10
-304.530905
 20
210.056833
 30
0.0
 11
-304.530905
 21
162.847288
 31
0.0
  0
LINE
  5
218
100
AcDbEntity
  8
0
390
0
  6
CONTINUOUS
 62
   230
100
AcDbLine
 10
-375.330905
 20
210.059507
 30
0.0
 11
-375.330905
 21
162.847288
 31
0.0
  0
INSERT
  5
219
100
AcDbEntity
  8
0
390
0
  6
CONTINUOUS
 62
   230
100
AcDbBlockReference
  2
_OPEN
 10
-304.530905
 20
164.847288
 30
0.0
 41
3.0
 42
3.0
 43
3.0
  0
INSERT
  5
21A
100
AcDbEntity
  8
0
390
0
  6
CONTINUOUS
 62
   230
100
AcDbBlockReference
  2
_OPEN
 10
-375.330905
 20
164.847288
 30
0.0
 41
3.0
 42
3.0
 43
3.0
 50
180.0
  0
MTEXT
  5
21B
100
AcDbEntity
  8
0
390
0
  6
CONTINUOUS
 62
   230
100
AcDbMText
 10
-339.930906
 20
167.422288
 30
0.0
 40
3.15
 41
0.0
 71
     5
 72
     1
  1
\A1;70.8
  7
MX_DIMTXSTY_2
 11
1.0
 21
0.0
 31
0.0
 73
     1
 44
0.9
  0
POINT
  5
21C
100
AcDbEntity
  8
DEFPOINTS
390
0
  6
CONTINUOUS
 62
     0
100
AcDbPoint
 10
-304.530905
 20
211.056833
 30
0.0
  0
POINT
  5
21D
100
AcDbEntity
  8
DEFPOINTS
390
0
  6
CONTINUOUS
 62
     0
100
AcDbPoint
 10
-375.330905
 20
211.059507
 30
0.0
  0
POINT
  5
21E
100
AcDbEntity
  8
DEFPOINTS
390
0
  6
CONTINUOUS
 62
     0
100
AcDbPoint
 10
-375.330905
 20
164.847288
 30
0.0
  0
ENDBLK
  5
21F
100
AcDbEntity
  8
0
370
    -2
390
0
  6
ByBlock
 62
     0
100
AcDbBlockEnd
  0
BLOCK
  5
222
100
AcDbEntity
  8
0
370
    -2
390
0
  6
ByBlock
 62
     0
100
AcDbBlockBegin
  2
*D15
 70
     1
 10
0.0
 20
0.0
 30
0.0
  3
*D15
  1

  0
LINE
  5
223
100
AcDbEntity
  8
0
390
0
  6
CONTINUOUS
 62
   230
100
AcDbLine
 10
-308.430236
 20
170.895369
 30
0.0
 11
-371.431574
 21
170.895369
 31
0.0
  0
LINE
  5
224
100
AcDbEntity
  8
0
390
0
  6
CONTINUOUS
 62
   230
100
AcDbLine
 10
-308.430236
 20
210.058173
 30
0.0
 11
-308.430236
 21
168.895369
 31
0.0
  0
LINE
  5
225
100
AcDbEntity
  8
0
390
0
  6
CONTINUOUS
 62
   230
100
AcDbLine
 10
-371.431574
 20
210.058173
 30
0.0
 11
-371.431574
 21
168.895369
 31
0.0
  0
INSERT
  5
226
100
AcDbEntity
  8
0
390
0
  6
CONTINUOUS
 62
   230
100
AcDbBlockReference
  2
_OPEN
 10
-308.430236
 20
170.895369
 30
0.0
 41
3.0
 42
3.0
 43
3.0
  0
INSERT
  5
227
100
AcDbEntity
  8
0
390
0
  6
CONTINUOUS
 62
   230
100
AcDbBlockReference
  2
_OPEN
 10
-371.431574
 20
170.895369
 30
0.0
 41
3.0
 42
3.0
 43
3.0
 50
180.0
  0
MTEXT
  5
228
100
AcDbEntity
  8
0
390
0
  6
CONTINUOUS
 62
   230
100
AcDbMText
 10
-339.679126
 20
173.470369
 30
0.0
 40
3.15
 41
0.0
 71
     5
 72
     1
  1
\A1;63
 11
1.0
 21
0.0
 31
0.0
 73
     1
 44
0.9
  0
POINT
  5
229
100
AcDbEntity
  8
DEFPOINTS
390
0
  6
CONTINUOUS
 62
     0
100
AcDbPoint
 10
-308.430236
 20
211.058173
 30
0.0
  0
POINT
  5
22A
100
AcDbEntity
  8
DEFPOINTS
390
0
  6
CONTINUOUS
 62
     0
100
AcDbPoint
 10
-371.431574
 20
211.058173
 30
0.0
  0
POINT
  5
22B
100
AcDbEntity
  8
DEFPOINTS
390
0
  6
CONTINUOUS
 62
     0
100
AcDbPoint
 10
-371.431574
 20
170.895369
 30
0.0
  0
ENDBLK
  5
22C
100
AcDbEntity
  8
0
370
    -2
390
0
  6
ByBlock
 62
     0
100
AcDbBlockEnd
  0
BLOCK
  5
22F
100
AcDbEntity
  8
0
370
    -2
390
0
  6
ByBlock
 62
     0
100
AcDbBlockBegin
  2
*D16
 70
     1
 10
0.0
 20
0.0
 30
0.0
  3
*D16
  1

  0
LINE
  5
230
100
AcDbEntity
  8
0
390
0
  6
CONTINUOUS
 62
   230
100
AcDbLine
 10
-311.930905
 20
175.98849
 30
0.0
 11
-367.930905
 21
175.98849
 31
0.0
  0
LINE
  5
231
100
AcDbEntity
  8
0
390
0
  6
CONTINUOUS
 62
   230
100
AcDbLine
 10
-311.930905
 20
184.839499
 30
0.0
 11
-311.930905
 21
173.98849
 31
0.0
  0
LINE
  5
232
100
AcDbEntity
  8
0
390
0
  6
CONTINUOUS
 62
   230
100
AcDbLine
 10
-367.930905
 20
184.839499
 30
0.0
 11
-367.930905
 21
173.98849
 31
0.0
  0
INSERT
  5
233
100
AcDbEntity
  8
0
390
0
  6
CONTINUOUS
 62
   230
100
AcDbBlockReference
  2
_OPEN
 10
-311.930905
 20
175.98849
 30
0.0
 41
3.0
 42
3.0
 43
3.0
  0
INSERT
  5
234
100
AcDbEntity
  8
0
390
0
  6
CONTINUOUS
 62
   230
100
AcDbBlockReference
  2
_OPEN
 10
-367.930905
 20
175.98849
 30
0.0
 41
3.0
 42
3.0
 43
3.0
 50
180.0
  0
MTEXT
  5
235
100
AcDbEntity
  8
0
390
0
  6
CONTINUOUS
 62
   230
100
AcDbMText
 10
-339.838286
 20
178.56349
 30
0.0
 40
3.15
 41
0.0
 71
     5
 72
     1
  1
\A1;56
 11
1.0
 21
0.0
 31
0.0
 73
     1
 44
0.9
  0
POINT
  5
236
100
AcDbEntity
  8
DEFPOINTS
390
0
  6
CONTINUOUS
 62
     0
100
AcDbPoint
 10
-311.930905
 20
185.839499
 30
0.0
  0
POINT
  5
237
100
AcDbEntity
  8
DEFPOINTS
390
0
  6
CONTINUOUS
 62
     0
100
AcDbPoint
 10
-367.930905
 20
185.839499
 30
0.0
  0
POINT
  5
238
100
AcDbEntity
  8
DEFPOINTS
390
0
  6
CONTINUOUS
 62
     0
100
AcDbPoint
 10
-367.930905
 20
175.98849
 30
0.0
  0
ENDBLK
  5
239
100
AcDbEntity
  8
0
370
    -2
390
0
  6
ByBlock
 62
     0
100
AcDbBlockEnd
  0
ENDSEC
  0
SECTION
  2
ENTITIES
  0
LINE
  5
2B
100
AcDbEntity
  8
LY_1
390
0
  6
CONTINUOUS
 62
     3
100
AcDbLine
 10
-12.11234
 20
256.756
 30
0.0
 11
-12.11234
 21
106.756
 31
0.0
  0
MTEXT
  5
2C
100
AcDbEntity
  8
LY_1
390
0
  6
CONTINUOUS
 62
   110
100
AcDbMText
 10
-105.695673
 20
144.256
 30
0.0
 40
3.2
 41
0.0
 71
     4
 72
     1
  1
\W0.781;\A1;ＡＣ２０００Ｖ，６０Ｈｚ，１分間（電源回路および接点回路）
 73
     1
 44
0.9
  0
ARC
  5
2D
100
AcDbEntity
  8
LY_1
390
0
  6
CONTINUOUS
 62
     3
100
AcDbCircle
 10
-53.11234
 20
165.490847
 30
0.0
 40
0.3
100
AcDbArc
 50
30.450314
 51
149.549686
  0
LINE
  5
2E
100
AcDbEntity
  8
LY_1
390
0
  6
CONTINUOUS
 62
     3
100
AcDbLine
 10
-152.61234
 20
258.256
 30
0.0
 11
-138.61234
 21
258.256
 31
0.0
  0
MTEXT
  5
2F
100
AcDbEntity
  8
LY_1
390
0
  6
CONTINUOUS
 62
   110
100
AcDbMText
 10
-151.019007
 20
258.756
 30
0.0
 40
4.0
 41
0.0
 71
     7
 72
     1
  1
\W0.800;\A1;仕　様
 73
     1
 44
0.6
  0
LINE
  5
30
100
AcDbEntity
  8
LY_1
390
0
  6
CONTINUOUS
 62
     3
100
AcDbLine
 10
-109.11234
 20
256.756
 30
0.0
 11
-109.11234
 21
106.756
 31
0.0
  0
MTEXT
  5
31
100
AcDbEntity
  8
LY_1
390
0
  6
CONTINUOUS
 62
   110
100
AcDbMText
 10
-72.195673
 20
251.851879
 30
0.0
 40
3.2
 41
0.0
 71
     4
 72
     1
  1
\W0.781;\A1;ＴＳＢ０７５ＥＤ
 73
     1
 44
0.9
  0
MTEXT
  5
32
100
AcDbEntity
  8
LY_1
390
0
  6
CONTINUOUS
 62
   110
100
AcDbMText
 10
-142.695673
 20
241.756
 30
0.0
 40
3.2
 41
0.0
 71
     4
 72
     1
  1
\W0.781;\A1;適用モータ容量
 73
     1
 44
0.9
  0
MTEXT
  5
33
100
AcDbEntity
  8
LY_1
390
0
  6
CONTINUOUS
 62
   110
100
AcDbMText
 10
-148.695673
 20
229.256
 30
0.0
 40
3.2
 41
0.0
 71
     4
 72
     1
  1
\W0.781;\A1;ロードカレント調整範囲
 73
     1
 44
0.9
  0
MTEXT
  5
34
100
AcDbEntity
  8
LY_1
390
0
  6
CONTINUOUS
 62
   110
100
AcDbMText
 10
-148.695673
 20
224.256
 30
0.0
 40
3.2
 41
0.0
 71
     4
 72
     1
  1
\W0.781;\A1;スタートタイム調整範囲
 73
     1
 44
0.9
  0
MTEXT
  5
35
100
AcDbEntity
  8
LY_1
390
0
  6
CONTINUOUS
 62
   110
100
AcDbMText
 10
-148.695673
 20
219.256
 30
0.0
 40
3.2
 41
0.0
 71
     4
 72
     1
  1
\W0.781;\A1;ショックタイム調整範囲
 73
     1
 44
0.9
  0
MTEXT
  5
36
100
AcDbEntity
  8
LY_1
390
0
  6
CONTINUOUS
 62
   110
100
AcDbMText
 10
-144.195673
 20
214.256
 30
0.0
 40
3.2
 41
0.0
 71
     4
 72
     1
  1
\W0.781;\A1;定格操作電源電圧
 73
     1
 44
0.9
  0
MTEXT
  5
37
100
AcDbEntity
  8
LY_1
390
0
  6
CONTINUOUS
 62
   110
100
AcDbMText
 10
-141.195673
 20
204.256
 30
0.0
 40
3.2
 41
0.0
 71
     4
 72
     1
  1
\W0.781;\A1;電流設定精度
 73
     1
 44
0.9
  0
MTEXT
  5
38
100
AcDbEntity
  8
LY_1
390
0
  6
CONTINUOUS
 62
   110
100
AcDbMText
 10
-141.195673
 20
199.256
 30
0.0
 40
3.2
 41
0.0
 71
     4
 72
     1
  1
\W0.781;\A1;電流検出方式
 73
     1
 44
0.9
  0
MTEXT
  5
39
100
AcDbEntity
  8
LY_1
390
0
  6
CONTINUOUS
 62
   110
100
AcDbMText
 10
-128.445673
 20
184.256
 30
0.0
 40
3.2
 41
0.0
 71
     4
 72
     1
  1
\W0.781;\A1;接点容量
 73
     1
 44
0.9
  0
MTEXT
  5
3A
100
AcDbEntity
  8
LY_1
390
0
  6
CONTINUOUS
 62
   110
100
AcDbMText
 10
-131.445673
 20
179.358191
 30
0.0
 40
3.2
 41
0.0
 71
     4
 72
     1
  1
\W0.781;\A1;最小適用負荷
 73
     1
 44
0.9
  0
MTEXT
  5
3B
100
AcDbEntity
  8
LY_1
390
0
  6
CONTINUOUS
 62
   110
100
AcDbMText
 10
-128.445673
 20
169.664764
 30
0.0
 40
3.2
 41
0.0
 71
     4
 72
     1
  1
\W0.781;\A1;周囲温度
 73
     1
 44
0.9
  0
MTEXT
  5
3C
100
AcDbEntity
  8
LY_1
390
0
  6
CONTINUOUS
 62
   110
100
AcDbMText
 10
-128.445673
 20
164.664764
 30
0.0
 40
3.2
 41
0.0
 71
     4
 72
     1
  1
\W0.781;\A1;周囲湿度
 73
     1
 44
0.9
  0
MTEXT
  5
3D
100
AcDbEntity
  8
LY_1
390
0
  6
CONTINUOUS
 62
   110
100
AcDbMText
 10
-128.445673
 20
159.664764
 30
0.0
 40
3.2
 41
0.0
 71
     4
 72
     1
  1
\W0.781;\A1;周囲振動
 73
     1
 44
0.9
  0
MTEXT
  5
3E
100
AcDbEntity
  8
LY_1
390
0
  6
CONTINUOUS
 62
   110
100
AcDbMText
 10
-125.445673
 20
154.664764
 30
0.0
 40
3.2
 41
0.0
 71
     4
 72
     1
  1
\W0.781;\A1;標高
 73
     1
 44
0.9
  0
MTEXT
  5
3F
100
AcDbEntity
  8
LY_1
390
0
  6
CONTINUOUS
 62
   110
100
AcDbMText
 10
-126.945673
 20
149.664764
 30
0.0
 40
3.2
 41
0.0
 71
     4
 72
     1
  1
\W0.781;\A1;雰囲気
 73
     1
 44
0.9
  0
MTEXT
  5
40
100
AcDbEntity
  8
LY_1
390
0
  6
CONTINUOUS
 62
   110
100
AcDbMText
 10
-132.945673
 20
144.664764
 30
0.0
 40
3.2
 41
0.0
 71
     4
 72
     1
  1
\W0.781;\A1;回路－ケース間
 73
     1
 44
0.9
  0
MTEXT
  5
41
100
AcDbEntity
  8
LY_1
390
0
  6
CONTINUOUS
 62
   110
100
AcDbMText
 10
-126.945673
 20
139.664764
 30
0.0
 40
3.2
 41
0.0
 71
     4
 72
     1
  1
\W0.781;\A1;接点間
 73
     1
 44
0.9
  0
MTEXT
  5
42
100
AcDbEntity
  8
LY_1
390
0
  6
CONTINUOUS
 62
   110
100
AcDbMText
 10
-126.945673
 20
134.664764
 30
0.0
 40
3.2
 41
0.0
 71
     4
 72
     1
  1
\W0.781;\A1;回路間
 73
     1
 44
0.9
  0
MTEXT
  5
43
100
AcDbEntity
  8
LY_1
390
0
  6
CONTINUOUS
 62
   110
100
AcDbMText
 10
-138.195673
 20
129.256
 30
0.0
 40
3.2
 41
0.0
 71
     4
 72
     1
  1
\W0.781;\A1;保護構造
 73
     1
 44
0.9
  0
MTEXT
  5
44
100
AcDbEntity
  8
LY_1
390
0
  6
CONTINUOUS
 62
   110
100
AcDbMText
 10
-135.195673
 20
114.256
 30
0.0
 40
3.2
 41
0.0
 71
     4
 72
     1
  1
\W0.781;\A1;質量
 73
     1
 44
0.9
  0
LINE
  5
45
100
AcDbEntity
  8
LY_1
390
0
  6
CONTINUOUS
 62
     3
100
AcDbLine
 10
-156.11234
 20
256.756
 30
0.0
 11
-156.11234
 21
106.756
 31
0.0
  0
LINE
  5
46
100
AcDbEntity
  8
LY_1
390
0
  6
CONTINUOUS
 62
     3
100
AcDbLine
 10
-135.61234
 20
196.756
 30
0.0
 11
-135.61234
 21
131.756
 31
0.0
  0
MTEXT
  5
47
100
AcDbEntity
  8
LY_1
390
0
  6
CONTINUOUS
 62
   110
100
AcDbMText
 10
-88.695673
 20
214.256
 30
0.0
 40
3.2
 41
0.0
 71
     4
 72
     1
  1
\W0.781;\A1;２４　～　２４０ＶＡＣ／ＤＣ（無極性）
 73
     1
 44
0.9
  0
MTEXT
  5
48
100
AcDbEntity
  8
LY_1
390
0
  6
CONTINUOUS
 62
   110
100
AcDbMText
 10
-102.695673
 20
134.256
 30
0.0
 40
3.2
 41
0.0
 71
     4
 72
     1
  1
\W0.781;\A1;ＡＣ２０００Ｖ，６０Ｈｚ，１分間（電源回路と接点回路）
 73
     1
 44
0.9
  0
MTEXT
  5
49
100
AcDbEntity
  8
LY_1
390
0
  6
CONTINUOUS
 62
   110
100
AcDbMText
 10
-86.195673
 20
139.256
 30
0.0
 40
3.2
 41
0.0
 71
     4
 72
     1
  1
\W0.781;\A1;ＡＣ１０００Ｖ，６０Ｈｚ，１分間
 73
     1
 44
0.9
  0
MTEXT
  5
4A
100
AcDbEntity
  8
LY_1
390
0
  6
CONTINUOUS
 62
   110
100
AcDbMText
 10
-75.195673
 20
224.256
 30
0.0
 40
3.2
 41
0.0
 71
     4
 72
     1
  1
\W0.781;\A1;０．２　～　１０　ｓ
 73
     1
 44
0.9
  0
MTEXT
  5
4B
100
AcDbEntity
  8
LY_1
390
0
  6
CONTINUOUS
 62
   110
100
AcDbMText
 10
-78.195673
 20
219.256
 30
0.0
 40
3.2
 41
0.0
 71
     4
 72
     1
  1
\W0.781;\A1;０．２　～　　５．０　ｓ
 73
     1
 44
0.9
  0
MTEXT
  5
4C
100
AcDbEntity
  8
LY_1
390
0
  6
CONTINUOUS
 62
   110
100
AcDbMText
 10
-75.195673
 20
229.256
 30
0.0
 40
3.2
 41
0.0
 71
     4
 72
     1
  1
\W0.781;\A1;１．２　～　５．８Ａ
 73
     1
 44
0.9
  0
MTEXT
  5
4D
100
AcDbEntity
  8
LY_1
390
0
  6
CONTINUOUS
 62
   110
100
AcDbMText
 10
-78.196773
 20
204.256
 30
0.0
 40
3.2
 41
0.0
 71
     4
 72
     1
  1
\W0.779;\A1;±１０％（フルスケール）
 73
     1
 44
0.9
  0
MTEXT
  5
4E
100
AcDbEntity
  8
LY_1
390
0
  6
CONTINUOUS
 62
   110
100
AcDbMText
 10
-70.695673
 20
199.256
 30
0.0
 40
3.2
 41
0.0
 71
     4
 72
     1
  1
\W0.781;\A1;２相変流器方式
 73
     1
 44
0.9
  0
MTEXT
  5
4F
100
AcDbEntity
  8
LY_1
390
0
  6
CONTINUOUS
 62
   110
100
AcDbMText
 10
-96.194845
 20
184.256
 30
0.0
 40
3.2
 41
0.0
 71
     4
 72
     1
  1
\W0.783;\A1;１ａ１ｂ接点　３Ａ　ＡＣ２５０Ｖ　ｃｏｓ\U+2205＝１　
 73
     1
 44
0.9
  0
MTEXT
  5
50
100
AcDbEntity
  8
LY_1
390
0
  6
CONTINUOUS
 62
   110
100
AcDbMText
 10
-75.195673
 20
179.256
 30
0.0
 40
3.2
 41
0.0
 71
     4
 72
     1
  1
\W0.781;\A1;ＤＣ１０Ｖ，１０ｍＡ
 73
     1
 44
0.9
  0
MTEXT
  5
51
100
AcDbEntity
  8
LY_1
390
0
  6
CONTINUOUS
 62
   110
100
AcDbMText
 10
-72.195673
 20
169.256
 30
0.0
 40
3.2
 41
0.0
 71
     4
 72
     1
  1
\W0.781;\A1;－２０～＋６０℃
 73
     1
 44
0.9
  0
MTEXT
  5
52
100
AcDbEntity
  8
LY_1
390
0
  6
CONTINUOUS
 62
   110
100
AcDbMText
 10
-87.195673
 20
164.256
 30
0.0
 40
3.2
 41
0.0
 71
     4
 72
     1
  1
\W0.781;\A1;３０～８５％ＲＨ　但し結露がないこと
 73
     1
 44
0.9
  0
MTEXT
  5
53
100
AcDbEntity
  8
LY_1
390
0
  6
CONTINUOUS
 62
   110
100
AcDbMText
 10
-72.945673
 20
159.256
 30
0.0
 40
3.2
 41
0.0
 71
     4
 72
     1
  1
\W0.781;\A1;５．９ｍ／Ｓ{\A1;\H0.50x;\S２^ ;}以下
 73
     1
 44
0.9
  0
MTEXT
  5
54
100
AcDbEntity
  8
LY_1
390
0
  6
CONTINUOUS
 62
   110
100
AcDbMText
 10
-72.195673
 20
154.256
 30
0.0
 40
3.2
 41
0.0
 71
     4
 72
     1
  1
\W0.781;\A1;２，０００ｍ以下
 73
     1
 44
0.9
  0
MTEXT
  5
55
100
AcDbEntity
  8
LY_1
390
0
  6
CONTINUOUS
 62
   110
100
AcDbMText
 10
-79.695673
 20
149.256
 30
0.0
 40
3.2
 41
0.0
 71
     4
 72
     1
  1
\W0.781;\A1;腐食性ガス，塵埃がないこと
 73
     1
 44
0.9
  0
MTEXT
  5
56
100
AcDbEntity
  8
LY_1
390
0
  6
CONTINUOUS
 62
   110
100
AcDbMText
 10
-73.695673
 20
114.256
 30
0.0
 40
3.2
 41
0.0
 71
     4
 72
     1
  1
\W0.781;\A1;０．２ｋｇ　ＭＡＸ
 73
     1
 44
0.9
  0
MTEXT
  5
57
100
AcDbEntity
  8
LY_1
390
0
  6
CONTINUOUS
 62
   110
100
AcDbMText
 10
-148.445673
 20
185.156
 30
0.0
 40
3.2
 41
0.0
 71
     4
 72
     1
  1
\W0.781;\A1;出力
 73
     1
 44
0.9
  0
MTEXT
  5
58
100
AcDbEntity
  8
LY_1
390
0
  6
CONTINUOUS
 62
   110
100
AcDbMText
 10
-151.445673
 20
159.256
 30
0.0
 40
3.2
 41
0.0
 71
     4
 72
     1
  1
\W0.781;\A1;使用環境
 73
     1
 44
0.9
  0
MTEXT
  5
59
100
AcDbEntity
  8
LY_1
390
0
  6
CONTINUOUS
 62
   110
100
AcDbMText
 10
-149.945673
 20
139.256
 30
0.0
 40
3.2
 41
0.0
 71
     4
 72
     1
  1
\W0.781;\A1;耐電圧
 73
     1
 44
0.9
  0
LINE
  5
5A
100
AcDbEntity
  8
LY_1
390
0
  6
CONTINUOUS
 62
     3
100
AcDbLine
 10
-156.11234
 20
256.756
 30
0.0
 11
-109.11234
 21
246.756
 31
0.0
  0
MTEXT
  5
5B
100
AcDbEntity
  8
LY_1
390
0
  6
CONTINUOUS
 62
   110
100
AcDbMText
 10
-116.695673
 20
254.256
 30
0.0
 40
3.2
 41
0.0
 71
     4
 72
     1
  1
\W0.781;\A1;形番
 73
     1
 44
0.9
  0
MTEXT
  5
5C
100
AcDbEntity
  8
LY_1
390
0
  6
CONTINUOUS
 62
   110
100
AcDbMText
 10
-153.695673
 20
249.256
 30
0.0
 40
3.2
 41
0.0
 71
     4
 72
     1
  1
\W0.781;\A1;項目
 73
     1
 44
0.9
  0
MTEXT
  5
5D
100
AcDbEntity
  8
LY_1
390
0
  6
CONTINUOUS
 62
   110
100
AcDbMText
 10
-145.695673
 20
209.256
 30
0.0
 40
3.2
 41
0.0
 71
     4
 72
     1
  1
\W0.781;\A1;定格操作電源周波数
 73
     1
 44
0.9
  0
MTEXT
  5
5E
100
AcDbEntity
  8
LY_1
390
0
  6
CONTINUOUS
 62
   110
100
AcDbMText
 10
-70.695673
 20
209.256
 30
0.0
 40
3.2
 41
0.0
 71
     4
 72
     1
  1
\W0.781;\A1;５０／６０Ｈｚ
 73
     1
 44
0.9
  0
MTEXT
  5
5F
100
AcDbEntity
  8
LY_1
390
0
  6
CONTINUOUS
 62
   110
100
AcDbMText
 10
-100.884649
 20
244.206
 30
0.0
 40
3.2
 41
0.0
 71
     4
 72
     1
  1
\W0.747;\A1;２００Ｖ級
 73
     1
 44
0.9
  0
MTEXT
  5
60
100
AcDbEntity
  8
LY_1
390
0
  6
CONTINUOUS
 62
   110
100
AcDbMText
 10
-100.884649
 20
239.206
 30
0.0
 40
3.2
 41
0.0
 71
     4
 72
     1
  1
\W0.747;\A1;４００Ｖ級
 73
     1
 44
0.9
  0
MTEXT
  5
61
100
AcDbEntity
  8
LY_1
390
0
  6
CONTINUOUS
 62
   110
100
AcDbMText
 10
-59.471815
 20
244.206
 30
0.0
 40
3.2
 41
0.0
 71
     4
 72
     1
  1
\W0.747;\A1;０．４，０．７５ｋＷ
 73
     1
 44
0.9
  0
MTEXT
  5
62
100
AcDbEntity
  8
LY_1
390
0
  6
CONTINUOUS
 62
   110
100
AcDbMText
 10
-52.301136
 20
239.206
 30
0.0
 40
3.2
 41
0.0
 71
     4
 72
     1
  1
\W0.747;\A1;１．５ｋＷ
 73
     1
 44
0.9
  0
LINE
  5
63
100
AcDbEntity
  8
LY_1
390
0
  6
CONTINUOUS
 62
     3
100
AcDbLine
 10
-79.11234
 20
246.756
 30
0.0
 11
-79.11234
 21
236.756
 31
0.0
  0
MTEXT
  5
64
100
AcDbEntity
  8
LY_1
390
0
  6
CONTINUOUS
 62
   110
100
AcDbMText
 10
-145.695673
 20
235.856
 30
0.0
 40
3.2
 41
0.0
 71
     1
 72
     1
  1
\W0.781;\A1;最大モータ回路電圧
 73
     1
 44
0.9
  0
MTEXT
  5
65
100
AcDbEntity
  8
LY_1
390
0
  6
CONTINUOUS
 62
   110
100
AcDbMText
 10
-81.195673
 20
235.856
 30
0.0
 40
3.2
 41
0.0
 71
     1
 72
     1
  1
\W0.781;\A1;ＡＣ６００Ｖ　５０／６０Ｈｚ
 73
     1
 44
0.9
  0
MTEXT
  5
66
100
AcDbEntity
  8
LY_1
390
0
  6
CONTINUOUS
 62
   110
100
AcDbMText
 10
-66.195673
 20
130.856
 30
0.0
 40
3.2
 41
0.0
 71
     1
 72
     1
  1
\W0.781;\A1;ＩＰ２０
 73
     1
 44
0.9
  0
MTEXT
  5
67
100
AcDbEntity
  8
LY_1
390
0
  6
CONTINUOUS
 62
   110
100
AcDbMText
 10
-87.195673
 20
125.856
 30
0.0
 40
3.2
 41
0.0
 71
     1
 72
     1
  1
\W0.781;\A1;上ケース：ＰＡ６，下ケース：ＰＡ６６
 73
     1
 44
0.9
  0
MTEXT
  5
68
100
AcDbEntity
  8
LY_1
390
0
  6
CONTINUOUS
 62
   110
100
AcDbMText
 10
-64.695673
 20
120.856
 30
0.0
 40
3.2
 41
0.0
 71
     1
 72
     1
  1
\W0.781;\A1;ＰＡ６
 73
     1
 44
0.9
  0
LINE
  5
69
100
AcDbEntity
  8
LY_1
390
0
  6
CONTINUOUS
 62
     3
100
AcDbLine
 10
-135.61234
 20
126.756
 30
0.0
 11
-135.61234
 21
116.756
 31
0.0
  0
MTEXT
  5
6A
100
AcDbEntity
  8
LY_1
390
0
  6
CONTINUOUS
 62
   110
100
AcDbMText
 10
-148.445673
 20
123.356
 30
0.0
 40
3.2
 41
0.0
 71
     1
 72
     1
  1
\W0.781;\A1;材質
 73
     1
 44
0.9
  0
MTEXT
  5
6B
100
AcDbEntity
  8
LY_1
390
0
  6
CONTINUOUS
 62
   110
100
AcDbMText
 10
-126.445673
 20
125.906
 30
0.0
 40
3.2
 41
0.0
 71
     1
 72
     1
  1
\W0.781;\A1;ケース
 73
     1
 44
0.9
  0
MTEXT
  5
6C
100
AcDbEntity
  8
LY_1
390
0
  6
CONTINUOUS
 62
   110
100
AcDbMText
 10
-127.945673
 20
120.856
 30
0.0
 40
3.2
 41
0.0
 71
     1
 72
     1
  1
\W0.781;\A1;カハ゛ー
 73
     1
 44
0.9
  0
MTEXT
  5
6D
100
AcDbEntity
  8
LY_1
390
0
  6
CONTINUOUS
 62
   110
100
AcDbMText
 10
-128.195673
 20
191.556
 30
0.0
 40
3.2
 41
0.0
 71
     4
 72
     1
  1
\W0.781;\A1;出力選択
 73
     1
 44
0.9
  0
MTEXT
  5
6E
100
AcDbEntity
  8
LY_1
390
0
  6
CONTINUOUS
 62
   110
100
AcDbMText
 10
-78.195673
 20
191.856
 30
0.0
 40
3.2
 41
0.0
 71
     4
 72
     1
  1
\W0.781;\A1;Ａ：トリップ後自動復帰　\PＭ：トリップ後自己保持
 73
     1
 44
0.9
  0
MTEXT
  5
6F
100
AcDbEntity
  8
LY_1
390
0
  6
CONTINUOUS
 62
   110
100
AcDbMText
 10
-128.445673
 20
174.562573
 30
0.0
 40
3.2
 41
0.0
 71
     4
 72
     1
  1
\W0.781;\A1;接点寿命
 73
     1
 44
0.9
  0
MTEXT
  5
70
100
AcDbEntity
  8
LY_1
390
0
  6
CONTINUOUS
 62
   110
100
AcDbMText
 10
-67.695673
 20
174.256
 30
0.0
 40
3.2
 41
0.0
 71
     4
 72
     1
  1
\W0.781;\A1;８万回動作
 73
     1
 44
0.9
  0
MTEXT
  5
71
100
AcDbEntity
  8
LY_1
390
0
  6
CONTINUOUS
 62
   110
100
AcDbMText
 10
-138.195673
 20
109.256
 30
0.0
 40
3.2
 41
0.0
 71
     4
 72
     1
  1
\W0.781;\A1;消費電力
 73
     1
 44
0.9
  0
MTEXT
  5
72
100
AcDbEntity
  8
LY_1
390
0
  6
CONTINUOUS
 62
   110
100
AcDbMText
 10
-69.195673
 20
109.256
 30
0.0
 40
3.2
 41
0.0
 71
     4
 72
     1
  1
\W0.781;\A1;２Ｗ　ＭＡＸ
 73
     1
 44
0.9
  0
LINE
  5
73
100
AcDbEntity
  8
LY_1
390
0
  6
CONTINUOUS
 62
     3
100
AcDbLine
 10
-12.11234
 20
186.756
 30
0.0
 11
-135.61234
 21
186.756
 31
0.0
  0
LINE
  5
74
100
AcDbEntity
  8
LY_1
390
0
  6
CONTINUOUS
 62
     3
100
AcDbLine
 10
-156.11234
 20
256.756
 30
0.0
 11
-12.11234
 21
256.756
 31
0.0
  0
LINE
  5
75
100
AcDbEntity
  8
LY_1
390
0
  6
CONTINUOUS
 62
     3
100
AcDbLine
 10
-12.11234
 20
231.756
 30
0.0
 11
-156.11234
 21
231.756
 31
0.0
  0
LINE
  5
76
100
AcDbEntity
  8
LY_1
390
0
  6
CONTINUOUS
 62
     3
100
AcDbLine
 10
-12.11234
 20
246.756
 30
0.0
 11
-156.11234
 21
246.756
 31
0.0
  0
LINE
  5
77
100
AcDbEntity
  8
LY_1
390
0
  6
CONTINUOUS
 62
     3
100
AcDbLine
 10
-12.11234
 20
226.756
 30
0.0
 11
-156.11234
 21
226.756
 31
0.0
  0
LINE
  5
78
100
AcDbEntity
  8
LY_1
390
0
  6
CONTINUOUS
 62
     3
100
AcDbLine
 10
-12.11234
 20
221.756
 30
0.0
 11
-156.11234
 21
221.756
 31
0.0
  0
LINE
  5
79
100
AcDbEntity
  8
LY_1
390
0
  6
CONTINUOUS
 62
     3
100
AcDbLine
 10
-12.11234
 20
216.756
 30
0.0
 11
-156.11234
 21
216.756
 31
0.0
  0
LINE
  5
7A
100
AcDbEntity
  8
LY_1
390
0
  6
CONTINUOUS
 62
     3
100
AcDbLine
 10
-12.11234
 20
206.756
 30
0.0
 11
-156.11234
 21
206.756
 31
0.0
  0
LINE
  5
7B
100
AcDbEntity
  8
LY_1
390
0
  6
CONTINUOUS
 62
     3
100
AcDbLine
 10
-12.11234
 20
201.756
 30
0.0
 11
-156.11234
 21
201.756
 31
0.0
  0
LINE
  5
7C
100
AcDbEntity
  8
LY_1
390
0
  6
CONTINUOUS
 62
     3
100
AcDbLine
 10
-12.11234
 20
196.756
 30
0.0
 11
-156.11234
 21
196.756
 31
0.0
  0
LINE
  5
7D
100
AcDbEntity
  8
LY_1
390
0
  6
CONTINUOUS
 62
     3
100
AcDbLine
 10
-12.11234
 20
181.756
 30
0.0
 11
-135.61234
 21
181.756
 31
0.0
  0
LINE
  5
7E
100
AcDbEntity
  8
LY_1
390
0
  6
CONTINUOUS
 62
     3
100
AcDbLine
 10
-12.11234
 20
176.756
 30
0.0
 11
-135.61234
 21
176.756
 31
0.0
  0
LINE
  5
7F
100
AcDbEntity
  8
LY_1
390
0
  6
CONTINUOUS
 62
     3
100
AcDbLine
 10
-12.11234
 20
181.756
 30
0.0
 11
-135.61234
 21
181.756
 31
0.0
  0
LINE
  5
80
100
AcDbEntity
  8
LY_1
390
0
  6
CONTINUOUS
 62
     3
100
AcDbLine
 10
-12.11234
 20
176.756
 30
0.0
 11
-135.61234
 21
176.756
 31
0.0
  0
LINE
  5
81
100
AcDbEntity
  8
LY_1
390
0
  6
CONTINUOUS
 62
     3
100
AcDbLine
 10
-12.11234
 20
171.756
 30
0.0
 11
-135.61234
 21
171.756
 31
0.0
  0
LINE
  5
82
100
AcDbEntity
  8
LY_1
390
0
  6
CONTINUOUS
 62
     3
100
AcDbLine
 10
-12.11234
 20
171.756
 30
0.0
 11
-156.11234
 21
171.756
 31
0.0
  0
LINE
  5
83
100
AcDbEntity
  8
LY_1
390
0
  6
CONTINUOUS
 62
     3
100
AcDbLine
 10
-12.11234
 20
166.756
 30
0.0
 11
-135.61234
 21
166.756
 31
0.0
  0
LINE
  5
84
100
AcDbEntity
  8
LY_1
390
0
  6
CONTINUOUS
 62
     3
100
AcDbLine
 10
-12.11234
 20
161.756
 30
0.0
 11
-135.61234
 21
161.756
 31
0.0
  0
LINE
  5
85
100
AcDbEntity
  8
LY_1
390
0
  6
CONTINUOUS
 62
     3
100
AcDbLine
 10
-12.11234
 20
156.756
 30
0.0
 11
-135.61234
 21
156.756
 31
0.0
  0
LINE
  5
86
100
AcDbEntity
  8
LY_1
390
0
  6
CONTINUOUS
 62
     3
100
AcDbLine
 10
-12.11234
 20
151.756
 30
0.0
 11
-135.61234
 21
151.756
 31
0.0
  0
LINE
  5
87
100
AcDbEntity
  8
LY_1
390
0
  6
CONTINUOUS
 62
     3
100
AcDbLine
 10
-12.11234
 20
146.756
 30
0.0
 11
-156.11234
 21
146.756
 31
0.0
  0
LINE
  5
88
100
AcDbEntity
  8
LY_1
390
0
  6
CONTINUOUS
 62
     3
100
AcDbLine
 10
-12.11234
 20
141.756
 30
0.0
 11
-135.61234
 21
141.756
 31
0.0
  0
LINE
  5
89
100
AcDbEntity
  8
LY_1
390
0
  6
CONTINUOUS
 62
     3
100
AcDbLine
 10
-12.11234
 20
136.756
 30
0.0
 11
-135.61234
 21
136.756
 31
0.0
  0
LINE
  5
8A
100
AcDbEntity
  8
LY_1
390
0
  6
CONTINUOUS
 62
     3
100
AcDbLine
 10
-156.11234
 20
236.756
 30
0.0
 11
-12.11234
 21
236.756
 31
0.0
  0
LINE
  5
8B
100
AcDbEntity
  8
LY_1
390
0
  6
CONTINUOUS
 62
     3
100
AcDbLine
 10
-12.11234
 20
131.756
 30
0.0
 11
-156.11234
 21
131.756
 31
0.0
  0
LINE
  5
8C
100
AcDbEntity
  8
LY_1
390
0
  6
CONTINUOUS
 62
     3
100
AcDbLine
 10
-12.11234
 20
126.756
 30
0.0
 11
-156.11234
 21
126.756
 31
0.0
  0
LINE
  5
8D
100
AcDbEntity
  8
LY_1
390
0
  6
CONTINUOUS
 62
     3
100
AcDbLine
 10
-12.11234
 20
116.756
 30
0.0
 11
-156.11234
 21
116.756
 31
0.0
  0
LINE
  5
8E
100
AcDbEntity
  8
LY_1
390
0
  6
CONTINUOUS
 62
     3
100
AcDbLine
 10
-12.11234
 20
111.756
 30
0.0
 11
-156.11234
 21
111.756
 31
0.0
  0
LINE
  5
8F
100
AcDbEntity
  8
LY_1
390
0
  6
CONTINUOUS
 62
     3
100
AcDbLine
 10
-12.11234
 20
106.756
 30
0.0
 11
-156.11234
 21
106.756
 31
0.0
  0
LINE
  5
90
100
AcDbEntity
  8
LY_1
390
0
  6
CONTINUOUS
 62
     3
100
AcDbLine
 10
-12.11234
 20
211.756
 30
0.0
 11
-156.11234
 21
211.756
 31
0.0
  0
LINE
  5
91
100
AcDbEntity
  8
LY_1
390
0
  6
CONTINUOUS
 62
     3
100
AcDbLine
 10
-109.11234
 20
241.756
 30
0.0
 11
-12.11234
 21
241.756
 31
0.0
  0
LINE
  5
92
100
AcDbEntity
  8
LY_1
390
0
  6
CONTINUOUS
 62
     3
100
AcDbLine
 10
-12.11234
 20
121.756
 30
0.0
 11
-135.61234
 21
121.756
 31
0.0
  0
LINE
  5
93
100
AcDbEntity
  8
LY_1
390
0
  6
CONTINUOUS
 62
     7
100
AcDbLine
 10
-343.930905
 20
59.17759
 30
0.0
 11
-343.930905
 21
60.17759
 31
0.0
  0
LINE
  5
94
100
AcDbEntity
  8
LY_1
390
0
  6
CONTINUOUS
 62
     7
100
AcDbLine
 10
-316.180905
 20
193.083171
 30
0.0
 11
-316.180905
 21
191.783171
 31
0.0
  0
LINE
  5
95
100
AcDbEntity
  8
LY_1
390
0
  6
CONTINUOUS
 62
     7
100
AcDbLine
 10
-319.680905
 20
191.783171
 30
0.0
 11
-319.680905
 21
193.083171
 31
0.0
  0
LINE
  5
96
100
AcDbEntity
  8
LY_1
390
0
  6
CONTINUOUS
 62
     7
100
AcDbLine
 10
-319.0681
 20
191.783171
 30
0.0
 11
-319.680905
 21
191.783171
 31
0.0
  0
LINE
  5
97
100
AcDbEntity
  8
LY_1
390
0
  6
CONTINUOUS
 62
     7
100
AcDbLine
 10
-319.680905
 20
193.083171
 30
0.0
 11
-319.0681
 21
193.083171
 31
0.0
  0
LINE
  5
98
100
AcDbEntity
  8
LY_1
390
0
  6
CONTINUOUS
 62
     7
100
AcDbLine
 10
-318.580905
 20
190.541765
 30
0.0
 11
-318.580905
 21
191.295976
 31
0.0
  0
LINE
  5
99
100
AcDbEntity
  8
LY_1
390
0
  6
CONTINUOUS
 62
     7
100
AcDbLine
 10
-318.580905
 20
193.570367
 30
0.0
 11
-318.580905
 21
194.324578
 31
0.0
  0
LINE
  5
9A
100
AcDbEntity
  8
LY_1
390
0
  6
CONTINUOUS
 62
     7
100
AcDbLine
 10
-317.280905
 20
194.324577
 30
0.0
 11
-317.280905
 21
193.570367
 31
0.0
  0
LINE
  5
9B
100
AcDbEntity
  8
LY_1
390
0
  6
CONTINUOUS
 62
     7
100
AcDbLine
 10
-317.280905
 20
191.295976
 30
0.0
 11
-317.280905
 21
190.541766
 31
0.0
  0
LWPOLYLINE
  5
9C
100
AcDbEntity
  8
LY_1
390
0
  6
CONTINUOUS
 62
     7
100
AcDbPolyline
 90
       15
 70
     0
 10
-317.280905
 20
193.570367
 10
-317.277271
 20
193.509671
 10
-317.266422
 20
193.450202
 10
-317.248511
 20
193.392802
 10
-317.223792
 20
193.338285
 10
-317.192614
 20
193.287421
 10
-317.15542
 20
193.240932
 10
-317.112735
 20
193.199476
 10
-317.065165
 20
193.16364
 10
-317.013384
 20
193.133931
 10
-316.958124
 20
193.110771
 10
-316.900168
 20
193.094487
 10
-316.840337
 20
193.085309
 10
-316.817074
 20
193.083706
 10
-316.793709
 20
193.083171
  0
LWPOLYLINE
  5
9D
100
AcDbEntity
  8
LY_1
390
0
  6
CONTINUOUS
 62
     7
100
AcDbPolyline
 90
       15
 70
     0
 10
-316.793709
 20
191.783171
 10
-316.854405
 20
191.779538
 10
-316.913874
 20
191.768689
 10
-316.971274
 20
191.750777
 10
-317.025791
 20
191.726058
 10
-317.076655
 20
191.69488
 10
-317.123144
 20
191.657686
 10
-317.1646
 20
191.615002
 10
-317.200436
 20
191.567432
 10
-317.230145
 20
191.51565
 10
-317.253305
 20
191.46039
 10
-317.269589
 20
191.402434
 10
-317.278767
 20
191.342603
 10
-317.28037
 20
191.319341
 10
-317.280905
 20
191.295976
  0
LWPOLYLINE
  5
9E
100
AcDbEntity
  8
LY_1
390
0
  6
CONTINUOUS
 62
     7
100
AcDbPolyline
 90
       15
 70
     0
 10
-319.0681
 20
193.083171
 10
-319.007405
 20
193.086805
 10
-318.947936
 20
193.097654
 10
-318.890536
 20
193.115565
 10
-318.836018
 20
193.140284
 10
-318.785155
 20
193.171462
 10
-318.738666
 20
193.208657
 10
-318.69721
 20
193.251341
 10
-318.661374
 20
193.298911
 10
-318.631665
 20
193.350692
 10
-318.608505
 20
193.405952
 10
-318.59222
 20
193.463908
 10
-318.583043
 20
193.523739
 10
-318.58144
 20
193.547002
 10
-318.580905
 20
193.570367
  0
LWPOLYLINE
  5
9F
100
AcDbEntity
  8
LY_1
390
0
  6
CONTINUOUS
 62
     7
100
AcDbPolyline
 90
       15
 70
     0
 10
-318.580905
 20
191.295976
 10
-318.584538
 20
191.356672
 10
-318.595388
 20
191.41614
 10
-318.613299
 20
191.47354
 10
-318.638018
 20
191.528058
 10
-318.669196
 20
191.578921
 10
-318.70639
 20
191.62541
 10
-318.749075
 20
191.666866
 10
-318.796644
 20
191.702702
 10
-318.848426
 20
191.732411
 10
-318.903686
 20
191.755571
 10
-318.961642
 20
191.771856
 10
-319.021473
 20
191.781033
 10
-319.044735
 20
191.782636
 10
-319.0681
 20
191.783171
  0
LINE
  5
A0
100
AcDbEntity
  8
LY_1
390
0
  6
CONTINUOUS
 62
     7
100
AcDbLine
 10
-316.180905
 20
191.783171
 30
0.0
 11
-316.793709
 21
191.783171
 31
0.0
  0
LINE
  5
A1
100
AcDbEntity
  8
LY_1
390
0
  6
CONTINUOUS
 62
     7
100
AcDbLine
 10
-316.793709
 20
193.083171
 30
0.0
 11
-316.180905
 21
193.083171
 31
0.0
  0
SPLINE
  5
A2
100
AcDbEntity
  8
LY_1
390
0
  6
CONTINUOUS
 62
     7
100
AcDbSpline
210
0.0
220
0.0
230
1.0
 70
     0
 71
     3
 72
     0
 73
     0
 74
    31
 44
0.000001
 12
-0.2234795250038278
 22
0.9747086241046929
 32
0.0
 13
0.0000132178466442
 23
0.9999999999126442
 33
0.0
 11
-318.47304918043568
 21
189.39316218578847
 31
0.0
 11
-318.48140621517774
 21
189.4307683650425
 31
0.0
 11
-318.48925827866299
 21
189.46848620178963
 31
0.0
 11
-318.49663519897263
 21
189.50630393694198
 31
0.0
 11
-318.50356680418793
 21
189.54420981141149
 31
0.0
 11
-318.51008292238993
 21
189.58219206611011
 31
0.0
 11
-318.51621338165995
 21
189.62023894194996
 31
0.0
 11
-318.52198756530385
 21
189.65833888908256
 31
0.0
 11
-318.52742587320307
 21
189.6964845838117
 31
0.0
 11
-318.53254036412017
 21
189.73467262642791
 31
0.0
 11
-318.53734278072471
 21
189.77289976592408
 31
0.0
 11
-318.54184486568658
 21
189.8111627512929
 31
0.0
 11
-318.54605836167548
 21
189.84945833152736
 31
0.0
 11
-318.54999501136115
 21
189.88778325562021
 31
0.0
 11
-318.55366655038529
 21
189.92613427414051
 31
0.0
 11
-318.55708289627546
 21
189.96450854544383
 31
0.0
 11
-318.5602497357026
 21
190.00290417682746
 31
0.0
 11
-318.56317215483193
 21
190.0413194102768
 31
0.0
 11
-318.56585523982869
 21
190.07975248777723
 31
0.0
 11
-318.56830407685823
 21
190.118201651314
 31
0.0
 11
-318.57052375208582
 21
190.15666514287244
 31
0.0
 11
-318.57251935167659
 21
190.19514120443799
 31
0.0
 11
-318.57429595322668
 21
190.23362807908083
 31
0.0
 11
-318.57585753245888
 21
190.27212414937543
 31
0.0
 11
-318.57720588921603
 21
190.31062807337693
 31
0.0
 11
-318.57834256826516
 21
190.34913854143451
 31
0.0
 11
-318.57926911437323
 21
190.38765424389749
 31
0.0
 11
-318.57998707230729
 21
190.42617387111511
 31
0.0
 11
-318.58049798683442
 21
190.46469611343656
 31
0.0
 11
-318.58080340272153
 21
190.50321966121129
 31
0.0
 11
-318.58090486473566
 21
190.54174320478839
 31
0.0
  0
SPLINE
  5
A3
100
AcDbEntity
  8
LY_1
390
0
  6
CONTINUOUS
 62
     7
100
AcDbSpline
210
0.0
220
0.0
230
1.0
 70
     0
 71
     3
 72
     0
 73
     0
 74
    46
 44
0.000001
 12
-0.4718215701783868
 22
-0.8816940545985335
 32
0.0
 13
0.0000157028268576
 23
-0.9999999998767106
 33
0.0
 11
-318.36211128343569
 21
195.80045426688847
 31
0.0
 11
-318.37718002315847
 21
195.77067118657288
 31
0.0
 11
-318.39087329993788
 21
195.74020573266699
 31
0.0
 11
-318.40340503904133
 21
195.70922062949631
 31
0.0
 11
-318.41498589378989
 21
195.67787548280884
 31
0.0
 11
-318.42575949085852
 21
195.64626601350878
 31
0.0
 11
-318.43580670583714
 21
195.61442813280496
 31
0.0
 11
-318.44520599864609
 21
195.58239544946815
 31
0.0
 11
-318.45403570502629
 21
195.55020151846563
 31
0.0
 11
-318.46235980820137
 21
195.51787367616924
 31
0.0
 11
-318.47021477160507
 21
195.48542733529808
 31
0.0
 11
-318.47763394580147
 21
195.45287655984069
 31
0.0
 11
-318.48465068135454
 21
195.4202354137856
 31
0.0
 11
-318.49129828303126
 21
195.38751793755861
 31
0.0
 11
-318.49760456839061
 21
195.35473534839039
 31
0.0
 11
-318.50358672707631
 21
195.32189339539789
 31
0.0
 11
-318.50926073169785
 21
195.28899720152779
 31
0.0
 11
-318.51464255486496
 21
195.25605188972719
 31
0.0
 11
-318.51974816918721
 21
195.2230625829429
 31
0.0
 11
-318.52459325934478
 21
195.19003431374341
 31
0.0
 11
-318.52918930175611
 21
195.15697079376164
 31
0.0
 11
-318.53354458371365
 21
195.12387473359252
 31
0.0
 11
-318.53766731333366
 21
195.09074881897848
 31
0.0
 11
-318.54156569873237
 21
195.05759573566161
 31
0.0
 11
-318.54524794802609
 21
195.02441816938432
 31
0.0
 11
-318.54872222378634
 21
194.99121878577748
 31
0.0
 11
-318.55199519883229
 21
194.95799959263496
 31
0.0
 11
-318.55507175912288
 21
194.92476180871839
 31
0.0
 11
-318.55795668503424
 21
194.89150660616653
 31
0.0
 11
-318.56065475694231
 21
194.85823515711834
 31
0.0
 11
-318.56317075522327
 21
194.82494863371252
 31
0.0
 11
-318.56550946025305
 21
194.79164820808805
 31
0.0
 11
-318.56767532870799
 21
194.7583350432671
 31
0.0
 11
-318.56967076465344
 21
194.72501024446305
 31
0.0
 11
-318.5714973701015
 21
194.69167489430038
 31
0.0
 11
-318.5731567452184
 21
194.65833007535156
 31
0.0
 11
-318.57465049017037
 21
194.62497687018919
 31
0.0
 11
-318.57598020512347
 21
194.5916163613858
 31
0.0
 11
-318.57714749024399
 21
194.55824963151406
 31
0.0
 11
-318.57815394569815
 21
194.52487776314638
 31
0.0
 11
-318.57900117165212
 21
194.4915018388553
 31
0.0
 11
-318.57969076827203
 21
194.45812294121336
 31
0.0
 11
-318.58022433572415
 21
194.42474215279321
 31
0.0
 11
-318.58060347417472
 21
194.39136055616729
 31
0.0
 11
-318.5808297837898
 21
194.35797923390822
 31
0.0
 11
-318.58090486473566
 21
194.32459926858849
 31
0.0
  0
SPLINE
  5
A4
100
AcDbEntity
  8
LY_1
390
0
  6
CONTINUOUS
 62
     7
100
AcDbSpline
210
0.0
220
0.0
230
1.0
 70
     0
 71
     3
 72
     0
 73
     0
 74
    46
 44
0.000001
 12
0.0000157028302633
 22
0.9999999998767105
 32
0.0
 13
-0.4718215701783872
 23
0.8816940545985332
 33
0.0
 11
-317.2809048647357
 21
194.32459926858849
 31
0.0
 11
-317.28097994568054
 21
194.35797923390822
 31
0.0
 11
-317.28120625529277
 21
194.39136055616729
 31
0.0
 11
-317.28158539373879
 21
194.42474215279316
 31
0.0
 11
-317.28211896118506
 21
194.45812294121336
 31
0.0
 11
-317.28280855779809
 21
194.49150183885527
 31
0.0
 11
-317.28365578374428
 21
194.52487776314638
 31
0.0
 11
-317.28466223919008
 21
194.55824963151406
 31
0.0
 11
-317.28582952430196
 21
194.59161636138583
 31
0.0
 11
-317.28715923924636
 21
194.62497687018916
 31
0.0
 11
-317.28865298418975
 21
194.65833007535153
 31
0.0
 11
-317.29031235929853
 21
194.69167489430035
 31
0.0
 11
-317.29213896473925
 21
194.72501024446305
 31
0.0
 11
-317.29413440067827
 21
194.7583350432671
 31
0.0
 11
-317.29630026912798
 21
194.79164820808808
 31
0.0
 11
-317.29863897415396
 21
194.82494863371255
 31
0.0
 11
-317.30115497243224
 21
194.85823515711832
 31
0.0
 11
-317.30385304433861
 21
194.89150660616656
 31
0.0
 11
-317.306737970249
 21
194.92476180871836
 31
0.0
 11
-317.3098145305392
 21
194.95799959263496
 31
0.0
 11
-317.31308750558503
 21
194.99121878577748
 31
0.0
 11
-317.31656178134529
 21
195.02441816938432
 31
0.0
 11
-317.320244030639
 21
195.05759573566164
 31
0.0
 11
-317.32414241603772
 21
195.09074881897843
 31
0.0
 11
-317.32826514565772
 21
195.12387473359254
 31
0.0
 11
-317.33262042761527
 21
195.15697079376164
 31
0.0
 11
-317.33721647002665
 21
195.19003431374341
 31
0.0
 11
-317.34206156018422
 21
195.22306258294293
 31
0.0
 11
-317.34716717450641
 21
195.25605188972719
 31
0.0
 11
-317.35254899767352
 21
195.28899720152782
 31
0.0
 11
-317.35822300229506
 21
195.32189339539786
 31
0.0
 11
-317.36420516098076
 21
195.35473534839042
 31
0.0
 11
-317.37051144634017
 21
195.38751793755858
 31
0.0
 11
-317.37715904801684
 21
195.42023541378558
 31
0.0
 11
-317.38417578356996
 21
195.45287655984063
 31
0.0
 11
-317.3915949577663
 21
195.48542733529811
 31
0.0
 11
-317.39944992117
 21
195.51787367616927
 31
0.0
 11
-317.40777402434509
 21
195.55020151846563
 31
0.0
 11
-317.41660373072523
 21
195.58239544946815
 31
0.0
 11
-317.42600302353424
 21
195.6144281328049
 31
0.0
 11
-317.43605023851285
 21
195.64626601350881
 31
0.0
 11
-317.44682383558154
 21
195.67787548280882
 31
0.0
 11
-317.45840469032998
 21
195.70922062949629
 31
0.0
 11
-317.47093642943349
 21
195.74020573266699
 31
0.0
 11
-317.4846297062129
 21
195.77067118657291
 31
0.0
 11
-317.49969844593568
 21
195.80045426688847
 31
0.0
  0
SPLINE
  5
A5
100
AcDbEntity
  8
LY_1
390
0
  6
CONTINUOUS
 62
     7
100
AcDbSpline
210
0.0
220
0.0
230
1.0
 70
     0
 71
     3
 72
     0
 73
     0
 74
    31
 44
0.000001
 12
0.2234795261300205
 22
0.9747086238464814
 32
0.0
 13
-0.0000132178540217
 23
0.9999999999126442
 33
0.0
 11
-317.38876054903568
 21
189.39316218578847
 31
0.0
 11
-317.38040351425406
 21
189.4307683650425
 31
0.0
 11
-317.37255145074135
 21
189.46848620178963
 31
0.0
 11
-317.36517453041415
 21
189.50630393694198
 31
0.0
 11
-317.35824292518902
 21
189.54420981141149
 31
0.0
 11
-317.35172680698258
 21
189.58219206611011
 31
0.0
 11
-317.34559634771142
 21
189.62023894194996
 31
0.0
 11
-317.33982216406753
 21
189.65833888908256
 31
0.0
 11
-317.33438385616824
 21
189.6964845838117
 31
0.0
 11
-317.32926936525121
 21
189.73467262642791
 31
0.0
 11
-317.32446694864666
 21
189.77289976592408
 31
0.0
 11
-317.31996486368479
 21
189.8111627512929
 31
0.0
 11
-317.3157513676959
 21
189.84945833152736
 31
0.0
 11
-317.31181471801023
 21
189.88778325562021
 31
0.0
 11
-317.30814317898609
 21
189.92613427414051
 31
0.0
 11
-317.30472683309597
 21
189.96450854544383
 31
0.0
 11
-317.30155999366923
 21
190.00290417682746
 31
0.0
 11
-317.29863757454098
 21
190.0413194102768
 31
0.0
 11
-317.29595448954615
 21
190.07975248777723
 31
0.0
 11
-317.2935056525198
 21
190.118201651314
 31
0.0
 11
-317.29128597729698
 21
190.15666514287244
 31
0.0
 11
-317.28929037771258
 21
190.19514120443799
 31
0.0
 11
-317.28751377617101
 21
190.23362807908083
 31
0.0
 11
-317.28595219694932
 21
190.27212414937543
 31
0.0
 11
-317.284603840204
 21
190.31062807337693
 31
0.0
 11
-317.28346716116715
 21
190.34913854143451
 31
0.0
 11
-317.28254061507096
 21
190.38765424389749
 31
0.0
 11
-317.28182265714747
 21
190.42617387111511
 31
0.0
 11
-317.28131174262904
 21
190.46469611343656
 31
0.0
 11
-317.28100632674773
 21
190.50321966121129
 31
0.0
 11
-317.2809048647357
 21
190.54174320478839
 31
0.0
  0
LINE
  5
A6
100
AcDbEntity
  8
LY_1
390
0
  6
CONTINUOUS
 62
     7
100
AcDbLine
 10
-324.980905
 20
193.083171
 30
0.0
 11
-324.980905
 21
191.783171
 31
0.0
  0
LINE
  5
A7
100
AcDbEntity
  8
LY_1
390
0
  6
CONTINUOUS
 62
     7
100
AcDbLine
 10
-328.480905
 20
191.783171
 30
0.0
 11
-328.480905
 21
193.083171
 31
0.0
  0
LINE
  5
A8
100
AcDbEntity
  8
LY_1
390
0
  6
CONTINUOUS
 62
     7
100
AcDbLine
 10
-327.8681
 20
191.783171
 30
0.0
 11
-328.480905
 21
191.783171
 31
0.0
  0
LINE
  5
A9
100
AcDbEntity
  8
LY_1
390
0
  6
CONTINUOUS
 62
     7
100
AcDbLine
 10
-328.480905
 20
193.083171
 30
0.0
 11
-327.8681
 21
193.083171
 31
0.0
  0
LINE
  5
AA
100
AcDbEntity
  8
LY_1
390
0
  6
CONTINUOUS
 62
     7
100
AcDbLine
 10
-327.380905
 20
190.541765
 30
0.0
 11
-327.380905
 21
191.295976
 31
0.0
  0
LINE
  5
AB
100
AcDbEntity
  8
LY_1
390
0
  6
CONTINUOUS
 62
     7
100
AcDbLine
 10
-327.380905
 20
193.570367
 30
0.0
 11
-327.380905
 21
194.324578
 31
0.0
  0
LINE
  5
AC
100
AcDbEntity
  8
LY_1
390
0
  6
CONTINUOUS
 62
     7
100
AcDbLine
 10
-326.080905
 20
194.324577
 30
0.0
 11
-326.080905
 21
193.570367
 31
0.0
  0
LINE
  5
AD
100
AcDbEntity
  8
LY_1
390
0
  6
CONTINUOUS
 62
     7
100
AcDbLine
 10
-326.080905
 20
191.295976
 30
0.0
 11
-326.080905
 21
190.541766
 31
0.0
  0
LWPOLYLINE
  5
AE
100
AcDbEntity
  8
LY_1
390
0
  6
CONTINUOUS
 62
     7
100
AcDbPolyline
 90
       15
 70
     0
 10
-326.080905
 20
193.570367
 10
-326.077271
 20
193.509671
 10
-326.066422
 20
193.450202
 10
-326.048511
 20
193.392802
 10
-326.023792
 20
193.338285
 10
-325.992614
 20
193.287421
 10
-325.95542
 20
193.240932
 10
-325.912735
 20
193.199476
 10
-325.865165
 20
193.16364
 10
-325.813384
 20
193.133931
 10
-325.758124
 20
193.110771
 10
-325.700168
 20
193.094487
 10
-325.640337
 20
193.085309
 10
-325.617074
 20
193.083706
 10
-325.593709
 20
193.083171
  0
LWPOLYLINE
  5
AF
100
AcDbEntity
  8
LY_1
390
0
  6
CONTINUOUS
 62
     7
100
AcDbPolyline
 90
       15
 70
     0
 10
-325.593709
 20
191.783171
 10
-325.654405
 20
191.779538
 10
-325.713874
 20
191.768689
 10
-325.771274
 20
191.750777
 10
-325.825791
 20
191.726058
 10
-325.876655
 20
191.69488
 10
-325.923144
 20
191.657686
 10
-325.9646
 20
191.615002
 10
-326.000436
 20
191.567432
 10
-326.030145
 20
191.51565
 10
-326.053305
 20
191.46039
 10
-326.069589
 20
191.402434
 10
-326.078767
 20
191.342603
 10
-326.08037
 20
191.319341
 10
-326.080905
 20
191.295976
  0
LWPOLYLINE
  5
B0
100
AcDbEntity
  8
LY_1
390
0
  6
CONTINUOUS
 62
     7
100
AcDbPolyline
 90
       15
 70
     0
 10
-327.8681
 20
193.083171
 10
-327.807405
 20
193.086805
 10
-327.747936
 20
193.097654
 10
-327.690536
 20
193.115565
 10
-327.636018
 20
193.140284
 10
-327.585155
 20
193.171462
 10
-327.538666
 20
193.208657
 10
-327.49721
 20
193.251341
 10
-327.461374
 20
193.298911
 10
-327.431665
 20
193.350692
 10
-327.408505
 20
193.405952
 10
-327.39222
 20
193.463908
 10
-327.383043
 20
193.523739
 10
-327.38144
 20
193.547002
 10
-327.380905
 20
193.570367
  0
LWPOLYLINE
  5
B1
100
AcDbEntity
  8
LY_1
390
0
  6
CONTINUOUS
 62
     7
100
AcDbPolyline
 90
       15
 70
     0
 10
-327.380905
 20
191.295976
 10
-327.384538
 20
191.356672
 10
-327.395388
 20
191.41614
 10
-327.413299
 20
191.47354
 10
-327.438018
 20
191.528058
 10
-327.469196
 20
191.578921
 10
-327.50639
 20
191.62541
 10
-327.549075
 20
191.666866
 10
-327.596644
 20
191.702702
 10
-327.648426
 20
191.732411
 10
-327.703686
 20
191.755571
 10
-327.761642
 20
191.771856
 10
-327.821473
 20
191.781033
 10
-327.844735
 20
191.782636
 10
-327.8681
 20
191.783171
  0
LINE
  5
B2
100
AcDbEntity
  8
LY_1
390
0
  6
CONTINUOUS
 62
     7
100
AcDbLine
 10
-324.980905
 20
191.783171
 30
0.0
 11
-325.593709
 21
191.783171
 31
0.0
  0
LINE
  5
B3
100
AcDbEntity
  8
LY_1
390
0
  6
CONTINUOUS
 62
     7
100
AcDbLine
 10
-325.593709
 20
193.083171
 30
0.0
 11
-324.980905
 21
193.083171
 31
0.0
  0
SPLINE
  5
B4
100
AcDbEntity
  8
LY_1
390
0
  6
CONTINUOUS
 62
     7
100
AcDbSpline
210
0.0
220
0.0
230
1.0
 70
     0
 71
     3
 72
     0
 73
     0
 74
    31
 44
0.000001
 12
-0.2234795250038278
 22
0.9747086241046929
 32
0.0
 13
0.0000132178466442
 23
0.9999999999126442
 33
0.0
 11
-327.27304918043569
 21
189.39316218578847
 31
0.0
 11
-327.28140621517775
 21
189.4307683650425
 31
0.0
 11
-327.289258278663
 21
189.46848620178963
 31
0.0
 11
-327.29663519897264
 21
189.50630393694198
 31
0.0
 11
-327.30356680418794
 21
189.54420981141149
 31
0.0
 11
-327.31008292238994
 21
189.58219206611011
 31
0.0
 11
-327.31621338165996
 21
189.62023894194996
 31
0.0
 11
-327.32198756530386
 21
189.65833888908256
 31
0.0
 11
-327.32742587320308
 21
189.6964845838117
 31
0.0
 11
-327.33254036412018
 21
189.73467262642791
 31
0.0
 11
-327.33734278072473
 21
189.77289976592408
 31
0.0
 11
-327.3418448656866
 21
189.8111627512929
 31
0.0
 11
-327.34605836167549
 21
189.84945833152736
 31
0.0
 11
-327.34999501136116
 21
189.88778325562021
 31
0.0
 11
-327.3536665503853
 21
189.92613427414051
 31
0.0
 11
-327.35708289627547
 21
189.96450854544383
 31
0.0
 11
-327.36024973570261
 21
190.00290417682746
 31
0.0
 11
-327.36317215483194
 21
190.0413194102768
 31
0.0
 11
-327.3658552398287
 21
190.07975248777723
 31
0.0
 11
-327.36830407685824
 21
190.118201651314
 31
0.0
 11
-327.37052375208583
 21
190.15666514287244
 31
0.0
 11
-327.3725193516766
 21
190.19514120443799
 31
0.0
 11
-327.37429595322669
 21
190.23362807908083
 31
0.0
 11
-327.37585753245889
 21
190.27212414937543
 31
0.0
 11
-327.37720588921604
 21
190.31062807337693
 31
0.0
 11
-327.37834256826517
 21
190.34913854143451
 31
0.0
 11
-327.37926911437324
 21
190.38765424389749
 31
0.0
 11
-327.3799870723073
 21
190.42617387111511
 31
0.0
 11
-327.38049798683443
 21
190.46469611343656
 31
0.0
 11
-327.38080340272154
 21
190.50321966121129
 31
0.0
 11
-327.38090486473567
 21
190.54174320478839
 31
0.0
  0
SPLINE
  5
B5
100
AcDbEntity
  8
LY_1
390
0
  6
CONTINUOUS
 62
     7
100
AcDbSpline
210
0.0
220
0.0
230
1.0
 70
     0
 71
     3
 72
     0
 73
     0
 74
    46
 44
0.000001
 12
-0.4718215701783868
 22
-0.8816940545985335
 32
0.0
 13
0.0000157028268576
 23
-0.9999999998767106
 33
0.0
 11
-327.16211128343571
 21
195.80045426688847
 31
0.0
 11
-327.17718002315848
 21
195.77067118657288
 31
0.0
 11
-327.19087329993789
 21
195.74020573266699
 31
0.0
 11
-327.20340503904134
 21
195.70922062949631
 31
0.0
 11
-327.2149858937899
 21
195.67787548280884
 31
0.0
 11
-327.22575949085854
 21
195.64626601350878
 31
0.0
 11
-327.23580670583715
 21
195.61442813280496
 31
0.0
 11
-327.2452059986461
 21
195.58239544946815
 31
0.0
 11
-327.2540357050263
 21
195.55020151846563
 31
0.0
 11
-327.26235980820138
 21
195.51787367616924
 31
0.0
 11
-327.27021477160508
 21
195.48542733529808
 31
0.0
 11
-327.27763394580148
 21
195.45287655984069
 31
0.0
 11
-327.28465068135455
 21
195.4202354137856
 31
0.0
 11
-327.29129828303127
 21
195.38751793755861
 31
0.0
 11
-327.29760456839062
 21
195.35473534839039
 31
0.0
 11
-327.30358672707632
 21
195.32189339539789
 31
0.0
 11
-327.30926073169786
 21
195.28899720152779
 31
0.0
 11
-327.31464255486497
 21
195.25605188972719
 31
0.0
 11
-327.31974816918722
 21
195.2230625829429
 31
0.0
 11
-327.32459325934479
 21
195.19003431374341
 31
0.0
 11
-327.32918930175612
 21
195.15697079376164
 31
0.0
 11
-327.33354458371366
 21
195.12387473359252
 31
0.0
 11
-327.33766731333367
 21
195.09074881897848
 31
0.0
 11
-327.34156569873238
 21
195.05759573566161
 31
0.0
 11
-327.3452479480261
 21
195.02441816938432
 31
0.0
 11
-327.34872222378635
 21
194.99121878577748
 31
0.0
 11
-327.3519951988323
 21
194.95799959263496
 31
0.0
 11
-327.35507175912289
 21
194.92476180871839
 31
0.0
 11
-327.35795668503425
 21
194.89150660616653
 31
0.0
 11
-327.36065475694232
 21
194.85823515711834
 31
0.0
 11
-327.36317075522328
 21
194.82494863371252
 31
0.0
 11
-327.36550946025307
 21
194.79164820808805
 31
0.0
 11
-327.367675328708
 21
194.7583350432671
 31
0.0
 11
-327.36967076465345
 21
194.72501024446305
 31
0.0
 11
-327.37149737010151
 21
194.69167489430038
 31
0.0
 11
-327.37315674521841
 21
194.65833007535156
 31
0.0
 11
-327.37465049017038
 21
194.62497687018919
 31
0.0
 11
-327.37598020512348
 21
194.5916163613858
 31
0.0
 11
-327.377147490244
 21
194.55824963151406
 31
0.0
 11
-327.37815394569816
 21
194.52487776314638
 31
0.0
 11
-327.37900117165213
 21
194.4915018388553
 31
0.0
 11
-327.37969076827204
 21
194.45812294121336
 31
0.0
 11
-327.38022433572417
 21
194.42474215279321
 31
0.0
 11
-327.38060347417473
 21
194.39136055616729
 31
0.0
 11
-327.38082978378981
 21
194.35797923390822
 31
0.0
 11
-327.38090486473567
 21
194.32459926858849
 31
0.0
  0
SPLINE
  5
B6
100
AcDbEntity
  8
LY_1
390
0
  6
CONTINUOUS
 62
     7
100
AcDbSpline
210
0.0
220
0.0
230
1.0
 70
     0
 71
     3
 72
     0
 73
     0
 74
    46
 44
0.000001
 12
0.0000157028302633
 22
0.9999999998767105
 32
0.0
 13
-0.4718215701783872
 23
0.8816940545985332
 33
0.0
 11
-326.08090486473571
 21
194.32459926858849
 31
0.0
 11
-326.08097994568055
 21
194.35797923390822
 31
0.0
 11
-326.08120625529278
 21
194.39136055616729
 31
0.0
 11
-326.08158539373881
 21
194.42474215279316
 31
0.0
 11
-326.08211896118507
 21
194.45812294121336
 31
0.0
 11
-326.0828085577981
 21
194.49150183885527
 31
0.0
 11
-326.08365578374429
 21
194.52487776314638
 31
0.0
 11
-326.0846622391901
 21
194.55824963151406
 31
0.0
 11
-326.08582952430197
 21
194.59161636138583
 31
0.0
 11
-326.08715923924638
 21
194.62497687018916
 31
0.0
 11
-326.08865298418976
 21
194.65833007535153
 31
0.0
 11
-326.09031235929854
 21
194.69167489430035
 31
0.0
 11
-326.09213896473926
 21
194.72501024446305
 31
0.0
 11
-326.09413440067829
 21
194.7583350432671
 31
0.0
 11
-326.09630026912799
 21
194.79164820808808
 31
0.0
 11
-326.09863897415397
 21
194.82494863371255
 31
0.0
 11
-326.10115497243225
 21
194.85823515711832
 31
0.0
 11
-326.10385304433862
 21
194.89150660616656
 31
0.0
 11
-326.10673797024901
 21
194.92476180871836
 31
0.0
 11
-326.10981453053921
 21
194.95799959263496
 31
0.0
 11
-326.11308750558504
 21
194.99121878577748
 31
0.0
 11
-326.1165617813453
 21
195.02441816938432
 31
0.0
 11
-326.12024403063901
 21
195.05759573566164
 31
0.0
 11
-326.12414241603773
 21
195.09074881897843
 31
0.0
 11
-326.12826514565774
 21
195.12387473359254
 31
0.0
 11
-326.13262042761528
 21
195.15697079376164
 31
0.0
 11
-326.13721647002666
 21
195.19003431374341
 31
0.0
 11
-326.14206156018423
 21
195.22306258294293
 31
0.0
 11
-326.14716717450642
 21
195.25605188972719
 31
0.0
 11
-326.15254899767353
 21
195.28899720152782
 31
0.0
 11
-326.15822300229507
 21
195.32189339539786
 31
0.0
 11
-326.16420516098077
 21
195.35473534839042
 31
0.0
 11
-326.17051144634019
 21
195.38751793755858
 31
0.0
 11
-326.17715904801685
 21
195.42023541378558
 31
0.0
 11
-326.18417578356997
 21
195.45287655984063
 31
0.0
 11
-326.19159495776631
 21
195.48542733529811
 31
0.0
 11
-326.19944992117001
 21
195.51787367616927
 31
0.0
 11
-326.2077740243451
 21
195.55020151846563
 31
0.0
 11
-326.21660373072524
 21
195.58239544946815
 31
0.0
 11
-326.22600302353425
 21
195.6144281328049
 31
0.0
 11
-326.23605023851286
 21
195.64626601350881
 31
0.0
 11
-326.24682383558155
 21
195.67787548280882
 31
0.0
 11
-326.25840469033
 21
195.70922062949629
 31
0.0
 11
-326.2709364294335
 21
195.74020573266699
 31
0.0
 11
-326.28462970621291
 21
195.77067118657291
 31
0.0
 11
-326.29969844593569
 21
195.80045426688847
 31
0.0
  0
SPLINE
  5
B7
100
AcDbEntity
  8
LY_1
390
0
  6
CONTINUOUS
 62
     7
100
AcDbSpline
210
0.0
220
0.0
230
1.0
 70
     0
 71
     3
 72
     0
 73
     0
 74
    31
 44
0.000001
 12
0.2234795261300205
 22
0.9747086238464814
 32
0.0
 13
-0.0000132178540217
 23
0.9999999999126442
 33
0.0
 11
-326.18876054903569
 21
189.39316218578847
 31
0.0
 11
-326.18040351425407
 21
189.4307683650425
 31
0.0
 11
-326.17255145074137
 21
189.46848620178963
 31
0.0
 11
-326.16517453041416
 21
189.50630393694198
 31
0.0
 11
-326.15824292518903
 21
189.54420981141149
 31
0.0
 11
-326.15172680698259
 21
189.58219206611011
 31
0.0
 11
-326.14559634771143
 21
189.62023894194996
 31
0.0
 11
-326.13982216406754
 21
189.65833888908256
 31
0.0
 11
-326.13438385616826
 21
189.6964845838117
 31
0.0
 11
-326.12926936525122
 21
189.73467262642791
 31
0.0
 11
-326.12446694864667
 21
189.77289976592408
 31
0.0
 11
-326.1199648636848
 21
189.8111627512929
 31
0.0
 11
-326.11575136769591
 21
189.84945833152736
 31
0.0
 11
-326.11181471801024
 21
189.88778325562021
 31
0.0
 11
-326.1081431789861
 21
189.92613427414051
 31
0.0
 11
-326.10472683309598
 21
189.96450854544383
 31
0.0
 11
-326.10155999366924
 21
190.00290417682746
 31
0.0
 11
-326.09863757454099
 21
190.0413194102768
 31
0.0
 11
-326.09595448954616
 21
190.07975248777723
 31
0.0
 11
-326.09350565251981
 21
190.118201651314
 31
0.0
 11
-326.09128597729699
 21
190.15666514287244
 31
0.0
 11
-326.08929037771259
 21
190.19514120443799
 31
0.0
 11
-326.08751377617102
 21
190.23362807908083
 31
0.0
 11
-326.08595219694934
 21
190.27212414937543
 31
0.0
 11
-326.08460384020401
 21
190.31062807337693
 31
0.0
 11
-326.08346716116716
 21
190.34913854143451
 31
0.0
 11
-326.08254061507097
 21
190.38765424389749
 31
0.0
 11
-326.08182265714748
 21
190.42617387111511
 31
0.0
 11
-326.08131174262905
 21
190.46469611343656
 31
0.0
 11
-326.08100632674774
 21
190.50321966121129
 31
0.0
 11
-326.08090486473571
 21
190.54174320478839
 31
0.0
  0
LINE
  5
B8
100
AcDbEntity
  8
LY_1
390
0
  6
CONTINUOUS
 62
     7
100
AcDbLine
 10
-333.780905
 20
193.083171
 30
0.0
 11
-333.780905
 21
191.783171
 31
0.0
  0
LINE
  5
B9
100
AcDbEntity
  8
LY_1
390
0
  6
CONTINUOUS
 62
     7
100
AcDbLine
 10
-337.280905
 20
191.783171
 30
0.0
 11
-337.280905
 21
193.083171
 31
0.0
  0
LINE
  5
BA
100
AcDbEntity
  8
LY_1
390
0
  6
CONTINUOUS
 62
     7
100
AcDbLine
 10
-336.6681
 20
191.783171
 30
0.0
 11
-337.280905
 21
191.783171
 31
0.0
  0
LINE
  5
BB
100
AcDbEntity
  8
LY_1
390
0
  6
CONTINUOUS
 62
     7
100
AcDbLine
 10
-337.280905
 20
193.083171
 30
0.0
 11
-336.6681
 21
193.083171
 31
0.0
  0
LINE
  5
BC
100
AcDbEntity
  8
LY_1
390
0
  6
CONTINUOUS
 62
     7
100
AcDbLine
 10
-336.180905
 20
190.541765
 30
0.0
 11
-336.180905
 21
191.295976
 31
0.0
  0
LINE
  5
BD
100
AcDbEntity
  8
LY_1
390
0
  6
CONTINUOUS
 62
     7
100
AcDbLine
 10
-336.180905
 20
193.570367
 30
0.0
 11
-336.180905
 21
194.324578
 31
0.0
  0
LINE
  5
BE
100
AcDbEntity
  8
LY_1
390
0
  6
CONTINUOUS
 62
     7
100
AcDbLine
 10
-334.880905
 20
194.324577
 30
0.0
 11
-334.880905
 21
193.570367
 31
0.0
  0
LINE
  5
BF
100
AcDbEntity
  8
LY_1
390
0
  6
CONTINUOUS
 62
     7
100
AcDbLine
 10
-334.880905
 20
191.295976
 30
0.0
 11
-334.880905
 21
190.541766
 31
0.0
  0
LWPOLYLINE
  5
C0
100
AcDbEntity
  8
LY_1
390
0
  6
CONTINUOUS
 62
     7
100
AcDbPolyline
 90
       15
 70
     0
 10
-334.880905
 20
193.570367
 10
-334.877271
 20
193.509671
 10
-334.866422
 20
193.450202
 10
-334.848511
 20
193.392802
 10
-334.823792
 20
193.338285
 10
-334.792614
 20
193.287421
 10
-334.75542
 20
193.240932
 10
-334.712735
 20
193.199476
 10
-334.665165
 20
193.16364
 10
-334.613384
 20
193.133931
 10
-334.558124
 20
193.110771
 10
-334.500168
 20
193.094487
 10
-334.440337
 20
193.085309
 10
-334.417074
 20
193.083706
 10
-334.393709
 20
193.083171
  0
LWPOLYLINE
  5
C1
100
AcDbEntity
  8
LY_1
390
0
  6
CONTINUOUS
 62
     7
100
AcDbPolyline
 90
       15
 70
     0
 10
-334.393709
 20
191.783171
 10
-334.454405
 20
191.779538
 10
-334.513874
 20
191.768689
 10
-334.571274
 20
191.750777
 10
-334.625791
 20
191.726058
 10
-334.676655
 20
191.69488
 10
-334.723144
 20
191.657686
 10
-334.7646
 20
191.615002
 10
-334.800436
 20
191.567432
 10
-334.830145
 20
191.51565
 10
-334.853305
 20
191.46039
 10
-334.869589
 20
191.402434
 10
-334.878767
 20
191.342603
 10
-334.88037
 20
191.319341
 10
-334.880905
 20
191.295976
  0
LWPOLYLINE
  5
C2
100
AcDbEntity
  8
LY_1
390
0
  6
CONTINUOUS
 62
     7
100
AcDbPolyline
 90
       15
 70
     0
 10
-336.6681
 20
193.083171
 10
-336.607405
 20
193.086805
 10
-336.547936
 20
193.097654
 10
-336.490536
 20
193.115565
 10
-336.436018
 20
193.140284
 10
-336.385155
 20
193.171462
 10
-336.338666
 20
193.208657
 10
-336.29721
 20
193.251341
 10
-336.261374
 20
193.298911
 10
-336.231665
 20
193.350692
 10
-336.208505
 20
193.405952
 10
-336.19222
 20
193.463908
 10
-336.183043
 20
193.523739
 10
-336.18144
 20
193.547002
 10
-336.180905
 20
193.570367
  0
LWPOLYLINE
  5
C3
100
AcDbEntity
  8
LY_1
390
0
  6
CONTINUOUS
 62
     7
100
AcDbPolyline
 90
       15
 70
     0
 10
-336.180905
 20
191.295976
 10
-336.184538
 20
191.356672
 10
-336.195388
 20
191.41614
 10
-336.213299
 20
191.47354
 10
-336.238018
 20
191.528058
 10
-336.269196
 20
191.578921
 10
-336.30639
 20
191.62541
 10
-336.349075
 20
191.666866
 10
-336.396644
 20
191.702702
 10
-336.448426
 20
191.732411
 10
-336.503686
 20
191.755571
 10
-336.561642
 20
191.771856
 10
-336.621473
 20
191.781033
 10
-336.644735
 20
191.782636
 10
-336.6681
 20
191.783171
  0
LINE
  5
C4
100
AcDbEntity
  8
LY_1
390
0
  6
CONTINUOUS
 62
     7
100
AcDbLine
 10
-333.780905
 20
191.783171
 30
0.0
 11
-334.393709
 21
191.783171
 31
0.0
  0
LINE
  5
C5
100
AcDbEntity
  8
LY_1
390
0
  6
CONTINUOUS
 62
     7
100
AcDbLine
 10
-334.393709
 20
193.083171
 30
0.0
 11
-333.780905
 21
193.083171
 31
0.0
  0
SPLINE
  5
C6
100
AcDbEntity
  8
LY_1
390
0
  6
CONTINUOUS
 62
     7
100
AcDbSpline
210
0.0
220
0.0
230
1.0
 70
     0
 71
     3
 72
     0
 73
     0
 74
    31
 44
0.000001
 12
-0.2234795250038278
 22
0.9747086241046929
 32
0.0
 13
0.0000132178466442
 23
0.9999999999126442
 33
0.0
 11
-336.0730491804357
 21
189.39316218578847
 31
0.0
 11
-336.08140621517776
 21
189.4307683650425
 31
0.0
 11
-336.08925827866301
 21
189.46848620178963
 31
0.0
 11
-336.09663519897265
 21
189.50630393694198
 31
0.0
 11
-336.10356680418795
 21
189.54420981141149
 31
0.0
 11
-336.11008292238995
 21
189.58219206611011
 31
0.0
 11
-336.11621338165997
 21
189.62023894194996
 31
0.0
 11
-336.12198756530387
 21
189.65833888908256
 31
0.0
 11
-336.12742587320309
 21
189.6964845838117
 31
0.0
 11
-336.13254036412019
 21
189.73467262642791
 31
0.0
 11
-336.13734278072474
 21
189.77289976592408
 31
0.0
 11
-336.14184486568661
 21
189.8111627512929
 31
0.0
 11
-336.1460583616755
 21
189.84945833152736
 31
0.0
 11
-336.14999501136117
 21
189.88778325562021
 31
0.0
 11
-336.15366655038531
 21
189.92613427414051
 31
0.0
 11
-336.15708289627548
 21
189.96450854544383
 31
0.0
 11
-336.16024973570262
 21
190.00290417682746
 31
0.0
 11
-336.16317215483195
 21
190.0413194102768
 31
0.0
 11
-336.16585523982872
 21
190.07975248777723
 31
0.0
 11
-336.16830407685825
 21
190.118201651314
 31
0.0
 11
-336.17052375208584
 21
190.15666514287244
 31
0.0
 11
-336.17251935167661
 21
190.19514120443799
 31
0.0
 11
-336.1742959532267
 21
190.23362807908083
 31
0.0
 11
-336.17585753245891
 21
190.27212414937543
 31
0.0
 11
-336.17720588921605
 21
190.31062807337693
 31
0.0
 11
-336.17834256826518
 21
190.34913854143451
 31
0.0
 11
-336.17926911437326
 21
190.38765424389749
 31
0.0
 11
-336.17998707230731
 21
190.42617387111511
 31
0.0
 11
-336.18049798683444
 21
190.46469611343656
 31
0.0
 11
-336.18080340272155
 21
190.50321966121129
 31
0.0
 11
-336.18090486473568
 21
190.54174320478839
 31
0.0
  0
SPLINE
  5
C7
100
AcDbEntity
  8
LY_1
390
0
  6
CONTINUOUS
 62
     7
100
AcDbSpline
210
0.0
220
0.0
230
1.0
 70
     0
 71
     3
 72
     0
 73
     0
 74
    46
 44
0.000001
 12
-0.4718215701783868
 22
-0.8816940545985335
 32
0.0
 13
0.0000157028268576
 23
-0.9999999998767106
 33
0.0
 11
-335.96211128343572
 21
195.80045426688847
 31
0.0
 11
-335.9771800231585
 21
195.77067118657288
 31
0.0
 11
-335.9908732999379
 21
195.74020573266699
 31
0.0
 11
-336.00340503904135
 21
195.70922062949631
 31
0.0
 11
-336.01498589378991
 21
195.67787548280884
 31
0.0
 11
-336.02575949085855
 21
195.64626601350878
 31
0.0
 11
-336.03580670583716
 21
195.61442813280496
 31
0.0
 11
-336.04520599864611
 21
195.58239544946815
 31
0.0
 11
-336.05403570502631
 21
195.55020151846563
 31
0.0
 11
-336.06235980820139
 21
195.51787367616924
 31
0.0
 11
-336.07021477160509
 21
195.48542733529808
 31
0.0
 11
-336.07763394580149
 21
195.45287655984069
 31
0.0
 11
-336.08465068135456
 21
195.4202354137856
 31
0.0
 11
-336.09129828303128
 21
195.38751793755861
 31
0.0
 11
-336.09760456839064
 21
195.35473534839039
 31
0.0
 11
-336.10358672707633
 21
195.32189339539789
 31
0.0
 11
-336.10926073169787
 21
195.28899720152779
 31
0.0
 11
-336.11464255486499
 21
195.25605188972719
 31
0.0
 11
-336.11974816918723
 21
195.2230625829429
 31
0.0
 11
-336.12459325934481
 21
195.19003431374341
 31
0.0
 11
-336.12918930175613
 21
195.15697079376164
 31
0.0
 11
-336.13354458371367
 21
195.12387473359252
 31
0.0
 11
-336.13766731333368
 21
195.09074881897848
 31
0.0
 11
-336.14156569873239
 21
195.05759573566161
 31
0.0
 11
-336.14524794802611
 21
195.02441816938432
 31
0.0
 11
-336.14872222378636
 21
194.99121878577748
 31
0.0
 11
-336.15199519883231
 21
194.95799959263496
 31
0.0
 11
-336.1550717591229
 21
194.92476180871839
 31
0.0
 11
-336.15795668503426
 21
194.89150660616653
 31
0.0
 11
-336.16065475694234
 21
194.85823515711834
 31
0.0
 11
-336.16317075522329
 21
194.82494863371252
 31
0.0
 11
-336.16550946025308
 21
194.79164820808805
 31
0.0
 11
-336.16767532870801
 21
194.7583350432671
 31
0.0
 11
-336.16967076465346
 21
194.72501024446305
 31
0.0
 11
-336.17149737010152
 21
194.69167489430038
 31
0.0
 11
-336.17315674521842
 21
194.65833007535156
 31
0.0
 11
-336.17465049017039
 21
194.62497687018919
 31
0.0
 11
-336.17598020512349
 21
194.5916163613858
 31
0.0
 11
-336.17714749024401
 21
194.55824963151406
 31
0.0
 11
-336.17815394569817
 21
194.52487776314638
 31
0.0
 11
-336.17900117165215
 21
194.4915018388553
 31
0.0
 11
-336.17969076827205
 21
194.45812294121336
 31
0.0
 11
-336.18022433572418
 21
194.42474215279321
 31
0.0
 11
-336.18060347417475
 21
194.39136055616729
 31
0.0
 11
-336.18082978378982
 21
194.35797923390822
 31
0.0
 11
-336.18090486473568
 21
194.32459926858849
 31
0.0
  0
SPLINE
  5
C8
100
AcDbEntity
  8
LY_1
390
0
  6
CONTINUOUS
 62
     7
100
AcDbSpline
210
0.0
220
0.0
230
1.0
 70
     0
 71
     3
 72
     0
 73
     0
 74
    46
 44
0.000001
 12
0.0000157028302633
 22
0.9999999998767105
 32
0.0
 13
-0.4718215701783872
 23
0.8816940545985332
 33
0.0
 11
-334.88090486473573
 21
194.32459926858849
 31
0.0
 11
-334.88097994568056
 21
194.35797923390822
 31
0.0
 11
-334.8812062552928
 21
194.39136055616729
 31
0.0
 11
-334.88158539373882
 21
194.42474215279316
 31
0.0
 11
-334.88211896118509
 21
194.45812294121336
 31
0.0
 11
-334.88280855779811
 21
194.49150183885527
 31
0.0
 11
-334.8836557837443
 21
194.52487776314638
 31
0.0
 11
-334.88466223919011
 21
194.55824963151406
 31
0.0
 11
-334.88582952430198
 21
194.59161636138583
 31
0.0
 11
-334.88715923924639
 21
194.62497687018916
 31
0.0
 11
-334.88865298418978
 21
194.65833007535153
 31
0.0
 11
-334.89031235929855
 21
194.69167489430035
 31
0.0
 11
-334.89213896473927
 21
194.72501024446305
 31
0.0
 11
-334.8941344006783
 21
194.7583350432671
 31
0.0
 11
-334.89630026912801
 21
194.79164820808808
 31
0.0
 11
-334.89863897415398
 21
194.82494863371255
 31
0.0
 11
-334.90115497243227
 21
194.85823515711832
 31
0.0
 11
-334.90385304433863
 21
194.89150660616656
 31
0.0
 11
-334.90673797024903
 21
194.92476180871836
 31
0.0
 11
-334.90981453053922
 21
194.95799959263496
 31
0.0
 11
-334.91308750558505
 21
194.99121878577748
 31
0.0
 11
-334.91656178134531
 21
195.02441816938432
 31
0.0
 11
-334.92024403063903
 21
195.05759573566164
 31
0.0
 11
-334.92414241603774
 21
195.09074881897843
 31
0.0
 11
-334.92826514565775
 21
195.12387473359254
 31
0.0
 11
-334.93262042761529
 21
195.15697079376164
 31
0.0
 11
-334.93721647002667
 21
195.19003431374341
 31
0.0
 11
-334.94206156018424
 21
195.22306258294293
 31
0.0
 11
-334.94716717450643
 21
195.25605188972719
 31
0.0
 11
-334.95254899767355
 21
195.28899720152782
 31
0.0
 11
-334.95822300229509
 21
195.32189339539786
 31
0.0
 11
-334.96420516098078
 21
195.35473534839042
 31
0.0
 11
-334.9705114463402
 21
195.38751793755858
 31
0.0
 11
-334.97715904801686
 21
195.42023541378558
 31
0.0
 11
-334.98417578356998
 21
195.45287655984063
 31
0.0
 11
-334.99159495776632
 21
195.48542733529811
 31
0.0
 11
-334.99944992117003
 21
195.51787367616927
 31
0.0
 11
-335.00777402434511
 21
195.55020151846563
 31
0.0
 11
-335.01660373072525
 21
195.58239544946815
 31
0.0
 11
-335.02600302353426
 21
195.6144281328049
 31
0.0
 11
-335.03605023851287
 21
195.64626601350881
 31
0.0
 11
-335.04682383558156
 21
195.67787548280882
 31
0.0
 11
-335.05840469033001
 21
195.70922062949629
 31
0.0
 11
-335.07093642943352
 21
195.74020573266699
 31
0.0
 11
-335.08462970621292
 21
195.77067118657291
 31
0.0
 11
-335.0996984459357
 21
195.80045426688847
 31
0.0
  0
SPLINE
  5
C9
100
AcDbEntity
  8
LY_1
390
0
  6
CONTINUOUS
 62
     7
100
AcDbSpline
210
0.0
220
0.0
230
1.0
 70
     0
 71
     3
 72
     0
 73
     0
 74
    31
 44
0.000001
 12
0.2234795261300205
 22
0.9747086238464814
 32
0.0
 13
-0.0000132178540217
 23
0.9999999999126442
 33
0.0
 11
-334.9887605490357
 21
189.39316218578847
 31
0.0
 11
-334.98040351425408
 21
189.4307683650425
 31
0.0
 11
-334.97255145074138
 21
189.46848620178963
 31
0.0
 11
-334.96517453041417
 21
189.50630393694198
 31
0.0
 11
-334.95824292518904
 21
189.54420981141149
 31
0.0
 11
-334.95172680698261
 21
189.58219206611011
 31
0.0
 11
-334.94559634771144
 21
189.62023894194996
 31
0.0
 11
-334.93982216406755
 21
189.65833888908256
 31
0.0
 11
-334.93438385616827
 21
189.6964845838117
 31
0.0
 11
-334.92926936525123
 21
189.73467262642791
 31
0.0
 11
-334.92446694864668
 21
189.77289976592408
 31
0.0
 11
-334.91996486368481
 21
189.8111627512929
 31
0.0
 11
-334.91575136769592
 21
189.84945833152736
 31
0.0
 11
-334.91181471801025
 21
189.88778325562021
 31
0.0
 11
-334.90814317898611
 21
189.92613427414051
 31
0.0
 11
-334.90472683309599
 21
189.96450854544383
 31
0.0
 11
-334.90155999366925
 21
190.00290417682746
 31
0.0
 11
-334.898637574541
 21
190.0413194102768
 31
0.0
 11
-334.89595448954617
 21
190.07975248777723
 31
0.0
 11
-334.89350565251982
 21
190.118201651314
 31
0.0
 11
-334.891285977297
 21
190.15666514287244
 31
0.0
 11
-334.8892903777126
 21
190.19514120443799
 31
0.0
 11
-334.88751377617103
 21
190.23362807908083
 31
0.0
 11
-334.88595219694935
 21
190.27212414937543
 31
0.0
 11
-334.88460384020402
 21
190.31062807337693
 31
0.0
 11
-334.88346716116718
 21
190.34913854143451
 31
0.0
 11
-334.88254061507098
 21
190.38765424389749
 31
0.0
 11
-334.8818226571475
 21
190.42617387111511
 31
0.0
 11
-334.88131174262907
 21
190.46469611343656
 31
0.0
 11
-334.88100632674775
 21
190.50321966121129
 31
0.0
 11
-334.88090486473573
 21
190.54174320478839
 31
0.0
  0
LINE
  5
CA
100
AcDbEntity
  8
LY_1
390
0
  6
CONTINUOUS
 62
     7
100
AcDbLine
 10
-342.580905
 20
193.083171
 30
0.0
 11
-342.580905
 21
191.783171
 31
0.0
  0
LINE
  5
CB
100
AcDbEntity
  8
LY_1
390
0
  6
CONTINUOUS
 62
     7
100
AcDbLine
 10
-346.080905
 20
191.783171
 30
0.0
 11
-346.080905
 21
193.083171
 31
0.0
  0
LINE
  5
CC
100
AcDbEntity
  8
LY_1
390
0
  6
CONTINUOUS
 62
     7
100
AcDbLine
 10
-345.4681
 20
191.783171
 30
0.0
 11
-346.080905
 21
191.783171
 31
0.0
  0
LINE
  5
CD
100
AcDbEntity
  8
LY_1
390
0
  6
CONTINUOUS
 62
     7
100
AcDbLine
 10
-346.080905
 20
193.083171
 30
0.0
 11
-345.4681
 21
193.083171
 31
0.0
  0
LINE
  5
CE
100
AcDbEntity
  8
LY_1
390
0
  6
CONTINUOUS
 62
     7
100
AcDbLine
 10
-344.980905
 20
190.541765
 30
0.0
 11
-344.980905
 21
191.295976
 31
0.0
  0
LINE
  5
CF
100
AcDbEntity
  8
LY_1
390
0
  6
CONTINUOUS
 62
     7
100
AcDbLine
 10
-344.980905
 20
193.570367
 30
0.0
 11
-344.980905
 21
194.324578
 31
0.0
  0
LINE
  5
D0
100
AcDbEntity
  8
LY_1
390
0
  6
CONTINUOUS
 62
     7
100
AcDbLine
 10
-343.680905
 20
194.324577
 30
0.0
 11
-343.680905
 21
193.570367
 31
0.0
  0
LINE
  5
D1
100
AcDbEntity
  8
LY_1
390
0
  6
CONTINUOUS
 62
     7
100
AcDbLine
 10
-343.680905
 20
191.295976
 30
0.0
 11
-343.680905
 21
190.541766
 31
0.0
  0
LWPOLYLINE
  5
D2
100
AcDbEntity
  8
LY_1
390
0
  6
CONTINUOUS
 62
     7
100
AcDbPolyline
 90
       15
 70
     0
 10
-343.680905
 20
193.570367
 10
-343.677271
 20
193.509671
 10
-343.666422
 20
193.450202
 10
-343.648511
 20
193.392802
 10
-343.623792
 20
193.338285
 10
-343.592614
 20
193.287421
 10
-343.55542
 20
193.240932
 10
-343.512735
 20
193.199476
 10
-343.465165
 20
193.16364
 10
-343.413384
 20
193.133931
 10
-343.358124
 20
193.110771
 10
-343.300168
 20
193.094487
 10
-343.240337
 20
193.085309
 10
-343.217074
 20
193.083706
 10
-343.193709
 20
193.083171
  0
LWPOLYLINE
  5
D3
100
AcDbEntity
  8
LY_1
390
0
  6
CONTINUOUS
 62
     7
100
AcDbPolyline
 90
       15
 70
     0
 10
-343.193709
 20
191.783171
 10
-343.254405
 20
191.779538
 10
-343.313874
 20
191.768689
 10
-343.371274
 20
191.750777
 10
-343.425791
 20
191.726058
 10
-343.476655
 20
191.69488
 10
-343.523144
 20
191.657686
 10
-343.5646
 20
191.615002
 10
-343.600436
 20
191.567432
 10
-343.630145
 20
191.51565
 10
-343.653305
 20
191.46039
 10
-343.669589
 20
191.402434
 10
-343.678767
 20
191.342603
 10
-343.68037
 20
191.319341
 10
-343.680905
 20
191.295976
  0
LWPOLYLINE
  5
D4
100
AcDbEntity
  8
LY_1
390
0
  6
CONTINUOUS
 62
     7
100
AcDbPolyline
 90
       15
 70
     0
 10
-345.4681
 20
193.083171
 10
-345.407405
 20
193.086805
 10
-345.347936
 20
193.097654
 10
-345.290536
 20
193.115565
 10
-345.236018
 20
193.140284
 10
-345.185155
 20
193.171462
 10
-345.138666
 20
193.208657
 10
-345.09721
 20
193.251341
 10
-345.061374
 20
193.298911
 10
-345.031665
 20
193.350692
 10
-345.008505
 20
193.405952
 10
-344.99222
 20
193.463908
 10
-344.983043
 20
193.523739
 10
-344.98144
 20
193.547002
 10
-344.980905
 20
193.570367
  0
LWPOLYLINE
  5
D5
100
AcDbEntity
  8
LY_1
390
0
  6
CONTINUOUS
 62
     7
100
AcDbPolyline
 90
       15
 70
     0
 10
-344.980905
 20
191.295976
 10
-344.984538
 20
191.356672
 10
-344.995388
 20
191.41614
 10
-345.013299
 20
191.47354
 10
-345.038018
 20
191.528058
 10
-345.069196
 20
191.578921
 10
-345.10639
 20
191.62541
 10
-345.149075
 20
191.666866
 10
-345.196644
 20
191.702702
 10
-345.248426
 20
191.732411
 10
-345.303686
 20
191.755571
 10
-345.361642
 20
191.771856
 10
-345.421473
 20
191.781033
 10
-345.444735
 20
191.782636
 10
-345.4681
 20
191.783171
  0
LINE
  5
D6
100
AcDbEntity
  8
LY_1
390
0
  6
CONTINUOUS
 62
     7
100
AcDbLine
 10
-342.580905
 20
191.783171
 30
0.0
 11
-343.193709
 21
191.783171
 31
0.0
  0
LINE
  5
D7
100
AcDbEntity
  8
LY_1
390
0
  6
CONTINUOUS
 62
     7
100
AcDbLine
 10
-343.193709
 20
193.083171
 30
0.0
 11
-342.580905
 21
193.083171
 31
0.0
  0
SPLINE
  5
D8
100
AcDbEntity
  8
LY_1
390
0
  6
CONTINUOUS
 62
     7
100
AcDbSpline
210
0.0
220
0.0
230
1.0
 70
     0
 71
     3
 72
     0
 73
     0
 74
    31
 44
0.000001
 12
-0.2234795250038278
 22
0.9747086241046929
 32
0.0
 13
0.0000132178466442
 23
0.9999999999126442
 33
0.0
 11
-344.87304918043566
 21
189.39316218578847
 31
0.0
 11
-344.88140621517772
 21
189.4307683650425
 31
0.0
 11
-344.88925827866296
 21
189.46848620178963
 31
0.0
 11
-344.8966351989726
 21
189.50630393694198
 31
0.0
 11
-344.9035668041879
 21
189.54420981141149
 31
0.0
 11
-344.9100829223899
 21
189.58219206611011
 31
0.0
 11
-344.91621338165993
 21
189.62023894194996
 31
0.0
 11
-344.92198756530382
 21
189.65833888908256
 31
0.0
 11
-344.92742587320305
 21
189.6964845838117
 31
0.0
 11
-344.93254036412014
 21
189.73467262642791
 31
0.0
 11
-344.93734278072469
 21
189.77289976592408
 31
0.0
 11
-344.94184486568656
 21
189.8111627512929
 31
0.0
 11
-344.94605836167545
 21
189.84945833152736
 31
0.0
 11
-344.94999501136112
 21
189.88778325562021
 31
0.0
 11
-344.95366655038526
 21
189.92613427414051
 31
0.0
 11
-344.95708289627544
 21
189.96450854544383
 31
0.0
 11
-344.96024973570258
 21
190.00290417682746
 31
0.0
 11
-344.96317215483191
 21
190.0413194102768
 31
0.0
 11
-344.96585523982867
 21
190.07975248777723
 31
0.0
 11
-344.9683040768582
 21
190.118201651314
 31
0.0
 11
-344.9705237520858
 21
190.15666514287244
 31
0.0
 11
-344.97251935167657
 21
190.19514120443799
 31
0.0
 11
-344.97429595322666
 21
190.23362807908083
 31
0.0
 11
-344.97585753245886
 21
190.27212414937543
 31
0.0
 11
-344.97720588921601
 21
190.31062807337693
 31
0.0
 11
-344.97834256826513
 21
190.34913854143451
 31
0.0
 11
-344.97926911437321
 21
190.38765424389749
 31
0.0
 11
-344.97998707230727
 21
190.42617387111511
 31
0.0
 11
-344.98049798683439
 21
190.46469611343656
 31
0.0
 11
-344.98080340272151
 21
190.50321966121129
 31
0.0
 11
-344.98090486473563
 21
190.54174320478839
 31
0.0
  0
SPLINE
  5
D9
100
AcDbEntity
  8
LY_1
390
0
  6
CONTINUOUS
 62
     7
100
AcDbSpline
210
0.0
220
0.0
230
1.0
 70
     0
 71
     3
 72
     0
 73
     0
 74
    46
 44
0.000001
 12
-0.4718215701783868
 22
-0.8816940545985335
 32
0.0
 13
0.0000157028268576
 23
-0.9999999998767106
 33
0.0
 11
-344.76211128343567
 21
195.80045426688847
 31
0.0
 11
-344.77718002315845
 21
195.77067118657288
 31
0.0
 11
-344.79087329993786
 21
195.74020573266699
 31
0.0
 11
-344.80340503904131
 21
195.70922062949631
 31
0.0
 11
-344.81498589378987
 21
195.67787548280884
 31
0.0
 11
-344.8257594908585
 21
195.64626601350878
 31
0.0
 11
-344.83580670583711
 21
195.61442813280496
 31
0.0
 11
-344.84520599864607
 21
195.58239544946815
 31
0.0
 11
-344.85403570502626
 21
195.55020151846563
 31
0.0
 11
-344.86235980820135
 21
195.51787367616924
 31
0.0
 11
-344.87021477160505
 21
195.48542733529808
 31
0.0
 11
-344.87763394580145
 21
195.45287655984069
 31
0.0
 11
-344.88465068135451
 21
195.4202354137856
 31
0.0
 11
-344.89129828303123
 21
195.38751793755861
 31
0.0
 11
-344.89760456839059
 21
195.35473534839039
 31
0.0
 11
-344.90358672707629
 21
195.32189339539789
 31
0.0
 11
-344.90926073169783
 21
195.28899720152779
 31
0.0
 11
-344.91464255486494
 21
195.25605188972719
 31
0.0
 11
-344.91974816918719
 21
195.2230625829429
 31
0.0
 11
-344.92459325934476
 21
195.19003431374341
 31
0.0
 11
-344.92918930175608
 21
195.15697079376164
 31
0.0
 11
-344.93354458371363
 21
195.12387473359252
 31
0.0
 11
-344.93766731333363
 21
195.09074881897848
 31
0.0
 11
-344.94156569873235
 21
195.05759573566161
 31
0.0
 11
-344.94524794802606
 21
195.02441816938432
 31
0.0
 11
-344.94872222378632
 21
194.99121878577748
 31
0.0
 11
-344.95199519883226
 21
194.95799959263496
 31
0.0
 11
-344.95507175912286
 21
194.92476180871839
 31
0.0
 11
-344.95795668503422
 21
194.89150660616653
 31
0.0
 11
-344.96065475694229
 21
194.85823515711834
 31
0.0
 11
-344.96317075522325
 21
194.82494863371252
 31
0.0
 11
-344.96550946025303
 21
194.79164820808805
 31
0.0
 11
-344.96767532870797
 21
194.7583350432671
 31
0.0
 11
-344.96967076465342
 21
194.72501024446305
 31
0.0
 11
-344.97149737010147
 21
194.69167489430038
 31
0.0
 11
-344.97315674521838
 21
194.65833007535156
 31
0.0
 11
-344.97465049017035
 21
194.62497687018919
 31
0.0
 11
-344.97598020512345
 21
194.5916163613858
 31
0.0
 11
-344.97714749024396
 21
194.55824963151406
 31
0.0
 11
-344.97815394569812
 21
194.52487776314638
 31
0.0
 11
-344.9790011716521
 21
194.4915018388553
 31
0.0
 11
-344.97969076827201
 21
194.45812294121336
 31
0.0
 11
-344.98022433572413
 21
194.42474215279321
 31
0.0
 11
-344.9806034741747
 21
194.39136055616729
 31
0.0
 11
-344.98082978378977
 21
194.35797923390822
 31
0.0
 11
-344.98090486473563
 21
194.32459926858849
 31
0.0
  0
SPLINE
  5
DA
100
AcDbEntity
  8
LY_1
390
0
  6
CONTINUOUS
 62
     7
100
AcDbSpline
210
0.0
220
0.0
230
1.0
 70
     0
 71
     3
 72
     0
 73
     0
 74
    46
 44
0.000001
 12
0.0000157028302633
 22
0.9999999998767105
 32
0.0
 13
-0.4718215701783872
 23
0.8816940545985332
 33
0.0
 11
-343.68090486473568
 21
194.32459926858849
 31
0.0
 11
-343.68097994568052
 21
194.35797923390822
 31
0.0
 11
-343.68120625529275
 21
194.39136055616729
 31
0.0
 11
-343.68158539373877
 21
194.42474215279316
 31
0.0
 11
-343.68211896118504
 21
194.45812294121336
 31
0.0
 11
-343.68280855779807
 21
194.49150183885527
 31
0.0
 11
-343.68365578374426
 21
194.52487776314638
 31
0.0
 11
-343.68466223919006
 21
194.55824963151406
 31
0.0
 11
-343.68582952430194
 21
194.59161636138583
 31
0.0
 11
-343.68715923924634
 21
194.62497687018916
 31
0.0
 11
-343.68865298418973
 21
194.65833007535153
 31
0.0
 11
-343.6903123592985
 21
194.69167489430035
 31
0.0
 11
-343.69213896473923
 21
194.72501024446305
 31
0.0
 11
-343.69413440067825
 21
194.7583350432671
 31
0.0
 11
-343.69630026912796
 21
194.79164820808808
 31
0.0
 11
-343.69863897415394
 21
194.82494863371255
 31
0.0
 11
-343.70115497243222
 21
194.85823515711832
 31
0.0
 11
-343.70385304433859
 21
194.89150660616656
 31
0.0
 11
-343.70673797024898
 21
194.92476180871836
 31
0.0
 11
-343.70981453053918
 21
194.95799959263496
 31
0.0
 11
-343.71308750558501
 21
194.99121878577748
 31
0.0
 11
-343.71656178134526
 21
195.02441816938432
 31
0.0
 11
-343.72024403063898
 21
195.05759573566164
 31
0.0
 11
-343.72414241603769
 21
195.09074881897843
 31
0.0
 11
-343.7282651456577
 21
195.12387473359254
 31
0.0
 11
-343.73262042761525
 21
195.15697079376164
 31
0.0
 11
-343.73721647002662
 21
195.19003431374341
 31
0.0
 11
-343.7420615601842
 21
195.22306258294293
 31
0.0
 11
-343.74716717450639
 21
195.25605188972719
 31
0.0
 11
-343.7525489976735
 21
195.28899720152782
 31
0.0
 11
-343.75822300229504
 21
195.32189339539786
 31
0.0
 11
-343.76420516098074
 21
195.35473534839042
 31
0.0
 11
-343.77051144634015
 21
195.38751793755858
 31
0.0
 11
-343.77715904801681
 21
195.42023541378558
 31
0.0
 11
-343.78417578356994
 21
195.45287655984063
 31
0.0
 11
-343.79159495776628
 21
195.48542733529811
 31
0.0
 11
-343.79944992116998
 21
195.51787367616927
 31
0.0
 11
-343.80777402434506
 21
195.55020151846563
 31
0.0
 11
-343.81660373072521
 21
195.58239544946815
 31
0.0
 11
-343.82600302353421
 21
195.6144281328049
 31
0.0
 11
-343.83605023851283
 21
195.64626601350881
 31
0.0
 11
-343.84682383558152
 21
195.67787548280882
 31
0.0
 11
-343.85840469032996
 21
195.70922062949629
 31
0.0
 11
-343.87093642943347
 21
195.74020573266699
 31
0.0
 11
-343.88462970621288
 21
195.77067118657291
 31
0.0
 11
-343.89969844593566
 21
195.80045426688847
 31
0.0
  0
SPLINE
  5
DB
100
AcDbEntity
  8
LY_1
390
0
  6
CONTINUOUS
 62
     7
100
AcDbSpline
210
0.0
220
0.0
230
1.0
 70
     0
 71
     3
 72
     0
 73
     0
 74
    31
 44
0.000001
 12
0.2234795261300205
 22
0.9747086238464814
 32
0.0
 13
-0.0000132178540217
 23
0.9999999999126442
 33
0.0
 11
-343.78876054903566
 21
189.39316218578847
 31
0.0
 11
-343.78040351425403
 21
189.4307683650425
 31
0.0
 11
-343.77255145074133
 21
189.46848620178963
 31
0.0
 11
-343.76517453041413
 21
189.50630393694198
 31
0.0
 11
-343.75824292518899
 21
189.54420981141149
 31
0.0
 11
-343.75172680698256
 21
189.58219206611011
 31
0.0
 11
-343.7455963477114
 21
189.62023894194996
 31
0.0
 11
-343.7398221640675
 21
189.65833888908256
 31
0.0
 11
-343.73438385616822
 21
189.6964845838117
 31
0.0
 11
-343.72926936525118
 21
189.73467262642791
 31
0.0
 11
-343.72446694864664
 21
189.77289976592408
 31
0.0
 11
-343.71996486368477
 21
189.8111627512929
 31
0.0
 11
-343.71575136769587
 21
189.84945833152736
 31
0.0
 11
-343.7118147180102
 21
189.88778325562021
 31
0.0
 11
-343.70814317898606
 21
189.92613427414051
 31
0.0
 11
-343.70472683309595
 21
189.96450854544383
 31
0.0
 11
-343.70155999366921
 21
190.00290417682746
 31
0.0
 11
-343.69863757454095
 21
190.0413194102768
 31
0.0
 11
-343.69595448954612
 21
190.07975248777723
 31
0.0
 11
-343.69350565251978
 21
190.118201651314
 31
0.0
 11
-343.69128597729696
 21
190.15666514287244
 31
0.0
 11
-343.68929037771255
 21
190.19514120443799
 31
0.0
 11
-343.68751377617099
 21
190.23362807908083
 31
0.0
 11
-343.6859521969493
 21
190.27212414937543
 31
0.0
 11
-343.68460384020398
 21
190.31062807337693
 31
0.0
 11
-343.68346716116713
 21
190.34913854143451
 31
0.0
 11
-343.68254061507093
 21
190.38765424389749
 31
0.0
 11
-343.68182265714745
 21
190.42617387111511
 31
0.0
 11
-343.68131174262902
 21
190.46469611343656
 31
0.0
 11
-343.68100632674771
 21
190.50321966121129
 31
0.0
 11
-343.68090486473568
 21
190.54174320478839
 31
0.0
  0
LINE
  5
DC
100
AcDbEntity
  8
LY_1
390
0
  6
CONTINUOUS
 62
     7
100
AcDbLine
 10
-351.380905
 20
193.083171
 30
0.0
 11
-351.380905
 21
191.783171
 31
0.0
  0
LINE
  5
DD
100
AcDbEntity
  8
LY_1
390
0
  6
CONTINUOUS
 62
     7
100
AcDbLine
 10
-354.880905
 20
191.783171
 30
0.0
 11
-354.880905
 21
193.083171
 31
0.0
  0
LINE
  5
DE
100
AcDbEntity
  8
LY_1
390
0
  6
CONTINUOUS
 62
     7
100
AcDbLine
 10
-354.2681
 20
191.783171
 30
0.0
 11
-354.880905
 21
191.783171
 31
0.0
  0
LINE
  5
DF
100
AcDbEntity
  8
LY_1
390
0
  6
CONTINUOUS
 62
     7
100
AcDbLine
 10
-354.880905
 20
193.083171
 30
0.0
 11
-354.2681
 21
193.083171
 31
0.0
  0
LINE
  5
E0
100
AcDbEntity
  8
LY_1
390
0
  6
CONTINUOUS
 62
     7
100
AcDbLine
 10
-353.780905
 20
190.541765
 30
0.0
 11
-353.780905
 21
191.295976
 31
0.0
  0
LINE
  5
E1
100
AcDbEntity
  8
LY_1
390
0
  6
CONTINUOUS
 62
     7
100
AcDbLine
 10
-353.780905
 20
193.570367
 30
0.0
 11
-353.780905
 21
194.324578
 31
0.0
  0
LINE
  5
E2
100
AcDbEntity
  8
LY_1
390
0
  6
CONTINUOUS
 62
     7
100
AcDbLine
 10
-352.480905
 20
194.324577
 30
0.0
 11
-352.480905
 21
193.570367
 31
0.0
  0
LINE
  5
E3
100
AcDbEntity
  8
LY_1
390
0
  6
CONTINUOUS
 62
     7
100
AcDbLine
 10
-352.480905
 20
191.295976
 30
0.0
 11
-352.480905
 21
190.541766
 31
0.0
  0
LWPOLYLINE
  5
E4
100
AcDbEntity
  8
LY_1
390
0
  6
CONTINUOUS
 62
     7
100
AcDbPolyline
 90
       15
 70
     0
 10
-352.480905
 20
193.570367
 10
-352.477271
 20
193.509671
 10
-352.466422
 20
193.450202
 10
-352.448511
 20
193.392802
 10
-352.423792
 20
193.338285
 10
-352.392614
 20
193.287421
 10
-352.35542
 20
193.240932
 10
-352.312735
 20
193.199476
 10
-352.265165
 20
193.16364
 10
-352.213384
 20
193.133931
 10
-352.158124
 20
193.110771
 10
-352.100168
 20
193.094487
 10
-352.040337
 20
193.085309
 10
-352.017074
 20
193.083706
 10
-351.993709
 20
193.083171
  0
LWPOLYLINE
  5
E5
100
AcDbEntity
  8
LY_1
390
0
  6
CONTINUOUS
 62
     7
100
AcDbPolyline
 90
       15
 70
     0
 10
-351.993709
 20
191.783171
 10
-352.054405
 20
191.779538
 10
-352.113874
 20
191.768689
 10
-352.171274
 20
191.750777
 10
-352.225791
 20
191.726058
 10
-352.276655
 20
191.69488
 10
-352.323144
 20
191.657686
 10
-352.3646
 20
191.615002
 10
-352.400436
 20
191.567432
 10
-352.430145
 20
191.51565
 10
-352.453305
 20
191.46039
 10
-352.469589
 20
191.402434
 10
-352.478767
 20
191.342603
 10
-352.48037
 20
191.319341
 10
-352.480905
 20
191.295976
  0
LWPOLYLINE
  5
E6
100
AcDbEntity
  8
LY_1
390
0
  6
CONTINUOUS
 62
     7
100
AcDbPolyline
 90
       15
 70
     0
 10
-354.2681
 20
193.083171
 10
-354.207405
 20
193.086805
 10
-354.147936
 20
193.097654
 10
-354.090536
 20
193.115565
 10
-354.036018
 20
193.140284
 10
-353.985155
 20
193.171462
 10
-353.938666
 20
193.208657
 10
-353.89721
 20
193.251341
 10
-353.861374
 20
193.298911
 10
-353.831665
 20
193.350692
 10
-353.808505
 20
193.405952
 10
-353.79222
 20
193.463908
 10
-353.783043
 20
193.523739
 10
-353.78144
 20
193.547002
 10
-353.780905
 20
193.570367
  0
LWPOLYLINE
  5
E7
100
AcDbEntity
  8
LY_1
390
0
  6
CONTINUOUS
 62
     7
100
AcDbPolyline
 90
       15
 70
     0
 10
-353.780905
 20
191.295976
 10
-353.784538
 20
191.356672
 10
-353.795388
 20
191.41614
 10
-353.813299
 20
191.47354
 10
-353.838018
 20
191.528058
 10
-353.869196
 20
191.578921
 10
-353.90639
 20
191.62541
 10
-353.949075
 20
191.666866
 10
-353.996644
 20
191.702702
 10
-354.048426
 20
191.732411
 10
-354.103686
 20
191.755571
 10
-354.161642
 20
191.771856
 10
-354.221473
 20
191.781033
 10
-354.244735
 20
191.782636
 10
-354.2681
 20
191.783171
  0
LINE
  5
E8
100
AcDbEntity
  8
LY_1
390
0
  6
CONTINUOUS
 62
     7
100
AcDbLine
 10
-351.380905
 20
191.783171
 30
0.0
 11
-351.993709
 21
191.783171
 31
0.0
  0
LINE
  5
E9
100
AcDbEntity
  8
LY_1
390
0
  6
CONTINUOUS
 62
     7
100
AcDbLine
 10
-351.993709
 20
193.083171
 30
0.0
 11
-351.380905
 21
193.083171
 31
0.0
  0
SPLINE
  5
EA
100
AcDbEntity
  8
LY_1
390
0
  6
CONTINUOUS
 62
     7
100
AcDbSpline
210
0.0
220
0.0
230
1.0
 70
     0
 71
     3
 72
     0
 73
     0
 74
    31
 44
0.000001
 12
-0.2234795250038278
 22
0.9747086241046929
 32
0.0
 13
0.0000132178466442
 23
0.9999999999126442
 33
0.0
 11
-353.67304918043567
 21
189.39316218578847
 31
0.0
 11
-353.68140621517773
 21
189.4307683650425
 31
0.0
 11
-353.68925827866298
 21
189.46848620178963
 31
0.0
 11
-353.69663519897261
 21
189.50630393694198
 31
0.0
 11
-353.70356680418791
 21
189.54420981141149
 31
0.0
 11
-353.71008292238992
 21
189.58219206611011
 31
0.0
 11
-353.71621338165994
 21
189.62023894194996
 31
0.0
 11
-353.72198756530383
 21
189.65833888908256
 31
0.0
 11
-353.72742587320306
 21
189.6964845838117
 31
0.0
 11
-353.73254036412015
 21
189.73467262642791
 31
0.0
 11
-353.7373427807247
 21
189.77289976592408
 31
0.0
 11
-353.74184486568657
 21
189.8111627512929
 31
0.0
 11
-353.74605836167547
 21
189.84945833152736
 31
0.0
 11
-353.74999501136114
 21
189.88778325562021
 31
0.0
 11
-353.75366655038528
 21
189.92613427414051
 31
0.0
 11
-353.75708289627545
 21
189.96450854544383
 31
0.0
 11
-353.76024973570259
 21
190.00290417682746
 31
0.0
 11
-353.76317215483192
 21
190.0413194102768
 31
0.0
 11
-353.76585523982868
 21
190.07975248777723
 31
0.0
 11
-353.76830407685821
 21
190.118201651314
 31
0.0
 11
-353.77052375208581
 21
190.15666514287244
 31
0.0
 11
-353.77251935167658
 21
190.19514120443799
 31
0.0
 11
-353.77429595322667
 21
190.23362807908083
 31
0.0
 11
-353.77585753245887
 21
190.27212414937543
 31
0.0
 11
-353.77720588921602
 21
190.31062807337693
 31
0.0
 11
-353.77834256826515
 21
190.34913854143451
 31
0.0
 11
-353.77926911437322
 21
190.38765424389749
 31
0.0
 11
-353.77998707230728
 21
190.42617387111511
 31
0.0
 11
-353.7804979868344
 21
190.46469611343656
 31
0.0
 11
-353.78080340272152
 21
190.50321966121129
 31
0.0
 11
-353.78090486473565
 21
190.54174320478839
 31
0.0
  0
SPLINE
  5
EB
100
AcDbEntity
  8
LY_1
390
0
  6
CONTINUOUS
 62
     7
100
AcDbSpline
210
0.0
220
0.0
230
1.0
 70
     0
 71
     3
 72
     0
 73
     0
 74
    46
 44
0.000001
 12
-0.4718215701783868
 22
-0.8816940545985335
 32
0.0
 13
0.0000157028268576
 23
-0.9999999998767106
 33
0.0
 11
-353.56211128343568
 21
195.80045426688847
 31
0.0
 11
-353.57718002315846
 21
195.77067118657288
 31
0.0
 11
-353.59087329993787
 21
195.74020573266699
 31
0.0
 11
-353.60340503904132
 21
195.70922062949631
 31
0.0
 11
-353.61498589378988
 21
195.67787548280884
 31
0.0
 11
-353.62575949085851
 21
195.64626601350878
 31
0.0
 11
-353.63580670583713
 21
195.61442813280496
 31
0.0
 11
-353.64520599864608
 21
195.58239544946815
 31
0.0
 11
-353.65403570502627
 21
195.55020151846563
 31
0.0
 11
-353.66235980820136
 21
195.51787367616924
 31
0.0
 11
-353.67021477160506
 21
195.48542733529808
 31
0.0
 11
-353.67763394580146
 21
195.45287655984069
 31
0.0
 11
-353.68465068135453
 21
195.4202354137856
 31
0.0
 11
-353.69129828303124
 21
195.38751793755861
 31
0.0
 11
-353.6976045683906
 21
195.35473534839039
 31
0.0
 11
-353.7035867270763
 21
195.32189339539789
 31
0.0
 11
-353.70926073169784
 21
195.28899720152779
 31
0.0
 11
-353.71464255486495
 21
195.25605188972719
 31
0.0
 11
-353.7197481691872
 21
195.2230625829429
 31
0.0
 11
-353.72459325934477
 21
195.19003431374341
 31
0.0
 11
-353.72918930175609
 21
195.15697079376164
 31
0.0
 11
-353.73354458371364
 21
195.12387473359252
 31
0.0
 11
-353.73766731333365
 21
195.09074881897848
 31
0.0
 11
-353.74156569873236
 21
195.05759573566161
 31
0.0
 11
-353.74524794802608
 21
195.02441816938432
 31
0.0
 11
-353.74872222378633
 21
194.99121878577748
 31
0.0
 11
-353.75199519883228
 21
194.95799959263496
 31
0.0
 11
-353.75507175912287
 21
194.92476180871839
 31
0.0
 11
-353.75795668503423
 21
194.89150660616653
 31
0.0
 11
-353.7606547569423
 21
194.85823515711834
 31
0.0
 11
-353.76317075522326
 21
194.82494863371252
 31
0.0
 11
-353.76550946025304
 21
194.79164820808805
 31
0.0
 11
-353.76767532870798
 21
194.7583350432671
 31
0.0
 11
-353.76967076465343
 21
194.72501024446305
 31
0.0
 11
-353.77149737010149
 21
194.69167489430038
 31
0.0
 11
-353.77315674521839
 21
194.65833007535156
 31
0.0
 11
-353.77465049017036
 21
194.62497687018919
 31
0.0
 11
-353.77598020512346
 21
194.5916163613858
 31
0.0
 11
-353.77714749024398
 21
194.55824963151406
 31
0.0
 11
-353.77815394569814
 21
194.52487776314638
 31
0.0
 11
-353.77900117165211
 21
194.4915018388553
 31
0.0
 11
-353.77969076827202
 21
194.45812294121336
 31
0.0
 11
-353.78022433572414
 21
194.42474215279321
 31
0.0
 11
-353.78060347417471
 21
194.39136055616729
 31
0.0
 11
-353.78082978378978
 21
194.35797923390822
 31
0.0
 11
-353.78090486473565
 21
194.32459926858849
 31
0.0
  0
SPLINE
  5
EC
100
AcDbEntity
  8
LY_1
390
0
  6
CONTINUOUS
 62
     7
100
AcDbSpline
210
0.0
220
0.0
230
1.0
 70
     0
 71
     3
 72
     0
 73
     0
 74
    46
 44
0.000001
 12
0.0000157028302633
 22
0.9999999998767105
 32
0.0
 13
-0.4718215701783872
 23
0.8816940545985332
 33
0.0
 11
-352.48090486473569
 21
194.32459926858849
 31
0.0
 11
-352.48097994568053
 21
194.35797923390822
 31
0.0
 11
-352.48120625529276
 21
194.39136055616729
 31
0.0
 11
-352.48158539373878
 21
194.42474215279316
 31
0.0
 11
-352.48211896118505
 21
194.45812294121336
 31
0.0
 11
-352.48280855779808
 21
194.49150183885527
 31
0.0
 11
-352.48365578374427
 21
194.52487776314638
 31
0.0
 11
-352.48466223919007
 21
194.55824963151406
 31
0.0
 11
-352.48582952430195
 21
194.59161636138583
 31
0.0
 11
-352.48715923924635
 21
194.62497687018916
 31
0.0
 11
-352.48865298418974
 21
194.65833007535153
 31
0.0
 11
-352.49031235929851
 21
194.69167489430035
 31
0.0
 11
-352.49213896473924
 21
194.72501024446305
 31
0.0
 11
-352.49413440067826
 21
194.7583350432671
 31
0.0
 11
-352.49630026912797
 21
194.79164820808808
 31
0.0
 11
-352.49863897415395
 21
194.82494863371255
 31
0.0
 11
-352.50115497243223
 21
194.85823515711832
 31
0.0
 11
-352.5038530443386
 21
194.89150660616656
 31
0.0
 11
-352.50673797024899
 21
194.92476180871836
 31
0.0
 11
-352.50981453053919
 21
194.95799959263496
 31
0.0
 11
-352.51308750558502
 21
194.99121878577748
 31
0.0
 11
-352.51656178134527
 21
195.02441816938432
 31
0.0
 11
-352.52024403063899
 21
195.05759573566164
 31
0.0
 11
-352.52414241603771
 21
195.09074881897843
 31
0.0
 11
-352.52826514565771
 21
195.12387473359254
 31
0.0
 11
-352.53262042761526
 21
195.15697079376164
 31
0.0
 11
-352.53721647002664
 21
195.19003431374341
 31
0.0
 11
-352.54206156018421
 21
195.22306258294293
 31
0.0
 11
-352.5471671745064
 21
195.25605188972719
 31
0.0
 11
-352.55254899767351
 21
195.28899720152782
 31
0.0
 11
-352.55822300229505
 21
195.32189339539786
 31
0.0
 11
-352.56420516098075
 21
195.35473534839042
 31
0.0
 11
-352.57051144634016
 21
195.38751793755858
 31
0.0
 11
-352.57715904801682
 21
195.42023541378558
 31
0.0
 11
-352.58417578356995
 21
195.45287655984063
 31
0.0
 11
-352.59159495776629
 21
195.48542733529811
 31
0.0
 11
-352.59944992116999
 21
195.51787367616927
 31
0.0
 11
-352.60777402434508
 21
195.55020151846563
 31
0.0
 11
-352.61660373072522
 21
195.58239544946815
 31
0.0
 11
-352.62600302353422
 21
195.6144281328049
 31
0.0
 11
-352.63605023851284
 21
195.64626601350881
 31
0.0
 11
-352.64682383558153
 21
195.67787548280882
 31
0.0
 11
-352.65840469032997
 21
195.70922062949629
 31
0.0
 11
-352.67093642943348
 21
195.74020573266699
 31
0.0
 11
-352.68462970621289
 21
195.77067118657291
 31
0.0
 11
-352.69969844593567
 21
195.80045426688847
 31
0.0
  0
SPLINE
  5
ED
100
AcDbEntity
  8
LY_1
390
0
  6
CONTINUOUS
 62
     7
100
AcDbSpline
210
0.0
220
0.0
230
1.0
 70
     0
 71
     3
 72
     0
 73
     0
 74
    31
 44
0.000001
 12
0.2234795261300205
 22
0.9747086238464814
 32
0.0
 13
-0.0000132178540217
 23
0.9999999999126442
 33
0.0
 11
-352.58876054903567
 21
189.39316218578847
 31
0.0
 11
-352.58040351425404
 21
189.4307683650425
 31
0.0
 11
-352.57255145074134
 21
189.46848620178963
 31
0.0
 11
-352.56517453041414
 21
189.50630393694198
 31
0.0
 11
-352.55824292518901
 21
189.54420981141149
 31
0.0
 11
-352.55172680698257
 21
189.58219206611011
 31
0.0
 11
-352.54559634771141
 21
189.62023894194996
 31
0.0
 11
-352.53982216406752
 21
189.65833888908256
 31
0.0
 11
-352.53438385616823
 21
189.6964845838117
 31
0.0
 11
-352.5292693652512
 21
189.73467262642791
 31
0.0
 11
-352.52446694864665
 21
189.77289976592408
 31
0.0
 11
-352.51996486368478
 21
189.8111627512929
 31
0.0
 11
-352.51575136769588
 21
189.84945833152736
 31
0.0
 11
-352.51181471801021
 21
189.88778325562021
 31
0.0
 11
-352.50814317898607
 21
189.92613427414051
 31
0.0
 11
-352.50472683309596
 21
189.96450854544383
 31
0.0
 11
-352.50155999366922
 21
190.00290417682746
 31
0.0
 11
-352.49863757454096
 21
190.0413194102768
 31
0.0
 11
-352.49595448954614
 21
190.07975248777723
 31
0.0
 11
-352.49350565251979
 21
190.118201651314
 31
0.0
 11
-352.49128597729697
 21
190.15666514287244
 31
0.0
 11
-352.48929037771256
 21
190.19514120443799
 31
0.0
 11
-352.487513776171
 21
190.23362807908083
 31
0.0
 11
-352.48595219694931
 21
190.27212414937543
 31
0.0
 11
-352.48460384020399
 21
190.31062807337693
 31
0.0
 11
-352.48346716116714
 21
190.34913854143451
 31
0.0
 11
-352.48254061507095
 21
190.38765424389749
 31
0.0
 11
-352.48182265714746
 21
190.42617387111511
 31
0.0
 11
-352.48131174262903
 21
190.46469611343656
 31
0.0
 11
-352.48100632674772
 21
190.50321966121129
 31
0.0
 11
-352.48090486473569
 21
190.54174320478839
 31
0.0
  0
LINE
  5
EE
100
AcDbEntity
  8
LY_1
390
0
  6
CONTINUOUS
 62
     7
100
AcDbLine
 10
-360.180905
 20
193.083171
 30
0.0
 11
-360.180905
 21
191.783171
 31
0.0
  0
LWPOLYLINE
  5
EF
100
AcDbEntity
  8
LY_1
390
0
  6
CONTINUOUS
 62
     7
100
AcDbPolyline
 90
       15
 70
     0
 10
-362.580905
 20
191.295976
 10
-362.584538
 20
191.356672
 10
-362.595388
 20
191.41614
 10
-362.613299
 20
191.47354
 10
-362.638018
 20
191.528058
 10
-362.669196
 20
191.578921
 10
-362.70639
 20
191.62541
 10
-362.749075
 20
191.666866
 10
-362.796644
 20
191.702702
 10
-362.848426
 20
191.732411
 10
-362.903686
 20
191.755571
 10
-362.961642
 20
191.771856
 10
-363.021473
 20
191.781033
 10
-363.044735
 20
191.782636
 10
-363.0681
 20
191.783171
  0
LWPOLYLINE
  5
F0
100
AcDbEntity
  8
LY_1
390
0
  6
CONTINUOUS
 62
     7
100
AcDbPolyline
 90
       15
 70
     0
 10
-363.0681
 20
193.083171
 10
-363.007405
 20
193.086805
 10
-362.947936
 20
193.097654
 10
-362.890536
 20
193.115565
 10
-362.836018
 20
193.140284
 10
-362.785155
 20
193.171462
 10
-362.738666
 20
193.208657
 10
-362.69721
 20
193.251341
 10
-362.661374
 20
193.298911
 10
-362.631665
 20
193.350692
 10
-362.608505
 20
193.405952
 10
-362.59222
 20
193.463908
 10
-362.583043
 20
193.523739
 10
-362.58144
 20
193.547002
 10
-362.580905
 20
193.570367
  0
LWPOLYLINE
  5
F1
100
AcDbEntity
  8
LY_1
390
0
  6
CONTINUOUS
 62
     7
100
AcDbPolyline
 90
       15
 70
     0
 10
-360.793709
 20
191.783171
 10
-360.854405
 20
191.779538
 10
-360.913874
 20
191.768689
 10
-360.971274
 20
191.750777
 10
-361.025791
 20
191.726058
 10
-361.076655
 20
191.69488
 10
-361.123144
 20
191.657686
 10
-361.1646
 20
191.615002
 10
-361.200436
 20
191.567432
 10
-361.230145
 20
191.51565
 10
-361.253305
 20
191.46039
 10
-361.269589
 20
191.402434
 10
-361.278767
 20
191.342603
 10
-361.28037
 20
191.319341
 10
-361.280905
 20
191.295976
  0
LWPOLYLINE
  5
F2
100
AcDbEntity
  8
LY_1
390
0
  6
CONTINUOUS
 62
     7
100
AcDbPolyline
 90
       15
 70
     0
 10
-361.280905
 20
193.570367
 10
-361.277271
 20
193.509671
 10
-361.266422
 20
193.450202
 10
-361.248511
 20
193.392802
 10
-361.223792
 20
193.338285
 10
-361.192614
 20
193.287421
 10
-361.15542
 20
193.240932
 10
-361.112735
 20
193.199476
 10
-361.065165
 20
193.16364
 10
-361.013384
 20
193.133931
 10
-360.958124
 20
193.110771
 10
-360.900168
 20
193.094487
 10
-360.840337
 20
193.085309
 10
-360.817074
 20
193.083706
 10
-360.793709
 20
193.083171
  0
LINE
  5
F3
100
AcDbEntity
  8
LY_1
390
0
  6
CONTINUOUS
 62
     7
100
AcDbLine
 10
-361.280905
 20
191.295976
 30
0.0
 11
-361.280905
 21
190.541766
 31
0.0
  0
LINE
  5
F4
100
AcDbEntity
  8
LY_1
390
0
  6
CONTINUOUS
 62
     7
100
AcDbLine
 10
-361.280905
 20
194.324577
 30
0.0
 11
-361.280905
 21
193.570367
 31
0.0
  0
LINE
  5
F5
100
AcDbEntity
  8
LY_1
390
0
  6
CONTINUOUS
 62
     7
100
AcDbLine
 10
-362.580905
 20
193.570367
 30
0.0
 11
-362.580905
 21
194.324578
 31
0.0
  0
LINE
  5
F6
100
AcDbEntity
  8
LY_1
390
0
  6
CONTINUOUS
 62
     7
100
AcDbLine
 10
-362.580905
 20
190.541765
 30
0.0
 11
-362.580905
 21
191.295976
 31
0.0
  0
LINE
  5
F7
100
AcDbEntity
  8
LY_1
390
0
  6
CONTINUOUS
 62
     7
100
AcDbLine
 10
-363.680905
 20
193.083171
 30
0.0
 11
-363.0681
 21
193.083171
 31
0.0
  0
LINE
  5
F8
100
AcDbEntity
  8
LY_1
390
0
  6
CONTINUOUS
 62
     7
100
AcDbLine
 10
-363.0681
 20
191.783171
 30
0.0
 11
-363.680905
 21
191.783171
 31
0.0
  0
LINE
  5
F9
100
AcDbEntity
  8
LY_1
390
0
  6
CONTINUOUS
 62
     7
100
AcDbLine
 10
-363.680905
 20
191.783171
 30
0.0
 11
-363.680905
 21
193.083171
 31
0.0
  0
LINE
  5
FA
100
AcDbEntity
  8
LY_1
390
0
  6
CONTINUOUS
 62
     7
100
AcDbLine
 10
-360.180905
 20
191.783171
 30
0.0
 11
-360.793709
 21
191.783171
 31
0.0
  0
LINE
  5
FB
100
AcDbEntity
  8
LY_1
390
0
  6
CONTINUOUS
 62
     7
100
AcDbLine
 10
-360.793709
 20
193.083171
 30
0.0
 11
-360.180905
 21
193.083171
 31
0.0
  0
SPLINE
  5
FC
100
AcDbEntity
  8
LY_1
390
0
  6
CONTINUOUS
 62
     7
100
AcDbSpline
210
0.0
220
0.0
230
1.0
 70
     0
 71
     3
 72
     0
 73
     0
 74
    31
 44
0.000001
 12
-0.2234795250038278
 22
0.9747086241046929
 32
0.0
 13
0.0000132178466442
 23
0.9999999999126442
 33
0.0
 11
-362.47304918043568
 21
189.39316218578847
 31
0.0
 11
-362.48140621517774
 21
189.4307683650425
 31
0.0
 11
-362.48925827866299
 21
189.46848620178963
 31
0.0
 11
-362.49663519897263
 21
189.50630393694198
 31
0.0
 11
-362.50356680418793
 21
189.54420981141149
 31
0.0
 11
-362.51008292238993
 21
189.58219206611011
 31
0.0
 11
-362.51621338165995
 21
189.62023894194996
 31
0.0
 11
-362.52198756530385
 21
189.65833888908256
 31
0.0
 11
-362.52742587320307
 21
189.6964845838117
 31
0.0
 11
-362.53254036412017
 21
189.73467262642791
 31
0.0
 11
-362.53734278072471
 21
189.77289976592408
 31
0.0
 11
-362.54184486568658
 21
189.8111627512929
 31
0.0
 11
-362.54605836167548
 21
189.84945833152736
 31
0.0
 11
-362.54999501136115
 21
189.88778325562021
 31
0.0
 11
-362.55366655038529
 21
189.92613427414051
 31
0.0
 11
-362.55708289627546
 21
189.96450854544383
 31
0.0
 11
-362.5602497357026
 21
190.00290417682746
 31
0.0
 11
-362.56317215483193
 21
190.0413194102768
 31
0.0
 11
-362.56585523982869
 21
190.07975248777723
 31
0.0
 11
-362.56830407685823
 21
190.118201651314
 31
0.0
 11
-362.57052375208582
 21
190.15666514287244
 31
0.0
 11
-362.57251935167659
 21
190.19514120443799
 31
0.0
 11
-362.57429595322668
 21
190.23362807908083
 31
0.0
 11
-362.57585753245888
 21
190.27212414937543
 31
0.0
 11
-362.57720588921603
 21
190.31062807337693
 31
0.0
 11
-362.57834256826516
 21
190.34913854143451
 31
0.0
 11
-362.57926911437323
 21
190.38765424389749
 31
0.0
 11
-362.57998707230729
 21
190.42617387111511
 31
0.0
 11
-362.58049798683442
 21
190.46469611343656
 31
0.0
 11
-362.58080340272153
 21
190.50321966121129
 31
0.0
 11
-362.58090486473566
 21
190.54174320478839
 31
0.0
  0
SPLINE
  5
FD
100
AcDbEntity
  8
LY_1
390
0
  6
CONTINUOUS
 62
     7
100
AcDbSpline
210
0.0
220
0.0
230
1.0
 70
     0
 71
     3
 72
     0
 73
     0
 74
    46
 44
0.000001
 12
-0.4718215701783868
 22
-0.8816940545985335
 32
0.0
 13
0.0000157028268576
 23
-0.9999999998767106
 33
0.0
 11
-362.36211128343569
 21
195.80045426688847
 31
0.0
 11
-362.37718002315847
 21
195.77067118657288
 31
0.0
 11
-362.39087329993788
 21
195.74020573266699
 31
0.0
 11
-362.40340503904133
 21
195.70922062949631
 31
0.0
 11
-362.41498589378989
 21
195.67787548280884
 31
0.0
 11
-362.42575949085852
 21
195.64626601350878
 31
0.0
 11
-362.43580670583714
 21
195.61442813280496
 31
0.0
 11
-362.44520599864609
 21
195.58239544946815
 31
0.0
 11
-362.45403570502629
 21
195.55020151846563
 31
0.0
 11
-362.46235980820137
 21
195.51787367616924
 31
0.0
 11
-362.47021477160507
 21
195.48542733529808
 31
0.0
 11
-362.47763394580147
 21
195.45287655984069
 31
0.0
 11
-362.48465068135454
 21
195.4202354137856
 31
0.0
 11
-362.49129828303126
 21
195.38751793755861
 31
0.0
 11
-362.49760456839061
 21
195.35473534839039
 31
0.0
 11
-362.50358672707631
 21
195.32189339539789
 31
0.0
 11
-362.50926073169785
 21
195.28899720152779
 31
0.0
 11
-362.51464255486496
 21
195.25605188972719
 31
0.0
 11
-362.51974816918721
 21
195.2230625829429
 31
0.0
 11
-362.52459325934478
 21
195.19003431374341
 31
0.0
 11
-362.52918930175611
 21
195.15697079376164
 31
0.0
 11
-362.53354458371365
 21
195.12387473359252
 31
0.0
 11
-362.53766731333366
 21
195.09074881897848
 31
0.0
 11
-362.54156569873237
 21
195.05759573566161
 31
0.0
 11
-362.54524794802609
 21
195.02441816938432
 31
0.0
 11
-362.54872222378634
 21
194.99121878577748
 31
0.0
 11
-362.55199519883229
 21
194.95799959263496
 31
0.0
 11
-362.55507175912288
 21
194.92476180871839
 31
0.0
 11
-362.55795668503424
 21
194.89150660616653
 31
0.0
 11
-362.56065475694231
 21
194.85823515711834
 31
0.0
 11
-362.56317075522327
 21
194.82494863371252
 31
0.0
 11
-362.56550946025305
 21
194.79164820808805
 31
0.0
 11
-362.56767532870799
 21
194.7583350432671
 31
0.0
 11
-362.56967076465344
 21
194.72501024446305
 31
0.0
 11
-362.5714973701015
 21
194.69167489430038
 31
0.0
 11
-362.5731567452184
 21
194.65833007535156
 31
0.0
 11
-362.57465049017037
 21
194.62497687018919
 31
0.0
 11
-362.57598020512347
 21
194.5916163613858
 31
0.0
 11
-362.57714749024399
 21
194.55824963151406
 31
0.0
 11
-362.57815394569815
 21
194.52487776314638
 31
0.0
 11
-362.57900117165212
 21
194.4915018388553
 31
0.0
 11
-362.57969076827203
 21
194.45812294121336
 31
0.0
 11
-362.58022433572415
 21
194.42474215279321
 31
0.0
 11
-362.58060347417472
 21
194.39136055616729
 31
0.0
 11
-362.5808297837898
 21
194.35797923390822
 31
0.0
 11
-362.58090486473566
 21
194.32459926858849
 31
0.0
  0
SPLINE
  5
FE
100
AcDbEntity
  8
LY_1
390
0
  6
CONTINUOUS
 62
     7
100
AcDbSpline
210
0.0
220
0.0
230
1.0
 70
     0
 71
     3
 72
     0
 73
     0
 74
    46
 44
0.000001
 12
0.0000157028302633
 22
0.9999999998767105
 32
0.0
 13
-0.4718215701783872
 23
0.8816940545985332
 33
0.0
 11
-361.2809048647357
 21
194.32459926858849
 31
0.0
 11
-361.28097994568054
 21
194.35797923390822
 31
0.0
 11
-361.28120625529277
 21
194.39136055616729
 31
0.0
 11
-361.28158539373879
 21
194.42474215279316
 31
0.0
 11
-361.28211896118506
 21
194.45812294121336
 31
0.0
 11
-361.28280855779809
 21
194.49150183885527
 31
0.0
 11
-361.28365578374428
 21
194.52487776314638
 31
0.0
 11
-361.28466223919008
 21
194.55824963151406
 31
0.0
 11
-361.28582952430196
 21
194.59161636138583
 31
0.0
 11
-361.28715923924636
 21
194.62497687018916
 31
0.0
 11
-361.28865298418975
 21
194.65833007535153
 31
0.0
 11
-361.29031235929853
 21
194.69167489430035
 31
0.0
 11
-361.29213896473925
 21
194.72501024446305
 31
0.0
 11
-361.29413440067827
 21
194.7583350432671
 31
0.0
 11
-361.29630026912798
 21
194.79164820808808
 31
0.0
 11
-361.29863897415396
 21
194.82494863371255
 31
0.0
 11
-361.30115497243224
 21
194.85823515711832
 31
0.0
 11
-361.30385304433861
 21
194.89150660616656
 31
0.0
 11
-361.306737970249
 21
194.92476180871836
 31
0.0
 11
-361.3098145305392
 21
194.95799959263496
 31
0.0
 11
-361.31308750558503
 21
194.99121878577748
 31
0.0
 11
-361.31656178134529
 21
195.02441816938432
 31
0.0
 11
-361.320244030639
 21
195.05759573566164
 31
0.0
 11
-361.32414241603772
 21
195.09074881897843
 31
0.0
 11
-361.32826514565772
 21
195.12387473359254
 31
0.0
 11
-361.33262042761527
 21
195.15697079376164
 31
0.0
 11
-361.33721647002665
 21
195.19003431374341
 31
0.0
 11
-361.34206156018422
 21
195.22306258294293
 31
0.0
 11
-361.34716717450641
 21
195.25605188972719
 31
0.0
 11
-361.35254899767352
 21
195.28899720152782
 31
0.0
 11
-361.35822300229506
 21
195.32189339539786
 31
0.0
 11
-361.36420516098076
 21
195.35473534839042
 31
0.0
 11
-361.37051144634017
 21
195.38751793755858
 31
0.0
 11
-361.37715904801684
 21
195.42023541378558
 31
0.0
 11
-361.38417578356996
 21
195.45287655984063
 31
0.0
 11
-361.3915949577663
 21
195.48542733529811
 31
0.0
 11
-361.39944992117
 21
195.51787367616927
 31
0.0
 11
-361.40777402434509
 21
195.55020151846563
 31
0.0
 11
-361.41660373072523
 21
195.58239544946815
 31
0.0
 11
-361.42600302353424
 21
195.6144281328049
 31
0.0
 11
-361.43605023851285
 21
195.64626601350881
 31
0.0
 11
-361.44682383558154
 21
195.67787548280882
 31
0.0
 11
-361.45840469032998
 21
195.70922062949629
 31
0.0
 11
-361.47093642943349
 21
195.74020573266699
 31
0.0
 11
-361.4846297062129
 21
195.77067118657291
 31
0.0
 11
-361.49969844593568
 21
195.80045426688847
 31
0.0
  0
SPLINE
  5
FF
100
AcDbEntity
  8
LY_1
390
0
  6
CONTINUOUS
 62
     7
100
AcDbSpline
210
0.0
220
0.0
230
1.0
 70
     0
 71
     3
 72
     0
 73
     0
 74
    31
 44
0.000001
 12
0.2234795261300205
 22
0.9747086238464814
 32
0.0
 13
-0.0000132178540217
 23
0.9999999999126442
 33
0.0
 11
-361.38876054903568
 21
189.39316218578847
 31
0.0
 11
-361.38040351425406
 21
189.4307683650425
 31
0.0
 11
-361.37255145074135
 21
189.46848620178963
 31
0.0
 11
-361.36517453041415
 21
189.50630393694198
 31
0.0
 11
-361.35824292518902
 21
189.54420981141149
 31
0.0
 11
-361.35172680698258
 21
189.58219206611011
 31
0.0
 11
-361.34559634771142
 21
189.62023894194996
 31
0.0
 11
-361.33982216406753
 21
189.65833888908256
 31
0.0
 11
-361.33438385616824
 21
189.6964845838117
 31
0.0
 11
-361.32926936525121
 21
189.73467262642791
 31
0.0
 11
-361.32446694864666
 21
189.77289976592408
 31
0.0
 11
-361.31996486368479
 21
189.8111627512929
 31
0.0
 11
-361.3157513676959
 21
189.84945833152736
 31
0.0
 11
-361.31181471801023
 21
189.88778325562021
 31
0.0
 11
-361.30814317898609
 21
189.92613427414051
 31
0.0
 11
-361.30472683309597
 21
189.96450854544383
 31
0.0
 11
-361.30155999366923
 21
190.00290417682746
 31
0.0
 11
-361.29863757454098
 21
190.0413194102768
 31
0.0
 11
-361.29595448954615
 21
190.07975248777723
 31
0.0
 11
-361.2935056525198
 21
190.118201651314
 31
0.0
 11
-361.29128597729698
 21
190.15666514287244
 31
0.0
 11
-361.28929037771258
 21
190.19514120443799
 31
0.0
 11
-361.28751377617101
 21
190.23362807908083
 31
0.0
 11
-361.28595219694932
 21
190.27212414937543
 31
0.0
 11
-361.284603840204
 21
190.31062807337693
 31
0.0
 11
-361.28346716116715
 21
190.34913854143451
 31
0.0
 11
-361.28254061507096
 21
190.38765424389749
 31
0.0
 11
-361.28182265714747
 21
190.42617387111511
 31
0.0
 11
-361.28131174262904
 21
190.46469611343656
 31
0.0
 11
-361.28100632674773
 21
190.50321966121129
 31
0.0
 11
-361.2809048647357
 21
190.54174320478839
 31
0.0
  0
DIMENSION
  5
113
100
AcDbEntity
  8
LY_1
390
0
  6
CONTINUOUS
 62
   230
100
AcDbDimension
  2
*D1
 10
-284.618741
 20
181.883171
 30
0.0
 11
-284.618741
 21
216.755314
 31
0.0
 70
   128
 71
     5
 72
     1
 41
0.9
 42
70.5
  1
\A1;<>
  3
MXDIMSTYLE
100
AcDbAlignedDimension
 13
-319.430905
 23
252.383171
 33
0.0
 14
-334.450906
 24
181.883171
 34
0.0
 50
90.0
100
AcDbRotatedDimension
1001
ACAD
1000
DSTYLE
1002
{
1070
     6
1000
_OPEN
1070
     7
1000
_OPEN
1070
    41
1040
3.0
1070
    42
1040
1.0
1070
    44
1040
2.0
1070
   140
1040
3.15
1070
   284
1070
     8
1070
   340
1005
10D
1070
   343
1005
105
1070
   344
1005
105
1002
}
  0
DIMENSION
  5
120
100
AcDbEntity
  8
LY_1
390
0
  6
CONTINUOUS
 62
   230
100
AcDbDimension
  2
*D3
 10
-187.155693
 20
181.883171
 30
0.0
 11
-187.155693
 21
209.883171
 31
0.0
 70
   128
 71
     5
 72
     1
 41
0.9
 42
56.0
  1
\A1;<>
  3
MXDIMSTYLE
100
AcDbAlignedDimension
 13
-195.49322
 23
237.883171
 33
0.0
 14
-195.69322
 24
181.883171
 34
0.0
 50
90.0
100
AcDbRotatedDimension
1001
ACAD
1000
DSTYLE
1002
{
1070
     6
1000
_OPEN
1070
     7
1000
_OPEN
1070
    41
1040
3.0
1070
    42
1040
1.0
1070
    44
1040
2.0
1070
   140
1040
3.15
1070
   284
1070
     8
1070
   343
1005
105
1070
   344
1005
105
1002
}
  0
DIMENSION
  5
12D
100
AcDbEntity
  8
LY_1
390
0
  6
CONTINUOUS
 62
   230
100
AcDbDimension
  2
*D4
 10
-347.287371
 20
236.293826
 30
0.0
 11
-375.487843
 21
253.231792
 31
0.0
 70
   131
 71
     5
 72
     1
 41
0.9
 42
12.0
  1
\A1;<>
  3
MXDIMSTYLE
100
AcDbDiametricDimension
 15
-357.574439
 25
242.472517
 35
0.0
 40
0.0
1001
ACAD
1000
DSTYLE
1002
{
1070
     6
1000
_OPEN
1070
     7
1000
_OPEN
1070
    41
1040
3.0
1070
   141
1040
0.0
1070
   284
1070
     8
1070
   289
1070
     2
1070
   343
1005
105
1070
   344
1005
105
1002
}
  0
LINE
  5
12E
100
AcDbEntity
  8
LY_1
390
0
  6
CONTINUOUS
 62
   132
100
AcDbLine
 10
-266.24322
 20
188.084274
 30
0.0
 11
-216.24322
 21
188.084274
 31
0.0
  0
MTEXT
  5
12F
100
AcDbEntity
  8
LY_1
390
0
  6
CONTINUOUS
 62
   110
100
AcDbMText
 10
-247.10572
 20
211.159274
 30
0.0
 40
3.15
 41
0.0
 71
     1
 72
     1
  1
\W0.833;\A1;Ｎ．Ｐ．
 73
     1
 44
0.9
  0
LINE
  5
130
100
AcDbEntity
  8
LY_1
390
0
  6
CONTINUOUS
 62
   132
100
AcDbLine
 10
-266.24322
 20
231.084274
 30
0.0
 11
-266.24322
 21
188.084274
 31
0.0
  0
LINE
  5
131
100
AcDbEntity
  8
LY_1
390
0
  6
CONTINUOUS
 62
   132
100
AcDbLine
 10
-216.24322
 20
231.084274
 30
0.0
 11
-216.24322
 21
188.084274
 31
0.0
  0
LINE
  5
132
100
AcDbEntity
  8
LY_1
390
0
  6
CONTINUOUS
 62
   132
100
AcDbLine
 10
-266.24322
 20
231.084274
 30
0.0
 11
-216.24322
 21
231.084274
 31
0.0
  0
ARC
  5
133
100
AcDbEntity
  8
LY_1
390
0
  6
CONTINUOUS
 62
     7
100
AcDbCircle
 10
-276.383641
 20
210.883526
 30
0.0
 40
9.710421
100
AcDbArc
 50
335.664591
 51
24.335409
  0
LINE
  5
134
100
AcDbEntity
  8
LY_1
390
0
  6
CONTINUOUS
 62
     7
100
AcDbLine
 10
-269.243228
 20
206.583526
 30
0.0
 11
-269.243228
 21
215.183526
 31
0.0
  0
LINE
  5
135
100
AcDbEntity
  8
LY_1
390
0
  6
CONTINUOUS
 62
     7
100
AcDbLine
 10
-270.873228
 20
206.583526
 30
0.0
 11
-270.873228
 21
215.183526
 31
0.0
  0
LINE
  5
136
100
AcDbEntity
  8
LY_1
390
0
  6
CONTINUOUS
 62
   254
100
AcDbLine
 10
-272.74322
 20
198.183171
 30
0.0
 11
-272.74322
 21
215.383526
 31
0.0
  0
LINE
  5
137
100
AcDbEntity
  8
LY_1
390
0
  6
CONTINUOUS
 62
     7
100
AcDbLine
 10
-272.11322
 20
198.183171
 30
0.0
 11
-272.11322
 21
206.583526
 31
0.0
  0
LINE
  5
138
100
AcDbEntity
  8
LY_1
390
0
  6
CONTINUOUS
 62
     7
100
AcDbLine
 10
-269.74322
 20
206.583526
 30
0.0
 11
-269.74322
 21
198.183171
 31
0.0
  0
LINE
  5
139
100
AcDbEntity
  8
LY_1
390
0
  6
CONTINUOUS
 62
     7
100
AcDbLine
 10
-272.74322
 20
198.183171
 30
0.0
 11
-269.74322
 21
198.183171
 31
0.0
  0
LINE
  5
13A
100
AcDbEntity
  8
LY_1
390
0
  6
CONTINUOUS
 62
     7
100
AcDbLine
 10
-268.243228
 20
208.083526
 30
0.0
 11
-268.243228
 21
213.683526
 31
0.0
  0
LINE
  5
13B
100
AcDbEntity
  8
LY_1
390
0
  6
CONTINUOUS
 62
     7
100
AcDbLine
 10
-269.243228
 20
208.083526
 30
0.0
 11
-268.243228
 21
208.083526
 31
0.0
  0
LINE
  5
13C
100
AcDbEntity
  8
LY_1
390
0
  6
CONTINUOUS
 62
     7
100
AcDbLine
 10
-267.993626
 20
206.583526
 30
0.0
 11
-272.11322
 21
206.583526
 31
0.0
  0
ARC
  5
13D
100
AcDbEntity
  8
LY_1
390
0
  6
CONTINUOUS
 62
     7
100
AcDbCircle
 10
-267.993626
 20
207.083526
 30
0.0
 40
0.5
100
AcDbArc
 50
270.0
 51
336.240869
  0
LINE
  5
13E
100
AcDbEntity
  8
LY_1
390
0
  6
CONTINUOUS
 62
     7
100
AcDbLine
 10
-269.243228
 20
213.683526
 30
0.0
 11
-268.243228
 21
213.683526
 31
0.0
  0
LINE
  5
13F
100
AcDbEntity
  8
LY_1
390
0
  6
CONTINUOUS
 62
     7
100
AcDbLine
 10
-267.993626
 20
215.183526
 30
0.0
 11
-272.74322
 21
215.183526
 31
0.0
  0
LINE
  5
140
100
AcDbEntity
  8
LY_1
390
0
  6
CONTINUOUS
 62
     7
100
AcDbLine
 10
-269.74322
 20
215.383526
 30
0.0
 11
-272.74322
 21
215.383526
 31
0.0
  0
LINE
  5
141
100
AcDbEntity
  8
LY_1
390
0
  6
CONTINUOUS
 62
     7
100
AcDbLine
 10
-269.74322
 20
215.383526
 30
0.0
 11
-269.74322
 21
215.183526
 31
0.0
  0
ARC
  5
142
100
AcDbEntity
  8
LY_1
390
0
  6
CONTINUOUS
 62
     7
100
AcDbCircle
 10
-267.993626
 20
214.683526
 30
0.0
 40
0.5
100
AcDbArc
 50
23.759131
 51
90.0
  0
LINE
  5
143
100
AcDbEntity
  8
LY_1
390
0
  6
CONTINUOUS
 62
     7
100
AcDbLine
 10
-270.87322
 20
215.383526
 30
0.0
 11
-270.87322
 21
232.883171
 31
0.0
  0
LINE
  5
144
100
AcDbEntity
  8
LY_1
390
0
  6
CONTINUOUS
 62
   254
100
AcDbLine
 10
-272.74322
 20
215.383526
 30
0.0
 11
-272.74322
 21
232.883171
 31
0.0
  0
LINE
  5
145
100
AcDbEntity
  8
LY_1
390
0
  6
CONTINUOUS
 62
   254
100
AcDbLine
 10
-272.74322
 20
198.183171
 30
0.0
 11
-272.74322
 21
184.58338
 31
0.0
  0
LINE
  5
146
100
AcDbEntity
  8
LY_1
390
0
  6
CONTINUOUS
 62
     7
100
AcDbLine
 10
-270.87322
 20
198.183171
 30
0.0
 11
-270.87322
 21
186.583171
 31
0.0
  0
DIMENSION
  5
154
100
AcDbEntity
  8
LY_1
390
0
  6
CONTINUOUS
 62
   230
100
AcDbDimension
  2
*D5
 10
-195.49322
 20
260.383171
 30
0.0
 11
-221.59322
 21
260.383171
 31
0.0
 70
   128
 71
     5
 72
     1
 41
0.9
 42
52.2
  1
\A1;<>
  3
MXDIMSTYLE
100
AcDbAlignedDimension
 13
-247.69322
 23
252.383171
 33
0.0
 14
-195.49322
 24
237.883171
 34
0.0
100
AcDbRotatedDimension
1001
ACAD
1000
DSTYLE
1002
{
1070
     6
1000
_OPEN
1070
     7
1000
_OPEN
1070
    41
1040
3.0
1070
    42
1040
1.0
1070
    44
1040
2.0
1070
   140
1040
3.15
1070
   284
1070
     8
1070
   340
1005
14E
1070
   343
1005
105
1070
   344
1005
105
1002
}
  0
DIMENSION
  5
162
100
AcDbEntity
  8
LY_1
390
0
  6
CONTINUOUS
 62
   230
100
AcDbDimension
  2
*D6
 10
-247.69322
 20
260.383171
 30
0.0
 11
-252.69322
 21
260.383171
 31
0.0
 70
   128
 71
     5
 72
     1
 41
0.9
 42
10.0
  1
\A1;<>
  3
MXDIMSTYLE
100
AcDbAlignedDimension
 13
-257.69322
 23
251.883171
 33
0.0
 14
-247.69322
 24
252.383171
 34
0.0
100
AcDbRotatedDimension
1001
ACAD
1000
DSTYLE
1002
{
1070
     6
1000
_OPEN
1070
     7
1000
_OPEN
1070
    41
1040
3.0
1070
    42
1040
1.0
1070
    44
1040
2.0
1070
   140
1040
3.15
1070
   284
1070
     8
1070
   340
1005
15C
1070
   343
1005
105
1070
   344
1005
105
1002
}
  0
LINE
  5
164
100
AcDbEntity
  8
LY_1
390
0
  6
DASHED
 62
   254
100
AcDbLine
 10
-304.530905
 20
65.27759
 30
0.0
 11
-304.530905
 21
57.07759
 31
0.0
  0
LINE
  5
165
100
AcDbEntity
  8
LY_1
390
0
  6
DASHED
 62
   254
100
AcDbLine
 10
-311.930905
 20
57.07759
 30
0.0
 11
-304.530908
 21
57.07759
 31
0.0
  0
LINE
  5
166
100
AcDbEntity
  8
LY_1
390
0
  6
DASHED
 62
   254
100
AcDbLine
 10
-311.930905
 20
65.27759
 30
0.0
 11
-304.530911
 21
65.27759
 31
0.0
  0
LINE
  5
167
100
AcDbEntity
  8
LY_1
390
0
  6
DASHED
 62
   254
100
AcDbLine
 10
-367.930905
 20
56.87759
 30
0.0
 11
-375.330902
 21
56.87759
 31
0.0
  0
LINE
  5
168
100
AcDbEntity
  8
LY_1
390
0
  6
DASHED
 62
   254
100
AcDbLine
 10
-375.330905
 20
65.07759
 30
0.0
 11
-375.330905
 21
56.87759
 31
0.0
  0
LINE
  5
169
100
AcDbEntity
  8
LY_1
390
0
  6
DASHED
 62
   254
100
AcDbLine
 10
-375.330899
 20
65.07759
 30
0.0
 11
-367.930905
 21
65.07759
 31
0.0
  0
LINE
  5
16A
100
AcDbEntity
  8
LY_1
390
0
  6
CONTINUOUS
 62
     7
100
AcDbLine
 10
-334.430905
 20
59.17759
 30
0.0
 11
-334.430905
 21
57.07759
 31
0.0
  0
LINE
  5
16B
100
AcDbEntity
  8
LY_1
390
0
  6
CONTINUOUS
 62
     7
100
AcDbLine
 10
-345.430905
 20
57.07759
 30
0.0
 11
-345.430905
 21
59.17759
 31
0.0
  0
LINE
  5
16C
100
AcDbEntity
  8
LY_1
390
0
  6
CONTINUOUS
 62
     7
100
AcDbLine
 10
-335.930905
 20
59.17759
 30
0.0
 11
-333.280905
 21
59.17759
 31
0.0
  0
LINE
  5
16D
100
AcDbEntity
  8
LY_1
390
0
  6
CONTINUOUS
 62
     7
100
AcDbLine
 10
-346.580905
 20
59.17759
 30
0.0
 11
-343.930905
 21
59.17759
 31
0.0
  0
ARC
  5
16E
100
AcDbEntity
  8
LY_1
390
0
  6
CONTINUOUS
 62
   254
100
AcDbCircle
 10
-323.930905
 20
71.27759
 30
0.0
 40
4.0
100
AcDbArc
 50
270.0
 51
0.0
  0
ARC
  5
16F
100
AcDbEntity
  8
LY_1
390
0
  6
CONTINUOUS
 62
   254
100
AcDbCircle
 10
-323.930905
 20
76.27759
 30
0.0
 40
4.0
100
AcDbArc
 50
0.0
 51
90.0
  0
ARC
  5
170
100
AcDbEntity
  8
LY_1
390
0
  6
CONTINUOUS
 62
   254
100
AcDbCircle
 10
-334.430905
 20
65.27759
 30
0.0
 40
2.0
100
AcDbArc
 50
90.0
 51
180.0
  0
ARC
  5
171
100
AcDbEntity
  8
LY_1
390
0
  6
CONTINUOUS
 62
   254
100
AcDbCircle
 10
-345.430905
 20
65.27759
 30
0.0
 40
2.0
100
AcDbArc
 50
0.0
 51
90.0
  0
ARC
  5
172
100
AcDbEntity
  8
LY_1
390
0
  6
CONTINUOUS
 62
   254
100
AcDbCircle
 10
-355.930905
 20
71.27759
 30
0.0
 40
4.0
100
AcDbArc
 50
180.0
 51
270.0
  0
ARC
  5
173
100
AcDbEntity
  8
LY_1
390
0
  6
CONTINUOUS
 62
   254
100
AcDbCircle
 10
-355.930905
 20
76.27759
 30
0.0
 40
4.0
100
AcDbArc
 50
90.0
 51
180.0
  0
LINE
  5
174
100
AcDbEntity
  8
LY_1
390
0
  6
CONTINUOUS
 62
   254
100
AcDbLine
 10
-319.930905
 20
71.27759
 30
0.0
 11
-319.930905
 21
76.27759
 31
0.0
  0
LINE
  5
175
100
AcDbEntity
  8
LY_1
390
0
  6
CONTINUOUS
 62
     7
100
AcDbLine
 10
-331.830905
 20
63.77759
 30
0.0
 11
-331.830905
 21
60.07759
 31
0.0
  0
LINE
  5
176
100
AcDbEntity
  8
LY_1
390
0
  6
CONTINUOUS
 62
     7
100
AcDbLine
 10
-331.930905
 20
60.17759
 30
0.0
 11
-331.930905
 21
61.77759
 31
0.0
  0
LINE
  5
177
100
AcDbEntity
  8
LY_1
390
0
  6
CONTINUOUS
 62
   254
100
AcDbLine
 10
-331.930905
 20
80.27759
 30
0.0
 11
-331.930905
 21
67.27759
 31
0.0
  0
LINE
  5
178
100
AcDbEntity
  8
LY_1
390
0
  6
CONTINUOUS
 62
   254
100
AcDbLine
 10
-333.930905
 20
67.27759
 30
0.0
 11
-333.930905
 21
80.27759
 31
0.0
  0
LINE
  5
179
100
AcDbEntity
  8
LY_1
390
0
  6
CONTINUOUS
 62
     7
100
AcDbLine
 10
-333.930905
 20
61.77759
 30
0.0
 11
-333.930905
 21
63.77759
 31
0.0
  0
LINE
  5
17A
100
AcDbEntity
  8
LY_1
390
0
  6
CONTINUOUS
 62
     7
100
AcDbLine
 10
-334.430905
 20
61.77759
 30
0.0
 11
-334.430905
 21
60.17759
 31
0.0
  0
LINE
  5
17B
100
AcDbEntity
  8
LY_1
390
0
  6
CONTINUOUS
 62
   254
100
AcDbLine
 10
-336.430905
 20
61.77759
 30
0.0
 11
-336.430905
 21
65.27759
 31
0.0
  0
LINE
  5
17C
100
AcDbEntity
  8
LY_1
390
0
  6
CONTINUOUS
 62
     7
100
AcDbLine
 10
-337.930905
 20
64.27759
 30
0.0
 11
-337.930905
 21
61.77759
 31
0.0
  0
LINE
  5
17D
100
AcDbEntity
  8
LY_1
390
0
  6
CONTINUOUS
 62
     7
100
AcDbLine
 10
-338.430905
 20
64.27759
 30
0.0
 11
-338.430905
 21
61.77759
 31
0.0
  0
LINE
  5
17E
100
AcDbEntity
  8
LY_1
390
0
  6
CONTINUOUS
 62
     7
100
AcDbLine
 10
-341.430905
 20
64.27759
 30
0.0
 11
-341.430905
 21
61.77759
 31
0.0
  0
LINE
  5
17F
100
AcDbEntity
  8
LY_1
390
0
  6
CONTINUOUS
 62
     7
100
AcDbLine
 10
-341.930905
 20
64.27759
 30
0.0
 11
-341.930905
 21
61.77759
 31
0.0
  0
LINE
  5
180
100
AcDbEntity
  8
LY_1
390
0
  6
CONTINUOUS
 62
   254
100
AcDbLine
 10
-343.430905
 20
65.27759
 30
0.0
 11
-343.430905
 21
61.77759
 31
0.0
  0
LINE
  5
181
100
AcDbEntity
  8
LY_1
390
0
  6
CONTINUOUS
 62
     7
100
AcDbLine
 10
-345.430905
 20
60.17759
 30
0.0
 11
-345.430905
 21
61.77759
 31
0.0
  0
LINE
  5
182
100
AcDbEntity
  8
LY_1
390
0
  6
CONTINUOUS
 62
   254
100
AcDbLine
 10
-345.930905
 20
67.27759
 30
0.0
 11
-345.930905
 21
80.27759
 31
0.0
  0
LINE
  5
183
100
AcDbEntity
  8
LY_1
390
0
  6
CONTINUOUS
 62
     7
100
AcDbLine
 10
-345.930905
 20
61.77759
 30
0.0
 11
-345.930905
 21
63.77759
 31
0.0
  0
LINE
  5
184
100
AcDbEntity
  8
LY_1
390
0
  6
CONTINUOUS
 62
     7
100
AcDbLine
 10
-347.930905
 20
60.17759
 30
0.0
 11
-347.930905
 21
61.77759
 31
0.0
  0
LINE
  5
185
100
AcDbEntity
  8
LY_1
390
0
  6
CONTINUOUS
 62
   254
100
AcDbLine
 10
-347.930905
 20
80.27759
 30
0.0
 11
-347.930905
 21
67.27759
 31
0.0
  0
LINE
  5
186
100
AcDbEntity
  8
LY_1
390
0
  6
CONTINUOUS
 62
     7
100
AcDbLine
 10
-348.030905
 20
60.07759
 30
0.0
 11
-348.030905
 21
63.77759
 31
0.0
  0
LINE
  5
187
100
AcDbEntity
  8
LY_1
390
0
  6
CONTINUOUS
 62
   254
100
AcDbLine
 10
-323.930905
 20
80.27759
 30
0.0
 11
-355.930905
 21
80.27759
 31
0.0
  0
LINE
  5
188
100
AcDbEntity
  8
LY_1
390
0
  6
CONTINUOUS
 62
   254
100
AcDbLine
 10
-359.930905
 20
76.27759
 30
0.0
 11
-359.930905
 21
71.27759
 31
0.0
  0
LINE
  5
189
100
AcDbEntity
  8
LY_1
390
0
  6
CONTINUOUS
 62
   254
100
AcDbLine
 10
-334.430905
 20
67.27759
 30
0.0
 11
-323.930905
 21
67.27759
 31
0.0
  0
LINE
  5
18A
100
AcDbEntity
  8
LY_1
390
0
  6
CONTINUOUS
 62
   254
100
AcDbLine
 10
-355.930905
 20
67.27759
 30
0.0
 11
-345.430905
 21
67.27759
 31
0.0
  0
LINE
  5
18B
100
AcDbEntity
  8
LY_1
390
0
  6
CONTINUOUS
 62
   254
100
AcDbLine
 10
-343.430905
 20
64.27759
 30
0.0
 11
-336.430905
 21
64.27759
 31
0.0
  0
LINE
  5
18C
100
AcDbEntity
  8
LY_1
390
0
  6
CONTINUOUS
 62
     7
100
AcDbLine
 10
-333.930905
 20
63.77759
 30
0.0
 11
-331.830905
 21
63.77759
 31
0.0
  0
LINE
  5
18D
100
AcDbEntity
  8
LY_1
390
0
  6
CONTINUOUS
 62
     7
100
AcDbLine
 10
-348.030905
 20
63.77759
 30
0.0
 11
-345.930905
 21
63.77759
 31
0.0
  0
LINE
  5
18E
100
AcDbEntity
  8
LY_1
390
0
  6
CONTINUOUS
 62
     7
100
AcDbLine
 10
-347.930905
 20
61.77759
 30
0.0
 11
-331.930905
 21
61.77759
 31
0.0
  0
LINE
  5
18F
100
AcDbEntity
  8
LY_1
390
0
  6
CONTINUOUS
 62
     7
100
AcDbLine
 10
-335.930905
 20
60.17759
 30
0.0
 11
-331.930905
 21
60.17759
 31
0.0
  0
LINE
  5
190
100
AcDbEntity
  8
LY_1
390
0
  6
CONTINUOUS
 62
     7
100
AcDbLine
 10
-347.930905
 20
60.17759
 30
0.0
 11
-343.930905
 21
60.17759
 31
0.0
  0
LINE
  5
191
100
AcDbEntity
  8
LY_1
390
0
  6
CONTINUOUS
 62
     7
100
AcDbLine
 10
-333.280905
 20
60.07759
 30
0.0
 11
-331.830905
 21
60.07759
 31
0.0
  0
LINE
  5
192
100
AcDbEntity
  8
LY_1
390
0
  6
CONTINUOUS
 62
     7
100
AcDbLine
 10
-348.030905
 20
60.07759
 30
0.0
 11
-346.580905
 21
60.07759
 31
0.0
  0
DIMENSION
  5
19F
100
AcDbEntity
  8
LY_1
390
0
  6
CONTINUOUS
 62
   230
100
AcDbDimension
  2
*D7
 10
-294.530905
 20
67.27759
 30
0.0
 11
-294.530905
 21
73.3087
 31
0.0
 70
   128
 71
     5
 72
     1
 41
0.9
 42
13.0
  1
\A1;<>
  3
MXDIMSTYLE
100
AcDbAlignedDimension
 13
-323.930904
 23
80.27759
 33
0.0
 14
-323.130905
 24
67.27759
 34
0.0
 50
90.0
100
AcDbRotatedDimension
1001
ACAD
1000
DSTYLE
1002
{
1070
     6
1000
_OPEN
1070
     7
1000
_OPEN
1070
    41
1040
3.0
1070
    42
1040
1.0
1070
    44
1040
2.0
1070
   140
1040
3.15
1070
   284
1070
     8
1070
   340
1005
14E
1070
   343
1005
105
1070
   344
1005
105
1002
}
  0
DIMENSION
  5
1AE
100
AcDbEntity
  8
LY_1
390
0
  6
CONTINUOUS
 62
   230
100
AcDbDimension
  2
*D8
 10
-294.530905
 20
56.57759
 30
0.0
 11
-294.530905
 21
50.200854
 31
0.0
 70
   128
 71
     5
 72
     1
 41
0.9
 42
10.7
  1
\A1;<>
  3
MXDIMSTYLE
100
AcDbAlignedDimension
 13
-323.130905
 23
67.27759
 33
0.0
 14
-311.930904
 24
56.57759
 34
0.0
 50
90.0
100
AcDbRotatedDimension
1001
ACAD
1000
DSTYLE
1002
{
1070
     6
1000
_OPEN
1070
     7
1000
_OPEN
1070
    41
1040
3.0
1070
    42
1040
1.0
1070
    44
1040
2.0
1070
   140
1040
3.15
1070
   284
1070
     8
1070
   340
1005
1A8
1070
   343
1005
105
1070
   344
1005
105
1002
}
  0
LINE
  5
1AF
100
AcDbEntity
  8
LY_1
390
0
  6
CONTINUOUS
 62
     7
100
AcDbLine
 10
-346.580905
 20
57.07759
 30
0.0
 11
-346.580905
 21
60.07759
 31
0.0
  0
LINE
  5
1B0
100
AcDbEntity
  8
LY_1
390
0
  6
CONTINUOUS
 62
     7
100
AcDbLine
 10
-335.930905
 20
60.17759
 30
0.0
 11
-335.930905
 21
59.17759
 31
0.0
  0
LINE
  5
1B1
100
AcDbEntity
  8
LY_1
390
0
  6
CONTINUOUS
 62
     7
100
AcDbLine
 10
-333.280905
 20
57.07759
 30
0.0
 11
-333.280905
 21
60.07759
 31
0.0
  0
LWPOLYLINE
  5
1B2
100
AcDbEntity
  8
LY_1
390
0
  6
CONTINUOUS
 62
   230
100
AcDbPolyline
 90
        3
 70
     0
 10
-315.04741
 20
120.989794
 10
-305.698069
 20
137.983168
 10
-284.875906
 20
137.983168
  0
INSERT
  5
1B3
100
AcDbEntity
  8
LY_1
390
0
  6
CONTINUOUS
 62
   230
100
AcDbBlockReference
  2
_OPEN
 10
-315.04741
 20
120.989794
 30
0.0
 41
3.0
 42
3.0
 43
3.0
 50
241.181478
  0
MTEXT
  5
1B4
100
AcDbEntity
  8
LY_1
390
0
  6
CONTINUOUS
 62
   230
100
AcDbMText
 10
-302.875906
 20
138.983168
 30
0.0
 40
3.2
 41
0.0
 71
     7
 72
     1
  1
\W0.998;\A1;配線ビス　　
 73
     1
 44
0.9
  0
MTEXT
  5
1B5
100
AcDbEntity
  8
LY_1
390
0
  6
CONTINUOUS
 62
   230
100
AcDbMText
 10
-302.875906
 20
136.983168
 30
0.0
 40
3.2
 41
0.0
 71
     1
 72
     1
  1
\A1;６－Ｍ３．５
 73
     1
 44
0.9
  0
DIMENSION
  5
1C2
100
AcDbEntity
  8
LY_1
390
0
  6
CONTINUOUS
 62
   230
100
AcDbDimension
  2
*D9
 10
-378.797395
 20
117.07759
 30
0.0
 11
-378.797395
 21
88.081583
 31
0.0
 70
   128
 71
     5
 72
     1
 41
0.9
 42
60.2
  1
\A1;<>
  3
MXDIMSTYLE
100
AcDbAlignedDimension
 13
-367.930906
 23
56.87759
 33
0.0
 14
-365.830905
 24
117.07759
 34
0.0
 50
90.0
100
AcDbRotatedDimension
1001
ACAD
1000
DSTYLE
1002
{
1070
     6
1000
_OPEN
1070
     7
1000
_OPEN
1070
    41
1040
3.0
1070
    42
1040
1.0
1070
    44
1040
2.0
1070
   140
1040
3.15
1070
   284
1070
     8
1070
   340
1005
10D
1070
   343
1005
105
1070
   344
1005
105
1002
}
  0
DIMENSION
  5
1CF
100
AcDbEntity
  8
LY_1
390
0
  6
CONTINUOUS
 62
   230
100
AcDbDimension
  2
*D10
 10
-195.49322
 20
268.295374
 30
0.0
 11
-234.11822
 21
268.295374
 31
0.0
 70
   128
 71
     5
 72
     1
 41
0.9
 42
0.0
  1
\A1;77.2
  3
MXDIMSTYLE
100
AcDbAlignedDimension
 13
-272.74322
 23
232.88317
 33
0.0
 14
-195.49322
 24
237.883172
 34
0.0
100
AcDbRotatedDimension
1001
ACAD
1000
DSTYLE
1002
{
1070
     6
1000
_OPEN
1070
     7
1000
_OPEN
1070
    41
1040
3.0
1070
    42
1040
1.0
1070
    44
1040
2.0
1070
   140
1040
3.15
1070
   340
1005
14E
1070
   343
1005
105
1070
   344
1005
105
1002
}
  0
DIMENSION
  5
1DC
100
AcDbEntity
  8
LY_1
390
0
  6
CONTINUOUS
 62
   230
100
AcDbDimension
  2
*D11
 10
-314.430905
 20
260.383171
 30
0.0
 11
-339.745818
 21
260.383171
 31
0.0
 70
   128
 71
     5
 72
     1
 41
0.9
 42
51.0
  1
\A1;<>
  3
MXDIMSTYLE
100
AcDbAlignedDimension
 13
-365.430905
 23
247.383171
 33
0.0
 14
-314.430905
 24
247.383171
 34
0.0
100
AcDbRotatedDimension
1001
ACAD
1000
DSTYLE
1002
{
1070
     6
1000
_OPEN
1070
     7
1000
_OPEN
1070
    41
1040
3.0
1070
    42
1040
1.0
1070
    44
1040
2.0
1070
   140
1040
3.15
1070
   284
1070
     8
1070
   340
1005
14E
1070
   343
1005
105
1070
   344
1005
105
1002
}
  0
DIMENSION
  5
1E9
100
AcDbEntity
  8
LY_1
390
0
  6
CONTINUOUS
 62
   230
100
AcDbDimension
  2
*D12
 10
-292.340031
 20
181.883171
 30
0.0
 11
-292.340031
 21
207.383171
 31
0.0
 70
   128
 71
     5
 72
     1
 41
0.9
 42
51.0
  1
\A1;<>
  3
MXDIMSTYLE
100
AcDbAlignedDimension
 13
-312.552715
 23
232.883171
 33
0.0
 14
-334.450905
 24
181.883171
 34
0.0
 50
90.0
100
AcDbRotatedDimension
1001
ACAD
1000
DSTYLE
1002
{
1070
     6
1000
_OPEN
1070
     7
1000
_OPEN
1070
    41
1040
3.0
1070
    42
1040
1.0
1070
    44
1040
2.0
1070
   140
1040
3.15
1070
   284
1070
     8
1070
   340
1005
14E
1070
   343
1005
105
1070
   344
1005
105
1002
}
  0
DIMENSION
  5
1F6
100
AcDbEntity
  8
LY_1
390
0
  6
CONTINUOUS
 62
   230
100
AcDbDimension
  2
*D13
 10
-292.340031
 20
232.883171
 30
0.0
 11
-292.340031
 21
242.633171
 31
0.0
 70
   128
 71
     5
 72
     1
 41
0.9
 42
19.5
  1
\A1;<>
  3
MXDIMSTYLE
100
AcDbAlignedDimension
 13
-319.430904
 23
252.383171
 33
0.0
 14
-292.340031
 24
232.883171
 34
0.0
 50
90.0
100
AcDbRotatedDimension
1001
ACAD
1000
DSTYLE
1002
{
1070
     6
1000
_OPEN
1070
     7
1000
_OPEN
1070
    41
1040
3.0
1070
    42
1040
1.0
1070
    44
1040
2.0
1070
   140
1040
3.15
1070
   284
1070
     8
1070
   340
1005
15C
1070
   343
1005
105
1070
   344
1005
105
1002
}
  0
ARC
  5
1F7
100
AcDbEntity
  8
LY_1
390
0
  6
DASHED
 62
   254
100
AcDbCircle
 10
-308.930905
 20
195.50441
 30
0.0
 40
3.1
100
AcDbArc
 50
128.509558
 51
166.205905
  0
ARC
  5
1F8
100
AcDbEntity
  8
LY_1
390
0
  6
DASHED
 62
   254
100
AcDbCircle
 10
-308.930905
 20
226.609259
 30
0.0
 40
3.1
100
AcDbArc
 50
193.783173
 51
231.490442
  0
ARC
  5
1F9
100
AcDbEntity
  8
LY_1
390
0
  6
DASHED
 62
   254
100
AcDbCircle
 10
-308.430905
 20
211.059508
 30
0.0
 40
2.248663
100
AcDbArc
 50
90.0
 51
270.156485
  0
LINE
  5
1FA
100
AcDbEntity
  8
LY_1
390
0
  6
DASHED
 62
   254
100
AcDbLine
 10
-306.180905
 20
214.308171
 30
0.0
 11
-306.180905
 21
207.808171
 31
0.0
  0
LINE
  5
1FB
100
AcDbEntity
  8
LY_1
390
0
  6
DASHED
 62
   254
100
AcDbLine
 10
-307.380905
 20
208.808171
 30
0.0
 11
-307.380905
 21
207.808171
 31
0.0
  0
LINE
  5
1FC
100
AcDbEntity
  8
LY_1
390
0
  6
DASHED
 62
   254
100
AcDbLine
 10
-307.380905
 20
214.308171
 30
0.0
 11
-307.380905
 21
213.308171
 31
0.0
  0
LINE
  5
1FD
100
AcDbEntity
  8
LY_1
390
0
  6
DASHED
 62
   254
100
AcDbLine
 10
-306.180905
 20
214.308171
 30
0.0
 11
-307.380905
 21
214.308171
 31
0.0
  0
LINE
  5
1FE
100
AcDbEntity
  8
LY_1
390
0
  6
CONTINUOUS
 62
     7
100
AcDbLine
 10
-308.430905
 20
213.308171
 30
0.0
 11
-306.180905
 21
213.308171
 31
0.0
  0
LINE
  5
1FF
100
AcDbEntity
  8
LY_1
390
0
  6
DASHED
 62
   254
100
AcDbLine
 10
-308.430905
 20
208.808171
 30
0.0
 11
-306.180905
 21
208.808171
 31
0.0
  0
LINE
  5
200
100
AcDbEntity
  8
LY_1
390
0
  6
DASHED
 62
   254
100
AcDbLine
 10
-307.380905
 20
207.808171
 30
0.0
 11
-306.180905
 21
207.808171
 31
0.0
  0
ARC
  5
201
100
AcDbEntity
  8
LY_1
390
0
  6
DASHED
 62
   254
100
AcDbCircle
 10
-321.306099
 20
211.056835
 30
0.0
 40
16.775194
100
AcDbArc
 50
308.509558
 51
51.490442
  0
LWPOLYLINE
  5
202
100
AcDbEntity
  8
LY_1
390
0
  6
CONTINUOUS
 62
   230
100
AcDbPolyline
 90
        3
 70
     0
 10
-307.380905
 20
208.647879
 10
-291.379897
 20
173.550883
 10
-267.793077
 20
173.550883
  0
INSERT
  5
203
100
AcDbEntity
  8
LY_1
390
0
  6
CONTINUOUS
 62
   230
100
AcDbBlockReference
  2
_OPEN30
 10
-307.380905
 20
208.647879
 30
0.0
 41
2.77
 42
2.77
 43
2.77
 50
114.508631
  0
MTEXT
  5
204
100
AcDbEntity
  8
LY_1
390
0
  6
CONTINUOUS
 62
   230
100
AcDbMText
 10
-285.793077
 20
174.550883
 30
0.0
 40
3.2
 41
0.0
 71
     7
 72
     1
  1
\W0.913;\A1;２－\U+2205４，５
 73
     1
 44
0.9
  0
MTEXT
  5
205
100
AcDbEntity
  8
LY_1
390
0
  6
CONTINUOUS
 62
   230
100
AcDbMText
 10
-285.793077
 20
172.550883
 30
0.0
 40
3.2
 41
0.0
 71
     1
 72
     1
  1
\A1;取付穴
 73
     1
 44
0.9
  0
LWPOLYLINE
  5
206
100
AcDbEntity
  8
LY_1
390
0
  6
CONTINUOUS
 62
   230
100
AcDbPolyline
 90
        3
 70
     0
 10
-314.487197
 20
188.645928
 10
-290.858048
 20
160.504655
 10
-271.364819
 20
160.504655
  0
INSERT
  5
207
100
AcDbEntity
  8
LY_1
390
0
  6
CONTINUOUS
 62
   230
100
AcDbBlockReference
  2
_OPEN30
 10
-314.487197
 20
188.645928
 30
0.0
 41
2.77
 42
2.77
 43
2.77
 50
130.018893
  0
MTEXT
  5
208
100
AcDbEntity
  8
LY_1
390
0
  6
CONTINUOUS
 62
   230
100
AcDbMText
 10
-289.364819
 20
163.904655
 30
0.0
 40
3.2
 41
0.0
 71
     4
 72
     1
  1
\W1.223;\A1;端子カハ゛ー
 73
     1
 44
0.9
  0
ARC
  5
209
100
AcDbEntity
  8
LY_1
390
0
  6
DASHED
 62
   254
100
AcDbCircle
 10
-358.555711
 20
211.059508
 30
0.0
 40
16.775194
100
AcDbArc
 50
128.509558
 51
231.490442
  0
ARC
  5
20A
100
AcDbEntity
  8
LY_1
390
0
  6
DASHED
 62
   254
100
AcDbCircle
 10
-371.430905
 20
211.056835
 30
0.0
 40
2.248663
100
AcDbArc
 50
270.0
 51
90.156485
  0
LINE
  5
20B
100
AcDbEntity
  8
LY_1
390
0
  6
DASHED
 62
   254
100
AcDbLine
 10
-372.480905
 20
214.308171
 30
0.0
 11
-373.680905
 21
214.308171
 31
0.0
  0
LINE
  5
20C
100
AcDbEntity
  8
LY_1
390
0
  6
DASHED
 62
   254
100
AcDbLine
 10
-373.680905
 20
213.308171
 30
0.0
 11
-371.430905
 21
213.308171
 31
0.0
  0
LINE
  5
20D
100
AcDbEntity
  8
LY_1
390
0
  6
DASHED
 62
   254
100
AcDbLine
 10
-373.680905
 20
208.808171
 30
0.0
 11
-371.430905
 21
208.808171
 31
0.0
  0
LINE
  5
20E
100
AcDbEntity
  8
LY_1
390
0
  6
DASHED
 62
   254
100
AcDbLine
 10
-373.680905
 20
207.808171
 30
0.0
 11
-372.480905
 21
207.808171
 31
0.0
  0
LINE
  5
20F
100
AcDbEntity
  8
LY_1
390
0
  6
DASHED
 62
   254
100
AcDbLine
 10
-372.480905
 20
213.308171
 30
0.0
 11
-372.480905
 21
214.308171
 31
0.0
  0
LINE
  5
210
100
AcDbEntity
  8
LY_1
390
0
  6
CONTINUOUS
 62
     7
100
AcDbLine
 10
-372.480905
 20
207.808171
 30
0.0
 11
-372.480905
 21
208.808171
 31
0.0
  0
LINE
  5
211
100
AcDbEntity
  8
LY_1
390
0
  6
DASHED
 62
   254
100
AcDbLine
 10
-373.680905
 20
207.808171
 30
0.0
 11
-373.680905
 21
214.308171
 31
0.0
  0
ARC
  5
212
100
AcDbEntity
  8
LY_1
390
0
  6
DASHED
 62
   254
100
AcDbCircle
 10
-370.930905
 20
195.507083
 30
0.0
 40
3.1
100
AcDbArc
 50
13.783173
 51
51.490442
  0
ARC
  5
213
100
AcDbEntity
  8
LY_1
390
0
  6
DASHED
 62
   254
100
AcDbCircle
 10
-370.930905
 20
226.611933
 30
0.0
 40
3.1
100
AcDbArc
 50
308.509558
 51
346.205905
  0
DIMENSION
  5
220
100
AcDbEntity
  8
LY_1
390
0
  6
CONTINUOUS
 62
   230
100
AcDbDimension
  2
*D14
 10
-375.330905
 20
164.847288
 30
0.0
 11
-339.930906
 21
164.847288
 31
0.0
 70
   128
 71
     5
 72
     1
 41
0.9
 42
70.800001
  1
\A1;<>
  3
MXDIMSTYLE
100
AcDbAlignedDimension
 13
-304.530905
 23
211.056833
 33
0.0
 14
-375.330905
 24
211.059507
 34
0.0
100
AcDbRotatedDimension
1001
ACAD
1000
DSTYLE
1002
{
1070
     6
1000
_OPEN
1070
     7
1000
_OPEN
1070
    41
1040
3.0
1070
    42
1040
1.0
1070
    44
1040
2.0
1070
   140
1040
3.15
1070
   284
1070
     8
1070
   340
1005
10D
1070
   343
1005
105
1070
   344
1005
105
1002
}
  0
DIMENSION
  5
22D
100
AcDbEntity
  8
LY_1
390
0
  6
CONTINUOUS
 62
   230
100
AcDbDimension
  2
*D15
 10
-371.431574
 20
170.895369
 30
0.0
 11
-339.679126
 21
170.895369
 31
0.0
 70
   128
 71
     5
 72
     1
 41
0.9
 42
63.001337
  1
\A1;<>
  3
MXDIMSTYLE
100
AcDbAlignedDimension
 13
-308.430236
 23
211.058173
 33
0.0
 14
-371.431574
 24
211.058173
 34
0.0
100
AcDbRotatedDimension
1001
ACAD
1000
DSTYLE
1002
{
1070
     6
1000
_OPEN
1070
     7
1000
_OPEN
1070
    41
1040
3.0
1070
    42
1040
1.0
1070
    44
1040
2.0
1070
   140
1040
3.15
1070
   284
1070
     8
1070
   343
1005
105
1070
   344
1005
105
1002
}
  0
DIMENSION
  5
23A
100
AcDbEntity
  8
LY_1
390
0
  6
CONTINUOUS
 62
   230
100
AcDbDimension
  2
*D16
 10
-367.930905
 20
175.98849
 30
0.0
 11
-339.838286
 21
175.98849
 31
0.0
 70
   128
 71
     5
 72
     1
 41
0.9
 42
56.0
  1
\A1;<>
  3
MXDIMSTYLE
100
AcDbAlignedDimension
 13
-311.930905
 23
185.839499
 33
0.0
 14
-367.930905
 24
185.839499
 34
0.0
100
AcDbRotatedDimension
1001
ACAD
1000
DSTYLE
1002
{
1070
     6
1000
_OPEN
1070
     7
1000
_OPEN
1070
    41
1040
3.0
1070
    42
1040
1.0
1070
    44
1040
2.0
1070
   140
1040
3.15
1070
   284
1070
     8
1070
   343
1005
105
1070
   344
1005
105
1002
}
  0
LINE
  5
23B
100
AcDbEntity
  8
LY_1
390
0
  6
CONTINUOUS
 62
     7
100
AcDbLine
 10
-311.930905
 20
56.87759
 30
0.0
 11
-318.430905
 21
56.87759
 31
0.0
  0
LINE
  5
23C
100
AcDbEntity
  8
LY_1
390
0
  6
CONTINUOUS
 62
     7
100
AcDbLine
 10
-361.430905
 20
56.87759
 30
0.0
 11
-367.930905
 21
56.87759
 31
0.0
  0
LINE
  5
23D
100
AcDbEntity
  8
LY_1
390
0
  6
CONTINUOUS
 62
   254
100
AcDbLine
 10
-311.930905
 20
57.07759
 30
0.0
 11
-367.930905
 21
57.07759
 31
0.0
  0
LINE
  5
23E
100
AcDbEntity
  8
LY_1
390
0
  6
CONTINUOUS
 62
   254
100
AcDbLine
 10
-367.930905
 20
56.87759
 30
0.0
 11
-367.930905
 21
109.07759
 31
0.0
  0
LINE
  5
23F
100
AcDbEntity
  8
LY_1
390
0
  6
CONTINUOUS
 62
   255
100
AcDbLine
 10
-367.530138
 20
57.07759
 30
0.0
 11
-367.530138
 21
109.07759
 31
0.0
  0
LINE
  5
240
100
AcDbEntity
  8
LY_1
390
0
  6
CONTINUOUS
 62
   255
100
AcDbLine
 10
-367.501591
 20
56.87759
 30
0.0
 11
-367.501591
 21
57.07759
 31
0.0
  0
LINE
  5
241
100
AcDbEntity
  8
LY_1
390
0
  6
CONTINUOUS
 62
     7
100
AcDbLine
 10
-366.730905
 20
125.62759
 30
0.0
 11
-366.730905
 21
123.62759
 31
0.0
  0
LINE
  5
242
100
AcDbEntity
  8
LY_1
390
0
  6
CONTINUOUS
 62
     7
100
AcDbLine
 10
-366.230905
 20
114.12759
 30
0.0
 11
-366.230905
 21
123.62759
 31
0.0
  0
LINE
  5
243
100
AcDbEntity
  8
LY_1
390
0
  6
CONTINUOUS
 62
     7
100
AcDbLine
 10
-365.905905
 20
114.12759
 30
0.0
 11
-365.905905
 21
119.22759
 31
0.0
  0
LINE
  5
244
100
AcDbEntity
  8
LY_1
390
0
  6
CONTINUOUS
 62
     7
100
AcDbLine
 10
-365.830905
 20
117.12759
 30
0.0
 11
-365.830905
 21
118.72759
 31
0.0
  0
LINE
  5
245
100
AcDbEntity
  8
LY_1
390
0
  6
CONTINUOUS
 62
     7
100
AcDbLine
 10
-365.430905
 20
119.82759
 30
0.0
 11
-365.430905
 21
119.22759
 31
0.0
  0
LINE
  5
246
100
AcDbEntity
  8
LY_1
390
0
  6
CONTINUOUS
 62
     7
100
AcDbLine
 10
-364.580905
 20
122.97759
 30
0.0
 11
-364.580905
 21
122.326439
 31
0.0
  0
LINE
  5
247
100
AcDbEntity
  8
LY_1
390
0
  6
CONTINUOUS
 62
     7
100
AcDbLine
 10
-361.580905
 20
120.02759
 30
0.0
 11
-361.280905
 21
121.32759
 31
0.0
  0
LINE
  5
248
100
AcDbEntity
  8
LY_1
390
0
  6
CONTINUOUS
 62
   255
100
AcDbLine
 10
-361.987454
 20
57.07759
 30
0.0
 11
-361.987454
 21
56.87759
 31
0.0
  0
LINE
  5
249
100
AcDbEntity
  8
LY_1
390
0
  6
CONTINUOUS
 62
     7
100
AcDbLine
 10
-361.430905
 20
57.07759
 30
0.0
 11
-361.430905
 21
56.87759
 31
0.0
  0
LINE
  5
24A
100
AcDbEntity
  8
LY_1
390
0
  6
CONTINUOUS
 62
     7
100
AcDbLine
 10
-359.280905
 20
122.326439
 30
0.0
 11
-359.280905
 21
122.97759
 31
0.0
  0
LINE
  5
24B
100
AcDbEntity
  8
LY_1
390
0
  6
CONTINUOUS
 62
     7
100
AcDbLine
 10
-358.430905
 20
119.82759
 30
0.0
 11
-358.430905
 21
119.22759
 31
0.0
  0
LINE
  5
24C
100
AcDbEntity
  8
LY_1
390
0
  6
CONTINUOUS
 62
     7
100
AcDbLine
 10
-358.280905
 20
109.12759
 30
0.0
 11
-358.280905
 21
109.07759
 31
0.0
  0
LINE
  5
24D
100
AcDbEntity
  8
LY_1
390
0
  6
CONTINUOUS
 62
     7
100
AcDbLine
 10
-358.030905
 20
117.12759
 30
0.0
 11
-358.030905
 21
118.72759
 31
0.0
  0
LINE
  5
24E
100
AcDbEntity
  8
LY_1
390
0
  6
CONTINUOUS
 62
     7
100
AcDbLine
 10
-352.780905
 20
120.02759
 30
0.0
 11
-352.480905
 21
121.32759
 31
0.0
  0
LINE
  5
24F
100
AcDbEntity
  8
LY_1
390
0
  6
CONTINUOUS
 62
     7
100
AcDbLine
 10
-357.030905
 20
117.12759
 30
0.0
 11
-357.030905
 21
118.72759
 31
0.0
  0
LINE
  5
250
100
AcDbEntity
  8
LY_1
390
0
  6
CONTINUOUS
 62
     7
100
AcDbLine
 10
-356.780905
 20
109.12759
 30
0.0
 11
-356.780905
 21
109.07759
 31
0.0
  0
LINE
  5
251
100
AcDbEntity
  8
LY_1
390
0
  6
CONTINUOUS
 62
     7
100
AcDbLine
 10
-356.630905
 20
119.82759
 30
0.0
 11
-356.630905
 21
119.22759
 31
0.0
  0
LINE
  5
252
100
AcDbEntity
  8
LY_1
390
0
  6
CONTINUOUS
 62
     7
100
AcDbLine
 10
-355.780905
 20
122.97759
 30
0.0
 11
-355.780905
 21
122.326439
 31
0.0
  0
LINE
  5
253
100
AcDbEntity
  8
LY_1
390
0
  6
CONTINUOUS
 62
     7
100
AcDbLine
 10
-362.280905
 20
120.02759
 30
0.0
 11
-362.580905
 21
121.32759
 31
0.0
  0
LINE
  5
254
100
AcDbEntity
  8
LY_1
390
0
  6
CONTINUOUS
 62
     7
100
AcDbLine
 10
-350.480905
 20
122.326439
 30
0.0
 11
-350.480905
 21
122.97759
 31
0.0
  0
LINE
  5
255
100
AcDbEntity
  8
LY_1
390
0
  6
CONTINUOUS
 62
     7
100
AcDbLine
 10
-349.630905
 20
119.82759
 30
0.0
 11
-349.630905
 21
119.22759
 31
0.0
  0
LINE
  5
256
100
AcDbEntity
  8
LY_1
390
0
  6
CONTINUOUS
 62
     7
100
AcDbLine
 10
-349.480905
 20
109.12759
 30
0.0
 11
-349.480905
 21
109.07759
 31
0.0
  0
LINE
  5
257
100
AcDbEntity
  8
LY_1
390
0
  6
CONTINUOUS
 62
     7
100
AcDbLine
 10
-349.230905
 20
117.12759
 30
0.0
 11
-349.230905
 21
118.72759
 31
0.0
  0
LINE
  5
258
100
AcDbEntity
  8
LY_1
390
0
  6
CONTINUOUS
 62
     7
100
AcDbLine
 10
-348.230905
 20
117.12759
 30
0.0
 11
-348.230905
 21
118.72759
 31
0.0
  0
LINE
  5
259
100
AcDbEntity
  8
LY_1
390
0
  6
CONTINUOUS
 62
     7
100
AcDbLine
 10
-347.980905
 20
109.12759
 30
0.0
 11
-347.980905
 21
109.07759
 31
0.0
  0
LINE
  5
25A
100
AcDbEntity
  8
LY_1
390
0
  6
CONTINUOUS
 62
     7
100
AcDbLine
 10
-347.830905
 20
119.82759
 30
0.0
 11
-347.830905
 21
119.22759
 31
0.0
  0
LINE
  5
25B
100
AcDbEntity
  8
LY_1
390
0
  6
CONTINUOUS
 62
     7
100
AcDbLine
 10
-346.980905
 20
122.97759
 30
0.0
 11
-346.980905
 21
122.326439
 31
0.0
  0
LINE
  5
25C
100
AcDbEntity
  8
LY_1
390
0
  6
CONTINUOUS
 62
     7
100
AcDbLine
 10
-343.980905
 20
120.02759
 30
0.0
 11
-343.680905
 21
121.32759
 31
0.0
  0
LINE
  5
25D
100
AcDbEntity
  8
LY_1
390
0
  6
CONTINUOUS
 62
     7
100
AcDbLine
 10
-353.480905
 20
120.02759
 30
0.0
 11
-353.780905
 21
121.32759
 31
0.0
  0
LINE
  5
25E
100
AcDbEntity
  8
LY_1
390
0
  6
CONTINUOUS
 62
     7
100
AcDbLine
 10
-341.680905
 20
122.326439
 30
0.0
 11
-341.680905
 21
122.97759
 31
0.0
  0
LINE
  5
25F
100
AcDbEntity
  8
LY_1
390
0
  6
CONTINUOUS
 62
     7
100
AcDbLine
 10
-340.830905
 20
119.82759
 30
0.0
 11
-340.830905
 21
119.22759
 31
0.0
  0
LINE
  5
260
100
AcDbEntity
  8
LY_1
390
0
  6
CONTINUOUS
 62
     7
100
AcDbLine
 10
-340.680905
 20
109.12759
 30
0.0
 11
-340.680905
 21
109.07759
 31
0.0
  0
LINE
  5
261
100
AcDbEntity
  8
LY_1
390
0
  6
CONTINUOUS
 62
     7
100
AcDbLine
 10
-340.430905
 20
117.12759
 30
0.0
 11
-340.430905
 21
118.72759
 31
0.0
  0
LINE
  5
262
100
AcDbEntity
  8
LY_1
390
0
  6
CONTINUOUS
 62
     7
100
AcDbLine
 10
-335.180905
 20
120.02759
 30
0.0
 11
-334.880905
 21
121.32759
 31
0.0
  0
LINE
  5
263
100
AcDbEntity
  8
LY_1
390
0
  6
CONTINUOUS
 62
     7
100
AcDbLine
 10
-339.430905
 20
117.12759
 30
0.0
 11
-339.430905
 21
118.72759
 31
0.0
  0
LINE
  5
264
100
AcDbEntity
  8
LY_1
390
0
  6
CONTINUOUS
 62
     7
100
AcDbLine
 10
-339.180905
 20
109.12759
 30
0.0
 11
-339.180905
 21
109.07759
 31
0.0
  0
LINE
  5
265
100
AcDbEntity
  8
LY_1
390
0
  6
CONTINUOUS
 62
     7
100
AcDbLine
 10
-339.030905
 20
119.82759
 30
0.0
 11
-339.030905
 21
119.22759
 31
0.0
  0
LINE
  5
266
100
AcDbEntity
  8
LY_1
390
0
  6
CONTINUOUS
 62
     7
100
AcDbLine
 10
-338.180905
 20
122.97759
 30
0.0
 11
-338.180905
 21
122.326439
 31
0.0
  0
LINE
  5
267
100
AcDbEntity
  8
LY_1
390
0
  6
CONTINUOUS
 62
     7
100
AcDbLine
 10
-344.680905
 20
120.02759
 30
0.0
 11
-344.980905
 21
121.32759
 31
0.0
  0
LINE
  5
268
100
AcDbEntity
  8
LY_1
390
0
  6
CONTINUOUS
 62
     7
100
AcDbLine
 10
-332.880905
 20
122.326439
 30
0.0
 11
-332.880905
 21
122.97759
 31
0.0
  0
LINE
  5
269
100
AcDbEntity
  8
LY_1
390
0
  6
CONTINUOUS
 62
     7
100
AcDbLine
 10
-332.030905
 20
119.82759
 30
0.0
 11
-332.030905
 21
119.22759
 31
0.0
  0
LINE
  5
26A
100
AcDbEntity
  8
LY_1
390
0
  6
CONTINUOUS
 62
     7
100
AcDbLine
 10
-331.880905
 20
109.12759
 30
0.0
 11
-331.880905
 21
109.07759
 31
0.0
  0
LINE
  5
26B
100
AcDbEntity
  8
LY_1
390
0
  6
CONTINUOUS
 62
     7
100
AcDbLine
 10
-331.630905
 20
117.12759
 30
0.0
 11
-331.630905
 21
118.72759
 31
0.0
  0
LINE
  5
26C
100
AcDbEntity
  8
LY_1
390
0
  6
CONTINUOUS
 62
     7
100
AcDbLine
 10
-330.630905
 20
117.12759
 30
0.0
 11
-330.630905
 21
118.72759
 31
0.0
  0
LINE
  5
26D
100
AcDbEntity
  8
LY_1
390
0
  6
CONTINUOUS
 62
     7
100
AcDbLine
 10
-330.380905
 20
109.12759
 30
0.0
 11
-330.380905
 21
109.07759
 31
0.0
  0
LINE
  5
26E
100
AcDbEntity
  8
LY_1
390
0
  6
CONTINUOUS
 62
     7
100
AcDbLine
 10
-330.230905
 20
119.82759
 30
0.0
 11
-330.230905
 21
119.22759
 31
0.0
  0
LINE
  5
26F
100
AcDbEntity
  8
LY_1
390
0
  6
CONTINUOUS
 62
     7
100
AcDbLine
 10
-329.380905
 20
122.97759
 30
0.0
 11
-329.380905
 21
122.326439
 31
0.0
  0
LINE
  5
270
100
AcDbEntity
  8
LY_1
390
0
  6
CONTINUOUS
 62
     7
100
AcDbLine
 10
-326.380905
 20
120.02759
 30
0.0
 11
-326.080905
 21
121.32759
 31
0.0
  0
LINE
  5
271
100
AcDbEntity
  8
LY_1
390
0
  6
CONTINUOUS
 62
     7
100
AcDbLine
 10
-335.880905
 20
120.02759
 30
0.0
 11
-336.180905
 21
121.32759
 31
0.0
  0
LINE
  5
272
100
AcDbEntity
  8
LY_1
390
0
  6
CONTINUOUS
 62
     7
100
AcDbLine
 10
-311.930905
 20
109.07759
 30
0.0
 11
-367.930905
 21
109.07759
 31
0.0
  0
LINE
  5
273
100
AcDbEntity
  8
LY_1
390
0
  6
CONTINUOUS
 62
     7
100
AcDbLine
 10
-324.080905
 20
122.326439
 30
0.0
 11
-324.080905
 21
122.97759
 31
0.0
  0
LINE
  5
274
100
AcDbEntity
  8
LY_1
390
0
  6
CONTINUOUS
 62
     7
100
AcDbLine
 10
-323.230905
 20
119.82759
 30
0.0
 11
-323.230905
 21
119.22759
 31
0.0
  0
LINE
  5
275
100
AcDbEntity
  8
LY_1
390
0
  6
CONTINUOUS
 62
     7
100
AcDbLine
 10
-323.080905
 20
109.12759
 30
0.0
 11
-323.080905
 21
109.07759
 31
0.0
  0
LINE
  5
276
100
AcDbEntity
  8
LY_1
390
0
  6
CONTINUOUS
 62
     7
100
AcDbLine
 10
-322.830905
 20
117.12759
 30
0.0
 11
-322.830905
 21
118.72759
 31
0.0
  0
LINE
  5
277
100
AcDbEntity
  8
LY_1
390
0
  6
CONTINUOUS
 62
     7
100
AcDbLine
 10
-321.830905
 20
117.12759
 30
0.0
 11
-321.830905
 21
118.72759
 31
0.0
  0
LINE
  5
278
100
AcDbEntity
  8
LY_1
390
0
  6
CONTINUOUS
 62
     7
100
AcDbLine
 10
-317.580905
 20
120.02759
 30
0.0
 11
-317.280905
 21
121.32759
 31
0.0
  0
LINE
  5
279
100
AcDbEntity
  8
LY_1
390
0
  6
CONTINUOUS
 62
     7
100
AcDbLine
 10
-366.230905
 20
114.12759
 30
0.0
 11
-313.630905
 21
114.12759
 31
0.0
  0
LINE
  5
27A
100
AcDbEntity
  8
LY_1
390
0
  6
CONTINUOUS
 62
     7
100
AcDbLine
 10
-327.080905
 20
120.02759
 30
0.0
 11
-327.380905
 21
121.32759
 31
0.0
  0
LINE
  5
27B
100
AcDbEntity
  8
LY_1
390
0
  6
CONTINUOUS
 62
     7
100
AcDbLine
 10
-321.580905
 20
109.12759
 30
0.0
 11
-321.580905
 21
109.07759
 31
0.0
  0
LINE
  5
27C
100
AcDbEntity
  8
LY_1
390
0
  6
CONTINUOUS
 62
     7
100
AcDbLine
 10
-321.430905
 20
119.82759
 30
0.0
 11
-321.430905
 21
119.22759
 31
0.0
  0
LINE
  5
27D
100
AcDbEntity
  8
LY_1
390
0
  6
CONTINUOUS
 62
     7
100
AcDbLine
 10
-320.580905
 20
122.97759
 30
0.0
 11
-320.580905
 21
122.326439
 31
0.0
  0
LINE
  5
27E
100
AcDbEntity
  8
LY_1
390
0
  6
CONTINUOUS
 62
     7
100
AcDbLine
 10
-318.430905
 20
56.87759
 30
0.0
 11
-318.430905
 21
57.07759
 31
0.0
  0
LINE
  5
27F
100
AcDbEntity
  8
LY_1
390
0
  6
CONTINUOUS
 62
   255
100
AcDbLine
 10
-365.905905
 20
116.12759
 30
0.0
 11
-357.955905
 21
116.12759
 31
0.0
  0
LINE
  5
280
100
AcDbEntity
  8
LY_1
390
0
  6
CONTINUOUS
 62
   255
100
AcDbLine
 10
-357.105905
 20
116.12759
 30
0.0
 11
-349.155905
 21
116.12759
 31
0.0
  0
LINE
  5
281
100
AcDbEntity
  8
LY_1
390
0
  6
CONTINUOUS
 62
   255
100
AcDbLine
 10
-348.305905
 20
116.12759
 30
0.0
 11
-340.355905
 21
116.12759
 31
0.0
  0
LINE
  5
282
100
AcDbEntity
  8
LY_1
390
0
  6
CONTINUOUS
 62
   255
100
AcDbLine
 10
-339.505905
 20
116.12759
 30
0.0
 11
-331.555905
 21
116.12759
 31
0.0
  0
LINE
  5
283
100
AcDbEntity
  8
LY_1
390
0
  6
CONTINUOUS
 62
   255
100
AcDbLine
 10
-330.705905
 20
116.12759
 30
0.0
 11
-322.755905
 21
116.12759
 31
0.0
  0
LINE
  5
284
100
AcDbEntity
  8
LY_1
390
0
  6
CONTINUOUS
 62
   255
100
AcDbLine
 10
-321.905905
 20
116.12759
 30
0.0
 11
-313.955905
 21
116.12759
 31
0.0
  0
LINE
  5
285
100
AcDbEntity
  8
LY_1
390
0
  6
CONTINUOUS
 62
     7
100
AcDbLine
 10
-365.905905
 20
117.12759
 30
0.0
 11
-357.955905
 21
117.12759
 31
0.0
  0
LINE
  5
286
100
AcDbEntity
  8
LY_1
390
0
  6
CONTINUOUS
 62
     7
100
AcDbLine
 10
-357.105905
 20
117.12759
 30
0.0
 11
-349.155905
 21
117.12759
 31
0.0
  0
LINE
  5
287
100
AcDbEntity
  8
LY_1
390
0
  6
CONTINUOUS
 62
     7
100
AcDbLine
 10
-348.305905
 20
117.12759
 30
0.0
 11
-340.355905
 21
117.12759
 31
0.0
  0
LINE
  5
288
100
AcDbEntity
  8
LY_1
390
0
  6
CONTINUOUS
 62
     7
100
AcDbLine
 10
-339.505905
 20
117.12759
 30
0.0
 11
-331.555905
 21
117.12759
 31
0.0
  0
LINE
  5
289
100
AcDbEntity
  8
LY_1
390
0
  6
CONTINUOUS
 62
     7
100
AcDbLine
 10
-330.705905
 20
117.12759
 30
0.0
 11
-322.755905
 21
117.12759
 31
0.0
  0
LINE
  5
28A
100
AcDbEntity
  8
LY_1
390
0
  6
CONTINUOUS
 62
     7
100
AcDbLine
 10
-321.905905
 20
117.12759
 30
0.0
 11
-313.955905
 21
117.12759
 31
0.0
  0
LINE
  5
28B
100
AcDbEntity
  8
LY_1
390
0
  6
CONTINUOUS
 62
   255
100
AcDbLine
 10
-314.030905
 20
117.190836
 30
0.0
 11
-314.053288
 21
117.190836
 31
0.0
  0
LINE
  5
28C
100
AcDbEntity
  8
LY_1
390
0
  6
CONTINUOUS
 62
   255
100
AcDbLine
 10
-340.430905
 20
117.190836
 30
0.0
 11
-340.453288
 21
117.190836
 31
0.0
  0
LINE
  5
28D
100
AcDbEntity
  8
LY_1
390
0
  6
CONTINUOUS
 62
   255
100
AcDbLine
 10
-349.230905
 20
117.190836
 30
0.0
 11
-349.253288
 21
117.190836
 31
0.0
  0
LINE
  5
28E
100
AcDbEntity
  8
LY_1
390
0
  6
CONTINUOUS
 62
   255
100
AcDbLine
 10
-365.808521
 20
117.190836
 30
0.0
 11
-365.830905
 21
117.190836
 31
0.0
  0
LINE
  5
28F
100
AcDbEntity
  8
LY_1
390
0
  6
CONTINUOUS
 62
   255
100
AcDbLine
 10
-317.874356
 20
56.87759
 30
0.0
 11
-317.874356
 21
57.07759
 31
0.0
  0
LINE
  5
290
100
AcDbEntity
  8
LY_1
390
0
  6
CONTINUOUS
 62
     7
100
AcDbLine
 10
-315.280905
 20
122.326439
 30
0.0
 11
-315.280905
 21
122.97759
 31
0.0
  0
LINE
  5
291
100
AcDbEntity
  8
LY_1
390
0
  6
CONTINUOUS
 62
     7
100
AcDbLine
 10
-365.830905
 20
118.72759
 30
0.0
 11
-358.030905
 21
118.72759
 31
0.0
  0
LINE
  5
292
100
AcDbEntity
  8
LY_1
390
0
  6
CONTINUOUS
 62
     7
100
AcDbLine
 10
-357.030905
 20
118.72759
 30
0.0
 11
-349.230905
 21
118.72759
 31
0.0
  0
LINE
  5
293
100
AcDbEntity
  8
LY_1
390
0
  6
CONTINUOUS
 62
     7
100
AcDbLine
 10
-348.230905
 20
118.72759
 30
0.0
 11
-340.430905
 21
118.72759
 31
0.0
  0
LINE
  5
294
100
AcDbEntity
  8
LY_1
390
0
  6
CONTINUOUS
 62
     7
100
AcDbLine
 10
-339.430905
 20
118.72759
 30
0.0
 11
-331.630905
 21
118.72759
 31
0.0
  0
LINE
  5
295
100
AcDbEntity
  8
LY_1
390
0
  6
CONTINUOUS
 62
     7
100
AcDbLine
 10
-330.630905
 20
118.72759
 30
0.0
 11
-322.830905
 21
118.72759
 31
0.0
  0
LINE
  5
296
100
AcDbEntity
  8
LY_1
390
0
  6
CONTINUOUS
 62
     7
100
AcDbLine
 10
-321.830905
 20
118.72759
 30
0.0
 11
-314.030905
 21
118.72759
 31
0.0
  0
LINE
  5
297
100
AcDbEntity
  8
LY_1
390
0
  6
CONTINUOUS
 62
     7
100
AcDbLine
 10
-313.630905
 20
119.22759
 30
0.0
 11
-313.955905
 21
119.22759
 31
0.0
  0
LINE
  5
298
100
AcDbEntity
  8
LY_1
390
0
  6
CONTINUOUS
 62
   255
100
AcDbLine
 10
-314.430905
 20
119.22759
 30
0.0
 11
-321.430905
 21
119.22759
 31
0.0
  0
LINE
  5
299
100
AcDbEntity
  8
LY_1
390
0
  6
CONTINUOUS
 62
   255
100
AcDbLine
 10
-323.230905
 20
119.22759
 30
0.0
 11
-330.230905
 21
119.22759
 31
0.0
  0
LINE
  5
29A
100
AcDbEntity
  8
LY_1
390
0
  6
CONTINUOUS
 62
   255
100
AcDbLine
 10
-332.030905
 20
119.22759
 30
0.0
 11
-339.030905
 21
119.22759
 31
0.0
  0
LINE
  5
29B
100
AcDbEntity
  8
LY_1
390
0
  6
CONTINUOUS
 62
   255
100
AcDbLine
 10
-340.830905
 20
119.22759
 30
0.0
 11
-347.830905
 21
119.22759
 31
0.0
  0
LINE
  5
29C
100
AcDbEntity
  8
LY_1
390
0
  6
CONTINUOUS
 62
   255
100
AcDbLine
 10
-349.630905
 20
119.22759
 30
0.0
 11
-356.630905
 21
119.22759
 31
0.0
  0
LINE
  5
29D
100
AcDbEntity
  8
LY_1
390
0
  6
CONTINUOUS
 62
   255
100
AcDbLine
 10
-358.430905
 20
119.22759
 30
0.0
 11
-365.430905
 21
119.22759
 31
0.0
  0
LINE
  5
29E
100
AcDbEntity
  8
LY_1
390
0
  6
CONTINUOUS
 62
     7
100
AcDbLine
 10
-365.905905
 20
119.22759
 30
0.0
 11
-366.230905
 21
119.22759
 31
0.0
  0
LINE
  5
29F
100
AcDbEntity
  8
LY_1
390
0
  6
CONTINUOUS
 62
   255
100
AcDbLine
 10
-314.430905
 20
119.82759
 30
0.0
 11
-321.430905
 21
119.82759
 31
0.0
  0
LINE
  5
2A0
100
AcDbEntity
  8
LY_1
390
0
  6
CONTINUOUS
 62
   255
100
AcDbLine
 10
-323.230905
 20
119.82759
 30
0.0
 11
-330.230905
 21
119.82759
 31
0.0
  0
LINE
  5
2A1
100
AcDbEntity
  8
LY_1
390
0
  6
CONTINUOUS
 62
   255
100
AcDbLine
 10
-332.030905
 20
119.82759
 30
0.0
 11
-339.030905
 21
119.82759
 31
0.0
  0
LINE
  5
2A2
100
AcDbEntity
  8
LY_1
390
0
  6
CONTINUOUS
 62
   255
100
AcDbLine
 10
-340.830905
 20
119.82759
 30
0.0
 11
-347.830905
 21
119.82759
 31
0.0
  0
LINE
  5
2A3
100
AcDbEntity
  8
LY_1
390
0
  6
CONTINUOUS
 62
   255
100
AcDbLine
 10
-349.630905
 20
119.82759
 30
0.0
 11
-356.630905
 21
119.82759
 31
0.0
  0
LINE
  5
2A4
100
AcDbEntity
  8
LY_1
390
0
  6
CONTINUOUS
 62
   255
100
AcDbLine
 10
-358.430905
 20
119.82759
 30
0.0
 11
-365.430905
 21
119.82759
 31
0.0
  0
LINE
  5
2A5
100
AcDbEntity
  8
LY_1
390
0
  6
CONTINUOUS
 62
     7
100
AcDbLine
 10
-362.280905
 20
120.02759
 30
0.0
 11
-361.580905
 21
120.02759
 31
0.0
  0
LINE
  5
2A6
100
AcDbEntity
  8
LY_1
390
0
  6
CONTINUOUS
 62
     7
100
AcDbLine
 10
-353.480905
 20
120.02759
 30
0.0
 11
-352.780905
 21
120.02759
 31
0.0
  0
LINE
  5
2A7
100
AcDbEntity
  8
LY_1
390
0
  6
CONTINUOUS
 62
     7
100
AcDbLine
 10
-344.680905
 20
120.02759
 30
0.0
 11
-343.980905
 21
120.02759
 31
0.0
  0
LINE
  5
2A8
100
AcDbEntity
  8
LY_1
390
0
  6
CONTINUOUS
 62
     7
100
AcDbLine
 10
-335.880905
 20
120.02759
 30
0.0
 11
-335.180905
 21
120.02759
 31
0.0
  0
LINE
  5
2A9
100
AcDbEntity
  8
LY_1
390
0
  6
CONTINUOUS
 62
     7
100
AcDbLine
 10
-327.080905
 20
120.02759
 30
0.0
 11
-326.380905
 21
120.02759
 31
0.0
  0
LINE
  5
2AA
100
AcDbEntity
  8
LY_1
390
0
  6
CONTINUOUS
 62
     7
100
AcDbLine
 10
-318.280905
 20
120.02759
 30
0.0
 11
-317.580905
 21
120.02759
 31
0.0
  0
LINE
  5
2AB
100
AcDbEntity
  8
LY_1
390
0
  6
CONTINUOUS
 62
     7
100
AcDbLine
 10
-318.580905
 20
121.32759
 30
0.0
 11
-319.930905
 21
121.32759
 31
0.0
  0
LINE
  5
2AC
100
AcDbEntity
  8
LY_1
390
0
  6
CONTINUOUS
 62
     7
100
AcDbLine
 10
-327.380905
 20
121.32759
 30
0.0
 11
-328.730905
 21
121.32759
 31
0.0
  0
LINE
  5
2AD
100
AcDbEntity
  8
LY_1
390
0
  6
CONTINUOUS
 62
     7
100
AcDbLine
 10
-336.180905
 20
121.32759
 30
0.0
 11
-337.530905
 21
121.32759
 31
0.0
  0
LINE
  5
2AE
100
AcDbEntity
  8
LY_1
390
0
  6
CONTINUOUS
 62
     7
100
AcDbLine
 10
-344.980905
 20
121.32759
 30
0.0
 11
-346.330905
 21
121.32759
 31
0.0
  0
LINE
  5
2AF
100
AcDbEntity
  8
LY_1
390
0
  6
CONTINUOUS
 62
     7
100
AcDbLine
 10
-353.780905
 20
121.32759
 30
0.0
 11
-355.130905
 21
121.32759
 31
0.0
  0
LINE
  5
2B0
100
AcDbEntity
  8
LY_1
390
0
  6
CONTINUOUS
 62
     7
100
AcDbLine
 10
-362.580905
 20
121.32759
 30
0.0
 11
-363.930905
 21
121.32759
 31
0.0
  0
LINE
  5
2B1
100
AcDbEntity
  8
LY_1
390
0
  6
CONTINUOUS
 62
     7
100
AcDbLine
 10
-361.280905
 20
121.32759
 30
0.0
 11
-359.930905
 21
121.32759
 31
0.0
  0
LINE
  5
2B2
100
AcDbEntity
  8
LY_1
390
0
  6
CONTINUOUS
 62
     7
100
AcDbLine
 10
-352.480905
 20
121.32759
 30
0.0
 11
-351.130905
 21
121.32759
 31
0.0
  0
LINE
  5
2B3
100
AcDbEntity
  8
LY_1
390
0
  6
CONTINUOUS
 62
     7
100
AcDbLine
 10
-343.680905
 20
121.32759
 30
0.0
 11
-342.330905
 21
121.32759
 31
0.0
  0
LINE
  5
2B4
100
AcDbEntity
  8
LY_1
390
0
  6
CONTINUOUS
 62
     7
100
AcDbLine
 10
-334.880905
 20
121.32759
 30
0.0
 11
-333.530905
 21
121.32759
 31
0.0
  0
LINE
  5
2B5
100
AcDbEntity
  8
LY_1
390
0
  6
CONTINUOUS
 62
     7
100
AcDbLine
 10
-326.080905
 20
121.32759
 30
0.0
 11
-324.730905
 21
121.32759
 31
0.0
  0
LINE
  5
2B6
100
AcDbEntity
  8
LY_1
390
0
  6
CONTINUOUS
 62
     7
100
AcDbLine
 10
-317.280905
 20
121.32759
 30
0.0
 11
-315.930905
 21
121.32759
 31
0.0
  0
LINE
  5
2B7
100
AcDbEntity
  8
LY_1
390
0
  6
CONTINUOUS
 62
     7
100
AcDbLine
 10
-314.430905
 20
119.82759
 30
0.0
 11
-314.430905
 21
119.22759
 31
0.0
  0
LINE
  5
2B8
100
AcDbEntity
  8
LY_1
390
0
  6
CONTINUOUS
 62
     7
100
AcDbLine
 10
-314.030905
 20
117.12759
 30
0.0
 11
-314.030905
 21
118.72759
 31
0.0
  0
LINE
  5
2B9
100
AcDbEntity
  8
LY_1
390
0
  6
CONTINUOUS
 62
     7
100
AcDbLine
 10
-313.955905
 20
114.12759
 30
0.0
 11
-313.955905
 21
119.22759
 31
0.0
  0
LINE
  5
2BA
100
AcDbEntity
  8
LY_1
390
0
  6
CONTINUOUS
 62
     7
100
AcDbLine
 10
-313.730905
 20
123.62759
 30
0.0
 11
-313.730905
 21
119.22759
 31
0.0
  0
LINE
  5
2BB
100
AcDbEntity
  8
LY_1
390
0
  6
CONTINUOUS
 62
     7
100
AcDbLine
 10
-313.630905
 20
114.12759
 30
0.0
 11
-313.630905
 21
123.62759
 31
0.0
  0
LINE
  5
2BC
100
AcDbEntity
  8
LY_1
390
0
  6
CONTINUOUS
 62
     7
100
AcDbLine
 10
-313.130905
 20
125.62759
 30
0.0
 11
-313.130905
 21
123.62759
 31
0.0
  0
LINE
  5
2BD
100
AcDbEntity
  8
LY_1
390
0
  6
CONTINUOUS
 62
   255
100
AcDbLine
 10
-312.360218
 20
57.07759
 30
0.0
 11
-312.360218
 21
56.87759
 31
0.0
  0
LINE
  5
2BE
100
AcDbEntity
  8
LY_1
390
0
  6
CONTINUOUS
 62
   255
100
AcDbLine
 10
-312.331672
 20
57.07759
 30
0.0
 11
-312.331672
 21
109.07759
 31
0.0
  0
LINE
  5
2BF
100
AcDbEntity
  8
LY_1
390
0
  6
CONTINUOUS
 62
   254
100
AcDbLine
 10
-311.930905
 20
56.87759
 30
0.0
 11
-311.930905
 21
109.07759
 31
0.0
  0
LINE
  5
2C0
100
AcDbEntity
  8
LY_1
390
0
  6
CONTINUOUS
 62
     7
100
AcDbLine
 10
-314.030905
 20
122.12759
 30
0.0
 11
-314.530905
 21
122.12759
 31
0.0
  0
LINE
  5
2C1
100
AcDbEntity
  8
LY_1
390
0
  6
CONTINUOUS
 62
     7
100
AcDbLine
 10
-321.330905
 20
122.12759
 30
0.0
 11
-321.830905
 21
122.12759
 31
0.0
  0
LINE
  5
2C2
100
AcDbEntity
  8
LY_1
390
0
  6
CONTINUOUS
 62
     7
100
AcDbLine
 10
-322.830905
 20
122.12759
 30
0.0
 11
-323.330905
 21
122.12759
 31
0.0
  0
LINE
  5
2C3
100
AcDbEntity
  8
LY_1
390
0
  6
CONTINUOUS
 62
     7
100
AcDbLine
 10
-330.130905
 20
122.12759
 30
0.0
 11
-330.630905
 21
122.12759
 31
0.0
  0
LINE
  5
2C4
100
AcDbEntity
  8
LY_1
390
0
  6
CONTINUOUS
 62
     7
100
AcDbLine
 10
-331.630905
 20
122.12759
 30
0.0
 11
-332.130905
 21
122.12759
 31
0.0
  0
LINE
  5
2C5
100
AcDbEntity
  8
LY_1
390
0
  6
CONTINUOUS
 62
     7
100
AcDbLine
 10
-338.930905
 20
122.12759
 30
0.0
 11
-339.430905
 21
122.12759
 31
0.0
  0
LINE
  5
2C6
100
AcDbEntity
  8
LY_1
390
0
  6
CONTINUOUS
 62
     7
100
AcDbLine
 10
-340.430905
 20
122.12759
 30
0.0
 11
-340.930905
 21
122.12759
 31
0.0
  0
LINE
  5
2C7
100
AcDbEntity
  8
LY_1
390
0
  6
CONTINUOUS
 62
     7
100
AcDbLine
 10
-347.730905
 20
122.12759
 30
0.0
 11
-348.230905
 21
122.12759
 31
0.0
  0
LINE
  5
2C8
100
AcDbEntity
  8
LY_1
390
0
  6
CONTINUOUS
 62
     7
100
AcDbLine
 10
-349.230905
 20
122.12759
 30
0.0
 11
-349.730905
 21
122.12759
 31
0.0
  0
LINE
  5
2C9
100
AcDbEntity
  8
LY_1
390
0
  6
CONTINUOUS
 62
     7
100
AcDbLine
 10
-356.530905
 20
122.12759
 30
0.0
 11
-357.030905
 21
122.12759
 31
0.0
  0
LINE
  5
2CA
100
AcDbEntity
  8
LY_1
390
0
  6
CONTINUOUS
 62
     7
100
AcDbLine
 10
-358.030905
 20
122.12759
 30
0.0
 11
-358.530905
 21
122.12759
 31
0.0
  0
LINE
  5
2CB
100
AcDbEntity
  8
LY_1
390
0
  6
CONTINUOUS
 62
     7
100
AcDbLine
 10
-365.330905
 20
122.12759
 30
0.0
 11
-365.830905
 21
122.12759
 31
0.0
  0
LINE
  5
2CC
100
AcDbEntity
  8
LY_1
390
0
  6
CONTINUOUS
 62
     7
100
AcDbLine
 10
-367.85603
 20
123.37759
 30
0.0
 11
-366.230905
 21
123.37759
 31
0.0
  0
LINE
  5
2CD
100
AcDbEntity
  8
LY_1
390
0
  6
CONTINUOUS
 62
     7
100
AcDbLine
 10
-313.630905
 20
123.37759
 30
0.0
 11
-312.00578
 21
123.37759
 31
0.0
  0
LINE
  5
2CE
100
AcDbEntity
  8
LY_1
390
0
  6
CONTINUOUS
 62
     7
100
AcDbLine
 10
-365.830905
 20
123.62759
 30
0.0
 11
-364.499962
 21
123.627547
 31
0.0
  0
LINE
  5
2CF
100
AcDbEntity
  8
LY_1
390
0
  6
CONTINUOUS
 62
     7
100
AcDbLine
 10
-321.830905
 20
123.62759
 30
0.0
 11
-320.499943
 21
123.627622
 31
0.0
  0
LINE
  5
2D0
100
AcDbEntity
  8
LY_1
390
0
  6
CONTINUOUS
 62
     7
100
AcDbLine
 10
-357.030905
 20
123.62759
 30
0.0
 11
-355.699957
 21
123.62757
 31
0.0
  0
LINE
  5
2D1
100
AcDbEntity
  8
LY_1
390
0
  6
CONTINUOUS
 62
     7
100
AcDbLine
 10
-359.36186
 20
123.627598
 30
0.0
 11
-358.030905
 21
123.62759
 31
0.0
  0
LINE
  5
2D2
100
AcDbEntity
  8
LY_1
390
0
  6
CONTINUOUS
 62
     7
100
AcDbLine
 10
-348.230905
 20
123.62759
 30
0.0
 11
-346.899954
 21
123.627578
 31
0.0
  0
LINE
  5
2D3
100
AcDbEntity
  8
LY_1
390
0
  6
CONTINUOUS
 62
     7
100
AcDbLine
 10
-330.630905
 20
123.62759
 30
0.0
 11
-329.29995
 21
123.627595
 31
0.0
  0
LINE
  5
2D4
100
AcDbEntity
  8
LY_1
390
0
  6
CONTINUOUS
 62
     7
100
AcDbLine
 10
-350.561859
 20
123.627594
 30
0.0
 11
-349.230905
 21
123.62759
 31
0.0
  0
LINE
  5
2D5
100
AcDbEntity
  8
LY_1
390
0
  6
CONTINUOUS
 62
     7
100
AcDbLine
 10
-324.161858
 20
123.62759
 30
0.0
 11
-322.830905
 21
123.62759
 31
0.0
  0
LINE
  5
2D6
100
AcDbEntity
  8
LY_1
390
0
  6
CONTINUOUS
 62
     7
100
AcDbLine
 10
-341.761859
 20
123.627592
 30
0.0
 11
-340.430905
 21
123.62759
 31
0.0
  0
LINE
  5
2D7
100
AcDbEntity
  8
LY_1
390
0
  6
CONTINUOUS
 62
     7
100
AcDbLine
 10
-365.830905
 20
123.62759
 30
0.0
 11
-366.730905
 21
123.62759
 31
0.0
  0
LINE
  5
2D8
100
AcDbEntity
  8
LY_1
390
0
  6
CONTINUOUS
 62
     7
100
AcDbLine
 10
-339.430905
 20
123.62759
 30
0.0
 11
-338.099952
 21
123.627586
 31
0.0
  0
LINE
  5
2D9
100
AcDbEntity
  8
LY_1
390
0
  6
CONTINUOUS
 62
     7
100
AcDbLine
 10
-315.361857
 20
123.627585
 30
0.0
 11
-313.130905
 21
123.62759
 31
0.0
  0
LINE
  5
2DA
100
AcDbEntity
  8
LY_1
390
0
  6
CONTINUOUS
 62
     7
100
AcDbLine
 10
-332.961859
 20
123.627591
 30
0.0
 11
-331.630905
 21
123.62759
 31
0.0
  0
LINE
  5
2DB
100
AcDbEntity
  8
LY_1
390
0
  6
CONTINUOUS
 62
     7
100
AcDbLine
 10
-318.280905
 20
120.02759
 30
0.0
 11
-318.580905
 21
121.32759
 31
0.0
  0
LINE
  5
2DC
100
AcDbEntity
  8
LY_1
390
0
  6
CONTINUOUS
 62
     7
100
AcDbLine
 10
-327.766423
 20
125.40759
 30
0.0
 11
-325.687936
 21
125.40759
 31
0.0
  0
LINE
  5
2DD
100
AcDbEntity
  8
LY_1
390
0
  6
CONTINUOUS
 62
     7
100
AcDbLine
 10
-365.830905
 20
125.62759
 30
0.0
 11
-366.730905
 21
125.62759
 31
0.0
  0
LINE
  5
2DE
100
AcDbEntity
  8
LY_1
390
0
  6
CONTINUOUS
 62
     7
100
AcDbLine
 10
-314.030905
 20
125.62759
 30
0.0
 11
-313.130905
 21
125.62759
 31
0.0
  0
ARC
  5
2DF
100
AcDbEntity
  8
LY_1
390
0
  6
CONTINUOUS
 62
     7
100
AcDbCircle
 10
-363.930905
 20
119.82759
 30
0.0
 40
1.5
100
AcDbArc
 50
90.0
 51
180.0
  0
ARC
  5
2E0
100
AcDbEntity
  8
LY_1
390
0
  6
CONTINUOUS
 62
     7
100
AcDbCircle
 10
-364.930905
 20
119.22759
 30
0.0
 40
0.5
100
AcDbArc
 50
180.0
 51
270.0
  0
ARC
  5
2E1
100
AcDbEntity
  8
LY_1
390
0
  6
CONTINUOUS
 62
     7
100
AcDbCircle
 10
-361.930905
 20
110.81759
 30
0.0
 40
11.81
100
AcDbArc
 50
73.268228
 51
77.033218
  0
ARC
  5
2E2
100
AcDbEntity
  8
LY_1
390
0
  6
CONTINUOUS
 62
     7
100
AcDbCircle
 10
-361.930905
 20
110.81759
 30
0.0
 40
11.81
100
AcDbArc
 50
102.966782
 51
106.731772
  0
ARC
  5
2E3
100
AcDbEntity
  8
LY_1
390
0
  6
CONTINUOUS
 62
     7
100
AcDbCircle
 10
-359.930905
 20
119.82759
 30
0.0
 40
1.5
100
AcDbArc
 50
0.0
 51
90.0
  0
ARC
  5
2E4
100
AcDbEntity
  8
LY_1
390
0
  6
CONTINUOUS
 62
     7
100
AcDbCircle
 10
-361.930905
 20
122.97759
 30
0.0
 40
2.65
100
AcDbArc
 50
0.0
 51
180.0
  0
ARC
  5
2E5
100
AcDbEntity
  8
LY_1
390
0
  6
CONTINUOUS
 62
     7
100
AcDbCircle
 10
-355.130905
 20
119.82759
 30
0.0
 40
1.5
100
AcDbArc
 50
90.0
 51
180.0
  0
ARC
  5
2E6
100
AcDbEntity
  8
LY_1
390
0
  6
CONTINUOUS
 62
     7
100
AcDbCircle
 10
-358.930905
 20
119.22759
 30
0.0
 40
0.5
100
AcDbArc
 50
270.0
 51
0.0
  0
ARC
  5
2E7
100
AcDbEntity
  8
LY_1
390
0
  6
CONTINUOUS
 62
     7
100
AcDbCircle
 10
-356.130905
 20
119.22759
 30
0.0
 40
0.5
100
AcDbArc
 50
180.0
 51
270.0
  0
ARC
  5
2E8
100
AcDbEntity
  8
LY_1
390
0
  6
CONTINUOUS
 62
     7
100
AcDbCircle
 10
-353.130905
 20
110.81759
 30
0.0
 40
11.81
100
AcDbArc
 50
73.268228
 51
77.033218
  0
ARC
  5
2E9
100
AcDbEntity
  8
LY_1
390
0
  6
CONTINUOUS
 62
     7
100
AcDbCircle
 10
-353.130905
 20
110.81759
 30
0.0
 40
11.81
100
AcDbArc
 50
102.966782
 51
106.731772
  0
ARC
  5
2EA
100
AcDbEntity
  8
LY_1
390
0
  6
CONTINUOUS
 62
     7
100
AcDbCircle
 10
-353.130905
 20
122.97759
 30
0.0
 40
2.65
100
AcDbArc
 50
0.0
 51
180.0
  0
ARC
  5
2EB
100
AcDbEntity
  8
LY_1
390
0
  6
CONTINUOUS
 62
     7
100
AcDbCircle
 10
-351.130905
 20
119.82759
 30
0.0
 40
1.5
100
AcDbArc
 50
0.0
 51
90.0
  0
ARC
  5
2EC
100
AcDbEntity
  8
LY_1
390
0
  6
CONTINUOUS
 62
     7
100
AcDbCircle
 10
-350.130905
 20
119.22759
 30
0.0
 40
0.5
100
AcDbArc
 50
270.0
 51
0.0
  0
ARC
  5
2ED
100
AcDbEntity
  8
LY_1
390
0
  6
CONTINUOUS
 62
     7
100
AcDbCircle
 10
-344.330905
 20
110.81759
 30
0.0
 40
11.81
100
AcDbArc
 50
73.268228
 51
77.033218
  0
ARC
  5
2EE
100
AcDbEntity
  8
LY_1
390
0
  6
CONTINUOUS
 62
     7
100
AcDbCircle
 10
-344.330905
 20
110.81759
 30
0.0
 40
11.81
100
AcDbArc
 50
102.966782
 51
106.731772
  0
ARC
  5
2EF
100
AcDbEntity
  8
LY_1
390
0
  6
CONTINUOUS
 62
     7
100
AcDbCircle
 10
-346.330905
 20
119.82759
 30
0.0
 40
1.5
100
AcDbArc
 50
90.0
 51
180.0
  0
ARC
  5
2F0
100
AcDbEntity
  8
LY_1
390
0
  6
CONTINUOUS
 62
     7
100
AcDbCircle
 10
-347.330905
 20
119.22759
 30
0.0
 40
0.5
100
AcDbArc
 50
180.0
 51
270.0
  0
ARC
  5
2F1
100
AcDbEntity
  8
LY_1
390
0
  6
CONTINUOUS
 62
     7
100
AcDbCircle
 10
-342.330905
 20
119.82759
 30
0.0
 40
1.5
100
AcDbArc
 50
0.0
 51
90.0
  0
ARC
  5
2F2
100
AcDbEntity
  8
LY_1
390
0
  6
CONTINUOUS
 62
     7
100
AcDbCircle
 10
-341.330905
 20
119.22759
 30
0.0
 40
0.5
100
AcDbArc
 50
270.0
 51
0.0
  0
ARC
  5
2F3
100
AcDbEntity
  8
LY_1
390
0
  6
CONTINUOUS
 62
     7
100
AcDbCircle
 10
-344.330905
 20
122.97759
 30
0.0
 40
2.65
100
AcDbArc
 50
0.0
 51
180.0
  0
ARC
  5
2F4
100
AcDbEntity
  8
LY_1
390
0
  6
CONTINUOUS
 62
     7
100
AcDbCircle
 10
-337.530905
 20
119.82759
 30
0.0
 40
1.5
100
AcDbArc
 50
90.0
 51
180.0
  0
ARC
  5
2F5
100
AcDbEntity
  8
LY_1
390
0
  6
CONTINUOUS
 62
     7
100
AcDbCircle
 10
-338.530905
 20
119.22759
 30
0.0
 40
0.5
100
AcDbArc
 50
180.0
 51
270.0
  0
ARC
  5
2F6
100
AcDbEntity
  8
LY_1
390
0
  6
CONTINUOUS
 62
     7
100
AcDbCircle
 10
-335.530905
 20
110.81759
 30
0.0
 40
11.81
100
AcDbArc
 50
73.268228
 51
77.033218
  0
ARC
  5
2F7
100
AcDbEntity
  8
LY_1
390
0
  6
CONTINUOUS
 62
     7
100
AcDbCircle
 10
-335.530905
 20
110.81759
 30
0.0
 40
11.81
100
AcDbArc
 50
102.966782
 51
106.731772
  0
ARC
  5
2F8
100
AcDbEntity
  8
LY_1
390
0
  6
CONTINUOUS
 62
     7
100
AcDbCircle
 10
-335.530905
 20
122.97759
 30
0.0
 40
2.65
100
AcDbArc
 50
0.0
 51
180.0
  0
ARC
  5
2F9
100
AcDbEntity
  8
LY_1
390
0
  6
CONTINUOUS
 62
     7
100
AcDbCircle
 10
-333.530905
 20
119.82759
 30
0.0
 40
1.5
100
AcDbArc
 50
0.0
 51
90.0
  0
ARC
  5
2FA
100
AcDbEntity
  8
LY_1
390
0
  6
CONTINUOUS
 62
     7
100
AcDbCircle
 10
-328.730905
 20
119.82759
 30
0.0
 40
1.5
100
AcDbArc
 50
90.0
 51
180.0
  0
ARC
  5
2FB
100
AcDbEntity
  8
LY_1
390
0
  6
CONTINUOUS
 62
     7
100
AcDbCircle
 10
-332.530905
 20
119.22759
 30
0.0
 40
0.5
100
AcDbArc
 50
270.0
 51
0.0
  0
ARC
  5
2FC
100
AcDbEntity
  8
LY_1
390
0
  6
CONTINUOUS
 62
     7
100
AcDbCircle
 10
-329.730905
 20
119.22759
 30
0.0
 40
0.5
100
AcDbArc
 50
180.0
 51
270.0
  0
ARC
  5
2FD
100
AcDbEntity
  8
LY_1
390
0
  6
CONTINUOUS
 62
     7
100
AcDbCircle
 10
-326.730905
 20
110.81759
 30
0.0
 40
11.81
100
AcDbArc
 50
73.268228
 51
77.033218
  0
ARC
  5
2FE
100
AcDbEntity
  8
LY_1
390
0
  6
CONTINUOUS
 62
     7
100
AcDbCircle
 10
-326.730905
 20
110.81759
 30
0.0
 40
11.81
100
AcDbArc
 50
102.966782
 51
106.731772
  0
ARC
  5
2FF
100
AcDbEntity
  8
LY_1
390
0
  6
CONTINUOUS
 62
     7
100
AcDbCircle
 10
-324.730905
 20
119.82759
 30
0.0
 40
1.5
100
AcDbArc
 50
0.0
 51
90.0
  0
ARC
  5
300
100
AcDbEntity
  8
LY_1
390
0
  6
CONTINUOUS
 62
     7
100
AcDbCircle
 10
-323.730905
 20
119.22759
 30
0.0
 40
0.5
100
AcDbArc
 50
270.0
 51
0.0
  0
ARC
  5
301
100
AcDbEntity
  8
LY_1
390
0
  6
CONTINUOUS
 62
     7
100
AcDbCircle
 10
-320.930905
 20
119.22759
 30
0.0
 40
0.5
100
AcDbArc
 50
180.0
 51
270.0
  0
ARC
  5
302
100
AcDbEntity
  8
LY_1
390
0
  6
CONTINUOUS
 62
     7
100
AcDbCircle
 10
-326.730905
 20
122.97759
 30
0.0
 40
2.65
100
AcDbArc
 50
0.0
 51
180.0
  0
ARC
  5
303
100
AcDbEntity
  8
LY_1
390
0
  6
CONTINUOUS
 62
     7
100
AcDbCircle
 10
-317.930905
 20
110.81759
 30
0.0
 40
11.81
100
AcDbArc
 50
73.268228
 51
77.033218
  0
ARC
  5
304
100
AcDbEntity
  8
LY_1
390
0
  6
CONTINUOUS
 62
     7
100
AcDbCircle
 10
-317.930905
 20
110.81759
 30
0.0
 40
11.81
100
AcDbArc
 50
102.966782
 51
106.731772
  0
ARC
  5
305
100
AcDbEntity
  8
LY_1
390
0
  6
CONTINUOUS
 62
     7
100
AcDbCircle
 10
-319.930905
 20
119.82759
 30
0.0
 40
1.5
100
AcDbArc
 50
90.0
 51
180.0
  0
ARC
  5
306
100
AcDbEntity
  8
LY_1
390
0
  6
CONTINUOUS
 62
     7
100
AcDbCircle
 10
-315.930905
 20
119.82759
 30
0.0
 40
1.5
100
AcDbArc
 50
0.0
 51
90.0
  0
ARC
  5
307
100
AcDbEntity
  8
LY_1
390
0
  6
CONTINUOUS
 62
     7
100
AcDbCircle
 10
-314.930905
 20
119.22759
 30
0.0
 40
0.5
100
AcDbArc
 50
270.0
 51
0.0
  0
ARC
  5
308
100
AcDbEntity
  8
LY_1
390
0
  6
CONTINUOUS
 62
     7
100
AcDbCircle
 10
-317.930905
 20
122.97759
 30
0.0
 40
2.65
100
AcDbArc
 50
0.0
 51
180.0
  0
LINE
  5
309
100
AcDbEntity
  8
LY_1
390
0
  6
CONTINUOUS
 62
   255
100
AcDbLine
 10
-367.530131
 20
109.07759
 30
0.0
 11
-367.454986
 21
123.37759
 31
0.0
  0
LINE
  5
30A
100
AcDbEntity
  8
LY_1
390
0
  6
CONTINUOUS
 62
   255
100
AcDbLine
 10
-312.406824
 20
123.37759
 30
0.0
 11
-312.331679
 21
109.07759
 31
0.0
  0
LINE
  5
30B
100
AcDbEntity
  8
LY_1
390
0
  6
CONTINUOUS
 62
   254
100
AcDbLine
 10
-334.450905
 20
181.883171
 30
0.0
 11
-345.450905
 21
181.883171
 31
0.0
  0
LINE
  5
30C
100
AcDbEntity
  8
LY_1
390
0
  6
CONTINUOUS
 62
   254
100
AcDbLine
 10
-367.93745
 20
206.983171
 30
0.0
 11
-367.93745
 21
211.583171
 31
0.0
  0
LINE
  5
30D
100
AcDbEntity
  8
LY_1
390
0
  6
CONTINUOUS
 62
   254
100
AcDbLine
 10
-367.930905
 20
185.839499
 30
0.0
 11
-367.930905
 21
206.79183
 31
0.0
  0
LINE
  5
30E
100
AcDbEntity
  8
LY_1
390
0
  6
CONTINUOUS
 62
   254
100
AcDbLine
 10
-367.930905
 20
211.783171
 30
0.0
 11
-367.930905
 21
237.383171
 31
0.0
  0
LINE
  5
30F
100
AcDbEntity
  8
LY_1
390
0
  6
CONTINUOUS
 62
     7
100
AcDbLine
 10
-367.929072
 20
225.983171
 30
0.0
 11
-367.929072
 21
211.783171
 31
0.0
  0
LINE
  5
310
100
AcDbEntity
  8
LY_1
390
0
  6
CONTINUOUS
 62
     7
100
AcDbLine
 10
-367.929072
 20
206.783171
 30
0.0
 11
-367.929072
 21
196.883171
 31
0.0
  0
LINE
  5
311
100
AcDbEntity
  8
LY_1
390
0
  6
CONTINUOUS
 62
     7
100
AcDbLine
 10
-367.825242
 20
215.383171
 30
0.0
 11
-367.825242
 21
198.183171
 31
0.0
  0
LINE
  5
312
100
AcDbEntity
  8
LY_1
390
0
  6
CONTINUOUS
 62
     7
100
AcDbLine
 10
-367.81545
 20
196.883171
 30
0.0
 11
-367.81545
 21
196.983171
 31
0.0
  0
LINE
  5
313
100
AcDbEntity
  8
LY_1
390
0
  6
CONTINUOUS
 62
     7
100
AcDbLine
 10
-367.809448
 20
232.383171
 30
0.0
 11
-367.809448
 21
215.383171
 31
0.0
  0
LINE
  5
314
100
AcDbEntity
  8
LY_1
390
0
  6
CONTINUOUS
 62
     7
100
AcDbLine
 10
-367.809448
 20
198.183171
 30
0.0
 11
-367.809448
 21
196.983171
 31
0.0
  0
LINE
  5
315
100
AcDbEntity
  8
LY_1
390
0
  6
CONTINUOUS
 62
     7
100
AcDbLine
 10
-367.430905
 20
215.383171
 30
0.0
 11
-367.430905
 21
198.183171
 31
0.0
  0
LINE
  5
316
100
AcDbEntity
  8
LY_1
390
0
  6
CONTINUOUS
 62
     7
100
AcDbLine
 10
-366.805905
 20
216.383171
 30
0.0
 11
-366.805905
 21
215.383171
 31
0.0
  0
LINE
  5
317
100
AcDbEntity
  8
LY_1
390
0
  6
CONTINUOUS
 62
     7
100
AcDbLine
 10
-366.730905
 20
216.383171
 30
0.0
 11
-366.730905
 21
215.183171
 31
0.0
  0
LINE
  5
318
100
AcDbEntity
  8
LY_1
390
0
  6
CONTINUOUS
 62
   254
100
AcDbLine
 10
-346.305114
 20
182.737381
 30
0.0
 11
-345.450905
 21
181.883171
 31
0.0
  0
LINE
  5
319
100
AcDbEntity
  8
LY_1
390
0
  6
CONTINUOUS
 62
     7
100
AcDbLine
 10
-366.230905
 20
185.092792
 30
0.0
 11
-366.230905
 21
186.346622
 31
0.0
  0
LINE
  5
31A
100
AcDbEntity
  8
LY_1
390
0
  6
CONTINUOUS
 62
     7
100
AcDbLine
 10
-366.068164
 20
215.183171
 30
0.0
 11
-366.068164
 21
198.383171
 31
0.0
  0
LINE
  5
31B
100
AcDbEntity
  8
LY_1
390
0
  6
CONTINUOUS
 62
   254
100
AcDbLine
 10
-365.430905
 20
247.383171
 30
0.0
 11
-365.430905
 21
232.883171
 31
0.0
  0
LINE
  5
31C
100
AcDbEntity
  8
LY_1
390
0
  6
CONTINUOUS
 62
     7
100
AcDbLine
 10
-364.930905
 20
216.383171
 30
0.0
 11
-364.930905
 21
215.183171
 31
0.0
  0
LINE
  5
31D
100
AcDbEntity
  8
LY_1
390
0
  6
CONTINUOUS
 62
     7
100
AcDbLine
 10
-364.855905
 20
216.383171
 30
0.0
 11
-364.855905
 21
215.383171
 31
0.0
  0
LINE
  5
31E
100
AcDbEntity
  8
LY_1
390
0
  6
CONTINUOUS
 62
     7
100
AcDbLine
 10
-359.429943
 20
204.779581
 30
0.0
 11
-359.029943
 21
204.086761
 31
0.0
  0
LINE
  5
31F
100
AcDbEntity
  8
LY_1
390
0
  6
CONTINUOUS
 62
     7
100
AcDbLine
 10
-361.930905
 20
198.183171
 30
0.0
 11
-361.930905
 21
196.883171
 31
0.0
  0
LINE
  5
320
100
AcDbEntity
  8
LY_1
390
0
  6
CONTINUOUS
 62
     7
100
AcDbLine
 10
-361.930905
 20
196.883171
 30
0.0
 11
-367.930905
 21
196.883171
 31
0.0
  0
LINE
  5
321
100
AcDbEntity
  8
LY_1
390
0
  6
CONTINUOUS
 62
     7
100
AcDbLine
 10
-359.327315
 20
206.801825
 30
0.0
 11
-358.477315
 21
205.329581
 31
0.0
  0
LINE
  5
322
100
AcDbEntity
  8
LY_1
390
0
  6
CONTINUOUS
 62
     7
100
AcDbLine
 10
-357.227315
 20
203.164518
 30
0.0
 11
-358.077315
 21
204.636761
 31
0.0
  0
LINE
  5
323
100
AcDbEntity
  8
LY_1
390
0
  6
CONTINUOUS
 62
     7
100
AcDbLine
 10
-356.534495
 20
203.564518
 30
0.0
 11
-357.384495
 21
205.036761
 31
0.0
  0
LINE
  5
324
100
AcDbEntity
  8
LY_1
390
0
  6
CONTINUOUS
 62
     7
100
AcDbLine
 10
-357.784495
 20
205.729581
 30
0.0
 11
-358.634495
 21
207.201825
 31
0.0
  0
LINE
  5
325
100
AcDbEntity
  8
LY_1
390
0
  6
CONTINUOUS
 62
     7
100
AcDbLine
 10
-356.431867
 20
205.586761
 30
0.0
 11
-356.831867
 21
206.279581
 31
0.0
  0
LINE
  5
326
100
AcDbEntity
  8
LY_1
390
0
  6
CONTINUOUS
 62
     7
100
AcDbLine
 10
-358.930905
 20
215.983171
 30
0.0
 11
-358.930905
 21
228.983171
 31
0.0
  0
LINE
  5
327
100
AcDbEntity
  8
LY_1
390
0
  6
CONTINUOUS
 62
     7
100
AcDbLine
 10
-357.955905
 20
183.903255
 30
0.0
 11
-357.955905
 21
185.409525
 31
0.0
  0
LINE
  5
328
100
AcDbEntity
  8
LY_1
390
0
  6
CONTINUOUS
 62
     7
100
AcDbLine
 10
-357.105905
 20
185.333281
 30
0.0
 11
-357.105905
 21
183.827591
 31
0.0
  0
LINE
  5
329
100
AcDbEntity
  8
LY_1
390
0
  6
CONTINUOUS
 62
     7
100
AcDbLine
 10
-367.825242
 20
198.183171
 30
0.0
 11
-311.930905
 21
198.183171
 31
0.0
  0
LINE
  5
32A
100
AcDbEntity
  8
LY_1
390
0
  6
CONTINUOUS
 62
     7
100
AcDbLine
 10
-367.430905
 20
198.383171
 30
0.0
 11
-321.831259
 21
198.383171
 31
0.0
  0
LINE
  5
32B
100
AcDbEntity
  8
LY_1
390
0
  6
CONTINUOUS
 62
     7
100
AcDbLine
 10
-355.230905
 20
198.183171
 30
0.0
 11
-355.230905
 21
197.229999
 31
0.0
  0
LINE
  5
32C
100
AcDbEntity
  8
LY_1
390
0
  6
CONTINUOUS
 62
     7
100
AcDbLine
 10
-325.435905
 20
202.183171
 30
0.0
 11
-326.435905
 21
202.183171
 31
0.0
  0
LINE
  5
32D
100
AcDbEntity
  8
LY_1
390
0
  6
CONTINUOUS
 62
     7
100
AcDbLine
 10
-323.930905
 20
203.183171
 30
0.0
 11
-327.930905
 21
203.183171
 31
0.0
  0
LINE
  5
32E
100
AcDbEntity
  8
LY_1
390
0
  6
CONTINUOUS
 62
     7
100
AcDbLine
 10
-351.030905
 20
198.183171
 30
0.0
 11
-351.030905
 21
197.213191
 31
0.0
  0
LINE
  5
32F
100
AcDbEntity
  8
LY_1
390
0
  6
CONTINUOUS
 62
     7
100
AcDbLine
 10
-311.930905
 20
206.583171
 30
0.0
 11
-312.930905
 21
206.583171
 31
0.0
  0
LINE
  5
330
100
AcDbEntity
  8
LY_1
390
0
  6
CONTINUOUS
 62
     7
100
AcDbLine
 10
-312.930905
 20
206.583171
 30
0.0
 11
-318.430905
 21
206.583171
 31
0.0
  0
LINE
  5
331
100
AcDbEntity
  8
LY_1
390
0
  6
CONTINUOUS
 62
     7
100
AcDbLine
 10
-311.730905
 20
206.583171
 30
0.0
 11
-311.930905
 21
206.583171
 31
0.0
  0
LINE
  5
332
100
AcDbEntity
  8
LY_1
390
0
  6
CONTINUOUS
 62
     7
100
AcDbLine
 10
-367.929072
 20
206.783171
 30
0.0
 11
-367.936403
 21
206.783171
 31
0.0
  0
LINE
  5
333
100
AcDbEntity
  8
LY_1
390
0
  6
CONTINUOUS
 62
     7
100
AcDbLine
 10
-311.932737
 20
206.783171
 30
0.0
 11
-311.925407
 21
206.783171
 31
0.0
  0
LINE
  5
334
100
AcDbEntity
  8
LY_1
390
0
  6
CONTINUOUS
 62
     7
100
AcDbLine
 10
-323.930905
 20
207.183171
 30
0.0
 11
-327.930905
 21
207.183171
 31
0.0
  0
LINE
  5
335
100
AcDbEntity
  8
LY_1
390
0
  6
CONTINUOUS
 62
     7
100
AcDbLine
 10
-347.429943
 20
204.779581
 30
0.0
 11
-347.029943
 21
204.086761
 31
0.0
  0
LINE
  5
336
100
AcDbEntity
  8
LY_1
390
0
  6
CONTINUOUS
 62
     7
100
AcDbLine
 10
-347.327315
 20
206.801825
 30
0.0
 11
-346.477315
 21
205.329581
 31
0.0
  0
LINE
  5
337
100
AcDbEntity
  8
LY_1
390
0
  6
CONTINUOUS
 62
     7
100
AcDbLine
 10
-345.227315
 20
203.164518
 30
0.0
 11
-346.077315
 21
204.636761
 31
0.0
  0
LINE
  5
338
100
AcDbEntity
  8
LY_1
390
0
  6
CONTINUOUS
 62
     7
100
AcDbLine
 10
-344.534495
 20
203.564518
 30
0.0
 11
-345.384495
 21
205.036761
 31
0.0
  0
LINE
  5
339
100
AcDbEntity
  8
LY_1
390
0
  6
CONTINUOUS
 62
     7
100
AcDbLine
 10
-345.784495
 20
205.729581
 30
0.0
 11
-346.634495
 21
207.201825
 31
0.0
  0
LINE
  5
33A
100
AcDbEntity
  8
LY_1
390
0
  6
CONTINUOUS
 62
     7
100
AcDbLine
 10
-344.431867
 20
205.586761
 30
0.0
 11
-344.831867
 21
206.279581
 31
0.0
  0
LINE
  5
33B
100
AcDbEntity
  8
LY_1
390
0
  6
CONTINUOUS
 62
     7
100
AcDbLine
 10
-349.155905
 20
183.297646
 30
0.0
 11
-349.155905
 21
184.799281
 31
0.0
  0
LINE
  5
33C
100
AcDbEntity
  8
LY_1
390
0
  6
CONTINUOUS
 62
     7
100
AcDbLine
 10
-348.305905
 20
184.761274
 30
0.0
 11
-348.305905
 21
183.259927
 31
0.0
  0
LINE
  5
33D
100
AcDbEntity
  8
LY_1
390
0
  6
CONTINUOUS
 62
     7
100
AcDbLine
 10
-337.530905
 20
210.183171
 30
0.0
 11
-330.330905
 21
210.183171
 31
0.0
  0
LINE
  5
33E
100
AcDbEntity
  8
LY_1
390
0
  6
CONTINUOUS
 62
     7
100
AcDbLine
 10
-321.930905
 20
210.783171
 30
0.0
 11
-327.430905
 21
210.783171
 31
0.0
  0
LINE
  5
33F
100
AcDbEntity
  8
LY_1
390
0
  6
CONTINUOUS
 62
   254
100
AcDbLine
 10
-367.936403
 20
211.783171
 30
0.0
 11
-367.929072
 21
211.783171
 31
0.0
  0
LINE
  5
340
100
AcDbEntity
  8
LY_1
390
0
  6
CONTINUOUS
 62
     7
100
AcDbLine
 10
-327.430905
 20
212.383171
 30
0.0
 11
-321.930905
 21
212.383171
 31
0.0
  0
LINE
  5
341
100
AcDbEntity
  8
LY_1
390
0
  6
CONTINUOUS
 62
     7
100
AcDbLine
 10
-331.330905
 20
212.633171
 30
0.0
 11
-336.530905
 21
212.633171
 31
0.0
  0
LINE
  5
342
100
AcDbEntity
  8
LY_1
390
0
  6
CONTINUOUS
 62
     7
100
AcDbLine
 10
-340.355905
 20
183.083626
 30
0.0
 11
-340.355905
 21
184.58363
 31
0.0
  0
LINE
  5
343
100
AcDbEntity
  8
LY_1
390
0
  6
CONTINUOUS
 62
     7
100
AcDbLine
 10
-339.930905
 20
249.562621
 30
0.0
 11
-339.930905
 21
232.883171
 31
0.0
  0
LINE
  5
344
100
AcDbEntity
  8
LY_1
390
0
  6
CONTINUOUS
 62
     7
100
AcDbLine
 10
-339.505905
 20
184.58363
 30
0.0
 11
-339.505905
 21
183.083626
 31
0.0
  0
LINE
  5
345
100
AcDbEntity
  8
LY_1
390
0
  6
CONTINUOUS
 62
     7
100
AcDbLine
 10
-358.634495
 20
207.201825
 30
0.0
 11
-359.327315
 21
206.801825
 31
0.0
  0
LINE
  5
346
100
AcDbEntity
  8
LY_1
390
0
  6
CONTINUOUS
 62
     7
100
AcDbLine
 10
-336.530905
 20
215.133171
 30
0.0
 11
-331.330905
 21
215.133171
 31
0.0
  0
LINE
  5
347
100
AcDbEntity
  8
LY_1
390
0
  6
CONTINUOUS
 62
     7
100
AcDbLine
 10
-311.730905
 20
215.183171
 30
0.0
 11
-311.930905
 21
215.183171
 31
0.0
  0
LINE
  5
348
100
AcDbEntity
  8
LY_1
390
0
  6
CONTINUOUS
 62
     7
100
AcDbLine
 10
-312.930905
 20
215.183171
 30
0.0
 11
-367.430905
 21
215.183171
 31
0.0
  0
LINE
  5
349
100
AcDbEntity
  8
LY_1
390
0
  6
CONTINUOUS
 62
     7
100
AcDbLine
 10
-312.930905
 20
215.183171
 30
0.0
 11
-311.930905
 21
215.183171
 31
0.0
  0
LINE
  5
34A
100
AcDbEntity
  8
LY_1
390
0
  6
CONTINUOUS
 62
     7
100
AcDbLine
 10
-336.530905
 20
215.283171
 30
0.0
 11
-331.330905
 21
215.283171
 31
0.0
  0
LINE
  5
34B
100
AcDbEntity
  8
LY_1
390
0
  6
CONTINUOUS
 62
     7
100
AcDbLine
 10
-367.825242
 20
215.383171
 30
0.0
 11
-312.035645
 21
215.383171
 31
0.0
  0
LINE
  5
34C
100
AcDbEntity
  8
LY_1
390
0
  6
CONTINUOUS
 62
     7
100
AcDbLine
 10
-320.930905
 20
215.983171
 30
0.0
 11
-358.930905
 21
215.983171
 31
0.0
  0
LINE
  5
34D
100
AcDbEntity
  8
LY_1
390
0
  6
CONTINUOUS
 62
     7
100
AcDbLine
 10
-364.930905
 20
216.383171
 30
0.0
 11
-366.730905
 21
216.383171
 31
0.0
  0
LINE
  5
34E
100
AcDbEntity
  8
LY_1
390
0
  6
CONTINUOUS
 62
     7
100
AcDbLine
 10
-366.805905
 20
216.383171
 30
0.0
 11
-364.855905
 21
216.383171
 31
0.0
  0
LINE
  5
34F
100
AcDbEntity
  8
LY_1
390
0
  6
CONTINUOUS
 62
     7
100
AcDbLine
 10
-335.429943
 20
204.779581
 30
0.0
 11
-335.029943
 21
204.086761
 31
0.0
  0
LINE
  5
350
100
AcDbEntity
  8
LY_1
390
0
  6
CONTINUOUS
 62
     7
100
AcDbLine
 10
-335.327315
 20
206.801825
 30
0.0
 11
-334.477315
 21
205.329581
 31
0.0
  0
LINE
  5
351
100
AcDbEntity
  8
LY_1
390
0
  6
CONTINUOUS
 62
     7
100
AcDbLine
 10
-333.227315
 20
203.164518
 30
0.0
 11
-334.077315
 21
204.636761
 31
0.0
  0
LINE
  5
352
100
AcDbEntity
  8
LY_1
390
0
  6
CONTINUOUS
 62
     7
100
AcDbLine
 10
-332.534495
 20
203.564518
 30
0.0
 11
-333.384495
 21
205.036761
 31
0.0
  0
LINE
  5
353
100
AcDbEntity
  8
LY_1
390
0
  6
CONTINUOUS
 62
     7
100
AcDbLine
 10
-333.784495
 20
205.729581
 30
0.0
 11
-334.634495
 21
207.201825
 31
0.0
  0
LINE
  5
354
100
AcDbEntity
  8
LY_1
390
0
  6
CONTINUOUS
 62
     7
100
AcDbLine
 10
-337.530905
 20
215.383171
 30
0.0
 11
-337.530905
 21
210.183171
 31
0.0
  0
LINE
  5
355
100
AcDbEntity
  8
LY_1
390
0
  6
CONTINUOUS
 62
     7
100
AcDbLine
 10
-336.530905
 20
215.383171
 30
0.0
 11
-336.530905
 21
210.183171
 31
0.0
  0
LINE
  5
356
100
AcDbEntity
  8
LY_1
390
0
  6
CONTINUOUS
 62
     7
100
AcDbLine
 10
-359.429943
 20
204.779581
 30
0.0
 11
-358.477315
 21
205.329581
 31
0.0
  0
LINE
  5
357
100
AcDbEntity
  8
LY_1
390
0
  6
CONTINUOUS
 62
     7
100
AcDbLine
 10
-357.784495
 20
205.729581
 30
0.0
 11
-356.831867
 21
206.279581
 31
0.0
  0
LINE
  5
358
100
AcDbEntity
  8
LY_1
390
0
  6
CONTINUOUS
 62
     7
100
AcDbLine
 10
-359.029943
 20
204.086761
 30
0.0
 11
-358.077315
 21
204.636761
 31
0.0
  0
LINE
  5
359
100
AcDbEntity
  8
LY_1
390
0
  6
CONTINUOUS
 62
     7
100
AcDbLine
 10
-357.384495
 20
205.036761
 30
0.0
 11
-356.431867
 21
205.586761
 31
0.0
  0
LINE
  5
35A
100
AcDbEntity
  8
LY_1
390
0
  6
CONTINUOUS
 62
     7
100
AcDbLine
 10
-357.227315
 20
203.164518
 30
0.0
 11
-356.534495
 21
203.564518
 31
0.0
  0
LINE
  5
35B
100
AcDbEntity
  8
LY_1
390
0
  6
CONTINUOUS
 62
     7
100
AcDbLine
 10
-332.431867
 20
205.586761
 30
0.0
 11
-332.831867
 21
206.279581
 31
0.0
  0
LINE
  5
35C
100
AcDbEntity
  8
LY_1
390
0
  6
CONTINUOUS
 62
     7
100
AcDbLine
 10
-336.030905
 20
215.283171
 30
0.0
 11
-336.030905
 21
215.133171
 31
0.0
  0
LINE
  5
35D
100
AcDbEntity
  8
LY_1
390
0
  6
CONTINUOUS
 62
     7
100
AcDbLine
 10
-333.830905
 20
215.283171
 30
0.0
 11
-333.830905
 21
215.133171
 31
0.0
  0
LINE
  5
35E
100
AcDbEntity
  8
LY_1
390
0
  6
CONTINUOUS
 62
     7
100
AcDbLine
 10
-346.634495
 20
207.201825
 30
0.0
 11
-347.327315
 21
206.801825
 31
0.0
  0
LINE
  5
35F
100
AcDbEntity
  8
LY_1
390
0
  6
CONTINUOUS
 62
     7
100
AcDbLine
 10
-347.429943
 20
204.779581
 30
0.0
 11
-346.477315
 21
205.329581
 31
0.0
  0
LINE
  5
360
100
AcDbEntity
  8
LY_1
390
0
  6
CONTINUOUS
 62
     7
100
AcDbLine
 10
-345.784495
 20
205.729581
 30
0.0
 11
-344.831867
 21
206.279581
 31
0.0
  0
LINE
  5
361
100
AcDbEntity
  8
LY_1
390
0
  6
CONTINUOUS
 62
     7
100
AcDbLine
 10
-331.555905
 20
183.259927
 30
0.0
 11
-331.555905
 21
184.761274
 31
0.0
  0
LINE
  5
362
100
AcDbEntity
  8
LY_1
390
0
  6
CONTINUOUS
 62
     7
100
AcDbLine
 10
-331.330905
 20
215.383171
 30
0.0
 11
-331.330905
 21
210.183171
 31
0.0
  0
LINE
  5
363
100
AcDbEntity
  8
LY_1
390
0
  6
CONTINUOUS
 62
     7
100
AcDbLine
 10
-330.705905
 20
184.799281
 30
0.0
 11
-330.705905
 21
183.297646
 31
0.0
  0
LINE
  5
364
100
AcDbEntity
  8
LY_1
390
0
  6
CONTINUOUS
 62
     7
100
AcDbLine
 10
-330.330905
 20
215.383171
 30
0.0
 11
-330.330905
 21
210.183171
 31
0.0
  0
LINE
  5
365
100
AcDbEntity
  8
LY_1
390
0
  6
CONTINUOUS
 62
     7
100
AcDbLine
 10
-347.029943
 20
204.086761
 30
0.0
 11
-346.077315
 21
204.636761
 31
0.0
  0
LINE
  5
366
100
AcDbEntity
  8
LY_1
390
0
  6
CONTINUOUS
 62
     7
100
AcDbLine
 10
-345.384495
 20
205.036761
 30
0.0
 11
-344.431867
 21
205.586761
 31
0.0
  0
LINE
  5
367
100
AcDbEntity
  8
LY_1
390
0
  6
CONTINUOUS
 62
     7
100
AcDbLine
 10
-345.227315
 20
203.164518
 30
0.0
 11
-344.534495
 21
203.564518
 31
0.0
  0
LINE
  5
368
100
AcDbEntity
  8
LY_1
390
0
  6
CONTINUOUS
 62
     7
100
AcDbLine
 10
-311.930905
 20
225.983171
 30
0.0
 11
-311.932737
 21
225.983171
 31
0.0
  0
LINE
  5
369
100
AcDbEntity
  8
LY_1
390
0
  6
CONTINUOUS
 62
     7
100
AcDbLine
 10
-367.930905
 20
225.983171
 30
0.0
 11
-367.929072
 21
225.983171
 31
0.0
  0
LINE
  5
36A
100
AcDbEntity
  8
LY_1
390
0
  6
CONTINUOUS
 62
     7
100
AcDbLine
 10
-328.830905
 20
198.183171
 30
0.0
 11
-328.830905
 21
197.213191
 31
0.0
  0
LINE
  5
36B
100
AcDbEntity
  8
LY_1
390
0
  6
CONTINUOUS
 62
     7
100
AcDbLine
 10
-327.430905
 20
210.783171
 30
0.0
 11
-327.430905
 21
212.383171
 31
0.0
  0
LINE
  5
36C
100
AcDbEntity
  8
LY_1
390
0
  6
CONTINUOUS
 62
     7
100
AcDbLine
 10
-326.435905
 20
202.183171
 30
0.0
 11
-326.435905
 21
203.183171
 31
0.0
  0
LINE
  5
36D
100
AcDbEntity
  8
LY_1
390
0
  6
CONTINUOUS
 62
     7
100
AcDbLine
 10
-334.634495
 20
207.201825
 30
0.0
 11
-335.327315
 21
206.801825
 31
0.0
  0
LINE
  5
36E
100
AcDbEntity
  8
LY_1
390
0
  6
CONTINUOUS
 62
     7
100
AcDbLine
 10
-335.429943
 20
204.779581
 30
0.0
 11
-334.477315
 21
205.329581
 31
0.0
  0
LINE
  5
36F
100
AcDbEntity
  8
LY_1
390
0
  6
CONTINUOUS
 62
     7
100
AcDbLine
 10
-333.784495
 20
205.729581
 30
0.0
 11
-332.831867
 21
206.279581
 31
0.0
  0
LINE
  5
370
100
AcDbEntity
  8
LY_1
390
0
  6
CONTINUOUS
 62
     7
100
AcDbLine
 10
-335.029943
 20
204.086761
 30
0.0
 11
-334.077315
 21
204.636761
 31
0.0
  0
LINE
  5
371
100
AcDbEntity
  8
LY_1
390
0
  6
CONTINUOUS
 62
     7
100
AcDbLine
 10
-333.384495
 20
205.036761
 30
0.0
 11
-332.431867
 21
205.586761
 31
0.0
  0
LINE
  5
372
100
AcDbEntity
  8
LY_1
390
0
  6
CONTINUOUS
 62
     7
100
AcDbLine
 10
-358.930905
 20
228.983171
 30
0.0
 11
-320.930905
 21
228.983171
 31
0.0
  0
LINE
  5
373
100
AcDbEntity
  8
LY_1
390
0
  6
CONTINUOUS
 62
     7
100
AcDbLine
 10
-325.435905
 20
202.183171
 30
0.0
 11
-325.435905
 21
203.183171
 31
0.0
  0
LINE
  5
374
100
AcDbEntity
  8
LY_1
390
0
  6
CONTINUOUS
 62
     7
100
AcDbLine
 10
-324.630905
 20
198.183171
 30
0.0
 11
-324.630905
 21
197.229999
 31
0.0
  0
LINE
  5
375
100
AcDbEntity
  8
LY_1
390
0
  6
CONTINUOUS
 62
     7
100
AcDbLine
 10
-322.755905
 20
183.827591
 30
0.0
 11
-322.755905
 21
185.333281
 31
0.0
  0
LINE
  5
376
100
AcDbEntity
  8
LY_1
390
0
  6
CONTINUOUS
 62
     7
100
AcDbLine
 10
-333.227315
 20
203.164518
 30
0.0
 11
-332.534495
 21
203.564518
 31
0.0
  0
LINE
  5
377
100
AcDbEntity
  8
LY_1
390
0
  6
CONTINUOUS
 62
   255
100
AcDbLine
 10
-367.930905
 20
232.383171
 30
0.0
 11
-367.809448
 21
232.383171
 31
0.0
  0
LINE
  5
378
100
AcDbEntity
  8
LY_1
390
0
  6
CONTINUOUS
 62
   255
100
AcDbLine
 10
-312.052361
 20
232.383171
 30
0.0
 11
-311.930905
 21
232.383171
 31
0.0
  0
LINE
  5
379
100
AcDbEntity
  8
LY_1
390
0
  6
CONTINUOUS
 62
   254
100
AcDbLine
 10
-312.552715
 20
232.883171
 30
0.0
 11
-367.309095
 21
232.883171
 31
0.0
  0
LINE
  5
37A
100
AcDbEntity
  8
LY_1
390
0
  6
CONTINUOUS
 62
     7
100
AcDbLine
 10
-354.783995
 20
233.883171
 30
0.0
 11
-352.930905
 21
233.883171
 31
0.0
  0
LINE
  5
37B
100
AcDbEntity
  8
LY_1
390
0
  6
CONTINUOUS
 62
     7
100
AcDbLine
 10
-326.930905
 20
233.883171
 30
0.0
 11
-325.090015
 21
233.883171
 31
0.0
  0
LINE
  5
37C
100
AcDbEntity
  8
LY_1
390
0
  6
CONTINUOUS
 62
     7
100
AcDbLine
 10
-321.930905
 20
210.783171
 30
0.0
 11
-321.930905
 21
212.383171
 31
0.0
  0
LINE
  5
37D
100
AcDbEntity
  8
LY_1
390
0
  6
CONTINUOUS
 62
     7
100
AcDbLine
 10
-321.905905
 20
185.409525
 30
0.0
 11
-321.905905
 21
183.903255
 31
0.0
  0
LINE
  5
37E
100
AcDbEntity
  8
LY_1
390
0
  6
CONTINUOUS
 62
     7
100
AcDbLine
 10
-321.831259
 20
203.182817
 30
0.0
 11
-321.831259
 21
198.383171
 31
0.0
  0
LINE
  5
37F
100
AcDbEntity
  8
LY_1
390
0
  6
CONTINUOUS
 62
     7
100
AcDbLine
 10
-321.680895
 20
208.925443
 30
0.0
 11
-321.680895
 21
214.240167
 31
0.0
  0
LINE
  5
380
100
AcDbEntity
  8
LY_1
390
0
  6
CONTINUOUS
 62
     7
100
AcDbLine
 10
-320.930905
 20
228.983171
 30
0.0
 11
-320.930905
 21
215.983171
 31
0.0
  0
LINE
  5
381
100
AcDbEntity
  8
LY_1
390
0
  6
CONTINUOUS
 62
   254
100
AcDbLine
 10
-367.430905
 20
237.883171
 30
0.0
 11
-365.430905
 21
237.883171
 31
0.0
  0
LINE
  5
382
100
AcDbEntity
  8
LY_1
390
0
  6
CONTINUOUS
 62
   254
100
AcDbLine
 10
-314.430905
 20
237.883171
 30
0.0
 11
-312.430905
 21
237.883171
 31
0.0
  0
LINE
  5
383
100
AcDbEntity
  8
LY_1
390
0
  6
CONTINUOUS
 62
   254
100
AcDbLine
 10
-314.430905
 20
232.883171
 30
0.0
 11
-314.430905
 21
247.383171
 31
0.0
  0
LINE
  5
384
100
AcDbEntity
  8
LY_1
390
0
  6
CONTINUOUS
 62
     7
100
AcDbLine
 10
-313.630905
 20
185.092792
 30
0.0
 11
-313.630905
 21
186.346622
 31
0.0
  0
LINE
  5
385
100
AcDbEntity
  8
LY_1
390
0
  6
CONTINUOUS
 62
     7
100
AcDbLine
 10
-312.052361
 20
232.383171
 30
0.0
 11
-312.052361
 21
215.383171
 31
0.0
  0
LINE
  5
386
100
AcDbEntity
  8
LY_1
390
0
  6
CONTINUOUS
 62
     7
100
AcDbLine
 10
-312.046359
 20
198.183171
 30
0.0
 11
-312.046359
 21
206.383171
 31
0.0
  0
LINE
  5
387
100
AcDbEntity
  8
LY_1
390
0
  6
CONTINUOUS
 62
     7
100
AcDbLine
 10
-311.932737
 20
225.983171
 30
0.0
 11
-311.932737
 21
211.783171
 31
0.0
  0
LINE
  5
388
100
AcDbEntity
  8
LY_1
390
0
  6
CONTINUOUS
 62
     7
100
AcDbLine
 10
-311.932737
 20
206.783171
 30
0.0
 11
-311.932737
 21
198.183171
 31
0.0
  0
LINE
  5
389
100
AcDbEntity
  8
LY_1
390
0
  6
CONTINUOUS
 62
   254
100
AcDbLine
 10
-311.930905
 20
237.383171
 30
0.0
 11
-311.930905
 21
211.774513
 31
0.0
  0
LINE
  5
38A
100
AcDbEntity
  8
LY_1
390
0
  6
CONTINUOUS
 62
   254
100
AcDbLine
 10
-311.930905
 20
215.183171
 30
0.0
 11
-311.930905
 21
206.583171
 31
0.0
  0
LINE
  5
38B
100
AcDbEntity
  8
LY_1
390
0
  6
CONTINUOUS
 62
   254
100
AcDbLine
 10
-311.930905
 20
185.8395
 30
0.0
 11
-311.930905
 21
206.783171
 31
0.0
  0
LINE
  5
38C
100
AcDbEntity
  8
LY_1
390
0
  6
CONTINUOUS
 62
   254
100
AcDbLine
 10
-334.450905
 20
181.883171
 30
0.0
 11
-333.598924
 21
182.735153
 31
0.0
  0
LINE
  5
38D
100
AcDbEntity
  8
LY_1
390
0
  6
CONTINUOUS
 62
   254
100
AcDbLine
 10
-360.430905
 20
252.383171
 30
0.0
 11
-344.430905
 21
252.383171
 31
0.0
  0
LINE
  5
38E
100
AcDbEntity
  8
LY_1
390
0
  6
CONTINUOUS
 62
   254
100
AcDbLine
 10
-335.430905
 20
252.383171
 30
0.0
 11
-319.430905
 21
252.383171
 31
0.0
  0
LINE
  5
38F
100
AcDbEntity
  8
LY_1
390
0
  6
CONTINUOUS
 62
   254
100
AcDbLine
 10
-257.19322
 20
252.383171
 30
0.0
 11
-257.69322
 21
251.883171
 31
0.0
  0
LINE
  5
390
100
AcDbEntity
  8
LY_1
390
0
  6
CONTINUOUS
 62
   254
100
AcDbLine
 10
-200.69322
 20
181.883171
 30
0.0
 11
-195.69322
 21
181.883171
 31
0.0
  0
LINE
  5
391
100
AcDbEntity
  8
LY_1
390
0
  6
CONTINUOUS
 62
   254
100
AcDbLine
 10
-220.59322
 20
182.583171
 30
0.0
 11
-247.69322
 21
182.583171
 31
0.0
  0
LINE
  5
392
100
AcDbEntity
  8
LY_1
390
0
  6
CONTINUOUS
 62
   254
100
AcDbLine
 10
-248.04322
 20
182.583171
 30
0.0
 11
-252.74322
 21
182.583171
 31
0.0
  0
LINE
  5
393
100
AcDbEntity
  8
LY_1
390
0
  6
CONTINUOUS
 62
   254
100
AcDbLine
 10
-200.69322
 20
182.670405
 30
0.0
 11
-204.19322
 21
182.670405
 31
0.0
  0
LINE
  5
394
100
AcDbEntity
  8
LY_1
390
0
  6
CONTINUOUS
 62
   254
100
AcDbLine
 10
-200.69322
 20
182.671292
 30
0.0
 11
-204.19322
 21
182.671292
 31
0.0
  0
LINE
  5
395
100
AcDbEntity
  8
LY_1
390
0
  6
CONTINUOUS
 62
     7
100
AcDbLine
 10
-265.72322
 20
183.083626
 30
0.0
 11
-252.74322
 21
183.083626
 31
0.0
  0
LINE
  5
396
100
AcDbEntity
  8
LY_1
390
0
  6
CONTINUOUS
 62
     7
100
AcDbLine
 10
-247.69322
 20
184.177934
 30
0.0
 11
-248.04322
 21
184.177934
 31
0.0
  0
LINE
  5
397
100
AcDbEntity
  8
LY_1
390
0
  6
CONTINUOUS
 62
   254
100
AcDbLine
 10
-210.19322
 20
184.256687
 30
0.0
 11
-215.19322
 21
184.256687
 31
0.0
  0
LINE
  5
398
100
AcDbEntity
  8
LY_1
390
0
  6
CONTINUOUS
 62
   254
100
AcDbLine
 10
-270.742621
 20
184.583171
 30
0.0
 11
-272.7051
 21
184.583171
 31
0.0
  0
LINE
  5
399
100
AcDbEntity
  8
LY_1
390
0
  6
CONTINUOUS
 62
   254
100
AcDbLine
 10
-270.742621
 20
184.583806
 30
0.0
 11
-268.671537
 21
184.583806
 31
0.0
  0
LINE
  5
39A
100
AcDbEntity
  8
LY_1
390
0
  6
CONTINUOUS
 62
     7
100
AcDbLine
 10
-252.74322
 20
185.092792
 30
0.0
 11
-261.99322
 21
185.092792
 31
0.0
  0
LINE
  5
39B
100
AcDbEntity
  8
LY_1
390
0
  6
CONTINUOUS
 62
     7
100
AcDbLine
 10
-195.49322
 20
185.810748
 30
0.0
 11
-195.69322
 21
185.810748
 31
0.0
  0
LINE
  5
39C
100
AcDbEntity
  8
LY_1
390
0
  6
CONTINUOUS
 62
   255
100
AcDbLine
 10
-195.49322
 20
185.813956
 30
0.0
 11
-195.69322
 21
185.813956
 31
0.0
  0
LINE
  5
39D
100
AcDbEntity
  8
LY_1
390
0
  6
CONTINUOUS
 62
     7
100
AcDbLine
 10
-204.337432
 20
182.670982
 30
0.0
 11
-204.19322
 21
182.670405
 31
0.0
  0
LWPOLYLINE
  5
39E
100
AcDbEntity
  8
LY_1
390
0
  6
CONTINUOUS
 62
   254
100
AcDbPolyline
 90
        9
 70
     0
 10
-210.19322
 20
184.256692
 10
-209.772361
 20
184.254009
 10
-209.188488
 20
184.241237
 10
-208.63322
 20
184.219041
 10
-208.112448
 20
184.188677
 10
-207.631023
 20
184.151522
 10
-207.193107
 20
184.109046
 10
-206.801796
 20
184.062768
 10
-206.459038
 20
184.014176
  0
LINE
  5
39F
100
AcDbEntity
  8
LY_1
390
0
  6
CONTINUOUS
 62
     7
100
AcDbLine
 10
-204.517526
 20
182.673495
 30
0.0
 11
-204.332681
 21
182.670944
 31
0.0
  0
LINE
  5
3A0
100
AcDbEntity
  8
LY_1
390
0
  6
CONTINUOUS
 62
     7
100
AcDbLine
 10
-204.667536
 20
182.677671
 30
0.0
 11
-204.513524
 21
182.673414
 31
0.0
  0
LINE
  5
3A1
100
AcDbEntity
  8
LY_1
390
0
  6
CONTINUOUS
 62
     7
100
AcDbLine
 10
-204.788608
 20
182.683418
 30
0.0
 11
-204.66435
 21
182.677555
 31
0.0
  0
LINE
  5
3A2
100
AcDbEntity
  8
LY_1
390
0
  6
CONTINUOUS
 62
     7
100
AcDbLine
 10
-264.39322
 20
186.293156
 30
0.0
 11
-264.39322
 21
187.903171
 31
0.0
  0
LINE
  5
3A3
100
AcDbEntity
  8
LY_1
390
0
  6
CONTINUOUS
 62
     7
100
AcDbLine
 10
-264.39322
 20
186.293156
 30
0.0
 11
-262.24322
 21
186.293156
 31
0.0
  0
LINE
  5
3A4
100
AcDbEntity
  8
LY_1
390
0
  6
CONTINUOUS
 62
     7
100
AcDbLine
 10
-264.39322
 20
186.583171
 30
0.0
 11
-270.87322
 21
186.583171
 31
0.0
  0
LINE
  5
3A5
100
AcDbEntity
  8
LY_1
390
0
  6
CONTINUOUS
 62
   255
100
AcDbLine
 10
-195.69322
 20
187.016353
 30
0.0
 11
-195.49322
 21
187.016353
 31
0.0
  0
LINE
  5
3A6
100
AcDbEntity
  8
LY_1
390
0
  6
CONTINUOUS
 62
     7
100
AcDbLine
 10
-261.99322
 20
187.903171
 30
0.0
 11
-264.39322
 21
187.903171
 31
0.0
  0
LINE
  5
3A7
100
AcDbEntity
  8
LY_1
390
0
  6
CONTINUOUS
 62
   254
100
AcDbLine
 10
-206.459038
 20
184.014176
 30
0.0
 11
-206.182539
 21
183.967573
 31
0.0
  0
LINE
  5
3A8
100
AcDbEntity
  8
LY_1
390
0
  6
CONTINUOUS
 62
     7
100
AcDbLine
 10
-261.99322
 20
185.092792
 30
0.0
 11
-261.99322
 21
187.903171
 31
0.0
  0
LINE
  5
3A9
100
AcDbEntity
  8
LY_1
390
0
  6
CONTINUOUS
 62
   254
100
AcDbLine
 10
-257.69322
 20
251.883171
 30
0.0
 11
-257.69322
 21
232.883171
 31
0.0
  0
LINE
  5
3AA
100
AcDbEntity
  8
LY_1
390
0
  6
CONTINUOUS
 62
     7
100
AcDbLine
 10
-257.19322
 20
232.883171
 30
0.0
 11
-257.19322
 21
252.383171
 31
0.0
  0
LINE
  5
3AB
100
AcDbEntity
  8
LY_1
390
0
  6
CONTINUOUS
 62
     7
100
AcDbLine
 10
-195.69322
 20
195.383171
 30
0.0
 11
-195.93322
 21
195.383171
 31
0.0
  0
LINE
  5
3AC
100
AcDbEntity
  8
LY_1
390
0
  6
CONTINUOUS
 62
     7
100
AcDbLine
 10
-204.19322
 20
195.433171
 30
0.0
 11
-202.94322
 21
195.433171
 31
0.0
  0
LINE
  5
3AD
100
AcDbEntity
  8
LY_1
390
0
  6
CONTINUOUS
 62
     7
100
AcDbLine
 10
-204.19322
 20
195.54002
 30
0.0
 11
-202.99322
 21
195.54002
 31
0.0
  0
LINE
  5
3AE
100
AcDbEntity
  8
LY_1
390
0
  6
CONTINUOUS
 62
   254
100
AcDbLine
 10
-197.69322
 20
195.783171
 30
0.0
 11
-200.69322
 21
195.783171
 31
0.0
  0
LINE
  5
3AF
100
AcDbEntity
  8
LY_1
390
0
  6
CONTINUOUS
 62
   254
100
AcDbLine
 10
-199.09322
 20
196.283171
 30
0.0
 11
-200.69322
 21
196.283171
 31
0.0
  0
LINE
  5
3B0
100
AcDbEntity
  8
LY_1
390
0
  6
CONTINUOUS
 62
     7
100
AcDbLine
 10
-252.74322
 20
182.583171
 30
0.0
 11
-252.74322
 21
185.092792
 31
0.0
  0
LINE
  5
3B1
100
AcDbEntity
  8
LY_1
390
0
  6
CONTINUOUS
 62
   254
100
AcDbLine
 10
-197.69322
 20
197.783171
 30
0.0
 11
-198.59322
 21
197.783171
 31
0.0
  0
LINE
  5
3B2
100
AcDbEntity
  8
LY_1
390
0
  6
CONTINUOUS
 62
   255
100
AcDbLine
 10
-202.99322
 20
197.955173
 30
0.0
 11
-204.19322
 21
197.955173
 31
0.0
  0
LINE
  5
3B3
100
AcDbEntity
  8
LY_1
390
0
  6
CONTINUOUS
 62
     7
100
AcDbLine
 10
-202.94322
 20
198.083171
 30
0.0
 11
-202.99322
 21
198.083171
 31
0.0
  0
LINE
  5
3B4
100
AcDbEntity
  8
LY_1
390
0
  6
CONTINUOUS
 62
     7
100
AcDbLine
 10
-201.19322
 20
200.158171
 30
0.0
 11
-200.69322
 21
200.158171
 31
0.0
  0
LINE
  5
3B5
100
AcDbEntity
  8
LY_1
390
0
  6
CONTINUOUS
 62
     7
100
AcDbLine
 10
-201.19322
 20
200.183171
 30
0.0
 11
-200.69322
 21
200.183171
 31
0.0
  0
LINE
  5
3B6
100
AcDbEntity
  8
LY_1
390
0
  6
CONTINUOUS
 62
     7
100
AcDbLine
 10
-248.04322
 20
182.583216
 30
0.0
 11
-248.04322
 21
184.177934
 31
0.0
  0
LINE
  5
3B7
100
AcDbEntity
  8
LY_1
390
0
  6
CONTINUOUS
 62
     7
100
AcDbLine
 10
-247.69322
 20
182.583171
 30
0.0
 11
-247.69322
 21
188.084274
 31
0.0
  0
LINE
  5
3B8
100
AcDbEntity
  8
LY_1
390
0
  6
CONTINUOUS
 62
   254
100
AcDbLine
 10
-247.69322
 20
232.883171
 30
0.0
 11
-247.69322
 21
252.383171
 31
0.0
  0
LINE
  5
3B9
100
AcDbEntity
  8
LY_1
390
0
  6
CONTINUOUS
 62
   254
100
AcDbLine
 10
-195.49322
 20
195.283171
 30
0.0
 11
-197.69322
 21
195.783171
 31
0.0
  0
LINE
  5
3BA
100
AcDbEntity
  8
LY_1
390
0
  6
CONTINUOUS
 62
   254
100
AcDbLine
 10
-200.69322
 20
207.082474
 30
0.0
 11
-195.99322
 21
207.082474
 31
0.0
  0
LINE
  5
3BB
100
AcDbEntity
  8
LY_1
390
0
  6
CONTINUOUS
 62
     7
100
AcDbLine
 10
-204.99322
 20
207.983171
 30
0.0
 11
-204.19322
 21
207.983171
 31
0.0
  0
LINE
  5
3BC
100
AcDbEntity
  8
LY_1
390
0
  6
CONTINUOUS
 62
     7
100
AcDbLine
 10
-204.19322
 20
214.183171
 30
0.0
 11
-204.99322
 21
214.183171
 31
0.0
  0
LINE
  5
3BD
100
AcDbEntity
  8
LY_1
390
0
  6
CONTINUOUS
 62
   254
100
AcDbLine
 10
-195.99322
 20
215.082474
 30
0.0
 11
-200.69322
 21
215.082474
 31
0.0
  0
LINE
  5
3BE
100
AcDbEntity
  8
LY_1
390
0
  6
CONTINUOUS
 62
     7
100
AcDbLine
 10
-200.69322
 20
221.983171
 30
0.0
 11
-201.19322
 21
221.983171
 31
0.0
  0
LINE
  5
3BF
100
AcDbEntity
  8
LY_1
390
0
  6
CONTINUOUS
 62
     7
100
AcDbLine
 10
-201.19322
 20
222.008171
 30
0.0
 11
-200.69322
 21
222.008171
 31
0.0
  0
LINE
  5
3C0
100
AcDbEntity
  8
LY_1
390
0
  6
CONTINUOUS
 62
     7
100
AcDbLine
 10
-202.99322
 20
224.083171
 30
0.0
 11
-202.94322
 21
224.083171
 31
0.0
  0
LINE
  5
3C1
100
AcDbEntity
  8
LY_1
390
0
  6
CONTINUOUS
 62
   255
100
AcDbLine
 10
-204.19322
 20
224.208496
 30
0.0
 11
-202.99322
 21
224.208496
 31
0.0
  0
LINE
  5
3C2
100
AcDbEntity
  8
LY_1
390
0
  6
CONTINUOUS
 62
     7
100
AcDbLine
 10
-202.99322
 20
226.628996
 30
0.0
 11
-204.19322
 21
226.628996
 31
0.0
  0
LINE
  5
3C3
100
AcDbEntity
  8
LY_1
390
0
  6
CONTINUOUS
 62
     7
100
AcDbLine
 10
-202.94322
 20
226.733171
 30
0.0
 11
-204.19322
 21
226.733171
 31
0.0
  0
LWPOLYLINE
  5
3C4
100
AcDbEntity
  8
LY_1
390
0
  6
CONTINUOUS
 62
   254
100
AcDbPolyline
 90
       15
 70
     0
 10
-219.813107
 20
183.820248
 10
-219.813105
 20
183.820226
 10
-219.762761
 20
183.838084
 10
-219.641945
 20
183.873152
 10
-219.458898
 20
183.916992
 10
-219.219508
 20
183.964942
 10
-218.927402
 20
184.014176
 10
-218.584644
 20
184.062768
 10
-218.193333
 20
184.109046
 10
-217.755417
 20
184.151522
 10
-217.273992
 20
184.188677
 10
-216.75322
 20
184.219041
 10
-216.197952
 20
184.241237
 10
-215.614079
 20
184.254009
 10
-215.19322
 20
184.256692
  0
LINE
  5
3C5
100
AcDbEntity
  8
LY_1
390
0
  6
CONTINUOUS
 62
   254
100
AcDbLine
 10
-197.732639
 20
228.683171
 30
0.0
 11
-195.69322
 21
228.683171
 31
0.0
  0
LINE
  5
3C6
100
AcDbEntity
  8
LY_1
390
0
  6
CONTINUOUS
 62
   254
100
AcDbLine
 10
-200.69322
 20
229.483171
 30
0.0
 11
-200.343116
 21
229.483171
 31
0.0
  0
LINE
  5
3C7
100
AcDbEntity
  8
LY_1
390
0
  6
CONTINUOUS
 62
   254
100
AcDbLine
 10
-195.49322
 20
231.483171
 30
0.0
 11
-200.69322
 21
231.483171
 31
0.0
  0
LINE
  5
3C8
100
AcDbEntity
  8
LY_1
390
0
  6
CONTINUOUS
 62
   254
100
AcDbLine
 10
-272.74322
 20
232.883171
 30
0.0
 11
-214.19322
 21
232.883171
 31
0.0
  0
LINE
  5
3C9
100
AcDbEntity
  8
LY_1
390
0
  6
CONTINUOUS
 62
   254
100
AcDbLine
 10
-195.69322
 20
195.383171
 30
0.0
 11
-197.69322
 21
197.783171
 31
0.0
  0
LINE
  5
3CA
100
AcDbEntity
  8
LY_1
390
0
  6
CONTINUOUS
 62
   255
100
AcDbLine
 10
-215.19322
 20
184.256687
 30
0.0
 11
-215.19322
 21
184.273706
 31
0.0
  0
LINE
  5
3CB
100
AcDbEntity
  8
LY_1
390
0
  6
CONTINUOUS
 62
   254
100
AcDbLine
 10
-195.49322
 20
237.883171
 30
0.0
 11
-200.964463
 21
237.883171
 31
0.0
  0
LWPOLYLINE
  5
3CC
100
AcDbEntity
  8
LY_1
390
0
  6
CONTINUOUS
 62
     7
100
AcDbPolyline
 90
       12
 70
     0
 10
-206.182534
 20
183.967517
 10
-206.173065
 20
183.856469
 10
-206.116714
 20
183.636539
 10
-206.029947
 20
183.436761
 10
-205.918387
 20
183.259707
 10
-205.787346
 20
183.106886
 10
-205.641629
 20
182.978838
 10
-205.485439
 20
182.87537
 10
-205.323302
 20
182.796171
 10
-205.16355
 20
182.741257
 10
-205.015924
 20
182.708146
 10
-204.893293
 20
182.691666
  0
LWPOLYLINE
  5
3CD
100
AcDbEntity
  8
LY_1
390
0
  6
CONTINUOUS
 62
     7
100
AcDbPolyline
 90
       13
 70
     0
 10
-206.182555
 20
183.967521
 10
-206.173223
 20
183.857394
 10
-206.117133
 20
183.637757
 10
-206.030697
 20
183.438176
 10
-205.919508
 20
183.261225
 10
-205.788857
 20
183.108415
 10
-205.643534
 20
182.980294
 10
-205.487726
 20
182.876677
 10
-205.325915
 20
182.79725
 10
-205.16636
 20
182.742044
 10
-205.01871
 20
182.708628
 10
-204.89572
 20
182.691911
 10
-204.786027
 20
182.683262
  0
LINE
  5
3CE
100
AcDbEntity
  8
LY_1
390
0
  6
CONTINUOUS
 62
   254
100
AcDbLine
 10
-200.69322
 20
224.733171
 30
0.0
 11
-199.09322
 21
227.333171
 31
0.0
  0
LINE
  5
3CF
100
AcDbEntity
  8
LY_1
390
0
  6
CONTINUOUS
 62
     7
100
AcDbLine
 10
-201.19322
 20
221.983171
 30
0.0
 11
-202.99322
 21
223.983171
 31
0.0
  0
LINE
  5
3D0
100
AcDbEntity
  8
LY_1
390
0
  6
CONTINUOUS
 62
     7
100
AcDbLine
 10
-204.99322
 20
207.983171
 30
0.0
 11
-204.99322
 21
214.183171
 31
0.0
  0
LINE
  5
3D1
100
AcDbEntity
  8
LY_1
390
0
  6
CONTINUOUS
 62
     7
100
AcDbLine
 10
-204.19322
 20
195.433171
 30
0.0
 11
-204.19322
 21
226.733171
 31
0.0
  0
LINE
  5
3D2
100
AcDbEntity
  8
LY_1
390
0
  6
CONTINUOUS
 62
   255
100
AcDbLine
 10
-204.19322
 20
182.670405
 30
0.0
 11
-204.19322
 21
182.671292
 31
0.0
  0
LINE
  5
3D3
100
AcDbEntity
  8
LY_1
390
0
  6
CONTINUOUS
 62
     7
100
AcDbLine
 10
-202.99322
 20
226.628996
 30
0.0
 11
-202.99322
 21
223.983171
 31
0.0
  0
LINE
  5
3D4
100
AcDbEntity
  8
LY_1
390
0
  6
CONTINUOUS
 62
     7
100
AcDbLine
 10
-202.99322
 20
198.183171
 30
0.0
 11
-202.99322
 21
195.54002
 31
0.0
  0
LINE
  5
3D5
100
AcDbEntity
  8
LY_1
390
0
  6
CONTINUOUS
 62
     7
100
AcDbLine
 10
-202.94322
 20
195.433171
 30
0.0
 11
-202.94322
 21
198.083171
 31
0.0
  0
LINE
  5
3D6
100
AcDbEntity
  8
LY_1
390
0
  6
CONTINUOUS
 62
     7
100
AcDbLine
 10
-202.94322
 20
224.083171
 30
0.0
 11
-202.94322
 21
226.733171
 31
0.0
  0
LINE
  5
3D7
100
AcDbEntity
  8
LY_1
390
0
  6
CONTINUOUS
 62
     7
100
AcDbLine
 10
-201.19322
 20
222.008171
 30
0.0
 11
-202.94322
 21
224.083171
 31
0.0
  0
LINE
  5
3D8
100
AcDbEntity
  8
LY_1
390
0
  6
CONTINUOUS
 62
   254
100
AcDbLine
 10
-200.69322
 20
181.883171
 30
0.0
 11
-200.69322
 21
182.819273
 31
0.0
  0
LINE
  5
3D9
100
AcDbEntity
  8
LY_1
390
0
  6
CONTINUOUS
 62
   254
100
AcDbLine
 10
-200.69322
 20
195.783171
 30
0.0
 11
-200.69322
 21
207.082474
 31
0.0
  0
LINE
  5
3DA
100
AcDbEntity
  8
LY_1
390
0
  6
CONTINUOUS
 62
   254
100
AcDbLine
 10
-200.69322
 20
215.082474
 30
0.0
 11
-200.69322
 21
231.483171
 31
0.0
  0
LINE
  5
3DB
100
AcDbEntity
  8
LY_1
390
0
  6
CONTINUOUS
 62
   254
100
AcDbLine
 10
-257.19322
 20
252.383171
 30
0.0
 11
-247.69322
 21
252.383171
 31
0.0
  0
LINE
  5
3DC
100
AcDbEntity
  8
LY_1
390
0
  6
CONTINUOUS
 62
   254
100
AcDbLine
 10
-199.09322
 20
227.698134
 30
0.0
 11
-200.69322
 21
229.983171
 31
0.0
  0
LINE
  5
3DD
100
AcDbEntity
  8
LY_1
390
0
  6
CONTINUOUS
 62
     7
100
AcDbLine
 10
-199.09322
 20
196.283171
 30
0.0
 11
-199.09322
 21
195.783171
 31
0.0
  0
LINE
  5
3DE
100
AcDbEntity
  8
LY_1
390
0
  6
CONTINUOUS
 62
     7
100
AcDbLine
 10
-199.09322
 20
227.333171
 30
0.0
 11
-199.09322
 21
227.698134
 31
0.0
  0
LINE
  5
3DF
100
AcDbEntity
  8
LY_1
390
0
  6
CONTINUOUS
 62
   254
100
AcDbLine
 10
-195.99322
 20
215.082474
 30
0.0
 11
-195.99322
 21
207.082474
 31
0.0
  0
LINE
  5
3E0
100
AcDbEntity
  8
LY_1
390
0
  6
CONTINUOUS
 62
   254
100
AcDbLine
 10
-195.69322
 20
231.483171
 30
0.0
 11
-195.69322
 21
228.683171
 31
0.0
  0
LINE
  5
3E1
100
AcDbEntity
  8
LY_1
390
0
  6
CONTINUOUS
 62
     7
100
AcDbLine
 10
-195.69322
 20
195.383171
 30
0.0
 11
-195.69322
 21
195.328626
 31
0.0
  0
LINE
  5
3E2
100
AcDbEntity
  8
LY_1
390
0
  6
CONTINUOUS
 62
   254
100
AcDbLine
 10
-195.69322
 20
187.016353
 30
0.0
 11
-195.69322
 21
181.883171
 31
0.0
  0
LINE
  5
3E3
100
AcDbEntity
  8
LY_1
390
0
  6
CONTINUOUS
 62
     7
100
AcDbLine
 10
-202.94322
 20
198.083171
 30
0.0
 11
-201.19322
 21
200.158171
 31
0.0
  0
LINE
  5
3E4
100
AcDbEntity
  8
LY_1
390
0
  6
CONTINUOUS
 62
     7
100
AcDbLine
 10
-202.99322
 20
198.183171
 30
0.0
 11
-201.19322
 21
200.183171
 31
0.0
  0
LINE
  5
3E5
100
AcDbEntity
  8
LY_1
390
0
  6
CONTINUOUS
 62
   254
100
AcDbLine
 10
-199.69322
 20
231.483171
 30
0.0
 11
-197.732639
 21
228.683171
 31
0.0
  0
LINE
  5
3E6
100
AcDbEntity
  8
LY_1
390
0
  6
CONTINUOUS
 62
   254
100
AcDbLine
 10
-195.49322
 20
195.283171
 30
0.0
 11
-195.49322
 21
185.810944
 31
0.0
  0
LINE
  5
3E7
100
AcDbEntity
  8
LY_1
390
0
  6
CONTINUOUS
 62
   254
100
AcDbLine
 10
-195.49322
 20
231.483171
 30
0.0
 11
-195.49322
 21
237.883171
 31
0.0
  0
LINE
  5
3E8
100
AcDbEntity
  8
LY_1
390
0
  6
CONTINUOUS
 62
   254
100
AcDbLine
 10
-198.59322
 20
197.783171
 30
0.0
 11
-199.09322
 21
196.283171
 31
0.0
  0
LINE
  5
3E9
100
AcDbEntity
  8
LY_1
390
0
  6
CONTINUOUS
 62
     7
100
AcDbLine
 10
-367.930905
 20
131.12759
 30
0.0
 11
-367.930905
 21
132.25759
 31
0.0
  0
LINE
  5
3EA
100
AcDbEntity
  8
LY_1
390
0
  6
CONTINUOUS
 62
     7
100
AcDbLine
 10
-366.630905
 20
130.12759
 30
0.0
 11
-366.630905
 21
131.12759
 31
0.0
  0
LINE
  5
3EB
100
AcDbEntity
  8
LY_1
390
0
  6
CONTINUOUS
 62
     7
100
AcDbLine
 10
-358.930905
 20
134.37759
 30
0.0
 11
-358.930905
 21
133.268483
 31
0.0
  0
LINE
  5
3EC
100
AcDbEntity
  8
LY_1
390
0
  6
CONTINUOUS
 62
     7
100
AcDbLine
 10
-327.430905
 20
134.363198
 30
0.0
 11
-327.430905
 21
133.75616
 31
0.0
  0
LINE
  5
3ED
100
AcDbEntity
  8
LY_1
390
0
  6
CONTINUOUS
 62
     7
100
AcDbLine
 10
-326.180905
 20
133.677908
 30
0.0
 11
-326.180905
 21
133.87759
 31
0.0
  0
LINE
  5
3EE
100
AcDbEntity
  8
LY_1
390
0
  6
CONTINUOUS
 62
     7
100
AcDbLine
 10
-323.180905
 20
133.87759
 30
0.0
 11
-323.180905
 21
133.460289
 31
0.0
  0
LINE
  5
3EF
100
AcDbEntity
  8
LY_1
390
0
  6
CONTINUOUS
 62
     7
100
AcDbLine
 10
-321.930905
 20
133.327882
 30
0.0
 11
-321.930905
 21
134.182258
 31
0.0
  0
LINE
  5
3F0
100
AcDbEntity
  8
LY_1
390
0
  6
CONTINUOUS
 62
   254
100
AcDbLine
 10
-320.930905
 20
133.268483
 30
0.0
 11
-320.930905
 21
134.37759
 31
0.0
  0
LINE
  5
3F1
100
AcDbEntity
  8
LY_1
390
0
  6
CONTINUOUS
 62
     7
100
AcDbLine
 10
-313.330905
 20
131.12759
 30
0.0
 11
-313.330905
 21
130.25759
 31
0.0
  0
LINE
  5
3F2
100
AcDbEntity
  8
LY_1
390
0
  6
CONTINUOUS
 62
     7
100
AcDbLine
 10
-311.930905
 20
130.644551
 30
0.0
 11
-311.930905
 21
127.874551
 31
0.0
  0
LINE
  5
3F3
100
AcDbEntity
  8
LY_1
390
0
  6
CONTINUOUS
 62
     7
100
AcDbLine
 10
-311.930905
 20
131.12759
 30
0.0
 11
-311.930905
 21
132.25759
 31
0.0
  0
LINE
  5
3F4
100
AcDbEntity
  8
LY_1
390
0
  6
CONTINUOUS
 62
     7
100
AcDbLine
 10
-311.230905
 20
132.274551
 30
0.0
 11
-311.230905
 21
130.644551
 31
0.0
  0
LINE
  5
3F5
100
AcDbEntity
  8
LY_1
390
0
  6
CONTINUOUS
 62
     7
100
AcDbLine
 10
-311.930905
 20
127.874551
 30
0.0
 11
-312.029326
 21
127.874551
 31
0.0
  0
LINE
  5
3F6
100
AcDbEntity
  8
LY_1
390
0
  6
CONTINUOUS
 62
     7
100
AcDbLine
 10
-366.630905
 20
130.12759
 30
0.0
 11
-366.230905
 21
130.12759
 31
0.0
  0
LINE
  5
3F7
100
AcDbEntity
  8
LY_1
390
0
  6
CONTINUOUS
 62
     7
100
AcDbLine
 10
-313.330905
 20
130.25759
 30
0.0
 11
-314.030905
 21
130.25759
 31
0.0
  0
LINE
  5
3F8
100
AcDbEntity
  8
LY_1
390
0
  6
CONTINUOUS
 62
     7
100
AcDbLine
 10
-321.830905
 20
130.25759
 30
0.0
 11
-322.830905
 21
130.25759
 31
0.0
  0
LINE
  5
3F9
100
AcDbEntity
  8
LY_1
390
0
  6
CONTINUOUS
 62
     7
100
AcDbLine
 10
-330.630905
 20
130.25759
 30
0.0
 11
-331.630905
 21
130.25759
 31
0.0
  0
LINE
  5
3FA
100
AcDbEntity
  8
LY_1
390
0
  6
CONTINUOUS
 62
     7
100
AcDbLine
 10
-339.430905
 20
130.25759
 30
0.0
 11
-340.430905
 21
130.25759
 31
0.0
  0
LINE
  5
3FB
100
AcDbEntity
  8
LY_1
390
0
  6
CONTINUOUS
 62
     7
100
AcDbLine
 10
-348.230905
 20
130.25759
 30
0.0
 11
-349.230905
 21
130.25759
 31
0.0
  0
LINE
  5
3FC
100
AcDbEntity
  8
LY_1
390
0
  6
CONTINUOUS
 62
     7
100
AcDbLine
 10
-357.030905
 20
130.25759
 30
0.0
 11
-358.030905
 21
130.25759
 31
0.0
  0
LINE
  5
3FD
100
AcDbEntity
  8
LY_1
390
0
  6
CONTINUOUS
 62
     7
100
AcDbLine
 10
-311.230905
 20
130.644551
 30
0.0
 11
-312.04383
 21
130.644551
 31
0.0
  0
LINE
  5
3FE
100
AcDbEntity
  8
LY_1
390
0
  6
CONTINUOUS
 62
     7
100
AcDbLine
 10
-367.930905
 20
131.12759
 30
0.0
 11
-366.630905
 21
131.12759
 31
0.0
  0
LINE
  5
3FF
100
AcDbEntity
  8
LY_1
390
0
  6
CONTINUOUS
 62
     7
100
AcDbLine
 10
-313.330905
 20
131.12759
 30
0.0
 11
-311.930905
 21
131.12759
 31
0.0
  0
LINE
  5
400
100
AcDbEntity
  8
LY_1
390
0
  6
CONTINUOUS
 62
     7
100
AcDbLine
 10
-311.230905
 20
132.274551
 30
0.0
 11
-311.930905
 21
132.274551
 31
0.0
  0
LINE
  5
401
100
AcDbEntity
  8
LY_1
390
0
  6
CONTINUOUS
 62
     7
100
AcDbLine
 10
-320.930905
 20
134.37759
 30
0.0
 11
-321.955327
 21
134.37759
 31
0.0
  0
LINE
  5
402
100
AcDbEntity
  8
LY_1
390
0
  6
CONTINUOUS
 62
   254
100
AcDbLine
 10
-327.430905
 20
134.37759
 30
0.0
 11
-358.930905
 21
134.37759
 31
0.0
  0
LINE
  5
403
100
AcDbEntity
  8
LY_1
390
0
  6
CONTINUOUS
 62
     7
100
AcDbLine
 10
-325.680905
 20
134.37759
 30
0.0
 11
-323.680905
 21
134.37759
 31
0.0
  0
ARC
  5
404
100
AcDbEntity
  8
LY_1
390
0
  6
CONTINUOUS
 62
     7
100
AcDbCircle
 10
-367.430382
 20
185.839798
 30
0.0
 40
0.500593
100
AcDbArc
 50
199.643183
 51
211.59588
  0
ARC
  5
405
100
AcDbEntity
  8
LY_1
390
0
  6
CONTINUOUS
 62
     7
100
AcDbCircle
 10
-367.430554
 20
185.839673
 30
0.0
 40
0.500381
100
AcDbArc
 50
211.594035
 51
219.260727
  0
ARC
  5
406
100
AcDbEntity
  8
LY_1
390
0
  6
CONTINUOUS
 62
     7
100
AcDbCircle
 10
-367.430905
 20
185.839499
 30
0.0
 40
0.5
100
AcDbArc
 50
180.0
 51
199.631058
  0
ARC
  5
407
100
AcDbEntity
  8
LY_1
390
0
  6
CONTINUOUS
 62
     7
100
AcDbCircle
 10
-367.430905
 20
185.839499
 30
0.0
 40
0.5
100
AcDbArc
 50
211.598126
 51
219.270726
  0
CIRCLE
  5
408
100
AcDbEntity
  8
LY_1
390
0
  6
CONTINUOUS
 62
     7
100
AcDbCircle
 10
-361.930905
 20
192.583171
 30
0.0
 40
3.8
  0
CIRCLE
  5
409
100
AcDbEntity
  8
LY_1
390
0
  6
CONTINUOUS
 62
     7
100
AcDbCircle
 10
-361.930905
 20
192.583171
 30
0.0
 40
3.25
  0
ARC
  5
40A
100
AcDbEntity
  8
LY_1
390
0
  6
CONTINUOUS
 62
   254
100
AcDbCircle
 10
-360.430905
 20
247.383171
 30
0.0
 40
5.0
100
AcDbArc
 50
90.0
 51
180.0
  0
ARC
  5
40B
100
AcDbEntity
  8
LY_1
390
0
  6
CONTINUOUS
 62
   254
100
AcDbCircle
 10
-367.430905
 20
237.383171
 30
0.0
 40
0.5
100
AcDbArc
 50
90.0
 51
180.0
  0
CIRCLE
  5
40C
100
AcDbEntity
  8
LY_1
390
0
  6
CONTINUOUS
 62
     7
100
AcDbCircle
 10
-353.130905
 20
192.583171
 30
0.0
 40
3.8
  0
CIRCLE
  5
40D
100
AcDbEntity
  8
LY_1
390
0
  6
CONTINUOUS
 62
     7
100
AcDbCircle
 10
-344.330905
 20
192.583171
 30
0.0
 40
3.8
  0
CIRCLE
  5
40E
100
AcDbEntity
  8
LY_1
390
0
  6
CONTINUOUS
 62
     7
100
AcDbCircle
 10
-344.330905
 20
192.583171
 30
0.0
 40
3.25
  0
CIRCLE
  5
40F
100
AcDbEntity
  8
LY_1
390
0
  6
CONTINUOUS
 62
     7
100
AcDbCircle
 10
-353.130905
 20
192.583171
 30
0.0
 40
3.25
  0
CIRCLE
  5
410
100
AcDbEntity
  8
LY_1
390
0
  6
CONTINUOUS
 62
     7
100
AcDbCircle
 10
-345.930905
 20
205.183171
 30
0.0
 40
3.0
  0
CIRCLE
  5
411
100
AcDbEntity
  8
LY_1
390
0
  6
CONTINUOUS
 62
     7
100
AcDbCircle
 10
-357.930905
 20
205.183171
 30
0.0
 40
3.0
  0
CIRCLE
  5
412
100
AcDbEntity
  8
LY_1
390
0
  6
CONTINUOUS
 62
     7
100
AcDbCircle
 10
-352.430905
 20
239.383171
 30
0.0
 40
6.0
  0
ARC
  5
413
100
AcDbEntity
  8
LY_1
390
0
  6
CONTINUOUS
 62
   254
100
AcDbCircle
 10
-344.430905
 20
247.383171
 30
0.0
 40
5.0
100
AcDbArc
 50
25.841933
 51
90.0
  0
ARC
  5
414
100
AcDbEntity
  8
LY_1
390
0
  6
CONTINUOUS
 62
     7
100
AcDbCircle
 10
-352.930905
 20
233.383171
 30
0.0
 40
0.5
100
AcDbArc
 50
0.0
 51
90.0
  0
ARC
  5
415
100
AcDbEntity
  8
LY_1
390
0
  6
CONTINUOUS
 62
     7
100
AcDbCircle
 10
-312.431428
 20
185.839798
 30
0.0
 40
0.500593
100
AcDbArc
 50
328.40412
 51
340.356817
  0
ARC
  5
416
100
AcDbEntity
  8
LY_1
390
0
  6
CONTINUOUS
 62
     7
100
AcDbCircle
 10
-312.431256
 20
185.839673
 30
0.0
 40
0.500381
100
AcDbArc
 50
320.739273
 51
328.405965
  0
ARC
  5
417
100
AcDbEntity
  8
LY_1
390
0
  6
CONTINUOUS
 62
     7
100
AcDbCircle
 10
-312.430905
 20
185.839499
 30
0.0
 40
0.5
100
AcDbArc
 50
281.447292
 51
301.063581
  0
ARC
  5
418
100
AcDbEntity
  8
LY_1
390
0
  6
CONTINUOUS
 62
     7
100
AcDbCircle
 10
-312.430905
 20
185.839499
 30
0.0
 40
0.5
100
AcDbArc
 50
320.729274
 51
340.368942
  0
ARC
  5
419
100
AcDbEntity
  8
LY_1
390
0
  6
CONTINUOUS
 62
     7
100
AcDbCircle
 10
-329.970905
 20
210.883171
 30
0.0
 40
18.74
100
AcDbArc
 50
346.734971
 51
13.265029
  0
CIRCLE
  5
41A
100
AcDbEntity
  8
LY_1
390
0
  6
CONTINUOUS
 62
     7
100
AcDbCircle
 10
-335.530905
 20
192.583171
 30
0.0
 40
3.8
  0
CIRCLE
  5
41B
100
AcDbEntity
  8
LY_1
390
0
  6
CONTINUOUS
 62
     7
100
AcDbCircle
 10
-335.530905
 20
192.583171
 30
0.0
 40
3.25
  0
CIRCLE
  5
41C
100
AcDbEntity
  8
LY_1
390
0
  6
CONTINUOUS
 62
     7
100
AcDbCircle
 10
-333.930905
 20
205.183171
 30
0.0
 40
3.0
  0
ARC
  5
41D
100
AcDbEntity
  8
LY_1
390
0
  6
CONTINUOUS
 62
   254
100
AcDbCircle
 10
-335.430905
 20
247.383171
 30
0.0
 40
5.0
100
AcDbArc
 50
90.0
 51
154.158067
  0
CIRCLE
  5
41E
100
AcDbEntity
  8
LY_1
390
0
  6
CONTINUOUS
 62
     7
100
AcDbCircle
 10
-326.730905
 20
192.583171
 30
0.0
 40
3.8
  0
CIRCLE
  5
41F
100
AcDbEntity
  8
LY_1
390
0
  6
CONTINUOUS
 62
     7
100
AcDbCircle
 10
-326.730905
 20
192.583171
 30
0.0
 40
3.25
  0
ARC
  5
420
100
AcDbEntity
  8
LY_1
390
0
  6
CONTINUOUS
 62
     7
100
AcDbCircle
 10
-323.930905
 20
205.183171
 30
0.0
 40
2.0
100
AcDbArc
 50
270.0
 51
90.0
  0
ARC
  5
421
100
AcDbEntity
  8
LY_1
390
0
  6
CONTINUOUS
 62
     7
100
AcDbCircle
 10
-327.930905
 20
205.183171
 30
0.0
 40
2.0
100
AcDbArc
 50
90.0
 51
270.0
  0
CIRCLE
  5
422
100
AcDbEntity
  8
LY_1
390
0
  6
CONTINUOUS
 62
     7
100
AcDbCircle
 10
-327.430905
 20
239.383171
 30
0.0
 40
6.0
  0
ARC
  5
423
100
AcDbEntity
  8
LY_1
390
0
  6
CONTINUOUS
 62
     7
100
AcDbCircle
 10
-326.930905
 20
233.383171
 30
0.0
 40
0.5
100
AcDbArc
 50
90.0
 51
180.0
  0
ARC
  5
424
100
AcDbEntity
  8
LY_1
390
0
  6
CONTINUOUS
 62
     7
100
AcDbCircle
 10
-339.930905
 20
381.583171
 30
0.0
 40
198.5
100
AcDbArc
 50
272.418109
 51
272.663698
  0
ARC
  5
425
100
AcDbEntity
  8
LY_1
390
0
  6
CONTINUOUS
 62
     7
100
AcDbCircle
 10
-339.930905
 20
381.583171
 30
0.0
 40
198.5
100
AcDbArc
 50
274.963662
 51
275.20998
  0
ARC
  5
426
100
AcDbEntity
  8
LY_1
390
0
  6
CONTINUOUS
 62
     7
100
AcDbCircle
 10
-339.930905
 20
381.583171
 30
0.0
 40
198.5
100
AcDbArc
 50
269.877326
 51
270.122674
  0
ARC
  5
427
100
AcDbEntity
  8
LY_1
390
0
  6
CONTINUOUS
 62
     7
100
AcDbCircle
 10
-339.930905
 20
381.583171
 30
0.0
 40
198.5
100
AcDbArc
 50
267.336302
 51
267.581891
  0
ARC
  5
428
100
AcDbEntity
  8
LY_1
390
0
  6
CONTINUOUS
 62
     7
100
AcDbCircle
 10
-339.930905
 20
381.583171
 30
0.0
 40
198.5
100
AcDbArc
 50
264.79002
 51
265.036338
  0
ARC
  5
429
100
AcDbEntity
  8
LY_1
390
0
  6
CONTINUOUS
 62
     7
100
AcDbCircle
 10
-339.930905
 20
381.583136
 30
0.0
 40
197.85
100
AcDbArc
 50
267.323483
 51
267.327545
  0
ARC
  5
42A
100
AcDbEntity
  8
LY_1
390
0
  6
CONTINUOUS
 62
     7
100
AcDbCircle
 10
-339.930905
 20
381.583136
 30
0.0
 40
197.85
100
AcDbArc
 50
272.672455
 51
272.676517
  0
ARC
  5
42B
100
AcDbEntity
  8
LY_1
390
0
  6
CONTINUOUS
 62
     7
100
AcDbCircle
 10
-339.930905
 20
381.583136
 30
0.0
 40
197.85
100
AcDbArc
 50
275.227145
 51
275.235104
  0
ARC
  5
42C
100
AcDbEntity
  8
LY_1
390
0
  6
CONTINUOUS
 62
     7
100
AcDbCircle
 10
-339.930905
 20
381.583171
 30
0.0
 40
197.0
100
AcDbArc
 50
261.828766
 51
278.171234
  0
ARC
  5
42D
100
AcDbEntity
  8
LY_1
390
0
  6
CONTINUOUS
 62
   254
100
AcDbCircle
 10
-339.930905
 20
321.645671
 30
0.0
 40
139.0625
100
AcDbArc
 50
258.552711
 51
281.447292
  0
ARC
  5
42E
100
AcDbEntity
  8
LY_1
390
0
  6
CONTINUOUS
 62
   254
100
AcDbCircle
 10
-319.430905
 20
247.383171
 30
0.0
 40
5.0
100
AcDbArc
 50
0.0
 51
90.0
  0
CIRCLE
  5
42F
100
AcDbEntity
  8
LY_1
390
0
  6
CONTINUOUS
 62
     7
100
AcDbCircle
 10
-317.930905
 20
192.583171
 30
0.0
 40
3.8
  0
ARC
  5
430
100
AcDbEntity
  8
LY_1
390
0
  6
CONTINUOUS
 62
     7
100
AcDbCircle
 10
-318.430905
 20
203.182817
 30
0.0
 40
3.400354
100
AcDbArc
 50
90.0
 51
180.0
  0
CIRCLE
  5
431
100
AcDbEntity
  8
LY_1
390
0
  6
CONTINUOUS
 62
     7
100
AcDbCircle
 10
-317.930905
 20
192.583171
 30
0.0
 40
3.25
  0
CIRCLE
  5
432
100
AcDbEntity
  8
LY_1
390
0
  6
CONTINUOUS
 62
     7
100
AcDbCircle
 10
-318.430905
 20
211.582817
 30
0.0
 40
2.499993
  0
CIRCLE
  5
433
100
AcDbEntity
  8
LY_1
390
0
  6
CONTINUOUS
 62
     7
100
AcDbCircle
 10
-318.430905
 20
211.483171
 30
0.0
 40
1.699668
  0
CIRCLE
  5
434
100
AcDbEntity
  8
LY_1
390
0
  6
CONTINUOUS
 62
     7
100
AcDbCircle
 10
-318.430905
 20
203.083171
 30
0.0
 40
1.699668
  0
ARC
  5
435
100
AcDbEntity
  8
LY_1
390
0
  6
CONTINUOUS
 62
   254
100
AcDbCircle
 10
-312.553133
 20
232.379665
 30
0.0
 40
0.503506
100
AcDbArc
 50
76.181009
 51
89.952453
  0
ARC
  5
436
100
AcDbEntity
  8
LY_1
390
0
  6
CONTINUOUS
 62
     7
100
AcDbCircle
 10
-312.552402
 20
232.383043
 30
0.0
 40
0.500049
100
AcDbArc
 50
0.014668
 51
76.169887
  0
ARC
  5
437
100
AcDbEntity
  8
LY_1
390
0
  6
CONTINUOUS
 62
   254
100
AcDbCircle
 10
-312.430905
 20
237.383171
 30
0.0
 40
0.5
100
AcDbArc
 50
0.0
 51
90.0
  0
ARC
  5
438
100
AcDbEntity
  8
LY_1
390
0
  6
CONTINUOUS
 62
   254
100
AcDbCircle
 10
-220.59322
 20
183.983171
 30
0.0
 40
1.4
100
AcDbArc
 50
270.0
 51
359.434822
  0
ARC
  5
439
100
AcDbEntity
  8
LY_1
390
0
  6
CONTINUOUS
 62
   255
100
AcDbCircle
 10
-204.798911
 20
184.922933
 30
0.0
 40
1.395945
100
AcDbArc
 50
230.499309
 51
233.634026
  0
ARC
  5
43A
100
AcDbEntity
  8
LY_1
390
0
  6
CONTINUOUS
 62
   254
100
AcDbCircle
 10
-214.19322
 20
252.883171
 30
0.0
 40
20.0
100
AcDbArc
 50
270.0
 51
311.409622
  0
ARC
  5
43B
100
AcDbEntity
  8
LY_1
390
0
  6
CONTINUOUS
 62
     7
100
AcDbCircle
 10
-365.830905
 20
130.617589
 30
0.0
 40
0.9
100
AcDbArc
 50
0.0
 51
0.008806
  0
ARC
  5
43C
100
AcDbEntity
  8
LY_1
390
0
  6
CONTINUOUS
 62
   254
100
AcDbCircle
 10
-339.930905
 20
-76.43291
 30
0.0
 40
212.7605
100
AcDbArc
 50
85.520487
 51
86.200287
  0
ARC
  5
43D
100
AcDbEntity
  8
LY_1
390
0
  6
CONTINUOUS
 62
   254
100
AcDbCircle
 10
-339.930905
 20
-76.433078
 30
0.0
 40
210.560668
100
AcDbArc
 50
82.358269
 51
97.641731
  0
ARC
  5
43E
100
AcDbEntity
  8
LY_1
390
0
  6
CONTINUOUS
 62
     7
100
AcDbCircle
 10
-339.890012
 20
-75.804297
 30
0.0
 40
209.948848
100
AcDbArc
 50
82.347127
 51
89.996205
  0
ARC
  5
43F
100
AcDbEntity
  8
LY_1
390
0
  6
CONTINUOUS
 62
     7
100
AcDbCircle
 10
-339.864685
 20
-75.778681
 30
0.0
 40
209.923232
100
AcDbArc
 50
90.003117
 51
97.170601
  0
ARC
  5
440
100
AcDbEntity
  8
LY_1
390
0
  6
CONTINUOUS
 62
     7
100
AcDbCircle
 10
-339.930905
 20
-76.433078
 30
0.0
 40
208.560668
100
AcDbArc
 50
87.719222
 51
89.86264
  0
ARC
  5
441
100
AcDbEntity
  8
LY_1
390
0
  6
CONTINUOUS
 62
     7
100
AcDbCircle
 10
-339.930905
 20
-76.433078
 30
0.0
 40
208.560668
100
AcDbArc
 50
85.297009
 51
87.444257
  0
ARC
  5
442
100
AcDbEntity
  8
LY_1
390
0
  6
CONTINUOUS
 62
     7
100
AcDbCircle
 10
-339.930905
 20
-76.433078
 30
0.0
 40
208.560668
100
AcDbArc
 50
90.13736
 51
92.280778
  0
ARC
  5
443
100
AcDbEntity
  8
LY_1
390
0
  6
CONTINUOUS
 62
     7
100
AcDbCircle
 10
-339.930905
 20
-76.433078
 30
0.0
 40
208.560668
100
AcDbArc
 50
92.555743
 51
94.702991
  0
ARC
  5
444
100
AcDbEntity
  8
LY_1
390
0
  6
CONTINUOUS
 62
     7
100
AcDbCircle
 10
-339.930905
 20
-76.433078
 30
0.0
 40
208.560668
100
AcDbArc
 50
82.866337
 51
85.021306
  0
ARC
  5
445
100
AcDbEntity
  8
LY_1
390
0
  6
CONTINUOUS
 62
     7
100
AcDbCircle
 10
-339.930905
 20
-76.433078
 30
0.0
 40
208.560668
100
AcDbArc
 50
94.978694
 51
97.133663
  0
ARC
  5
446
100
AcDbEntity
  8
LY_1
390
0
  6
CONTINUOUS
 62
   254
100
AcDbCircle
 10
-323.430905
 20
134.182258
 30
0.0
 40
1.5
100
AcDbArc
 50
0.0
 51
85.520487
  0
ARC
  5
447
100
AcDbEntity
  8
LY_1
390
0
  6
CONTINUOUS
 62
   254
100
AcDbCircle
 10
-325.930905
 20
134.363198
 30
0.0
 40
1.5
100
AcDbArc
 50
86.200287
 51
180.0
  0
ARC
  5
448
100
AcDbEntity
  8
LY_1
390
0
  6
CONTINUOUS
 62
     7
100
AcDbCircle
 10
-325.680905
 20
133.87759
 30
0.0
 40
0.5
100
AcDbArc
 50
90.0
 51
180.0
  0
ARC
  5
449
100
AcDbEntity
  8
LY_1
390
0
  6
CONTINUOUS
 62
     7
100
AcDbCircle
 10
-323.680905
 20
133.87759
 30
0.0
 40
0.5
100
AcDbArc
 50
0.0
 51
90.0
  0
SPLINE
  5
44A
100
AcDbEntity
  8
LY_1
390
0
  6
CONTINUOUS
 62
     7
100
AcDbSpline
210
0.0
220
0.0
230
1.0
 70
     0
 71
     3
 72
     0
 73
     0
 74
    16
 44
0.000001
 12
-0.9800907421986552
 22
0.1985500870221143
 32
0.0
 13
-0.8568106325235065
 23
0.5156312054120354
 33
0.0
 11
-367.53013118403567
 21
185.34944380238846
 31
0.0
 11
-367.54124502989083
 21
185.3518297136163
 31
0.0
 11
-367.55231877777572
 21
185.35447725196309
 31
0.0
 11
-367.56334422982928
 21
185.35738311932369
 31
0.0
 11
-367.57431318819062
 21
185.3605440175931
 31
0.0
 11
-367.58521745499866
 21
185.36395664866626
 31
0.0
 11
-367.59604883239251
 21
185.36761771443807
 31
0.0
 11
-367.60679912251112
 21
185.37152391680348
 31
0.0
 11
-367.61746012749359
 21
185.37567195765746
 31
0.0
 11
-367.62802364947891
 21
185.3800585388949
 31
0.0
 11
-367.63848149060607
 21
185.38468036241068
 31
0.0
 11
-367.64882545301413
 21
185.38953413009986
 31
0.0
 11
-367.65904733884207
 21
185.3946165438573
 31
0.0
 11
-367.66913895022901
 21
185.39992430557788
 31
0.0
 11
-367.67909208931383
 21
185.40545411715664
 31
0.0
 11
-367.68889855823568
 21
185.41120268048849
 31
0.0
  0
SPLINE
  5
44B
100
AcDbEntity
  8
LY_1
390
0
  6
CONTINUOUS
 62
   254
100
AcDbSpline
210
0.0
220
0.0
230
1.0
 70
     0
 71
     3
 72
     0
 73
     0
 74
    16
 44
0.000001
 12
-0.8567248999431806
 22
0.5157736381566503
 32
0.0
 13
-0.6330577389928154
 23
0.7741045789176708
 33
0.0
 11
-367.68889855823568
 21
185.41120268048849
 31
0.0
 11
-367.69859185349407
 21
185.41719321354446
 31
0.0
 11
-367.70815876519356
 21
185.4234184598856
 31
0.0
 11
-367.71759260718045
 21
185.42987248931169
 31
0.0
 11
-367.72688669330131
 21
185.43654937162259
 31
0.0
 11
-367.73603433740237
 21
185.4434431766181
 31
0.0
 11
-367.7450288533301
 21
185.4505479740981
 31
0.0
 11
-367.75386355493089
 21
185.45785783386233
 31
0.0
 11
-367.76253175605115
 21
185.46536682571065
 31
0.0
 11
-367.77102677053728
 21
185.4730690194429
 31
0.0
 11
-367.77934191223568
 21
185.48095848485886
 31
0.0
 11
-367.78747049499276
 21
185.48902929175836
 31
0.0
 11
-367.79540583265486
 21
185.49727550994129
 31
0.0
 11
-367.80314123906851
 21
185.50569120920738
 31
0.0
 11
-367.81067002807993
 21
185.51427045935651
 31
0.0
 11
-367.81798551353569
 21
185.52300733018848
 31
0.0
  0
SPLINE
  5
44C
100
AcDbEntity
  8
LY_1
390
0
  6
CONTINUOUS
 62
     7
100
AcDbSpline
210
0.0
220
0.0
230
1.0
 70
     0
 71
     3
 72
     0
 73
     0
 74
    16
 44
0.000001
 12
-0.3355538355359655
 22
0.9420210313241962
 32
0.0
 13
-0.0000857734870266
 23
0.9999999963214544
 33
0.0
 11
-367.90184191383571
 21
185.67151820658847
 31
0.0
 11
-367.90553503727648
 21
185.68227732197633
 31
0.0
 11
-367.90898436150076
 21
185.69313698059531
 31
0.0
 11
-367.91218827116126
 21
185.70408847574848
 31
0.0
 11
-367.91514515091086
 21
185.71512310073899
 31
0.0
 11
-367.91785338540234
 21
185.72623214886997
 31
0.0
 11
-367.92031135928846
 21
185.73740691344449
 31
0.0
 11
-367.92251745722206
 21
185.74863868776566
 31
0.0
 11
-367.92447006385595
 21
185.75991876513663
 31
0.0
 11
-367.92616756384285
 21
185.77123843886045
 31
0.0
 11
-367.92760834183571
 21
185.78258900224034
 31
0.0
 11
-367.92879078248711
 21
185.79396174857931
 31
0.0
 11
-367.92971327045007
 21
185.80534797118048
 31
0.0
 11
-367.93037419037728
 21
185.81673896334698
 31
0.0
 11
-367.93077192692152
 21
185.82812601838197
 31
0.0
 11
-367.93090486473568
 21
185.83950042958847
 31
0.0
  0
SPLINE
  5
44D
100
AcDbEntity
  8
LY_1
390
0
  6
CONTINUOUS
 62
     7
100
AcDbSpline
210
0.0
220
0.0
230
1.0
 70
     0
 71
     3
 72
     0
 73
     0
 74
    16
 44
0.000001
 12
-0.0000857734745474
 22
-0.9999999963214555
 32
0.0
 13
-0.3355538355273807
 23
-0.9420210313272541
 33
0.0
 11
-311.93090486473568
 21
185.83950042958847
 31
0.0
 11
-311.93103780254853
 21
185.82812601838197
 31
0.0
 11
-311.93143553908919
 21
185.81673896334701
 31
0.0
 11
-311.93209645901089
 21
185.80534797118048
 31
0.0
 11
-311.93301894696668
 21
185.79396174857928
 31
0.0
 11
-311.93420138760973
 21
185.78258900224031
 31
0.0
 11
-311.93564216559332
 21
185.77123843886048
 31
0.0
 11
-311.93733966557045
 21
185.7599187651366
 31
0.0
 11
-311.93929227219428
 21
185.74863868776569
 31
0.0
 11
-311.9414983701181
 21
185.73740691344449
 31
0.0
 11
-311.94395634399496
 21
185.72623214886994
 31
0.0
 11
-311.94666457847802
 21
185.71512310073899
 31
0.0
 11
-311.94962145822046
 21
185.70408847574848
 31
0.0
 11
-311.95282536787545
 21
185.69313698059528
 31
0.0
 11
-311.95627469209614
 21
185.6822773219763
 31
0.0
 11
-311.95996781553566
 21
185.67151820658847
 31
0.0
  0
SPLINE
  5
44E
100
AcDbEntity
  8
LY_1
390
0
  6
CONTINUOUS
 62
     7
100
AcDbSpline
210
0.0
220
0.0
230
1.0
 70
     0
 71
     3
 72
     0
 73
     0
 74
    16
 44
0.000001
 12
-0.6330577389928149
 22
-0.7741045789176712
 32
0.0
 13
-0.8567248999453829
 23
-0.5157736381529922
 33
0.0
 11
-312.04382421583568
 21
185.52300733018848
 31
0.0
 11
-312.05113970129139
 21
185.51427045935654
 31
0.0
 11
-312.05866849030286
 21
185.50569120920741
 31
0.0
 11
-312.06640389671645
 21
185.49727550994126
 31
0.0
 11
-312.07433923437861
 21
185.48902929175836
 31
0.0
 11
-312.08246781713569
 21
185.48095848485886
 31
0.0
 11
-312.0907829588341
 21
185.47306901944287
 31
0.0
 11
-312.09927797332023
 21
185.46536682571062
 31
0.0
 11
-312.10794617444049
 21
185.45785783386233
 31
0.0
 11
-312.11678087604128
 21
185.45054797409807
 31
0.0
 11
-312.125775391969
 21
185.44344317661813
 31
0.0
 11
-312.13492303607006
 21
185.43654937162256
 31
0.0
 11
-312.14421712219087
 21
185.42987248931166
 31
0.0
 11
-312.15365096417781
 21
185.42341845988557
 31
0.0
 11
-312.16321787587731
 21
185.41719321354444
 31
0.0
 11
-312.17291117113569
 21
185.41120268048849
 31
0.0
  0
SPLINE
  5
44F
100
AcDbEntity
  8
LY_1
390
0
  6
CONTINUOUS
 62
     7
100
AcDbSpline
210
0.0
220
0.0
230
1.0
 70
     0
 71
     3
 72
     0
 73
     0
 74
    16
 44
0.000001
 12
-0.8568106325322389
 22
-0.5156312053975251
 32
0.0
 13
-0.9800907421265814
 23
-0.198550087377888
 33
0.0
 11
-312.17291117113569
 21
185.41120268048849
 31
0.0
 11
-312.18271764005874
 21
185.40545411715667
 31
0.0
 11
-312.19267077914697
 21
185.39992430557794
 31
0.0
 11
-312.20276239053885
 21
185.3946165438573
 31
0.0
 11
-312.21298427637294
 21
185.3895341300998
 31
0.0
 11
-312.22332823878753
 21
185.38468036241071
 31
0.0
 11
-312.23378607992129
 21
185.38005853889487
 31
0.0
 11
-312.24434960191263
 21
185.37567195765743
 31
0.0
 11
-312.2550106069001
 21
185.37152391680348
 31
0.0
 11
-312.26576089702206
 21
185.36761771443807
 31
0.0
 11
-312.27659227441717
 21
185.36395664866623
 31
0.0
 11
-312.28749654122379
 21
185.3605440175931
 31
0.0
 11
-312.29846549958052
 21
185.35738311932366
 31
0.0
 11
-312.30949095162566
 21
185.35447725196303
 31
0.0
 11
-312.32056469949794
 21
185.3518297136163
 31
0.0
 11
-312.33167854533565
 21
185.34944380238846
 31
0.0
  0
SPLINE
  5
450
100
AcDbEntity
  8
LY_1
390
0
  6
CONTINUOUS
 62
     7
100
AcDbSpline
210
0.0
220
0.0
230
1.0
 70
     0
 71
     3
 72
     0
 73
     0
 74
    31
 44
0.000001
 12
-0.9999999547682509
 22
-0.0003007715016147
 32
0.0
 13
-0.0003080910698657
 23
-0.9999999525399452
 33
0.0
 11
-367.30909481583569
 21
232.88317123668847
 31
0.0
 11
-367.33513986727178
 21
232.88248074453188
 31
0.0
 11
-367.36117717747584
 21
232.88041815504062
 31
0.0
 11
-367.38712303882647
 21
232.876996798682
 31
0.0
 11
-367.41289374370223
 21
232.87223000592346
 31
0.0
 11
-367.43840558448164
 21
232.86613110723235
 31
0.0
 11
-367.46357485354315
 21
232.85871343307625
 31
0.0
 11
-367.48831784326541
 21
232.84999031392246
 31
0.0
 11
-367.51255151226206
 21
232.83997575993706
 31
0.0
 11
-367.53620633011809
 21
232.82869756528922
 31
0.0
 11
-367.55922534116559
 21
232.81619635300785
 31
0.0
 11
-367.58155206842423
 21
232.80251323448303
 31
0.0
 11
-367.60313003491376
 21
232.78768932110447
 31
0.0
 11
-367.62390276365392
 21
232.77176572426228
 31
0.0
 11
-367.64381377766443
 21
232.75478355534648
 31
0.0
 11
-367.66280660013251
 21
232.73678392591833
 31
0.0
 11
-367.68082751803809
 21
232.71781077533447
 31
0.0
 11
-367.69783259962293
 21
232.69791805072279
 31
0.0
 11
-367.71378007592341
 21
232.67716191209092
 31
0.0
 11
-367.72862817797613
 21
232.65559851944661
 31
0.0
 11
-367.74233513681747
 21
232.63328403279743
 31
0.0
 11
-367.75485918348403
 21
232.61027461215122
 31
0.0
 11
-367.76615854901223
 21
232.58662641751539
 31
0.0
 11
-367.77619216087305
 21
232.56239630229126
 31
0.0
 11
-367.78493290615876
 21
232.53765501854534
 31
0.0
 11
-367.7923665756087
 21
232.51248616564581
 31
0.0
 11
-367.79847944479178
 21
232.48697382567408
 31
0.0
 11
-367.80325778927698
 21
232.4612020807113
 31
0.0
 11
-367.80668788463339
 21
232.4352550128387
 31
0.0
 11
-367.80875600642992
 21
232.40921670413732
 31
0.0
 11
-367.8094484302357
 21
232.38317123668847
 31
0.0
  0
SPLINE
  5
451
100
AcDbEntity
  8
LY_1
390
0
  6
CONTINUOUS
 62
     7
100
AcDbSpline
210
0.0
220
0.0
230
1.0
 70
     0
 71
     3
 72
     0
 73
     0
 74
    26
 44
0.000001
 12
0.9996398485536924
 22
-0.0268360426209022
 32
0.0
 13
0.9983162002750514
 23
-0.0580065881463782
 33
0.0
 11
-327.68169180543566
 21
214.48422818528849
 31
0.0
 11
-327.44151507256936
 21
214.47767394718898
 31
0.0
 11
-327.20134394236675
 21
214.47090681315066
 31
0.0
 11
-326.96117888752775
 21
214.4639203266714
 31
0.0
 11
-326.72102038075241
 21
214.45670803124926
 31
0.0
 11
-326.48086889474064
 21
214.44926347038211
 31
0.0
 11
-326.24072490219254
 21
214.44158018756792
 31
0.0
 11
-326.00058887580803
 21
214.43365172630465
 31
0.0
 11
-325.7604612882871
 21
214.42547163009021
 31
0.0
 11
-325.52034261244307
 21
214.41703344133373
 31
0.0
 11
-325.28023336505555
 21
214.40833027999358
 31
0.0
 11
-325.04013417329116
 21
214.39935420537589
 31
0.0
 11
-324.80004568136451
 21
214.3900971129807
 31
0.0
 11
-324.55996853349006
 21
214.38055089830837
 31
0.0
 11
-324.31990337388248
 21
214.37070745685898
 31
0.0
 11
-324.07985084675636
 21
214.36055868413268
 31
0.0
 11
-323.83981159632617
 21
214.35009647562987
 31
0.0
 11
-323.59978626680663
 21
214.33931272685055
 31
0.0
 11
-323.35977556401866
 21
214.32819903177736
 31
0.0
 11
-323.11978060793189
 21
214.31674495744144
 31
0.0
 11
-322.879802689173
 21
214.30493923563483
 31
0.0
 11
-322.6398430989002
 21
214.29277059554744
 31
0.0
 11
-322.39990312827183
 21
214.28022776636919
 31
0.0
 11
-322.15998406844608
 21
214.26729947729007
 31
0.0
 11
-321.9200872105813
 21
214.25397445749982
 31
0.0
 11
-321.68021384583568
 21
214.24024143618848
 31
0.0
  0
SPLINE
  5
452
100
AcDbEntity
  8
LY_1
390
0
  6
CONTINUOUS
 62
     7
100
AcDbSpline
210
0.0
220
0.0
230
1.0
 70
     0
 71
     3
 72
     0
 73
     0
 74
    31
 44
0.000001
 12
-0.99831596912786
 22
-0.0580105661436061
 32
0.0
 13
-0.9996397589059266
 23
-0.0268393817831355
 33
0.0
 11
-321.68090490873567
 21
208.92532486728848
 31
0.0
 11
-321.88074887836365
 21
208.91385552048578
 31
0.0
 11
-322.0806092930552
 21
208.90267176087363
 31
0.0
 11
-322.28048535084935
 21
208.89176657846275
 31
0.0
 11
-322.48037624978497
 21
208.88113296326395
 31
0.0
 11
-322.68028118790107
 21
208.87076390528813
 31
0.0
 11
-322.8801993632365
 21
208.86065239454601
 31
0.0
 11
-323.08012997422941
 21
208.85079142329678
 31
0.0
 11
-323.28007231168903
 21
208.84117450418518
 31
0.0
 11
-323.48002587646727
 21
208.8317963331601
 31
0.0
 11
-323.67999019845877
 21
208.82265176978606
 31
0.0
 11
-323.87996480755828
 21
208.81373567362746
 31
0.0
 11
-324.07994923366027
 21
208.80504290424886
 31
0.0
 11
-324.27994300665955
 21
208.79656832121478
 31
0.0
 11
-324.4799456564507
 21
208.78830678408957
 31
0.0
 11
-324.67995671875258
 21
208.78025317992012
 31
0.0
 11
-324.8799758041111
 21
208.77240274882885
 31
0.0
 11
-325.0800025749586
 21
208.76475097576719
 31
0.0
 11
-325.28003669476976
 21
208.75729335060581
 31
0.0
 11
-325.48007782701944
 21
208.75002536321503
 31
0.0
 11
-325.68012563518226
 21
208.7429425034656
 31
0.0
 11
-325.88017978273314
 21
208.73604026122797
 31
0.0
 11
-326.08023993318068
 21
208.72931412680123
 31
0.0
 11
-326.28030577158717
 21
208.72275986249454
 31
0.0
 11
-326.48037704147384
 21
208.71637396837906
 31
0.0
 11
-326.68045349617739
 21
208.7101530684009
 31
0.0
 11
-326.88053488903461
 21
208.70409378650635
 31
0.0
 11
-327.08062097338222
 21
208.69819274664167
 31
0.0
 11
-327.2807115025571
 21
208.69244657275286
 31
0.0
 11
-327.48080622989596
 21
208.68685188878646
 31
0.0
 11
-327.68090490873567
 21
208.68140531868846
 31
0.0
  0
SPLINE
  5
453
100
AcDbEntity
  8
LY_1
390
0
  6
CONTINUOUS
 62
     7
100
AcDbSpline
210
0.0
220
0.0
230
1.0
 70
     0
 71
     3
 72
     0
 73
     0
 74
    86
 44
0.000001
 12
-0.1501601198136884
 22
-0.9886616905785005
 32
0.0
 13
0.1501733012420148
 23
-0.9886596884641727
 33
0.0
 11
-327.68169180543566
 21
214.48422818528849
 31
0.0
 11
-327.69196014515978
 21
214.41627937125733
 31
0.0
 11
-327.70212704670649
 21
214.34831532147032
 31
0.0
 11
-327.712210233078
 21
214.28033871049851
 31
0.0
 11
-327.72222742727621
 21
214.21235221291306
 31
0.0
 11
-327.73219635230322
 21
214.14435850328519
 31
0.0
 11
-327.74213473116106
 21
214.07636025618601
 31
0.0
 11
-327.75205849869297
 21
214.00835988291595
 31
0.0
 11
-327.76196453265504
 21
213.94035698899955
 31
0.0
 11
-327.77183819056307
 21
213.87234948383573
 31
0.0
 11
-327.78166466991314
 21
213.80433525326376
 31
0.0
 11
-327.79142916820126
 21
213.73631218312286
 31
0.0
 11
-327.80111688292334
 21
213.6682781592522
 31
0.0
 11
-327.81071303233568
 21
213.60023107116041
 31
0.0
 11
-327.82020539796599
 21
213.53216926141818
 31
0.0
 11
-327.82958676742186
 21
213.46409195742797
 31
0.0
 11
-327.83885050737968
 21
213.39599848894383
 31
0.0
 11
-327.84798998451606
 21
213.32788818571962
 31
0.0
 11
-327.85699856550752
 21
213.25976037750917
 31
0.0
 11
-327.86586961703063
 21
213.19161439406648
 31
0.0
 11
-327.87459540492785
 21
213.12344947815657
 31
0.0
 11
-327.88316304856176
 21
213.05526446586575
 31
0.0
 11
-327.89155816456537
 21
212.98705807453308
 31
0.0
 11
-327.89976636939076
 21
212.91882902148373
 31
0.0
 11
-327.9077732794903
 21
212.85057602404254
 31
0.0
 11
-327.91556451131618
 21
212.7822977995346
 31
0.0
 11
-327.92312459664947
 21
212.71399309569031
 31
0.0
 11
-327.93043284327115
 21
212.64566080667967
 31
0.0
 11
-327.93746698825026
 21
212.57729987070266
 31
0.0
 11
-327.94420476834631
 21
212.50890922596807
 31
0.0
 11
-327.95062392031889
 21
212.44048781068463
 31
0.0
 11
-327.95670209361754
 21
212.37203458437205
 31
0.0
 11
-327.96241412853681
 21
212.3035491922173
 31
0.0
 11
-327.96773152258959
 21
212.23503209532416
 31
0.0
 11
-327.97262557824018
 21
212.16648380240437
 31
0.0
 11
-327.97706759795312
 21
212.09790482216965
 31
0.0
 11
-327.9810290075294
 21
212.02929572513148
 31
0.0
 11
-327.98448415760396
 21
211.96065854733479
 31
0.0
 11
-327.9874103734395
 21
211.89199681530781
 31
0.0
 11
-327.98978511359502
 21
211.82331412236894
 31
0.0
 11
-327.99158583662938
 21
211.75461406183661
 31
0.0
 11
-327.99279324175001
 21
211.68590055036739
 31
0.0
 11
-327.99340116848526
 21
211.6171788157038
 31
0.0
 11
-327.99340678648281
 21
211.54845441785335
 31
0.0
 11
-327.99280726539075
 21
211.47973291682385
 31
0.0
 11
-327.99160109228797
 21
211.4110197906422
 31
0.0
 11
-327.9898007288877
 21
211.34231964772545
 31
0.0
 11
-327.98742705456937
 21
211.27363657267841
 31
0.0
 11
-327.98450106442317
 21
211.20497464290526
 31
0.0
 11
-327.98104377815685
 21
211.13633792559207
 31
0.0
 11
-327.9770786678987
 21
211.06772946996898
 31
0.0
 11
-327.97263370903477
 21
210.99915045604448
 31
0.0
 11
-327.96773735985363
 21
210.93060186338298
 31
0.0
 11
-327.96241807864396
 21
210.8620846715487
 31
0.0
 11
-327.95670426934043
 21
210.79359983458113
 31
0.0
 11
-327.95062252381609
 21
210.72514745555972
 31
0.0
 11
-327.94419724066819
 21
210.65672660758372
 31
0.0
 11
-327.93745268702503
 21
210.5883363020134
 31
0.0
 11
-327.93041313001515
 21
210.5199755502087
 31
0.0
 11
-327.92310283676699
 21
210.45164336353005
 31
0.0
 11
-327.91554469282238
 21
210.38333871323249
 31
0.0
 11
-327.90775541569064
 21
210.31506039152441
 31
0.0
 11
-327.89975000225115
 21
210.24680714066693
 31
0.0
 11
-327.89154344930756
 21
210.17857770291931
 31
0.0
 11
-327.88315075366353
 21
210.11037082054082
 31
0.0
 11
-327.87458691212282
 21
210.04218523579047
 31
0.0
 11
-327.86586609907221
 21
209.97401974671527
 31
0.0
 11
-327.85699756234811
 21
209.90587348554939
 31
0.0
 11
-327.84798872352059
 21
209.83774570840947
 31
0.0
 11
-327.83884700117125
 21
209.76963567161516
 31
0.0
 11
-327.82957981388154
 21
209.70154263148598
 31
0.0
 11
-327.82019458023308
 21
209.63346584434152
 31
0.0
 11
-327.8106987653897
 21
209.56540455763576
 31
0.0
 11
-327.80110226505701
 21
209.49735755623954
 31
0.0
 11
-327.79141854647486
 21
209.429322945286
 31
0.0
 11
-327.7816613623142
 21
209.36129877558457
 31
0.0
 11
-327.77184446524575
 21
209.29328309794488
 31
0.0
 11
-327.76198160794036
 21
209.22527396317642
 31
0.0
 11
-327.75208654306891
 21
209.1572694220888
 31
0.0
 11
-327.74217185880582
 21
209.08926769628238
 31
0.0
 11
-327.73223437663012
 21
209.02126931978037
 31
0.0
 11
-327.72225957636556
 21
208.95327649003028
 31
0.0
 11
-327.71223268856289
 21
208.88529144103904
 31
0.0
 11
-327.70213894377315
 21
208.81731640681363
 31
0.0
 11
-327.69196357254714
 21
208.74935362136108
 31
0.0
 11
-327.68169180543566
 21
208.68140531868846
 31
0.0
  0
LINE
  5
454
100
AcDbEntity
  8
LY_1
390
0
  6
CONTINUOUS
 62
     7
100
AcDbLine
 10
-262.24322
 20
186.293156
 30
0.0
 11
-261.993277
 21
186.464222
 31
0.0
  0
LINE
  5
455
100
AcDbEntity
  8
LY_1
390
0
  6
CONTINUOUS
 62
     7
100
AcDbLine
 10
-270.87322
 20
186.583171
 30
0.0
 11
-272.7051
 21
184.623915
 31
0.0
  0
LINE
  5
456
100
AcDbEntity
  8
LY_1
390
0
  6
CONTINUOUS
 62
     7
100
AcDbLine
 10
-272.7051
 20
184.623915
 30
0.0
 11
-272.743214
 21
184.583177
 31
0.0
  0
SPLINE
  5
457
100
AcDbEntity
  8
LY_1
390
0
  6
CONTINUOUS
 62
     7
100
AcDbSpline
210
0.0
220
0.0
230
1.0
 70
     0
 71
     3
 72
     0
 73
     0
 74
    51
 44
0.000001
 12
0.0210380928855436
 22
-0.9997786748314546
 32
0.0
 13
0.9999997682513447
 23
-0.0006808063284489
 33
0.0
 11
-268.72321995523566
 21
184.58362967628847
 31
0.0
 11
-268.71509488431582
 21
184.51396927160735
 31
0.0
 11
-268.69334147366408
 21
184.44632380982125
 31
0.0
 11
-268.66189242615286
 21
184.3819113490824
 31
0.0
 11
-268.62432344326248
 21
184.32171012604823
 31
0.0
 11
-268.58225404913969
 21
184.26538428341792
 31
0.0
 11
-268.53663718920501
 21
184.21215017878362
 31
0.0
 11
-268.48837182992588
 21
184.16127376424728
 31
0.0
 11
-268.43792295134267
 21
184.11242700066339
 31
0.0
 11
-268.38554454281302
 21
184.06547923769548
 31
0.0
 11
-268.33148918966617
 21
184.02030113852251
 31
0.0
 11
-268.27600947723107
 21
183.97676336632344
 31
0.0
 11
-268.21935799083701
 21
183.93473658427723
 31
0.0
 11
-268.16178233438103
 21
183.89409313098071
 31
0.0
 11
-268.10342707475377
 21
183.85473999973235
 31
0.0
 11
-268.04433977028441
 21
183.81661681096986
 31
0.0
 11
-267.98456420493335
 21
183.77966445457426
 31
0.0
 11
-267.92414416266081
 21
183.74382382042643
 31
0.0
 11
-267.8631234274269
 21
183.70903579840734
 31
0.0
 11
-267.80154572424169
 21
183.67524139586064
 31
0.0
 11
-267.73944881339435
 21
183.64239350525946
 31
0.0
 11
-267.67685945134531
 21
183.61046694498677
 31
0.0
 11
-267.61380320770883
 21
183.57943889830119
 31
0.0
 11
-267.55030565209898
 21
183.54928654846111
 31
0.0
 11
-267.48639235412998
 21
183.51998707872508
 31
0.0
 11
-267.42208888341077
 21
183.49151767236361
 31
0.0
 11
-267.3574183745975
 21
183.4638610913471
 31
0.0
 11
-267.29239459736345
 21
183.4370215536791
 31
0.0
 11
-267.22702907026405
 21
183.41100843488027
 31
0.0
 11
-267.16133331185506
 21
183.3858311104712
 31
0.0
 11
-267.09531884069179
 21
183.36149895597262
 31
0.0
 11
-267.02899717532978
 21
183.33802134690521
 31
0.0
 11
-266.96237983432457
 21
183.31540765878961
 31
0.0
 11
-266.89547833623169
 21
183.29366726714645
 31
0.0
 11
-266.82830419960658
 21
183.27280954749639
 31
0.0
 11
-266.76086894300477
 21
183.25284387536018
 31
0.0
 11
-266.69318408498179
 21
183.23377962625838
 31
0.0
 11
-266.62526114409309
 21
183.21562617571175
 31
0.0
 11
-266.55711135473405
 21
183.19839378778437
 31
0.0
 11
-266.48873972135385
 21
183.18211220702094
 31
0.0
 11
-266.42014518372071
 21
183.16683014167748
 31
0.0
 11
-266.35132643050326
 21
183.1525970851763
 31
0.0
 11
-266.28228215037007
 21
183.13946253093954
 31
0.0
 11
-266.21301103198977
 21
183.12747597238956
 31
0.0
 11
-266.14351186956407
 21
183.11668715560378
 31
0.0
 11
-266.07379568812166
 21
183.10717510826771
 31
0.0
 11
-266.00389698241611
 21
183.09907504652446
 31
0.0
 11
-265.93385290445616
 21
183.09252854820446
 31
0.0
 11
-265.8637006062504
 21
183.08767719113808
 31
0.0
 11
-265.79347723980732
 21
183.08466255315599
 31
0.0
 11
-265.72321995713571
 21
183.08362621208849
 31
0.0
  0
SPLINE
  5
458
100
AcDbEntity
  8
LY_1
390
0
  6
CONTINUOUS
 62
     7
100
AcDbSpline
210
0.0
220
0.0
230
1.0
 70
     0
 71
     3
 72
     0
 73
     0
 74
    41
 44
0.000001
 12
0.0000189760786263
 22
0.9999999998199542
 32
0.0
 13
-0.9344238863145834
 23
0.3561628850466462
 33
0.0
 11
-270.88947827633569
 21
232.38317123668847
 31
0.0
 11
-270.88949932012304
 21
232.39596841872321
 31
0.0
 11
-270.88956293336008
 21
232.40876488593074
 31
0.0
 11
-270.88966983885939
 21
232.42156066532743
 31
0.0
 11
-270.88982075943335
 21
232.43435578392967
 31
0.0
 11
-270.89001641789457
 21
232.44715026875383
 31
0.0
 11
-270.89025753705562
 21
232.45994414681638
 31
0.0
 11
-270.89054483972893
 21
232.47273744513365
 31
0.0
 11
-270.89087904872696
 21
232.4855301907221
 31
0.0
 11
-270.89126088686231
 21
232.49832241059798
 31
0.0
 11
-270.8916910769475
 21
232.51111413177779
 31
0.0
 11
-270.89217034179501
 21
232.52390538127796
 31
0.0
 11
-270.8926994042173
 21
232.5366961861148
 31
0.0
 11
-270.89327898702697
 21
232.5494865733047
 31
0.0
 11
-270.89390981303654
 21
232.56227656986411
 31
0.0
 11
-270.89459260505851
 21
232.57506620280941
 31
0.0
 11
-270.89532852314545
 21
232.58785525812553
 31
0.0
 11
-270.89612057951774
 21
232.60064250077818
 31
0.0
 11
-270.89697227674395
 21
232.61342642542544
 31
0.0
 11
-270.89788711739584
 21
232.62620552672365
 31
0.0
 11
-270.89886860404522
 21
232.63897829932907
 31
0.0
 11
-270.89992023926391
 21
232.65174323789802
 31
0.0
 11
-270.90104552562377
 21
232.6644988370868
 31
0.0
 11
-270.9022479656964
 21
232.6772435915517
 31
0.0
 11
-270.90353106205379
 21
232.68997599594897
 31
0.0
 11
-270.90489831726762
 21
232.70269454493504
 31
0.0
 11
-270.90635323390973
 21
232.71539773316607
 31
0.0
 11
-270.90789931455197
 21
232.72808405529844
 31
0.0
 11
-270.90954015332704
 21
232.74075202131573
 31
0.0
 11
-270.91129002145158
 21
232.75340192853457
 31
0.0
 11
-270.91318371395812
 21
232.7660375099384
 31
0.0
 11
-270.91525835452268
 21
232.77866288832303
 31
0.0
 11
-270.91755106682137
 21
232.79128218648444
 31
0.0
 11
-270.92009866503406
 21
232.8038988803209
 31
0.0
 11
-270.92292127131293
 21
232.81648155663308
 31
0.0
 11
-270.92601416071193
 21
232.82894686768157
 31
0.0
 11
-270.92937058642673
 21
232.84120723970835
 31
0.0
 11
-270.93304361896492
 21
232.85318352082626
 31
0.0
 11
-270.93782205893916
 21
232.86490014494385
 31
0.0
 11
-270.94498825046162
 21
232.87641512105401
 31
0.0
 11
-270.95570401983571
 21
232.88317123668847
 31
0.0
  0
SPLINE
  5
459
100
AcDbEntity
  8
LY_1
390
0
  6
CONTINUOUS
 62
   255
100
AcDbSpline
210
0.0
220
0.0
230
1.0
 70
     0
 71
     3
 72
     0
 73
     0
 74
    61
 44
0.000001
 12
-0.9999999999811481
 22
0.0000061403528503
 32
0.0
 13
-0.8505538798636633
 23
0.5258879133892213
 33
0.0
 11
-204.19321995523569
 21
182.67129205388846
 31
0.0
 11
-204.20324876475647
 21
182.67129510726826
 31
0.0
 11
-204.21327756028862
 21
182.67130414423437
 31
0.0
 11
-204.22330634290151
 21
182.67131920003223
 31
0.0
 11
-204.23333511366457
 21
182.67134030990738
 31
0.0
 11
-204.2433638736471
 21
182.67136750910532
 31
0.0
 11
-204.25339262391856
 21
182.67140083287154
 31
0.0
 11
-204.26342136554831
 21
182.67144031645159
 31
0.0
 11
-204.27345009960575
 21
182.67148599509096
 31
0.0
 11
-204.28347882716022
 21
182.67153790403512
 31
0.0
 11
-204.29350754928114
 21
182.67159607852957
 31
0.0
 11
-204.30353626703794
 21
182.67166055381983
 31
0.0
 11
-204.31356498142208
 21
182.67173136542181
 31
0.0
 11
-204.3235936854615
 21
182.67180857651812
 31
0.0
 11
-204.33362235744369
 21
182.67189230150186
 31
0.0
 11
-204.34365097405941
 21
182.67198266031258
 31
0.0
 11
-204.35367951199964
 21
182.67207977288982
 31
0.0
 11
-204.36370794795536
 21
182.67218375917301
 31
0.0
 11
-204.37373625861747
 21
182.67229473910174
 31
0.0
 11
-204.38376442067687
 21
182.67241283261546
 31
0.0
 11
-204.39379241082443
 21
182.67253815965378
 31
0.0
 11
-204.40382020575109
 21
182.67267084015606
 31
0.0
 11
-204.41384778214783
 21
182.67281099406193
 31
0.0
 11
-204.42387511670549
 21
182.67295874131088
 31
0.0
 11
-204.43390219967603
 21
182.67311423039689
 31
0.0
 11
-204.44392907612936
 21
182.67327772524055
 31
0.0
 11
-204.45395580498476
 21
182.67344951892426
 31
0.0
 11
-204.46398244516183
 21
182.67362990453051
 31
0.0
 11
-204.47400905557973
 21
182.67381917514166
 31
0.0
 11
-204.48403569515807
 21
182.67401762384034
 31
0.0
 11
-204.49406242281609
 21
182.67422554370881
 31
0.0
 11
-204.50408929747326
 21
182.67444322782967
 31
0.0
 11
-204.5141163780489
 21
182.67467096928533
 31
0.0
 11
-204.52414372346249
 21
182.67490906115822
 31
0.0
 11
-204.53417137455182
 21
182.67515781521197
 31
0.0
 11
-204.54419913428507
 21
182.6754177889687
 31
0.0
 11
-204.55422663791416
 21
182.67568971322885
 31
0.0
 11
-204.56425351717951
 21
182.6759743224207
 31
0.0
 11
-204.57427940382178
 21
182.67627235097243
 31
0.0
 11
-204.58430392958144
 21
182.67658453331239
 31
0.0
 11
-204.59432672619897
 21
182.6769116038688
 31
0.0
 11
-204.604347425415
 21
182.67725429706996
 31
0.0
 11
-204.61436565896997
 21
182.67761334734413
 31
0.0
 11
-204.6243811167551
 21
182.67798954233399
 31
0.0
 11
-204.63439445990488
 21
182.67838455847885
 31
0.0
 11
-204.64440715257527
 21
182.67880080707306
 31
0.0
 11
-204.65442068304674
 21
182.67924072148753
 31
0.0
 11
-204.66443653959988
 21
182.67970673509313
 31
0.0
 11
-204.6744562105151
 21
182.68020128126079
 31
0.0
 11
-204.68448118407284
 21
182.68072679336143
 31
0.0
 11
-204.69451294077703
 21
182.68128570990476
 31
0.0
 11
-204.70454986626456
 21
182.68188251455203
 31
0.0
 11
-204.7145825418142
 21
182.68252684824355
 31
0.0
 11
-204.72460033762235
 21
182.68322915222771
 31
0.0
 11
-204.73459262388539
 21
182.68399986775282
 31
0.0
 11
-204.74454877079984
 21
182.68484943606717
 31
0.0
 11
-204.75446592197542
 21
182.68579314428911
 31
0.0
 11
-204.76443608233268
 21
182.6869054151517
 31
0.0
 11
-204.7745443040302
 21
182.68829507541776
 31
0.0
 11
-204.78412538344944
 21
182.69002859324999
 31
0.0
 11
-204.79321995523568
 21
182.69420307318848
 31
0.0
  0
SPLINE
  5
45A
100
AcDbEntity
  8
LY_1
390
0
  6
CONTINUOUS
 62
   254
100
AcDbSpline
210
0.0
220
0.0
230
1.0
 70
     0
 71
     3
 72
     0
 73
     0
 74
    31
 44
0.000001
 12
0.0926629085372119
 22
-0.9956975370971971
 32
0.0
 13
0.9999999684847154
 23
-0.0002510588940554
 33
0.0
 11
-206.1872498905357
 21
183.96460182638847
 31
0.0
 11
-206.17920614319826
 21
183.89640282401712
 31
0.0
 11
-206.16778404078752
 21
183.82853268402107
 31
0.0
 11
-206.15302803515976
 21
183.76118480984721
 31
0.0
 11
-206.13498257817142
 21
183.69455260494226
 31
0.0
 11
-206.11369212167881
 21
183.62882947275301
 31
0.0
 11
-206.08920111753844
 21
183.56420881672622
 31
0.0
 11
-206.06155401760662
 21
183.50088404030873
 31
0.0
 11
-206.03079653367871
 21
183.43904713894923
 31
0.0
 11
-205.99700353647879
 21
183.37885752261573
 31
0.0
 11
-205.96027915619862
 21
183.32044190344243
 31
0.0
 11
-205.9207288030766
 21
183.26392556309469
 31
0.0
 11
-205.87845788735106
 21
183.20943378323781
 31
0.0
 11
-205.83357181926056
 21
183.15709184553714
 31
0.0
 11
-205.78617600904334
 21
183.10702503165805
 31
0.0
 11
-205.73637586693798
 21
183.05935862326589
 31
0.0
 11
-205.68428167588968
 21
183.01421224104888
 31
0.0
 11
-205.6300231148256
 21
182.97168297197663
 31
0.0
 11
-205.57373468807177
 21
182.93186229700251
 31
0.0
 11
-205.51555089995446
 21
182.8948416970799
 31
0.0
 11
-205.45560625479982
 21
182.86071265316207
 31
0.0
 11
-205.39403525693405
 21
182.82956664620247
 31
0.0
 11
-205.33097241068322
 21
182.80149515715442
 31
0.0
 11
-205.26655351675913
 21
182.77658835130575
 31
0.0
 11
-205.20094385536848
 21
182.75490647602336
 31
0.0
 11
-205.1343379999947
 21
182.73648004974169
 31
0.0
 11
-205.06693178326211
 21
182.72133831302779
 31
0.0
 11
-204.99892103779541
 21
182.70951050644857
 31
0.0
 11
-204.93050159621907
 21
182.70102587057093
 31
0.0
 11
-204.86186929115766
 21
182.69591364596192
 31
0.0
 11
-204.79321995523568
 21
182.69420307318848
 31
0.0
  0
SPLINE
  5
45B
100
AcDbEntity
  8
LY_1
390
0
  6
CONTINUOUS
 62
     7
100
AcDbSpline
210
0.0
220
0.0
230
1.0
 70
     0
 71
     3
 72
     0
 73
     0
 74
   151
 44
0.000001
 12
-0.925978146071928
 22
0.3775771086774135
 32
0.0
 13
0.9259781460712595
 23
0.3775771086790526
 33
0.0
 11
-204.19321995523569
 21
204.04074017488847
 31
0.0
 11
-204.36183132231315
 21
204.10959213082262
 31
0.0
 11
-204.5303735814249
 21
204.17861378301234
 31
0.0
 11
-204.69884420612405
 21
204.24781060743888
 31
0.0
 11
-204.86724066996345
 21
204.31718808008364
 31
0.0
 11
-205.03556044649616
 21
204.38675167692801
 31
0.0
 11
-205.20380100927511
 21
204.45650687395334
 31
0.0
 11
-205.37195983185327
 21
204.526459147141
 31
0.0
 11
-205.54003438778363
 21
204.59661397247231
 31
0.0
 11
-205.70802215061909
 21
204.66697682592874
 31
0.0
 11
-205.87592053411726
 21
204.73755329723889
 31
0.0
 11
-206.04372614154903
 21
204.80835051789981
 31
0.0
 11
-206.21143499272523
 21
204.87937672930983
 31
0.0
 11
-206.3790430946103
 21
204.95064019730509
 31
0.0
 11
-206.54654645416807
 21
205.02214918772214
 31
0.0
 11
-206.71394107836284
 21
205.09391196639731
 31
0.0
 11
-206.88122297415867
 21
205.16593679916707
 31
0.0
 11
-207.04838814851976
 21
205.2382319518677
 31
0.0
 11
-207.21543260841023
 21
205.31080569033574
 31
0.0
 11
-207.38235235416377
 21
205.38366629285403
 31
0.0
 11
-207.54914259055951
 21
205.45682353112556
 31
0.0
 11
-207.71579698088956
 21
205.5302900705417
 31
0.0
 11
-207.88230901184028
 21
205.60407890801912
 31
0.0
 11
-208.04867217009806
 21
205.67820304047456
 31
0.0
 11
-208.21487994234917
 21
205.75267546482473
 31
0.0
 11
-208.38092581528016
 21
205.82750917798629
 31
0.0
 11
-208.54680327557719
 21
205.90271717687614
 31
0.0
 11
-208.71250580992674
 21
205.97831245841081
 31
0.0
 11
-208.87802690501516
 21
206.05430801950712
 31
0.0
 11
-209.04335928242597
 21
206.13071799255428
 31
0.0
 11
-209.2084912138844
 21
206.20756311387979
 31
0.0
 11
-209.37340936658737
 21
206.28486650105674
 31
0.0
 11
-209.53810040558068
 21
206.36265127485075
 31
0.0
 11
-209.70255099591006
 21
206.44094055602758
 31
0.0
 11
-209.86674780262129
 21
206.51975746535285
 31
0.0
 11
-210.0306774907601
 21
206.59912512359219
 31
0.0
 11
-210.19432672537229
 21
206.67906665151125
 31
0.0
 11
-210.35768217150348
 21
206.7596051698757
 31
0.0
 11
-210.52073027749248
 21
206.84076413630001
 31
0.0
 11
-210.6834525516901
 21
206.92257468709957
 31
0.0
 11
-210.84582558693182
 21
207.00507559925026
 31
0.0
 11
-211.00782576424126
 21
207.08830597896844
 31
0.0
 11
-211.16942946464158
 21
207.17230493247035
 31
0.0
 11
-211.33061198397829
 21
207.25711280491689
 31
0.0
 11
-211.49134096221934
 21
207.34277868216108
 31
0.0
 11
-211.65158074547514
 21
207.42935541064307
 31
0.0
 11
-211.81129566704885
 21
207.51689585142552
 31
0.0
 11
-211.97045005240847
 21
207.60545287532725
 31
0.0
 11
-212.12900280403957
 21
207.69508610610859
 31
0.0
 11
-212.28689793637344
 21
207.78587370680367
 31
0.0
 11
-212.44407693145328
 21
207.87789699388992
 31
0.0
 11
-212.60048127132222
 21
207.97123728384491
 31
0.0
 11
-212.75605167850745
 21
208.06597654820047
 31
0.0
 11
-212.91070526756917
 21
208.16221711948458
 31
0.0
 11
-213.06433152769699
 21
208.26008515608274
 31
0.0
 11
-213.21681837885848
 21
208.35970816977652
 31
0.0
 11
-213.36805374102107
 21
208.46121367234724
 31
0.0
 11
-213.51791869521529
 21
208.56473608857263
 31
0.0
 11
-213.66623529315774
 21
208.670469511775
 31
0.0
 11
-213.81279540120332
 21
208.77863854751709
 31
0.0
 11
-213.95739064239547
 21
208.8894680473079
 31
0.0
 11
-214.09981262230011
 21
209.00318286934109
 31
0.0
 11
-214.23977746587522
 21
209.12003674130443
 31
0.0
 11
-214.37675295464146
 21
209.24037837620179
 31
0.0
 11
-214.51015587007592
 21
209.36457599331132
 31
0.0
 11
-214.63940299365572
 21
209.49299781191115
 31
0.0
 11
-214.7639051164191
 21
209.62601376593906
 31
0.0
 11
-214.88280926299535
 21
209.76406928790391
 31
0.0
 11
-214.99490078774934
 21
209.90771332923981
 31
0.0
 11
-215.09881955536738
 21
210.05745675238623
 31
0.0
 11
-215.19277493052851
 21
210.21364593662381
 31
0.0
 11
-215.27483660505675
 21
210.37654221948307
 31
0.0
 11
-215.3426174324828
 21
210.54589273911918
 31
0.0
 11
-215.3934604755207
 21
210.72112020760389
 31
0.0
 11
-215.42512986421315
 21
210.90096936079703
 31
0.0
 11
-215.43602929592166
 21
211.08317122540097
 31
0.0
 11
-215.42512979876309
 21
211.26537308272523
 31
0.0
 11
-215.39346037403357
 21
211.4452222275323
 31
0.0
 11
-215.34261735208457
 21
211.62044970474702
 31
0.0
 11
-215.27483658395931
 21
211.78980024700218
 31
0.0
 11
-215.19277495804732
 21
211.95269655005254
 31
0.0
 11
-215.09881959440699
 21
212.10888574143857
 31
0.0
 11
-214.99490081278401
 21
212.25862915765029
 31
0.0
 11
-214.88280926311484
 21
212.40227317970013
 31
0.0
 11
-214.76390509256029
 21
212.54032868035802
 31
0.0
 11
-214.63940295712081
 21
212.67334462314773
 31
0.0
 11
-214.51015583403151
 21
212.80176644316214
 31
0.0
 11
-214.376752927648
 21
212.92596406991271
 31
0.0
 11
-214.23977745172502
 21
213.04630571808829
 31
0.0
 11
-214.09981262001767
 21
213.16315960237733
 31
0.0
 11
-213.95739064711861
 21
213.27687443202262
 31
0.0
 11
-213.81279540836286
 21
213.3877039349438
 31
0.0
 11
-213.6662352997142
 21
213.49587297076664
 31
0.0
 11
-213.51791869965888
 21
213.60160639243276
 31
0.0
 11
-213.36805374336743
 21
213.70512880693309
 31
0.0
 11
-213.21681838006938
 21
213.80663430848892
 31
0.0
 11
-213.06433152853867
 21
213.90625732173143
 31
0.0
 11
-212.91070526847838
 21
214.0041253581731
 31
0.0
 11
-212.75605167959168
 21
214.10036592932639
 31
0.0
 11
-212.60048127237278
 21
214.19510519331908
 31
0.0
 11
-212.44407693217494
 21
214.28844548261378
 31
0.0
 11
-212.2868979365787
 21
214.3804687688399
 31
0.0
 11
-212.12900280365466
 21
214.47125636857783
 31
0.0
 11
-211.97045005147368
 21
214.56088959840775
 31
0.0
 11
-211.81129566570311
 21
214.64944662145652
 31
0.0
 11
-211.65158074386682
 21
214.73698706151748
 31
0.0
 11
-211.49134096047302
 21
214.82356378941978
 31
0.0
 11
-211.33061198219488
 21
214.90922966623629
 31
0.0
 11
-211.16942946289811
 21
214.99403753841776
 31
0.0
 11
-211.00782576259394
 21
215.07803649181537
 31
0.0
 11
-210.8458255854228
 21
215.16126687155963
 31
0.0
 11
-210.68345255034828
 21
215.24376778383257
 31
0.0
 11
-210.52073027633369
 21
215.3255783348163
 31
0.0
 11
-210.35768217053035
 21
215.40673730145301
 31
0.0
 11
-210.19432672458029
 21
215.48727582003909
 31
0.0
 11
-210.03067749014309
 21
215.56721734818444
 31
0.0
 11
-209.86674780217143
 21
215.64658500665098
 31
0.0
 11
-209.70255099561814
 21
215.72540191620038
 31
0.0
 11
-209.53810040543584
 21
215.80369119759445
 31
0.0
 11
-209.37340936657736
 21
215.88147597159491
 31
0.0
 11
-209.20849121399533
 21
215.95877935896357
 31
0.0
 11
-209.04335928264265
 21
216.03562448046208
 31
0.0
 11
-208.8780269053207
 21
216.11203445365976
 31
0.0
 11
-208.71250581030347
 21
216.18803001488178
 31
0.0
 11
-208.54680327600846
 21
216.26362529651874
 31
0.0
 11
-208.38092581575035
 21
216.33883329548948
 31
0.0
 11
-208.21487994284399
 21
216.41366700871288
 31
0.0
 11
-208.04867217060422
 21
216.48813943310773
 31
0.0
 11
-207.88230901234581
 21
216.56226356559287
 31
0.0
 11
-207.71579698138373
 21
216.63605240308695
 31
0.0
 11
-207.54914259103253
 21
216.70951894250911
 31
0.0
 11
-207.38235235460729
 21
216.78267618077786
 31
0.0
 11
-207.21543260881691
 21
216.85553678328674
 31
0.0
 11
-207.04838814888396
 21
216.92811052174005
 31
0.0
 11
-206.88122297447632
 21
217.00040567442178
 31
0.0
 11
-206.71394107863162
 21
217.0724305071694
 31
0.0
 11
-206.54654645438728
 21
217.14419328582042
 31
0.0
 11
-206.37904309478111
 21
217.21570227621223
 31
0.0
 11
-206.21143499285049
 21
217.28696574418234
 31
0.0
 11
-206.04372614163302
 21
217.35799195556825
 31
0.0
 11
-205.8759205341664
 21
217.42878917620732
 31
0.0
 11
-205.70802215064117
 21
217.49936564749873
 31
0.0
 11
-205.54003438778696
 21
217.5697285009401
 31
0.0
 11
-205.37195983184506
 21
217.63988332625973
 31
0.0
 11
-205.20380100926116
 21
217.70983559943858
 31
0.0
 11
-205.03556044648099
 21
217.77959079645763
 31
0.0
 11
-204.86724066995018
 21
217.84915439329774
 31
0.0
 11
-204.69884420611456
 21
217.91853186593997
 31
0.0
 11
-204.53037358141978
 21
217.98772869036517
 31
0.0
 11
-204.36183132231156
 21
218.05675034255438
 31
0.0
 11
-204.19321995523569
 21
218.12560229848847
 31
0.0
  0
SPLINE
  5
45C
100
AcDbEntity
  8
LY_1
390
0
  6
CONTINUOUS
 62
     7
100
AcDbSpline
210
0.0
220
0.0
230
1.0
 70
     0
 71
     3
 72
     0
 73
     0
 74
    76
 44
0.000001
 12
0.9956579566946439
 22
-0.093087234735203
 32
0.0
 13
0.9936360162682405
 23
-0.1126386575496216
 33
0.0
 11
-320.48090490873568
 21
133.24586689638846
 31
0.0
 11
-320.42618768257717
 21
133.2407538153974
 31
0.0
 11
-320.37146997342006
 21
133.2356459028943
 31
0.0
 11
-320.3167524397042
 21
133.23053611330027
 31
0.0
 11
-320.26203573986561
 21
133.22541740108426
 31
0.0
 11
-320.20732046444175
 21
133.22028345760782
 31
0.0
 11
-320.15260684098354
 21
133.21513191367063
 31
0.0
 11
-320.09789497624206
 21
133.20996171109584
 31
0.0
 11
-320.04318497688655
 21
133.20477179259439
 31
0.0
 11
-319.9884769495863
 21
133.19956110087736
 31
0.0
 11
-319.9337709593533
 21
133.19432901927013
 31
0.0
 11
-319.8790668891512
 21
133.1890768566513
 31
0.0
 11
-319.82436457222639
 21
133.18380644776511
 31
0.0
 11
-319.76966384182413
 21
133.17851962736819
 31
0.0
 11
-319.71496453118965
 21
133.173218230217
 31
0.0
 11
-319.6602664735683
 21
133.16790409106824
 31
0.0
 11
-319.60556950189374
 21
133.16257904590645
 31
0.0
 11
-319.55087343263858
 21
133.15724499560099
 31
0.0
 11
-319.49617805796748
 21
133.1519039368344
 31
0.0
 11
-319.44148316808935
 21
133.14655787399931
 31
0.0
 11
-319.38678855321285
 21
133.14120881148824
 31
0.0
 11
-319.33209400354684
 21
133.13585875369364
 31
0.0
 11
-319.27739930930016
 21
133.13050970500819
 31
0.0
 11
-319.22270426068155
 21
133.12516366982436
 31
0.0
 11
-319.16800864805089
 21
133.11982265107576
 31
0.0
 11
-319.11331249724799
 21
133.11448637955425
 31
0.0
 11
-319.058616545532
 21
133.10914772156752
 31
0.0
 11
-319.00392166398706
 21
133.10379825214852
 31
0.0
 11
-318.94922872369722
 21
133.09842954633046
 31
0.0
 11
-318.89453859574644
 21
133.09303317914635
 31
0.0
 11
-318.83985215121891
 21
133.08760072562922
 31
0.0
 11
-318.78517026119857
 21
133.08212376081224
 31
0.0
 11
-318.73049379676951
 21
133.07659385972852
 31
0.0
 11
-318.67582362797145
 21
133.07100260753202
 31
0.0
 11
-318.62116011265653
 21
133.06534655293939
 31
0.0
 11
-318.56650227206455
 21
133.05963519765578
 31
0.0
 11
-318.51184891213546
 21
133.05388012983855
 31
0.0
 11
-318.45719883880918
 21
133.04809293764498
 31
0.0
 11
-318.40255085802545
 21
133.04228520923255
 31
0.0
 11
-318.34790377572426
 21
133.03646853275842
 31
0.0
 11
-318.29325639784554
 21
133.03065449638007
 31
0.0
 11
-318.23860753032909
 21
133.02485468825478
 31
0.0
 11
-318.18395597943771
 21
133.01908069341704
 31
0.0
 11
-318.12930098660536
 21
133.0133398875667
 31
0.0
 11
-318.0746430884742
 21
133.00762711808557
 31
0.0
 11
-318.01998306156656
 21
133.00193491203549
 31
0.0
 11
-317.96532168240492
 21
132.99625579647852
 31
0.0
 11
-317.91065972751164
 21
132.99058229847662
 31
0.0
 11
-317.8559979734091
 21
132.98490694509195
 31
0.0
 11
-317.80133719661978
 21
132.97922226338636
 31
0.0
 11
-317.746678173666
 21
132.97352078042189
 31
0.0
 11
-317.69202165537388
 21
132.96779527374639
 31
0.0
 11
-317.63736794151367
 21
132.96204291776371
 31
0.0
 11
-317.58271694709128
 21
132.95626463752797
 31
0.0
 11
-317.52806857477992
 21
132.95046147831357
 31
0.0
 11
-317.47342272725263
 21
132.94463448539477
 31
0.0
 11
-317.41877930718255
 21
132.93878470404604
 31
0.0
 11
-317.36413821724273
 21
132.93291317954169
 31
0.0
 11
-317.30949936010632
 21
132.92702095715606
 31
0.0
 11
-317.25486263770648
 21
132.92110908346393
 31
0.0
 11
-317.20022794200941
 21
132.91517862255654
 31
0.0
 11
-317.14559515783696
 21
132.9092306510808
 31
0.0
 11
-317.09096416985545
 21
132.90326624595707
 31
0.0
 11
-317.03633486273134
 21
132.89728648410562
 31
0.0
 11
-316.98170712113068
 21
132.89129244244697
 31
0.0
 11
-316.92708082972001
 21
132.88528519790145
 31
0.0
 11
-316.87245589124279
 21
132.87926566274103
 31
0.0
 11
-316.81783231358122
 21
132.87323379163519
 31
0.0
 11
-316.76321014252812
 21
132.8671891939606
 31
0.0
 11
-316.70858942392749
 21
132.86113147863091
 31
0.0
 11
-316.65397020362298
 21
132.85506025455999
 31
0.0
 11
-316.59935253874653
 21
132.84897503159112
 31
0.0
 11
-316.54473670366025
 21
132.84287341304605
 31
0.0
 11
-316.4901231687262
 21
132.83675128205039
 31
0.0
 11
-316.43551241133429
 21
132.83060446004851
 31
0.0
 11
-316.38090490873572
 21
132.82442876848847
 31
0.0
  0
LWPOLYLINE
  5
45D
100
AcDbEntity
  8
LY_1
390
0
  6
CONTINUOUS
 62
     7
100
AcDbPolyline
 90
        3
 70
     0
 10
-328.830905
 20
197.213191
 10
-326.730246
 20
197.220927
 10
-324.630905
 20
197.229999
  0
LWPOLYLINE
  5
45E
100
AcDbEntity
  8
LY_1
390
0
  6
CONTINUOUS
 62
     7
100
AcDbPolyline
 90
        3
 70
     0
 10
-355.230905
 20
197.229999
 10
-353.131564
 20
197.220927
 10
-351.030905
 20
197.213191
  0
LWPOLYLINE
  5
45F
100
AcDbEntity
  8
LY_1
390
0
  6
CONTINUOUS
 62
     7
100
AcDbPolyline
 90
       11
 70
     0
 10
-367.936403
 20
211.783171
 10
-367.936567
 20
211.780709
 10
-367.936726
 20
211.773383
 10
-367.936878
 20
211.761373
 10
-367.937018
 20
211.744975
 10
-367.937143
 20
211.724593
 10
-367.93725
 20
211.700728
 10
-367.937336
 20
211.673969
 10
-367.937399
 20
211.644975
 10
-367.937437
 20
211.614458
 10
-367.93745
 20
211.583171
  0
LWPOLYLINE
  5
460
100
AcDbEntity
  8
LY_1
390
0
  6
CONTINUOUS
 62
     7
100
AcDbPolyline
 90
       12
 70
     0
 10
-311.925407
 20
206.783171
 10
-311.925243
 20
206.785634
 10
-311.925083
 20
206.79296
 10
-311.924932
 20
206.80497
 10
-311.924791
 20
206.821368
 10
-311.924667
 20
206.84175
 10
-311.92456
 20
206.865614
 10
-311.924474
 20
206.892373
 10
-311.924411
 20
206.921368
 10
-311.924373
 20
206.951884
 10
-311.92436
 20
206.983171
 10
-311.92436
 20
206.983171
  0
LWPOLYLINE
  5
461
100
AcDbEntity
  8
LY_1
390
0
  6
CONTINUOUS
 62
   254
100
AcDbPolyline
 90
       12
 70
     0
 10
-367.93745
 20
206.983171
 10
-367.937437
 20
206.951884
 10
-367.937399
 20
206.921368
 10
-367.937336
 20
206.892373
 10
-367.93725
 20
206.865614
 10
-367.937143
 20
206.84175
 10
-367.937018
 20
206.821368
 10
-367.936878
 20
206.80497
 10
-367.936726
 20
206.79296
 10
-367.936567
 20
206.785634
 10
-367.936403
 20
206.783171
 10
-367.936403
 20
206.783171
  0
LWPOLYLINE
  5
462
100
AcDbEntity
  8
LY_1
390
0
  6
CONTINUOUS
 62
     7
100
AcDbPolyline
 90
       13
 70
     0
 10
-312.033239
 20
215.080702
 10
-312.033369
 20
215.130485
 10
-312.033527
 20
215.17721
 10
-312.033711
 20
215.220297
 10
-312.033919
 20
215.259215
 10
-312.034148
 20
215.293482
 10
-312.034396
 20
215.322673
 10
-312.034659
 20
215.346428
 10
-312.034935
 20
215.364454
 10
-312.035219
 20
215.376527
 10
-312.035509
 20
215.382497
 10
-312.035577
 20
215.383003
 10
-312.035645
 20
215.383171
  0
LWPOLYLINE
  5
463
100
AcDbEntity
  8
LY_1
390
0
  6
CONTINUOUS
 62
     7
100
AcDbPolyline
 90
        3
 70
     0
 10
-311.987021
 20
209.183259
 10
-311.986976
 20
209.183193
 10
-311.98693
 20
209.183171
  0
LWPOLYLINE
  5
464
100
AcDbEntity
  8
LY_1
390
0
  6
CONTINUOUS
 62
     7
100
AcDbPolyline
 90
        9
 70
     0
 10
-312.035645
 20
206.383171
 10
-312.035265
 20
206.38846
 10
-312.034893
 20
206.404216
 10
-312.034537
 20
206.430105
 10
-312.034205
 20
206.46558
 10
-312.033903
 20
206.509889
 10
-312.033638
 20
206.562096
 10
-312.033415
 20
206.621096
 10
-312.033239
 20
206.68564
  0
LWPOLYLINE
  5
465
100
AcDbEntity
  8
LY_1
390
0
  6
CONTINUOUS
 62
     7
100
AcDbPolyline
 90
        7
 70
     0
 10
-312.033239
 20
206.68564
 10
-312.030741
 20
208.041402
 10
-312.029223
 20
209.449166
 10
-312.028714
 20
210.883171
 10
-312.029223
 20
212.317177
 10
-312.030741
 20
213.724941
 10
-312.033239
 20
215.080702
  0
LINE
  5
466
100
AcDbEntity
  8
LY_1
390
0
  6
CONTINUOUS
 62
     7
100
AcDbLine
 10
-314.030905
 20
122.12759
 30
0.0
 11
-314.030905
 21
130.513153
 31
0.0
  0
LINE
  5
467
100
AcDbEntity
  8
LY_1
390
0
  6
CONTINUOUS
 62
   254
100
AcDbLine
 10
-311.930905
 20
109.07759
 30
0.0
 11
-312.046359
 21
131.12759
 31
0.0
  0
LINE
  5
468
100
AcDbEntity
  8
LY_1
390
0
  6
CONTINUOUS
 62
     7
100
AcDbLine
 10
-321.830905
 20
122.12759
 30
0.0
 11
-321.830905
 21
131.340699
 31
0.0
  0
LINE
  5
469
100
AcDbEntity
  8
LY_1
390
0
  6
CONTINUOUS
 62
     7
100
AcDbLine
 10
-321.905905
 20
130.25759
 30
0.0
 11
-321.905905
 21
114.12759
 31
0.0
  0
LINE
  5
46A
100
AcDbEntity
  8
LY_1
390
0
  6
CONTINUOUS
 62
     7
100
AcDbLine
 10
-322.755905
 20
114.12759
 30
0.0
 11
-322.755905
 21
130.25759
 31
0.0
  0
LINE
  5
46B
100
AcDbEntity
  8
LY_1
390
0
  6
CONTINUOUS
 62
     7
100
AcDbLine
 10
-322.830905
 20
122.12759
 30
0.0
 11
-322.830905
 21
131.425389
 31
0.0
  0
LINE
  5
46C
100
AcDbEntity
  8
LY_1
390
0
  6
CONTINUOUS
 62
     7
100
AcDbLine
 10
-330.630905
 20
122.12759
 30
0.0
 11
-330.630905
 21
131.920137
 31
0.0
  0
LINE
  5
46D
100
AcDbEntity
  8
LY_1
390
0
  6
CONTINUOUS
 62
     7
100
AcDbLine
 10
-330.705905
 20
130.25759
 30
0.0
 11
-330.705905
 21
114.12759
 31
0.0
  0
LINE
  5
46E
100
AcDbEntity
  8
LY_1
390
0
  6
CONTINUOUS
 62
     7
100
AcDbLine
 10
-331.555905
 20
114.12759
 30
0.0
 11
-331.555905
 21
130.25759
 31
0.0
  0
LINE
  5
46F
100
AcDbEntity
  8
LY_1
390
0
  6
CONTINUOUS
 62
     7
100
AcDbLine
 10
-331.630905
 20
122.12759
 30
0.0
 11
-331.630905
 21
131.962369
 31
0.0
  0
LINE
  5
470
100
AcDbEntity
  8
LY_1
390
0
  6
CONTINUOUS
 62
     7
100
AcDbLine
 10
-339.430905
 20
122.12759
 30
0.0
 11
-339.430905
 21
132.126991
 31
0.0
  0
LINE
  5
471
100
AcDbEntity
  8
LY_1
390
0
  6
CONTINUOUS
 62
     7
100
AcDbLine
 10
-339.505905
 20
130.25759
 30
0.0
 11
-339.505905
 21
114.12759
 31
0.0
  0
LINE
  5
472
100
AcDbEntity
  8
LY_1
390
0
  6
CONTINUOUS
 62
     7
100
AcDbLine
 10
-340.355905
 20
114.12759
 30
0.0
 11
-340.355905
 21
130.25759
 31
0.0
  0
LINE
  5
473
100
AcDbEntity
  8
LY_1
390
0
  6
CONTINUOUS
 62
     7
100
AcDbLine
 10
-340.430905
 20
122.12759
 30
0.0
 11
-340.430905
 21
132.126991
 31
0.0
  0
LINE
  5
474
100
AcDbEntity
  8
LY_1
390
0
  6
CONTINUOUS
 62
     7
100
AcDbLine
 10
-348.230905
 20
122.12759
 30
0.0
 11
-348.230905
 21
131.962369
 31
0.0
  0
LINE
  5
475
100
AcDbEntity
  8
LY_1
390
0
  6
CONTINUOUS
 62
     7
100
AcDbLine
 10
-348.305905
 20
130.25759
 30
0.0
 11
-348.305905
 21
114.12759
 31
0.0
  0
LINE
  5
476
100
AcDbEntity
  8
LY_1
390
0
  6
CONTINUOUS
 62
     7
100
AcDbLine
 10
-349.155905
 20
114.12759
 30
0.0
 11
-349.155905
 21
130.25759
 31
0.0
  0
LINE
  5
477
100
AcDbEntity
  8
LY_1
390
0
  6
CONTINUOUS
 62
     7
100
AcDbLine
 10
-349.230905
 20
122.12759
 30
0.0
 11
-349.230905
 21
131.920137
 31
0.0
  0
LINE
  5
478
100
AcDbEntity
  8
LY_1
390
0
  6
CONTINUOUS
 62
     7
100
AcDbLine
 10
-357.030905
 20
122.12759
 30
0.0
 11
-357.030905
 21
131.425389
 31
0.0
  0
LINE
  5
479
100
AcDbEntity
  8
LY_1
390
0
  6
CONTINUOUS
 62
     7
100
AcDbLine
 10
-357.105905
 20
130.25759
 30
0.0
 11
-357.105905
 21
114.12759
 31
0.0
  0
LINE
  5
47A
100
AcDbEntity
  8
LY_1
390
0
  6
CONTINUOUS
 62
     7
100
AcDbLine
 10
-357.955905
 20
114.12759
 30
0.0
 11
-357.955905
 21
130.25759
 31
0.0
  0
LINE
  5
47B
100
AcDbEntity
  8
LY_1
390
0
  6
CONTINUOUS
 62
     7
100
AcDbLine
 10
-358.030905
 20
122.12759
 30
0.0
 11
-358.030905
 21
131.340699
 31
0.0
  0
LINE
  5
47C
100
AcDbEntity
  8
LY_1
390
0
  6
CONTINUOUS
 62
     7
100
AcDbLine
 10
-365.830905
 20
122.12759
 30
0.0
 11
-365.830905
 21
130.513153
 31
0.0
  0
LINE
  5
47D
100
AcDbEntity
  8
LY_1
390
0
  6
CONTINUOUS
 62
     7
100
AcDbLine
 10
-366.230905
 20
125.62759
 30
0.0
 11
-366.230905
 21
130.12759
 31
0.0
  0
LINE
  5
47E
100
AcDbEntity
  8
LY_1
390
0
  6
CONTINUOUS
 62
   254
100
AcDbLine
 10
-367.930905
 20
109.07759
 30
0.0
 11
-367.81545
 21
131.12759
 31
0.0
  0
ENDSEC
  0
SECTION
  2
OBJECTS
  0
DICTIONARY
  5
19
100
AcDbDictionary
280
     0
281
     1
  3
ACAD_GROUP
350
1A
  3
ACAD_MLINESTYLE
350
1B
  3
ACAD_LAYOUT
350
1E
  3
ACAD_PLOTSETTINGS
350
22
  3
ACAD_PLOTSTYLENAME
350
1F
  0
DICTIONARY
  5
1A
102
{ACAD_REACTORS
330
19
102
}
100
AcDbDictionary
280
     0
281
     1
  0
DICTIONARY
  5
1B
102
{ACAD_REACTORS
330
19
102
}
100
AcDbDictionary
280
     0
281
     1
  3
Standard
350
1C
  0
MLINESTYLE
  5
1C
102
{ACAD_REACTORS
330
1B
102
}
100
AcDbMlineStyle
  2
Standard
 70
     0
  3

 62
     0
 51
90.0
 52
90.0
 71
     2
 49
0.5
 62
   256
  6
ByLayer
 49
-0.5
 62
   256
  6
ByLayer
  0
ACDBDICTIONARYWDFLT
  5
1F
102
{ACAD_REACTORS
330
19
102
}
100
AcDbDictionary
281
     1
  3
Normal
350
1D
100
AcDbDictionaryWithDefault
340
1D
  0
ACDBPLACEHOLDER
  5
1D
102
{ACAD_REACTORS
330
1F
102
}
  0
LAYOUT
  5
20
102
{ACAD_REACTORS
330
1E
102
}
100
AcDbPlotSettings
  1

  2

  4

  6

 40
0.0
 41
0.0
 42
0.0
 43
0.0
 44
0.0
 45
0.0
 46
0.0
 47
0.0
 48
0.0
 49
0.0
140
0.0
141
0.0
142
1.0
143
1.0
 70
  1024
 72
     0
 73
     0
 74
     0
  7

 75
     0
147
1.0
148
0.0
149
0.0
100
AcDbLayout
  1
Model
 70
     0
 71
     0
 10
0.0
 20
0.0
 11
0.0
 21
0.0
 12
0.0
 22
0.0
 32
0.0
 14
0.0
 24
0.0
 34
0.0
 15
0.0
 25
0.0
 35
0.0
146
0.0
 13
0.0
 23
0.0
 33
0.0
 16
0.0
 26
0.0
 36
0.0
 17
0.0
 27
0.0
 37
0.0
 76
     0
330
A
331
0
345
0
346
0
  0
LAYOUT
  5
21
102
{ACAD_REACTORS
330
1E
102
}
100
AcDbPlotSettings
  1

  2

  4

  6

 40
0.0
 41
0.0
 42
0.0
 43
0.0
 44
0.0
 45
0.0
 46
0.0
 47
0.0
 48
0.0
 49
0.0
140
0.0
141
0.0
142
1.0
143
1.0
 70
     0
 72
     0
 73
     0
 74
     0
  7

 75
     0
147
1.0
148
0.0
149
0.0
100
AcDbLayout
  1
Layout1
 70
     0
 71
     0
 10
0.0
 20
0.0
 11
0.0
 21
0.0
 12
0.0
 22
0.0
 32
0.0
 14
0.0
 24
0.0
 34
0.0
 15
0.0
 25
0.0
 35
0.0
146
0.0
 13
0.0
 23
0.0
 33
0.0
 16
0.0
 26
0.0
 36
0.0
 17
0.0
 27
0.0
 37
0.0
 76
     0
330
B
331
0
345
0
346
0
  0
DICTIONARY
  5
1E
102
{ACAD_REACTORS
330
19
102
}
100
AcDbDictionary
280
     0
281
     1
  3
Layout1
350
21
  3
Model
350
20
  0
DICTIONARY
  5
22
102
{ACAD_REACTORS
330
19
102
}
100
AcDbDictionary
280
     0
281
     1
  0
ENDSEC
  0
EOF
