  0
SECTION
  2
HEADER
  9
$ACADVER
  1
AC1012
  9
$DWGCODEPAGE
  3
dos932
  9
$INSBASE
 10
0.0
 20
0.0
 30
0.0
  9
$EXTMIN
 10
-384.75
 20
27.5
 30
0.0
  9
$EXTMAX
 10
-35.0
 20
270.0
 30
0.0
  9
$LIMMIN
 10
-384.751
 20
-0.001
  9
$LIMMAX
 10
0.001
 20
267.001
  9
$ORTHOMODE
 70
     0
  9
$REGENMODE
 70
     1
  9
$FILLMODE
 70
     1
  9
$QTEXTMODE
 70
     0
  9
$MIRRTEXT
 70
     1
  9
$DRAGMODE
 70
     2
  9
$LTSCALE
 40
6.4125
  9
$OSMODE
 70
     0
  9
$ATTMODE
 70
     1
  9
$TEXTSIZE
 40
3.2
  9
$TRACEWID
 40
0.05
  9
$TEXTSTYLE
  7
STANDARD
  9
$CLAYER
  8
0
  9
$CELTYPE
  6
CONTINUOUS
  9
$CECOLOR
 62
   256
  9
$CELTSCALE
 40
1.0
  9
$DELOBJ
 70
     1
  9
$DISPSILH
 70
     0
  9
$DIMSCALE
 40
1.0
  9
$DIMASZ
 40
0.18
  9
$DIMEXO
 40
0.0625
  9
$DIMDLI
 40
0.38
  9
$DIMRND
 40
0.0
  9
$DIMDLE
 40
0.0
  9
$DIMEXE
 40
0.18
  9
$DIMTP
 40
0.0
  9
$DIMTM
 40
0.0
  9
$DIMTXT
 40
0.18
  9
$DIMCEN
 40
0.09
  9
$DIMTSZ
 40
0.0
  9
$DIMTOL
 70
     0
  9
$DIMLIM
 70
     0
  9
$DIMTIH
 70
     1
  9
$DIMTOH
 70
     1
  9
$DIMSE1
 70
     0
  9
$DIMSE2
 70
     0
  9
$DIMTAD
 70
     0
  9
$DIMZIN
 70
     0
  9
$DIMBLK
  1

  9
$DIMASO
 70
     1
  9
$DIMSHO
 70
     1
  9
$DIMPOST
  1

  9
$DIMAPOST
  1

  9
$DIMALT
 70
     0
  9
$DIMALTD
 70
     2
  9
$DIMALTF
 40
25.4
  9
$DIMLFAC
 40
1.0
  9
$DIMTOFL
 70
     0
  9
$DIMTVP
 40
0.0
  9
$DIMTIX
 70
     0
  9
$DIMSOXD
 70
     0
  9
$DIMSAH
 70
     0
  9
$DIMBLK1
  1

  9
$DIMBLK2
  1

  9
$DIMSTYLE
  2
STANDARD
  9
$DIMCLRD
 70
     0
  9
$DIMCLRE
 70
     0
  9
$DIMCLRT
 70
     0
  9
$DIMTFAC
 40
1.0
  9
$DIMGAP
 40
0.09
  9
$DIMJUST
 70
     0
  9
$DIMSD1
 70
     0
  9
$DIMSD2
 70
     0
  9
$DIMTOLJ
 70
     1
  9
$DIMTZIN
 70
     0
  9
$DIMALTZ
 70
     0
  9
$DIMALTTZ
 70
     0
  9
$DIMFIT
 70
     3
  9
$DIMUPT
 70
     0
  9
$DIMUNIT
 70
     2
  9
$DIMDEC
 70
     4
  9
$DIMTDEC
 70
     4
  9
$DIMALTU
 70
     2
  9
$DIMALTTD
 70
     2
  9
$DIMTXSTY
  7
STANDARD
  9
$DIMAUNIT
 70
     0
  9
$LUNITS
 70
     2
  9
$LUPREC
 70
     4
  9
$SKETCHINC
 40
0.1
  9
$FILLETRAD
 40
0.0
  9
$AUNITS
 70
     0
  9
$AUPREC
 70
     0
  9
$MENU
  1
acad
  9
$ELEVATION
 40
0.0
  9
$PELEVATION
 40
0.0
  9
$THICKNESS
 40
0.0
  9
$LIMCHECK
 70
     0
  9
$BLIPMODE
 70
     1
  9
$CHAMFERA
 40
0.0
  9
$CHAMFERB
 40
0.0
  9
$CHAMFERC
 40
0.0
  9
$CHAMFERD
 40
0.0
  9
$SKPOLY
 70
     0
  9
$TDCREATE
 40
0.0000000000
  9
$TDUPDATE
 40
0.0000000000
  9
$TDINDWG
 40
0.0000000000
  9
$TDUSRTIMER
 40
0.0000000000
  9
$USRTIMER
 70
     1
  9
$ANGBASE
 50
0.0
  9
$ANGDIR
 70
     0
  9
$PDMODE
 70
     0
  9
$PDSIZE
 40
0.0
  9
$PLINEWID
 40
0.0
  9
$COORDS
 70
     1
  9
$SPLFRAME
 70
     0
  9
$SPLINETYPE
 70
     6
  9
$SPLINESEGS
 70
     8
  9
$ATTDIA
 70
     0
  9
$ATTREQ
 70
     1
  9
$HANDLING
 70
     1
  9
$HANDSEED
  5
231
  9
$SURFTAB1
 70
     6
  9
$SURFTAB2
 70
     6
  9
$SURFTYPE
 70
     6
  9
$SURFU
 70
     6
  9
$SURFV
 70
     6
  9
$UCSNAME
  2

  9
$UCSORG
 10
0.0
 20
0.0
 30
0.0
  9
$UCSXDIR
 10
1.0
 20
0.0
 30
0.0
  9
$UCSYDIR
 10
0.0
 20
1.0
 30
0.0
  9
$PUCSNAME
  2

  9
$PUCSORG
 10
0.0
 20
0.0
 30
0.0
  9
$PUCSXDIR
 10
1.0
 20
0.0
 30
0.0
  9
$PUCSYDIR
 10
0.0
 20
1.0
 30
0.0
  9
$USERI1
 70
     0
  9
$USERI2
 70
     0
  9
$USERI3
 70
     0
  9
$USERI4
 70
     0
  9
$USERI5
 70
     0
  9
$USERR1
 40
0.0
  9
$USERR2
 40
0.0
  9
$USERR3
 40
0.0
  9
$USERR4
 40
0.0
  9
$USERR5
 40
0.0
  9
$WORLDVIEW
 70
     1
  9
$SHADEDGE
 70
     3
  9
$SHADEDIF
 70
    70
  9
$TILEMODE
 70
     1
  9
$MAXACTVP
 70
    16
  9
$PINSBASE
 10
0.0
 20
0.0
 30
0.0
  9
$PLIMCHECK
 70
     0
  9
$PEXTMIN
 10
1.000000E+20
 20
1.000000E+20
 30
1.000000E+20
  9
$PEXTMAX
 10
-1.000000E+20
 20
-1.000000E+20
 30
-1.000000E+20
  9
$PLIMMIN
 10
0.0
 20
0.0
  9
$PLIMMAX
 10
12.0
 20
9.0
  9
$UNITMODE
 70
     0
  9
$VISRETAIN
 70
     0
  9
$PLINEGEN
 70
     0
  9
$PSLTSCALE
 70
     1
  9
$TREEDEPTH
 70
  3020
  9
$PICKSTYLE
 70
     1
  9
$CMLSTYLE
  2
STANDARD
  9
$CMLJUST
 70
     0
  9
$CMLSCALE
 40
1.0
  9
$SAVEIMAGES
 70
     0
  0
ENDSEC
  0
SECTION
  2
CLASSES
  0
ENDSEC
  0
SECTION
  2
TABLES
  0
TABLE
  2
VPORT
  5
8
100
AcDbSymbolTable
 70
     2
  0
VPORT
  5
230
100
AcDbSymbolTableRecord
100
AcDbViewportTableRecord
  2
*ACTIVE
 70
     0
 10
0.0
 20
0.0
 11
1.0
 21
1.0
 12
-177.615401
 22
134.9995
 13
0.0
 23
0.0
 14
1.0
 24
1.0
 15
0.0
 25
0.0
 16
0.0
 26
0.0
 36
1.0
 17
0.0
 27
0.0
 37
0.0
 40
270.001
 41
1.534332
 42
50.0
 43
0.0
 44
0.0
 50
0.0
 51
0.0
 71
     0
 72
   100
 73
     1
 74
     1
 75
     0
 76
     0
 77
     0
 78
     0
  0
ENDTAB
  0
TABLE
  2
LTYPE
  5
5
100
AcDbSymbolTable
 70
     5
  0
LTYPE
  5
13
100
AcDbSymbolTableRecord
100
AcDbLinetypeTableRecord
  2
BYBLOCK
 70
     0
  3

 72
    65
 73
     0
 40
0.0
  0
LTYPE
  5
14
100
AcDbSymbolTableRecord
100
AcDbLinetypeTableRecord
  2
BYLAYER
 70
     0
  3

 72
    65
 73
     0
 40
0.0
  0
LTYPE
  5
15
100
AcDbSymbolTableRecord
100
AcDbLinetypeTableRecord
  2
CONTINUOUS
 70
    64
  3
Solid-Line
 72
    65
 73
     0
 40
0.0
  0
LTYPE
  5
1E
100
AcDbSymbolTableRecord
100
AcDbLinetypeTableRecord
  2
DASHED
 70
    64
  3
DASHED
 72
    65
 73
     2
 40
0.75
 49
0.5
 74
     0
 49
-0.25
 74
     0
  0
LTYPE
  5
1F
100
AcDbSymbolTableRecord
100
AcDbLinetypeTableRecord
  2
HIDDEN
 70
    64
  3
HIDDEN
 72
    65
 73
     2
 40
0.375
 49
0.25
 74
     0
 49
-0.125
 74
     0
  0
LTYPE
  5
20
100
AcDbSymbolTableRecord
100
AcDbLinetypeTableRecord
  2
CENTER
 70
    64
  3
CENTER
 72
    65
 73
     4
 40
2.0
 49
1.25
 74
     0
 49
-0.25
 74
     0
 49
0.25
 74
     0
 49
-0.25
 74
     0
  0
LTYPE
  5
21
100
AcDbSymbolTableRecord
100
AcDbLinetypeTableRecord
  2
PHANTOM
 70
    64
  3
PHANTOM
 72
    65
 73
     6
 40
2.5
 49
1.25
 74
     0
 49
-0.25
 74
     0
 49
0.25
 74
     0
 49
-0.25
 74
     0
 49
0.25
 74
     0
 49
-0.25
 74
     0
  0
ENDTAB
  0
TABLE
  2
LAYER
  5
2
100
AcDbSymbolTable
 70
     2
  0
LAYER
  5
F
100
AcDbSymbolTableRecord
100
AcDbLayerTableRecord
  2
0
 70
     0
 62
     7
  6
CONTINUOUS
  0
LAYER
  5
22
100
AcDbSymbolTableRecord
100
AcDbLayerTableRecord
  2
PV
 70
     0
 62
     3
  6
CONTINUOUS
  0
ENDTAB
  0
TABLE
  2
STYLE
  5
3
100
AcDbSymbolTable
 70
     3
  0
STYLE
  5
10
100
AcDbSymbolTableRecord
100
AcDbTextStyleTableRecord
  2
STANDARD
 70
     0
 40
0.0
 41
1.0
 50
0.0
 71
     0
 42
0.2
  3
txt
  4

  0
STYLE
  5
23
100
AcDbSymbolTableRecord
100
AcDbTextStyleTableRecord
  2
MONOTXT
 70
     0
 40
0.0
 41
1.0
 50
0.0
 71
     0
 42
0.2
  3
monotxt
  4

  0
STYLE
  5
24
100
AcDbSymbolTableRecord
100
AcDbTextStyleTableRecord
  2
BIGFONT
 70
     0
 40
0.0
 41
1.0
 50
0.0
 71
     0
 42
0.2
  3
txt
  4
bigfont
  0
ENDTAB
  0
TABLE
  2
VIEW
  5
6
100
AcDbSymbolTable
 70
     0
  0
ENDTAB
  0
TABLE
  2
UCS
  5
7
100
AcDbSymbolTable
 70
     0
  0
ENDTAB
  0
TABLE
  2
APPID
  5
9
100
AcDbSymbolTable
 70
     1
  0
APPID
  5
11
100
AcDbSymbolTableRecord
100
AcDbRegAppTableRecord
  2
ACAD
 70
     0
  0
ENDTAB
  0
TABLE
  2
DIMSTYLE
  5
A
100
AcDbSymbolTable
 70
     1
  0
DIMSTYLE
105
22F
100
AcDbSymbolTableRecord
100
AcDbDimStyleTableRecord
  2
STANDARD
 70
     0
  3

  4

  5

  6

  7

 40
1.0
 41
0.18
 42
0.0625
 43
0.38
 44
0.18
 45
0.0
 46
0.0
 47
0.0
 48
0.0
140
0.18
141
0.09
142
0.0
143
25.4
144
1.0
145
0.0
146
1.0
147
0.09
 71
     0
 72
     0
 73
     1
 74
     1
 75
     0
 76
     0
 77
     0
 78
     0
170
     0
171
     2
172
     0
173
     0
174
     0
175
     0
176
     0
177
     0
178
     0
270
     2
271
     4
272
     4
273
     2
274
     2
340
10
275
     0
280
     0
281
     0
282
     0
283
     1
284
     0
285
     0
286
     0
287
     3
288
     0
  0
ENDTAB
  0
TABLE
  2
BLOCK_RECORD
  5
1
100
AcDbSymbolTable
 70
    10
  0
BLOCK_RECORD
  5
19
100
AcDbSymbolTableRecord
100
AcDbBlockTableRecord
  2
*MODEL_SPACE
  0
BLOCK_RECORD
  5
16
100
AcDbSymbolTableRecord
100
AcDbBlockTableRecord
  2
*PAPER_SPACE
  0
BLOCK_RECORD
  5
27
100
AcDbSymbolTableRecord
100
AcDbBlockTableRecord
  2
ARROW
  0
BLOCK_RECORD
  5
2F
100
AcDbSymbolTableRecord
100
AcDbBlockTableRecord
  2
*D1
  0
BLOCK_RECORD
  5
3B
100
AcDbSymbolTableRecord
100
AcDbBlockTableRecord
  2
*D2
  0
BLOCK_RECORD
  5
47
100
AcDbSymbolTableRecord
100
AcDbBlockTableRecord
  2
*D3
  0
BLOCK_RECORD
  5
53
100
AcDbSymbolTableRecord
100
AcDbBlockTableRecord
  2
*D4
  0
BLOCK_RECORD
  5
61
100
AcDbSymbolTableRecord
100
AcDbBlockTableRecord
  2
*D5
  0
BLOCK_RECORD
  5
6F
100
AcDbSymbolTableRecord
100
AcDbBlockTableRecord
  2
*D6
  0
BLOCK_RECORD
  5
7B
100
AcDbSymbolTableRecord
100
AcDbBlockTableRecord
  2
*D7
  0
BLOCK_RECORD
  5
87
100
AcDbSymbolTableRecord
100
AcDbBlockTableRecord
  2
*D8
  0
BLOCK_RECORD
  5
93
100
AcDbSymbolTableRecord
100
AcDbBlockTableRecord
  2
*D9
  0
ENDTAB
  0
ENDSEC
  0
SECTION
  2
BLOCKS
  0
BLOCK
  5
1A
100
AcDbEntity
  8
0
100
AcDbBlockBegin
  2
*MODEL_SPACE
 70
     0
 10
0.0
 20
0.0
 30
0.0
  3
*MODEL_SPACE
  1

  0
ENDBLK
  5
1B
100
AcDbEntity
  8
0
100
AcDbBlockEnd
  0
BLOCK
  5
17
100
AcDbEntity
 67
     1
  8
0
100
AcDbBlockBegin
  2
*PAPER_SPACE
 70
     0
 10
0.0
 20
0.0
 30
0.0
  3
*PAPER_SPACE
  1

  0
ENDBLK
  5
18
100
AcDbEntity
 67
     1
  8
0
100
AcDbBlockEnd
  0
BLOCK
  5
28
100
AcDbEntity
  8
0
100
AcDbBlockBegin
  2
ARROW
 70
    74
 10
0.0
 20
0.0
 30
0.0
  3
ARROW
  1

  0
POLYLINE
  5
29
100
AcDbEntity
  8
0
  6
CONTINUOUS
 62
     0
100
AcDb2dPolyline
 66
     1
 10
0.0
 20
0.0
 30
0.0
  0
VERTEX
  5
2A
100
AcDbEntity
  8
0
  6
CONTINUOUS
 62
     0
100
AcDbVertex
100
AcDb2dVertex
 10
2.42166
 20
0.648882
 30
0.0
  0
VERTEX
  5
2B
100
AcDbEntity
  8
0
  6
CONTINUOUS
 62
     0
100
AcDbVertex
100
AcDb2dVertex
 10
0.0
 20
0.0
 30
0.0
  0
VERTEX
  5
2C
100
AcDbEntity
  8
0
  6
CONTINUOUS
 62
     0
100
AcDbVertex
100
AcDb2dVertex
 10
2.42166
 20
-0.648882
 30
0.0
  0
SEQEND
  5
2D
100
AcDbEntity
  8
0
 62
     0
  0
ENDBLK
  5
2E
100
AcDbEntity
  8
0
100
AcDbBlockEnd
  0
BLOCK
  5
30
100
AcDbEntity
  8
PV
100
AcDbBlockBegin
  2
*D1
 70
    65
 10
0.0
 20
0.0
 30
0.0
  3
*D1
  1

  0
LINE
  5
31
100
AcDbEntity
  8
PV
 62
     7
100
AcDbLine
 10
-382.25
 20
265.0
 30
0.0
 11
-297.75
 21
265.0
 31
0.0
  0
LINE
  5
32
100
AcDbEntity
  8
PV
 62
     7
100
AcDbLine
 10
-382.25
 20
206.5
 30
0.0
 11
-382.25
 21
267.0
 31
0.0
  0
LINE
  5
33
100
AcDbEntity
  8
PV
 62
     7
100
AcDbLine
 10
-297.75
 20
206.5
 30
0.0
 11
-297.75
 21
267.0
 31
0.0
  0
INSERT
  5
34
100
AcDbEntity
  8
PV
  6
BYBLOCK
 62
     7
100
AcDbBlockReference
  2
ARROW
 10
-382.25
 20
265.0
 30
0.0
  0
INSERT
  5
35
100
AcDbEntity
  8
PV
  6
BYBLOCK
 62
     7
100
AcDbBlockReference
  2
ARROW
 10
-297.75
 20
265.0
 30
0.0
 50
180.0
  0
TEXT
  5
36
100
AcDbEntity
  8
PV
 62
     7
100
AcDbText
 10
-346.375001
 20
266.8
 30
0.0
 40
3.2
  1
84.5
  7
MONOTXT
100
AcDbText
  0
POINT
  5
37
100
AcDbEntity
  8
PV
 62
     7
100
AcDbPoint
 10
-382.25
 20
206.5
 30
0.0
  0
POINT
  5
38
100
AcDbEntity
  8
PV
 62
     7
100
AcDbPoint
 10
-297.75
 20
206.5
 30
0.0
  0
POINT
  5
39
100
AcDbEntity
  8
PV
 62
     7
100
AcDbPoint
 10
-297.75
 20
265.0
 30
0.0
  0
ENDBLK
  5
3A
100
AcDbEntity
  8
PV
100
AcDbBlockEnd
  0
BLOCK
  5
3C
100
AcDbEntity
  8
PV
100
AcDbBlockBegin
  2
*D2
 70
    65
 10
0.0
 20
0.0
 30
0.0
  3
*D2
  1

  0
LINE
  5
3D
100
AcDbEntity
  8
PV
 62
     7
100
AcDbLine
 10
-369.5
 20
245.0
 30
0.0
 11
-310.5
 21
245.0
 31
0.0
  0
LINE
  5
3E
100
AcDbEntity
  8
PV
 62
     7
100
AcDbLine
 10
-369.5
 20
229.5
 30
0.0
 11
-369.5
 21
247.0
 31
0.0
  0
LINE
  5
3F
100
AcDbEntity
  8
PV
 62
     7
100
AcDbLine
 10
-310.5
 20
229.5
 30
0.0
 11
-310.5
 21
247.0
 31
0.0
  0
INSERT
  5
40
100
AcDbEntity
  8
PV
  6
BYBLOCK
 62
     7
100
AcDbBlockReference
  2
ARROW
 10
-369.5
 20
245.0
 30
0.0
  0
INSERT
  5
41
100
AcDbEntity
  8
PV
  6
BYBLOCK
 62
     7
100
AcDbBlockReference
  2
ARROW
 10
-310.5
 20
245.0
 30
0.0
 50
180.0
  0
TEXT
  5
42
100
AcDbEntity
  8
PV
 62
     7
100
AcDbText
 10
-343.175001
 20
246.8
 30
0.0
 40
3.2
  1
59
  7
MONOTXT
100
AcDbText
  0
POINT
  5
43
100
AcDbEntity
  8
PV
 62
     7
100
AcDbPoint
 10
-369.5
 20
229.5
 30
0.0
  0
POINT
  5
44
100
AcDbEntity
  8
PV
 62
     7
100
AcDbPoint
 10
-310.5
 20
229.5
 30
0.0
  0
POINT
  5
45
100
AcDbEntity
  8
PV
 62
     7
100
AcDbPoint
 10
-310.5
 20
245.0
 30
0.0
  0
ENDBLK
  5
46
100
AcDbEntity
  8
PV
100
AcDbBlockEnd
  0
BLOCK
  5
48
100
AcDbEntity
  8
PV
100
AcDbBlockBegin
  2
*D3
 70
    65
 10
0.0
 20
0.0
 30
0.0
  3
*D3
  1

  0
LINE
  5
49
100
AcDbEntity
  8
PV
 62
     7
100
AcDbLine
 10
-376.5
 20
255.0
 30
0.0
 11
-303.5
 21
255.0
 31
0.0
  0
LINE
  5
4A
100
AcDbEntity
  8
PV
 62
     7
100
AcDbLine
 10
-376.5
 20
203.5
 30
0.0
 11
-376.5
 21
257.0
 31
0.0
  0
LINE
  5
4B
100
AcDbEntity
  8
PV
 62
     7
100
AcDbLine
 10
-303.5
 20
202.0
 30
0.0
 11
-303.5
 21
257.0
 31
0.0
  0
INSERT
  5
4C
100
AcDbEntity
  8
PV
  6
BYBLOCK
 62
     7
100
AcDbBlockReference
  2
ARROW
 10
-376.5
 20
255.0
 30
0.0
  0
INSERT
  5
4D
100
AcDbEntity
  8
PV
  6
BYBLOCK
 62
     7
100
AcDbBlockReference
  2
ARROW
 10
-303.5
 20
255.0
 30
0.0
 50
180.0
  0
TEXT
  5
4E
100
AcDbEntity
  8
PV
 62
     7
100
AcDbText
 10
-343.175001
 20
256.8
 30
0.0
 40
3.2
  1
73
  7
MONOTXT
100
AcDbText
  0
POINT
  5
4F
100
AcDbEntity
  8
PV
 62
     7
100
AcDbPoint
 10
-376.5
 20
203.5
 30
0.0
  0
POINT
  5
50
100
AcDbEntity
  8
PV
 62
     7
100
AcDbPoint
 10
-303.5
 20
202.0
 30
0.0
  0
POINT
  5
51
100
AcDbEntity
  8
PV
 62
     7
100
AcDbPoint
 10
-303.5
 20
255.0
 30
0.0
  0
ENDBLK
  5
52
100
AcDbEntity
  8
PV
100
AcDbBlockEnd
  0
BLOCK
  5
54
100
AcDbEntity
  8
PV
100
AcDbBlockBegin
  2
*D4
 70
    65
 10
0.0
 20
0.0
 30
0.0
  3
*D4
  1

  0
LINE
  5
55
100
AcDbEntity
  8
PV
 62
     7
100
AcDbLine
 10
-299.75
 20
160.0
 30
0.0
 11
-307.25
 21
160.0
 31
0.0
  0
LINE
  5
56
100
AcDbEntity
  8
PV
 62
     7
100
AcDbLine
 10
-299.75
 20
200.0
 30
0.0
 11
-299.75
 21
158.0
 31
0.0
  0
LINE
  5
57
100
AcDbEntity
  8
PV
 62
     7
100
AcDbLine
 10
-307.25
 20
200.0
 30
0.0
 11
-307.25
 21
158.0
 31
0.0
  0
INSERT
  5
58
100
AcDbEntity
  8
PV
  6
BYBLOCK
 62
     7
100
AcDbBlockReference
  2
ARROW
 10
-299.75
 20
160.0
 30
0.0
  0
INSERT
  5
59
100
AcDbEntity
  8
PV
  6
BYBLOCK
 62
     7
100
AcDbBlockReference
  2
ARROW
 10
-307.25
 20
160.0
 30
0.0
 50
180.0
  0
TEXT
  5
5A
100
AcDbEntity
  8
PV
 62
     7
100
AcDbText
 10
-308.275
 20
161.8
 30
0.0
 40
3.2
  1
7.5
  7
MONOTXT
100
AcDbText
  0
POINT
  5
5B
100
AcDbEntity
  8
PV
 62
     7
100
AcDbPoint
 10
-299.75
 20
200.0
 30
0.0
  0
POINT
  5
5C
100
AcDbEntity
  8
PV
 62
     7
100
AcDbPoint
 10
-307.25
 20
200.0
 30
0.0
  0
POINT
  5
5D
100
AcDbEntity
  8
PV
 62
     7
100
AcDbPoint
 10
-307.25
 20
160.0
 30
0.0
  0
LINE
  5
5E
100
AcDbEntity
  8
PV
 62
     7
100
AcDbLine
 10
-299.75
 20
160.0
 30
0.0
 11
-299.25
 21
160.0
 31
0.0
  0
LINE
  5
5F
100
AcDbEntity
  8
PV
 62
     7
100
AcDbLine
 10
-307.25
 20
160.0
 30
0.0
 11
-307.75
 21
160.0
 31
0.0
  0
ENDBLK
  5
60
100
AcDbEntity
  8
PV
100
AcDbBlockEnd
  0
BLOCK
  5
62
100
AcDbEntity
  8
PV
100
AcDbBlockBegin
  2
*D5
 70
    65
 10
0.0
 20
0.0
 30
0.0
  3
*D5
  1

  0
LINE
  5
63
100
AcDbEntity
  8
PV
 62
     7
100
AcDbLine
 10
-285.0
 20
202.0
 30
0.0
 11
-285.0
 21
198.0
 31
0.0
  0
LINE
  5
64
100
AcDbEntity
  8
PV
 62
     7
100
AcDbLine
 10
-301.75
 20
202.0
 30
0.0
 11
-283.0
 21
202.0
 31
0.0
  0
LINE
  5
65
100
AcDbEntity
  8
PV
 62
     7
100
AcDbLine
 10
-301.75
 20
198.0
 30
0.0
 11
-283.0
 21
198.0
 31
0.0
  0
INSERT
  5
66
100
AcDbEntity
  8
PV
  6
BYBLOCK
 62
     7
100
AcDbBlockReference
  2
ARROW
 10
-285.0
 20
202.0
 30
0.0
 50
90.0
  0
INSERT
  5
67
100
AcDbEntity
  8
PV
  6
BYBLOCK
 62
     7
100
AcDbBlockReference
  2
ARROW
 10
-285.0
 20
198.0
 30
0.0
 50
270.0
  0
TEXT
  5
68
100
AcDbEntity
  8
PV
 62
     7
100
AcDbText
 10
-286.8
 20
198.425
 30
0.0
 40
3.2
  1
4
 50
90.0
  7
MONOTXT
100
AcDbText
  0
POINT
  5
69
100
AcDbEntity
  8
PV
 62
     7
100
AcDbPoint
 10
-301.75
 20
202.0
 30
0.0
  0
POINT
  5
6A
100
AcDbEntity
  8
PV
 62
     7
100
AcDbPoint
 10
-301.75
 20
198.0
 30
0.0
  0
POINT
  5
6B
100
AcDbEntity
  8
PV
 62
     7
100
AcDbPoint
 10
-285.0
 20
198.0
 30
0.0
  0
LINE
  5
6C
100
AcDbEntity
  8
PV
 62
     7
100
AcDbLine
 10
-285.0
 20
202.0
 30
0.0
 11
-285.0
 21
202.5
 31
0.0
  0
LINE
  5
6D
100
AcDbEntity
  8
PV
 62
     7
100
AcDbLine
 10
-285.0
 20
198.0
 30
0.0
 11
-285.0
 21
197.5
 31
0.0
  0
ENDBLK
  5
6E
100
AcDbEntity
  8
PV
100
AcDbBlockEnd
  0
BLOCK
  5
70
100
AcDbEntity
  8
PV
100
AcDbBlockBegin
  2
*D6
 70
    65
 10
0.0
 20
0.0
 30
0.0
  3
*D6
  1

  0
LINE
  5
71
100
AcDbEntity
  8
PV
 62
     7
100
AcDbLine
 10
-265.0
 20
229.5
 30
0.0
 11
-265.0
 21
170.5
 31
0.0
  0
LINE
  5
72
100
AcDbEntity
  8
PV
 62
     7
100
AcDbLine
 10
-310.5
 20
229.5
 30
0.0
 11
-263.0
 21
229.5
 31
0.0
  0
LINE
  5
73
100
AcDbEntity
  8
PV
 62
     7
100
AcDbLine
 10
-310.5
 20
170.5
 30
0.0
 11
-263.0
 21
170.5
 31
0.0
  0
INSERT
  5
74
100
AcDbEntity
  8
PV
  6
BYBLOCK
 62
     7
100
AcDbBlockReference
  2
ARROW
 10
-265.0
 20
229.5
 30
0.0
 50
270.0
  0
INSERT
  5
75
100
AcDbEntity
  8
PV
  6
BYBLOCK
 62
     7
100
AcDbBlockReference
  2
ARROW
 10
-265.0
 20
170.5
 30
0.0
 50
90.0
  0
TEXT
  5
76
100
AcDbEntity
  8
PV
 62
     7
100
AcDbText
 10
-266.8
 20
196.824999
 30
0.0
 40
3.2
  1
59
 50
90.0
  7
MONOTXT
100
AcDbText
  0
POINT
  5
77
100
AcDbEntity
  8
PV
 62
     7
100
AcDbPoint
 10
-310.5
 20
229.5
 30
0.0
  0
POINT
  5
78
100
AcDbEntity
  8
PV
 62
     7
100
AcDbPoint
 10
-310.5
 20
170.5
 30
0.0
  0
POINT
  5
79
100
AcDbEntity
  8
PV
 62
     7
100
AcDbPoint
 10
-265.0
 20
170.5
 30
0.0
  0
ENDBLK
  5
7A
100
AcDbEntity
  8
PV
100
AcDbBlockEnd
  0
BLOCK
  5
7C
100
AcDbEntity
  8
PV
100
AcDbBlockBegin
  2
*D7
 70
    65
 10
0.0
 20
0.0
 30
0.0
  3
*D7
  1

  0
LINE
  5
7D
100
AcDbEntity
  8
PV
 62
     7
100
AcDbLine
 10
-245.0
 20
170.383455
 30
0.0
 11
-245.0
 21
231.5
 31
0.0
  0
LINE
  5
7E
100
AcDbEntity
  8
PV
 62
     7
100
AcDbLine
 10
-213.0
 20
170.383455
 30
0.0
 11
-247.0
 21
170.383455
 31
0.0
  0
LINE
  5
7F
100
AcDbEntity
  8
PV
 62
     7
100
AcDbLine
 10
-213.0
 20
231.5
 30
0.0
 11
-247.0
 21
231.5
 31
0.0
  0
INSERT
  5
80
100
AcDbEntity
  8
PV
  6
BYBLOCK
 62
     7
100
AcDbBlockReference
  2
ARROW
 10
-245.0
 20
170.383455
 30
0.0
 50
90.0
  0
INSERT
  5
81
100
AcDbEntity
  8
PV
  6
BYBLOCK
 62
     7
100
AcDbBlockReference
  2
ARROW
 10
-245.0
 20
231.5
 30
0.0
 50
270.0
  0
TEXT
  5
82
100
AcDbEntity
  8
PV
 62
     7
100
AcDbText
 10
-246.8
 20
192.966728
 30
0.0
 40
3.2
  1
MAX65
 50
90.0
  7
MONOTXT
100
AcDbText
  0
POINT
  5
83
100
AcDbEntity
  8
PV
 62
     7
100
AcDbPoint
 10
-213.0
 20
170.383455
 30
0.0
  0
POINT
  5
84
100
AcDbEntity
  8
PV
 62
     7
100
AcDbPoint
 10
-213.0
 20
231.5
 30
0.0
  0
POINT
  5
85
100
AcDbEntity
  8
PV
 62
     7
100
AcDbPoint
 10
-245.0
 20
231.5
 30
0.0
  0
ENDBLK
  5
86
100
AcDbEntity
  8
PV
100
AcDbBlockEnd
  0
BLOCK
  5
88
100
AcDbEntity
  8
PV
100
AcDbBlockBegin
  2
*D8
 70
    65
 10
0.0
 20
0.0
 30
0.0
  3
*D8
  1

  0
LINE
  5
89
100
AcDbEntity
  8
PV
 62
     7
100
AcDbLine
 10
-216.5
 20
235.0
 30
0.0
 11
-166.5
 21
235.0
 31
0.0
  0
LINE
  5
8A
100
AcDbEntity
  8
PV
 62
     7
100
AcDbLine
 10
-216.5
 20
229.5
 30
0.0
 11
-216.5
 21
237.0
 31
0.0
  0
LINE
  5
8B
100
AcDbEntity
  8
PV
 62
     7
100
AcDbLine
 10
-166.5
 20
208.799999
 30
0.0
 11
-166.5
 21
237.0
 31
0.0
  0
INSERT
  5
8C
100
AcDbEntity
  8
PV
  6
BYBLOCK
 62
     7
100
AcDbBlockReference
  2
ARROW
 10
-216.5
 20
235.0
 30
0.0
  0
INSERT
  5
8D
100
AcDbEntity
  8
PV
  6
BYBLOCK
 62
     7
100
AcDbBlockReference
  2
ARROW
 10
-166.5
 20
235.0
 30
0.0
 50
180.0
  0
TEXT
  5
8E
100
AcDbEntity
  8
PV
 62
     7
100
AcDbText
 10
-194.675001
 20
236.8
 30
0.0
 40
3.2
  1
50
  7
MONOTXT
100
AcDbText
  0
POINT
  5
8F
100
AcDbEntity
  8
PV
 62
     7
100
AcDbPoint
 10
-216.5
 20
229.5
 30
0.0
  0
POINT
  5
90
100
AcDbEntity
  8
PV
 62
     7
100
AcDbPoint
 10
-166.5
 20
208.799999
 30
0.0
  0
POINT
  5
91
100
AcDbEntity
  8
PV
 62
     7
100
AcDbPoint
 10
-166.5
 20
235.0
 30
0.0
  0
ENDBLK
  5
92
100
AcDbEntity
  8
PV
100
AcDbBlockEnd
  0
BLOCK
  5
94
100
AcDbEntity
  8
PV
100
AcDbBlockBegin
  2
*D9
 70
    65
 10
0.0
 20
0.0
 30
0.0
  3
*D9
  1

  0
LINE
  5
95
100
AcDbEntity
  8
PV
 62
     7
100
AcDbLine
 10
-236.5
 20
245.0
 30
0.0
 11
-166.5
 21
245.0
 31
0.0
  0
LINE
  5
96
100
AcDbEntity
  8
PV
 62
     7
100
AcDbLine
 10
-236.5
 20
224.5
 30
0.0
 11
-236.5
 21
247.0
 31
0.0
  0
LINE
  5
97
100
AcDbEntity
  8
PV
 62
     7
100
AcDbLine
 10
-166.5
 20
208.799999
 30
0.0
 11
-166.5
 21
247.0
 31
0.0
  0
INSERT
  5
98
100
AcDbEntity
  8
PV
  6
BYBLOCK
 62
     7
100
AcDbBlockReference
  2
ARROW
 10
-236.5
 20
245.0
 30
0.0
  0
INSERT
  5
99
100
AcDbEntity
  8
PV
  6
BYBLOCK
 62
     7
100
AcDbBlockReference
  2
ARROW
 10
-166.5
 20
245.0
 30
0.0
 50
180.0
  0
TEXT
  5
9A
100
AcDbEntity
  8
PV
 62
     7
100
AcDbText
 10
-204.675001
 20
246.8
 30
0.0
 40
3.2
  1
70
  7
MONOTXT
100
AcDbText
  0
POINT
  5
9B
100
AcDbEntity
  8
PV
 62
     7
100
AcDbPoint
 10
-236.5
 20
224.5
 30
0.0
  0
POINT
  5
9C
100
AcDbEntity
  8
PV
 62
     7
100
AcDbPoint
 10
-166.5
 20
208.799999
 30
0.0
  0
POINT
  5
9D
100
AcDbEntity
  8
PV
 62
     7
100
AcDbPoint
 10
-166.5
 20
245.0
 30
0.0
  0
ENDBLK
  5
9E
100
AcDbEntity
  8
PV
100
AcDbBlockEnd
  0
ENDSEC
  0
SECTION
  2
ENTITIES
  0
CIRCLE
  5
9F
100
AcDbEntity
  8
PV
100
AcDbCircle
 10
-360.0
 20
223.0
 30
0.0
 40
4.5
  0
LINE
  5
A0
100
AcDbEntity
  8
PV
100
AcDbLine
 10
-310.5
 20
229.5
 30
0.0
 11
-369.5
 21
229.5
 31
0.0
  0
LINE
  5
A1
100
AcDbEntity
  8
PV
100
AcDbLine
 10
-369.5
 20
170.5
 30
0.0
 11
-310.5
 21
170.5
 31
0.0
  0
LINE
  5
A2
100
AcDbEntity
  8
PV
100
AcDbLine
 10
-363.031089
 20
224.75
 30
0.0
 11
-363.031089
 21
221.25
 31
0.0
  0
LINE
  5
A3
100
AcDbEntity
  8
PV
100
AcDbLine
 10
-356.968911
 20
221.25
 30
0.0
 11
-356.968911
 21
224.75
 31
0.0
  0
CIRCLE
  5
A4
100
AcDbEntity
  8
PV
100
AcDbCircle
 10
-360.0
 20
223.0
 30
0.0
 40
1.5
  0
LINE
  5
A5
100
AcDbEntity
  8
PV
100
AcDbLine
 10
-369.5
 20
229.5
 30
0.0
 11
-369.5
 21
170.5
 31
0.0
  0
CIRCLE
  5
A6
100
AcDbEntity
  8
PV
100
AcDbCircle
 10
-362.5
 20
177.0
 30
0.0
 40
1.5
  0
LINE
  5
A7
100
AcDbEntity
  8
PV
100
AcDbLine
 10
-359.468911
 20
175.25
 30
0.0
 11
-359.468911
 21
178.75
 31
0.0
  0
LINE
  5
A8
100
AcDbEntity
  8
PV
100
AcDbLine
 10
-365.531089
 20
178.75
 30
0.0
 11
-365.531089
 21
175.25
 31
0.0
  0
CIRCLE
  5
A9
100
AcDbEntity
  8
PV
100
AcDbCircle
 10
-362.5
 20
177.0
 30
0.0
 40
4.5
  0
LINE
  5
AA
100
AcDbEntity
  8
PV
100
AcDbLine
 10
-365.531089
 20
175.25
 30
0.0
 11
-362.5
 21
173.5
 31
0.0
  0
LINE
  5
AB
100
AcDbEntity
  8
PV
100
AcDbLine
 10
-362.5
 20
173.5
 30
0.0
 11
-359.468911
 21
175.25
 31
0.0
  0
LINE
  5
AC
100
AcDbEntity
  8
PV
100
AcDbLine
 10
-382.25
 20
206.5
 30
0.0
 11
-382.25
 21
193.5
 31
0.0
  0
LINE
  5
AD
100
AcDbEntity
  8
PV
100
AcDbLine
 10
-369.5
 20
191.5
 30
0.0
 11
-380.25
 21
191.5
 31
0.0
  0
ARC
  5
AE
100
AcDbEntity
  8
PV
100
AcDbCircle
 10
-380.25
 20
193.5
 30
0.0
 40
2.0
100
AcDbArc
 50
180.0
 51
270.0
  0
LINE
  5
AF
100
AcDbEntity
  8
PV
100
AcDbLine
 10
-362.5
 20
180.5
 30
0.0
 11
-365.531089
 21
178.75
 31
0.0
  0
LINE
  5
B0
100
AcDbEntity
  8
PV
100
AcDbLine
 10
-359.468911
 20
178.75
 30
0.0
 11
-362.5
 21
180.5
 31
0.0
  0
LINE
  5
B1
100
AcDbEntity
  8
PV
100
AcDbLine
 10
-369.5
 20
208.5
 30
0.0
 11
-380.25
 21
208.5
 31
0.0
  0
ARC
  5
B2
100
AcDbEntity
  8
PV
100
AcDbCircle
 10
-380.25
 20
206.5
 30
0.0
 40
2.0
100
AcDbArc
 50
90.0
 51
180.0
  0
LINE
  5
B3
100
AcDbEntity
  8
PV
100
AcDbLine
 10
-363.031089
 20
221.25
 30
0.0
 11
-360.0
 21
219.5
 31
0.0
  0
LINE
  5
B4
100
AcDbEntity
  8
PV
100
AcDbLine
 10
-360.0
 20
219.5
 30
0.0
 11
-356.968911
 21
221.25
 31
0.0
  0
LINE
  5
B5
100
AcDbEntity
  8
PV
100
AcDbLine
 10
-360.0
 20
226.5
 30
0.0
 11
-363.031089
 21
224.75
 31
0.0
  0
LINE
  5
B6
100
AcDbEntity
  8
PV
100
AcDbLine
 10
-356.968911
 20
224.75
 30
0.0
 11
-360.0
 21
226.5
 31
0.0
  0
LINE
  5
B7
100
AcDbEntity
  8
PV
100
AcDbLine
 10
-323.031089
 20
224.75
 30
0.0
 11
-323.031089
 21
221.25
 31
0.0
  0
LINE
  5
B8
100
AcDbEntity
  8
PV
100
AcDbLine
 10
-316.968911
 20
221.25
 30
0.0
 11
-316.968911
 21
224.75
 31
0.0
  0
CIRCLE
  5
B9
100
AcDbEntity
  8
PV
100
AcDbCircle
 10
-320.0
 20
223.0
 30
0.0
 40
1.5
  0
CIRCLE
  5
BA
100
AcDbEntity
  8
PV
100
AcDbCircle
 10
-320.0
 20
223.0
 30
0.0
 40
4.5
  0
LINE
  5
BB
100
AcDbEntity
  8
PV
100
AcDbLine
 10
-310.5
 20
170.5
 30
0.0
 11
-310.5
 21
229.5
 31
0.0
  0
CIRCLE
  5
BC
100
AcDbEntity
  8
PV
100
AcDbCircle
 10
-340.0
 20
223.0
 30
0.0
 40
4.5
  0
CIRCLE
  5
BD
100
AcDbEntity
  8
PV
100
AcDbCircle
 10
-340.0
 20
223.0
 30
0.0
 40
1.5
  0
LINE
  5
BE
100
AcDbEntity
  8
PV
100
AcDbLine
 10
-336.968911
 20
221.25
 30
0.0
 11
-336.968911
 21
224.75
 31
0.0
  0
LINE
  5
BF
100
AcDbEntity
  8
PV
100
AcDbLine
 10
-343.031089
 20
224.75
 30
0.0
 11
-343.031089
 21
221.25
 31
0.0
  0
LINE
  5
C0
100
AcDbEntity
  8
PV
100
AcDbLine
 10
-320.531089
 20
178.75
 30
0.0
 11
-320.531089
 21
175.25
 31
0.0
  0
LINE
  5
C1
100
AcDbEntity
  8
PV
100
AcDbLine
 10
-314.468911
 20
175.25
 30
0.0
 11
-314.468911
 21
178.75
 31
0.0
  0
CIRCLE
  5
C2
100
AcDbEntity
  8
PV
100
AcDbCircle
 10
-317.5
 20
177.0
 30
0.0
 40
1.5
  0
CIRCLE
  5
C3
100
AcDbEntity
  8
PV
100
AcDbCircle
 10
-332.5
 20
177.0
 30
0.0
 40
1.5
  0
LINE
  5
C4
100
AcDbEntity
  8
PV
100
AcDbLine
 10
-329.468911
 20
175.25
 30
0.0
 11
-329.468911
 21
178.75
 31
0.0
  0
CIRCLE
  5
C5
100
AcDbEntity
  8
PV
100
AcDbCircle
 10
-317.5
 20
177.0
 30
0.0
 40
4.5
  0
LINE
  5
C6
100
AcDbEntity
  8
PV
100
AcDbLine
 10
-335.531089
 20
178.75
 30
0.0
 11
-335.531089
 21
175.25
 31
0.0
  0
LINE
  5
C7
100
AcDbEntity
  8
PV
100
AcDbLine
 10
-350.531089
 20
178.75
 30
0.0
 11
-350.531089
 21
175.25
 31
0.0
  0
LINE
  5
C8
100
AcDbEntity
  8
PV
100
AcDbLine
 10
-344.468911
 20
175.25
 30
0.0
 11
-344.468911
 21
178.75
 31
0.0
  0
CIRCLE
  5
C9
100
AcDbEntity
  8
PV
100
AcDbCircle
 10
-347.5
 20
177.0
 30
0.0
 40
1.5
  0
CIRCLE
  5
CA
100
AcDbEntity
  8
PV
100
AcDbCircle
 10
-347.5
 20
177.0
 30
0.0
 40
4.5
  0
CIRCLE
  5
CB
100
AcDbEntity
  8
PV
100
AcDbCircle
 10
-332.5
 20
177.0
 30
0.0
 40
4.5
  0
LINE
  5
CC
100
AcDbEntity
  8
PV
100
AcDbLine
 10
-350.531089
 20
175.25
 30
0.0
 11
-347.5
 21
173.5
 31
0.0
  0
LINE
  5
CD
100
AcDbEntity
  8
PV
100
AcDbLine
 10
-347.5
 20
173.5
 30
0.0
 11
-344.468911
 21
175.25
 31
0.0
  0
LINE
  5
CE
100
AcDbEntity
  8
PV
100
AcDbLine
 10
-335.531089
 20
175.25
 30
0.0
 11
-332.5
 21
173.5
 31
0.0
  0
LINE
  5
CF
100
AcDbEntity
  8
PV
100
AcDbLine
 10
-332.5
 20
173.5
 30
0.0
 11
-329.468911
 21
175.25
 31
0.0
  0
LINE
  5
D0
100
AcDbEntity
  8
PV
100
AcDbLine
 10
-320.531089
 20
175.25
 30
0.0
 11
-317.5
 21
173.5
 31
0.0
  0
LINE
  5
D1
100
AcDbEntity
  8
PV
100
AcDbLine
 10
-317.5
 20
173.5
 30
0.0
 11
-314.468911
 21
175.25
 31
0.0
  0
LINE
  5
D2
100
AcDbEntity
  8
PV
100
AcDbLine
 10
-347.5
 20
180.5
 30
0.0
 11
-350.531089
 21
178.75
 31
0.0
  0
LINE
  5
D3
100
AcDbEntity
  8
PV
100
AcDbLine
 10
-344.468911
 20
178.75
 30
0.0
 11
-347.5
 21
180.5
 31
0.0
  0
LINE
  5
D4
100
AcDbEntity
  8
PV
100
AcDbLine
 10
-332.5
 20
180.5
 30
0.0
 11
-335.531089
 21
178.75
 31
0.0
  0
LINE
  5
D5
100
AcDbEntity
  8
PV
100
AcDbLine
 10
-329.468911
 20
178.75
 30
0.0
 11
-332.5
 21
180.5
 31
0.0
  0
LINE
  5
D6
100
AcDbEntity
  8
PV
100
AcDbLine
 10
-343.031089
 20
221.25
 30
0.0
 11
-340.0
 21
219.5
 31
0.0
  0
LINE
  5
D7
100
AcDbEntity
  8
PV
100
AcDbLine
 10
-340.0
 20
219.5
 30
0.0
 11
-336.968911
 21
221.25
 31
0.0
  0
ARC
  5
D8
100
AcDbEntity
  8
PV
100
AcDbCircle
 10
-301.75
 20
200.0
 30
0.0
 40
2.0
100
AcDbArc
 50
270.0
 51
90.0
  0
LINE
  5
D9
100
AcDbEntity
  8
PV
100
AcDbLine
 10
-297.75
 20
206.5
 30
0.0
 11
-297.75
 21
193.5
 31
0.0
  0
ARC
  5
DA
100
AcDbEntity
  8
PV
100
AcDbCircle
 10
-305.25
 20
200.0
 30
0.0
 40
2.0
100
AcDbArc
 50
90.0
 51
270.0
  0
LINE
  5
DB
100
AcDbEntity
  8
PV
100
AcDbLine
 10
-317.5
 20
180.5
 30
0.0
 11
-320.531089
 21
178.75
 31
0.0
  0
LINE
  5
DC
100
AcDbEntity
  8
PV
100
AcDbLine
 10
-314.468911
 20
178.75
 30
0.0
 11
-317.5
 21
180.5
 31
0.0
  0
LINE
  5
DD
100
AcDbEntity
  8
PV
100
AcDbLine
 10
-310.5
 20
191.5
 30
0.0
 11
-299.75
 21
191.5
 31
0.0
  0
LINE
  5
DE
100
AcDbEntity
  8
PV
100
AcDbLine
 10
-305.25
 20
198.0
 30
0.0
 11
-301.75
 21
198.0
 31
0.0
  0
ARC
  5
DF
100
AcDbEntity
  8
PV
100
AcDbCircle
 10
-299.75
 20
193.5
 30
0.0
 40
2.0
100
AcDbArc
 50
270.0
 51
0.0
  0
LINE
  5
E0
100
AcDbEntity
  8
PV
100
AcDbLine
 10
-320.0
 20
219.5
 30
0.0
 11
-316.968911
 21
221.25
 31
0.0
  0
LINE
  5
E1
100
AcDbEntity
  8
PV
100
AcDbLine
 10
-323.031089
 20
221.25
 30
0.0
 11
-320.0
 21
219.5
 31
0.0
  0
LINE
  5
E2
100
AcDbEntity
  8
PV
100
AcDbLine
 10
-310.5
 20
208.5
 30
0.0
 11
-299.75
 21
208.5
 31
0.0
  0
LINE
  5
E3
100
AcDbEntity
  8
PV
100
AcDbLine
 10
-305.25
 20
202.0
 30
0.0
 11
-301.75
 21
202.0
 31
0.0
  0
ARC
  5
E4
100
AcDbEntity
  8
PV
100
AcDbCircle
 10
-299.75
 20
206.5
 30
0.0
 40
2.0
100
AcDbArc
 50
0.0
 51
90.0
  0
LINE
  5
E5
100
AcDbEntity
  8
PV
100
AcDbLine
 10
-340.0
 20
226.5
 30
0.0
 11
-343.031089
 21
224.75
 31
0.0
  0
LINE
  5
E6
100
AcDbEntity
  8
PV
100
AcDbLine
 10
-336.968911
 20
224.75
 30
0.0
 11
-340.0
 21
226.5
 31
0.0
  0
LINE
  5
E7
100
AcDbEntity
  8
PV
100
AcDbLine
 10
-316.968911
 20
224.75
 30
0.0
 11
-320.0
 21
226.5
 31
0.0
  0
LINE
  5
E8
100
AcDbEntity
  8
PV
100
AcDbLine
 10
-320.0
 20
226.5
 30
0.0
 11
-323.031089
 21
224.75
 31
0.0
  0
LINE
  5
E9
100
AcDbEntity
  8
PV
100
AcDbLine
 10
-221.0
 20
226.5
 30
0.0
 11
-221.0
 21
219.5
 31
0.0
  0
LINE
  5
EA
100
AcDbEntity
  8
PV
100
AcDbLine
 10
-227.0
 20
220.0
 30
0.0
 11
-227.5
 21
226.0
 31
0.0
  0
LINE
  5
EB
100
AcDbEntity
  8
PV
100
AcDbLine
 10
-228.5
 20
226.0
 30
0.0
 11
-228.0
 21
220.0
 31
0.0
  0
LINE
  5
EC
100
AcDbEntity
  8
PV
100
AcDbLine
 10
-228.5
 20
226.5
 30
0.0
 11
-228.5
 21
219.5
 31
0.0
  0
LINE
  5
ED
100
AcDbEntity
  8
PV
100
AcDbLine
 10
-227.0
 20
227.5
 30
0.0
 11
-227.0
 21
218.5
 31
0.0
  0
LINE
  5
EE
100
AcDbEntity
  8
PV
100
AcDbLine
 10
-226.0
 20
227.5
 30
0.0
 11
-226.0
 21
218.5
 31
0.0
  0
LINE
  5
EF
100
AcDbEntity
  8
PV
100
AcDbLine
 10
-225.0
 20
227.5
 30
0.0
 11
-225.0
 21
218.5
 31
0.0
  0
LINE
  5
F0
100
AcDbEntity
  8
PV
100
AcDbLine
 10
-220.0
 20
227.5
 30
0.0
 11
-220.0
 21
218.5
 31
0.0
  0
LINE
  5
F1
100
AcDbEntity
  8
PV
100
AcDbLine
 10
-216.5
 20
229.5
 30
0.0
 11
-216.5
 21
170.5
 31
0.0
  0
LINE
  5
F2
100
AcDbEntity
  8
PV
100
AcDbLine
 10
-219.5
 20
229.5
 30
0.0
 11
-219.5
 21
170.5
 31
0.0
  0
LINE
  5
F3
100
AcDbEntity
  8
PV
100
AcDbLine
 10
-236.5
 20
224.5
 30
0.0
 11
-236.5
 21
221.5
 31
0.0
  0
LINE
  5
F4
100
AcDbEntity
  8
PV
100
AcDbLine
 10
-232.5
 20
226.5
 30
0.0
 11
-232.5
 21
219.5
 31
0.0
  0
LINE
  5
F5
100
AcDbEntity
  8
PV
100
AcDbLine
 10
-177.5
 20
220.5
 30
0.0
 11
-205.5
 21
220.5
 31
0.0
  0
LINE
  5
F6
100
AcDbEntity
  8
PV
100
AcDbLine
 10
-177.5
 20
179.5
 30
0.0
 11
-205.5
 21
179.5
 31
0.0
  0
LINE
  5
F7
100
AcDbEntity
  8
PV
100
AcDbLine
 10
-216.5
 20
190.0
 30
0.0
 11
-167.7
 21
190.0
 31
0.0
  0
LINE
  5
F8
100
AcDbEntity
  8
PV
100
AcDbLine
 10
-216.5
 20
210.0
 30
0.0
 11
-167.7
 21
210.0
 31
0.0
  0
LINE
  5
F9
100
AcDbEntity
  8
PV
100
AcDbLine
 10
-216.0
 20
172.5
 30
0.0
 11
-216.0
 21
181.5
 31
0.0
  0
LINE
  5
FA
100
AcDbEntity
  8
PV
100
AcDbLine
 10
-215.5
 20
181.0
 30
0.0
 11
-215.5
 21
175.0
 31
0.0
  0
ARC
  5
FB
100
AcDbEntity
  8
PV
100
AcDbCircle
 10
-217.0
 20
177.0
 30
0.0
 40
3.0
100
AcDbArc
 50
301.726584
 51
60.0
  0
ARC
  5
FC
100
AcDbEntity
  8
PV
100
AcDbCircle
 10
-202.942308
 20
179.519231
 30
0.0
 40
2.557765
100
AcDbArc
 50
180.430787
 51
265.207975
  0
ARC
  5
FD
100
AcDbEntity
  8
PV
100
AcDbCircle
 10
-202.875036
 20
179.489208
 30
0.0
 40
1.625
100
AcDbArc
 50
179.61947
 51
245.371491
  0
LINE
  5
FE
100
AcDbEntity
  8
PV
100
AcDbLine
 10
-220.0
 20
181.5
 30
0.0
 11
-220.0
 21
172.5
 31
0.0
  0
LINE
  5
FF
100
AcDbEntity
  8
PV
100
AcDbLine
 10
-225.0
 20
181.5
 30
0.0
 11
-225.0
 21
172.5
 31
0.0
  0
LINE
  5
100
100
AcDbEntity
  8
PV
100
AcDbLine
 10
-226.0
 20
181.5
 30
0.0
 11
-226.0
 21
172.5
 31
0.0
  0
LINE
  5
101
100
AcDbEntity
  8
PV
100
AcDbLine
 10
-227.0
 20
181.5
 30
0.0
 11
-227.0
 21
172.5
 31
0.0
  0
LINE
  5
102
100
AcDbEntity
  8
PV
100
AcDbLine
 10
-228.5
 20
180.5
 30
0.0
 11
-228.5
 21
173.5
 31
0.0
  0
LINE
  5
103
100
AcDbEntity
  8
PV
100
AcDbLine
 10
-228.5
 20
180.0
 30
0.0
 11
-228.0
 21
174.0
 31
0.0
  0
LINE
  5
104
100
AcDbEntity
  8
PV
100
AcDbLine
 10
-227.0
 20
174.0
 30
0.0
 11
-227.5
 21
180.0
 31
0.0
  0
LINE
  5
105
100
AcDbEntity
  8
PV
100
AcDbLine
 10
-221.0
 20
180.5
 30
0.0
 11
-221.0
 21
173.5
 31
0.0
  0
LINE
  5
106
100
AcDbEntity
  8
PV
100
AcDbLine
 10
-232.5
 20
180.5
 30
0.0
 11
-232.5
 21
173.5
 31
0.0
  0
LINE
  5
107
100
AcDbEntity
  8
PV
100
AcDbLine
 10
-236.5
 20
178.5
 30
0.0
 11
-236.5
 21
175.5
 31
0.0
  0
LINE
  5
108
100
AcDbEntity
  8
PV
100
AcDbLine
 10
-219.5
 20
170.5
 30
0.0
 11
-216.5
 21
170.5
 31
0.0
  0
LINE
  5
109
100
AcDbEntity
  8
PV
100
AcDbLine
 10
-236.5
 20
175.5
 30
0.0
 11
-232.5
 21
175.5
 31
0.0
  0
LINE
  5
10A
100
AcDbEntity
  8
PV
100
AcDbLine
 10
-227.0
 20
172.5
 30
0.0
 11
-225.0
 21
172.5
 31
0.0
  0
LINE
  5
10B
100
AcDbEntity
  8
PV
100
AcDbLine
 10
-228.5
 20
173.5
 30
0.0
 11
-232.5
 21
173.5
 31
0.0
  0
LINE
  5
10C
100
AcDbEntity
  8
PV
100
AcDbLine
 10
-228.5
 20
175.0
 30
0.0
 11
-232.5
 21
175.0
 31
0.0
  0
LINE
  5
10D
100
AcDbEntity
  8
PV
100
AcDbLine
 10
-228.0
 20
174.0
 30
0.0
 11
-227.0
 21
174.0
 31
0.0
  0
LINE
  5
10E
100
AcDbEntity
  8
PV
100
AcDbLine
 10
-228.5
 20
175.5
 30
0.0
 11
-228.125
 21
175.5
 31
0.0
  0
LINE
  5
10F
100
AcDbEntity
  8
PV
100
AcDbLine
 10
-220.0
 20
172.5
 30
0.0
 11
-219.5
 21
172.5
 31
0.0
  0
LINE
  5
110
100
AcDbEntity
  8
PV
100
AcDbLine
 10
-221.0
 20
174.0
 30
0.0
 11
-220.0
 21
174.0
 31
0.0
  0
LINE
  5
111
100
AcDbEntity
  8
PV
100
AcDbLine
 10
-221.0
 20
173.5
 30
0.0
 11
-225.0
 21
173.5
 31
0.0
  0
LINE
  5
112
100
AcDbEntity
  8
PV
100
AcDbLine
 10
-221.0
 20
175.0
 30
0.0
 11
-225.0
 21
175.0
 31
0.0
  0
ARC
  5
113
100
AcDbEntity
  8
PV
100
AcDbCircle
 10
-214.896633
 20
194.286906
 30
0.0
 40
23.812852
100
AcDbArc
 50
280.639724
 51
303.181079
  0
ARC
  5
114
100
AcDbEntity
  8
PV
100
AcDbCircle
 10
-203.0
 20
175.75
 30
0.0
 40
1.903943
100
AcDbArc
 50
329.477252
 51
66.80141
  0
ARC
  5
115
100
AcDbEntity
  8
PV
100
AcDbCircle
 10
-215.726275
 20
195.189831
 30
0.0
 40
23.885166
100
AcDbArc
 50
282.639055
 51
302.407034
  0
ARC
  5
116
100
AcDbEntity
  8
PV
100
AcDbCircle
 10
-213.393877
 20
174.419394
 30
0.0
 40
2.607369
100
AcDbArc
 50
178.228442
 51
256.557738
  0
LINE
  5
117
100
AcDbEntity
  8
PV
100
AcDbLine
 10
-210.5
 20
170.383455
 30
0.0
 11
-210.5
 21
172.383455
 31
0.0
  0
ARC
  5
118
100
AcDbEntity
  8
PV
100
AcDbCircle
 10
-213.765388
 20
171.383455
 30
0.0
 40
0.5
100
AcDbArc
 50
14.036244
 51
90.0
  0
LINE
  5
119
100
AcDbEntity
  8
PV
100
AcDbLine
 10
-216.5
 20
172.5
 30
0.0
 11
-216.0
 21
172.5
 31
0.0
  0
LINE
  5
11A
100
AcDbEntity
  8
PV
100
AcDbLine
 10
-214.0
 20
171.883455
 30
0.0
 11
-213.765388
 21
171.883455
 31
0.0
  0
LINE
  5
11B
100
AcDbEntity
  8
PV
100
AcDbLine
 10
-213.0
 20
170.383455
 30
0.0
 11
-210.5
 21
170.383455
 31
0.0
  0
LINE
  5
11C
100
AcDbEntity
  8
PV
100
AcDbLine
 10
-213.0
 20
170.383455
 30
0.0
 11
-213.280317
 21
171.504722
 31
0.0
  0
LINE
  5
11D
100
AcDbEntity
  8
PV
100
AcDbLine
 10
-213.5
 20
172.383455
 30
0.0
 11
-210.5
 21
172.383455
 31
0.0
  0
ARC
  5
11E
100
AcDbEntity
  8
PV
100
AcDbCircle
 10
-212.893877
 20
174.919394
 30
0.0
 40
2.607369
100
AcDbArc
 50
178.228442
 51
256.557738
  0
ARC
  5
11F
100
AcDbEntity
  8
PV
100
AcDbCircle
 10
-203.23952
 20
175.973902
 30
0.0
 40
1.0
100
AcDbArc
 50
288.302418
 51
85.207975
  0
ARC
  5
120
100
AcDbEntity
  8
PV
100
AcDbCircle
 10
-199.304646
 20
186.902682
 30
0.0
 40
9.853199
100
AcDbArc
 50
244.463464
 51
252.607032
  0
ARC
  5
121
100
AcDbEntity
  8
PV
100
AcDbCircle
 10
-202.221318
 20
175.290905
 30
0.0
 40
1.0
100
AcDbArc
 50
290.925047
 51
329.477252
  0
ARC
  5
122
100
AcDbEntity
  8
PV
100
AcDbCircle
 10
-219.5
 20
200.0
 30
0.0
 40
2.0
100
AcDbArc
 50
90.0
 51
270.0
  0
LINE
  5
123
100
AcDbEntity
  8
PV
100
AcDbLine
 10
-236.5
 20
178.5
 30
0.0
 11
-232.5
 21
178.5
 31
0.0
  0
LINE
  5
124
100
AcDbEntity
  8
PV
100
AcDbLine
 10
-227.0
 20
181.5
 30
0.0
 11
-225.0
 21
181.5
 31
0.0
  0
LINE
  5
125
100
AcDbEntity
  8
PV
100
AcDbLine
 10
-232.5
 20
180.5
 30
0.0
 11
-228.5
 21
180.5
 31
0.0
  0
LINE
  5
126
100
AcDbEntity
  8
PV
100
AcDbLine
 10
-232.5
 20
179.0
 30
0.0
 11
-228.5
 21
179.0
 31
0.0
  0
LINE
  5
127
100
AcDbEntity
  8
PV
100
AcDbLine
 10
-228.5
 20
180.0
 30
0.0
 11
-227.5
 21
180.0
 31
0.0
  0
LINE
  5
128
100
AcDbEntity
  8
PV
100
AcDbLine
 10
-227.375
 20
178.5
 30
0.0
 11
-227.0
 21
178.5
 31
0.0
  0
LINE
  5
129
100
AcDbEntity
  8
PV
100
AcDbLine
 10
-221.0
 20
180.0
 30
0.0
 11
-220.0
 21
180.0
 31
0.0
  0
LINE
  5
12A
100
AcDbEntity
  8
PV
100
AcDbLine
 10
-225.0
 20
180.5
 30
0.0
 11
-221.0
 21
180.5
 31
0.0
  0
LINE
  5
12B
100
AcDbEntity
  8
PV
100
AcDbLine
 10
-225.0
 20
179.0
 30
0.0
 11
-221.0
 21
179.0
 31
0.0
  0
LINE
  5
12C
100
AcDbEntity
  8
PV
100
AcDbLine
 10
-220.0
 20
181.5
 30
0.0
 11
-219.5
 21
181.5
 31
0.0
  0
LINE
  5
12D
100
AcDbEntity
  8
PV
100
AcDbLine
 10
-236.5
 20
221.5
 30
0.0
 11
-232.5
 21
221.5
 31
0.0
  0
LINE
  5
12E
100
AcDbEntity
  8
PV
100
AcDbLine
 10
-227.0
 20
218.5
 30
0.0
 11
-225.0
 21
218.5
 31
0.0
  0
LINE
  5
12F
100
AcDbEntity
  8
PV
100
AcDbLine
 10
-228.5
 20
221.0
 30
0.0
 11
-232.5
 21
221.0
 31
0.0
  0
LINE
  5
130
100
AcDbEntity
  8
PV
100
AcDbLine
 10
-228.5
 20
219.5
 30
0.0
 11
-232.5
 21
219.5
 31
0.0
  0
LINE
  5
131
100
AcDbEntity
  8
PV
100
AcDbLine
 10
-228.5
 20
221.5
 30
0.0
 11
-228.125
 21
221.5
 31
0.0
  0
LINE
  5
132
100
AcDbEntity
  8
PV
100
AcDbLine
 10
-228.0
 20
220.0
 30
0.0
 11
-227.0
 21
220.0
 31
0.0
  0
LINE
  5
133
100
AcDbEntity
  8
PV
100
AcDbLine
 10
-221.0
 20
220.0
 30
0.0
 11
-220.0
 21
220.0
 31
0.0
  0
LINE
  5
134
100
AcDbEntity
  8
PV
100
AcDbLine
 10
-221.0
 20
221.0
 30
0.0
 11
-225.0
 21
221.0
 31
0.0
  0
LINE
  5
135
100
AcDbEntity
  8
PV
100
AcDbLine
 10
-221.0
 20
219.5
 30
0.0
 11
-225.0
 21
219.5
 31
0.0
  0
LINE
  5
136
100
AcDbEntity
  8
PV
100
AcDbLine
 10
-220.0
 20
218.5
 30
0.0
 11
-219.5
 21
218.5
 31
0.0
  0
LINE
  5
137
100
AcDbEntity
  8
PV
100
AcDbLine
 10
-205.5
 20
190.0
 30
0.0
 11
-205.5
 21
179.5
 31
0.0
  0
LINE
  5
138
100
AcDbEntity
  8
PV
100
AcDbLine
 10
-216.0
 20
181.5
 30
0.0
 11
-216.5
 21
181.5
 31
0.0
  0
LINE
  5
139
100
AcDbEntity
  8
PV
100
AcDbLine
 10
-216.0
 20
181.0
 30
0.0
 11
-215.5
 21
181.0
 31
0.0
  0
LINE
  5
13A
100
AcDbEntity
  8
PV
100
AcDbLine
 10
-205.5
 20
220.5
 30
0.0
 11
-205.5
 21
210.0
 31
0.0
  0
LINE
  5
13B
100
AcDbEntity
  8
PV
100
AcDbLine
 10
-167.5
 20
209.8
 30
0.0
 11
-167.5
 21
190.2
 31
0.0
  0
LINE
  5
13C
100
AcDbEntity
  8
PV
100
AcDbLine
 10
-166.5
 20
208.8
 30
0.0
 11
-166.5
 21
191.2
 31
0.0
  0
LINE
  5
13D
100
AcDbEntity
  8
PV
100
AcDbLine
 10
-177.5
 20
190.0
 30
0.0
 11
-177.5
 21
179.5
 31
0.0
  0
ARC
  5
13E
100
AcDbEntity
  8
PV
100
AcDbCircle
 10
-167.7
 20
190.2
 30
0.0
 40
0.2
100
AcDbArc
 50
270.0
 51
0.0
  0
ARC
  5
13F
100
AcDbEntity
  8
PV
100
AcDbCircle
 10
-166.7
 20
191.2
 30
0.0
 40
0.2
100
AcDbArc
 50
270.0
 51
0.0
  0
LINE
  5
140
100
AcDbEntity
  8
PV
100
AcDbLine
 10
-167.5
 20
191.0
 30
0.0
 11
-166.7
 21
191.0
 31
0.0
  0
LINE
  5
141
100
AcDbEntity
  8
PV
100
AcDbLine
 10
-177.5
 20
220.5
 30
0.0
 11
-177.5
 21
210.0
 31
0.0
  0
ARC
  5
142
100
AcDbEntity
  8
PV
100
AcDbCircle
 10
-167.7
 20
209.8
 30
0.0
 40
0.2
100
AcDbArc
 50
0.0
 51
90.0
  0
ARC
  5
143
100
AcDbEntity
  8
PV
100
AcDbCircle
 10
-166.7
 20
208.8
 30
0.0
 40
0.2
100
AcDbArc
 50
0.0
 51
90.0
  0
LINE
  5
144
100
AcDbEntity
  8
PV
100
AcDbLine
 10
-167.5
 20
209.0
 30
0.0
 11
-166.7
 21
209.0
 31
0.0
  0
LINE
  5
145
100
AcDbEntity
  8
PV
100
AcDbLine
 10
-219.5
 20
229.5
 30
0.0
 11
-216.5
 21
229.5
 31
0.0
  0
LINE
  5
146
100
AcDbEntity
  8
PV
100
AcDbLine
 10
-236.5
 20
224.5
 30
0.0
 11
-232.5
 21
224.5
 31
0.0
  0
LINE
  5
147
100
AcDbEntity
  8
PV
100
AcDbLine
 10
-227.0
 20
227.5
 30
0.0
 11
-225.0
 21
227.5
 31
0.0
  0
LINE
  5
148
100
AcDbEntity
  8
PV
100
AcDbLine
 10
-232.5
 20
225.0
 30
0.0
 11
-228.5
 21
225.0
 31
0.0
  0
LINE
  5
149
100
AcDbEntity
  8
PV
100
AcDbLine
 10
-232.5
 20
226.5
 30
0.0
 11
-228.5
 21
226.5
 31
0.0
  0
LINE
  5
14A
100
AcDbEntity
  8
PV
100
AcDbLine
 10
-227.375
 20
224.5
 30
0.0
 11
-227.0
 21
224.5
 31
0.0
  0
LINE
  5
14B
100
AcDbEntity
  8
PV
100
AcDbLine
 10
-228.5
 20
226.0
 30
0.0
 11
-227.5
 21
226.0
 31
0.0
  0
LINE
  5
14C
100
AcDbEntity
  8
PV
100
AcDbLine
 10
-221.0
 20
226.0
 30
0.0
 11
-220.0
 21
226.0
 31
0.0
  0
LINE
  5
14D
100
AcDbEntity
  8
PV
100
AcDbLine
 10
-225.0
 20
225.0
 30
0.0
 11
-221.0
 21
225.0
 31
0.0
  0
LINE
  5
14E
100
AcDbEntity
  8
PV
100
AcDbLine
 10
-225.0
 20
226.5
 30
0.0
 11
-221.0
 21
226.5
 31
0.0
  0
LINE
  5
14F
100
AcDbEntity
  8
PV
100
AcDbLine
 10
-220.0
 20
227.5
 30
0.0
 11
-219.5
 21
227.5
 31
0.0
  0
LINE
  5
150
100
AcDbEntity
  8
PV
100
AcDbLine
 10
-213.0
 20
231.5
 30
0.0
 11
-213.280317
 21
230.378732
 31
0.0
  0
ARC
  5
151
100
AcDbEntity
  8
PV
100
AcDbCircle
 10
-213.765388
 20
230.5
 30
0.0
 40
0.5
100
AcDbArc
 50
270.0
 51
345.963756
  0
ARC
  5
152
100
AcDbEntity
  8
PV
100
AcDbCircle
 10
-210.038978
 20
225.267324
 30
0.0
 40
5.467561
100
AcDbArc
 50
129.27256
 51
182.802462
  0
ARC
  5
153
100
AcDbEntity
  8
PV
100
AcDbCircle
 10
-210.538978
 20
225.767324
 30
0.0
 40
5.467561
100
AcDbArc
 50
129.27256
 51
182.802462
  0
LINE
  5
154
100
AcDbEntity
  8
PV
100
AcDbLine
 10
-216.0
 20
227.5
 30
0.0
 11
-216.0
 21
218.5
 31
0.0
  0
LINE
  5
155
100
AcDbEntity
  8
PV
100
AcDbLine
 10
-214.0
 20
230.0
 30
0.0
 11
-213.765388
 21
230.0
 31
0.0
  0
LINE
  5
156
100
AcDbEntity
  8
PV
100
AcDbLine
 10
-216.5
 20
227.5
 30
0.0
 11
-216.0
 21
227.5
 31
0.0
  0
LINE
  5
157
100
AcDbEntity
  8
PV
100
AcDbLine
 10
-216.0
 20
219.0
 30
0.0
 11
-215.5
 21
219.0
 31
0.0
  0
LINE
  5
158
100
AcDbEntity
  8
PV
100
AcDbLine
 10
-216.0
 20
218.5
 30
0.0
 11
-216.5
 21
218.5
 31
0.0
  0
ARC
  5
159
100
AcDbEntity
  8
PV
100
AcDbCircle
 10
-217.0
 20
223.0
 30
0.0
 40
3.0
100
AcDbArc
 50
300.0
 51
58.273416
  0
LINE
  5
15A
100
AcDbEntity
  8
PV
100
AcDbLine
 10
-215.5
 20
219.0
 30
0.0
 11
-215.5
 21
225.0
 31
0.0
  0
LINE
  5
15B
100
AcDbEntity
  8
PV
100
AcDbLine
 10
-213.5
 20
229.5
 30
0.0
 11
-210.5
 21
229.5
 31
0.0
  0
ARC
  5
15C
100
AcDbEntity
  8
PV
100
AcDbCircle
 10
-202.221318
 20
224.709095
 30
0.0
 40
1.0
100
AcDbArc
 50
30.522748
 51
69.074953
  0
ARC
  5
15D
100
AcDbEntity
  8
PV
100
AcDbCircle
 10
-222.717544
 20
203.360221
 30
0.0
 40
29.307785
100
AcDbArc
 50
47.521198
 51
65.362848
  0
ARC
  5
15E
100
AcDbEntity
  8
PV
100
AcDbCircle
 10
-220.878687
 20
204.629073
 30
0.0
 40
28.339777
100
AcDbArc
 50
47.859731
 51
68.517113
  0
LINE
  5
15F
100
AcDbEntity
  8
PV
100
AcDbLine
 10
-213.0
 20
231.5
 30
0.0
 11
-210.5
 21
231.5
 31
0.0
  0
LINE
  5
160
100
AcDbEntity
  8
PV
100
AcDbLine
 10
-210.5
 20
231.5
 30
0.0
 11
-210.5
 21
229.5
 31
0.0
  0
ARC
  5
161
100
AcDbEntity
  8
PV
100
AcDbCircle
 10
-202.942308
 20
220.480769
 30
0.0
 40
2.557765
100
AcDbArc
 50
94.792025
 51
179.569213
  0
ARC
  5
162
100
AcDbEntity
  8
PV
100
AcDbCircle
 10
-199.304646
 20
213.097318
 30
0.0
 40
9.853199
100
AcDbArc
 50
107.392968
 51
115.536535
  0
ARC
  5
163
100
AcDbEntity
  8
PV
100
AcDbCircle
 10
-203.23952
 20
224.026098
 30
0.0
 40
1.0
100
AcDbArc
 50
274.792025
 51
71.697582
  0
ARC
  5
164
100
AcDbEntity
  8
PV
100
AcDbCircle
 10
-203.0
 20
224.25
 30
0.0
 40
1.903943
100
AcDbArc
 50
293.198591
 51
30.522748
  0
ARC
  5
165
100
AcDbEntity
  8
PV
100
AcDbCircle
 10
-202.875036
 20
220.510792
 30
0.0
 40
1.625
100
AcDbArc
 50
114.628509
 51
180.38053
  0
LINE
  5
166
100
AcDbEntity
  8
PV
  6
CENTER
100
AcDbLine
 10
-295.25
 20
200.0
 30
0.0
 11
-384.75
 21
200.0
 31
0.0
  0
LINE
  5
167
100
AcDbEntity
  8
PV
100
AcDbLine
 10
-321.0
 20
211.5
 30
0.0
 11
-359.0
 21
211.5
 31
0.0
  0
LINE
  5
168
100
AcDbEntity
  8
PV
100
AcDbLine
 10
-359.0
 20
186.5
 30
0.0
 11
-321.0
 21
186.5
 31
0.0
  0
LINE
  5
169
100
AcDbEntity
  8
PV
100
AcDbLine
 10
-359.0
 20
211.5
 30
0.0
 11
-359.0
 21
186.5
 31
0.0
  0
CIRCLE
  5
16A
100
AcDbEntity
  8
PV
100
AcDbCircle
 10
-364.5
 20
200.0
 30
0.0
 40
2.0
  0
TEXT
  5
16B
100
AcDbEntity
  8
PV
100
AcDbText
 10
-349.71707
 20
202.5
 30
0.0
 40
4.0
  1
端子接続銘板
 41
0.8
  7
BIGFONT
100
AcDbText
  0
LINE
  5
16C
100
AcDbEntity
  8
PV
100
AcDbLine
 10
-321.0
 20
186.5
 30
0.0
 11
-321.0
 21
211.5
 31
0.0
  0
CIRCLE
  5
16D
100
AcDbEntity
  8
PV
100
AcDbCircle
 10
-315.5
 20
200.0
 30
0.0
 40
2.0
  0
LINE
  5
16E
100
AcDbEntity
  8
PV
  6
CENTER
100
AcDbLine
 10
-164.5
 20
200.0
 30
0.0
 11
-233.5
 21
200.0
 31
0.0
  0
LINE
  5
16F
100
AcDbEntity
  8
PV
100
AcDbLine
 10
-360.0
 20
217.0
 30
0.0
 11
-360.0
 21
229.5
 31
0.0
  0
LINE
  5
170
100
AcDbEntity
  8
PV
100
AcDbLine
 10
-340.0
 20
217.0
 30
0.0
 11
-340.0
 21
229.5
 31
0.0
  0
LINE
  5
171
100
AcDbEntity
  8
PV
100
AcDbLine
 10
-320.0
 20
217.0
 30
0.0
 11
-320.0
 21
229.5
 31
0.0
  0
LINE
  5
172
100
AcDbEntity
  8
PV
100
AcDbLine
 10
-362.5
 20
172.5
 30
0.0
 11
-362.5
 21
183.5
 31
0.0
  0
LINE
  5
173
100
AcDbEntity
  8
PV
100
AcDbLine
 10
-347.5
 20
172.5
 30
0.0
 11
-347.5
 21
183.5
 31
0.0
  0
LINE
  5
174
100
AcDbEntity
  8
PV
100
AcDbLine
 10
-332.5
 20
172.5
 30
0.0
 11
-332.5
 21
183.5
 31
0.0
  0
LINE
  5
175
100
AcDbEntity
  8
PV
100
AcDbLine
 10
-317.5
 20
172.5
 30
0.0
 11
-317.5
 21
183.5
 31
0.0
  0
LINE
  5
176
100
AcDbEntity
  8
PV
100
AcDbLine
 10
-365.5
 20
223.0
 30
0.0
 11
-354.5
 21
223.0
 31
0.0
  0
LINE
  5
177
100
AcDbEntity
  8
PV
100
AcDbLine
 10
-345.5
 20
223.0
 30
0.0
 11
-334.5
 21
223.0
 31
0.0
  0
LINE
  5
178
100
AcDbEntity
  8
PV
100
AcDbLine
 10
-325.5
 20
223.0
 30
0.0
 11
-314.5
 21
223.0
 31
0.0
  0
LINE
  5
179
100
AcDbEntity
  8
PV
100
AcDbLine
 10
-368.0
 20
177.0
 30
0.0
 11
-357.0
 21
177.0
 31
0.0
  0
LINE
  5
17A
100
AcDbEntity
  8
PV
100
AcDbLine
 10
-353.0
 20
177.0
 30
0.0
 11
-342.0
 21
177.0
 31
0.0
  0
LINE
  5
17B
100
AcDbEntity
  8
PV
100
AcDbLine
 10
-323.0
 20
177.0
 30
0.0
 11
-312.0
 21
177.0
 31
0.0
  0
LINE
  5
17C
100
AcDbEntity
  8
PV
100
AcDbLine
 10
-338.0
 20
177.0
 30
0.0
 11
-327.0
 21
177.0
 31
0.0
  0
LINE
  5
17D
100
AcDbEntity
  8
PV
  6
CENTER
100
AcDbLine
 10
-340.0
 20
231.5
 30
0.0
 11
-340.0
 21
167.5
 31
0.0
  0
LINE
  5
17E
100
AcDbEntity
  8
0
100
AcDbLine
 10
-347.5
 20
137.5
 30
0.0
 11
-326.5
 21
137.5
 31
0.0
  0
TEXT
  5
17F
100
AcDbEntity
  8
0
100
AcDbText
 10
-345.38
 20
138.5
 30
0.0
 40
3.5
  1
端子接続銘板
 41
0.8
  7
BIGFONT
100
AcDbText
  0
LINE
  5
180
100
AcDbEntity
  8
0
100
AcDbLine
 10
-331.723417
 20
117.139462
 30
0.0
 11
-259.723417
 21
117.139462
 31
0.0
  0
LINE
  5
181
100
AcDbEntity
  8
0
100
AcDbLine
 10
-343.723417
 20
121.525552
 30
0.0
 11
-259.723417
 21
121.525552
 31
0.0
  0
LINE
  5
182
100
AcDbEntity
  8
0
100
AcDbLine
 10
-343.723417
 20
126.525552
 30
0.0
 11
-259.723417
 21
126.525552
 31
0.0
  0
LINE
  5
183
100
AcDbEntity
  8
0
100
AcDbLine
 10
-343.723417
 20
106.525552
 30
0.0
 11
-259.723417
 21
106.525552
 31
0.0
  0
LINE
  5
184
100
AcDbEntity
  8
0
100
AcDbLine
 10
-343.723417
 20
91.525552
 30
0.0
 11
-259.723417
 21
91.525552
 31
0.0
  0
LINE
  5
185
100
AcDbEntity
  8
0
100
AcDbLine
 10
-343.723417
 20
101.525552
 30
0.0
 11
-259.723417
 21
101.525552
 31
0.0
  0
LINE
  5
186
100
AcDbEntity
  8
0
100
AcDbLine
 10
-343.723417
 20
96.525552
 30
0.0
 11
-259.723417
 21
96.525552
 31
0.0
  0
LINE
  5
187
100
AcDbEntity
  8
0
100
AcDbLine
 10
-343.723417
 20
81.525552
 30
0.0
 11
-259.723417
 21
81.525552
 31
0.0
  0
LINE
  5
188
100
AcDbEntity
  8
0
100
AcDbLine
 10
-343.723417
 20
86.525552
 30
0.0
 11
-259.723417
 21
86.525552
 31
0.0
  0
LINE
  5
189
100
AcDbEntity
  8
0
100
AcDbLine
 10
-343.723417
 20
76.525552
 30
0.0
 11
-259.723417
 21
76.525552
 31
0.0
  0
LINE
  5
18A
100
AcDbEntity
  8
0
100
AcDbLine
 10
-343.723417
 20
71.525552
 30
0.0
 11
-259.723417
 21
71.525552
 31
0.0
  0
LINE
  5
18B
100
AcDbEntity
  8
0
100
AcDbLine
 10
-343.723417
 20
131.525552
 30
0.0
 11
-259.723417
 21
131.525552
 31
0.0
  0
TEXT
  5
18C
100
AcDbEntity
  8
0
100
AcDbText
 10
-283.183417
 20
112.525552
 30
0.0
 40
2.6
  1
PRIMARY
 41
0.6
  7
MONOTXT
100
AcDbText
  0
TEXT
  5
18D
100
AcDbEntity
  8
0
100
AcDbText
 10
-271.573417
 20
112.525552
 30
0.0
 40
2.6
  1
SECONDARY
 41
0.5
  7
MONOTXT
100
AcDbText
  0
TEXT
  5
18E
100
AcDbEntity
  8
0
100
AcDbText
 10
-319.183417
 20
112.525552
 30
0.0
 40
2.6
  1
PRIMARY
 41
0.6
  7
MONOTXT
100
AcDbText
  0
TEXT
  5
18F
100
AcDbEntity
  8
0
100
AcDbText
 10
-307.573417
 20
112.525552
 30
0.0
 40
2.6
  1
SECONDARY
 41
0.5
  7
MONOTXT
100
AcDbText
  0
LINE
  5
190
100
AcDbEntity
  8
0
100
AcDbLine
 10
-307.723417
 20
76.525552
 30
0.0
 11
-307.723417
 21
117.139462
 31
0.0
  0
LINE
  5
191
100
AcDbEntity
  8
0
100
AcDbLine
 10
-319.723417
 20
76.525552
 30
0.0
 11
-319.723417
 21
117.139462
 31
0.0
  0
LINE
  5
192
100
AcDbEntity
  8
0
100
AcDbLine
 10
-283.723417
 20
76.525552
 30
0.0
 11
-283.723417
 21
117.139462
 31
0.0
  0
LINE
  5
193
100
AcDbEntity
  8
0
100
AcDbLine
 10
-271.723417
 20
76.525552
 30
0.0
 11
-271.723417
 21
117.139462
 31
0.0
  0
LINE
  5
194
100
AcDbEntity
  8
0
100
AcDbLine
 10
-331.723417
 20
76.525552
 30
0.0
 11
-331.723417
 21
121.525552
 31
0.0
  0
LINE
  5
195
100
AcDbEntity
  8
0
100
AcDbLine
 10
-295.723417
 20
76.525552
 30
0.0
 11
-295.723417
 21
121.525552
 31
0.0
  0
LINE
  5
196
100
AcDbEntity
  8
0
100
AcDbLine
 10
-343.723417
 20
71.525552
 30
0.0
 11
-343.723417
 21
131.525552
 31
0.0
  0
TEXT
  5
197
100
AcDbEntity
  8
0
100
AcDbText
 10
-306.523417
 20
77.525552
 30
0.0
 40
3.0
  1
k-l3
 41
0.8
  7
MONOTXT
100
AcDbText
  0
TEXT
  5
198
100
AcDbEntity
  8
0
100
AcDbText
 10
-306.523417
 20
82.525552
 30
0.0
 40
3.0
  1
k-l2
 41
0.8
  7
MONOTXT
100
AcDbText
  0
TEXT
  5
199
100
AcDbEntity
  8
0
100
AcDbText
 10
-306.523417
 20
92.525552
 30
0.0
 40
3.0
  1
k-l3
 41
0.8
  7
MONOTXT
100
AcDbText
  0
TEXT
  5
19A
100
AcDbEntity
  8
0
100
AcDbText
 10
-306.523417
 20
97.525552
 30
0.0
 40
3.0
  1
k-l2
 41
0.8
  7
MONOTXT
100
AcDbText
  0
TEXT
  5
19B
100
AcDbEntity
  8
0
100
AcDbText
 10
-331.183417
 20
110.525552
 30
0.0
 40
2.6
  1
CURRENT
 41
0.6
  7
MONOTXT
100
AcDbText
  0
TEXT
  5
19C
100
AcDbEntity
  8
0
100
AcDbText
 10
-329.323417
 20
92.525552
 30
0.0
 40
3.0
  1
4.0
 41
0.8
  7
MONOTXT
100
AcDbText
  0
TEXT
  5
19D
100
AcDbEntity
  8
0
100
AcDbText
 10
-329.323417
 20
97.525552
 30
0.0
 40
3.0
  1
2.5
 41
0.8
  7
MONOTXT
100
AcDbText
  0
TEXT
  5
19E
100
AcDbEntity
  8
0
100
AcDbText
 10
-329.323417
 20
87.525552
 30
0.0
 40
3.0
  1
7.0
 41
0.8
  7
MONOTXT
100
AcDbText
  0
TEXT
  5
19F
100
AcDbEntity
  8
0
100
AcDbText
 10
-330.523417
 20
102.525552
 30
0.0
 40
3.0
  1
1.75
 41
0.8
  7
MONOTXT
100
AcDbText
  0
TEXT
  5
1A0
100
AcDbEntity
  8
0
100
AcDbText
 10
-330.523417
 20
82.525552
 30
0.0
 40
3.0
  1
10.0
 41
0.8
  7
MONOTXT
100
AcDbText
  0
TEXT
  5
1A1
100
AcDbEntity
  8
0
100
AcDbText
 10
-330.523417
 20
77.525552
 30
0.0
 40
3.0
  1
16.0
 41
0.8
  7
MONOTXT
100
AcDbText
  0
TEXT
  5
1A2
100
AcDbEntity
  8
0
100
AcDbText
 10
-341.323417
 20
77.525552
 30
0.0
 40
3.0
  1
3.7
 41
0.8
  7
MONOTXT
100
AcDbText
  0
TEXT
  5
1A3
100
AcDbEntity
  8
0
100
AcDbText
 10
-341.323417
 20
82.525552
 30
0.0
 40
3.0
  1
2.2
 41
0.8
  7
MONOTXT
100
AcDbText
  0
TEXT
  5
1A4
100
AcDbEntity
  8
0
100
AcDbText
 10
-341.323417
 20
87.525552
 30
0.0
 40
3.0
  1
1.5
 41
0.8
  7
MONOTXT
100
AcDbText
  0
TEXT
  5
1A5
100
AcDbEntity
  8
0
100
AcDbText
 10
-339.323417
 20
72.042935
 30
0.0
 40
4.0
  1
k
 41
0.8
  7
MONOTXT
100
AcDbText
  0
TEXT
  5
1A6
100
AcDbEntity
  8
0
100
AcDbText
 10
-340.123417
 20
108.049361
 30
0.0
 40
4.0
  1
kW
 41
0.6
  7
MONOTXT
100
AcDbText
  0
TEXT
  5
1A7
100
AcDbEntity
  8
0
100
AcDbText
 10
-341.323417
 20
97.525552
 30
0.0
 40
3.0
  1
0.4
 41
0.8
  7
MONOTXT
100
AcDbText
  0
TEXT
  5
1A8
100
AcDbEntity
  8
0
100
AcDbText
 10
-341.323417
 20
102.525552
 30
0.0
 40
3.0
  1
0.2
 41
0.8
  7
MONOTXT
100
AcDbText
  0
TEXT
  5
1A9
100
AcDbEntity
  8
0
100
AcDbText
 10
-342.523417
 20
92.525552
 30
0.0
 40
3.0
  1
0.75
 41
0.8
  7
MONOTXT
100
AcDbText
  0
TEXT
  5
1AA
100
AcDbEntity
  8
0
100
AcDbText
 10
-318.523417
 20
87.525552
 30
0.0
 40
3.0
  1
K-L1
 41
0.8
  7
MONOTXT
100
AcDbText
  0
TEXT
  5
1AB
100
AcDbEntity
  8
0
100
AcDbText
 10
-318.523417
 20
82.525552
 30
0.0
 40
3.0
  1
K-L1
 41
0.8
  7
MONOTXT
100
AcDbText
  0
TEXT
  5
1AC
100
AcDbEntity
  8
0
100
AcDbText
 10
-318.523417
 20
77.525552
 30
0.0
 40
3.0
  1
K-L1
 41
0.8
  7
MONOTXT
100
AcDbText
  0
TEXT
  5
1AD
100
AcDbEntity
  8
0
100
AcDbText
 10
-316.923417
 20
72.042935
 30
0.0
 40
4.0
  1
l1
 41
0.8
  7
MONOTXT
100
AcDbText
  0
TEXT
  5
1AE
100
AcDbEntity
  8
0
100
AcDbText
 10
-319.183417
 20
107.668409
 30
0.0
 40
2.6
  1
(MOTOR)
 41
0.6
  7
MONOTXT
100
AcDbText
  0
TEXT
  5
1AF
100
AcDbEntity
  8
0
100
AcDbText
 10
-318.523417
 20
102.525552
 30
0.0
 40
3.0
  1
K-L2
 41
0.8
  7
MONOTXT
100
AcDbText
  0
TEXT
  5
1B0
100
AcDbEntity
  8
0
100
AcDbText
 10
-318.523417
 20
97.525552
 30
0.0
 40
3.0
  1
K-L2
 41
0.8
  7
MONOTXT
100
AcDbText
  0
TEXT
  5
1B1
100
AcDbEntity
  8
0
100
AcDbText
 10
-318.523417
 20
92.525552
 30
0.0
 40
3.0
  1
K-L2
 41
0.8
  7
MONOTXT
100
AcDbText
  0
TEXT
  5
1B2
100
AcDbEntity
  8
0
100
AcDbText
 10
-328.063417
 20
107.525552
 30
0.0
 40
2.6
  1
(A)
 41
0.6
  7
MONOTXT
100
AcDbText
  0
TEXT
  5
1B3
100
AcDbEntity
  8
0
100
AcDbText
 10
-283.723417
 20
92.525552
 30
0.0
 40
3.0
  1
L1-L2
 41
0.8
  7
MONOTXT
100
AcDbText
  0
TEXT
  5
1B4
100
AcDbEntity
  8
0
100
AcDbText
 10
-283.723417
 20
87.525552
 30
0.0
 40
3.0
  1
L1-L2
 41
0.8
  7
MONOTXT
100
AcDbText
  0
TEXT
  5
1B5
100
AcDbEntity
  8
0
100
AcDbText
 10
-283.723417
 20
82.525552
 30
0.0
 40
3.0
  1
L1-L2
 41
0.8
  7
MONOTXT
100
AcDbText
  0
TEXT
  5
1B6
100
AcDbEntity
  8
0
100
AcDbText
 10
-306.523417
 20
87.525552
 30
0.0
 40
3.0
  1
k-l1
 41
0.8
  7
MONOTXT
100
AcDbText
  0
TEXT
  5
1B7
100
AcDbEntity
  8
0
100
AcDbText
 10
-293.323417
 20
77.525552
 30
0.0
 40
3.0
  1
9.0
 41
0.8
  7
MONOTXT
100
AcDbText
  0
TEXT
  5
1B8
100
AcDbEntity
  8
0
100
AcDbText
 10
-292.923417
 20
72.042935
 30
0.0
 40
4.0
  1
l2
 41
0.8
  7
MONOTXT
100
AcDbText
  0
TEXT
  5
1B9
100
AcDbEntity
  8
0
100
AcDbText
 10
-293.323417
 20
87.525552
 30
0.0
 40
3.0
  1
3.3
 41
0.8
  7
MONOTXT
100
AcDbText
  0
TEXT
  5
1BA
100
AcDbEntity
  8
0
100
AcDbText
 10
-293.323417
 20
82.525552
 30
0.0
 40
3.0
  1
5.3
 41
0.8
  7
MONOTXT
100
AcDbText
  0
TEXT
  5
1BB
100
AcDbEntity
  8
0
100
AcDbText
 10
-295.183417
 20
110.525552
 30
0.0
 40
2.6
  1
CURRENT
 41
0.6
  7
MONOTXT
100
AcDbText
  0
TEXT
  5
1BC
100
AcDbEntity
  8
0
100
AcDbText
 10
-306.523417
 20
102.525552
 30
0.0
 40
3.0
  1
k-l1
 41
0.8
  7
MONOTXT
100
AcDbText
  0
TEXT
  5
1BD
100
AcDbEntity
  8
0
100
AcDbText
 10
-305.623417
 20
107.525552
 30
0.0
 40
2.6
  1
(5mA)
 41
0.6
  7
MONOTXT
100
AcDbText
  0
TEXT
  5
1BE
100
AcDbEntity
  8
0
100
AcDbText
 10
-294.523417
 20
102.525552
 30
0.0
 40
3.0
  1
0.75
 41
0.8
  7
MONOTXT
100
AcDbText
  0
TEXT
  5
1BF
100
AcDbEntity
  8
0
100
AcDbText
 10
-293.323417
 20
97.525552
 30
0.0
 40
3.0
  1
1.5
 41
0.8
  7
MONOTXT
100
AcDbText
  0
TEXT
  5
1C0
100
AcDbEntity
  8
0
100
AcDbText
 10
-293.323417
 20
92.525552
 30
0.0
 40
3.0
  1
2.0
 41
0.8
  7
MONOTXT
100
AcDbText
  0
TEXT
  5
1C1
100
AcDbEntity
  8
0
100
AcDbText
 10
-292.063417
 20
107.525552
 30
0.0
 40
2.6
  1
(A)
 41
0.6
  7
MONOTXT
100
AcDbText
  0
TEXT
  5
1C2
100
AcDbEntity
  8
0
100
AcDbText
 10
-282.523417
 20
77.525552
 30
0.0
 40
3.0
  1
K-L1
 41
0.8
  7
MONOTXT
100
AcDbText
  0
TEXT
  5
1C3
100
AcDbEntity
  8
0
100
AcDbText
 10
-271.723417
 20
77.525552
 30
0.0
 40
3.0
  1
l1-l3
 41
0.8
  7
MONOTXT
100
AcDbText
  0
TEXT
  5
1C4
100
AcDbEntity
  8
0
100
AcDbText
 10
-268.923417
 20
72.042935
 30
0.0
 40
4.0
  1
l3
 41
0.8
  7
MONOTXT
100
AcDbText
  0
TEXT
  5
1C5
100
AcDbEntity
  8
0
100
AcDbText
 10
-270.523417
 20
82.525552
 30
0.0
 40
3.0
  1
k-l3
 41
0.8
  7
MONOTXT
100
AcDbText
  0
TEXT
  5
1C6
100
AcDbEntity
  8
0
100
AcDbText
 10
-270.523417
 20
87.525552
 30
0.0
 40
3.0
  1
k-l2
 41
0.8
  7
MONOTXT
100
AcDbText
  0
TEXT
  5
1C7
100
AcDbEntity
  8
0
100
AcDbText
 10
-282.523417
 20
102.525552
 30
0.0
 40
3.0
  1
K-L2
 41
0.8
  7
MONOTXT
100
AcDbText
  0
TEXT
  5
1C8
100
AcDbEntity
  8
0
100
AcDbText
 10
-282.523417
 20
97.525552
 30
0.0
 40
3.0
  1
K-L2
 41
0.8
  7
MONOTXT
100
AcDbText
  0
TEXT
  5
1C9
100
AcDbEntity
  8
0
100
AcDbText
 10
-283.183417
 20
107.668409
 30
0.0
 40
2.6
  1
(MOTOR)
 41
0.6
  7
MONOTXT
100
AcDbText
  0
TEXT
  5
1CA
100
AcDbEntity
  8
0
100
AcDbText
 10
-271.723417
 20
102.525552
 30
0.0
 40
3.0
  1
l1-l2
 41
0.8
  7
MONOTXT
100
AcDbText
  0
TEXT
  5
1CB
100
AcDbEntity
  8
0
100
AcDbText
 10
-271.723417
 20
97.525552
 30
0.0
 40
3.0
  1
l2-l3
 41
0.8
  7
MONOTXT
100
AcDbText
  0
TEXT
  5
1CC
100
AcDbEntity
  8
0
100
AcDbText
 10
-271.723417
 20
92.525552
 30
0.0
 40
3.0
  1
l2-l3
 41
0.8
  7
MONOTXT
100
AcDbText
  0
TEXT
  5
1CD
100
AcDbEntity
  8
0
100
AcDbText
 10
-269.623417
 20
107.525552
 30
0.0
 40
2.6
  1
(5mA)
 41
0.6
  7
MONOTXT
100
AcDbText
  0
TEXT
  5
1CE
100
AcDbEntity
  8
0
100
AcDbText
 10
-337.935181
 20
122.525552
 30
0.0
 40
3.0
  1
CURRENT TRANSFORMER
 41
0.6
  7
MONOTXT
100
AcDbText
  0
TEXT
  5
1CF
100
AcDbEntity
  8
0
100
AcDbText
 10
-325.723417
 20
118.139462
 30
0.0
 40
3.0
  1
AC200/220V
 41
0.8
  7
MONOTXT
100
AcDbText
  0
TEXT
  5
1D0
100
AcDbEntity
  8
0
100
AcDbText
 10
-330.403417
 20
113.913589
 30
0.0
 40
2.6
  1
RATING
 41
0.6
  7
MONOTXT
100
AcDbText
  0
TEXT
  5
1D1
100
AcDbEntity
  8
0
100
AcDbText
 10
-343.123417
 20
114.525552
 30
0.0
 40
3.6
  1
MOTOR
 41
0.6
  7
MONOTXT
100
AcDbText
  0
TEXT
  5
1D2
100
AcDbEntity
  8
0
100
AcDbText
 10
-339.323417
 20
127.042935
 30
0.0
 40
4.0
  1
K
 41
0.8
  7
MONOTXT
100
AcDbText
  0
TEXT
  5
1D3
100
AcDbEntity
  8
0
100
AcDbText
 10
-291.217534
 20
122.525552
 30
0.0
 40
3.0
  1
TYPE : TSB COM
 41
0.6
  7
MONOTXT
100
AcDbText
  0
TEXT
  5
1D4
100
AcDbEntity
  8
0
100
AcDbText
 10
-289.723417
 20
118.139462
 30
0.0
 40
3.0
  1
AC400/440V
 41
0.8
  7
MONOTXT
100
AcDbText
  0
TEXT
  5
1D5
100
AcDbEntity
  8
0
100
AcDbText
 10
-304.923417
 20
127.042935
 30
0.0
 40
4.0
  1
L1
 41
0.8
  7
MONOTXT
100
AcDbText
  0
TEXT
  5
1D6
100
AcDbEntity
  8
0
100
AcDbText
 10
-294.403417
 20
113.913589
 30
0.0
 40
2.6
  1
RATING
 41
0.6
  7
MONOTXT
100
AcDbText
  0
TEXT
  5
1D7
100
AcDbEntity
  8
0
100
AcDbText
 10
-268.923417
 20
127.042935
 30
0.0
 40
4.0
  1
L2
 41
0.8
  7
MONOTXT
100
AcDbText
  0
LINE
  5
1D8
100
AcDbEntity
  8
0
100
AcDbLine
 10
-259.723417
 20
131.525552
 30
0.0
 11
-259.723417
 21
71.525552
 31
0.0
  0
LINE
  5
1D9
100
AcDbEntity
  8
PV
100
AcDbLine
 10
-166.5
 20
209.0
 30
0.0
 11
-166.5
 21
236.0
 31
0.0
  0
LINE
  5
1DA
100
AcDbEntity
  8
PV
100
AcDbLine
 10
-236.5
 20
224.5
 30
0.0
 11
-236.5
 21
236.0
 31
0.0
  0
TEXT
  5
1DB
100
AcDbEntity
  8
0
100
AcDbText
 10
-368.88
 20
50.5
 30
0.0
 40
3.5
  1
注　記
 41
0.8
  7
BIGFONT
100
AcDbText
  0
LINE
  5
1DC
100
AcDbEntity
  8
0
100
AcDbLine
 10
-371.5
 20
49.5
 30
0.0
 11
-359.0
 21
49.5
 31
0.0
  0
LINE
  5
1DD
100
AcDbEntity
  8
0
100
AcDbLine
 10
-371.5
 20
49.0
 30
0.0
 11
-359.0
 21
49.0
 31
0.0
  0
TEXT
  5
1DE
100
AcDbEntity
  8
0
100
AcDbText
 10
-363.893548
 20
40.0
 30
0.0
 40
3.5
  1
１．本ＣＴは３．７ｋＷ以下のモータに使用する場合に適用します。
 41
0.795699
  7
BIGFONT
100
AcDbText
  0
TEXT
  5
1DF
100
AcDbEntity
  8
0
100
AcDbText
 10
-363.88
 20
34.0
 30
0.0
 40
3.5
  1
２．モータ側Ｌ１－Ｌ２、ショックリレー側　　　　の接続にて
 41
0.8
  7
BIGFONT
100
AcDbText
  0
TEXT
  5
1E0
100
AcDbEntity
  8
0
100
AcDbText
 10
-363.88
 20
28.0
 30
0.0
 40
3.5
  1
　　１Ａ／５ｍＡの組み合わせとなります。
 41
0.8
  7
BIGFONT
100
AcDbText
  0
LINE
  5
1E1
100
AcDbEntity
  8
0
100
AcDbLine
 10
-367.0
 20
39.5
 30
0.0
 11
-260.0
 21
39.5
 31
0.0
  0
LINE
  5
1E2
100
AcDbEntity
  8
0
100
AcDbLine
 10
-367.0
 20
33.5
 30
0.0
 11
-260.0
 21
33.5
 31
0.0
  0
LINE
  5
1E3
100
AcDbEntity
  8
0
100
AcDbLine
 10
-367.0
 20
27.5
 30
0.0
 11
-260.0
 21
27.5
 31
0.0
  0
TEXT
  5
1E4
100
AcDbEntity
  8
0
100
AcDbText
 10
-296.5
 20
34.0
 30
0.0
 40
3.5
  1
l -l
 41
0.8
  7
MONOTXT
100
AcDbText
  0
TEXT
  5
1E5
100
AcDbEntity
  8
0
100
AcDbText
 10
-295.0
 20
34.0
 30
0.0
 40
2.0
  1
1
 41
0.8
  7
MONOTXT
100
AcDbText
  0
TEXT
  5
1E6
100
AcDbEntity
  8
0
100
AcDbText
 10
-287.5
 20
34.0
 30
0.0
 40
2.0
  1
2
 41
0.8
  7
MONOTXT
100
AcDbText
  0
LINE
  5
1E7
100
AcDbEntity
  8
0
100
AcDbLine
 10
-116.5
 20
256.0
 30
0.0
 11
-104.0
 21
256.0
 31
0.0
  0
LINE
  5
1E8
100
AcDbEntity
  8
0
100
AcDbLine
 10
-116.5
 20
256.5
 30
0.0
 11
-104.0
 21
256.5
 31
0.0
  0
TEXT
  5
1E9
100
AcDbEntity
  8
0
100
AcDbText
 10
-113.88
 20
257.5
 30
0.0
 40
3.5
  1
仕　様
 41
0.8
  7
BIGFONT
100
AcDbText
  0
LINE
  5
1EA
100
AcDbEntity
  8
0
100
AcDbLine
 10
-115.0
 20
250.0
 30
0.0
 11
-115.0
 21
177.0
 31
0.0
  0
LINE
  5
1EB
100
AcDbEntity
  8
0
100
AcDbLine
 10
-115.0
 20
250.0
 30
0.0
 11
-35.0
 21
250.0
 31
0.0
  0
LINE
  5
1EC
100
AcDbEntity
  8
0
100
AcDbLine
 10
-115.0
 20
244.0
 30
0.0
 11
-35.0
 21
244.0
 31
0.0
  0
LINE
  5
1ED
100
AcDbEntity
  8
0
100
AcDbLine
 10
-115.0
 20
225.0
 30
0.0
 11
-35.0
 21
225.0
 31
0.0
  0
LINE
  5
1EE
100
AcDbEntity
  8
0
100
AcDbLine
 10
-115.0
 20
236.0
 30
0.0
 11
-35.0
 21
236.0
 31
0.0
  0
LINE
  5
1EF
100
AcDbEntity
  8
0
100
AcDbLine
 10
-115.0
 20
177.0
 30
0.0
 11
-35.0
 21
177.0
 31
0.0
  0
LINE
  5
1F0
100
AcDbEntity
  8
0
100
AcDbLine
 10
-115.0
 20
183.0
 30
0.0
 11
-35.0
 21
183.0
 31
0.0
  0
LINE
  5
1F1
100
AcDbEntity
  8
0
100
AcDbLine
 10
-115.0
 20
204.0
 30
0.0
 11
-35.0
 21
204.0
 31
0.0
  0
LINE
  5
1F2
100
AcDbEntity
  8
0
100
AcDbLine
 10
-35.0
 20
250.0
 30
0.0
 11
-35.0
 21
177.0
 31
0.0
  0
TEXT
  5
1F3
100
AcDbEntity
  8
0
100
AcDbText
 10
-112.88
 20
245.0
 30
0.0
 40
3.5
  1
定格負担
 41
0.8
  7
BIGFONT
100
AcDbText
  0
TEXT
  5
1F4
100
AcDbEntity
  8
0
100
AcDbText
 10
-112.88
 20
238.0
 30
0.0
 40
3.5
  1
電流誤差
 41
0.8
  7
BIGFONT
100
AcDbText
  0
TEXT
  5
1F5
100
AcDbEntity
  8
0
100
AcDbText
 10
-112.88
 20
228.5
 30
0.0
 40
3.5
  1
過電流強度
 41
0.8
  7
BIGFONT
100
AcDbText
  0
TEXT
  5
1F6
100
AcDbEntity
  8
0
100
AcDbText
 10
-112.88
 20
212.5
 30
0.0
 40
3.5
  1
耐電圧
 41
0.8
  7
BIGFONT
100
AcDbText
  0
TEXT
  5
1F7
100
AcDbEntity
  8
0
100
AcDbText
 10
-112.88
 20
191.5
 30
0.0
 40
3.5
  1
絶縁抵抗
 41
0.8
  7
BIGFONT
100
AcDbText
  0
TEXT
  5
1F8
100
AcDbEntity
  8
0
100
AcDbText
 10
-112.88
 20
178.0
 30
0.0
 40
3.5
  1
概略質量
 41
0.8
  7
BIGFONT
100
AcDbText
  0
LINE
  5
1F9
100
AcDbEntity
  8
0
100
AcDbLine
 10
-95.0
 20
250.0
 30
0.0
 11
-95.0
 21
177.0
 31
0.0
  0
TEXT
  5
1FA
100
AcDbEntity
  8
0
100
AcDbText
 10
-93.776
 20
245.0
 30
0.0
 40
3.5
  1
0.5VA
 41
0.928
  7
MONOTXT
100
AcDbText
  0
TEXT
  5
1FB
100
AcDbEntity
  8
0
100
AcDbText
 10
-92.88
 20
238.0
 30
0.0
 40
3.5
  1
定格電流の　　　％以内
 41
0.8
  7
BIGFONT
100
AcDbText
  0
TEXT
  5
1FC
100
AcDbEntity
  8
0
100
AcDbText
 10
-92.88
 20
231.0
 30
0.0
 40
3.5
  1
定格電流の４０倍　　１秒間
 41
0.8
  7
BIGFONT
100
AcDbText
  0
TEXT
  5
1FD
100
AcDbEntity
  8
0
100
AcDbText
 10
-92.88
 20
220.0
 30
0.0
 40
3.5
  1
一次・二次コイルと鉄心間
 41
0.8
  7
BIGFONT
100
AcDbText
  0
TEXT
  5
1FE
100
AcDbEntity
  8
0
100
AcDbText
 10
-92.88
 20
199.0
 30
0.0
 40
3.5
  1
一次・二次コイルと鉄心間
 41
0.8
  7
BIGFONT
100
AcDbText
  0
TEXT
  5
1FF
100
AcDbEntity
  8
0
100
AcDbText
 10
-93.776
 20
178.0
 30
0.0
 40
3.5
  1
0.5kg
 41
0.928
  7
MONOTXT
100
AcDbText
  0
TEXT
  5
200
100
AcDbEntity
  8
0
100
AcDbText
 10
-75.3
 20
240.0
 30
0.0
 40
2.5
  1
+4
 41
0.96
  7
MONOTXT
100
AcDbText
  0
TEXT
  5
201
100
AcDbEntity
  8
0
100
AcDbText
 10
-75.3
 20
237.0
 30
0.0
 40
2.5
  1
-10
 41
0.96
  7
MONOTXT
100
AcDbText
  0
TEXT
  5
202
100
AcDbEntity
  8
0
100
AcDbText
 10
-92.88
 20
226.0
 30
0.0
 40
3.5
  1
定格電流の３０倍　１０秒間
 41
0.8
  7
BIGFONT
100
AcDbText
  0
TEXT
  5
203
100
AcDbEntity
  8
0
100
AcDbText
 10
-92.88
 20
210.0
 30
0.0
 40
3.5
  1
一次コイルと二次コイル間
 41
0.8
  7
BIGFONT
100
AcDbText
  0
TEXT
  5
204
100
AcDbEntity
  8
0
100
AcDbText
 10
-71.88
 20
205.0
 30
0.0
 40
3.5
  1
２５００ＶＡＣ　１分間
 41
0.8
  7
BIGFONT
100
AcDbText
  0
TEXT
  5
205
100
AcDbEntity
  8
0
100
AcDbText
 10
-71.88
 20
215.0
 30
0.0
 40
3.5
  1
２５００ＶＡＣ　１分間
 41
0.8
  7
BIGFONT
100
AcDbText
  0
TEXT
  5
206
100
AcDbEntity
  8
0
100
AcDbText
 10
-88.38
 20
194.0
 30
0.0
 40
3.5
  1
ＤＣ１０００Ｖにて１００ＭΩ以上
 41
0.8
  7
BIGFONT
100
AcDbText
  0
TEXT
  5
207
100
AcDbEntity
  8
0
100
AcDbText
 10
-92.88
 20
189.0
 30
0.0
 40
3.5
  1
一次コイルと二次コイル間
 41
0.8
  7
BIGFONT
100
AcDbText
  0
TEXT
  5
208
100
AcDbEntity
  8
0
100
AcDbText
 10
-88.38
 20
184.0
 30
0.0
 40
3.5
  1
ＤＣ１０００Ｖにて１００ＭΩ以上
 41
0.8
  7
BIGFONT
100
AcDbText
  0
TEXT
  5
209
100
AcDbEntity
  8
0
100
AcDbText
 10
-69.75
 20
60.499985
 30
0.0
 40
4.0
  1
TSB-COM
 41
0.9375
  7
MONOTXT
100
AcDbText
  0
DIMENSION
  5
20A
100
AcDbEntity
  8
PV
100
AcDbDimension
  2
*D1
 10
-297.75
 20
265.0
 30
0.0
 11
-346.375001
 21
268.4
 31
0.0
100
AcDbAlignedDimension
 13
-382.25
 23
206.5
 33
0.0
 14
-297.75
 24
206.5
 34
0.0
100
AcDbRotatedDimension
  0
DIMENSION
  5
20B
100
AcDbEntity
  8
PV
100
AcDbDimension
  2
*D2
 10
-310.5
 20
245.0
 30
0.0
 11
-343.175001
 21
248.4
 31
0.0
100
AcDbAlignedDimension
 13
-369.5
 23
229.5
 33
0.0
 14
-310.5
 24
229.5
 34
0.0
100
AcDbRotatedDimension
  0
DIMENSION
  5
20C
100
AcDbEntity
  8
PV
100
AcDbDimension
  2
*D3
 10
-303.5
 20
255.0
 30
0.0
 11
-343.175001
 21
258.4
 31
0.0
100
AcDbAlignedDimension
 13
-376.5
 23
203.5
 33
0.0
 14
-303.5
 24
202.0
 34
0.0
100
AcDbRotatedDimension
  0
LINE
  5
20D
100
AcDbEntity
  8
PV
  6
CENTER
100
AcDbLine
 10
-303.5
 20
202.5
 30
0.0
 11
-303.5
 21
197.5
 31
0.0
  0
ARC
  5
20E
100
AcDbEntity
  8
PV
100
AcDbCircle
 10
-378.25
 20
200.0
 30
0.0
 40
2.0
100
AcDbArc
 50
90.0
 51
270.0
  0
LINE
  5
20F
100
AcDbEntity
  8
PV
100
AcDbLine
 10
-374.75
 20
198.0
 30
0.0
 11
-378.25
 21
198.0
 31
0.0
  0
ARC
  5
210
100
AcDbEntity
  8
PV
100
AcDbCircle
 10
-374.75
 20
200.0
 30
0.0
 40
2.0
100
AcDbArc
 50
270.0
 51
90.0
  0
LINE
  5
211
100
AcDbEntity
  8
PV
100
AcDbLine
 10
-374.75
 20
202.0
 30
0.0
 11
-378.25
 21
202.0
 31
0.0
  0
LINE
  5
212
100
AcDbEntity
  8
PV
  6
CENTER
100
AcDbLine
 10
-376.5
 20
202.5
 30
0.0
 11
-376.5
 21
197.5
 31
0.0
  0
DIMENSION
  5
213
100
AcDbEntity
  8
PV
100
AcDbDimension
  2
*D4
 10
-307.25
 20
160.0
 30
0.0
 11
-308.275
 21
163.4
 31
0.0
100
AcDbAlignedDimension
 13
-299.75
 23
200.0
 33
0.0
 14
-307.25
 24
200.0
 34
0.0
 50
180.0
100
AcDbRotatedDimension
  0
DIMENSION
  5
214
100
AcDbEntity
  8
PV
100
AcDbDimension
  2
*D5
 10
-285.0
 20
198.0
 30
0.0
 11
198.425001
 21
288.399999
 31
0.0
100
AcDbAlignedDimension
 13
-301.75
 23
202.0
 33
0.0
 14
-301.75
 24
198.0
 34
0.0
 50
270.0
100
AcDbRotatedDimension
  0
POLYLINE
  5
215
100
AcDbEntity
  8
0
100
AcDb2dPolyline
 66
     1
 10
0.0
 20
0.0
 30
0.0
  0
VERTEX
  5
216
100
AcDbEntity
  8
0
100
AcDbVertex
100
AcDb2dVertex
 10
-317.384428
 20
226.661801
 30
0.0
  0
VERTEX
  5
217
100
AcDbEntity
  8
0
100
AcDbVertex
100
AcDb2dVertex
 10
-295.0
 20
250.0
 30
0.0
  0
VERTEX
  5
218
100
AcDbEntity
  8
0
100
AcDbVertex
100
AcDb2dVertex
 10
-282.707456
 20
250.0
 30
0.0
  0
SEQEND
  5
219
100
AcDbEntity
  8
0
  0
POLYLINE
  5
21A
100
AcDbEntity
  8
0
100
AcDb2dPolyline
 66
     1
 10
0.0
 20
0.0
 30
0.0
  0
VERTEX
  5
21B
100
AcDbEntity
  8
0
100
AcDbVertex
100
AcDb2dVertex
 10
-316.215432
 20
228.787759
 30
0.0
  0
VERTEX
  5
21C
100
AcDbEntity
  8
0
100
AcDbVertex
100
AcDb2dVertex
 10
-317.384428
 20
226.661801
 30
0.0
  0
VERTEX
  5
21D
100
AcDbEntity
  8
0
100
AcDbVertex
100
AcDb2dVertex
 10
-315.309069
 20
227.918436
 30
0.0
  0
SEQEND
  5
21E
100
AcDbEntity
  8
0
  0
TEXT
  5
21F
100
AcDbEntity
  8
0
100
AcDbText
 10
-294.407456
 20
251.8
 30
0.0
 40
3.2
  1
7-M4
 41
0.9375
  7
MONOTXT
100
AcDbText
  0
POLYLINE
  5
220
100
AcDbEntity
  8
0
100
AcDb2dPolyline
 66
     1
 10
0.0
 20
0.0
 30
0.0
  0
VERTEX
  5
221
100
AcDbEntity
  8
0
100
AcDbVertex
100
AcDb2dVertex
 10
-301.75
 20
202.0
 30
0.0
  0
VERTEX
  5
222
100
AcDbEntity
  8
0
100
AcDbVertex
100
AcDb2dVertex
 10
-273.5
 20
236.0
 30
0.0
  0
VERTEX
  5
223
100
AcDbEntity
  8
0
100
AcDbVertex
100
AcDb2dVertex
 10
-264.5
 20
236.0
 30
0.0
  0
SEQEND
  5
224
100
AcDbEntity
  8
0
  0
POLYLINE
  5
225
100
AcDbEntity
  8
0
100
AcDb2dPolyline
 66
     1
 10
0.0
 20
0.0
 30
0.0
  0
VERTEX
  5
226
100
AcDbEntity
  8
0
100
AcDbVertex
100
AcDb2dVertex
 10
-300.735319
 20
204.203785
 30
0.0
  0
VERTEX
  5
227
100
AcDbEntity
  8
0
100
AcDbVertex
100
AcDb2dVertex
 10
-301.75
 20
202.0
 30
0.0
  0
VERTEX
  5
228
100
AcDbEntity
  8
0
100
AcDbVertex
100
AcDb2dVertex
 10
-299.769368
 20
203.401194
 30
0.0
  0
SEQEND
  5
229
100
AcDbEntity
  8
0
  0
TEXT
  5
22A
100
AcDbEntity
  8
0
100
AcDbText
 10
-272.95
 20
237.8
 30
0.0
 40
3.2
  1
取付穴
 41
0.78125
  7
BIGFONT
100
AcDbText
  0
DIMENSION
  5
22B
100
AcDbEntity
  8
PV
100
AcDbDimension
  2
*D6
 10
-265.0
 20
170.5
 30
0.0
 11
196.825
 21
268.399999
 31
0.0
100
AcDbAlignedDimension
 13
-310.5
 23
229.5
 33
0.0
 14
-310.5
 24
170.5
 34
0.0
 50
270.0
100
AcDbRotatedDimension
  0
DIMENSION
  5
22C
100
AcDbEntity
  8
PV
100
AcDbDimension
  2
*D7
 10
-245.0
 20
231.5
 30
0.0
 11
192.966729
 21
248.399999
 31
0.0
100
AcDbAlignedDimension
 13
-213.0
 23
170.383455
 33
0.0
 14
-213.0
 24
231.5
 34
0.0
 50
90.0
100
AcDbRotatedDimension
  0
DIMENSION
  5
22D
100
AcDbEntity
  8
PV
100
AcDbDimension
  2
*D8
 10
-166.5
 20
235.0
 30
0.0
 11
-194.675001
 21
238.4
 31
0.0
100
AcDbAlignedDimension
 13
-216.5
 23
229.5
 33
0.0
 14
-166.5
 24
208.799999
 34
0.0
100
AcDbRotatedDimension
  0
DIMENSION
  5
22E
100
AcDbEntity
  8
PV
100
AcDbDimension
  2
*D9
 10
-166.5
 20
245.0
 30
0.0
 11
-204.675001
 21
248.4
 31
0.0
100
AcDbAlignedDimension
 13
-236.5
 23
224.5
 33
0.0
 14
-166.5
 24
208.799999
 34
0.0
100
AcDbRotatedDimension
  0
ENDSEC
  0
SECTION
  2
OBJECTS
  0
DICTIONARY
  5
C
100
AcDbDictionary
  3
ACAD_GROUP
350
D
  3
ACAD_MLINESTYLE
350
E
  0
DICTIONARY
  5
D
102
{ACAD_REACTORS
330
C
102
}
100
AcDbDictionary
  0
DICTIONARY
  5
E
102
{ACAD_REACTORS
330
C
102
}
100
AcDbDictionary
  3
STANDARD
350
1C
  0
MLINESTYLE
  5
1C
102
{ACAD_REACTORS
330
E
102
}
100
AcDbMlineStyle
  2
STANDARD
 70
     0
  3

 62
     0
 51
90.0
 52
90.0
 71
     2
 49
0.5
 62
   256
  6
BYLAYER
 49
-0.5
 62
   256
  6
BYLAYER
  0
ENDSEC
  0
EOF
