  0
SECTION
  2
HEADER
  9
$ACADVER
  1
AC1015
  9
$ACADMAINTVER
 70
    20
  9
$DWGCODEPAGE
  3
ANSI_932
  9
$INSBASE
 10
0.0
 20
0.0
 30
0.0
  9
$EXTMIN
 10
-390.9823378671967
 20
201.3678107911137
 30
0.0
  9
$EXTMAX
 10
149.3675809472556
 20
432.3750554500917
 30
0.0
  9
$LIMMIN
 10
-704.2769679020084
 20
0.0
  9
$LIMMAX
 10
725.8302334741317
 20
738.6854191000034
  9
$ORTHOMODE
 70
     1
  9
$REGENMODE
 70
     1
  9
$FILLMODE
 70
     1
  9
$QTEXTMODE
 70
     0
  9
$MIRRTEXT
 70
     0
  9
$LTSCALE
 40
1.0
  9
$ATTMODE
 70
     1
  9
$TEXTSIZE
 40
3.5
  9
$TRACEWID
 40
1.0
  9
$TEXTSTYLE
  7
STANDARD
  9
$CLAYER
  8
0
  9
$CELTYPE
  6
BYLAYER
  9
$CECOLOR
 62
   256
  9
$CELTSCALE
 40
1.0
  9
$DISPSILH
 70
     0
  9
$DIMSCALE
 40
1.0
  9
$DIMASZ
 40
2.5
  9
$DIMEXO
 40
0.0
  9
$DIMDLI
 40
10.0
  9
$DIMRND
 40
0.0
  9
$DIMDLE
 40
0.0
  9
$DIMEXE
 40
2.0
  9
$DIMTP
 40
0.0
  9
$DIMTM
 40
0.000000001
  9
$DIMTXT
 40
3.5
  9
$DIMCEN
 40
-2.0
  9
$DIMTSZ
 40
0.0
  9
$DIMTOL
 70
     0
  9
$DIMLIM
 70
     0
  9
$DIMTIH
 70
     0
  9
$DIMTOH
 70
     0
  9
$DIMSE1
 70
     0
  9
$DIMSE2
 70
     0
  9
$DIMTAD
 70
     1
  9
$DIMZIN
 70
     8
  9
$DIMBLK
  1
Open
  9
$DIMASO
 70
     1
  9
$DIMSHO
 70
     1
  9
$DIMPOST
  1

  9
$DIMAPOST
  1

  9
$DIMALT
 70
     0
  9
$DIMALTD
 70
     2
  9
$DIMALTF
 40
25.4
  9
$DIMLFAC
 40
1.0
  9
$DIMTOFL
 70
     1
  9
$DIMTVP
 40
0.0
  9
$DIMTIX
 70
     0
  9
$DIMSOXD
 70
     0
  9
$DIMSAH
 70
     0
  9
$DIMBLK1
  1

  9
$DIMBLK2
  1

  9
$DIMSTYLE
  2
AM_ISO
  9
$DIMCLRD
 70
     3
  9
$DIMCLRE
 70
     3
  9
$DIMCLRT
 70
     2
  9
$DIMTFAC
 40
0.75
  9
$DIMGAP
 40
1.5
  9
$DIMJUST
 70
     0
  9
$DIMSD1
 70
     0
  9
$DIMSD2
 70
     0
  9
$DIMTOLJ
 70
     1
  9
$DIMTZIN
 70
     8
  9
$DIMALTZ
 70
     8
  9
$DIMALTTZ
 70
     0
  9
$DIMUPT
 70
     0
  9
$DIMDEC
 70
     2
  9
$DIMTDEC
 70
     2
  9
$DIMALTU
 70
     2
  9
$DIMALTTD
 70
     2
  9
$DIMTXSTY
  7
STANDARD
  9
$DIMAUNIT
 70
     0
  9
$DIMADEC
 70
     0
  9
$DIMALTRND
 40
0.0
  9
$DIMAZIN
 70
     0
  9
$DIMDSEP
 70
    46
  9
$DIMATFIT
 70
     3
  9
$DIMFRAC
 70
     0
  9
$DIMLDRBLK
  1
Open
  9
$DIMLUNIT
 70
     2
  9
$DIMLWD
 70
    -1
  9
$DIMLWE
 70
    -1
  9
$DIMTMOVE
 70
     0
  9
$LUNITS
 70
     2
  9
$LUPREC
 70
     4
  9
$SKETCHINC
 40
1.0
  9
$FILLETRAD
 40
0.0
  9
$AUNITS
 70
     0
  9
$AUPREC
 70
     0
  9
$MENU
  1
acad
  9
$ELEVATION
 40
0.0
  9
$PELEVATION
 40
0.0
  9
$THICKNESS
 40
0.0
  9
$LIMCHECK
 70
     0
  9
$CHAMFERA
 40
0.5
  9
$CHAMFERB
 40
0.5
  9
$CHAMFERC
 40
1.5
  9
$CHAMFERD
 40
0.3490658503988659
  9
$SKPOLY
 70
     0
  9
$TDCREATE
 40
2456785.560835694
  9
$TDUCREATE
 40
2456785.185835695
  9
$TDUPDATE
 40
2456793.499132431
  9
$TDUUPDATE
 40
2456793.124132431
  9
$TDINDWG
 40
0.0523168171
  9
$TDUSRTIMER
 40
0.0523166435
  9
$USRTIMER
 70
     1
  9
$ANGBASE
 50
0.0
  9
$ANGDIR
 70
     0
  9
$PDMODE
 70
     0
  9
$PDSIZE
 40
0.0
  9
$PLINEWID
 40
0.0
  9
$SPLFRAME
 70
     0
  9
$SPLINETYPE
 70
     6
  9
$SPLINESEGS
 70
     8
  9
$HANDSEED
  5
F0AD
  9
$SURFTAB1
 70
     6
  9
$SURFTAB2
 70
     6
  9
$SURFTYPE
 70
     6
  9
$SURFU
 70
     6
  9
$SURFV
 70
     6
  9
$UCSBASE
  2

  9
$UCSNAME
  2

  9
$UCSORG
 10
0.0
 20
0.0
 30
0.0
  9
$UCSXDIR
 10
1.0
 20
0.0
 30
0.0
  9
$UCSYDIR
 10
0.0
 20
1.0
 30
0.0
  9
$UCSORTHOREF
  2

  9
$UCSORTHOVIEW
 70
     0
  9
$UCSORGTOP
 10
0.0
 20
0.0
 30
0.0
  9
$UCSORGBOTTOM
 10
0.0
 20
0.0
 30
0.0
  9
$UCSORGLEFT
 10
0.0
 20
0.0
 30
0.0
  9
$UCSORGRIGHT
 10
0.0
 20
0.0
 30
0.0
  9
$UCSORGFRONT
 10
0.0
 20
0.0
 30
0.0
  9
$UCSORGBACK
 10
0.0
 20
0.0
 30
0.0
  9
$PUCSBASE
  2

  9
$PUCSNAME
  2

  9
$PUCSORG
 10
0.0
 20
0.0
 30
0.0
  9
$PUCSXDIR
 10
1.0
 20
0.0
 30
0.0
  9
$PUCSYDIR
 10
0.0
 20
1.0
 30
0.0
  9
$PUCSORTHOREF
  2

  9
$PUCSORTHOVIEW
 70
     0
  9
$PUCSORGTOP
 10
0.0
 20
0.0
 30
0.0
  9
$PUCSORGBOTTOM
 10
0.0
 20
0.0
 30
0.0
  9
$PUCSORGLEFT
 10
0.0
 20
0.0
 30
0.0
  9
$PUCSORGRIGHT
 10
0.0
 20
0.0
 30
0.0
  9
$PUCSORGFRONT
 10
0.0
 20
0.0
 30
0.0
  9
$PUCSORGBACK
 10
0.0
 20
0.0
 30
0.0
  9
$USERI1
 70
     0
  9
$USERI2
 70
     0
  9
$USERI3
 70
     0
  9
$USERI4
 70
     0
  9
$USERI5
 70
     0
  9
$USERR1
 40
0.0
  9
$USERR2
 40
0.0
  9
$USERR3
 40
0.0
  9
$USERR4
 40
0.0
  9
$USERR5
 40
0.0
  9
$WORLDVIEW
 70
     1
  9
$SHADEDGE
 70
     3
  9
$SHADEDIF
 70
    70
  9
$TILEMODE
 70
     1
  9
$MAXACTVP
 70
    16
  9
$PINSBASE
 10
0.0
 20
0.0
 30
0.0
  9
$PLIMCHECK
 70
     0
  9
$PEXTMIN
 10
1.000000000000000E+20
 20
1.000000000000000E+20
 30
1.000000000000000E+20
  9
$PEXTMAX
 10
-1.000000000000000E+20
 20
-1.000000000000000E+20
 30
-1.000000000000000E+20
  9
$PLIMMIN
 10
0.0
 20
0.0
  9
$PLIMMAX
 10
420.0
 20
297.0
  9
$UNITMODE
 70
     0
  9
$VISRETAIN
 70
     0
  9
$PLINEGEN
 70
     0
  9
$PSLTSCALE
 70
     1
  9
$TREEDEPTH
 70
  3020
  9
$CMLSTYLE
  2
STANDARD
  9
$CMLJUST
 70
     0
  9
$CMLSCALE
 40
1.0
  9
$PROXYGRAPHICS
 70
     1
  9
$MEASUREMENT
 70
     1
  9
$CELWEIGHT
370
    -1
  9
$ENDCAPS
280
     0
  9
$JOINSTYLE
280
     0
  9
$LWDISPLAY
290
     0
  9
$INSUNITS
 70
     0
  9
$HYPERLINKBASE
  1

  9
$STYLESHEET
  1
mysample.ctb
  9
$XEDIT
290
     1
  9
$CEPSNTYPE
380
     0
  9
$PSTYLEMODE
290
     1
  9
$FINGERPRINTGUID
  2
{ED7A0CF5-0B4D-4B36-A7DD-753081607B98}
  9
$VERSIONGUID
  2
{B0DF3E28-AEBA-4C09-86F2-02E5DB25E395}
  9
$EXTNAMES
290
     1
  9
$PSVPSCALE
 40
0.0
  9
$OLESTARTUP
290
     0
  0
ENDSEC
  0
SECTION
  2
CLASSES
  0
CLASS
  1
ACDBDICTIONARYWDFLT
  2
AcDbDictionaryWithDefault
  3
ObjectDBX Classes
 90
        0
280
     0
281
     0
  0
CLASS
  1
ACDBPLACEHOLDER
  2
AcDbPlaceHolder
  3
ObjectDBX Classes
 90
        0
280
     0
281
     0
  0
CLASS
  1
LAYOUT
  2
AcDbLayout
  3
ObjectDBX Classes
 90
        0
280
     0
281
     0
  0
CLASS
  1
TABLESTYLE
  2
AcDbTableStyle
  3
ObjectDBX Classes
 90
     4095
280
     0
281
     0
  0
CLASS
  1
ACME_DOCUMENT
  2
AcMeDbDoc
  3
AcMeServices
 90
     1024
280
     0
281
     0
  0
CLASS
  1
AMGSETTINGSOBJ
  2
AmgSettingsObj
  3
"AcadM|Product Description: AutoCAD Mechanical|Company: Autodesk, Inc."
 90
     1024
280
     0
281
     0
  0
CLASS
  1
ACMESCOPE
  2
AcMeScope
  3
AcMeServices
 90
     1024
280
     0
281
     0
  0
CLASS
  1
ACMECOMMANDHISTORY
  2
AcMeCommandHistory
  3
AcMeServices
 90
     1024
280
     0
281
     0
  0
CLASS
  1
ACIMSYSVARMAN
  2
AcImSysVarManager
  3
AcMeServices
 90
     1024
280
     0
281
     0
  0
CLASS
  1
ACIMINTSYSVAR
  2
AcImIntSysVar
  3
AcMeServices
 90
     1024
280
     0
281
     0
  0
CLASS
  1
ACMEDRAWINGMAN
  2
AcMeDrawingMan
  3
AcMeServices
 90
    33792
280
     0
281
     0
  0
CLASS
  1
ACMEVIEW
  2
AcMeView
  3
AcMeServices
 90
    33792
280
     0
281
     0
  0
CLASS
  1
ACDBENTITYCACHE
  2
AcMeEntityCache
  3
AcMeServices
 90
     1024
280
     0
281
     0
  0
CLASS
  1
GSMANAGER
  2
AcMeGSManager
  3
AcMeServices
 90
    33792
280
     0
281
     0
  0
CLASS
  1
AMDTINTERNALREACTOR
  2
AmdtInternalReactor
  3
AcMeServices
 90
    33792
280
     0
281
     0
  0
CLASS
  1
ACMESTATEMGR
  2
AcMeStateMgr
  3
AcMeServices
 90
     1024
280
     0
281
     0
  0
CLASS
  1
ACGREFMASTER
  2
AcGrefMaster
  3
AcAttribServices
 90
     1024
280
     0
281
     0
  0
CLASS
  1
AM_DRAWING_MGR
  2
AcDmDwgMgr
  3
AcMechDwgViewMgmt
 90
    33792
280
     0
281
     0
  0
CLASS
  1
AM_DWG_DOCUMENT
  2
AcDmDwgDocument
  3
AcMechDwgViewMgmt
 90
    33792
280
     0
281
     0
  0
CLASS
  1
AM_DWG_SHEET
  2
AcDmSheet
  3
AcMechDwgViewMgmt
 90
    33792
280
     0
281
     0
  0
CLASS
  1
AM_VIEWDIMPARMAP
  2
AcDmViewDimParMap
  3
AcMechDwgViewMgmt
 90
    33792
280
     0
281
     0
  0
CLASS
  1
ACIMREALSYSVAR
  2
AcImRealSysVar
  3
AcMeServices
 90
     1024
280
     0
281
     0
  0
CLASS
  1
AM_DWGMGR_NAME
  2
AcDmDwgMgrName
  3
AcMechDwgViewMgmt
 90
    33792
280
     0
281
     0
  0
CLASS
  1
ACME_DATABASE
  2
AcMeDbDatabase
  3
AcMeServices
 90
     1024
280
     0
281
     0
  0
CLASS
  1
ACRFINSADJUSTERMGR
  2
AcRfInsAdjusterMgr
  3
AcMeServices
 90
     1024
280
     0
281
     0
  0
CLASS
  1
ACGREFACADMASTER
  2
AcGrefacadMaster
  3
AcGrefServices
 90
     1024
280
     0
281
     0
  0
CLASS
  1
AMDTMENUSTATEMGR
  2
AmdtMenuStateMgr
  3
McadcomServices
 90
     1024
280
     0
281
     0
  0
CLASS
  1
AMDTMCOMMENUSTATE
  2
AmdtMcomMenuState
  3
McadcomServices
 90
     1024
280
     0
281
     0
  0
CLASS
  1
AMIMASTER
  2
AmiMaster
  3
AmiServices
 90
     1024
280
     0
281
     0
  0
CLASS
  1
MAPIAMMOUDLE
  2
MApiAmModule
  3
MApiAmServices
 90
     1024
280
     0
281
     0
  0
CLASS
  1
ACIMSTRSYSVAR
  2
AcImStrSysVar
  3
AcMeServices
 90
     1024
280
     0
281
     0
  0
CLASS
  1
AMDTADMENUSTATE
  2
AmdtAdMenuState
  3
DesignerServices
 90
    33792
280
     0
281
     0
  0
CLASS
  1
ADAPPL
  2
AcAdAppl
  3
DesignerAssemblies
 90
    33792
280
     0
281
     0
  0
CLASS
  1
DEPMGR
  2
AcAdDepMgr
  3
DesignerAssemblies
 90
    33792
280
     0
281
     0
  0
CLASS
  1
PARAMMGR
  2
AcAdParamMgr
  3
DesignerAssemblies
 90
    33792
280
     0
281
     0
  0
CLASS
  1
PARAMSCOPE
  2
AcAdParamScope
  3
DesignerAssemblies
 90
    33792
280
     0
281
     0
  0
CLASS
  1
NAMEDAPPL
  2
AcAdNamedAppl
  3
DesignerAssemblies
 90
    33792
280
     0
281
     0
  0
CLASS
  1
AMDTDMMENUSTATE
  2
AmdtDmMenuState
  3
AcMechDwgViewMgmt
 90
    33792
280
     0
281
     0
  0
CLASS
  1
AMDTAMMENUSTATE
  2
AmdtAmMenuState
  3
DesignerAssemblies
 90
     1024
280
     0
281
     0
  0
CLASS
  1
ACAMPROJECT
  2
AcAmProject
  3
DesignerAssemblies
 90
     1024
280
     0
281
     0
  0
CLASS
  1
ACAMGRCOMPDEF
  2
AcAmGrCompDef
  3
DesignerAssemblies
 90
     1024
280
     0
281
     0
  0
CLASS
  1
ACCMCONTEXT
  2
AcCmContext
  3
DesignerAssemblies
 90
     1024
280
     0
281
     0
  0
CLASS
  1
ACAMCOMPDEF
  2
AcAmCompDef
  3
DesignerAssemblies
 90
     1024
280
     0
281
     0
  0
CLASS
  1
ACAMCOMPDEFMGR
  2
AcAmCompDefMgr
  3
DesignerAssemblies
 90
     1024
280
     0
281
     0
  0
CLASS
  1
AMCONTEXTMGR
  2
AcAmContextMgr
  3
DesignerAssemblies
 90
     1024
280
     0
281
     0
  0
CLASS
  1
ACAMCONTEXTMODELER
  2
AcAmContextModeler
  3
DesignerAssemblies
 90
     1024
280
     0
281
     0
  0
CLASS
  1
ACMDATADICTIONARY
  2
AcmDataDictionary
  3
"AcmSymBB|Product Description: AutoCAD Mechanical|Company: Autodesk, Inc."
 90
     1024
280
     0
281
     0
  0
CLASS
  1
CATALOGSTATE
  2
AcAmCatalogState
  3
DesignerAssemblies
 90
    33792
280
     0
281
     0
  0
CLASS
  1
ACAMGRCOMPDEFSET
  2
AcAmGrCompDefSet
  3
DesignerAssemblies
 90
     1024
280
     0
281
     0
  0
CLASS
  1
AMDTBROWSERDBTAB
  2
AmdtBrowserDbTab
  3
McadcomServices
 90
     1024
280
     0
281
     0
  0
CLASS
  1
CBROWSERAPPOBJECT
  2
CBrowserAppObject
  3
McadcomServices
 90
     1024
280
     0
281
     0
  0
CLASS
  1
DM_PLACEHOLDER
  2
AcDmSelsetPlaceholder
  3
McadcomServices
 90
     1024
280
     0
281
     0
  0
CLASS
  1
ACMSTANDARDISO
  2
AcmStandardISO
  3
"Amdt_StdImp|Product Description: AutoCAD Mechanical|Company: Autodesk, Inc."
 90
     1024
280
     0
281
     0
  0
CLASS
  1
AMGOBJPROPCFG
  2
AmgObjPropCfg
  3
"AmgLay|Product Description: AutoCAD Mechanical|Company: Autodesk, Inc."
 90
     1024
280
     0
281
     0
  0
CLASS
  1
AMDTEDGESTANDARDISO13715
  2
AmdtEdgeStdISO13715
  3
"Amdt_StdImp|Product Description: AutoCAD Mechanical|Company: Autodesk, Inc."
 90
     1024
280
     0
281
     0
  0
CLASS
  1
ACMSURFSTANDARDISO
  2
AcmSurfTextStdISO
  3
"Amdt_StdImp|Product Description: AutoCAD Mechanical|Company: Autodesk, Inc."
 90
     1024
280
     0
281
     0
  0
CLASS
  1
ACMFCFSTANDARDISO
  2
AcmFCFStdISO
  3
"Amdt_StdImp|Product Description: AutoCAD Mechanical|Company: Autodesk, Inc."
 90
     1024
280
     0
281
     0
  0
CLASS
  1
ACMWELDSTANDARDISO
  2
AcmWeldingStdISO
  3
"Amdt_StdImp|Product Description: AutoCAD Mechanical|Company: Autodesk, Inc."
 90
     1024
280
     0
281
     0
  0
CLASS
  1
ACMIDSTANDARDISO
  2
AcmIdStdISO
  3
"Amdt_StdImp|Product Description: AutoCAD Mechanical|Company: Autodesk, Inc."
 90
     1024
280
     0
281
     0
  0
CLASS
  1
ACMDATUMSTANDARDISO
  2
AcmDatumStdISO
  3
"Amdt_StdImp|Product Description: AutoCAD Mechanical|Company: Autodesk, Inc."
 90
     1024
280
     0
281
     0
  0
CLASS
  1
ACMBOMSTANDARDISO
  2
AcmBOMStdISO
  3
"Amdt_StdImp|Product Description: AutoCAD Mechanical|Company: Autodesk, Inc."
 90
     1024
280
     0
281
     0
  0
CLASS
  1
ACMDETAILSTANDARDISO
  2
AmdtDetailSymStdISO
  3
"Amdt_StdImp|Product Description: AutoCAD Mechanical|Company: Autodesk, Inc."
 90
     1024
280
     0
281
     0
  0
CLASS
  1
ACMSECTIONSTANDARDISO
  2
AmdtSectionSymStdISO
  3
"Amdt_StdImp|Product Description: AutoCAD Mechanical|Company: Autodesk, Inc."
 90
     1024
280
     0
281
     0
  0
CLASS
  1
ACMCENTERLINESTANDARDISO
  2
AmdtCenterLineStdISO
  3
"Amdt_StdImp|Product Description: AutoCAD Mechanical|Company: Autodesk, Inc."
 90
     1024
280
     0
281
     0
  0
CLASS
  1
ACMTHREADLINESTANDARDISO
  2
AmdtThreadLineStdISO
  3
"Amdt_StdImp|Product Description: AutoCAD Mechanical|Company: Autodesk, Inc."
 90
     1024
280
     0
281
     0
  0
CLASS
  1
ACMNOTESTANDARDISO
  2
AmdtNoteStdISO
  3
"Amdt_StdImp|Product Description: AutoCAD Mechanical|Company: Autodesk, Inc."
 90
     1024
280
     0
281
     0
  0
CLASS
  1
AMDTNOTETEMPLATEDB
  2
AmdtNoteTemplateDB
  3
AcmSymBB|Product Description: AutoCAD Mechanical|Company: Autodesk, Inc.
 90
     1024
280
     0
281
     0
  0
CLASS
  1
ACAMGLAYSTD
  2
AcAmgLayStd
  3
"AmgLay|Product Description: AutoCAD Mechanical|Company: Autodesk, Inc."
 90
     1024
280
     0
281
     0
  0
CLASS
  1
ACAMGDIMSTD
  2
AcAmgDimStd
  3
"AmgDim|Product Description: AutoCAD Mechanical|Company: Autodesk, Inc."
 90
     1024
280
     0
281
     0
  0
CLASS
  1
ACAMGHOLECHARTSTDISO
  2
AcAmgHoleChartStdISO
  3
AmgDim|Product Description: AutoCAD Mechanical|Company: Autodesk, Inc.
 90
     1024
280
     0
281
     0
  0
CLASS
  1
ACAMGTITLESTD
  2
AcAmgTitleStd
  3
"AmgTitle|Product Description: AutoCAD Mechanical|Company: Autodesk, Inc."
 90
     1024
280
     0
281
     0
  0
CLASS
  1
ACAMGFILTERDAT
  2
AcAmgFilterDat
  3
"AcadM|Product Description: AutoCAD Mechanical|Company: Autodesk, Inc."
 90
     1024
280
     0
281
     0
  0
CLASS
  1
SORTENTSTABLE
  2
AcDbSortentsTable
  3
ObjectDBX Classes
 90
        0
280
     0
281
     0
  0
CLASS
  1
AC_AM_MVD_DEP_MGR
  2
AcAmMVDdepMgr
  3
DesignerAssemblies
 90
     1024
280
     0
281
     0
  0
CLASS
  1
AC_AM_MASTER_VIEW_DEF
  2
AcAmMasterViewDef
  3
DesignerAssemblies
 90
     1024
280
     0
281
     0
  0
CLASS
  1
AC_AM_DIRTY_NODES
  2
AcAmDirtyNodes
  3
DesignerAssemblies
 90
     1024
280
     0
281
     0
  0
CLASS
  1
AC_AM_MAPPER_CACHE
  2
AcAmMapperCache
  3
DesignerAssemblies
 90
     1024
280
     0
281
     0
  0
CLASS
  1
ACAMMVDBACKUPOBJECT
  2
AcAmMVDBackupObject
  3
DesignerAssemblies
 90
     1024
280
     0
281
     0
  0
CLASS
  1
STDPART2D
  2
AmgStdPart
  3
AmgStdPart|Product Description: AutoCAD Mechanical|Company: Autodesk, Inc.
 90
    33792
280
     0
281
     1
  0
CLASS
  1
ACAMSTDPCOMPDEF
  2
AcAmStdpCompDef
  3
DesignerAssemblies
 90
    33792
280
     0
281
     0
  0
CLASS
  1
ACRFATTGENMGR
  2
AcRfAttGeneralMgr
  3
AcAttribServices
 90
    33792
280
     0
281
     0
  0
CLASS
  1
ACRFOBJATTMGR
  2
AcRfObjAttGroupMgr
  3
AcAttribServices
 90
    33792
280
     0
281
     0
  0
CLASS
  1
ACRFMCADAPIATTHOLDER
  2
AcRfMCADAPIAttHolder
  3
AcAttribServices
 90
    33792
280
     0
281
     0
  0
CLASS
  1
AMDTSYSATTR
  2
AmdtSystemAttribute
  3
AcAttribServices
 90
    33792
280
     0
281
     0
  0
CLASS
  1
ACAMCOMP
  2
AcAmComp
  3
DesignerAssemblies
 90
    33792
280
     0
281
     0
  0
CLASS
  1
AC_AM_STDP_VIEW_DEF
  2
AcAmStdpViewDef
  3
DesignerAssemblies
 90
    33792
280
     0
281
     0
  0
CLASS
  1
AC_AM_COMP_VIEW_INST
  2
AcAmCompView
  3
DesignerAssemblies
 90
    33792
280
     0
281
     0
  0
CLASS
  1
NEWSTDPARTPARLIST
  2
AmgNewParListFiler
  3
"AmgParList|Product Description: AutoCAD Mechanical|Company: Autodesk, Inc."
 90
    33792
280
     0
281
     0
  0
CLASS
  1
AC_AM_2D_XREF_MGR
  2
AcAmXrefMgr2d
  3
DesignerAssemblies
 90
     1024
280
     0
281
     0
  0
CLASS
  1
AC_AM_TRANSFORM_GHOST
  2
AcDbTransformGhost
  3
DesignerAssemblies
 90
    33792
280
     0
281
     1
  0
CLASS
  1
ACAMWBLOCKTEMPENTS
  2
AcAmStructInOutTempObjsHolder
  3
DesignerAssemblies
 90
    33792
280
     0
281
     0
  0
CLASS
  1
OBJCLONER
  2
ObjCloner
  3
DesignerAssemblies
 90
    33792
280
     0
281
     1
  0
CLASS
  1
DICTIONARYVAR
  2
AcDbDictionaryVar
  3
ObjectDBX Classes
 90
        0
280
     0
281
     0
  0
CLASS
  1
AC_AM_HIDE_SITUATION
  2
AcAmHideSituation
  3
DesignerAssemblies
 90
    33792
280
     0
281
     0
  0
CLASS
  1
AC_AM_COMPLEX_HIDE_SITUATION
  2
AcAmComplexHideSituation
  3
DesignerAssemblies
 90
    33792
280
     0
281
     0
  0
CLASS
  1
ACMDATAENTRYBLOCK
  2
AcmDataEntryBlock
  3
AcmSymBB|Product Description: AutoCAD Mechanical|Company: Autodesk, Inc.
 90
    33792
280
     0
281
     0
  0
CLASS
  1
MATERIAL
  2
AcDbMaterial
  3
ObjectDBX Classes
 90
     1153
280
     0
281
     0
  0
CLASS
  1
VISUALSTYLE
  2
AcDbVisualStyle
  3
ObjectDBX Classes
 90
     4095
280
     0
281
     0
  0
CLASS
  1
SCALE
  2
AcDbScale
  3
ObjectDBX Classes
 90
     1153
280
     0
281
     0
  0
CLASS
  1
MLEADERSTYLE
  2
AcDbMLeaderStyle
  3
ACDB_MLEADERSTYLE_CLASS
 90
     4095
280
     0
281
     0
  0
CLASS
  1
ACMTAPERSTANDARDISO
  2
AcmTaperStdISO
  3
"Amdt_StdImp|Product Description: AutoCAD Mechanical|Company: Autodesk, Inc."
 90
     1024
280
     0
281
     0
  0
CLASS
  1
ACMANOOTATIONVIEWSTANDARDISO
  2
AmdtAnViewStdISO
  3
"Amdt_StdImp|Product Description: AutoCAD Mechanical|Company: Autodesk, Inc."
 90
     1024
280
     0
281
     0
  0
CLASS
  1
CELLSTYLEMAP
  2
AcDbCellStyleMap
  3
ObjectDBX Classes
 90
     1152
280
     0
281
     0
  0
CLASS
  1
ACAD_EVALUATION_GRAPH
  2
AcDbEvalGraph
  3
ObjectDBX Classes
 90
    33921
280
     0
281
     0
  0
CLASS
  1
ACAECUSTOBJ
  2
AcAeEditorObj
  3
AcAeEditorObj
 90
    33792
280
     0
281
     0
  0
CLASS
  1
ACDB_DYNAMICBLOCKPURGEPREVENTER_VERSION
  2
AcDbDynamicBlockPurgePreventer
  3
ObjectDBX Classes
 90
    33921
280
     0
281
     0
  0
CLASS
  1
EXACXREFPANELOBJECT
  2
ExAcXREFPanelObject
  3
EXAC_ESW
 90
     1025
280
     0
281
     0
  0
CLASS
  1
NPOCOLLECTION
  2
AcDbImpNonPersistentObjectsCollection
  3
ObjectDBX Classes
 90
     1153
280
     0
281
     0
  0
CLASS
  1
CAMSSTRUCTBTNSTATE
  2
StructBtnState
  3
DesignerAssemblies
 90
     1024
280
     0
281
     0
  0
CLASS
  1
ACMFCFRAME
  2
AcmFCF
  3
"AcmSymBB|Product Description: AutoCAD Mechanical|Company: Autodesk, Inc."
 90
    33792
280
     0
281
     1
  0
CLASS
  1
ACDBLINERES
  2
AcDbLineRes
  3
AcGrefServices
 90
    33792
280
     0
281
     0
  0
CLASS
  1
ACMDATUMID
  2
AcmDatumId
  3
"AcmSymBB|Product Description: AutoCAD Mechanical|Company: Autodesk, Inc."
 90
    33792
280
     0
281
     1
  0
CLASS
  1
BLOCKPOINTPARAMETER
  2
AcDbBlockPointParameter
  3
ObjectDBX Classes
 90
    33921
280
     0
281
     0
  0
CLASS
  1
BLOCKLINEARPARAMETER
  2
AcDbBlockLinearParameter
  3
ObjectDBX Classes
 90
    33921
280
     0
281
     0
  0
CLASS
  1
ACDBASSOCACTION
  2
AcDbAssocAction
  3
ObjectDBX Classes
 90
    33793
280
     0
281
     0
  0
CLASS
  1
ACDBASSOCARRAYACTIONBODY
  2
AcDbAssocArrayActionBody
  3
ObjectDBX Classes
 90
    33793
280
     0
281
     0
  0
CLASS
  1
ACDBASSOCVERTEXACTIONPARAM
  2
AcDbAssocVertexActionParam
  3
ObjectDBX Classes
 90
    33793
280
     0
281
     0
  0
CLASS
  1
ACDBASSOCDEPENDENCY
  2
AcDbAssocDependency
  3
ObjectDBX Classes
 90
    33793
280
     0
281
     0
  0
CLASS
  1
ACDBASSOCARRAYPOLARPARAMETERS
  2
AcDbAssocArrayPolarParameters
  3
ObjectDBX Classes
 90
    33793
280
     0
281
     0
  0
CLASS
  1
ACDBASSOCNETWORK
  2
AcDbAssocNetwork
  3
ObjectDBX Classes
 90
    33793
280
     0
281
     0
  0
CLASS
  1
ACDBSECTIONVIEWSTYLE
  2
AcDbSectionViewStyle
  3
ObjectDBX Classes
 90
     1025
280
     0
281
     0
  0
CLASS
  1
ACDBDETAILVIEWSTYLE
  2
AcDbDetailViewStyle
  3
ObjectDBX Classes
 90
     1025
280
     0
281
     0
  0
CLASS
  1
ACMSECTIONSTANDARDCUSTOM
  2
AmdtSectionSymStdCustom
  3
"Amdt_StdImp|Product Description: AutoCAD Mechanical|Company: Autodesk, Inc."
 90
     1024
280
     0
281
     0
  0
CLASS
  1
ACMDETAILTANDARDCUSTOM
  2
AmdtDetailSymStdCustom
  3
"Amdt_StdImp|Product Description: AutoCAD Mechanical|Company: Autodesk, Inc."
 90
     1024
280
     0
281
     0
  0
CLASS
  1
FIELD
  2
AcDbField
  3
ObjectDBX Classes
 90
     1152
280
     0
281
     0
  0
CLASS
  1
FIELDLIST
  2
AcDbFieldList
  3
ObjectDBX Classes
 90
     1152
280
     0
281
     0
  0
ENDSEC
  0
SECTION
  2
TABLES
  0
TABLE
  2
VPORT
  5
8
330
0
100
AcDbSymbolTable
 70
     1
  0
VPORT
  5
8E8A
330
8
100
AcDbSymbolTableRecord
100
AcDbViewportTableRecord
  2
*Active
 70
     0
 10
0.0
 20
0.0
 11
1.0
 21
1.0
 12
-114.2882744865952
 22
316.8741347636386
 13
0.0
 23
0.0
 14
2.5
 24
2.5
 15
10.0
 25
10.0
 16
0.0
 26
0.0
 36
1.0
 17
0.0
 27
0.0
 37
0.0
 40
287.5854392993229
 41
1.931696905016008
 42
50.0
 43
0.0
 44
0.0
 50
0.0
 51
0.0
 71
    16
 72
   100
 73
     1
 74
     0
 75
     0
 76
     0
 77
     0
 78
     0
281
     0
 65
     1
110
0.0
120
0.0
130
0.0
111
1.0
121
0.0
131
0.0
112
0.0
122
1.0
132
0.0
 79
     0
146
0.0
1001
ACAD_NAV_VCDISPLAY
1070
     3
  0
ENDTAB
  0
TABLE
  2
LTYPE
  5
5
330
0
100
AcDbSymbolTable
 70
    24
  0
LTYPE
  5
12
330
5
100
AcDbSymbolTableRecord
100
AcDbLinetypeTableRecord
  2
BYBLOCK
 70
     0
  3

 72
    65
 73
     0
 40
0.0
  0
LTYPE
  5
13
330
5
100
AcDbSymbolTableRecord
100
AcDbLinetypeTableRecord
  2
BYLAYER
 70
     0
  3

 72
    65
 73
     0
 40
0.0
  0
LTYPE
  5
14
330
5
100
AcDbSymbolTableRecord
100
AcDbLinetypeTableRecord
  2
CONTINUOUS
 70
     0
  3
Solid line
 72
    65
 73
     0
 40
0.0
  0
LTYPE
  5
1E
330
5
100
AcDbSymbolTableRecord
100
AcDbLinetypeTableRecord
  2
GEN3A
 70
     0
  3
 - - - - -
 72
    65
 73
     2
 40
3.1
 49
2.5
 74
     0
 49
-0.6
 74
     0
  0
LTYPE
  5
20
330
5
100
AcDbSymbolTableRecord
100
AcDbLinetypeTableRecord
  2
GEN7A
 70
     0
  3
__ . __ . __
 72
    65
 73
     4
 40
7.5
 49
5.0
 74
     0
 49
-0.75
 74
     0
 49
1.0
 74
     0
 49
-0.75
 74
     0
  0
LTYPE
  5
21
330
5
100
AcDbSymbolTableRecord
100
AcDbLinetypeTableRecord
  2
GEN4A
 70
     0
  3
_____ . . _____ . . _____ . . ____ .. ____
 72
    65
 73
     6
 40
15.0
 49
10.0
 74
     0
 49
-1.0
 74
     0
 49
1.0
 74
     0
 49
-1.0
 74
     0
 49
1.0
 74
     0
 49
-1.0
 74
     0
  0
LTYPE
  5
8519
330
5
100
AcDbSymbolTableRecord
100
AcDbLinetypeTableRecord
  2
AM_ISO02W050
 70
     0
  3
__ __ __ __ __ __ __ __ __ __ __ __ __ __ __
 72
    65
 73
     2
 40
7.5
 49
6.0
 74
     0
 49
-1.5
 74
     0
  0
LTYPE
  5
851A
330
5
100
AcDbSymbolTableRecord
100
AcDbLinetypeTableRecord
  2
AM_ISO08W050
 70
     0
  3
____ . ____ . ____ . ____ . ____ . ____ . ____
 72
    65
 73
     4
 40
18.0
 49
12.0
 74
     0
 49
-1.5
 74
     0
 49
3.0
 74
     0
 49
-1.5
 74
     0
  0
LTYPE
  5
851B
330
5
100
AcDbSymbolTableRecord
100
AcDbLinetypeTableRecord
  2
AM_ISO09W050
 70
     0
  3
_____ . . _____ . . _____ . . ____ .. ____
 72
    65
 73
     6
 40
22.5
 49
12.0
 74
     0
 49
-1.5
 74
     0
 49
3.0
 74
     0
 49
-1.5
 74
     0
 49
3.0
 74
     0
 49
-1.5
 74
     0
  0
LTYPE
  5
851C
330
5
100
AcDbSymbolTableRecord
100
AcDbLinetypeTableRecord
  2
Amconstr
 70
     0
  3
_______________________
 72
    65
 73
     2
 40
9999.0
 49
9999.0
 74
     0
 49
0.0
 74
     0
  0
LTYPE
  5
851D
330
5
100
AcDbSymbolTableRecord
100
AcDbLinetypeTableRecord
  2
AM_ISO08W050x2
 70
     0
  3
__ . __ . __ . __ . __ . __
 72
    65
 73
     4
 40
9.0
 49
6.0
 74
     0
 49
-0.75
 74
     0
 49
1.5
 74
     0
 49
-0.75
 74
     0
  0
LTYPE
  5
851E
330
5
100
AcDbSymbolTableRecord
100
AcDbLinetypeTableRecord
  2
AM_ISO02W050x2
 70
     0
  3
 _ _ _ _ _ _ _ _ _ _ _ _
 72
    65
 73
     2
 40
3.75
 49
3.0
 74
     0
 49
-0.75
 74
     0
  0
LTYPE
  5
8521
330
5
100
AcDbSymbolTableRecord
100
AcDbLinetypeTableRecord
  2
Amzigzag
 70
     0
  3
/\/-/\/-/\/-/\/-/\/-/\/
 72
    65
 73
     2
 40
11.0001
 49
0.0001
 74
     4
 75
   136
340
8520
 46
0.04
 50
0.0
 44
0.0
 45
0.0
 49
-11.0
 74
     0
  0
LTYPE
  5
8530
330
5
100
AcDbSymbolTableRecord
100
AcDbLinetypeTableRecord
  2
ACISOWELD
 70
     0
  3
_ _ _ _ _
 72
    65
 73
     2
 40
2.0
 49
2.0
 74
     0
 49
-1.0
 74
     0
  0
LTYPE
  5
8531
330
5
100
AcDbSymbolTableRecord
100
AcDbLinetypeTableRecord
  2
ACISOTGB
 70
     0
  3
__ . . __ . .
 72
    65
 73
     6
 40
9.0
 49
4.0
 74
     0
 49
-1.0
 74
     0
 49
1.0
 74
     0
 49
-1.0
 74
     0
 49
1.0
 74
     0
 49
-1.0
 74
     0
  0
LTYPE
  5
8532
330
5
100
AcDbSymbolTableRecord
100
AcDbLinetypeTableRecord
  2
ACISOTGL
 70
     0
  3
_ _ _ _ _
 72
    65
 73
     2
 40
3.0
 49
2.0
 74
     0
 49
-1.0
 74
     0
  0
ENDTAB
  0
TABLE
  2
LAYER
  5
2
102
{ACAD_XDICTIONARY
360
8594
102
}
330
0
100
AcDbSymbolTable
 70
    26
  0
LAYER
  5
F
102
{ACAD_XDICTIONARY
360
8F23
102
}
330
2
100
AcDbSymbolTableRecord
100
AcDbLayerTableRecord
  2
0
 70
     0
 62
     7
  6
CONTINUOUS
370
    -3
390
4B4
  0
LAYER
  5
29
102
{ACAD_XDICTIONARY
360
8F2D
102
}
330
2
100
AcDbSymbolTableRecord
100
AcDbLayerTableRecord
  2
3A
 70
     0
 62
     6
  6
GEN3A
370
    -3
390
4B4
  0
LAYER
  5
2A
102
{ACAD_XDICTIONARY
360
8F2F
102
}
330
2
100
AcDbSymbolTableRecord
100
AcDbLayerTableRecord
  2
4A
 70
     0
 62
     3
  6
GEN4A
370
    -3
390
4B4
  0
LAYER
  5
2B
102
{ACAD_XDICTIONARY
360
8F31
102
}
330
2
100
AcDbSymbolTableRecord
100
AcDbLayerTableRecord
  2
5
 70
     0
 62
     3
  6
CONTINUOUS
370
    -3
390
4B4
  0
LAYER
  5
2F
102
{ACAD_XDICTIONARY
360
8F39
102
}
330
2
100
AcDbSymbolTableRecord
100
AcDbLayerTableRecord
  2
7A
 70
     0
 62
     4
  6
GEN7A
370
    -3
390
4B4
  0
LAYER
  5
30
330
2
100
AcDbSymbolTableRecord
100
AcDbLayerTableRecord
  2
DEFPOINTS
 70
     0
 62
     7
  6
CONTINUOUS
290
     0
370
    -3
390
4B4
  0
LAYER
  5
8F1
102
{ACAD_XDICTIONARY
360
8F65
102
}
330
2
100
AcDbSymbolTableRecord
100
AcDbLayerTableRecord
  2
SUNPOU
 70
     0
 62
     3
  6
CONTINUOUS
370
    -3
390
4B4
  0
ENDTAB
  0
TABLE
  2
STYLE
  5
3
330
0
100
AcDbSymbolTable
 70
    11
  0
STYLE
  5
10
330
3
100
AcDbSymbolTableRecord
100
AcDbTextStyleTableRecord
  2
STANDARD
 70
     0
 40
0.0
 41
1.0
 50
10.0
 71
     0
 42
3.5
  3
ISOCP.SHX
  4
extfont.shx
  0
STYLE
  5
8F4
330
3
100
AcDbSymbolTableRecord
100
AcDbTextStyleTableRecord
  2
BIGFONT
 70
     0
 40
0.0
 41
1.0
 50
10.0
 71
     0
 42
3.5
  3
txt.shx
  4
bigfont.shx
  0
STYLE
  5
8520
330
3
100
AcDbSymbolTableRecord
100
AcDbTextStyleTableRecord
  2

 70
     1
 40
0.0
 41
1.0
 50
0.0
 71
     0
 42
3.5
  3
genltshp.shx
  4

  0
STYLE
  5
8522
330
3
100
AcDbSymbolTableRecord
100
AcDbTextStyleTableRecord
  2
ACISOTS
 70
     0
 40
1.0
 41
1.0
 50
10.0
 71
     0
 42
3.5
  3
isocp.shx
  4
extfont.shx
  0
STYLE
  5
852F
330
3
100
AcDbSymbolTableRecord
100
AcDbTextStyleTableRecord
  2
ACISOGDT
 70
     0
 40
0.0
 41
1.0
 50
0.0
 71
     0
 42
3.5
  3
AMGDT.shx
  4

  0
ENDTAB
  0
TABLE
  2
VIEW
  5
6
330
0
100
AcDbSymbolTable
 70
     6
  0
VIEW
  5
C980
330
6
100
AcDbSymbolTableRecord
100
AcDbViewTableRecord
  2
AM_VIEW1
 70
     0
 40
379.2549484312416
 10
-346.7501675579734
 20
549.0579448843828
 41
715.0536006880701
 11
0.0
 21
0.0
 31
1.0
 12
0.0
 22
0.0
 32
0.0
 42
50.0
 43
0.0
 44
0.0
 50
0.0
 71
    16
281
     0
 72
     0
  0
VIEW
  5
C981
330
6
100
AcDbSymbolTableRecord
100
AcDbViewTableRecord
  2
AM_VIEW2
 70
     0
 40
379.2549484312416
 10
368.3034331300967
 20
549.0579448843828
 41
715.0536006880701
 11
0.0
 21
0.0
 31
1.0
 12
0.0
 22
0.0
 32
0.0
 42
50.0
 43
0.0
 44
0.0
 50
0.0
 71
    16
281
     0
 72
     0
  0
VIEW
  5
C982
330
6
100
AcDbSymbolTableRecord
100
AcDbViewTableRecord
  2
AM_VIEW3
 70
     0
 40
379.2549484312416
 10
-346.7501675579734
 20
189.6274742156208
 41
715.0536006880701
 11
0.0
 21
0.0
 31
1.0
 12
0.0
 22
0.0
 32
0.0
 42
50.0
 43
0.0
 44
0.0
 50
0.0
 71
    16
281
     0
 72
     0
  0
VIEW
  5
C983
330
6
100
AcDbSymbolTableRecord
100
AcDbViewTableRecord
  2
AM_VIEW4
 70
     0
 40
379.2549484312416
 10
368.3034331300967
 20
189.6274742156208
 41
715.0536006880701
 11
0.0
 21
0.0
 31
1.0
 12
0.0
 22
0.0
 32
0.0
 42
50.0
 43
0.0
 44
0.0
 50
0.0
 71
    16
281
     0
 72
     0
  0
VIEW
  5
C984
330
6
100
AcDbSymbolTableRecord
100
AcDbViewTableRecord
  2
AM_VIEW5
 70
     0
 40
379.2549484312416
 10
10.77663278606167
 20
369.3427095500017
 41
715.0536006880701
 11
0.0
 21
0.0
 31
1.0
 12
0.0
 22
0.0
 32
0.0
 42
50.0
 43
0.0
 44
0.0
 50
0.0
 71
    16
281
     0
 72
     0
  0
VIEW
  5
C985
330
6
100
AcDbSymbolTableRecord
100
AcDbViewTableRecord
  2
AM_VIEW6
 70
     0
 40
758.5023117635146
 10
10.77663278606167
 20
369.3427095500017
 41
1430.092900304126
 11
0.0
 21
0.0
 31
1.0
 12
0.0
 22
0.0
 32
0.0
 42
50.0
 43
0.0
 44
0.0
 50
0.0
 71
    16
281
     0
 72
     0
  0
ENDTAB
  0
TABLE
  2
UCS
  5
7
330
0
100
AcDbSymbolTable
 70
     0
  0
ENDTAB
  0
TABLE
  2
APPID
  5
9
330
0
100
AcDbSymbolTable
 70
    61
  0
APPID
  5
11
330
9
100
AcDbSymbolTableRecord
100
AcDbRegAppTableRecord
  2
ACAD
 70
     0
  0
APPID
  5
323
330
9
100
AcDbSymbolTableRecord
100
AcDbRegAppTableRecord
  2
CONTENTTABDATA
 70
     0
  0
APPID
  5
324
330
9
100
AcDbSymbolTableRecord
100
AcDbRegAppTableRecord
  2
CONTENTCURRENTTAB
 70
     0
  0
APPID
  5
8FD
330
9
100
AcDbSymbolTableRecord
100
AcDbRegAppTableRecord
  2
CONTENTBLOCKICON
 70
     0
  0
APPID
  5
8FE
330
9
100
AcDbSymbolTableRecord
100
AcDbRegAppTableRecord
  2
CONTENTBLOCKDESCRIPTION
 70
     0
  0
APPID
  5
84B6
330
9
100
AcDbSymbolTableRecord
100
AcDbRegAppTableRecord
  2
MCAD_NO_VIS
 70
     0
  0
APPID
  5
84B7
330
9
100
AcDbSymbolTableRecord
100
AcDbRegAppTableRecord
  2
ACAD_TEMP_GRAPHIC
 70
     0
  0
APPID
  5
84E7
330
9
100
AcDbSymbolTableRecord
100
AcDbRegAppTableRecord
  2
AD_DRAW
 70
     0
  0
APPID
  5
84EA
330
9
100
AcDbSymbolTableRecord
100
AcDbRegAppTableRecord
  2
ACATTRIBSERVICES
 70
     0
  0
APPID
  5
850A
330
9
100
AcDbSymbolTableRecord
100
AcDbRegAppTableRecord
  2
DESIGNERASSEMBLIES
 70
     0
  0
APPID
  5
8510
330
9
100
AcDbSymbolTableRecord
100
AcDbRegAppTableRecord
  2
ACADM_DIM_EDIT
 70
     0
  0
APPID
  5
8511
330
9
100
AcDbSymbolTableRecord
100
AcDbRegAppTableRecord
  2
AMDT_DM_ADJ
 70
     0
  0
APPID
  5
853D
330
9
100
AcDbSymbolTableRecord
100
AcDbRegAppTableRecord
  2
ACAD_DSTYLE_DIMARC_LENGTH_SYMBOL
 70
     0
  0
APPID
  5
853E
330
9
100
AcDbSymbolTableRecord
100
AcDbRegAppTableRecord
  2
ACAD_DSTYLE_DIMJOGGED_JOGANGLE_SYMBOL
 70
     0
  0
APPID
  5
856C
330
9
100
AcDbSymbolTableRecord
100
AcDbRegAppTableRecord
  2
AcAecLayerStandard
 70
     0
  0
APPID
  5
8583
330
9
100
AcDbSymbolTableRecord
100
AcDbRegAppTableRecord
  2
AMG_2DHIDE
 70
     0
  0
APPID
  5
8584
330
9
100
AcDbSymbolTableRecord
100
AcDbRegAppTableRecord
  2
AMG_2DSTRUCT_BTR
 70
     0
  0
APPID
  5
858D
330
9
100
AcDbSymbolTableRecord
100
AcDbRegAppTableRecord
  2
GEVID1153440513
 70
     0
  0
APPID
  5
858E
330
9
100
AcDbSymbolTableRecord
100
AcDbRegAppTableRecord
  2
GEVDC
 70
     0
  0
APPID
  5
858F
330
9
100
AcDbSymbolTableRecord
100
AcDbRegAppTableRecord
  2
GEVCON
 70
     0
  0
APPID
  5
859D
330
9
100
AcDbSymbolTableRecord
100
AcDbRegAppTableRecord
  2
GENIUS_GENOBJ-F-SCPASSM_13
 70
     0
  0
APPID
  5
859E
330
9
100
AcDbSymbolTableRecord
100
AcDbRegAppTableRecord
  2
GENIUS_GENODEF_13
 70
     0
  0
APPID
  5
859F
330
9
100
AcDbSymbolTableRecord
100
AcDbRegAppTableRecord
  2
GENIUS_GENOLIS_13
 70
     0
  0
APPID
  5
85A0
330
9
100
AcDbSymbolTableRecord
100
AcDbRegAppTableRecord
  2
GENIUS_GENOENT_13
 70
     0
  0
APPID
  5
85A1
330
9
100
AcDbSymbolTableRecord
100
AcDbRegAppTableRecord
  2
GENIUS_GENOREF_13
 70
     0
  0
APPID
  5
85B1
330
9
100
AcDbSymbolTableRecord
100
AcDbRegAppTableRecord
  2
ACADM_2DVIEW_IGN_NOTIFY
 70
     0
  0
APPID
  5
86D3
330
9
100
AcDbSymbolTableRecord
100
AcDbRegAppTableRecord
  2
GEVID1153440514
 70
     0
  0
APPID
  5
86FB
330
9
100
AcDbSymbolTableRecord
100
AcDbRegAppTableRecord
  2
GEVID1153440515
 70
     0
  0
APPID
  5
877C
330
9
100
AcDbSymbolTableRecord
100
AcDbRegAppTableRecord
  2
GEVID1153440516
 70
     0
  0
APPID
  5
8A1B
330
9
100
AcDbSymbolTableRecord
100
AcDbRegAppTableRecord
  2
GENIUS_GENDTOL_13
 70
     0
  0
APPID
  5
8BA0
330
9
100
AcDbSymbolTableRecord
100
AcDbRegAppTableRecord
  2
ACAD_PSEXT
 70
     0
  0
APPID
  5
8ED9
330
9
100
AcDbSymbolTableRecord
100
AcDbRegAppTableRecord
  2
ACAD_MLEADERVER
 70
     0
  0
APPID
  5
8FEB
330
9
100
AcDbSymbolTableRecord
100
AcDbRegAppTableRecord
  2
ACAUTHENVIRON
 70
     0
  0
APPID
  5
9011
330
9
100
AcDbSymbolTableRecord
100
AcDbRegAppTableRecord
  2
ACAD_EXEMPT_FROM_CAD_STANDARDS
 70
     0
  0
APPID
  5
9017
330
9
100
AcDbSymbolTableRecord
100
AcDbRegAppTableRecord
  2
AcDbDynamicBlockTrueName
 70
     0
  0
APPID
  5
9018
330
9
100
AcDbSymbolTableRecord
100
AcDbRegAppTableRecord
  2
AcDbDynamicBlockGUID
 70
     0
  0
APPID
  5
901A
330
9
100
AcDbSymbolTableRecord
100
AcDbRegAppTableRecord
  2
ACDBBLOCKREPETAG
 70
     0
  0
APPID
  5
96ED
330
9
100
AcDbSymbolTableRecord
100
AcDbRegAppTableRecord
  2
ACAD_DSTYLE_DIMJAG
 70
     0
  0
APPID
  5
96EE
330
9
100
AcDbSymbolTableRecord
100
AcDbRegAppTableRecord
  2
ACAD_DSTYLE_DIMTALN
 70
     0
  0
APPID
  5
9A29
330
9
100
AcDbSymbolTableRecord
100
AcDbRegAppTableRecord
  2
ACAD_DSTYLE_DIMINSPECT
 70
     0
  0
APPID
  5
9D00
330
9
100
AcDbSymbolTableRecord
100
AcDbRegAppTableRecord
  2
ACAD_DSTYLE_DIMRADIAL_EXTENSION
 70
     0
  0
APPID
  5
A234
330
9
100
AcDbSymbolTableRecord
100
AcDbRegAppTableRecord
  2
AcadAnnoPO
 70
     0
  0
APPID
  5
AF14
330
9
100
AcDbSymbolTableRecord
100
AcDbRegAppTableRecord
  2
GENIUS_GENOBJ-N-HTC_13
 70
     0
  0
APPID
  5
AF15
330
9
100
AcDbSymbolTableRecord
100
AcDbRegAppTableRecord
  2
GENIUS_GENHATCH_13
 70
     0
  0
APPID
  5
B24F
330
9
100
AcDbSymbolTableRecord
100
AcDbRegAppTableRecord
  2
GEVID1302483527
 70
     0
  0
APPID
  5
B252
330
9
100
AcDbSymbolTableRecord
100
AcDbRegAppTableRecord
  2
GENIUS_GENBH_13
 70
     0
  0
APPID
  5
B254
330
9
100
AcDbSymbolTableRecord
100
AcDbRegAppTableRecord
  2
GENIUS_GENOBJ-NBEHI-BHF_13
 70
     0
  0
APPID
  5
B256
330
9
100
AcDbSymbolTableRecord
100
AcDbRegAppTableRecord
  2
GENIUS_GENOBJ-NBEHI-BHB_13
 70
     0
  0
APPID
  5
BB68
330
9
100
AcDbSymbolTableRecord
100
AcDbRegAppTableRecord
  2
ACAD_NAV_VCDISPLAY
 70
     0
  0
APPID
  5
BBE9
330
9
100
AcDbSymbolTableRecord
100
AcDbRegAppTableRecord
  2
GENIUS_GENTRA_14
 70
     0
  0
APPID
  5
C8B7
330
9
100
AcDbSymbolTableRecord
100
AcDbRegAppTableRecord
  2
GENIUS_GENBLLY_14
 70
     0
  0
APPID
  5
C8B8
330
9
100
AcDbSymbolTableRecord
100
AcDbRegAppTableRecord
  2
GENIUS_GENOBJ-N-TIT_13
 70
     0
  0
APPID
  5
C8B9
330
9
100
AcDbSymbolTableRecord
100
AcDbRegAppTableRecord
  2
GENIUS_GENTITLE_13
 70
     0
  0
APPID
  5
C8BA
330
9
100
AcDbSymbolTableRecord
100
AcDbRegAppTableRecord
  2
GENIUS_GENSCREG_15
 70
     0
  0
APPID
  5
C8BB
330
9
100
AcDbSymbolTableRecord
100
AcDbRegAppTableRecord
  2
GENIUS_GENOBJ-N-SDF_13
 70
     0
  0
APPID
  5
D97A
330
9
100
AcDbSymbolTableRecord
100
AcDbRegAppTableRecord
  2
GENIUS_GENFIL_13
 70
     0
  0
APPID
  5
D97B
330
9
100
AcDbSymbolTableRecord
100
AcDbRegAppTableRecord
  2
GENIUS_GENOBJ-N-CHA_13
 70
     0
  0
APPID
  5
E5BF
330
9
100
AcDbSymbolTableRecord
100
AcDbRegAppTableRecord
  2
ACAD_DSTYLE_DIMBREAK
 70
     0
  0
APPID
  5
E5C0
330
9
100
AcDbSymbolTableRecord
100
AcDbRegAppTableRecord
  2
GradientColor1ACI
 70
     0
  0
APPID
  5
E5C1
330
9
100
AcDbSymbolTableRecord
100
AcDbRegAppTableRecord
  2
GradientColor2ACI
 70
     0
  0
APPID
  5
F05E
330
9
100
AcDbSymbolTableRecord
100
AcDbRegAppTableRecord
  2
DCO15
 70
     0
  0
ENDTAB
  0
TABLE
  2
DIMSTYLE
  5
A
330
0
100
AcDbSymbolTable
 70
    18
100
AcDbDimStyleTable
 71
     3
340
853C
340
8558
340
117
  0
DIMSTYLE
105
117
330
A
100
AcDbSymbolTableRecord
100
AcDbDimStyleTableRecord
  2
STANDARD
 70
     0
340
10
  0
DIMSTYLE
105
853C
102
{ACAD_REACTORS
330
EDDB
330
EFAE
102
}
330
A
100
AcDbSymbolTableRecord
100
AcDbDimStyleTableRecord
  2
AM_ISO
 70
     0
 41
2.5
 42
0.0
 43
10.0
 44
2.0
 48
0.000000001
 73
     0
 74
     0
 77
     1
 78
     8
140
3.5
141
-2.0
146
0.75
147
1.5
172
     1
176
     3
177
     3
178
     2
271
     2
272
     2
284
     8
285
     8
340
10
341
9EA
342
9EA
371
    -1
372
    -1
1001
ACAD_DSTYLE_DIMJOGGED_JOGANGLE_SYMBOL
1070
   384
1040
0.7853981633974483
1001
ACAD_DSTYLE_DIMJAG
1070
   388
1040
1.5
1001
ACAD_DSTYLE_DIMTALN
1070
   392
1070
     0
  0
DIMSTYLE
105
8545
330
A
100
AcDbSymbolTableRecord
100
AcDbDimStyleTableRecord
  2
AM_ISO$3
 70
     0
 41
2.5
 42
0.0
 43
10.0
 44
2.0
 48
0.000000001
 73
     0
 77
     1
 78
     8
140
3.5
141
-2.0
146
0.75
147
1.5
172
     1
176
     3
177
     3
178
     2
271
     2
272
     2
284
     8
285
     8
289
     2
340
10
341
9EA
342
9EA
371
    -1
372
    -1
1001
ACAD_DSTYLE_DIMJOGGED_JOGANGLE_SYMBOL
1070
   384
1040
0.7853981633974483
1001
ACAD_DSTYLE_DIMJAG
1070
   388
1040
1.5
1001
ACAD_DSTYLE_DIMTALN
1070
   392
1070
     0
  0
DIMSTYLE
105
8548
330
A
100
AcDbSymbolTableRecord
100
AcDbDimStyleTableRecord
  2
AM_ISO$4
 70
     0
 41
2.5
 42
0.0
 43
10.0
 44
2.0
 48
0.000000001
 73
     0
 74
     0
 77
     1
 78
     8
140
3.5
141
-2.0
146
0.75
147
1.5
172
     1
176
     3
177
     3
178
     2
271
     2
272
     2
284
     8
285
     8
340
10
341
9EA
342
9EA
371
    -1
372
    -1
1001
ACAD_DSTYLE_DIMJOGGED_JOGANGLE_SYMBOL
1070
   384
1040
0.7853981633974483
1001
ACAD_DSTYLE_DIMJAG
1070
   388
1040
1.5
1001
ACAD_DSTYLE_DIMTALN
1070
   392
1070
     0
  0
DIMSTYLE
105
854B
330
A
100
AcDbSymbolTableRecord
100
AcDbDimStyleTableRecord
  2
AM_ISO$6
 70
     0
 41
2.5
 42
0.0
 43
10.0
 44
2.0
 48
0.000000001
 73
     0
 74
     0
 78
     8
140
3.5
141
-2.0
146
0.75
147
1.5
172
     1
176
     3
177
     3
178
     2
271
     2
272
     2
284
     8
285
     8
340
10
341
9EA
342
9EA
371
    -1
372
    -1
1001
ACAD_DSTYLE_DIMJOGGED_JOGANGLE_SYMBOL
1070
   384
1040
0.7853981633974483
  0
DIMSTYLE
105
854E
330
A
100
AcDbSymbolTableRecord
100
AcDbDimStyleTableRecord
  2
AM_ISO$7
 70
     0
 41
2.5
 42
0.0
 43
10.0
 44
2.0
 48
0.000000001
 73
     0
 74
     0
 77
     1
 78
     8
140
3.5
141
-2.0
146
0.75
147
1.5
172
     1
176
     3
177
     3
178
     2
271
     2
272
     2
284
     8
285
     8
340
10
341
9EA
342
9EA
371
    -1
372
    -1
1001
ACAD_DSTYLE_DIMJOGGED_JOGANGLE_SYMBOL
1070
   384
1040
0.7853981633974483
1001
ACAD_DSTYLE_DIMJAG
1070
   388
1040
1.5
1001
ACAD_DSTYLE_DIMTALN
1070
   392
1070
     0
  0
DIMSTYLE
105
8551
330
A
100
AcDbSymbolTableRecord
100
AcDbDimStyleTableRecord
  2
AM_ISO$SF
 70
     0
 41
2.5
 42
0.0
 43
10.0
 44
2.0
 48
0.000000001
 73
     0
 74
     0
 75
     1
 76
     1
 77
     1
 78
     8
140
3.5
141
-2.0
146
0.75
147
1.5
172
     1
176
     3
177
     3
178
     2
271
     2
272
     2
284
     8
285
     8
340
10
341
9EA
342
9EA
371
    -1
372
    -1
1001
ACAD_DSTYLE_DIMJOGGED_JOGANGLE_SYMBOL
1070
   384
1040
0.7853981633974483
1001
ACAD_DSTYLE_DIMJAG
1070
   388
1040
1.5
1001
ACAD_DSTYLE_DIMTALN
1070
   392
1070
     0
  0
DIMSTYLE
105
8558
330
A
100
AcDbSymbolTableRecord
100
AcDbDimStyleTableRecord
  2
AM_ISO$SH
 70
     0
 41
2.5
 42
0.0
 43
10.0
 44
2.0
 48
0.000000001
 73
     0
 74
     0
 75
     1
 76
     1
 77
     1
 78
     8
140
3.5
141
-2.0
144
2.0
146
0.75
147
1.5
172
     1
173
     1
176
     3
177
     3
178
     2
271
     2
272
     2
284
     8
285
     8
340
10
341
9EA
342
9EA
343
8552
371
    -1
372
    -1
1001
ACAD_DSTYLE_DIMJOGGED_JOGANGLE_SYMBOL
1070
   384
1040
0.7853981633974483
  0
ENDTAB
  0
TABLE
  2
BLOCK_RECORD
  5
1
330
0
100
AcDbSymbolTable
 70
   146
  0
BLOCK_RECORD
  5
18
102
{ACAD_XDICTIONARY
360
9045
102
}
330
1
100
AcDbSymbolTableRecord
100
AcDbBlockTableRecord
  2
*MODEL_SPACE
340
4B7
1001
ACDBBLOCKREPETAG
1070
     1
1071
        6
  0
BLOCK_RECORD
  5
15
330
1
100
AcDbSymbolTableRecord
100
AcDbBlockTableRecord
  2
*PAPER_SPACE
340
4B8
  0
BLOCK_RECORD
  5
9EA
330
1
100
AcDbSymbolTableRecord
100
AcDbBlockTableRecord
  2
_Open
340
0
102
{BLKREFS
331
EE09
331
EE0A
331
EFCA
331
EFCB
102
}
  0
BLOCK_RECORD
  5
8552
330
1
100
AcDbSymbolTableRecord
100
AcDbBlockTableRecord
  2
GENAXEH
340
0
  0
BLOCK_RECORD
  5
EDDC
330
1
100
AcDbSymbolTableRecord
100
AcDbBlockTableRecord
  2
*D142
340
0
  0
BLOCK_RECORD
  5
EEC1
102
{ACAD_XDICTIONARY
360
EEC2
102
}
330
1
100
AcDbSymbolTableRecord
100
AcDbBlockTableRecord
  2
A$C0CD70048
340
0
102
{BLKREFS
331
EFA3
102
}
  0
BLOCK_RECORD
  5
EFAF
330
1
100
AcDbSymbolTableRecord
100
AcDbBlockTableRecord
  2
*D144
340
0
  0
BLOCK_RECORD
  5
F04A
330
1
100
AcDbSymbolTableRecord
100
AcDbBlockTableRecord
  2
_ACMFILLED15
340
0
  0
ENDTAB
  0
ENDSEC
  0
SECTION
  2
BLOCKS
  0
BLOCK
  5
44
330
18
100
AcDbEntity
  8
0
100
AcDbBlockBegin
  2
*MODEL_SPACE
 70
     0
 10
0.0
 20
0.0
 30
0.0
  3
*MODEL_SPACE
  1

  0
ENDBLK
  5
45
330
18
100
AcDbEntity
  8
0
100
AcDbBlockEnd
  0
BLOCK
  5
42
330
15
100
AcDbEntity
 67
     1
  8
0
100
AcDbBlockBegin
  2
*PAPER_SPACE
 70
     0
 10
0.0
 20
0.0
 30
0.0
  3
*PAPER_SPACE
  1

  0
ENDBLK
  5
43
330
15
100
AcDbEntity
 67
     1
  8
0
100
AcDbBlockEnd
  0
BLOCK
  5
9EE
330
9EA
100
AcDbEntity
  8
0
100
AcDbBlockBegin
  2
_Open
 70
     0
 10
0.0
 20
0.0
 30
0.0
  3
_Open
  1

  0
LINE
  5
9EB
330
9EA
100
AcDbEntity
  8
0
  6
ByBlock
 62
     0
370
    -2
100
AcDbLine
 10
-1.0
 20
0.1666666666666666
 30
0.0
 11
0.0
 21
0.0
 31
0.0
  0
LINE
  5
9EC
330
9EA
100
AcDbEntity
  8
0
  6
ByBlock
 62
     0
370
    -2
100
AcDbLine
 10
-1.0
 20
-0.1666666666666666
 30
0.0
 11
0.0
 21
0.0
 31
0.0
  0
LINE
  5
9ED
330
9EA
100
AcDbEntity
  8
0
  6
ByBlock
 62
     0
370
    -2
100
AcDbLine
 10
0.0
 20
0.0
 30
0.0
 11
-1.0
 21
0.0
 31
0.0
  0
ENDBLK
  5
9EF
330
9EA
100
AcDbEntity
  8
0
100
AcDbBlockEnd
  0
BLOCK
  5
8554
330
8552
100
AcDbEntity
  8
0
100
AcDbBlockBegin
  2
GENAXEH
 70
     0
 10
0.0
 20
0.0
 30
0.0
  3
GENAXEH
  1

  0
LINE
  5
8553
330
8552
100
AcDbEntity
  8
0
100
AcDbLine
 10
-1.0
 20
0.0
 30
0.0
 11
1.0
 21
0.0
 31
0.0
  0
ENDBLK
  5
8555
330
8552
100
AcDbEntity
  8
0
100
AcDbBlockEnd
  0
BLOCK
  5
EDDD
330
EDDC
100
AcDbEntity
  8
0
100
AcDbBlockBegin
  2
*D142
 70
     1
 10
0.0
 20
0.0
 30
0.0
  3
*D142
  1

  0
LINE
  5
EE05
330
EDDC
100
AcDbEntity
  8
0
 62
     3
100
AcDbLine
 10
-22.80853526291946
 20
272.3678097911138
 30
0.0
 11
-1.244413983792433
 21
272.3678097911138
 31
0.0
  0
LINE
  5
EE06
330
EDDC
100
AcDbEntity
  8
0
 62
     3
100
AcDbLine
 10
-22.80853526291947
 20
282.3678097911138
 30
0.0
 11
-1.244413983792431
 21
282.3678097911138
 31
0.0
  0
LINE
  5
EE07
330
EDDC
100
AcDbEntity
  8
0
 62
     3
100
AcDbLine
 10
-3.244413983792433
 20
274.8678097911138
 30
0.0
 11
-3.244413983792431
 21
279.8678097911138
 31
0.0
  0
LINE
  5
EE08
330
EDDC
100
AcDbEntity
  8
0
 62
     3
100
AcDbLine
 10
-3.244413983792431
 20
282.3678097911138
 30
0.0
 11
-3.244413983792426
 21
302.5297631172683
 31
0.0
  0
INSERT
  5
EE09
330
EDDC
100
AcDbEntity
  8
0
 62
     3
100
AcDbBlockReference
  2
_Open
 10
-3.244413983792433
 20
272.3678097911138
 30
0.0
 41
2.5
 42
2.5
 43
2.5
 50
270.0
  0
INSERT
  5
EE0A
330
EDDC
100
AcDbEntity
  8
0
 62
     3
100
AcDbBlockReference
  2
_Open
 10
-3.244413983792431
 20
282.3678097911138
 30
0.0
 41
2.5
 42
2.5
 43
2.5
 50
90.0
  0
MTEXT
  5
EE0B
330
EDDC
100
AcDbEntity
  8
0
 62
     2
100
AcDbMText
 10
-6.494413983792476
 20
293.698786454191
 30
0.0
 40
3.5
 41
0.0
 71
     5
 72
     1
  1
\A1;%%c10下穴
 11
0.0000000000000001
 21
1.0
 31
0.0
 73
     1
 44
1.0
1001
ACAD
1000
MTEXTBEGIN
1070
    73
1070
     1
1070
    44
1040
1.0
1070
    74
1070
     0
1000
MTEXTEND
  0
POINT
  5
EE0C
330
EDDC
100
AcDbEntity
  8
DEFPOINTS
 62
     0
100
AcDbPoint
 10
-22.80853526291946
 20
272.3678097911138
 30
0.0
  0
POINT
  5
EE0D
330
EDDC
100
AcDbEntity
  8
DEFPOINTS
 62
     0
100
AcDbPoint
 10
-22.80853526291947
 20
282.3678097911138
 30
0.0
  0
POINT
  5
EE0E
330
EDDC
100
AcDbEntity
  8
DEFPOINTS
 62
     0
100
AcDbPoint
 10
-3.244413983792431
 20
282.3678097911138
 30
0.0
  0
ENDBLK
  5
EDDE
330
EDDC
100
AcDbEntity
  8
0
100
AcDbBlockEnd
  0
BLOCK
  5
EEC4
330
EEC1
100
AcDbEntity
  8
0
100
AcDbBlockBegin
  2
A$C0CD70048
 70
     0
 10
0.0
 20
0.0
 30
0.0
  3
A$C0CD70048
  1

  0
LINE
  5
EEC5
330
EEC1
100
AcDbEntity
  8
4A
100
AcDbLine
 10
0.0
 20
-10.96960999999999
 30
0.0
 11
0.0
 21
10.96960999999999
 31
0.0
  0
LINE
  5
EEC6
330
EEC1
100
AcDbEntity
  8
4A
100
AcDbLine
 10
-0.0000150000000758
 20
10.9696110000001
 30
0.0
 11
8.0
 21
10.9696110000001
 31
0.0
  0
LINE
  5
EEC7
330
EEC1
100
AcDbEntity
  8
4A
100
AcDbLine
 10
-0.0000150000000758
 20
5.484885000000076
 30
0.0
 11
8.0
 21
5.484885000000076
 31
0.0
  0
LINE
  5
EEC8
330
EEC1
100
AcDbEntity
  8
4A
100
AcDbLine
 10
-0.0000150000000758
 20
-5.484777999999892
 30
0.0
 11
8.0
 21
-5.484777999999892
 31
0.0
  0
LINE
  5
EEC9
330
EEC1
100
AcDbEntity
  8
4A
100
AcDbLine
 10
-0.0000150000000758
 20
-10.96961099999998
 30
0.0
 11
8.0
 21
-10.96961099999998
 31
0.0
  0
LINE
  5
EECA
330
EEC1
100
AcDbEntity
  8
4A
100
AcDbLine
 10
8.0
 20
6.250022000000058
 30
0.0
 11
24.34001200000011
 21
6.250022000000058
 31
0.0
  0
LINE
  5
EECB
330
EEC1
100
AcDbEntity
  8
4A
100
AcDbLine
 10
8.0
 20
-6.249975999999946
 30
0.0
 11
24.34001200000011
 21
-6.249975999999946
 31
0.0
  0
LINE
  5
EECC
330
EEC1
100
AcDbEntity
  8
4A
100
AcDbLine
 10
8.000015000000075
 20
10.96962700000006
 30
0.0
 11
8.000015000000075
 21
-10.96957999999995
 31
0.0
  0
ENDBLK
  5
EECD
330
EEC1
100
AcDbEntity
  8
0
100
AcDbBlockEnd
  0
BLOCK
  5
EFB0
330
EFAF
100
AcDbEntity
  8
0
100
AcDbBlockBegin
  2
*D144
 70
     1
 10
0.0
 20
0.0
 30
0.0
  3
*D144
  1

  0
LINE
  5
EFC6
330
EFAF
100
AcDbEntity
  8
0
 62
     3
100
AcDbLine
 10
-197.8085158103957
 20
269.8678086444754
 30
0.0
 11
-219.7518144753178
 21
269.8678086444754
 31
0.0
  0
LINE
  5
EFC7
330
EFAF
100
AcDbEntity
  8
0
 62
     3
100
AcDbLine
 10
-197.8085158103957
 20
284.8678086444754
 30
0.0
 11
-219.7518144753178
 21
284.8678086444754
 31
0.0
  0
LINE
  5
EFC8
330
EFAF
100
AcDbEntity
  8
0
 62
     3
100
AcDbLine
 10
-217.7518144753178
 20
272.3678086444754
 30
0.0
 11
-217.7518144753178
 21
282.3678086444754
 31
0.0
  0
LINE
  5
EFC9
330
EFAF
100
AcDbEntity
  8
0
 62
     3
100
AcDbLine
 10
-217.7518144753178
 20
284.8678086444754
 30
0.0
 11
-217.7518144753178
 21
305.0297619706298
 31
0.0
  0
INSERT
  5
EFCA
330
EFAF
100
AcDbEntity
  8
0
 62
     3
100
AcDbBlockReference
  2
_Open
 10
-217.7518144753178
 20
269.8678086444754
 30
0.0
 41
2.5
 42
2.5
 43
2.5
 50
270.0
  0
INSERT
  5
EFCB
330
EFAF
100
AcDbEntity
  8
0
 62
     3
100
AcDbBlockReference
  2
_Open
 10
-217.7518144753178
 20
284.8678086444754
 30
0.0
 41
2.5
 42
2.5
 43
2.5
 50
90.0
  0
MTEXT
  5
EFCC
330
EFAF
100
AcDbEntity
  8
0
 62
     2
100
AcDbMText
 10
-221.0018144753179
 20
296.1987853075525
 30
0.0
 40
3.5
 41
0.0
 71
     5
 72
     1
  1
\A1;%%c15下穴
 11
0.0000000000000001
 21
1.0
 31
0.0
 73
     1
 44
1.0
1001
ACAD
1000
MTEXTBEGIN
1070
    73
1070
     1
1070
    44
1040
1.0
1070
    74
1070
     0
1000
MTEXTEND
  0
POINT
  5
EFCD
330
EFAF
100
AcDbEntity
  8
DEFPOINTS
 62
     0
100
AcDbPoint
 10
-197.8085158103957
 20
269.8678086444754
 30
0.0
  0
POINT
  5
EFCE
330
EFAF
100
AcDbEntity
  8
DEFPOINTS
 62
     0
100
AcDbPoint
 10
-197.8085158103957
 20
284.8678086444754
 30
0.0
  0
POINT
  5
EFCF
330
EFAF
100
AcDbEntity
  8
DEFPOINTS
 62
     0
100
AcDbPoint
 10
-217.7518144753178
 20
284.8678086444754
 30
0.0
  0
ENDBLK
  5
EFB1
330
EFAF
100
AcDbEntity
  8
0
100
AcDbBlockEnd
  0
BLOCK
  5
F04B
330
F04A
100
AcDbEntity
  8
0
100
AcDbBlockBegin
  2
_ACMFILLED15
 70
     0
 10
0.0
 20
0.0
 30
0.0
  3
_ACMFILLED15
  1

  0
TRACE
  5
F04D
330
F04A
100
AcDbEntity
  8
0
 62
     0
100
AcDbTrace
 10
-1.0
 20
-0.131652497
 30
0.0
 11
-1.0
 21
0.131652497
 31
0.0
 12
0.0
 22
0.0
 32
0.0
 13
0.0
 23
0.0
 33
0.0
  0
ENDBLK
  5
F04C
330
F04A
100
AcDbEntity
  8
0
100
AcDbBlockEnd
  0
ENDSEC
  0
SECTION
  2
ENTITIES
  0
MTEXT
  5
9040
330
18
100
AcDbEntity
  8
0
 62
     2
100
AcDbMText
 10
725.8302334741317
 20
462.3337694669714
 30
0.0
 40
3.5
 41
6.771099999999999
 71
     1
 72
     1
  1

 73
     1
 44
1.0
1001
ACDBBLOCKREPETAG
1070
     1
1071
        0
1005
9040
1001
ACAD
1000
MTEXTBEGIN
1070
    73
1070
     1
1070
    44
1040
1.0
1070
    74
1070
     0
1000
MTEXTEND
  0
MTEXT
  5
9041
330
18
100
AcDbEntity
  8
0
 62
     2
100
AcDbMText
 10
644.22800264287
 20
458.8337694669714
 30
0.0
 40
3.5
 41
19.1536
 71
     9
 72
     1
  1

 73
     1
 44
1.0
1001
ACDBBLOCKREPETAG
1070
     1
1071
        1
1005
9041
1001
ACAD
1000
MTEXTBEGIN
1070
    73
1070
     1
1070
    44
1040
1.0
1070
    74
1070
     0
1000
MTEXTEND
  0
MTEXT
  5
9042
330
18
100
AcDbEntity
  8
0
100
AcDbMText
 10
91.50728563183724
 20
133.5907727525446
 30
0.0
 40
3.5
 41
62.45709999999999
 71
     1
 72
     5
  1

 73
     1
 44
1.0
1001
ACDBBLOCKREPETAG
1070
     1
1071
        2
1005
9042
1001
ACAD
1000
MTEXTBEGIN
1070
    73
1070
     1
1070
    44
1040
1.0
1070
    74
1070
     0
1000
MTEXTEND
  0
MTEXT
  5
9043
330
18
100
AcDbEntity
  8
0
 62
     2
100
AcDbMText
 10
220.4913533957434
 20
158.6405205428185
 30
0.0
 40
3.5
 41
131.3072
 71
     7
 72
     1
  1

 73
     1
 44
1.0
1001
ACDBBLOCKREPETAG
1070
     1
1071
        3
1005
9043
1001
ACAD
1000
MTEXTBEGIN
1070
    73
1070
     1
1070
    44
1040
1.0
1070
    74
1070
     0
1000
MTEXTEND
  0
MTEXT
  5
A856
330
18
100
AcDbEntity
  8
0
 62
     2
100
AcDbMText
 10
180.0469659806923
 20
146.8667252221584
 30
0.0
 40
3.5
 41
131.3072382375658
 71
     7
 72
     1
  1
\A1;
 73
     1
 44
1.0
1001
ACAD
1000
MTEXTBEGIN
1070
    73
1070
     1
1070
    44
1040
1.0
1070
    74
1070
     0
1000
MTEXTEND
  0
MTEXT
  5
E33A
330
18
100
AcDbEntity
  8
0
 62
     2
100
AcDbMText
 10
725.8302334741317
 20
462.3337694669714
 30
0.0
 40
3.5
 41
6.771099999999999
 71
     1
 72
     1
  1

 73
     1
 44
1.0
1001
ACDBBLOCKREPETAG
1070
     1
1071
        0
1005
E33A
1001
ACAD
1000
MTEXTBEGIN
1070
    73
1070
     1
1070
    44
1040
1.0
1070
    74
1070
     0
1000
MTEXTEND
  0
MTEXT
  5
E33B
330
18
100
AcDbEntity
  8
0
 62
     2
100
AcDbMText
 10
644.22800264287
 20
458.8337694669714
 30
0.0
 40
3.5
 41
19.1536
 71
     9
 72
     1
  1

 73
     1
 44
1.0
1001
ACDBBLOCKREPETAG
1070
     1
1071
        1
1005
E33B
1001
ACAD
1000
MTEXTBEGIN
1070
    73
1070
     1
1070
    44
1040
1.0
1070
    74
1070
     0
1000
MTEXTEND
  0
MTEXT
  5
E33C
330
18
100
AcDbEntity
  8
0
100
AcDbMText
 10
91.50728563183724
 20
133.5907727525446
 30
0.0
 40
3.5
 41
62.45709999999999
 71
     1
 72
     5
  1

 73
     1
 44
1.0
1001
ACDBBLOCKREPETAG
1070
     1
1071
        2
1005
E33C
1001
ACAD
1000
MTEXTBEGIN
1070
    73
1070
     1
1070
    44
1040
1.0
1070
    74
1070
     0
1000
MTEXTEND
  0
MTEXT
  5
E33D
330
18
100
AcDbEntity
  8
0
 62
     2
100
AcDbMText
 10
220.4913533957434
 20
158.6405205428185
 30
0.0
 40
3.5
 41
131.3072
 71
     7
 72
     1
  1

 73
     1
 44
1.0
1001
ACDBBLOCKREPETAG
1070
     1
1071
        3
1005
E33D
1001
ACAD
1000
MTEXTBEGIN
1070
    73
1070
     1
1070
    44
1040
1.0
1070
    74
1070
     0
1000
MTEXTEND
  0
MTEXT
  5
E33E
330
18
100
AcDbEntity
  8
0
 62
     2
100
AcDbMText
 10
180.0469659806923
 20
146.8667252221584
 30
0.0
 40
3.5
 41
131.3072382375658
 71
     7
 72
     1
  1
\A1;
 73
     1
 44
1.0
1001
ACAD
1000
MTEXTBEGIN
1070
    73
1070
     1
1070
    44
1040
1.0
1070
    74
1070
     0
1000
MTEXTEND
  0
TEXT
  5
E33F
330
18
100
AcDbEntity
  8
SUNPOU
100
AcDbText
 10
-447.8768037888425
 20
111.9360511193997
 30
0.0
 40
3.5
  1

  7
BIGFONT
100
AcDbText
  0
TEXT
  5
E340
330
18
100
AcDbEntity
  8
SUNPOU
100
AcDbText
 10
-305.7850241439334
 20
139.331155584361
 30
0.0
 40
3.5
  1

  7
BIGFONT
100
AcDbText
  0
TEXT
  5
E341
330
18
100
AcDbEntity
  8
SUNPOU
  6
Continuous
 48
3.0
100
AcDbText
 10
-164.3935397559994
 20
55.94719848308205
 30
0.0
 40
3.5
  1

 50
359.7804362230555
 41
0.6085702442471829
  7
BIGFONT
 72
     5
 11
-149.4836782488184
 21
55.8900619617043
 31
0.0
100
AcDbText
  0
TEXT
  5
E359
330
18
100
AcDbEntity
  8
SUNPOU
  6
Continuous
 48
3.0
100
AcDbText
 10
-420.7937038691653
 20
655.3014619987245
 30
0.0
 40
3.5
  1

 50
359.7804362230555
 41
0.6085702442471829
  7
BIGFONT
 72
     5
 11
-405.8838423619844
 21
655.2443254773468
 31
0.0
100
AcDbText
  0
TEXT
  5
E35A
330
18
100
AcDbEntity
  8
SUNPOU
100
AcDbText
 10
-562.1851882570992
 20
738.6854191000034
 30
0.0
 40
3.5
  1

  7
BIGFONT
100
AcDbText
  0
TEXT
  5
E35B
330
18
100
AcDbEntity
  8
SUNPOU
100
AcDbText
 10
-704.2769679020084
 20
711.2903146350422
 30
0.0
 40
3.5
  1

  7
BIGFONT
100
AcDbText
  0
LINE
  5
E873
330
18
100
AcDbEntity
  8
0
100
AcDbLine
 10
-22.80853526291946
 20
299.367810791114
 30
0.0
 11
-22.80853526291946
 21
255.3678107911138
 31
0.0
  0
LINE
  5
E87B
330
18
100
AcDbEntity
  8
0
100
AcDbLine
 10
-90.8385392629192
 20
219.8678067911138
 30
0.0
 11
-74.30854026291934
 21
219.8678067911138
 31
0.0
  0
LINE
  5
E87D
330
18
100
AcDbEntity
  8
4A
100
AcDbLine
 10
-77.30854026291933
 20
205.8678107911138
 30
0.0
 11
-77.30854026291933
 21
215.8678067911138
 31
0.0
  0
LINE
  5
E87E
330
18
100
AcDbEntity
  8
4A
100
AcDbLine
 10
-77.7415529648116
 20
208.2678102473458
 30
0.0
 11
-77.7415529648116
 21
215.8678067911138
 31
0.0
  0
LINE
  5
E87F
330
18
100
AcDbEntity
  8
4A
100
AcDbLine
 10
-81.87552756102709
 20
208.267810247345
 30
0.0
 11
-81.87552756102713
 21
215.8678067911138
 31
0.0
  0
LINE
  5
E880
330
18
100
AcDbEntity
  8
4A
100
AcDbLine
 10
-82.30854026291934
 20
205.8678107911138
 30
0.0
 11
-82.30854026291934
 21
215.8678067911138
 31
0.0
  0
LINE
  5
E881
330
18
100
AcDbEntity
  8
7A
100
AcDbLine
 10
-79.80854026291929
 20
201.3678107911137
 30
0.0
 11
-79.80854026291932
 21
220.8678067911137
 31
0.0
  0
ARC
  5
E882
330
18
100
AcDbEntity
  8
4A
100
AcDbCircle
 10
-77.80854026291888
 20
204.8678107911151
 30
0.0
 40
2.500000000000591
100
AcDbArc
 50
216.8698976458492
 51
323.1301023541299
  0
LINE
  5
E883
330
18
100
AcDbEntity
  8
4A
100
AcDbLine
 10
-81.80854026291957
 20
202.3678107911137
 30
0.0
 11
-77.80854026291888
 21
202.3678107911138
 31
0.0
  0
LINE
  5
E884
330
18
100
AcDbEntity
  8
4A
100
AcDbLine
 10
-79.80854026291933
 20
203.3678107911145
 30
0.0
 11
-79.80854026291933
 21
205.8678107911138
 31
0.0
  0
LINE
  5
E886
330
18
100
AcDbEntity
  8
4A
100
AcDbLine
 10
-75.80854026291934
 20
203.3678107911138
 30
0.0
 11
-75.80854026291934
 21
205.8678107911138
 31
0.0
  0
LINE
  5
E887
330
18
100
AcDbEntity
  8
4A
100
AcDbLine
 10
-83.80854026291933
 20
203.3678107911138
 30
0.0
 11
-83.80854026291933
 21
205.8678107911138
 31
0.0
  0
LINE
  5
E888
330
18
100
AcDbEntity
  8
4A
100
AcDbLine
 10
-83.80854026291933
 20
205.8678107911138
 30
0.0
 11
-75.80854026291934
 21
205.8678107911138
 31
0.0
  0
ARC
  5
E889
330
18
100
AcDbEntity
  8
4A
100
AcDbCircle
 10
-81.80854026291957
 20
204.8678107911151
 30
0.0
 40
2.500000000000591
100
AcDbArc
 50
216.8698976458701
 51
323.1301023541498
  0
LINE
  5
E890
330
18
100
AcDbEntity
  8
0
100
AcDbLine
 10
-109.8085402629193
 20
239.8678077911138
 30
0.0
 11
-104.8085402629193
 21
239.8678077911138
 31
0.0
  0
LINE
  5
E897
330
18
100
AcDbEntity
  8
0
100
AcDbLine
 10
-117.3085402629193
 20
242.8678107911138
 30
0.0
 11
-117.3085402629193
 21
254.8678137911138
 31
0.0
  0
LINE
  5
E898
330
18
100
AcDbEntity
  8
0
100
AcDbLine
 10
-117.3085402629193
 20
242.8678107911138
 30
0.0
 11
-110.3085402629193
 21
242.8678107911138
 31
0.0
  0
LINE
  5
E89A
330
18
100
AcDbEntity
  8
0
100
AcDbLine
 10
-109.8085402629193
 20
239.8678077911138
 30
0.0
 11
-110.3085402629193
 21
240.3678077911138
 31
0.0
  0
LINE
  5
E89B
330
18
100
AcDbEntity
  8
0
100
AcDbLine
 10
-110.3085402629193
 20
240.3678077911138
 30
0.0
 11
-110.3085402629193
 21
242.8678107911138
 31
0.0
  0
LINE
  5
E89F
330
18
100
AcDbEntity
  8
0
100
AcDbLine
 10
-117.3085402629193
 20
254.8678137911138
 30
0.0
 11
-117.8085402629193
 21
255.3678167911138
 31
0.0
  0
LINE
  5
E8AC
330
18
100
AcDbEntity
  8
0
100
AcDbLine
 10
-104.8085402629193
 20
227.3678077911138
 30
0.0
 11
-104.8085402629193
 21
232.3678107911138
 31
0.0
  0
LINE
  5
E8AD
330
18
100
AcDbEntity
  8
0
100
AcDbLine
 10
-104.8085402629193
 20
234.8673267911138
 30
0.0
 11
-104.8085402629193
 21
239.8678077911138
 31
0.0
  0
LINE
  5
E8B6
330
18
100
AcDbEntity
  8
0
100
AcDbLine
 10
-90.8385392629192
 20
219.8678067911138
 30
0.0
 11
-95.8385392629192
 21
224.8678067911138
 31
0.0
  0
LINE
  5
E8B7
330
18
100
AcDbEntity
  8
0
100
AcDbLine
 10
-104.8085402629193
 20
227.3678077911138
 30
0.0
 11
-96.30854026291935
 21
227.3678077911138
 31
0.0
  0
LINE
  5
E8B8
330
18
100
AcDbEntity
  8
0
100
AcDbLine
 10
-96.30854026291935
 20
228.8678077911138
 30
0.0
 11
-95.83853926291919
 21
228.8678077911138
 31
0.0
  0
LINE
  5
E8B9
330
18
100
AcDbEntity
  8
0
100
AcDbLine
 10
-96.30854026291935
 20
227.3678077911138
 30
0.0
 11
-96.30854026291935
 21
228.8678077911138
 31
0.0
  0
LINE
  5
E8BA
330
18
100
AcDbEntity
  8
0
100
AcDbLine
 10
-95.8385392629192
 20
224.8678067911138
 30
0.0
 11
-95.8385392629192
 21
228.8678077911138
 31
0.0
  0
LINE
  5
E8F8
330
18
100
AcDbEntity
  8
0
100
AcDbLine
 10
-71.80854026291934
 20
219.8678077911138
 30
0.0
 11
-39.30854226292138
 21
219.8678077911138
 31
0.0
  0
LINE
  5
E8FE
330
18
100
AcDbEntity
  8
0
100
AcDbLine
 10
-73.80854026291934
 20
220.3678027911458
 30
0.0
 11
-73.80854026291934
 21
222.5678127911138
 31
0.0
  0
LINE
  5
E8FF
330
18
100
AcDbEntity
  8
7A
100
AcDbLine
 10
-45.80854026291933
 20
218.8678077911138
 30
0.0
 11
-45.80854026291933
 21
232.8678077911139
 31
0.0
  0
LINE
  5
E902
330
18
100
AcDbEntity
  8
0
100
AcDbLine
 10
-71.80854026291934
 20
219.8678067911138
 30
0.0
 11
-71.80854026291934
 21
222.5678127911138
 31
0.0
  0
LINE
  5
E903
330
18
100
AcDbEntity
  8
0
100
AcDbLine
 10
-74.30854026291934
 20
219.8678067911138
 30
0.0
 11
-73.80853626291934
 21
220.3678067911138
 31
0.0
  0
LINE
  5
E906
330
18
100
AcDbEntity
  8
0
100
AcDbLine
 10
-73.80854026291934
 20
222.5678127911138
 30
0.0
 11
-71.80854026291934
 21
222.5678127911138
 31
0.0
  0
LINE
  5
E935
330
18
100
AcDbEntity
  8
0
100
AcDbLine
 10
-39.30854626291932
 20
219.8678037911138
 30
0.0
 11
-37.30854026291934
 21
221.8678107911138
 31
0.0
  0
LINE
  5
E936
330
18
100
AcDbEntity
  8
0
100
AcDbLine
 10
-37.30854026291934
 20
222.8678077911138
 30
0.0
 11
-33.80854026291934
 21
222.8678077911138
 31
0.0
  0
LINE
  5
E938
330
18
100
AcDbEntity
  8
0
100
AcDbLine
 10
-37.30854026291934
 20
221.8678067911138
 30
0.0
 11
-37.30854026291935
 21
222.8678077911138
 31
0.0
  0
LINE
  5
E939
330
18
100
AcDbEntity
  8
0
100
AcDbLine
 10
-33.80853426291935
 20
222.8678147911138
 30
0.0
 11
-32.80853526291946
 21
223.8678127911138
 31
0.0
  0
LINE
  5
E93A
330
18
100
AcDbEntity
  8
0
100
AcDbLine
 10
-32.80854026291934
 20
254.8678137911139
 30
0.0
 11
-23.30854026291934
 21
254.8678137911138
 31
0.0
  0
LINE
  5
E93C
330
18
100
AcDbEntity
  8
0
100
AcDbLine
 10
-32.80854026291923
 20
233.9889245911138
 30
0.0
 11
-32.80854026291934
 21
254.8678137911138
 31
0.0
  0
LINE
  5
E940
330
18
100
AcDbEntity
  8
0
100
AcDbLine
 10
-32.80853526291946
 20
223.8678127911138
 30
0.0
 11
-32.80854026291934
 21
242.1178067911136
 31
0.0
  0
LINE
  5
E94A
330
18
100
AcDbEntity
  8
0
100
AcDbLine
 10
-23.30853526291946
 20
254.8678107911138
 30
0.0
 11
-22.80853526291946
 21
255.3678107911138
 31
0.0
  0
LINE
  5
E94B
330
18
100
AcDbEntity
  8
0
100
AcDbLine
 10
-23.30854226291933
 20
254.8678097911138
 30
0.0
 11
-22.80854126291922
 21
255.3678097911138
 31
0.0
  0
LINE
  5
E94C
330
18
100
AcDbEntity
  8
7A
100
AcDbLine
 10
-45.80854026291933
 20
353.8678147911138
 30
0.0
 11
-45.80854026291929
 21
333.8678147911138
 31
0.0
  0
LINE
  5
E94D
330
18
100
AcDbEntity
  8
0
100
AcDbLine
 10
-50.80854026291934
 20
350.8678147911138
 30
0.0
 11
-52.64128226291939
 21
343.8682877911138
 31
0.0
  0
LINE
  5
E94E
330
18
100
AcDbEntity
  8
0
100
AcDbLine
 10
-40.80854226291933
 20
350.8678147911138
 30
0.0
 11
-38.97579626291929
 21
343.8682807911139
 31
0.0
  0
LINE
  5
E94F
330
18
100
AcDbEntity
  8
7A
100
AcDbLine
 10
-199.8085158103957
 20
277.3678107911138
 30
0.0
 11
-19.80853526291946
 21
277.3678107911138
 31
0.0
  0
LINE
  5
E952
330
18
100
AcDbEntity
  8
0
100
AcDbLine
 10
-90.8385392629192
 20
334.8678147911138
 30
0.0
 11
-74.30854026291934
 21
334.8678147911138
 31
0.0
  0
LINE
  5
E95C
330
18
100
AcDbEntity
  8
0
100
AcDbLine
 10
-117.3085402629193
 20
311.8678107911138
 30
0.0
 11
-117.3085402629193
 21
299.8677997911777
 31
0.0
  0
LINE
  5
E965
330
18
100
AcDbEntity
  8
0
100
AcDbLine
 10
-117.8085402629193
 20
299.3678077911138
 30
0.0
 11
-117.8085402629193
 21
277.3678107911138
 31
0.0
  0
LINE
  5
E966
330
18
100
AcDbEntity
  8
0
100
AcDbLine
 10
-117.8085402629193
 20
277.3678107911138
 30
0.0
 11
-117.8085402629193
 21
255.3678167911138
 31
0.0
  0
LINE
  5
E969
330
18
100
AcDbEntity
  8
0
100
AcDbLine
 10
-117.3085322629193
 20
299.8678077911138
 30
0.0
 11
-117.8085402629193
 21
299.3678037911138
 31
0.0
  0
LINE
  5
E988
330
18
100
AcDbEntity
  8
0
100
AcDbLine
 10
-109.8085402629193
 20
314.8678107911138
 30
0.0
 11
-104.8085402629193
 21
314.8678107911138
 31
0.0
  0
LINE
  5
E989
330
18
100
AcDbEntity
  8
0
100
AcDbLine
 10
-109.8085402629193
 20
314.8678107911138
 30
0.0
 11
-110.3085402629193
 21
314.3678107911138
 31
0.0
  0
LINE
  5
E98A
330
18
100
AcDbEntity
  8
0
100
AcDbLine
 10
-117.3085402629193
 20
311.8678107911138
 30
0.0
 11
-110.3085402629193
 21
311.8678107911138
 31
0.0
  0
LINE
  5
E994
330
18
100
AcDbEntity
  8
0
100
AcDbLine
 10
-110.3085402629193
 20
314.3678107911138
 30
0.0
 11
-110.3085402629193
 21
311.8678107911138
 31
0.0
  0
LINE
  5
E995
330
18
100
AcDbEntity
  8
0
100
AcDbLine
 10
-96.30854026291935
 20
327.3678147911138
 30
0.0
 11
-96.30854026291935
 21
325.8678147911138
 31
0.0
  0
LINE
  5
E996
330
18
100
AcDbEntity
  8
0
100
AcDbLine
 10
-95.8385392629192
 20
329.8678147911138
 30
0.0
 11
-95.8385392629192
 21
325.8678147911139
 31
0.0
  0
LINE
  5
E997
330
18
100
AcDbEntity
  8
0
100
AcDbLine
 10
-104.8085402629193
 20
327.3678147911138
 30
0.0
 11
-104.8085402629193
 21
314.8678107911138
 31
0.0
  0
LINE
  5
E999
330
18
100
AcDbEntity
  8
7A
100
AcDbLine
 10
-79.80854026291933
 20
344.3678147911138
 30
0.0
 11
-79.80854026291932
 21
333.8678147911138
 31
0.0
  0
LINE
  5
E9B6
330
18
100
AcDbEntity
  8
0
100
AcDbLine
 10
-96.30854026291935
 20
325.8678147911138
 30
0.0
 11
-95.8385392629192
 21
325.8678147911138
 31
0.0
  0
LINE
  5
E9D5
330
18
100
AcDbEntity
  8
0
100
AcDbLine
 10
-90.8385392629192
 20
334.8678147911138
 30
0.0
 11
-95.8385392629192
 21
329.8678147911138
 31
0.0
  0
LINE
  5
E9D6
330
18
100
AcDbEntity
  8
0
100
AcDbLine
 10
-104.8085402629193
 20
327.3678147911138
 30
0.0
 11
-96.30854026291935
 21
327.3678147911138
 31
0.0
  0
ARC
  5
E9D7
330
18
100
AcDbEntity
  8
0
100
AcDbCircle
 10
-79.80853976291917
 20
333.9761280017258
 30
0.0
 40
3.864732789388028
100
AcDbArc
 50
58.97344805891919
 51
121.026551941088
  0
LINE
  5
E9D8
330
18
100
AcDbEntity
  8
0
100
AcDbLine
 10
-76.30482463407895
 20
337.5631578079628
 30
0.0
 11
-78.10031526291925
 21
340.5325637911138
 31
0.0
  0
ARC
  5
E9D9
330
18
100
AcDbEntity
  8
0
100
AcDbCircle
 10
-76.9671892629193
 20
336.9120881820911
 30
0.0
 40
0.9287726090230423
100
AcDbArc
 50
23.86999038998715
 51
156.130009610034
  0
LINE
  5
E9DA
330
18
100
AcDbEntity
  8
0
100
AcDbLine
 10
-83.31222495796589
 20
337.5631892769122
 30
0.0
 11
-81.51675426291911
 21
340.5325637911138
 31
0.0
  0
ARC
  5
E9DB
330
18
100
AcDbEntity
  8
0
100
AcDbCircle
 10
-82.64989126291936
 20
336.9120881820911
 30
0.0
 40
0.9287726090230423
100
AcDbArc
 50
23.86999038996235
 51
156.1300096100128
  0
ARC
  5
E9E0
330
18
100
AcDbEntity
  8
0
100
AcDbCircle
 10
-79.80853976291917
 20
338.7325475805019
 30
0.0
 40
3.864732789388028
100
AcDbArc
 50
238.9734480589119
 51
301.0265519410808
  0
ARC
  5
E9E5
330
18
100
AcDbEntity
  8
0
100
AcDbCircle
 10
-76.9671892629193
 20
335.7965874001366
 30
0.0
 40
0.9287726090230423
100
AcDbArc
 50
203.869990389966
 51
336.1300096100092
  0
ARC
  5
E9EA
330
18
100
AcDbEntity
  8
0
100
AcDbCircle
 10
-82.64989126291936
 20
335.7965874001366
 30
0.0
 40
0.9287726090230423
100
AcDbArc
 50
203.8699903899872
 51
336.130009610034
  0
LINE
  5
E9EB
330
18
100
AcDbEntity
  8
0
100
AcDbLine
 10
-77.81652026291919
 20
337.2879277911138
 30
0.0
 11
-77.81652026291919
 21
335.4207477911139
 31
0.0
  0
LINE
  5
E9EC
330
18
100
AcDbEntity
  8
0
100
AcDbLine
 10
-76.11785826291918
 20
337.3243117911138
 30
0.0
 11
-76.11785826291918
 21
335.4658067911138
 31
0.0
  0
LINE
  5
E9ED
330
18
100
AcDbEntity
  8
0
100
AcDbLine
 10
-83.49922126291938
 20
337.3243117911138
 30
0.0
 11
-83.49922126291938
 21
335.4658067911138
 31
0.0
  0
LINE
  5
E9EE
330
18
100
AcDbEntity
  8
0
100
AcDbLine
 10
-81.80055926291913
 20
337.2879277911138
 30
0.0
 11
-81.80055926291913
 21
335.4207477911139
 31
0.0
  0
LINE
  5
E9EF
330
18
100
AcDbEntity
  8
0
100
AcDbLine
 10
-82.05734226291918
 20
341.6111007911138
 30
0.0
 11
-77.55973826291927
 21
341.6111007911138
 31
0.0
  0
LINE
  5
E9F0
330
18
100
AcDbEntity
  8
0
100
AcDbLine
 10
-80.81682526291922
 20
340.8678147911138
 30
0.0
 11
-78.88842726291921
 21
340.8678147911138
 31
0.0
  0
LINE
  5
E9F1
330
18
100
AcDbEntity
  8
0
100
AcDbLine
 10
-78.14575126291936
 20
342.8678147911138
 30
0.0
 11
-79.80854026291933
 21
342.8678147911138
 31
0.0
  0
ARC
  5
E9F2
330
18
100
AcDbEntity
  8
0
100
AcDbCircle
 10
-79.80853976291917
 20
338.7325475805019
 30
0.0
 40
3.864732789388028
100
AcDbArc
 50
58.97344805891919
 51
121.026551941088
  0
ARC
  5
E9F3
330
18
100
AcDbEntity
  8
0
100
AcDbCircle
 10
-79.80854026291933
 20
342.8678147911138
 30
0.0
 40
0.5
100
AcDbArc
 50
0.0
 51
179.9999849999985
  0
ARC
  5
E9F4
330
18
100
AcDbEntity
  8
0
100
AcDbCircle
 10
-81.94462526291919
 20
340.7912767911138
 30
0.0
 40
0.5
100
AcDbArc
 50
328.8401779999984
 51
44.99999600000208
  0
LINE
  5
E9F5
330
18
100
AcDbEntity
  8
0
100
AcDbLine
 10
-81.59107226291927
 20
341.1448387911138
 30
0.0
 11
-82.05734226291918
 21
341.6111087911138
 31
0.0
  0
LINE
  5
E9F6
330
18
100
AcDbEntity
  8
0
100
AcDbLine
 10
-82.05733826291918
 20
341.6111007911138
 30
0.0
 11
-81.47132826291921
 21
342.8678077911138
 31
0.0
  0
LINE
  5
E9F7
330
18
100
AcDbEntity
  8
0
100
AcDbLine
 10
-81.47132826291921
 20
342.8678147911138
 30
0.0
 11
-79.80854026291933
 21
342.8678147911138
 31
0.0
  0
ARC
  5
E9F8
330
18
100
AcDbEntity
  8
0
100
AcDbCircle
 10
-77.67245426291935
 20
340.7912767911138
 30
0.0
 40
0.5
100
AcDbArc
 50
134.9999850000006
 51
211.1597959999986
  0
LINE
  5
E9F9
330
18
100
AcDbEntity
  8
0
100
AcDbLine
 10
-78.02600826291916
 20
341.1448307911138
 30
0.0
 11
-77.55973426291927
 21
341.6111007911138
 31
0.0
  0
LINE
  5
E9FA
330
18
100
AcDbEntity
  8
0
100
AcDbLine
 10
-77.55973426291927
 20
341.6111007911138
 30
0.0
 11
-78.14574426291926
 21
342.8678077911138
 31
0.0
  0
LINE
  5
EA01
330
18
100
AcDbEntity
  8
0
100
AcDbLine
 10
-37.30854026291934
 20
332.8678147911138
 30
0.0
 11
-37.30854026291934
 21
331.8678147911138
 31
0.0
  0
LINE
  5
EA02
330
18
100
AcDbEntity
  8
0
100
AcDbLine
 10
-32.80854026291934
 20
330.8678147911138
 30
0.0
 11
-32.80854026291934
 21
299.8678077911137
 31
0.0
  0
LINE
  5
EA05
330
18
100
AcDbEntity
  8
0
100
AcDbLine
 10
-32.80854026291934
 20
299.8678077911137
 30
0.0
 11
-23.30854026291934
 21
299.8678077911138
 31
0.0
  0
LINE
  5
EA08
330
18
100
AcDbEntity
  8
0
100
AcDbLine
 10
-23.30853526291924
 20
299.8678107911138
 30
0.0
 11
-22.80853526291924
 21
299.3678107911138
 31
0.0
  0
LINE
  5
EA09
330
18
100
AcDbEntity
  8
0
100
AcDbLine
 10
-71.80854026291934
 20
334.8678147911138
 30
0.0
 11
-36.80854026291934
 21
334.8678147911138
 31
0.0
  0
ARC
  5
EA0D
330
18
100
AcDbEntity
  8
0
100
AcDbCircle
 10
-45.80839059911466
 20
334.0603297824256
 30
0.0
 40
9.807485009829798
100
AcDbArc
 50
61.03280962162926
 51
118.9691891304697
  0
LINE
  5
EA0E
330
18
100
AcDbEntity
  8
0
100
AcDbLine
 10
-52.64128426291915
 20
343.8678147911138
 30
0.0
 11
-38.97579526291918
 21
343.8678147911138
 31
0.0
  0
LINE
  5
EA10
330
18
100
AcDbEntity
  8
0
100
AcDbLine
 10
-73.80854026291934
 20
334.3678147911139
 30
0.0
 11
-73.80854026291934
 21
332.1678087911138
 31
0.0
  0
LINE
  5
EA2A
330
18
100
AcDbEntity
  8
0
100
AcDbLine
 10
-73.80854026291934
 20
332.1678087911138
 30
0.0
 11
-71.80854026291934
 21
332.1678087911138
 31
0.0
  0
LINE
  5
EA2B
330
18
100
AcDbEntity
  8
0
100
AcDbLine
 10
-74.30854026291934
 20
334.8678147911138
 30
0.0
 11
-73.80854026291934
 21
334.3678147911138
 31
0.0
  0
LINE
  5
EA2C
330
18
100
AcDbEntity
  8
0
100
AcDbLine
 10
-71.80854026291934
 20
334.8678147911138
 30
0.0
 11
-71.80854026291934
 21
332.1678087911138
 31
0.0
  0
LINE
  5
EA32
330
18
100
AcDbEntity
  8
0
100
AcDbLine
 10
-54.80854026291933
 20
342.6408707911138
 30
0.0
 11
-54.80854026291933
 21
334.8678147911138
 31
0.0
  0
LINE
  5
EA33
330
18
100
AcDbEntity
  8
0
100
AcDbLine
 10
-50.55854026291934
 20
342.6413897911138
 30
0.0
 11
-50.55854026291934
 21
334.8678147911138
 31
0.0
  0
ARC
  5
EA37
330
18
100
AcDbEntity
  8
0
100
AcDbCircle
 10
-52.68339059911466
 20
341.4155596337382
 30
0.0
 40
2.453089587837814
100
AcDbArc
 50
29.98072822778782
 51
150.0332654236789
  0
LINE
  5
EA40
330
18
100
AcDbEntity
  8
0
100
AcDbLine
 10
-41.05854026291933
 20
342.6408707911138
 30
0.0
 11
-41.05854026291933
 21
334.8678147911138
 31
0.0
  0
LINE
  5
EA41
330
18
100
AcDbEntity
  8
0
100
AcDbLine
 10
-36.80854026291934
 20
342.6413897911128
 30
0.0
 11
-36.80854026291934
 21
334.8678147911138
 31
0.0
  0
LINE
  5
EA42
330
18
100
AcDbEntity
  8
0
100
AcDbLine
 10
-37.30854026291934
 20
331.8678147911138
 30
0.0
 11
-33.80854026291934
 21
331.8678147911138
 31
0.0
  0
LINE
  5
EA44
330
18
100
AcDbEntity
  8
0
100
AcDbLine
 10
-39.30854126291922
 20
334.8678147911138
 30
0.0
 11
-37.30854126291922
 21
332.8678147911138
 31
0.0
  0
LINE
  5
EA46
330
18
100
AcDbEntity
  8
0
100
AcDbLine
 10
-33.80853526291924
 20
331.8678077911138
 30
0.0
 11
-32.80853726291923
 21
330.8678077911138
 31
0.0
  0
ARC
  5
EA47
330
18
100
AcDbEntity
  8
0
100
AcDbCircle
 10
-38.93339059911466
 20
341.4155596337382
 30
0.0
 40
2.453089587837814
100
AcDbArc
 50
29.98072822778782
 51
150.0332654236789
  0
LINE
  5
EA48
330
18
100
AcDbEntity
  8
0
100
AcDbLine
 10
-52.30854026291933
 20
352.8678147911138
 30
0.0
 11
-39.30854026291934
 21
352.8678147911138
 31
0.0
  0
LINE
  5
EA49
330
18
100
AcDbEntity
  8
0
100
AcDbLine
 10
-52.30854026291933
 20
351.8678147911138
 30
0.0
 11
-39.30854026291934
 21
351.8678147911138
 31
0.0
  0
LINE
  5
EA4A
330
18
100
AcDbEntity
  8
0
100
AcDbLine
 10
-50.80854026291934
 20
350.8678147911138
 30
0.0
 11
-40.80854026291933
 21
350.8678147911138
 31
0.0
  0
LINE
  5
EA4B
330
18
100
AcDbEntity
  8
0
100
AcDbLine
 10
-52.30854026291933
 20
352.8678147911138
 30
0.0
 11
-52.30854026291933
 21
351.8678147911138
 31
0.0
  0
LINE
  5
EA4C
330
18
100
AcDbEntity
  8
0
100
AcDbLine
 10
-50.80854026291934
 20
351.8678147911138
 30
0.0
 11
-50.80854026291934
 21
350.8678147911138
 31
0.0
  0
LINE
  5
EA4D
330
18
100
AcDbEntity
  8
0
100
AcDbLine
 10
-39.30854026291934
 20
352.8678147911138
 30
0.0
 11
-39.30854026291934
 21
351.8678147911138
 31
0.0
  0
LINE
  5
EA4E
330
18
100
AcDbEntity
  8
0
100
AcDbLine
 10
-40.80854026291933
 20
351.8678147911138
 30
0.0
 11
-40.80854026291933
 21
350.8678147911138
 31
0.0
  0
LINE
  5
EA51
330
18
100
AcDbEntity
  8
0
100
AcDbLine
 10
-104.8085402629193
 20
235.3673277911138
 30
0.0
 11
-104.8085402629193
 21
239.8673267911138
 31
0.0
  0
LINE
  5
EA52
330
18
100
AcDbEntity
  8
0
100
AcDbLine
 10
-104.8085402629194
 20
232.3678107911138
 30
0.0
 11
-104.8085402629193
 21
239.8673267911138
 31
0.0
  0
LINE
  5
EA6F
330
18
100
AcDbEntity
  8
4A
100
AcDbLine
 10
-117.8085402629193
 20
295.6678107911137
 30
0.0
 11
-22.80853526291946
 21
295.6678107911137
 31
0.0
  0
LINE
  5
EA70
330
18
100
AcDbEntity
  8
4A
100
AcDbLine
 10
-117.8085402629193
 20
291.8246430859147
 30
0.0
 11
-22.80853526291946
 21
291.8246430859147
 31
0.0
  0
LINE
  5
EA71
330
18
100
AcDbEntity
  8
4A
100
AcDbLine
 10
-117.8085402629193
 20
262.3678107911137
 30
0.0
 11
-22.80853526291946
 21
262.3678107911137
 31
0.0
  0
ARC
  5
EA7A
330
18
100
AcDbEntity
  8
0
100
AcDbCircle
 10
88.86758094725564
 20
277.3678107911138
 30
0.0
 40
22.5
100
AcDbArc
 50
22.49999800000148
 51
22.49995000000299
  0
LINE
  5
EA7B
330
18
100
AcDbEntity
  8
7A
100
AcDbLine
 10
88.86758094725564
 20
355.8678037911138
 30
0.0
 11
88.86758094725564
 21
216.8678107911138
 31
0.0
  0
ARC
  5
EA7C
330
18
100
AcDbEntity
  8
0
100
AcDbCircle
 10
88.86758094725564
 20
277.3678097911138
 30
0.0
 40
34.0
100
AcDbArc
 50
179.9999983148275
 51
359.9999700000002
  0
LINE
  5
EA80
330
18
100
AcDbEntity
  8
7A
100
AcDbLine
 10
57.40132928162568
 20
245.901558931141
 30
0.0
 11
47.14828082316205
 21
235.6485107351948
 31
0.0
  0
ARC
  5
EA8D
330
18
100
AcDbEntity
  8
0
100
AcDbCircle
 10
88.86758094725564
 20
277.3678097911138
 30
0.0
 40
34.0
100
AcDbArc
 50
0.0
 51
179.9999983148275
  0
LINE
  5
EA8E
330
18
100
AcDbEntity
  8
7A
100
AcDbLine
 10
149.3675809472556
 20
277.3678107911138
 30
0.0
 11
12.3675809472557
 21
277.3678107911136
 31
0.0
  0
LINE
  5
EA8F
330
18
100
AcDbEntity
  8
0
100
AcDbLine
 10
93.86758094725564
 20
350.8678037911138
 30
0.0
 11
96.0698289472557
 21
342.4570677911138
 31
0.0
  0
LINE
  5
EA90
330
18
100
AcDbEntity
  8
0
100
AcDbLine
 10
83.86758094725564
 20
350.8678037911138
 30
0.0
 11
81.66758394725571
 21
342.4656737911138
 31
0.0
  0
LINE
  5
EA91
330
18
100
AcDbEntity
  8
7A
100
AcDbLine
 10
43.86758606247906
 20
274.3458347400644
 30
0.0
 11
43.86758656418433
 21
280.3458347400643
 31
0.0
  0
LINE
  5
EA92
330
18
100
AcDbEntity
  8
7A
100
AcDbLine
 10
46.86758358707812
 20
293.8678175052816
 30
0.0
 11
40.86758358707823
 21
293.8678168452508
 31
0.0
  0
ARC
  5
EA9B
330
18
100
AcDbEntity
  8
0
100
AcDbCircle
 10
85.26496503065208
 20
338.5679691984903
 30
0.0
 40
5.304078784344754
100
AcDbArc
 50
47.21758023897806
 51
132.7054205790796
  0
LINE
  5
EA9C
330
18
100
AcDbEntity
  8
0
100
AcDbLine
 10
81.66758394725571
 20
342.4656737911138
 30
0.0
 11
81.66758394725571
 21
334.4152427911138
 31
0.0
  0
LINE
  5
EA9D
330
18
100
AcDbEntity
  8
0
100
AcDbLine
 10
88.86758094725564
 20
342.4608357911138
 30
0.0
 11
88.86758094725564
 21
334.8678107911138
 31
0.0
  0
LINE
  5
EA9E
330
18
100
AcDbEntity
  8
0
100
AcDbLine
 10
96.0675859472558
 20
342.4656737911138
 30
0.0
 11
96.0675859472558
 21
334.4152427911138
 31
0.0
  0
LINE
  5
EA9F
330
18
100
AcDbEntity
  8
0
100
AcDbLine
 10
85.47710894725559
 20
343.8678037911138
 30
0.0
 11
92.25806094725568
 21
343.8678037911138
 31
0.0
  0
ARC
  5
EAA0
330
18
100
AcDbEntity
  8
0
100
AcDbCircle
 10
92.47020086824523
 20
338.5679583425851
 30
0.0
 40
5.304089471754803
100
AcDbArc
 50
47.29462723803472
 51
132.7823718583529
  0
LINE
  5
EAA1
330
18
100
AcDbEntity
  8
0
100
AcDbLine
 10
82.36758094725564
 20
351.8678037911138
 30
0.0
 11
95.36758094725565
 21
351.8678037911138
 31
0.0
  0
LINE
  5
EAA2
330
18
100
AcDbEntity
  8
0
100
AcDbLine
 10
82.36758094725564
 20
352.8678037911138
 30
0.0
 11
95.36758094725565
 21
352.8678037911138
 31
0.0
  0
LINE
  5
EAA3
330
18
100
AcDbEntity
  8
0
100
AcDbLine
 10
82.36758094725564
 20
352.8678037911138
 30
0.0
 11
82.36758094725564
 21
351.8678037911138
 31
0.0
  0
LINE
  5
EAA4
330
18
100
AcDbEntity
  8
0
100
AcDbLine
 10
83.86758094725564
 20
350.8678037911138
 30
0.0
 11
93.86758094725564
 21
350.8678037911138
 31
0.0
  0
LINE
  5
EAA5
330
18
100
AcDbEntity
  8
0
100
AcDbLine
 10
83.86758094725587
 20
351.8678037911138
 30
0.0
 11
83.86758094725587
 21
350.8678037911138
 31
0.0
  0
LINE
  5
EAA6
330
18
100
AcDbEntity
  8
0
100
AcDbLine
 10
93.86758094725564
 20
351.8678037911138
 30
0.0
 11
93.86758094725564
 21
350.8678037911138
 31
0.0
  0
LINE
  5
EAA7
330
18
100
AcDbEntity
  8
0
100
AcDbLine
 10
95.36758094725565
 20
352.8678037911138
 30
0.0
 11
95.36758094725565
 21
351.8678037911138
 31
0.0
  0
LINE
  5
EAB1
330
18
100
AcDbEntity
  8
7A
100
AcDbLine
 10
120.3338326128856
 20
245.9015589311411
 30
0.0
 11
130.5868810713492
 21
235.6485107351948
 31
0.0
  0
LINE
  5
EAB3
330
18
100
AcDbEntity
  8
0
100
AcDbLine
 10
88.86758494725564
 20
343.8678037911138
 30
0.0
 11
88.86758494725564
 21
350.8678037911138
 31
0.0
  0
CIRCLE
  5
EAC1
330
18
100
AcDbEntity
  8
0
100
AcDbCircle
 10
88.86758094725564
 20
277.3678097911138
 30
0.0
 40
55.0
  0
CIRCLE
  5
EAC2
330
18
100
AcDbEntity
  8
0
100
AcDbCircle
 10
88.86758094725564
 20
277.3678097911138
 30
0.0
 40
57.5
  0
CIRCLE
  5
EAC3
330
18
100
AcDbEntity
  8
0
100
AcDbCircle
 10
43.86758631333174
 20
277.3458347400644
 30
0.0
 40
1.62111379999996
  0
CIRCLE
  5
EAC4
330
18
100
AcDbEntity
  8
5
100
AcDbCircle
 10
43.86758631333174
 20
277.3458347400644
 30
0.0
 40
1.999999999999971
  0
CIRCLE
  5
EAC5
330
18
100
AcDbEntity
  8
0
100
AcDbCircle
 10
43.86758358707817
 20
293.8678171752662
 30
0.0
 40
1.62111379999996
  0
CIRCLE
  5
EAC6
330
18
100
AcDbEntity
  8
5
100
AcDbCircle
 10
43.86758358707817
 20
293.8678171752662
 30
0.0
 40
1.999999999999971
  0
LINE
  5
EAF1
330
18
100
AcDbEntity
  8
0
100
AcDbLine
 10
31.37185012050031
 20
280.6678087911133
 30
0.0
 11
31.36905087918461
 21
274.0669894722395
 31
0.0
  0
LINE
  5
EAF3
330
18
100
AcDbEntity
  8
4A
100
AcDbLine
 10
-77.30854026291931
 20
208.2678107911137
 30
0.0
 11
-82.30854026291931
 21
208.2678107911137
 31
0.0
1001
GENIUS_GENOREF_13
1005
0
  0
LINE
  5
EAF4
330
18
100
AcDbEntity
  8
4A
100
AcDbLine
 10
-77.74155306291934
 20
208.2678107911137
 30
0.0
 11
-77.30854026291931
 21
205.8678107911137
 31
0.0
1001
GENIUS_GENOREF_13
1005
0
  0
LINE
  5
EAF5
330
18
100
AcDbEntity
  8
4A
100
AcDbLine
 10
-81.87552746291927
 20
208.2678107911137
 30
0.0
 11
-82.30854026291931
 21
205.8678107911137
 31
0.0
1001
GENIUS_GENOREF_13
1005
0
  0
ARC
  5
EAF6
330
18
100
AcDbEntity
  8
4A
100
AcDbCircle
 10
88.86758094725564
 20
277.3678107911137
 30
0.0
 40
15.0
100
AcDbArc
 50
105.4660099534196
 51
74.53399004657867
  0
LINE
  5
EAF7
330
18
100
AcDbEntity
  8
4A
100
AcDbLine
 10
84.86758094725564
 20
295.6678107911137
 30
0.0
 11
92.86758094725565
 21
295.6678107911137
 31
0.0
  0
LINE
  5
EAF8
330
18
100
AcDbEntity
  8
4A
100
AcDbLine
 10
92.86758094725565
 20
295.6678107911137
 30
0.0
 11
92.86758094725565
 21
291.8246430859147
 31
0.0
  0
LINE
  5
EAF9
330
18
100
AcDbEntity
  8
4A
100
AcDbLine
 10
84.86758094725564
 20
295.6678107911137
 30
0.0
 11
84.86758094725576
 21
291.8246430859147
 31
0.0
  0
LINE
  5
ED21
330
18
100
AcDbEntity
  8
7A
100
AcDbLine
 10
43.86758813477053
 20
290.8678171752714
 30
0.0
 11
43.86758863647583
 21
296.8678171752598
 31
0.0
  0
CIRCLE
  5
ED23
330
18
100
AcDbEntity
  8
0
100
AcDbCircle
 10
88.86758094725564
 20
277.3678097911138
 30
0.0
 40
5.0
  0
LINE
  5
ED26
330
18
100
AcDbEntity
  8
0
100
AcDbLine
 10
-22.80853526291946
 20
282.3678097911138
 30
0.0
 11
-117.8085402629193
 21
282.3678097911137
 31
0.0
  0
LINE
  5
ED27
330
18
100
AcDbEntity
  8
0
100
AcDbLine
 10
-22.80853526291946
 20
272.3678097911138
 30
0.0
 11
-117.8085402629193
 21
272.3678097911138
 31
0.0
  0
MTEXT
  5
ED62
330
18
100
AcDbEntity
  8
0
100
AcDbMText
 10
-382.0775596475985
 20
433.0750554500916
 30
0.0
 40
14.0
 41
0.0
 71
     1
 72
     5
  1
TSUBAKI\PSHOCK GUARD\PTGK30-5
 73
     1
 44
1.0
1001
ACAD
1000
MTEXTBEGIN
1070
    73
1070
     1
1070
    44
1040
1.0
1070
    74
1070
     0
1000
MTEXTEND
  0
LINE
  5
ED6D
330
18
100
AcDbEntity
  8
0
100
AcDbLine
 10
19.76758094725562
 20
274.8678107911135
 30
0.0
 11
27.36750149464388
 21
274.8678107911135
 31
0.0
1001
GENIUS_GENOREF_13
1005
0
  0
LINE
  5
ED6E
330
18
100
AcDbEntity
  8
5
100
AcDbLine
 10
19.76758094725562
 20
275.3008235911135
 30
0.0
 11
27.36750149464382
 21
275.3008235911135
 31
0.0
1001
GENIUS_GENOREF_13
1005
0
  0
LINE
  5
ED6F
330
18
100
AcDbEntity
  8
5
100
AcDbLine
 10
19.76758094725562
 20
279.4347979911135
 30
0.0
 11
27.36750149464388
 21
279.4347979911135
 31
0.0
1001
GENIUS_GENOREF_13
1005
0
  0
LINE
  5
ED70
330
18
100
AcDbEntity
  8
0
100
AcDbLine
 10
19.76758094725562
 20
279.8678107911135
 30
0.0
 11
27.36750149464393
 21
279.8678107911135
 31
0.0
1001
GENIUS_GENOREF_13
1005
0
  0
ARC
  5
ED71
330
18
100
AcDbEntity
  8
0
100
AcDbCircle
 10
21.50397046950053
 20
277.3678107911135
 30
0.0
 40
7.636389522244867
100
AcDbArc
 50
162.3875260144752
 51
197.6124739855247
1001
GENIUS_GENOREF_13
1005
0
  0
LINE
  5
ED72
330
18
100
AcDbEntity
  8
0
100
AcDbLine
 10
17.36758094725565
 20
274.8678107911135
 30
0.0
 11
17.36758094725565
 21
279.8678107911135
 31
0.0
1001
GENIUS_GENOREF_13
1005
0
  0
LINE
  5
ED73
330
18
100
AcDbEntity
  8
0
100
AcDbLine
 10
17.36758094725565
 20
279.8678107911135
 30
0.0
 11
17.36758094725565
 21
274.8678107911135
 31
0.0
1001
GENIUS_GENOREF_13
1005
0
  0
LINE
  5
ED74
330
18
100
AcDbEntity
  8
0
100
AcDbLine
 10
13.86758094725564
 20
281.3678107911135
 30
0.0
 11
13.86758094725564
 21
273.3678107911135
 31
0.0
1001
GENIUS_GENOREF_13
1005
0
  0
LINE
  5
ED75
330
18
100
AcDbEntity
  8
0
100
AcDbLine
 10
14.22553811415321
 20
272.7478107911135
 30
0.0
 11
17.36758094725565
 21
272.7478107911135
 31
0.0
1001
GENIUS_GENOREF_13
1005
0
  0
LINE
  5
ED76
330
18
100
AcDbEntity
  8
0
100
AcDbLine
 10
14.22553811415321
 20
275.057211867872
 30
0.0
 11
17.36758094725565
 21
275.057211867872
 31
0.0
1001
GENIUS_GENOREF_13
1005
0
  0
ARC
  5
ED77
330
18
100
AcDbEntity
  8
0
100
AcDbCircle
 10
15.9089797538968
 20
273.9025113294928
 30
0.0
 40
2.04139880664113
100
AcDbArc
 50
145.5531276177362
 51
205.5531276177376
1001
GENIUS_GENOREF_13
1005
0
  0
LINE
  5
ED78
330
18
100
AcDbEntity
  8
0
100
AcDbLine
 10
14.22553811415321
 20
272.7478107911135
 30
0.0
 11
13.86758094725564
 21
273.3678107911135
 31
0.0
1001
GENIUS_GENOREF_13
1005
0
  0
LINE
  5
ED79
330
18
100
AcDbEntity
  8
0
100
AcDbLine
 10
17.36758094725565
 20
272.7478107911135
 30
0.0
 11
17.36758094725565
 21
274.8678107911135
 31
0.0
1001
GENIUS_GENOREF_13
1005
0
  0
LINE
  5
ED7A
330
18
100
AcDbEntity
  8
0
100
AcDbLine
 10
17.36758094725565
 20
279.8678107911135
 30
0.0
 11
17.36758094725565
 21
281.9878107911135
 31
0.0
1001
GENIUS_GENOREF_13
1005
0
  0
LINE
  5
ED7B
330
18
100
AcDbEntity
  8
0
100
AcDbLine
 10
14.22553811415321
 20
281.9878107911135
 30
0.0
 11
13.86758094725564
 21
281.3678107911135
 31
0.0
1001
GENIUS_GENOREF_13
1005
0
  0
LINE
  5
ED7C
330
18
100
AcDbEntity
  8
0
100
AcDbLine
 10
14.22553811415321
 20
279.678409714355
 30
0.0
 11
17.36758094725565
 21
279.678409714355
 31
0.0
1001
GENIUS_GENOREF_13
1005
0
  0
ARC
  5
ED7D
330
18
100
AcDbEntity
  8
0
100
AcDbCircle
 10
15.9089797538968
 20
280.8331102527343
 30
0.0
 40
2.04139880664113
100
AcDbArc
 50
154.4468723822624
 51
214.4468723822638
1001
GENIUS_GENOREF_13
1005
0
  0
LINE
  5
ED7E
330
18
100
AcDbEntity
  8
0
100
AcDbLine
 10
14.22553811415321
 20
281.9878107911135
 30
0.0
 11
17.36758094725565
 21
281.9878107911135
 31
0.0
1001
GENIUS_GENOREF_13
1005
0
  0
LINE
  5
ED7F
330
18
100
AcDbEntity
  8
0
100
AcDbLine
 10
19.76758094725562
 20
274.8678107911135
 30
0.0
 11
19.76758094725562
 21
279.8678107911135
 31
0.0
1001
GENIUS_GENOREF_13
1005
0
  0
LINE
  5
ED80
330
18
100
AcDbEntity
  8
5
100
AcDbLine
 10
19.76758094725562
 20
275.3008235911135
 30
0.0
 11
17.36758094725565
 21
274.8678107911135
 31
0.0
1001
GENIUS_GENOREF_13
1005
0
  0
LINE
  5
ED81
330
18
100
AcDbEntity
  8
0
100
AcDbLine
 10
19.76758094725562
 20
274.8678107911135
 30
0.0
 11
17.36758094725565
 21
274.8678107911135
 31
0.0
1001
GENIUS_GENOREF_13
1005
0
  0
LINE
  5
ED82
330
18
100
AcDbEntity
  8
5
100
AcDbLine
 10
19.76758094725562
 20
279.4347979911135
 30
0.0
 11
17.36758094725565
 21
279.8678107911135
 31
0.0
1001
GENIUS_GENOREF_13
1005
0
  0
LINE
  5
ED83
330
18
100
AcDbEntity
  8
0
100
AcDbLine
 10
19.76758094725562
 20
279.8678107911135
 30
0.0
 11
17.36758094725565
 21
279.8678107911135
 31
0.0
1001
GENIUS_GENOREF_13
1005
0
  0
ARC
  5
ED84
330
18
100
AcDbEntity
  8
0
100
AcDbCircle
 10
29.30150409285281
 20
274.0678102911132
 30
0.0
 40
1.935552156794072
100
AcDbArc
 50
137.8060229425883
 51
222.1939770573759
  0
ARC
  5
ED85
330
18
100
AcDbEntity
  8
0
100
AcDbCircle
 10
29.43349889643489
 20
274.0678102911132
 30
0.0
 40
1.935552156794072
100
AcDbArc
 50
317.8060229426241
 51
42.19397705741164
  0
ARC
  5
ED86
330
18
100
AcDbEntity
  8
0
100
AcDbCircle
 10
29.2907529818074
 20
280.6678087911133
 30
0.0
 40
1.927600113020037
100
AcDbArc
 50
137.5914000326139
 51
222.4085999673689
  0
ARC
  5
ED87
330
18
100
AcDbEntity
  8
0
100
AcDbCircle
 10
29.44425000748029
 20
280.6678087911133
 30
0.0
 40
1.927600113020037
100
AcDbArc
 50
317.5914000326311
 51
42.40859996738604
  0
LINE
  5
ED88
330
18
100
AcDbEntity
  8
0
100
AcDbLine
 10
27.86750149464385
 20
281.9678077911135
 30
0.0
 11
30.86750149464385
 21
281.9678077911135
 31
0.0
  0
ARC
  5
ED89
330
18
100
AcDbEntity
  8
0
100
AcDbCircle
 10
31.61682624842931
 20
277.3678097911141
 30
0.0
 40
4.249404206397255
100
AcDbArc
 50
151.9232285871757
 51
208.0767714128316
  0
ARC
  5
ED8A
330
18
100
AcDbEntity
  8
0
100
AcDbCircle
 10
27.11817674085839
 20
277.3678097911141
 30
0.0
 40
4.249404206397255
100
AcDbArc
 50
331.9232285871684
 51
28.07677141282423
  0
LINE
  5
ED8B
330
18
100
AcDbEntity
  8
0
100
AcDbLine
 10
27.86750149464385
 20
279.3678097911136
 30
0.0
 11
30.86750149464385
 21
279.3678097911136
 31
0.0
  0
LINE
  5
ED8C
330
18
100
AcDbEntity
  8
0
100
AcDbLine
 10
27.86750149464385
 20
275.3678097911136
 30
0.0
 11
30.86750149464385
 21
275.3678097911136
 31
0.0
  0
LINE
  5
ED8D
330
18
100
AcDbEntity
  8
0
100
AcDbLine
 10
27.36750149464385
 20
280.7972147911135
 30
0.0
 11
27.36750149464385
 21
273.9903757911136
 31
0.0
  0
LINE
  5
ED8E
330
18
100
AcDbEntity
  8
0
100
AcDbLine
 10
27.86750149464385
 20
272.7678107911136
 30
0.0
 11
30.86750149464385
 21
272.7678107911136
 31
0.0
  0
ARC
  5
ED8F
330
18
100
AcDbEntity
  8
4A
100
AcDbCircle
 10
-81.80854026291934
 20
221.6340460441396
 30
0.0
 40
5.766239253025759
100
AcDbArc
 50
249.7054451607692
 51
290.2945548392309
1001
GENIUS_GENOREF_13
1005
0
  0
ARC
  5
ED90
330
18
100
AcDbEntity
  8
4A
100
AcDbCircle
 10
-81.80854026291934
 20
214.101567538088
 30
0.0
 40
5.766239253025794
100
AcDbArc
 50
69.70544516076909
 51
110.2945548392309
1001
GENIUS_GENOREF_13
1005
0
  0
LINE
  5
ED91
330
18
100
AcDbEntity
  8
4A
100
AcDbLine
 10
-75.80854026291934
 20
215.8678067911138
 30
0.0
 11
-83.80854026291933
 21
215.8678067911138
 31
0.0
1001
GENIUS_GENOREF_13
1005
0
  0
LINE
  5
ED92
330
18
100
AcDbEntity
  8
4A
100
AcDbLine
 10
-83.80854026291933
 20
219.8678067911138
 30
0.0
 11
-75.80854026291934
 21
219.8678067911138
 31
0.0
1001
GENIUS_GENOREF_13
1005
0
  0
LINE
  5
ED93
330
18
100
AcDbEntity
  8
4A
100
AcDbLine
 10
-83.80854026291933
 20
219.8678067911138
 30
0.0
 11
-83.80854026291933
 21
215.8678067911138
 31
0.0
1001
GENIUS_GENOREF_13
1005
0
  0
LINE
  5
ED94
330
18
100
AcDbEntity
  8
4A
100
AcDbLine
 10
-79.80854026291933
 20
219.5098496242162
 30
0.0
 11
-79.80854026291933
 21
216.2257639580114
 31
0.0
1001
GENIUS_GENOREF_13
1005
0
  0
LINE
  5
ED95
330
18
100
AcDbEntity
  8
4A
100
AcDbLine
 10
-75.80854026291934
 20
219.8678067911138
 30
0.0
 11
-75.80854026291934
 21
215.8678067911138
 31
0.0
1001
GENIUS_GENOREF_13
1005
0
  0
ARC
  5
ED96
330
18
100
AcDbEntity
  8
4A
100
AcDbCircle
 10
-77.80854026291933
 20
214.101567538088
 30
0.0
 40
5.766239253025794
100
AcDbArc
 50
69.70544516076909
 51
110.2945548392309
1001
GENIUS_GENOREF_13
1005
0
  0
ARC
  5
ED97
330
18
100
AcDbEntity
  8
4A
100
AcDbCircle
 10
-77.80854026291933
 20
221.6340460441396
 30
0.0
 40
5.766239253025759
100
AcDbArc
 50
249.7054451607692
 51
290.2945548392309
1001
GENIUS_GENOREF_13
1005
0
  0
LINE
  5
EDA4
330
18
100
AcDbEntity
  8
3A
100
AcDbLine
 10
131.5921647258945
 20
238.8858677406119
 30
0.0
 11
123.1622598553119
 21
247.3157726111943
 31
0.0
1001
GENIUS_GENOREF_13
1005
0
  0
LINE
  5
EDA5
330
18
100
AcDbEntity
  8
3A
100
AcDbLine
 10
131.2276199309301
 20
238.4849469909565
 30
0.0
 11
122.779527083002
 21
246.9330398388845
 31
0.0
1001
GENIUS_GENOREF_13
1005
0
  0
LINE
  5
EDA6
330
18
100
AcDbEntity
  8
3A
100
AcDbLine
 10
127.3495240409182
 20
234.6432270513495
 30
0.0
 11
118.9196191681928
 21
243.073131924075
 31
0.0
1001
GENIUS_GENOREF_13
1005
0
  0
LINE
  5
EDA7
330
18
100
AcDbEntity
  8
3A
100
AcDbLine
 10
127.750444790186
 20
235.0077718467014
 30
0.0
 11
119.3023519405027
 21
243.455864696385
 31
0.0
1001
GENIUS_GENOREF_13
1005
0
  0
LINE
  5
EDAA
330
18
100
AcDbEntity
  8
3A
100
AcDbLine
 10
118.9196191681928
 20
243.073131924075
 30
0.0
 11
123.1622598553119
 21
247.3157726111943
 31
0.0
1001
GENIUS_GENOREF_13
1005
0
  0
LINE
  5
EDAE
330
18
100
AcDbEntity
  8
3A
100
AcDbLine
 10
46.14299716861679
 20
238.8858677406119
 30
0.0
 11
54.57290203919942
 21
247.3157726111943
 31
0.0
1001
GENIUS_GENOREF_13
1005
0
  0
LINE
  5
EDAF
330
18
100
AcDbEntity
  8
3A
100
AcDbLine
 10
46.50754196358114
 20
238.4849469909565
 30
0.0
 11
54.95563481150927
 21
246.9330398388845
 31
0.0
1001
GENIUS_GENOREF_13
1005
0
  0
LINE
  5
EDB0
330
18
100
AcDbEntity
  8
3A
100
AcDbLine
 10
50.38563785359309
 20
234.6432270513495
 30
0.0
 11
58.81554272631852
 21
243.073131924075
 31
0.0
1001
GENIUS_GENOREF_13
1005
0
  0
LINE
  5
EDB1
330
18
100
AcDbEntity
  8
3A
100
AcDbLine
 10
49.98471710432522
 20
235.0077718467014
 30
0.0
 11
58.43280995400869
 21
243.4558646963849
 31
0.0
1001
GENIUS_GENOREF_13
1005
0
  0
LINE
  5
EDB4
330
18
100
AcDbEntity
  8
3A
100
AcDbLine
 10
58.81554272631852
 20
243.073131924075
 30
0.0
 11
54.57290203919942
 21
247.3157726111943
 31
0.0
1001
GENIUS_GENOREF_13
1005
0
  0
LINE
  5
EDC2
330
18
100
AcDbEntity
  8
4A
100
AcDbLine
 10
-48.80854026291934
 20
219.8678077911138
 30
0.0
 11
-48.80854026291934
 21
231.867807791114
 31
0.0
1001
GENIUS_GENOREF_13
1005
0
  0
LINE
  5
EDC3
330
18
100
AcDbEntity
  8
4A
100
AcDbLine
 10
-48.26727438555406
 20
219.8678077911138
 30
0.0
 11
-48.26727438555406
 21
231.8678077911138
 31
0.0
1001
GENIUS_GENOREF_13
1005
0
  0
LINE
  5
EDC4
330
18
100
AcDbEntity
  8
4A
100
AcDbLine
 10
-42.80854026291933
 20
219.8678077911138
 30
0.0
 11
-42.80854026291945
 21
231.8678077911138
 31
0.0
1001
GENIUS_GENOREF_13
1005
0
  0
LINE
  5
EDC5
330
18
100
AcDbEntity
  8
4A
100
AcDbLine
 10
-43.34980614028461
 20
219.8678077911138
 30
0.0
 11
-43.34980614028469
 21
231.8678077911138
 31
0.0
1001
GENIUS_GENOREF_13
1005
0
  0
LINE
  5
EDC8
330
18
100
AcDbEntity
  8
4A
100
AcDbLine
 10
-42.80854026291945
 20
231.8678077911138
 30
0.0
 11
-48.80854026291934
 21
231.867807791114
 31
0.0
1001
GENIUS_GENOREF_13
1005
0
  0
DIMENSION
  5
EDDB
330
18
100
AcDbEntity
  8
0
100
AcDbDimension
  2
*D142
 10
-3.244413983792431
 20
282.3678097911138
 30
0.0
 11
-6.494413983792476
 21
293.698786454191
 31
0.0
 70
    32
  1
%%c<>下穴
 71
     5
 42
10.0
  3
AM_ISO
100
AcDbAlignedDimension
 13
-22.80853526291946
 23
272.3678097911138
 33
0.0
 14
-22.80853526291947
 24
282.3678097911138
 34
0.0
 50
90.0
100
AcDbRotatedDimension
1001
ACAD_DSTYLE_DIMINSPECT
1070
   396
1000
100%
1070
   395
1000

1070
   394
1070
    33
1070
   393
1070
     0
  0
LINE
  5
EF48
330
18
100
AcDbEntity
  8
0
  6
Continuous
100
AcDbLine
 10
-104.8085402629194
 20
348.8678257795066
 30
0.0
 11
-104.8085402629193
 21
314.8673352911136
 31
0.0
  0
LINE
  5
EF49
330
18
100
AcDbEntity
  8
0
  6
Continuous
100
AcDbLine
 10
-104.8085402629193
 20
205.8678103416098
 30
0.0
 11
-104.8085402629193
 21
239.8673354738068
 31
0.0
  0
LINE
  5
EF4A
330
18
100
AcDbEntity
  8
7A
100
AcDbLine
 10
-390.9823378671967
 20
277.3678086444753
 30
0.0
 11
-241.9823678671967
 21
277.3678086444754
 31
0.0
  0
LINE
  5
EF4B
330
18
100
AcDbEntity
  8
0
  6
Continuous
100
AcDbLine
 10
-138.3085128103956
 20
205.8678110190116
 30
0.0
 11
-138.3085128103956
 21
348.8678265844971
 31
0.0
  0
LINE
  5
EF4C
330
18
100
AcDbEntity
  8
7A
100
AcDbLine
 10
-316.4823528671968
 20
202.8678236444753
 30
0.0
 11
-316.4823528671965
 21
351.8677936444754
 31
0.0
  0
LINE
  5
EF4D
330
18
100
AcDbEntity
  8
0
100
AcDbLine
 10
-138.3085128103956
 20
348.8678265844971
 30
0.0
 11
-104.8085402629193
 21
348.8678257795066
 31
0.0
  0
LINE
  5
EF4E
330
18
100
AcDbEntity
  8
0
  6
Continuous
100
AcDbLine
 10
-118.8085402629194
 20
314.8673352911136
 30
0.0
 11
-104.8085402629193
 21
314.8673352911136
 31
0.0
  0
LINE
  5
EF4F
330
18
100
AcDbEntity
  8
0
  6
Continuous
100
AcDbLine
 10
-118.8085402629193
 20
239.8673356934781
 30
0.0
 11
-104.8085402629193
 21
239.8673354738068
 31
0.0
  0
LINE
  5
EF50
330
18
100
AcDbEntity
  8
0
  6
Continuous
100
AcDbLine
 10
-138.3085128103957
 20
205.8678110190115
 30
0.0
 11
-104.8085402629193
 21
205.8678103416098
 31
0.0
  0
LINE
  5
EF51
330
18
100
AcDbEntity
  8
0
100
AcDbLine
 10
-164.0085753336926
 20
235.3678257911135
 30
0.0
 11
-164.0085783977247
 21
205.867786877134
 31
0.0
  0
LINE
  5
EF52
330
18
100
AcDbEntity
  8
0
100
AcDbLine
 10
-141.9085528103958
 20
209.3927919947905
 30
0.0
 11
-146.4085218103958
 21
209.3927936665005
 31
0.0
  0
LINE
  5
EF53
330
18
100
AcDbEntity
  8
0
100
AcDbLine
 10
-138.3085128103956
 20
232.9677549439595
 30
0.0
 11
-139.9085682240847
 21
232.9677560760227
 31
0.0
  0
LINE
  5
EF54
330
18
100
AcDbEntity
  8
0
100
AcDbLine
 10
-138.3085128103957
 20
210.7677579439542
 30
0.0
 11
-139.9085839309149
 21
210.7677590760284
 31
0.0
  0
LINE
  5
EF55
330
18
100
AcDbEntity
  8
0
100
AcDbLine
 10
-150.0085859856995
 20
205.8677643529243
 30
0.0
 11
-164.0085933977353
 21
205.8677718771447
 31
0.0
  0
LINE
  5
EF56
330
18
100
AcDbEntity
  8
7A
100
AcDbLine
 10
-172.9086776494974
 20
221.8677943944983
 30
0.0
 11
-103.8085402629193
 21
221.8677497736325
 31
0.0
  0
ARC
  5
EF57
330
18
100
AcDbEntity
  8
0
100
AcDbCircle
 10
-148.4086983404012
 20
230.967800150871
 30
0.0
 40
1.999999
100
AcDbArc
 50
359.9998822678763
 51
89.99920826787485
  0
ARC
  5
EF58
330
18
100
AcDbEntity
  8
0
100
AcDbCircle
 10
-148.408735737995
 20
212.7678041509094
 30
0.0
 40
1.999999
100
AcDbArc
 50
270.0005562678646
 51
359.9998822678763
  0
LINE
  5
EF59
330
18
100
AcDbEntity
  8
0
100
AcDbLine
 10
-150.0085725524215
 20
232.9677884383181
 30
0.0
 11
-148.4086942308055
 21
232.9677851508669
 31
0.0
  0
LINE
  5
EF5A
330
18
100
AcDbEntity
  8
0
100
AcDbLine
 10
-150.0085835567929
 20
210.7677914382939
 30
0.0
 11
-148.4087398476545
 21
210.7677881509137
 31
0.0
  0
ARC
  5
EF5B
330
18
100
AcDbEntity
  8
0
100
AcDbCircle
 10
-148.4085218103958
 20
341.9678055411137
 30
0.0
 40
1.999999
100
AcDbArc
 50
0.0000359999984121
 51
90.00067399999489
  0
ARC
  5
EF5C
330
18
100
AcDbEntity
  8
0
100
AcDbCircle
 10
-148.4085218103958
 20
323.7678095411137
 30
0.0
 40
1.999999
100
AcDbArc
 50
269.9993439999913
 51
0.0000359999984121
  0
ARC
  5
EF5D
330
18
100
AcDbEntity
  8
0
100
AcDbCircle
 10
-139.9085368103957
 20
323.7678095411137
 30
0.0
 40
1.999999
100
AcDbArc
 50
180.0
 51
269.9993260000051
  0
ARC
  5
EF5E
330
18
100
AcDbEntity
  8
0
100
AcDbCircle
 10
-139.9085368103957
 20
341.9678055411137
 30
0.0
 40
1.999999
100
AcDbArc
 50
90.00067399999489
 51
180.0
  0
LINE
  5
EF5F
330
18
100
AcDbEntity
  8
4A
100
AcDbLine
 10
-150.0085128103956
 20
247.3678107911137
 30
0.0
 11
-197.8085158103957
 21
247.3678107911137
 31
0.0
  0
LINE
  5
EF60
330
18
100
AcDbEntity
  8
4A
100
AcDbLine
 10
-150.0085128103956
 20
305.9859846869837
 30
0.0
 11
-197.8085158103957
 21
305.9859846869837
 31
0.0
  0
LINE
  5
EF61
330
18
100
AcDbEntity
  8
0
100
AcDbLine
 10
-172.0085428103958
 20
343.8374325411138
 30
0.0
 11
-172.0085428103958
 21
321.8982265411137
 31
0.0
  0
LINE
  5
EF62
330
18
100
AcDbEntity
  8
0
100
AcDbLine
 10
-172.0085588103957
 20
321.8982255411138
 30
0.0
 11
-164.0085588103957
 21
321.8982255411138
 31
0.0
  0
LINE
  5
EF63
330
18
100
AcDbEntity
  8
0
100
AcDbLine
 10
-172.0085588103957
 20
327.3829365411137
 30
0.0
 11
-164.0085588103957
 21
327.3829365411137
 31
0.0
  0
LINE
  5
EF64
330
18
100
AcDbEntity
  8
0
100
AcDbLine
 10
-172.0085588103957
 20
338.3526015411137
 30
0.0
 11
-164.0085588103957
 21
338.3526015411137
 31
0.0
  0
LINE
  5
EF65
330
18
100
AcDbEntity
  8
0
100
AcDbLine
 10
-172.0085588103957
 20
343.8374335411138
 30
0.0
 11
-164.0085588103957
 21
343.8374335411138
 31
0.0
  0
LINE
  5
EF66
330
18
100
AcDbEntity
  8
0
100
AcDbLine
 10
-164.0085278103957
 20
319.3678107911137
 30
0.0
 11
-164.0085278103957
 21
348.8678107911137
 31
0.0
  0
LINE
  5
EF67
330
18
100
AcDbEntity
  8
0
100
AcDbLine
 10
-141.9085368103957
 20
307.8677797911137
 30
0.0
 11
-146.4085068103957
 21
307.8677797911137
 31
0.0
  0
LINE
  5
EF68
330
18
100
AcDbEntity
  8
0
100
AcDbLine
 10
-141.9085528103958
 20
345.3427905411138
 30
0.0
 11
-146.4085218103958
 21
345.3427905411138
 31
0.0
  0
LINE
  5
EF69
330
18
100
AcDbEntity
  8
0
100
AcDbLine
 10
-149.5085588103957
 20
321.7678425411137
 30
0.0
 11
-150.0085308103956
 21
322.2678065411138
 31
0.0
  0
LINE
  5
EF6A
330
18
100
AcDbEntity
  8
0
100
AcDbLine
 10
-148.4085218103958
 20
343.9678215411137
 30
0.0
 11
-150.0085278103957
 21
343.9678215411137
 31
0.0
  0
LINE
  5
EF6B
330
18
100
AcDbEntity
  8
0
100
AcDbLine
 10
-148.4085218103958
 20
321.7678245411137
 30
0.0
 11
-149.5085128103956
 21
321.7678245411137
 31
0.0
  0
LINE
  5
EF6C
330
18
100
AcDbEntity
  8
0
100
AcDbLine
 10
-138.3085128103956
 20
321.7678245411137
 30
0.0
 11
-139.9085368103957
 21
321.7678245411137
 31
0.0
  0
LINE
  5
EF6D
330
18
100
AcDbEntity
  8
0
100
AcDbLine
 10
-138.3085128103956
 20
343.9678215411137
 30
0.0
 11
-139.9085368103957
 21
343.9678215411137
 31
0.0
  0
LINE
  5
EF6E
330
18
100
AcDbEntity
  8
0
100
AcDbLine
 10
-141.9085528103958
 20
209.3927919947905
 30
0.0
 11
-141.9085528103958
 21
345.3427905411138
 31
0.0
  0
LINE
  5
EF6F
330
18
100
AcDbEntity
  8
0
100
AcDbLine
 10
-146.4085218103958
 20
209.3927936665006
 30
0.0
 11
-146.4085218103958
 21
345.3427905411138
 31
0.0
  0
LINE
  5
EF70
330
18
100
AcDbEntity
  8
0
100
AcDbLine
 10
-197.8085158103957
 20
235.3678257911136
 30
0.0
 11
-164.0085753336926
 21
235.3678257911135
 31
0.0
  0
LINE
  5
EF71
330
18
100
AcDbEntity
  8
0
100
AcDbLine
 10
-164.0085278103957
 20
319.3678107911137
 30
0.0
 11
-197.8085158103957
 21
319.3678107911137
 31
0.0
  0
LINE
  5
EF72
330
18
100
AcDbEntity
  8
0
100
AcDbLine
 10
-197.8085158103957
 20
235.3678257911136
 30
0.0
 11
-197.8085158103957
 21
319.3678107911137
 31
0.0
  0
LINE
  5
EF73
330
18
100
AcDbEntity
  8
0
100
AcDbLine
 10
-150.0085151016451
 20
348.8678257911137
 30
0.0
 11
-164.0085428103955
 21
348.8678257911138
 31
0.0
  0
LINE
  5
EF74
330
18
100
AcDbEntity
  8
0
100
AcDbLine
 10
-150.0085859856995
 20
205.8677643529243
 30
0.0
 11
-150.0085151016451
 21
348.8678257911137
 31
0.0
  0
POINT
  5
EF75
330
18
100
AcDbEntity
  8
0
100
AcDbPoint
 10
-197.8085158103957
 20
277.3678107911138
 30
0.0
 50
180.0
  0
LINE
  5
EF76
330
18
100
AcDbEntity
  8
0
100
AcDbLine
 10
-141.9085368103957
 20
246.8678417911138
 30
0.0
 11
-146.4085068103957
 21
246.8678417911138
 31
0.0
  0
LINE
  5
EF77
330
18
100
AcDbEntity
  8
7A
100
AcDbLine
 10
-173.5085428103958
 20
332.8678291949597
 30
0.0
 11
-103.8085402629193
 21
332.8678064951234
 31
0.0
  0
ARC
  5
EF78
330
18
100
AcDbEntity
  8
0
100
AcDbCircle
 10
-139.9085696391041
 20
230.9677710760232
 30
0.0
 40
1.999999
100
AcDbArc
 50
90.00063346237311
 51
179.9999594623749
  0
ARC
  5
EF79
330
18
100
AcDbEntity
  8
0
100
AcDbCircle
 10
-139.9085825158737
 20
212.7677750760278
 30
0.0
 40
1.999999
100
AcDbArc
 50
179.9999594623749
 51
269.9992854623833
  0
LINE
  5
EF7A
330
18
100
AcDbEntity
  8
4A
100
AcDbLine
 10
-150.0085222970243
 20
311.7678086444753
 30
0.0
 11
-197.8085158103957
 21
311.7678086444753
 31
0.0
  0
LINE
  5
EF7B
330
18
100
AcDbEntity
  8
0
100
AcDbLine
 10
-172.0085428103958
 20
210.8981892218367
 30
0.0
 11
-172.0085428103958
 21
232.8373952218367
 31
0.0
  0
LINE
  5
EF7C
330
18
100
AcDbEntity
  8
0
100
AcDbLine
 10
-172.0085588103957
 20
232.8373962218368
 30
0.0
 11
-164.0085588103957
 21
232.8373962218368
 31
0.0
  0
LINE
  5
EF7D
330
18
100
AcDbEntity
  8
0
100
AcDbLine
 10
-172.0085588103957
 20
227.3526852218368
 30
0.0
 11
-164.0085588103957
 21
227.3526852218368
 31
0.0
  0
LINE
  5
EF7E
330
18
100
AcDbEntity
  8
0
100
AcDbLine
 10
-172.0085588103957
 20
216.3830202218367
 30
0.0
 11
-164.0085588103957
 21
216.3830202218367
 31
0.0
  0
LINE
  5
EF7F
330
18
100
AcDbEntity
  8
0
100
AcDbLine
 10
-172.0085588103957
 20
210.8981882218367
 30
0.0
 11
-164.0085588103957
 21
210.8981882218367
 31
0.0
  0
CIRCLE
  5
EF80
330
18
100
AcDbEntity
  8
0
100
AcDbCircle
 10
-260.9573588671966
 20
277.3678086444753
 30
0.0
 40
11.099999
  0
CIRCLE
  5
EF81
330
18
100
AcDbEntity
  8
0
100
AcDbCircle
 10
-372.0073468671966
 20
277.3678086444753
 30
0.0
 40
11.099999
  0
CIRCLE
  5
EF82
330
18
100
AcDbEntity
  8
0
100
AcDbCircle
 10
-316.4823528671967
 20
277.3678086444753
 30
0.0
 40
41.999969
  0
CIRCLE
  5
EF83
330
18
100
AcDbEntity
  8
0
100
AcDbCircle
 10
-316.4823528671967
 20
277.3678086444753
 30
0.0
 40
71.49998499999999
  0
LINE
  5
EF84
330
18
100
AcDbEntity
  8
0
100
AcDbLine
 10
-366.5226308671967
 20
267.8678476444753
 30
0.0
 11
-361.0378128671965
 21
277.3678306444752
 31
0.0
  0
LINE
  5
EF85
330
18
100
AcDbEntity
  8
0
100
AcDbLine
 10
-382.9770988671965
 20
277.3678396444752
 30
0.0
 11
-377.4922808671967
 21
286.8678226444753
 31
0.0
  0
LINE
  5
EF86
330
18
100
AcDbEntity
  8
0
100
AcDbLine
 10
-377.4922708671965
 20
267.8678896444752
 30
0.0
 11
-366.5226058671966
 21
267.8678906444753
 31
0.0
  0
LINE
  5
EF87
330
18
100
AcDbEntity
  8
0
100
AcDbLine
 10
-377.4922568671965
 20
286.8678886444753
 30
0.0
 11
-366.5226068671965
 21
286.8678896444752
 31
0.0
  0
LINE
  5
EF88
330
18
100
AcDbEntity
  8
0
100
AcDbLine
 10
-382.9771218671966
 20
277.3677486444752
 30
0.0
 11
-377.4923048671966
 21
267.8677656444753
 31
0.0
  0
LINE
  5
EF89
330
18
100
AcDbEntity
  8
0
100
AcDbLine
 10
-366.5226498671965
 20
286.8677756444753
 30
0.0
 11
-361.0378178671966
 21
277.3677676444753
 31
0.0
  0
LINE
  5
EF8A
330
18
100
AcDbEntity
  8
0
100
AcDbLine
 10
-255.4726998671966
 20
267.8678016444752
 30
0.0
 11
-249.9878668671966
 21
277.3678096444753
 31
0.0
  0
LINE
  5
EF8B
330
18
100
AcDbEntity
  8
0
100
AcDbLine
 10
-271.9271678671965
 20
277.3677936444752
 30
0.0
 11
-266.4423348671966
 21
286.8678016444752
 31
0.0
  0
LINE
  5
EF8C
330
18
100
AcDbEntity
  8
0
100
AcDbLine
 10
-266.4423208671966
 20
267.8678646444753
 30
0.0
 11
-255.4726558671965
 21
267.8678646444753
 31
0.0
  0
LINE
  5
EF8D
330
18
100
AcDbEntity
  8
0
100
AcDbLine
 10
-266.4422908671967
 20
286.8678636444753
 30
0.0
 11
-255.4726568671966
 21
286.8678636444753
 31
0.0
  0
LINE
  5
EF8E
330
18
100
AcDbEntity
  8
0
100
AcDbLine
 10
-271.9271758671965
 20
277.3677746444753
 30
0.0
 11
-266.4423518671964
 21
267.8677786444753
 31
0.0
  0
LINE
  5
EF8F
330
18
100
AcDbEntity
  8
0
100
AcDbLine
 10
-255.4727018671964
 20
286.8677866444752
 30
0.0
 11
-249.9878688671964
 21
277.3677776444753
 31
0.0
  0
LINE
  5
EF90
330
18
100
AcDbEntity
  8
0
100
AcDbLine
 10
-306.9824538671966
 20
227.3276906444753
 30
0.0
 11
-316.4824618671965
 21
232.8125236444753
 31
0.0
  0
LINE
  5
EF91
330
18
100
AcDbEntity
  8
0
100
AcDbLine
 10
-316.4824458671966
 20
210.8732226444753
 30
0.0
 11
-325.9824538671966
 21
216.3580556444753
 31
0.0
  0
LINE
  5
EF92
330
18
100
AcDbEntity
  8
0
100
AcDbLine
 10
-306.9824158671967
 20
216.3580996444752
 30
0.0
 11
-306.9824168671965
 21
227.3277646444752
 31
0.0
  0
LINE
  5
EF93
330
18
100
AcDbEntity
  8
0
100
AcDbLine
 10
-325.9824148671965
 20
216.3581146444752
 30
0.0
 11
-325.9824148671965
 21
227.3277636444752
 31
0.0
  0
LINE
  5
EF94
330
18
100
AcDbEntity
  8
0
100
AcDbLine
 10
-316.4824688671964
 20
210.8731816444753
 30
0.0
 11
-306.9824728671964
 21
216.3580066444753
 31
0.0
  0
LINE
  5
EF95
330
18
100
AcDbEntity
  8
0
100
AcDbLine
 10
-325.9824808671966
 20
227.3276566444753
 30
0.0
 11
-316.4824718671965
 21
232.8124886444753
 31
0.0
  0
LINE
  5
EF96
330
18
100
AcDbEntity
  8
0
100
AcDbLine
 10
-306.9824618671966
 20
338.3776186444753
 30
0.0
 11
-316.4824708671966
 21
343.8624516444753
 31
0.0
  0
LINE
  5
EF97
330
18
100
AcDbEntity
  8
0
100
AcDbLine
 10
-316.4824548671967
 20
321.9231506444753
 30
0.0
 11
-325.9824628671966
 21
327.4079836444753
 31
0.0
  0
LINE
  5
EF98
330
18
100
AcDbEntity
  8
0
100
AcDbLine
 10
-306.9823898671965
 20
327.4078736444752
 30
0.0
 11
-306.9823908671966
 21
338.3775066444753
 31
0.0
  0
LINE
  5
EF99
330
18
100
AcDbEntity
  8
0
100
AcDbLine
 10
-325.9824048671966
 20
327.4079026444753
 30
0.0
 11
-325.9824048671966
 21
338.3775056444753
 31
0.0
  0
LINE
  5
EF9A
330
18
100
AcDbEntity
  8
0
100
AcDbLine
 10
-316.4824428671965
 20
321.9230986444753
 30
0.0
 11
-306.9824608671964
 21
327.4079156444752
 31
0.0
  0
LINE
  5
EF9B
330
18
100
AcDbEntity
  8
0
100
AcDbLine
 10
-325.9824688671967
 20
338.3775656444754
 30
0.0
 11
-316.4824598671966
 21
343.8623976444752
 31
0.0
  0
CIRCLE
  5
EF9C
330
18
100
AcDbEntity
  8
0
100
AcDbCircle
 10
-260.9573588671966
 20
277.3678086444753
 30
0.0
 40
12.0
  0
CIRCLE
  5
EF9D
330
18
100
AcDbEntity
  8
0
100
AcDbCircle
 10
-372.0073468671965
 20
277.3678086444753
 30
0.0
 40
12.0
  0
CIRCLE
  5
EF9E
330
18
100
AcDbEntity
  8
7A
100
AcDbCircle
 10
-316.4823528671967
 20
277.3678086444753
 30
0.0
 40
55.52499400000005
  0
ARC
  5
EF9F
330
18
100
AcDbEntity
  8
4A
100
AcDbCircle
 10
-316.4823528671967
 20
277.3678086444753
 30
0.0
 40
30.0
100
AcDbArc
 50
107.4576031237206
 51
72.54239687627936
  0
LINE
  5
EFA0
330
18
100
AcDbEntity
  8
4A
100
AcDbLine
 10
-325.4823528671967
 20
311.7678086444753
 30
0.0
 11
-307.4823528671967
 21
311.7678086444753
 31
0.0
  0
LINE
  5
EFA1
330
18
100
AcDbEntity
  8
4A
100
AcDbLine
 10
-307.4823528671967
 20
311.7678086444753
 30
0.0
 11
-307.4823528671967
 21
305.9859846869837
 31
0.0
  0
LINE
  5
EFA2
330
18
100
AcDbEntity
  8
4A
100
AcDbLine
 10
-325.4823528671967
 20
311.7678086444753
 30
0.0
 11
-325.4823528671967
 21
305.9859846869837
 31
0.0
  0
INSERT
  5
EFA3
330
18
100
AcDbEntity
  8
0
100
AcDbBlockReference
  2
A$C0CD70048
 10
-227.3085307353214
 20
221.8677196808318
 30
0.0
  0
LINE
  5
EFA4
330
18
100
AcDbEntity
  8
0
100
AcDbLine
 10
-118.8085402629193
 20
314.8673356934782
 30
0.0
 11
-118.8085402629193
 21
239.8673356934781
 31
0.0
  0
LINE
  5
EFA5
330
18
100
AcDbEntity
  8
0
100
AcDbLine
 10
-118.8085402629193
 20
307.8678144959325
 30
0.0
 11
-138.3085128103956
 21
307.8678144959325
 31
0.0
  0
LINE
  5
EFA6
330
18
100
AcDbEntity
  8
0
100
AcDbLine
 10
-118.8085402629193
 20
246.8678144959325
 30
0.0
 11
-138.3085128103956
 21
246.8678144959325
 31
0.0
  0
LINE
  5
EFA7
330
18
100
AcDbEntity
  8
0
100
AcDbLine
 10
-104.8085402629193
 20
327.367816069263
 30
0.0
 11
-104.8085402629193
 21
314.867816069263
 31
0.0
  0
LINE
  5
EFA8
330
18
100
AcDbEntity
  8
0
100
AcDbLine
 10
-109.8085402629193
 20
314.867816069263
 30
0.0
 11
-104.8085402629193
 21
314.867816069263
 31
0.0
  0
LINE
  5
EFA9
330
18
100
AcDbEntity
  8
0
100
AcDbLine
 10
-104.8085402629193
 20
227.367816069263
 30
0.0
 11
-104.8085402629193
 21
239.867816069263
 31
0.0
  0
LINE
  5
EFAA
330
18
100
AcDbEntity
  8
0
100
AcDbLine
 10
-109.8085402629193
 20
239.867816069263
 30
0.0
 11
-104.8085402629193
 21
239.867816069263
 31
0.0
  0
CIRCLE
  5
EFAB
330
18
100
AcDbEntity
  8
0
100
AcDbCircle
 10
-316.4823528671967
 20
277.3678086444753
 30
0.0
 40
7.5
  0
LINE
  5
EFAC
330
18
100
AcDbEntity
  8
0
100
AcDbLine
 10
-197.8085158103957
 20
284.8678086444754
 30
0.0
 11
-150.008546825972
 21
284.8678086444754
 31
0.0
  0
LINE
  5
EFAD
330
18
100
AcDbEntity
  8
0
100
AcDbLine
 10
-197.8085158103957
 20
269.8678086444754
 30
0.0
 11
-150.0085542613591
 21
269.8678086444753
 31
0.0
  0
DIMENSION
  5
EFAE
330
18
100
AcDbEntity
  8
0
100
AcDbDimension
  2
*D144
 10
-217.7518144753178
 20
284.8678086444754
 30
0.0
 11
-221.0018144753179
 21
296.1987853075525
 31
0.0
 70
    32
  1
%%c<>下穴
 71
     5
 42
15.0
  3
AM_ISO
100
AcDbAlignedDimension
 13
-197.8085158103957
 23
269.8678086444754
 33
0.0
 14
-197.8085158103957
 24
284.8678086444754
 34
0.0
 50
90.0
100
AcDbRotatedDimension
1001
ACAD_DSTYLE_DIMINSPECT
1070
   396
1000
100%
1070
   395
1000

1070
   394
1070
    33
1070
   393
1070
     0
  0
LINE
  5
F017
330
18
100
AcDbEntity
  8
4A
100
AcDbLine
 10
-73.80854026291934
 20
203.3678107911138
 30
0.0
 11
-73.80854026291934
 21
205.8678107911138
 31
0.0
  0
LINE
  5
F018
330
18
100
AcDbEntity
  8
4A
100
AcDbLine
 10
-74.00854026291934
 20
203.3678107911138
 30
0.0
 11
-74.00854026291934
 21
205.8678107911138
 31
0.0
  0
ARC
  5
F019
330
18
100
AcDbEntity
  8
4A
100
AcDbCircle
 10
-76.00854026291912
 20
204.867810791115
 30
0.0
 40
2.500000000000591
100
AcDbArc
 50
270.0
 51
323.1301023541299
  0
ARC
  5
F01A
330
18
100
AcDbEntity
  8
4A
100
AcDbCircle
 10
-75.80854026291913
 20
204.867810791115
 30
0.0
 40
2.500000000000591
100
AcDbArc
 50
270.0
 51
323.1301023541299
  0
ENDSEC
  0
SECTION
  2
OBJECTS
  0
DICTIONARY
  5
C
330
0
100
AcDbDictionary
281
     1
  3
ACAD_2007HEADERVARS_RT
350
F06A
  3
ACAD_CIP_PREVIOUS_PRODUCT_INFO
350
BB58
  3
ACAD_COLOR
350
84A7
  3
ACAD_DETAILVIEWSTYLE
350
F030
  3
ACAD_FIELDLIST
350
F053
  3
ACAD_GROUP
350
D
  3
ACAD_LAYOUT
350
4B5
  3
ACAD_MATERIAL
350
84A6
  3
ACAD_MLEADERSTYLE
350
8ED7
  3
ACAD_MLINESTYLE
350
E
  3
ACAD_PLOTSETTINGS
350
4B6
  3
ACAD_PLOTSTYLENAME
350
4B3
  3
ACAD_SCALELIST
350
8EB5
  3
ACAD_SECTIONVIEWSTYLE
350
F02E
  3
ACAD_TABLESTYLE
350
84A8
  3
ACAD_VISUALSTYLE
350
8EA4
  3
AcadDim
350
B582
  3
ACDB_RECOMPOSE_DATA
350
F068
  3
AcDbVariableDictionary
350
86EE
  3
AcmDictionary
350
850B
  3
AEC_PROPERTY_SET_DEFS
350
BD5A
  3
AMG
350
84B1
  3
AMGSNAPSETTINGS
350
8561
  3
ASE_INDEX_DICTIONARY
350
F05D
  3
CONTENTDICTIONARY
350
322
  3
DWGPROPS
350
F069
  0
DICTIONARY
  5
8594
330
2
100
AcDbDictionary
280
     1
281
     1
  3
ACAD_LAYERFILTERS
360
A5B9
  3
ACAD_LAYERSTATES
360
C8BC
  3
ACLYDICTIONARY
360
A5B8
  3
AMLAYER_GROUPCOLORS
360
8595
  0
DICTIONARY
  5
8F23
330
F
100
AcDbDictionary
280
     1
281
     1
  3
ADSK_XREC_LAYER_RECONCILED
360
ED02
  0
DICTIONARY
  5
8F2D
330
29
100
AcDbDictionary
280
     1
281
     1
  3
ADSK_XREC_LAYER_RECONCILED
360
ED04
  0
DICTIONARY
  5
8F2F
330
2A
100
AcDbDictionary
280
     1
281
     1
  3
ADSK_XREC_LAYER_RECONCILED
360
ED05
  0
DICTIONARY
  5
8F31
330
2B
100
AcDbDictionary
280
     1
281
     1
  3
ADSK_XREC_LAYER_RECONCILED
360
ED06
  0
DICTIONARY
  5
8F39
330
2F
100
AcDbDictionary
280
     1
281
     1
  3
ADSK_XREC_LAYER_RECONCILED
360
ED08
  0
DICTIONARY
  5
8F65
330
8F1
100
AcDbDictionary
280
     1
281
     1
  3
ADSK_XREC_LAYER_RECONCILED
360
ED0E
  0
DICTIONARY
  5
9045
330
18
100
AcDbDictionary
280
     1
281
     1
  3
ACAD_SORTENTS
360
9046
  0
DICTIONARY
  5
EEC2
330
EEC1
100
AcDbDictionary
280
     1
281
     1
  3
ACAD_SORTENTS
360
EEC3
  0
DICTIONARY
  5
F06A
102
{ACAD_REACTORS
330
C
102
}
330
C
100
AcDbDictionary
281
     1
  3
INTERFEREVPVS
350
F06B
  0
XRECORD
  5
BB58
102
{ACAD_REACTORS
330
C
102
}
330
C
100
AcDbXrecord
280
     1
300
AMECH_PP
300
2014
300
PDSU_F_S
  0
DICTIONARY
  5
84A7
102
{ACAD_REACTORS
330
C
102
}
330
C
100
AcDbDictionary
281
     1
  0
DICTIONARY
  5
F030
102
{ACAD_REACTORS
330
C
102
}
330
C
100
AcDbDictionary
281
     1
  3
Metric50
350
F031
  0
FIELDLIST
  5
F053
102
{ACAD_REACTORS
330
C
102
}
330
C
100
AcDbIdSet
 90
        3
330
F051
330
F052
330
F054
100
AcDbFieldList
  0
DICTIONARY
  5
D
102
{ACAD_REACTORS
330
C
102
}
330
C
100
AcDbDictionary
281
     1
  0
DICTIONARY
  5
4B5
102
{ACAD_REACTORS
330
C
102
}
330
C
100
AcDbDictionary
281
     1
  3
Model
350
4B7
  3
ﾚｲｱｳﾄ1
350
4B8
  0
DICTIONARY
  5
84A6
102
{ACAD_REACTORS
330
C
102
}
330
C
100
AcDbDictionary
281
     1
  3
ByBlock
350
8E94
  3
ByLayer
350
8E8C
  3
Global
350
8E9C
  0
DICTIONARY
  5
8ED7
102
{ACAD_REACTORS
330
C
102
}
330
C
100
AcDbDictionary
281
     1
  3
Standard
350
8ED8
  0
DICTIONARY
  5
E
102
{ACAD_REACTORS
330
C
102
}
330
C
100
AcDbDictionary
281
     1
  3
STANDARD
350
1B
  0
DICTIONARY
  5
4B6
102
{ACAD_REACTORS
330
C
102
}
330
C
100
AcDbDictionary
281
     1
  0
ACDBDICTIONARYWDFLT
  5
4B3
102
{ACAD_REACTORS
330
C
102
}
330
C
100
AcDbDictionary
281
     1
  3
Normal
350
4B4
100
AcDbDictionaryWithDefault
340
4B4
  0
DICTIONARY
  5
8EB5
102
{ACAD_REACTORS
330
C
102
}
330
C
100
AcDbDictionary
281
     1
  3
*A1
350
E3B4
  3
A0
350
8EB6
  3
A1
350
8EB7
  3
A2
350
8EB8
  3
A3
350
8EB9
  3
A4
350
8EBA
  3
A5
350
8EBB
  3
A6
350
8EBC
  3
A7
350
8EBD
  3
A8
350
8EBE
  3
A9
350
8EBF
  3
B0
350
8EC0
  3
B1
350
8EC1
  3
B2
350
8EC2
  3
B3
350
8EC3
  3
B4
350
8EC4
  3
B5
350
8EC5
  3
B6
350
8EC6
  3
B7
350
8EC7
  3
B8
350
8EC8
  3
B9
350
8EC9
  3
C0
350
8ECA
  3
C1
350
8ECB
  3
C2
350
8ECC
  3
C3
350
8ECD
  3
C4
350
8ECE
  3
C5
350
8ECF
  3
C6
350
8ED0
  3
C7
350
8ED1
  3
C8
350
8ED2
  3
C9
350
8ED3
  3
D0
350
8ED4
  3
D1
350
8ED5
  3
D2
350
8ED6
  0
DICTIONARY
  5
F02E
102
{ACAD_REACTORS
330
C
102
}
330
C
100
AcDbDictionary
281
     1
  3
Metric50
350
F02F
  0
DICTIONARY
  5
84A8
102
{ACAD_REACTORS
330
C
102
}
330
C
100
AcDbDictionary
281
     1
  3
Standard
350
84A9
  0
DICTIONARY
  5
8EA4
102
{ACAD_REACTORS
330
C
102
}
330
C
100
AcDbDictionary
281
     1
  3
2dWireframe
350
8EAA
  3
3D Hidden
350
8EAC
  3
3dWireframe
350
8EAB
  3
Basic
350
8EA9
  3
Brighten
350
8EB0
  3
ColorChange
350
8EB4
  3
Conceptual
350
8EAD
  3
Dim
350
8EAF
  3
EdgeColorOff
350
BB4D
  3
Facepattern
350
8EB3
  3
Flat
350
8EA5
  3
FlatWithEdges
350
8EA6
  3
Gouraud
350
8EA7
  3
GouraudWithEdges
350
8EA8
  3
Hidden
350
BB45
  3
JitterOff
350
BB4B
  3
Linepattern
350
8EB2
  3
OverhangOff
350
BB4C
  3
Realistic
350
8EAE
  3
Shaded
350
BB4A
  3
Shaded with edges
350
BB49
  3
Shades of Gray
350
BB46
  3
Sketchy
350
BB47
  3
Thicken
350
8EB1
  3
Wireframe
350
BB44
  3
X-Ray
350
BB48
  0
XRECORD
  5
B582
102
{ACAD_REACTORS
330
C
102
}
330
C
100
AcDbXrecord
280
     1
 90
   990106
  3

 60
     0
 61
     0
 62
     4
 63
     4
 64
     1
 65
     0
 66
     0
 67
     3
 68
     0
 69
     0
 70
     0
 71
     0
 72
     0
 40
131.3072382375658
170
     0
  0
XRECORD
  5
F068
102
{ACAD_REACTORS
330
C
102
}
330
C
100
AcDbXrecord
280
     1
 90
        1
330
84A9
  0
DICTIONARY
  5
86EE
102
{ACAD_REACTORS
330
C
102
}
330
C
100
AcDbDictionary
281
     1
  3
CANNOSCALE
350
8F01
  3
CMLEADERSTYLE
350
8EFF
  3
CTABLESTYLE
350
86EF
  3
CVIEWDETAILSTYLE
350
F060
  3
CVIEWSECTIONSTYLE
350
F061
  3
DIMASSOC
350
F065
  3
INDEXCTL
350
F063
  3
LAYEREVAL
350
A129
  3
LAYERNOTIFY
350
A12A
  3
LIGHTINGUNITS
350
8F02
  3
MSLTSCALE
350
8F00
  3
SOLIDHIST
350
F066
  3
SORTENTS
350
F062
  3
XCLIPFRAME
350
F064
  0
DICTIONARY
  5
850B
102
{ACAD_REACTORS
330
C
102
}
330
C
100
AcDbDictionary
281
     1
  3
AcmStdDictionary
350
8516
  3
AMDTSECTSYM_ARROWCOLOR
350
8533
  0
DICTIONARY
  5
BD5A
102
{ACAD_REACTORS
330
C
102
}
330
C
100
AcDbDictionary
281
     1
  0
DICTIONARY
  5
84B1
102
{ACAD_REACTORS
330
C
102
}
330
C
100
AcDbDictionary
281
     1
  0
DICTIONARY
  5
8561
102
{ACAD_REACTORS
330
C
102
}
330
C
100
AcDbDictionary
281
     1
  0
DICTIONARY
  5
F05D
102
{ACAD_REACTORS
330
C
102
}
330
C
100
AcDbDictionary
281
     1
  3
ASEBlockHierarchyIndexRecord
350
F05F
1001
DCO15
1040
1813560821.042
  0
DICTIONARY
  5
322
102
{ACAD_REACTORS
330
C
102
}
330
C
100
AcDbDictionary
281
     1
  0
XRECORD
  5
F069
102
{ACAD_REACTORS
330
C
102
}
330
C
100
AcDbXrecord
280
     1
  1
DWGPROPS COOKIE
  2

  3

  4

  6

  7

  8
yasuhito.suzuki
  9

300
=
301
=
302
=
303
=
304
=
305
=
306
=
307
=
308
=
309
=
 40
0.0523155555555556
 41
2456785.560835694
 42
2456793.499132431
  1

 90
        0
  0
DICTIONARY
  5
A5B9
102
{ACAD_REACTORS
330
8594
102
}
330
8594
100
AcDbDictionary
281
     1
  0
DICTIONARY
  5
C8BC
102
{ACAD_REACTORS
330
8594
102
}
330
8594
100
AcDbDictionary
281
     1
  0
DICTIONARY
  5
A5B8
102
{ACAD_REACTORS
330
8594
102
}
330
8594
100
AcDbDictionary
281
     1
1001
ACAD
1000
<All
  0
DICTIONARY
  5
8595
102
{ACAD_REACTORS
330
8594
102
}
330
8594
100
AcDbDictionary
280
     1
281
     1
  0
XRECORD
  5
ED02
102
{ACAD_REACTORS
330
8F23
102
}
330
8F23
100
AcDbXrecord
280
     1
290
     1
  0
XRECORD
  5
ED04
102
{ACAD_REACTORS
330
8F2D
102
}
330
8F2D
100
AcDbXrecord
280
     1
290
     1
  0
XRECORD
  5
ED05
102
{ACAD_REACTORS
330
8F2F
102
}
330
8F2F
100
AcDbXrecord
280
     1
290
     1
  0
XRECORD
  5
ED06
102
{ACAD_REACTORS
330
8F31
102
}
330
8F31
100
AcDbXrecord
280
     1
290
     1
  0
XRECORD
  5
ED08
102
{ACAD_REACTORS
330
8F39
102
}
330
8F39
100
AcDbXrecord
280
     1
290
     1
  0
XRECORD
  5
ED0E
102
{ACAD_REACTORS
330
8F65
102
}
330
8F65
100
AcDbXrecord
280
     1
290
     1
  0
SORTENTSTABLE
  5
9046
102
{ACAD_REACTORS
330
9045
102
}
330
9045
100
AcDbSortentsTable
330
18
331
E89A
  5
E8A0
331
E994
  5
E9A4
331
E9F7
  5
EA0B
331
9042
  5
E33C
331
E939
  5
E948
331
E9F3
  5
EA04
331
E988
  5
E998
331
EA4C
  5
EA5F
331
EA48
  5
EA5B
331
EA44
  5
EA57
331
EDC8
  5
EAD5
331
ED7D
  5
EDAB
331
ED79
  5
EDA7
331
EDC4
  5
EA71
331
EA40
  5
EA54
331
E33C
  5
E358
331
E9EF
  5
EA00
331
E935
  5
E943
331
E9EB
  5
E9FC
331
E886
  5
E88C
331
E882
  5
E889
331
EA8F
  5
EAE8
331
ED75
  5
EDA3
331
ED71
  5
ED9F
331
EDB4
  5
ED62
331
EA2C
  5
EA4E
331
EDB0
  5
EB03
331
EAF6
  5
EDB5
331
ED6D
  5
ED9B
331
E87E
  5
E884
331
E9DB
  5
E9F4
331
E95C
  5
E973
331
E9D7
  5
E9E8
331
E8B9
  5
E8BF
331
EAC6
  5
ED85
331
EA7B
  5
EAE3
331
EA10
  5
EA3B
331
EDA4
  5
EDD7
331
EAC2
  5
ED6D
331
EA08
  5
EA1E
331
ED94
  5
ED8B
331
ED21
  5
EAEB
331
ED90
  5
ED87
331
E94C
  5
E95B
331
E8AD
  5
E8B8
331
EA6F
  5
EAD6
331
E940
  5
E958
331
EAA6
  5
EAFF
331
ED8C
  5
ED97
331
EAA2
  5
EAFB
331
EA9E
  5
EAF4
331
ED88
  5
ED93
331
EDDB
  5
EE13
331
ED84
  5
ED8F
331
E9F8
  5
EA10
331
ED80
  5
EDAE
331
A856
  5
E33E
331
E35B
  5
E878
331
E997
  5
E9C5
331
E9F6
  5
EA07
331
9041
  5
E33B
331
E93C
  5
E94E
331
E938
  5
E947
331
E9F2
  5
EA03
331
EA4B
  5
EA5E
331
EA47
  5
EA59
331
ED7C
  5
EDAA
331
EA92
  5
EAEF
331
EDC3
  5
EA6F
331
ED78
  5
EDA6
331
E33F
  5
E873
331
E33B
  5
E340
331
E9EE
  5
E9FF
331
E889
  5
E895
331
E9EA
  5
E9FB
331
E881
  5
E888
331
EA8E
  5
EAE7
331
EA37
  5
EA52
331
ED74
  5
EDA2
331
EA33
  5
EA50
331
EAF9
  5
EDD2
331
ED70
  5
ED9E
331
EAF5
  5
EDB4
331
EDAF
  5
EB02
331
EA2B
  5
EA45
331
EAF1
  5
ED9A
331
E87D
  5
E883
331
E8F8
  5
E903
331
E9DA
  5
E9EF
331
E9D6
  5
E9E7
331
E8B8
  5
E8BE
331
EAC5
  5
ED84
331
EDA7
  5
EE04
331
EA7A
  5
EAD9
331
EAC1
  5
ED67
331
ED97
  5
ED8E
331
ED93
  5
ED8A
331
EAB1
  5
ED65
331
E9B6
  5
E9E5
331
E94F
  5
E960
331
E94B
  5
E95A
331
E8AC
  5
E8B2
331
EAA5
  5
EAFE
331
ED8F
  5
ED86
331
ED8B
  5
ED96
331
EAA1
  5
EAFA
331
EA9D
  5
EAF3
331
ED87
  5
ED92
331
EA52
  5
EA65
331
ED83
  5
EDB1
331
E35A
  5
E877
331
E996
  5
E9A7
331
E898
  5
E89F
331
E9F5
  5
EA06
331
9040
  5
E33A
331
E890
  5
E89C
331
E9F1
  5
EA02
331
E98A
  5
E9A3
331
EA4E
  5
EA61
331
EA4A
  5
EA5D
331
EA46
  5
EA58
331
ED7F
  5
EDAD
331
EA91
  5
EAEA
331
ED7B
  5
EDA9
331
EA42
  5
EA56
331
EDC2
  5
EA6E
331
E33E
  5
E35A
331
E33A
  5
E33F
331
E9ED
  5
E9FE
331
E888
  5
E88E
331
E903
  5
E90B
331
E9E5
  5
E9FA
331
E966
  5
E996
331
E884
  5
E88B
331
E880
  5
E887
331
EA8D
  5
EAE6
331
ED77
  5
EDA5
331
ED73
  5
EDA1
331
EA32
  5
EA4F
331
EAF8
  5
EDD1
331
ED6F
  5
ED9D
331
EAF4
  5
EDB3
331
EDAE
  5
EB01
331
EA2A
  5
EA41
331
EDAA
  5
EE12
331
E8FF
  5
E907
331
E9D9
  5
E9EA
331
E9D5
  5
E9E6
331
E952
  5
E96A
331
EAC4
  5
ED83
331
EDA6
  5
EDD9
331
EA0E
  5
EA3A
331
ED27
  5
EDD5
331
ED23
  5
EDD3
331
ED96
  5
ED8D
331
EA71
  5
EAD8
331
ED92
  5
ED89
331
E8B7
  5
E8BD
331
E94E
  5
E95D
331
E94A
  5
E959
331
E999
  5
E9E4
331
EAA4
  5
EAFD
331
ED8E
  5
ED99
331
EA02
  5
EA1B
331
ED8A
  5
ED95
331
EAA0
  5
EAF9
331
EA51
  5
EA64
331
EA9C
  5
EAF2
331
ED86
  5
ED91
331
E9FA
  5
EA16
331
ED82
  5
EDB0
331
E359
  5
E876
331
E341
  5
E875
331
E89F
  5
E8B1
331
E89B
  5
E8A4
331
E995
  5
E9A5
331
9043
  5
E33D
331
E897
  5
E89D
331
E93A
  5
E94A
331
E9F4
  5
EA05
331
E9F0
  5
EA01
331
E989
  5
E99D
331
EA4D
  5
EA60
331
EA49
  5
EA5C
331
ED7E
  5
EDAC
331
EA90
  5
EAE9
331
ED7A
  5
EDA8
331
EDC5
  5
EA8F
331
EA41
  5
EA55
331
E33D
  5
E359
331
E936
  5
E945
331
E9EC
  5
E9FD
331
E906
  5
E942
331
E969
  5
E997
331
E887
  5
E88D
331
E902
  5
E908
331
E883
  5
E88A
331
E965
  5
E974
331
E9E0
  5
E9F9
331
ED76
  5
EDA4
331
ED72
  5
EDA0
331
EDB1
  5
ED21
331
EAF7
  5
EDD0
331
ED6E
  5
ED9C
331
EAF3
  5
EDB2
331
EA80
  5
EAE5
331
E8FE
  5
E904
331
E87F
  5
E886
331
E87B
  5
E882
331
E9D8
  5
E9E9
331
E8BA
  5
E8FD
331
E873
  5
E880
331
EA7C
  5
EAE4
331
ED62
  5
EDD6
331
EAC3
  5
ED82
331
EDA5
  5
EDD8
331
EA0D
  5
EA29
331
ED26
  5
EDD4
331
EA70
  5
EAD7
331
EAB3
  5
ED66
331
ED95
  5
ED8C
331
EA09
  5
EA1F
331
ED91
  5
ED88
331
E8B6
  5
E8BC
331
E94D
  5
E95C
331
EA05
  5
EA1C
331
EAA7
  5
EB00
331
EAA3
  5
EAFC
331
ED8D
  5
ED98
331
EA01
  5
EA17
331
ED89
  5
ED94
331
EA9F
  5
EAF7
331
EA9B
  5
EAF1
331
ED85
  5
ED90
331
E9F9
  5
EA13
331
ED81
  5
EDAF
331
E340
  5
E874
  0
SORTENTSTABLE
  5
EEC3
102
{ACAD_REACTORS
330
EEC2
102
}
330
EEC2
100
AcDbSortentsTable
330
EEC1
  0
XRECORD
  5
F06B
102
{ACAD_REACTORS
330
F06A
102
}
330
F06A
100
AcDbXrecord
280
     1
340
8EAB
  0
ACDBDETAILVIEWSTYLE
  5
F031
102
{ACAD_XDICTIONARY
360
F0AB
102
}
102
{ACAD_REACTORS
330
F030
330
F048
102
}
330
F030
100
AcDbModelDocViewStyle
 70
     0
  3
Metric50
290
     0
100
AcDbDetailViewStyle
 70
     0
 71
     0
 90
        3
 71
     1
340
10
 40
5.0
340
0
 40
5.0
300

 40
0.0
280
     1
 71
     2
340
14
 90
       25
 71
     3
340
10
 40
5.0
 90
        0
 40
15.0
 90
        1
300
%<\AcVar ViewDetailId>% (%<\AcVar ViewScale \f "%sn">%)
 71
     4
340
14
 90
       25
340
14
 90
       25
280
     0
  0
LAYOUT
  5
4B7
102
{ACAD_XDICTIONARY
360
E108
102
}
102
{ACAD_REACTORS
330
4B5
102
}
330
4B5
100
AcDbPlotSettings
  1

  2
RICOH imagio MP C4001 RPCS (一時).pc3
  4
A3
  6

 40
5.873749732971191
 41
5.873747825622558
 42
5.873748779296875
 43
5.873748779296875
 44
296.9259948730469
 45
419.9466552734374
 46
0.0
 47
0.0535853563059163
 48
5.909999999999968
 49
5.879999999999995
140
414.0899999999996
141
291.1199999999998
142
1.0
143
1.00021566716988
 70
 11956
 72
     1
 73
     1
 74
     4
  7
mysample.ctb
 75
     0
147
0.9997843793324182
148
-5.909999999999968
149
-5.879999999999995
100
AcDbLayout
  1
Model
 70
     1
 71
     0
 10
0.0
 20
0.0
 11
12.0
 21
9.0
 12
0.0
 22
0.0
 32
0.0
 14
0.0
 24
0.0
 34
0.0
 15
0.0
 25
0.0
 35
0.0
146
0.0
 13
0.0
 23
0.0
 33
0.0
 16
1.0
 26
0.0
 36
0.0
 17
0.0
 27
1.0
 37
0.0
 76
     0
330
18
331
8E8A
1001
ACAD_PSEXT
1000
RICOH imagio MP C4001 RPCS (一時).pc3
1000
RICOH imagio MP C4001 RPCS
1000
IP_192.168.50.152
1000
RPCS Driver (Windows 2000/XP/Server 2003/2008/Vista/7)
1070
     0
  0
LAYOUT
  5
4B8
102
{ACAD_XDICTIONARY
360
F06D
102
}
102
{ACAD_REACTORS
330
4B5
102
}
330
4B5
100
AcDbPlotSettings
  1

  2
C:\Program Files\ACAD LT 2000\plotters\DWF Classic.pc3
  4

  6

 40
0.0
 41
0.0
 42
0.0
 43
0.0
 44
0.0
 45
0.0
 46
0.0
 47
0.0
 48
0.0
 49
0.0
140
0.0
141
0.0
142
1.0
143
1.0
 70
   688
 72
     0
 73
     0
 74
     5
  7
mysample.ctb
 75
    16
147
1.0
148
0.0
149
0.0
100
AcDbLayout
  1
ﾚｲｱｳﾄ1
 70
     1
 71
     1
 10
0.0
 20
0.0
 11
420.0
 21
297.0
 12
0.0
 22
0.0
 32
0.0
 14
1.000000000000000E+20
 24
1.000000000000000E+20
 34
1.000000000000000E+20
 15
-1.000000000000000E+20
 25
-1.000000000000000E+20
 35
-1.000000000000000E+20
146
0.0
 13
0.0
 23
0.0
 33
0.0
 16
1.0
 26
0.0
 36
0.0
 17
0.0
 27
1.0
 37
0.0
 76
     0
330
15
  0
MATERIAL
  5
8E94
102
{ACAD_XDICTIONARY
360
8E95
102
}
102
{ACAD_REACTORS
330
84A6
102
}
330
84A6
100
AcDbMaterial
  1
ByBlock
 72
     0
 43
0.0208333333333333
 43
0.0
 43
0.0
 43
0.0
 43
0.0
 43
0.0208333333333333
 43
0.0
 43
0.0
 43
0.0
 43
0.0
 43
1.0
 43
0.0
 43
0.0
 43
0.0
 43
0.0
 43
1.0
 77
     0
 47
0.0208333333333333
 47
0.0
 47
0.0
 47
0.0
 47
0.0
 47
0.0208333333333333
 47
0.0
 47
0.0
 47
0.0
 47
0.0
 47
1.0
 47
0.0
 47
0.0
 47
0.0
 47
0.0
 47
1.0
171
     0
 49
0.0208333333333333
 49
0.0
 49
0.0
 49
0.0
 49
0.0
 49
0.0208333333333333
 49
0.0
 49
0.0
 49
0.0
 49
0.0
 49
1.0
 49
0.0
 49
0.0
 49
0.0
 49
0.0
 49
1.0
175
     0
142
0.0208333333333333
142
0.0
142
0.0
142
0.0
142
0.0
142
0.0208333333333333
142
0.0
142
0.0
142
0.0
142
0.0
142
1.0
142
0.0
142
0.0
142
0.0
142
0.0
142
1.0
179
     0
144
0.0208333333333333
144
0.0
144
0.0
144
0.0
144
0.0
144
0.0208333333333333
144
0.0
144
0.0
144
0.0
144
0.0
144
1.0
144
0.0
144
0.0
144
0.0
144
0.0
144
1.0
147
0.0208333333333333
147
0.0
147
0.0
147
0.0
147
0.0
147
0.0208333333333333
147
0.0
147
0.0
147
0.0
147
0.0
147
1.0
147
0.0
147
0.0
147
0.0
147
0.0
147
1.0
  0
MATERIAL
  5
8E8C
102
{ACAD_XDICTIONARY
360
8E8D
102
}
102
{ACAD_REACTORS
330
84A6
102
}
330
84A6
100
AcDbMaterial
  1
ByLayer
 72
     0
 43
0.0208333333333333
 43
0.0
 43
0.0
 43
0.0
 43
0.0
 43
0.0208333333333333
 43
0.0
 43
0.0
 43
0.0
 43
0.0
 43
1.0
 43
0.0
 43
0.0
 43
0.0
 43
0.0
 43
1.0
 77
     0
 47
0.0208333333333333
 47
0.0
 47
0.0
 47
0.0
 47
0.0
 47
0.0208333333333333
 47
0.0
 47
0.0
 47
0.0
 47
0.0
 47
1.0
 47
0.0
 47
0.0
 47
0.0
 47
0.0
 47
1.0
171
     0
 49
0.0208333333333333
 49
0.0
 49
0.0
 49
0.0
 49
0.0
 49
0.0208333333333333
 49
0.0
 49
0.0
 49
0.0
 49
0.0
 49
1.0
 49
0.0
 49
0.0
 49
0.0
 49
0.0
 49
1.0
175
     0
142
0.0208333333333333
142
0.0
142
0.0
142
0.0
142
0.0
142
0.0208333333333333
142
0.0
142
0.0
142
0.0
142
0.0
142
1.0
142
0.0
142
0.0
142
0.0
142
0.0
142
1.0
179
     0
144
0.0208333333333333
144
0.0
144
0.0
144
0.0
144
0.0
144
0.0208333333333333
144
0.0
144
0.0
144
0.0
144
0.0
144
1.0
144
0.0
144
0.0
144
0.0
144
0.0
144
1.0
147
0.0208333333333333
147
0.0
147
0.0
147
0.0
147
0.0
147
0.0208333333333333
147
0.0
147
0.0
147
0.0
147
0.0
147
1.0
147
0.0
147
0.0
147
0.0
147
0.0
147
1.0
  0
MATERIAL
  5
8E9C
102
{ACAD_XDICTIONARY
360
8E9D
102
}
102
{ACAD_REACTORS
330
84A6
102
}
330
84A6
100
AcDbMaterial
  1
Global
 72
     0
 43
0.0208333333333333
 43
0.0
 43
0.0
 43
0.0
 43
0.0
 43
0.0208333333333333
 43
0.0
 43
0.0
 43
0.0
 43
0.0
 43
1.0
 43
0.0
 43
0.0
 43
0.0
 43
0.0
 43
1.0
 77
     0
 47
0.0208333333333333
 47
0.0
 47
0.0
 47
0.0
 47
0.0
 47
0.0208333333333333
 47
0.0
 47
0.0
 47
0.0
 47
0.0
 47
1.0
 47
0.0
 47
0.0
 47
0.0
 47
0.0
 47
1.0
171
     0
 49
0.0208333333333333
 49
0.0
 49
0.0
 49
0.0
 49
0.0
 49
0.0208333333333333
 49
0.0
 49
0.0
 49
0.0
 49
0.0
 49
1.0
 49
0.0
 49
0.0
 49
0.0
 49
0.0
 49
1.0
175
     0
142
0.0208333333333333
142
0.0
142
0.0
142
0.0
142
0.0
142
0.0208333333333333
142
0.0
142
0.0
142
0.0
142
0.0
142
1.0
142
0.0
142
0.0
142
0.0
142
0.0
142
1.0
179
     0
144
0.0208333333333333
144
0.0
144
0.0
144
0.0
144
0.0
144
0.0208333333333333
144
0.0
144
0.0
144
0.0
144
0.0
144
1.0
144
0.0
144
0.0
144
0.0
144
0.0
144
1.0
147
0.0208333333333333
147
0.0
147
0.0
147
0.0
147
0.0
147
0.0208333333333333
147
0.0
147
0.0
147
0.0
147
0.0
147
1.0
147
0.0
147
0.0
147
0.0
147
0.0
147
1.0
  0
MLEADERSTYLE
  5
8ED8
102
{ACAD_XDICTIONARY
360
F093
102
}
102
{ACAD_REACTORS
330
8ED7
102
}
330
8ED7
100
AcDbMLeaderStyle
170
     2
171
     1
172
     0
 90
        2
 40
0.0
 41
0.0
173
     1
 91
-1056964608
340
12
 92
       -2
290
     1
 42
2.0
291
     1
 43
0.36
  3
Standard
 44
4.0
300

342
10
174
     1
178
     6
175
     1
176
     0
 93
-1056964608
 45
4.0
292
     0
297
     0
 46
4.0
 94
-1056964608
 47
1.0
 49
1.0
140
1.0
293
     1
141
0.0
294
     1
177
     0
142
1.0
295
     0
296
     0
143
0.125
1001
ACAD_MLEADERVER
1070
     2
  0
MLINESTYLE
  5
1B
102
{ACAD_REACTORS
330
E
102
}
330
E
100
AcDbMlineStyle
  2
STANDARD
 70
     0
  3

 62
     0
 51
90.0
 52
90.0
 71
     2
 49
0.5
 62
   256
  6
BYLAYER
 49
-0.5
 62
   256
  6
BYLAYER
  0
ACDBPLACEHOLDER
  5
4B4
102
{ACAD_REACTORS
330
4B3
102
}
330
4B3
  0
SCALE
  5
E3B4
102
{ACAD_REACTORS
330
8EB5
102
}
330
8EB5
100
AcDbScale
 70
     0
300
1:1.5
140
1.0
141
1.5
290
     0
  0
SCALE
  5
8EB6
102
{ACAD_REACTORS
330
8EB5
102
}
330
8EB5
100
AcDbScale
 70
     0
300
1:1
140
1.0
141
1.0
290
     1
  0
SCALE
  5
8EB7
102
{ACAD_REACTORS
330
8EB5
102
}
330
8EB5
100
AcDbScale
 70
     0
300
1:2
140
1.0
141
2.0
290
     0
  0
SCALE
  5
8EB8
102
{ACAD_REACTORS
330
8EB5
102
}
330
8EB5
100
AcDbScale
 70
     0
300
1:4
140
1.0
141
4.0
290
     0
  0
SCALE
  5
8EB9
102
{ACAD_REACTORS
330
8EB5
102
}
330
8EB5
100
AcDbScale
 70
     0
300
1:5
140
1.0
141
5.0
290
     0
  0
SCALE
  5
8EBA
102
{ACAD_REACTORS
330
8EB5
102
}
330
8EB5
100
AcDbScale
 70
     0
300
1:8
140
1.0
141
8.0
290
     0
  0
SCALE
  5
8EBB
102
{ACAD_REACTORS
330
8EB5
102
}
330
8EB5
100
AcDbScale
 70
     0
300
1:10
140
1.0
141
10.0
290
     0
  0
SCALE
  5
8EBC
102
{ACAD_REACTORS
330
8EB5
102
}
330
8EB5
100
AcDbScale
 70
     0
300
1:16
140
1.0
141
16.0
290
     0
  0
SCALE
  5
8EBD
102
{ACAD_REACTORS
330
8EB5
102
}
330
8EB5
100
AcDbScale
 70
     0
300
1:20
140
1.0
141
20.0
290
     0
  0
SCALE
  5
8EBE
102
{ACAD_REACTORS
330
8EB5
102
}
330
8EB5
100
AcDbScale
 70
     0
300
1:30
140
1.0
141
30.0
290
     0
  0
SCALE
  5
8EBF
102
{ACAD_REACTORS
330
8EB5
102
}
330
8EB5
100
AcDbScale
 70
     0
300
1:40
140
1.0
141
40.0
290
     0
  0
SCALE
  5
8EC0
102
{ACAD_REACTORS
330
8EB5
102
}
330
8EB5
100
AcDbScale
 70
     0
300
1:50
140
1.0
141
50.0
290
     0
  0
SCALE
  5
8EC1
102
{ACAD_REACTORS
330
8EB5
102
}
330
8EB5
100
AcDbScale
 70
     0
300
1:100
140
1.0
141
100.0
290
     0
  0
SCALE
  5
8EC2
102
{ACAD_REACTORS
330
8EB5
102
}
330
8EB5
100
AcDbScale
 70
     0
300
2:1
140
2.0
141
1.0
290
     0
  0
SCALE
  5
8EC3
102
{ACAD_REACTORS
330
8EB5
102
}
330
8EB5
100
AcDbScale
 70
     0
300
4:1
140
4.0
141
1.0
290
     0
  0
SCALE
  5
8EC4
102
{ACAD_REACTORS
330
8EB5
102
}
330
8EB5
100
AcDbScale
 70
     0
300
8:1
140
8.0
141
1.0
290
     0
  0
SCALE
  5
8EC5
102
{ACAD_REACTORS
330
8EB5
102
}
330
8EB5
100
AcDbScale
 70
     0
300
10:1
140
10.0
141
1.0
290
     0
  0
SCALE
  5
8EC6
102
{ACAD_REACTORS
330
8EB5
102
}
330
8EB5
100
AcDbScale
 70
     0
300
100:1
140
100.0
141
1.0
290
     0
  0
SCALE
  5
8EC7
102
{ACAD_REACTORS
330
8EB5
102
}
330
8EB5
100
AcDbScale
 70
     0
300
1/128" = 1'-0"
140
0.0078125
141
12.0
290
     0
  0
SCALE
  5
8EC8
102
{ACAD_REACTORS
330
8EB5
102
}
330
8EB5
100
AcDbScale
 70
     0
300
1/64" = 1'-0"
140
0.015625
141
12.0
290
     0
  0
SCALE
  5
8EC9
102
{ACAD_REACTORS
330
8EB5
102
}
330
8EB5
100
AcDbScale
 70
     0
300
1/32" = 1'-0"
140
0.03125
141
12.0
290
     0
  0
SCALE
  5
8ECA
102
{ACAD_REACTORS
330
8EB5
102
}
330
8EB5
100
AcDbScale
 70
     0
300
1/16" = 1'-0"
140
0.0625
141
12.0
290
     0
  0
SCALE
  5
8ECB
102
{ACAD_REACTORS
330
8EB5
102
}
330
8EB5
100
AcDbScale
 70
     0
300
3/32" = 1'-0"
140
0.09375
141
12.0
290
     0
  0
SCALE
  5
8ECC
102
{ACAD_REACTORS
330
8EB5
102
}
330
8EB5
100
AcDbScale
 70
     0
300
1/8" = 1'-0"
140
0.125
141
12.0
290
     0
  0
SCALE
  5
8ECD
102
{ACAD_REACTORS
330
8EB5
102
}
330
8EB5
100
AcDbScale
 70
     0
300
3/16" = 1'-0"
140
0.1875
141
12.0
290
     0
  0
SCALE
  5
8ECE
102
{ACAD_REACTORS
330
8EB5
102
}
330
8EB5
100
AcDbScale
 70
     0
300
1/4" = 1'-0"
140
0.25
141
12.0
290
     0
  0
SCALE
  5
8ECF
102
{ACAD_REACTORS
330
8EB5
102
}
330
8EB5
100
AcDbScale
 70
     0
300
3/8" = 1'-0"
140
0.375
141
12.0
290
     0
  0
SCALE
  5
8ED0
102
{ACAD_REACTORS
330
8EB5
102
}
330
8EB5
100
AcDbScale
 70
     0
300
1/2" = 1'-0"
140
0.5
141
12.0
290
     0
  0
SCALE
  5
8ED1
102
{ACAD_REACTORS
330
8EB5
102
}
330
8EB5
100
AcDbScale
 70
     0
300
3/4" = 1'-0"
140
0.75
141
12.0
290
     0
  0
SCALE
  5
8ED2
102
{ACAD_REACTORS
330
8EB5
102
}
330
8EB5
100
AcDbScale
 70
     0
300
1" = 1'-0"
140
1.0
141
12.0
290
     0
  0
SCALE
  5
8ED3
102
{ACAD_REACTORS
330
8EB5
102
}
330
8EB5
100
AcDbScale
 70
     0
300
1-1/2" = 1'-0"
140
1.5
141
12.0
290
     0
  0
SCALE
  5
8ED4
102
{ACAD_REACTORS
330
8EB5
102
}
330
8EB5
100
AcDbScale
 70
     0
300
3" = 1'-0"
140
3.0
141
12.0
290
     0
  0
SCALE
  5
8ED5
102
{ACAD_REACTORS
330
8EB5
102
}
330
8EB5
100
AcDbScale
 70
     0
300
6" = 1'-0"
140
6.0
141
12.0
290
     0
  0
SCALE
  5
8ED6
102
{ACAD_REACTORS
330
8EB5
102
}
330
8EB5
100
AcDbScale
 70
     0
300
1'-0" = 1'-0"
140
12.0
141
12.0
290
     0
  0
ACDBSECTIONVIEWSTYLE
  5
F02F
102
{ACAD_XDICTIONARY
360
F0A9
102
}
102
{ACAD_REACTORS
330
F02E
330
F047
102
}
330
F02E
100
AcDbModelDocViewStyle
 70
     0
  3
Metric50
290
     0
100
AcDbSectionViewStyle
 70
     0
 71
     0
 90
      102
 71
     1
340
10
 40
5.0
340
0
340
0
 40
5.0
300
I, O, Q, S, X, Z
 40
10.0
 90
        0
 40
2.5
 90
        0
 71
     2
340
14
 90
       25
340
14
 90
       50
 40
5.0
 40
2.5
 40
5.0
 71
     3
340
10
 40
5.0
 90
        0
 40
15.0
 90
        1
300
%<\AcVar ViewSectionStartId>%-%<\AcVar ViewSectionEndId>% (%<\AcVar ViewScale \f "%sn">%)
 71
     4
300
ANSI31
 40
1.0
 90
        0
290
     0
290
     0
 90
        6
 40
0.0
 40
1.570796326794896
 40
0.2617993877991494
 40
1.308996938995747
 40
-0.2617993877991494
 40
1.832595714594046
  0
TABLESTYLE
  5
84A9
102
{ACAD_XDICTIONARY
360
8EFC
102
}
102
{ACAD_REACTORS
330
84A8
102
}
330
84A8
100
AcDbTableStyle
  3
Standard
 70
     0
 71
     0
 40
1.5
 41
1.5
280
     0
281
     0
  7
STANDARD
140
4.5
170
     2
 62
     0
 63
     7
283
     0
274
    -2
284
     1
 64
     0
275
    -2
285
     1
 65
     0
276
    -2
286
     1
 66
     0
277
    -2
287
     1
 67
     0
278
    -2
288
     1
 68
     0
279
    -2
289
     1
 69
     0
  7
STANDARD
140
6.0
170
     5
 62
     0
 63
     7
283
     0
274
    -2
284
     1
 64
     0
275
    -2
285
     1
 65
     0
276
    -2
286
     1
 66
     0
277
    -2
287
     1
 67
     0
278
    -2
288
     1
 68
     0
279
    -2
289
     1
 69
     0
  7
STANDARD
140
4.5
170
     5
 62
     0
 63
     7
283
     0
274
    -2
284
     1
 64
     0
275
    -2
285
     1
 65
     0
276
    -2
286
     1
 66
     0
277
    -2
287
     1
 67
     0
278
    -2
288
     1
 68
     0
279
    -2
289
     1
 69
     0
  0
VISUALSTYLE
  5
8EAA
102
{ACAD_XDICTIONARY
360
F07D
102
}
102
{ACAD_REACTORS
330
8EA4
102
}
330
8EA4
100
AcDbVisualStyle
  2
2dWireframe
 70
     4
 71
     0
 72
     2
 73
     0
 90
        0
 40
-0.6
 41
-30.0
 62
     5
 63
     7
 74
     1
 91
        4
 64
     7
 65
   257
 75
     1
175
     1
 42
1.0
 92
        0
 66
   257
 43
1.0
 76
     1
 77
     6
 78
     2
 67
     7
 79
     5
170
     0
171
     0
290
     0
174
     0
 93
        1
 44
0.0
173
     0
291
     0
 45
0.0
1001
ACAD
1000
AcDbSavedByObjectVersion
1070
     0
  0
VISUALSTYLE
  5
8EAC
102
{ACAD_XDICTIONARY
360
F081
102
}
102
{ACAD_REACTORS
330
8EA4
102
}
330
8EA4
100
AcDbVisualStyle
  2
3D Hidden
 70
     6
 71
     1
 72
     2
 73
     2
 90
        0
 40
-0.6
 41
-30.0
 62
     5
 63
     7
 74
     2
 91
        2
 64
     7
 65
   257
 75
     2
175
     1
 42
40.0
 92
        0
 66
   257
 43
1.0
 76
     1
 77
     6
 78
     2
 67
     7
 79
     3
170
     0
171
     0
290
     0
174
     0
 93
        1
 44
0.0
173
     0
291
     0
 45
0.0
1001
ACAD
1000
AcDbSavedByObjectVersion
1070
     0
  0
VISUALSTYLE
  5
8EAB
102
{ACAD_XDICTIONARY
360
F07F
102
}
102
{ACAD_REACTORS
330
8EA4
102
}
330
8EA4
100
AcDbVisualStyle
  2
3dWireframe
 70
     5
 71
     0
 72
     2
 73
     0
 90
        0
 40
-0.6
 41
-30.0
 62
     5
 63
     7
 74
     1
 91
        4
 64
     7
 65
   257
 75
     1
175
     1
 42
1.0
 92
        0
 66
   257
 43
1.0
 76
     1
 77
     6
 78
     2
 67
     7
 79
     5
170
     0
171
     0
290
     0
174
     0
 93
        1
 44
0.0
173
     0
291
     0
 45
0.0
1001
ACAD
1000
AcDbSavedByObjectVersion
1070
     0
  0
VISUALSTYLE
  5
8EA9
102
{ACAD_XDICTIONARY
360
F07B
102
}
102
{ACAD_REACTORS
330
8EA4
102
}
330
8EA4
100
AcDbVisualStyle
  2
Basic
 70
     7
 71
     1
 72
     0
 73
     1
 90
        0
 40
-0.6
 41
-30.0
 62
     5
 63
     7
 74
     0
 91
        4
 64
     7
 65
   257
 75
     1
175
     1
 42
1.0
 92
        8
 66
     7
 43
1.0
 76
     1
 77
     6
 78
     2
 67
     7
 79
     5
170
     0
171
     0
290
     0
174
     0
 93
        1
 44
0.0
173
     0
291
     1
 45
0.0
1001
ACAD
1000
AcDbSavedByObjectVersion
1070
     0
  0
VISUALSTYLE
  5
8EB0
102
{ACAD_XDICTIONARY
360
F089
102
}
102
{ACAD_REACTORS
330
8EA4
102
}
330
8EA4
100
AcDbVisualStyle
  2
Brighten
 70
    12
 71
     2
 72
     2
 73
     0
 90
        0
 40
-0.6
 41
-30.0
 62
     5
 63
     7
 74
     1
 91
        4
 64
     7
 65
   257
 75
     1
175
     1
 42
1.0
 92
        8
 66
     7
 43
1.0
 76
     1
 77
     6
 78
     2
 67
     7
 79
     5
170
     0
171
     0
290
     0
174
     0
 93
        1
 44
50.0
173
     0
291
     1
 45
0.0
1001
ACAD
1000
AcDbSavedByObjectVersion
1070
     0
  0
VISUALSTYLE
  5
8EB4
102
{ACAD_XDICTIONARY
360
F091
102
}
102
{ACAD_REACTORS
330
8EA4
102
}
330
8EA4
100
AcDbVisualStyle
  2
ColorChange
 70
    16
 71
     2
 72
     2
 73
     3
 90
        0
 40
-0.6
 41
-30.0
 62
     5
 63
     8
 74
     1
 91
        4
 64
     7
 65
   257
 75
     1
175
     1
 42
1.0
 92
        8
 66
     8
 43
1.0
 76
     1
 77
     6
 78
     2
 67
     7
 79
     5
170
     0
171
     0
290
     0
174
     0
 93
        1
 44
0.0
173
     0
291
     1
 45
0.0
1001
ACAD
1000
AcDbSavedByObjectVersion
1070
     0
  0
VISUALSTYLE
  5
8EAD
102
{ACAD_XDICTIONARY
360
F083
102
}
102
{ACAD_REACTORS
330
8EA4
102
}
330
8EA4
100
AcDbVisualStyle
  2
Conceptual
 70
     9
 71
     3
 72
     2
 73
     0
 90
        0
 40
-0.6
 41
-30.0
 62
     5
 63
     7
 74
     2
 91
        2
 64
     7
 65
   257
 75
     1
175
     1
 42
40.0
 92
        8
 66
     7
 43
1.0
 76
     1
 77
     6
 78
     2
 67
     7
 79
     3
170
     0
171
     0
290
     0
174
     0
 93
        1
 44
0.0
173
     0
291
     0
 45
0.0
1001
ACAD
1000
AcDbSavedByObjectVersion
1070
     0
  0
VISUALSTYLE
  5
8EAF
102
{ACAD_XDICTIONARY
360
F087
102
}
102
{ACAD_REACTORS
330
8EA4
102
}
330
8EA4
100
AcDbVisualStyle
  2
Dim
 70
    11
 71
     2
 72
     2
 73
     0
 90
        0
 40
-0.6
 41
-30.0
 62
     5
 63
     7
 74
     1
 91
        4
 64
     7
 65
   257
 75
     1
175
     1
 42
1.0
 92
        8
 66
     7
 43
1.0
 76
     1
 77
     6
 78
     2
 67
     7
 79
     5
170
     0
171
     0
290
     0
174
     0
 93
        1
 44
-50.0
173
     0
291
     1
 45
0.0
1001
ACAD
1000
AcDbSavedByObjectVersion
1070
     0
  0
VISUALSTYLE
  5
BB4D
102
{ACAD_XDICTIONARY
360
F0A7
102
}
102
{ACAD_REACTORS
330
8EA4
102
}
330
8EA4
100
AcDbVisualStyle
  2
EdgeColorOff
 70
    22
 71
     2
 72
     2
 73
     0
 90
        0
 40
-0.6
 41
-30.0
 62
     5
 63
     7
 74
     1
 91
        4
 64
     7
 65
   257
 75
     1
175
     1
 42
1.0
 92
        8
 66
     7
 43
1.0
 76
     1
 77
     6
 78
     2
 67
     7
 79
     5
170
     0
171
     0
290
     0
174
     0
 93
        1
 44
0.0
173
     0
291
     1
 45
0.0
1001
ACAD
1000
AcDbSavedByObjectVersion
1070
     0
  0
VISUALSTYLE
  5
8EB3
102
{ACAD_XDICTIONARY
360
F08F
102
}
102
{ACAD_REACTORS
330
8EA4
102
}
330
8EA4
100
AcDbVisualStyle
  2
Facepattern
 70
    15
 71
     2
 72
     2
 73
     0
 90
        0
 40
-0.6
 41
-30.0
 62
     5
 63
     7
 74
     1
 91
        4
 64
     7
 65
   257
 75
     1
175
     1
 42
1.0
 92
        8
 66
     7
 43
1.0
 76
     1
 77
     6
 78
     2
 67
     7
 79
     5
170
     0
171
     0
290
     0
174
     0
 93
        1
 44
0.0
173
     0
291
     1
 45
0.0
1001
ACAD
1000
AcDbSavedByObjectVersion
1070
     0
  0
VISUALSTYLE
  5
8EA5
102
{ACAD_XDICTIONARY
360
F073
102
}
102
{ACAD_REACTORS
330
8EA4
102
}
330
8EA4
100
AcDbVisualStyle
  2
Flat
 70
     0
 71
     2
 72
     1
 73
     1
 90
        2
 40
-0.6
 41
30.0
 62
     5
 63
     7
 74
     0
 91
        4
 64
     7
 65
   257
 75
     1
175
     1
 42
1.0
 92
        8
 66
     7
 43
1.0
 76
     1
 77
     6
 78
     2
 67
     7
 79
     5
170
     0
171
     0
290
     0
174
     0
 93
       13
 44
0.0
173
     0
291
     1
 45
0.0
1001
ACAD
1000
AcDbSavedByObjectVersion
1070
     0
  0
VISUALSTYLE
  5
8EA6
102
{ACAD_XDICTIONARY
360
F075
102
}
102
{ACAD_REACTORS
330
8EA4
102
}
330
8EA4
100
AcDbVisualStyle
  2
FlatWithEdges
 70
     1
 71
     2
 72
     1
 73
     1
 90
        2
 40
-0.6
 41
30.0
 62
     5
 63
     7
 74
     1
 91
        4
 64
     7
 65
   257
 75
     1
175
     1
 42
1.0
 92
        0
 66
   257
 43
1.0
 76
     1
 77
     6
 78
     2
 67
     7
 79
     5
170
     0
171
     0
290
     0
174
     0
 93
       13
 44
0.0
173
     0
291
     1
 45
0.0
1001
ACAD
1000
AcDbSavedByObjectVersion
1070
     0
  0
VISUALSTYLE
  5
8EA7
102
{ACAD_XDICTIONARY
360
F077
102
}
102
{ACAD_REACTORS
330
8EA4
102
}
330
8EA4
100
AcDbVisualStyle
  2
Gouraud
 70
     2
 71
     2
 72
     2
 73
     1
 90
        2
 40
-0.6
 41
30.0
 62
     5
 63
     7
 74
     0
 91
        4
 64
     7
 65
   257
 75
     1
175
     1
 42
1.0
 92
        0
 66
     7
 43
1.0
 76
     1
 77
     6
 78
     2
 67
     7
 79
     5
170
     0
171
     0
290
     0
174
     0
 93
       13
 44
0.0
173
     0
291
     1
 45
0.0
1001
ACAD
1000
AcDbSavedByObjectVersion
1070
     0
  0
VISUALSTYLE
  5
8EA8
102
{ACAD_XDICTIONARY
360
F079
102
}
102
{ACAD_REACTORS
330
8EA4
102
}
330
8EA4
100
AcDbVisualStyle
  2
GouraudWithEdges
 70
     3
 71
     2
 72
     2
 73
     1
 90
        2
 40
-0.6
 41
30.0
 62
     5
 63
     7
 74
     1
 91
        4
 64
     7
 65
   257
 75
     1
175
     1
 42
1.0
 92
        0
 66
   257
 43
1.0
 76
     1
 77
     6
 78
     2
 67
     7
 79
     5
170
     0
171
     0
290
     0
174
     0
 93
       13
 44
0.0
173
     0
291
     1
 45
0.0
1001
ACAD
1000
AcDbSavedByObjectVersion
1070
     0
  0
VISUALSTYLE
  5
BB45
102
{ACAD_XDICTIONARY
360
F097
102
}
102
{ACAD_REACTORS
330
8EA4
102
}
330
8EA4
100
AcDbVisualStyle
  2
Hidden
 70
     6
 71
     1
 72
     2
 73
     2
 90
        0
 40
-0.6
 41
-30.0
 62
     5
 63
     7
 74
     2
 91
        2
 64
     7
 65
   257
 75
     2
175
     1
 42
40.0
 92
        0
 66
   257
 43
1.0
 76
     1
 77
     6
 78
     2
 67
     7
 79
     3
170
     0
171
     0
290
     0
174
     0
 93
        1
 44
0.0
173
     0
291
     0
 45
0.0
1001
ACAD
1000
AcDbSavedByObjectVersion
1070
     0
  0
VISUALSTYLE
  5
BB4B
102
{ACAD_XDICTIONARY
360
F0A3
102
}
102
{ACAD_REACTORS
330
8EA4
102
}
330
8EA4
100
AcDbVisualStyle
  2
JitterOff
 70
    20
 71
     2
 72
     2
 73
     0
 90
        0
 40
-0.6
 41
-30.0
 62
     5
 63
     7
 74
     1
 91
        4
 64
     7
 65
   257
 75
     1
175
     1
 42
1.0
 92
       10
 66
     7
 43
1.0
 76
     1
 77
     6
 78
     2
 67
     7
 79
     5
170
     0
171
     0
290
     0
174
     0
 93
        1
 44
0.0
173
     0
291
     1
 45
0.0
1001
ACAD
1000
AcDbSavedByObjectVersion
1070
     0
  0
VISUALSTYLE
  5
8EB2
102
{ACAD_XDICTIONARY
360
F08D
102
}
102
{ACAD_REACTORS
330
8EA4
102
}
330
8EA4
100
AcDbVisualStyle
  2
Linepattern
 70
    14
 71
     2
 72
     2
 73
     0
 90
        0
 40
-0.6
 41
-30.0
 62
     5
 63
     7
 74
     1
 91
        4
 64
     7
 65
   257
 75
     7
175
     7
 42
1.0
 92
        8
 66
     7
 43
1.0
 76
     1
 77
     6
 78
     2
 67
     7
 79
     5
170
     0
171
     0
290
     0
174
     0
 93
        1
 44
0.0
173
     0
291
     1
 45
0.0
1001
ACAD
1000
AcDbSavedByObjectVersion
1070
     0
  0
VISUALSTYLE
  5
BB4C
102
{ACAD_XDICTIONARY
360
F0A5
102
}
102
{ACAD_REACTORS
330
8EA4
102
}
330
8EA4
100
AcDbVisualStyle
  2
OverhangOff
 70
    21
 71
     2
 72
     2
 73
     0
 90
        0
 40
-0.6
 41
-30.0
 62
     5
 63
     7
 74
     1
 91
        4
 64
     7
 65
   257
 75
     1
175
     1
 42
1.0
 92
        9
 66
     7
 43
1.0
 76
     1
 77
     6
 78
     2
 67
     7
 79
     5
170
     0
171
     0
290
     0
174
     0
 93
        1
 44
0.0
173
     0
291
     1
 45
0.0
1001
ACAD
1000
AcDbSavedByObjectVersion
1070
     0
  0
VISUALSTYLE
  5
8EAE
102
{ACAD_XDICTIONARY
360
F085
102
}
102
{ACAD_REACTORS
330
8EA4
102
}
330
8EA4
100
AcDbVisualStyle
  2
Realistic
 70
     8
 71
     2
 72
     2
 73
     0
 90
        0
 40
-0.6
 41
-30.0
 62
     5
 63
     7
 74
     1
 91
        0
 64
     7
 65
   257
 75
     1
175
     1
 42
1.0
 92
        8
 66
     8
 43
1.0
 76
     1
 77
     6
 78
     2
 67
     7
 79
     5
170
     0
171
     0
290
     0
174
     0
 93
       13
 44
0.0
173
     0
291
     0
 45
0.0
1001
ACAD
1000
AcDbSavedByObjectVersion
1070
     0
  0
VISUALSTYLE
  5
BB4A
102
{ACAD_XDICTIONARY
360
F0A1
102
}
102
{ACAD_REACTORS
330
8EA4
102
}
330
8EA4
100
AcDbVisualStyle
  2
Shaded
 70
    27
 71
     2
 72
     2
 73
     1
 90
        2
 40
-0.6
 41
30.0
 62
     5
 63
     7
 74
     0
 91
        4
 64
     7
 65
   257
 75
     1
175
     1
 42
1.0
 92
        8
 66
   257
 43
1.0
 76
     1
 77
     6
 78
     2
 67
     8
 79
     3
170
     0
171
     0
290
     0
174
     0
 93
        5
 44
0.0
173
     0
291
     0
 45
0.0
1001
ACAD
1000
AcDbSavedByObjectVersion
1070
     0
  0
VISUALSTYLE
  5
BB49
102
{ACAD_XDICTIONARY
360
F09F
102
}
102
{ACAD_REACTORS
330
8EA4
102
}
330
8EA4
100
AcDbVisualStyle
  2
Shaded with edges
 70
    26
 71
     2
 72
     2
 73
     1
 90
        2
 40
-0.6
 41
30.0
 62
     5
 63
     7
 74
     1
 91
       10
 64
     7
 65
   257
 75
     2
175
     1
 42
1.0
 92
        8
 66
   257
 43
1.0
 76
     1
 77
     6
 78
     2
 67
     7
 79
     3
170
     0
171
     0
290
     0
174
     0
 93
        5
 44
0.0
173
     0
291
     0
 45
0.0
1001
ACAD
1000
AcDbSavedByObjectVersion
1070
     0
  0
VISUALSTYLE
  5
BB46
102
{ACAD_XDICTIONARY
360
F099
102
}
102
{ACAD_REACTORS
330
8EA4
102
}
330
8EA4
100
AcDbVisualStyle
  2
Shades of Gray
 70
    23
 71
     2
 72
     2
 73
     3
 90
        0
 40
-0.6
 41
-30.0
 62
     5
 63
     7
 74
     2
 91
        2
 64
     7
 65
     7
 75
     1
175
     1
 42
40.0
 92
        8
 66
     7
 43
1.0
 76
     1
 77
     6
 78
     2
 67
     7
 79
     3
170
     0
171
     0
290
     0
174
     0
 93
        1
 44
0.0
173
     0
291
     0
 45
0.0
1001
ACAD
1000
AcDbSavedByObjectVersion
1070
     0
  0
VISUALSTYLE
  5
BB47
102
{ACAD_XDICTIONARY
360
F09B
102
}
102
{ACAD_REACTORS
330
8EA4
102
}
330
8EA4
100
AcDbVisualStyle
  2
Sketchy
 70
    24
 71
     1
 72
     2
 73
     2
 90
        0
 40
-0.6
 41
-30.0
 62
     5
 63
     7
 74
     2
 91
        2
 64
     7
 65
     7
 75
     1
175
     1
 42
40.0
 92
       11
 66
     7
 43
1.0
 76
     1
 77
     6
 78
     2
 67
     7
 79
     6
170
     0
171
     0
290
     0
174
     0
 93
        1
 44
0.0
173
     0
291
     0
 45
0.0
1001
ACAD
1000
AcDbSavedByObjectVersion
1070
     0
  0
VISUALSTYLE
  5
8EB1
102
{ACAD_XDICTIONARY
360
F08B
102
}
102
{ACAD_REACTORS
330
8EA4
102
}
330
8EA4
100
AcDbVisualStyle
  2
Thicken
 70
    13
 71
     2
 72
     2
 73
     0
 90
        0
 40
-0.6
 41
-30.0
 62
     5
 63
     7
 74
     1
 91
        4
 64
     7
 65
   257
 75
     1
175
     1
 42
1.0
 92
       12
 66
     7
 43
1.0
 76
     1
 77
     6
 78
     2
 67
     7
 79
     5
170
     0
171
     0
290
     0
174
     0
 93
        1
 44
0.0
173
     0
291
     1
 45
0.0
1001
ACAD
1000
AcDbSavedByObjectVersion
1070
     0
  0
VISUALSTYLE
  5
BB44
102
{ACAD_XDICTIONARY
360
F095
102
}
102
{ACAD_REACTORS
330
8EA4
102
}
330
8EA4
100
AcDbVisualStyle
  2
Wireframe
 70
     5
 71
     0
 72
     2
 73
     0
 90
        0
 40
-0.6
 41
-30.0
 62
     5
 63
     7
 74
     1
 91
        4
 64
     7
 65
   257
 75
     1
175
     1
 42
1.0
 92
        0
 66
   257
 43
1.0
 76
     1
 77
     6
 78
     2
 67
     7
 79
     3
170
     0
171
     0
290
     0
174
     0
 93
        1
 44
0.0
173
     0
291
     0
 45
0.0
1001
ACAD
1000
AcDbSavedByObjectVersion
1070
     0
  0
VISUALSTYLE
  5
BB48
102
{ACAD_XDICTIONARY
360
F09D
102
}
102
{ACAD_REACTORS
330
8EA4
102
}
330
8EA4
100
AcDbVisualStyle
  2
X-Ray
 70
    25
 71
     2
 72
     2
 73
     1
 90
        1
 40
0.5
 41
-30.0
 62
     5
 63
     7
 74
     1
 91
        0
 64
     7
 65
   257
 75
     1
175
     1
 42
1.0
 92
        8
 66
     7
 43
1.0
 76
     1
 77
     6
 78
     2
 67
     7
 79
     3
170
     0
171
     0
290
     0
174
     0
 93
       13
 44
0.0
173
     0
291
     0
 45
0.0
1001
ACAD
1000
AcDbSavedByObjectVersion
1070
     0
  0
DICTIONARYVAR
  5
8F01
102
{ACAD_REACTORS
330
86EE
102
}
330
86EE
100
DictionaryVariables
280
     0
  1
1:1
  0
DICTIONARYVAR
  5
8EFF
102
{ACAD_REACTORS
330
86EE
102
}
330
86EE
100
DictionaryVariables
280
     0
  1
STANDARD
  0
DICTIONARYVAR
  5
86EF
102
{ACAD_REACTORS
330
86EE
102
}
330
86EE
100
DictionaryVariables
280
     0
  1
STANDARD
  0
DICTIONARYVAR
  5
F060
102
{ACAD_REACTORS
330
86EE
102
}
330
86EE
100
DictionaryVariables
280
     0
  1
Metric50
  0
DICTIONARYVAR
  5
F061
102
{ACAD_REACTORS
330
86EE
102
}
330
86EE
100
DictionaryVariables
280
     0
  1
Metric50
  0
DICTIONARYVAR
  5
F065
102
{ACAD_REACTORS
330
86EE
102
}
330
86EE
100
DictionaryVariables
280
     0
  1
1
  0
DICTIONARYVAR
  5
F063
102
{ACAD_REACTORS
330
86EE
102
}
330
86EE
100
DictionaryVariables
280
     0
  1
0
  0
DICTIONARYVAR
  5
A129
102
{ACAD_REACTORS
330
86EE
102
}
330
86EE
100
DictionaryVariables
280
     0
  1
1
  0
DICTIONARYVAR
  5
A12A
102
{ACAD_REACTORS
330
86EE
102
}
330
86EE
100
DictionaryVariables
280
     0
  1
15
  0
DICTIONARYVAR
  5
8F02
102
{ACAD_REACTORS
330
86EE
102
}
330
86EE
100
DictionaryVariables
280
     0
  1
0
  0
DICTIONARYVAR
  5
8F00
102
{ACAD_REACTORS
330
86EE
102
}
330
86EE
100
DictionaryVariables
280
     0
  1
0
  0
DICTIONARYVAR
  5
F066
102
{ACAD_REACTORS
330
86EE
102
}
330
86EE
100
DictionaryVariables
280
     0
  1
1
  0
DICTIONARYVAR
  5
F062
102
{ACAD_REACTORS
330
86EE
102
}
330
86EE
100
DictionaryVariables
280
     0
  1
127
  0
DICTIONARYVAR
  5
F064
102
{ACAD_REACTORS
330
86EE
102
}
330
86EE
100
DictionaryVariables
280
     0
  1
0
  0
DICTIONARY
  5
8516
102
{ACAD_REACTORS
330
850B
102
}
330
850B
100
AcDbDictionary
281
     1
  0
XRECORD
  5
8533
102
{ACAD_REACTORS
330
850B
102
}
330
850B
100
AcDbXrecord
280
     1
 90
-1023410169
  0
XRECORD
  5
F05F
102
{ACAD_REACTORS
330
F05D
102
}
330
F05D
100
AcDbXrecord
280
     1
330
EFA3
330
EE09
330
EE0A
330
EFCA
330
EFCB
  0
DICTIONARY
  5
F0AB
330
F031
100
AcDbDictionary
280
     1
281
     1
  3
ACAD_XREC_ROUNDTRIP
360
F0AC
  0
DICTIONARY
  5
E108
330
4B7
100
AcDbDictionary
280
     1
281
     1
  3
ACAD_XREC_ROUNDTRIP
360
F06C
  3
ADSK_XREC_LAYOUTTHUMBNAIL
360
E109
  0
DICTIONARY
  5
F06D
330
4B8
100
AcDbDictionary
280
     1
281
     1
  3
ACAD_XREC_ROUNDTRIP
360
F06E
  0
DICTIONARY
  5
8E95
330
8E94
100
AcDbDictionary
280
     1
281
     1
  3
ACAD_XREC_ROUNDTRIP
360
F071
  3
BUMPTILE
360
8E97
  3
DIFFUSETILE
360
8E96
  3
OPACITYTILE
360
8E9A
  3
REFLECTIONTILE
360
8E99
  3
REFRACTIONTILE
360
8E9B
  3
SPECULARTILE
360
8E98
  0
DICTIONARY
  5
8E8D
330
8E8C
100
AcDbDictionary
280
     1
281
     1
  3
ACAD_XREC_ROUNDTRIP
360
F070
  3
BUMPTILE
360
8E8F
  3
DIFFUSETILE
360
8E8E
  3
OPACITYTILE
360
8E92
  3
REFLECTIONTILE
360
8E91
  3
REFRACTIONTILE
360
8E93
  3
SPECULARTILE
360
8E90
  0
DICTIONARY
  5
8E9D
330
8E9C
100
AcDbDictionary
280
     1
281
     1
  3
ACAD_XREC_ROUNDTRIP
360
F072
  3
BUMPTILE
360
8E9F
  3
DIFFUSETILE
360
8E9E
  3
OPACITYTILE
360
8EA2
  3
REFLECTIONTILE
360
8EA1
  3
REFRACTIONTILE
360
8EA3
  3
SPECULARTILE
360
8EA0
  0
DICTIONARY
  5
F093
330
8ED8
100
AcDbDictionary
280
     1
281
     1
  3
ACAD_XREC_ROUNDTRIP
360
F094
  0
DICTIONARY
  5
F0A9
330
F02F
100
AcDbDictionary
280
     1
281
     1
  3
ACAD_XREC_ROUNDTRIP
360
F0AA
  0
DICTIONARY
  5
8EFC
330
84A9
100
AcDbDictionary
280
     1
281
     1
  3
ACAD_ROUNDTRIP_2008_TABLESTYLE_CELLSTYLEMAP
360
F067
  3
ACAD_XREC_ROUNDTRIP
360
F06F
  0
DICTIONARY
  5
F07D
330
8EAA
100
AcDbDictionary
280
     1
281
     1
  3
ACAD_XREC_ROUNDTRIP
360
F07E
  0
DICTIONARY
  5
F081
330
8EAC
100
AcDbDictionary
280
     1
281
     1
  3
ACAD_XREC_ROUNDTRIP
360
F082
  0
DICTIONARY
  5
F07F
330
8EAB
100
AcDbDictionary
280
     1
281
     1
  3
ACAD_XREC_ROUNDTRIP
360
F080
  0
DICTIONARY
  5
F07B
330
8EA9
100
AcDbDictionary
280
     1
281
     1
  3
ACAD_XREC_ROUNDTRIP
360
F07C
  0
DICTIONARY
  5
F089
330
8EB0
100
AcDbDictionary
280
     1
281
     1
  3
ACAD_XREC_ROUNDTRIP
360
F08A
  0
DICTIONARY
  5
F091
330
8EB4
100
AcDbDictionary
280
     1
281
     1
  3
ACAD_XREC_ROUNDTRIP
360
F092
  0
DICTIONARY
  5
F083
330
8EAD
100
AcDbDictionary
280
     1
281
     1
  3
ACAD_XREC_ROUNDTRIP
360
F084
  0
DICTIONARY
  5
F087
330
8EAF
100
AcDbDictionary
280
     1
281
     1
  3
ACAD_XREC_ROUNDTRIP
360
F088
  0
DICTIONARY
  5
F0A7
330
BB4D
100
AcDbDictionary
280
     1
281
     1
  3
ACAD_XREC_ROUNDTRIP
360
F0A8
  0
DICTIONARY
  5
F08F
330
8EB3
100
AcDbDictionary
280
     1
281
     1
  3
ACAD_XREC_ROUNDTRIP
360
F090
  0
DICTIONARY
  5
F073
330
8EA5
100
AcDbDictionary
280
     1
281
     1
  3
ACAD_XREC_ROUNDTRIP
360
F074
  0
DICTIONARY
  5
F075
330
8EA6
100
AcDbDictionary
280
     1
281
     1
  3
ACAD_XREC_ROUNDTRIP
360
F076
  0
DICTIONARY
  5
F077
330
8EA7
100
AcDbDictionary
280
     1
281
     1
  3
ACAD_XREC_ROUNDTRIP
360
F078
  0
DICTIONARY
  5
F079
330
8EA8
100
AcDbDictionary
280
     1
281
     1
  3
ACAD_XREC_ROUNDTRIP
360
F07A
  0
DICTIONARY
  5
F097
330
BB45
100
AcDbDictionary
280
     1
281
     1
  3
ACAD_XREC_ROUNDTRIP
360
F098
  0
DICTIONARY
  5
F0A3
330
BB4B
100
AcDbDictionary
280
     1
281
     1
  3
ACAD_XREC_ROUNDTRIP
360
F0A4
  0
DICTIONARY
  5
F08D
330
8EB2
100
AcDbDictionary
280
     1
281
     1
  3
ACAD_XREC_ROUNDTRIP
360
F08E
  0
DICTIONARY
  5
F0A5
330
BB4C
100
AcDbDictionary
280
     1
281
     1
  3
ACAD_XREC_ROUNDTRIP
360
F0A6
  0
DICTIONARY
  5
F085
330
8EAE
100
AcDbDictionary
280
     1
281
     1
  3
ACAD_XREC_ROUNDTRIP
360
F086
  0
DICTIONARY
  5
F0A1
330
BB4A
100
AcDbDictionary
280
     1
281
     1
  3
ACAD_XREC_ROUNDTRIP
360
F0A2
  0
DICTIONARY
  5
F09F
330
BB49
100
AcDbDictionary
280
     1
281
     1
  3
ACAD_XREC_ROUNDTRIP
360
F0A0
  0
DICTIONARY
  5
F099
330
BB46
100
AcDbDictionary
280
     1
281
     1
  3
ACAD_XREC_ROUNDTRIP
360
F09A
  0
DICTIONARY
  5
F09B
330
BB47
100
AcDbDictionary
280
     1
281
     1
  3
ACAD_XREC_ROUNDTRIP
360
F09C
  0
DICTIONARY
  5
F08B
330
8EB1
100
AcDbDictionary
280
     1
281
     1
  3
ACAD_XREC_ROUNDTRIP
360
F08C
  0
DICTIONARY
  5
F095
330
BB44
100
AcDbDictionary
280
     1
281
     1
  3
ACAD_XREC_ROUNDTRIP
360
F096
  0
DICTIONARY
  5
F09D
330
BB48
100
AcDbDictionary
280
     1
281
     1
  3
ACAD_XREC_ROUNDTRIP
360
F09E
  0
XRECORD
  5
F0AC
102
{ACAD_REACTORS
330
F0AB
102
}
330
F0AB
100
AcDbXrecord
280
     1
102
DISPLAYNAME
  1
Metric50
102
FLAGS
 90
        0
  0
XRECORD
  5
F06C
102
{ACAD_REACTORS
330
E108
102
}
330
E108
100
AcDbXrecord
280
     1
102
SHADEPLOT
 70
     0
102
SHADEPLOTRESLEVEL
 70
     2
102
SHADEPLOTCUSTOMDPI
 70
   300
  0
XRECORD
  5
E109
102
{ACAD_REACTORS
330
E108
102
}
330
E108
100
AcDbXrecord
280
     1
310
280000000001000087000000010008000000000000870000000000000000000000010000000000003028210000000000C8C8C8000000000000000000000000000000000000000000000000000000000000000000330000006600000099000000CC000000FF00000000330000333300006633000099330000CC330000FF3300
310
0000660000336600006666000099660000CC660000FF66000000990000339900006699000099990000CC990000FF99000000CC000033CC000066CC000099CC0000CCCC0000FFCC000000FF000033FF000066FF000099FF0000CCFF0000FFFF000000003300330033006600330099003300CC003300FF003300003333003333
310
33006633330099333300CC333300FF33330000663300336633006666330099663300CC663300FF66330000993300339933006699330099993300CC993300FF99330000CC330033CC330066CC330099CC3300CCCC3300FFCC330000FF330033FF330066FF330099FF3300CCFF3300FFFF330000006600330066006600660099
310
006600CC006600FF00660000336600333366006633660099336600CC336600FF33660000666600336666006666660099666600CC666600FF66660000996600339966006699660099996600CC996600FF99660000CC660033CC660066CC660099CC6600CCCC6600FFCC660000FF660033FF660066FF660099FF6600CCFF6600
310
FFFF660000009900330099006600990099009900CC009900FF00990000339900333399006633990099339900CC339900FF33990000669900336699006666990099669900CC669900FF66990000999900339999006699990099999900CC999900FF99990000CC990033CC990066CC990099CC9900CCCC9900FFCC990000FF99
310
0033FF990066FF990099FF9900CCFF9900FFFF99000000CC003300CC006600CC009900CC00CC00CC00FF00CC000033CC003333CC006633CC009933CC00CC33CC00FF33CC000066CC003366CC006666CC009966CC00CC66CC00FF66CC000099CC003399CC006699CC009999CC00CC99CC00FF99CC0000CCCC0033CCCC0066CC
310
CC0099CCCC00CCCCCC00FFCCCC0000FFCC0033FFCC0066FFCC0099FFCC00CCFFCC00FFFFCC000000FF003300FF006600FF009900FF00CC00FF00FF00FF000033FF003333FF006633FF009933FF00CC33FF00FF33FF000066FF003366FF006666FF009966FF00CC66FF00FF66FF000099FF003399FF006699FF009999FF00CC
310
99FF00FF99FF0000CCFF0033CCFF0066CCFF0099CCFF00CCCCFF00FFCCFF0000FFFF0033FFFF0066FFFF0099FFFF00CCFFFF00FFFFFF00000000000D0D0D001A1A1A00282828003535350043434300505050005D5D5D006B6B6B00787878008686860093939300A1A1A100AEAEAE00BBBBBB00C9C9C900D6D6D600E4E4E400
310
F1F1F100FFFFFF000000000000000000000000000000000000000000000000000000000000000000000000000000000000000000000000000000000000000000000000000000000000000000000000000000000000000000000000000000000000000000000000000000000000000000000000000000000000000000000000
310
00000000000000000000000000000000000000000000000000000000000000000000000000000000000000000000000000000000000000000000000000000000000000000000000000000000000000000000000000000000000000000000000000000000000000000000000000000000000000000000000000000000000000
310
00000000000000000000000000000000000000000000000000000000000000000000000000000000000000000000000000000000000000000000000000000000000000000000000000000000000000000000000000000000000000000000000000000000000000000000000000000000000000000000000000000000000000
310
00000000000000000000000000000000000000000000000000000000000000000000000000000000000000000000000000000000000000000000000000000000000000000000000000000000000000000000000000000000000000000000000000000000000000000000000000000000000000000000000000000000000000
310
00000000000000000000000000000000000000000000000000000000000000000000000000000000000000000000000000000000000000000000000000000000000000000000000000000000000000000000000000000000000000000000000000000000000000000000000000000000000000000000000000000000000000
310
00000000000000000000000000000000000000000000000000000000000000000000000000000000000000000000000000000000000000000000000000000000000000000000000000000000000000000000000000000000000000000000000000000000000000000000000000000000000000000000000000000000000000
310
00000000000000000000000000000000000000000000000000000000000000000000000000000000000000000000000000000000000000000000000000000000000000000000000000000000000000000000000000000000000000000000000000000000000000000000000000000000000000000000000000000000000000
310
00000000000000000000000000000000000000000000000000000000000000000000000000000000000000000000000000000000000000000000000000000000000000000000000000000000000000000000000000000000000000000000000000000000000000000000000000000000000000000000000000000000000000
310
00000000000000000000000000000000000000000000000000000000000000000000000000000000000000000000000000000000000000000000000000000000000000000000000000000000000000000000000000000000000000000000000000000000000000000000000000000000000000000000000000000000000000
310
00000000000000000000000000000000000000000000000000000000000000000000000000000000000000000000000000000000000000000000000000000000000000000000000000000000000000000000000000000000000000000000000000000000000000000000000000000000000000000000000000000000000000
310
00000000000000000000000000000000000000000000000000000000000000000000000000000000000000000000000000000000000000000000000000000000000000000000000000000000000000000000000000000000000000000000000000000000000000000000000000000000000000000000000000000000000000
310
00000000000000000000000000000000000000000000000000000000000000000000000000000000000000000000000000000000000000000000000000000000000000000000000000000000000000000000000000000000000000000000000000000000000000000000000000000000000000000000000000000000000000
310
00000000000000000000000000000000000000000000000000000000000000000000000000000000000000000000000000000000000000000000000000000000000000000000000000000000000000000000000000000000000000000000000000000000000000000000000000000000000000000000000000000000000000
310
00000000000000000000000000000000000000000000000000000000000000000000000000000000000000000000000000000000000000000000000000000000000000000000000000000000000000000000000000000000000000000000000000000000000000000000000000000000000000000000000000000000000000
310
00000000000000000000000000000000000000000000000000000000000000000000000000000000000000000000000000000000000000000000000000000000000000000000000000000000000000000000000000000000000000000000000000000000000000000000000000000000000000000000000000000000000000
310
00000000000000000000000000000000000000000000000000000000000000000000000000000000000000000000000000000000000000000000000000000000000000000000000000000000000000000000000000000000000000000000000000000000000000000000000000000000000000000000000000000000000000
310
00000000000000000000000000000000000000000000000000000000000000000000000000000000000000000000000000000000000000000000000000000000000000000000000000000000000000000000000000000000000000000000000000000000000000000000000000000000000000000000000000000000000000
310
00000000000000000000000000000000000000000000000000000000000000000000000000000000000000000000000000000000000000000000000000000000000000000000000000000000000000000000000000000000000000000000000000000000000000000000000000000000000000000000000000000000000000
310
00000000000000000000000000000000000000000000000000000000000000000000000000000000000000000000000000000000000000000000000000000000000000000000000000000000000000000000000000000000000000000000000000000000000000000000000000000000000000000000000000000000000000
310
00000000000000000000000000000000000000000000000000000000000000000000000000000000000000000000000000000000000000000000000000000000000000000000000000000000000000000000000000000000000000000000000000000000000000000000000000000000000000000000000000000000000000
310
00000000000000000000000000000000000000000000000000000000000000000000000000000000000000000000000000000000000000000000000000000000000000000000000000000000000000000000000000000000000000000000000000000000000000000000000000000000000000000000000000000000000000
310
00000000000000000000000000000000000000000000000000000000000000000000000000000000000000000000000000000000000000000000000000000000000000000000000000000000000000000000000000000000000000000000000000000000000000000000000000000000000000000000000000000000000000
310
00000000000000000000000000000000000000000000000000000000000000000000000000000000000000000000000000000000000000000000000000000000000000000000000000000000000000000000000000000000000000000000000000000000000000000000000000000000000000000000000000000000000000
310
00000000000000000000000000000000000000000000000000000000000000000000000000000000000000000000000000000000000000000000000000000000000000000000000000000000000000000000000000000000000000000000000000000000000000000000000000000000000000000000000000000000000000
310
00000000000000000000000000000000000000000000000000000000000000000000000000000000000000000000000000000000000000000000000000000000000000000000000000000000000000000000000000000000000000000000000000000000000000000000000000000000000000000000000000000000000000
310
00000000000000000000000000000000000000000000000000000000000000000000000000000000000000000000000000000000000000000000000000000000000000000000000000000000000000000000000000000000000000000000000000000000000000000000000000000000000000000000000000000000000000
310
00000000000000000000000000000000000000000000000000000000000000000000000000000000000000000000000000000000000000000000000000000000000000000000000000000000000000000000000000000000000000000000000000000000000000000000000000000000000000000000000000000000000000
310
000000000000000000000000000000000000000000000000000000000000000000000000000000000000000000000000000000000000000000000000000000000000000000000000000000000000000000000000000000000000000000002D0000000000000000000000000000000000000000000000000000000000000000
310
0000000000000000000000000000000000000000000000000000000000000000000000000000000000000000000000000000000000000000000000000000000000000000000000000000000000000000000000000000000000000000000000000000000000000000000000000000002D000000000000000000000000000000
310
00000000000000000000000000000000000000000000000000000000000000000000000000000000000000000000000000000000000000000000000000000000000000000000000000000000000000000000000000000000000000000000282828282828000000000000000000000000000000000000000000000000000000
310
00000000000000000000000000000000000000000000000000000000000000000000000000000000000000000000000000000000000000000000000000000000000000000000000000000000000000000000000000000000000000000000000000000000000000000000000000000000F5F5F5F50000000000000000000000
310
00000000000000000000000000000000000000000000000000000000000000000000000000000000000000000000000000000000000000000000F5F5F5F5F5F5F5F500000000F5F5F5F5F5F5F5F5F5F5F5F5F5F5F5F5F500000000000000000028282828282800000000000000000000000000000000000000000000000000
310
0000000000000000000000000000000000000000000000000000000000000000000000000000000000000000000000000000000000000000000000000000000000000000000000000000000000000000000000000000000000000000000000000000000000000000000000F5F5F5F5F5F5F5002D0000F5F5F5F5F5F5F50000
310
000000000000000000000000000000000000000000000000000000000000000000000000000000000000000000000000000000000000000000000000F5000000000000F500000000F5000000000000000000000000000000F50000000000000000000028282800000000000000000000000000000000000000000000000000
310
0000000000000000000000000000000000000000000000000000000000000000000000000000000000000000000000000000000000000000000000000000000000000000000000000000000000000000000000000000000000000000000000000000000000000000000000F5F500000000000000002D000000000000000000
310
F5F5000000000000000000000000000000000000000000000000000000000000000000000000000000000000000000000000000000000000000000000000F5000000000000F5F5F5F5F5F5000000000000000000000000000000F500000000000000000000282D280000000000000000000000000000000000000000000000
310
0000000000000000000000000000000000000000000000000000000000000000000000000000000000000000000000000000000000000000000000000000000000000000000000000000000000000000000000000000000000000000000000000000000000000000000000F5F500000000000000000000F5F5000000000000
310
00000000F5F5000000000000000000000000000000000000000000000000000000002828282828000000000000000000000000000000000000000000F5F5F5F5F5000000000000F5F50000F5F5000000000000000000000000000000F500000000000000000000282D28000000000000000000000000000000000000000000
310
0000000000000000000000000000000000000000000000000000000000000000000000000000000000000000000000000000000000000000000000000000000000000000000000000000000000000000000000000000000000000000000000000000000000000000000000F5F500000000000000000000F5F52D00F5F50000
310
0000000000000000F5F500000000000000000000000000000000000000000000000000002800000028000000000000000000000000000000000000000000F5000000F5000000000000F5F50000F5F5000000000000000000000000000000F500000000000000000000282D2800000000000000000000000000000000000000
310
0000000000000000000000000000000000000000000000000000000000000000000000000000000000000000000000000000000000000000000000000000000000000000000000000000000000000000000000000000000000000000000000000000000000000000000000F5F500000000000000000000F5F500002D000000
310
F5F500000000000000000000F5F50000000000000000000000000000000000000000000000002828282828282828282828282800000000000000000000000000F5F5F5F5F5000000000000F5F50000F5F5000000000000000000000000000000F5000000000000000000282828282800000000000000000000000000000000
310
0000000000000000000000000000000000000000000000000000000000000000000000000000000000000000000000000000000000000000000000002D00000000000000000000000000000000000000000000000000000000000000000000000000000000000000000000F5F5000000000000000000000000F50000002D00
310
000000F5000000000000000000000000F5F5000000000000000000000000000000000000000000002800000028000000000000000000000000000000000000000000F5000000F5000000000000F5F50000F5F5000000000000000000000000000000F50000000000000000002800280028000000000000000000000000002D
310
00000000000000000000000000000000000000000000000000000000000000000000000000000000000000000000000000000000000000000000000000002D0000000000000000000000000000000000000000000000000000000000000000000000000000000000000000F5F50000000000000000000000000000F5000000
310
2D00000000F50000000000000000000000000000F5F500000000000000000000000000000000000000002800000028000000000000000000000000000000000000000000F5000000F5000000000000F5F50000F5F5000000000000000000000000000000F5000000000000F5F5F52828282828F5F5F5F5F5F5F5F5F5F5F528
310
282D28F5F5000000000000000000000000000000000000000000000000000000000000000000000000000000000000000000000000000000000000F5F5F5F5F5F5F5F5F5F5F50000000000000000000000000000000000000000000000000000000000000000000000000000F500000000000000000000000000002D2D2D2D
310
2D2D2D2D2D2D2D2D2D000000000000000000000000000000F5000000000000000000000000000000000000002800000028000000000000000000000000000000000000000000F52D2D2D2D2D2D2D2D2D2DF5F52D2DF52D2D2D2D2D2D2D2D2D2D2D2D2D2D2D2D2D00000000F5F50000000000000000F5F50000000000000000
310
0028282D280000F5F5000000000000000000000000000000000000000000000000000000000000000000000000000000000000000000000000F5F5F5F5F5F5F5F5F5F5F5F5F5F5F5F5F5F5F5000000000000000000000000000000000000000000000000000000000000000000F50000000000000000000000002D2D2D2D00
310
F50000002D00000000F5002D2D2D00000000000000000000000000F50000000000000000000000000000000000002800000028000000000000000000000000000000000000000000F5000000F5000000000000F5F50000F5F5000000000000000000000000000000F5000000F5000000000000000000000000000000000000
310
00000028282D2800000000F5000000000000000000000000000000000000000000000000000000000000000000000000000000000000000000F5F500F5F5F500000000002D0000000000F5F5F500F5F5000000000000000000000000000000000000000000000000000000000000F50000000000000000000000002D2D0000
310
0000F50000002D00000000F5000000002D2D2D0000000000000000000000F500000000000000000000000000000000002828282828000000000000000000000000000000000000000000F5F5F5F5F5000000000000F5F50000F5F5000000000000000000000000000000F5F5F5F5F500000000000000000000000000000000
310
000000000028282D2800000000F500000000000000000000000000000000000000000000000000000000000000000000000000000000000000F5F5F5F5F500000000000000002D0000000000000000F5F5F5F5F5000000000000000000000000000000000000000000000000000000F5000000000000000000002D2D2D0000
310
0000000000F500002D0000F5F5000000000000002D2D0000000000000000000000F5000000000000000000000000000000002800000028282828282828282800000000000000000000000000F5000000F5000000000000F5F50000F5F5000000000000000000000000000000F5000000F50000000000000000000000000000
310
0000000000000028282D2800000000F50000000000000000000000000000000000000000000000000000000000000000000000000000000000F5F5F5F500000000000000000000002D0000000000000000000000F5F5F5F5000000000000000000000000000000000000000000000000F50000000000000000002D2D000000
310
0000000000000000F5F52DF5F500000000000000000000002D2D2D000000000000000000F50000000000000000000000000000002800000028000000000000000000000000000000000000000000F5000000F5000000000000F5F50000F5F5000000000000000000000000000000F500000000000000000000000000000000
310
0000000000000000002828282800000000F5000000000000000000000000000000000000000000000000000000000000000000000000000000F5F500F5000000000000000000000000002D00000000000000000000000000F500F5F5000000000000000000000000000000000000000000F5000000000000000000002D0000
310
000000000000000000000000F5000000000000000000000000000000002D000000000000000000F500000000000000000000000000002828282828000000000000000000000000000000000000000000F5F5F5F5F5000000000000F5F50000F5F5000000000000000000000000000000F50000000000000000000000000000
310
000000000000000000000000002D0000000000F50000000000000000000000000000000000000000000000000000000000000000000000000000F500F5F500000000000000000000000000002D0000000000000000000000000000F5F500F500000000000000000000000000000000000000F50000000000000000002D2D00
310
00000000000000000000F5F5F5F5F5F5F5F5F5F500000000000000000000002D2D000000000000000000F5000000000000000000000000000000000000000000000000000000F5F5F5F5F5F5F5F5F5F5F5F5F5F5F5F5F5000000000000F5F50000F5F5000000000000000000000000000000F5000000000000000000000000
310
000000000000000000000000000000000000000000F50000000000000000000000000000000000000000000000000000000000000000000000002DF5C3F5000000000000000000000000000000002D00000000000000000000000000000000F5C3F52D0000000000000000000000000000000000F500000000000000002D2D
310
00000000000000000000F5F5000000002D0000000000F5F5000000000000000000002D00000000000000000000F50000000000000000000000000000000000000000000000000000F500000000000000000000000000000000000000000000F5F50000F5F5000000000000000000000000000000F500000000000000000000
310
0000000000000000000000000000000000000000000000F5000000000000000000000000000000000000000000000000000000000000000000000000C3F5F5C3000000000000000000000000000000002D00000000000000000000000000000000C3C32DC300000000000000000000000000000000F5000000000000000000
310
2D000000000000000000F5F50000000000002D00000000000000F5F50000000000000000002D2D0000000000000000F50000000000000000000000000000000000000000000000000000F500000000000000000000000000000000000000000000F5F50000F5F50000000000000000F5F5F5F5F5F5F5F50000000000000000
310
00000000000000000000000000000000000000000000000000F5000000000000000000000000000000000000000000000000000000000000000000000000F5C3F52DC30000000000000000000000000000002D000000000000000000000000000000C32D2DC3C3F50000000000000000000000000000F50000000000000000
310
2D2D0000000000000000F5F500000000000000002D000000000000000000F5F500000000000000002D2D0000000000000000F500000000000000000000000000000000000000000000000000F500000000000000000000000000000000000000000000F5F50000F5F50000000000000000F5000000F5000000000000000000
310
000000000000000000000000000000000000000000000000000000F50000000000000000000000000000000000000000000000000000000000000000000000F500F5C32D00C300000000000000000000000000002D0000000000000000000000000000C3002DC3C3F500F500000000000000000000000000F5000000000000
310
00002D0000000000000000F5000000000000000000002D0000000000000000000000F50000000000000000002D0000000000000000F5000000000000000000000000000000000000000000000000F500000000000000000000000000000000000000000000F5F50000F5F50000000000000000F5F5F5F5F500000000000000
310
0000000000000000000000000000000000000000000000000000000000F500000000000000000000000000000000000000000000000000000000000000000000F500F500C3C32DC3C300000000000000000000F5F5F5F5F5F5F5F5000000000000000000C3C32DC3C30000F5F5000000000000000000000000F50000000000
310
000000002D00000000000000F500000000000000000000002D000000000000000000000000F500000000000000002D0000000000000000F5000000000000000000000000000000000000000000000000F500000000000000000000000000000000000000000000F5F5F5F5F5F5F5F5F5F5F5F5F5F5F5F50000000000000000
310
00000000000000000000000000000000000000000000000000000000000000F5000000000000000000000000000000000000000000000000000000000000000000F500F5000000C3C3C30000000000000000F5F5F50000002D00000000F5F50000000000000000C3C3C3000000F500F50000000000000000000000F5000000
310
000000002D2D00000000000000F50000000000000000282828282828282828280000000000000000F5000000000000002D2D0000000000000000F50000000000000000000000000000000000000000000000F528282828282828282828282828282828282828282828F5F50000F5F50000000000000000F5F5000000000000
310
000000000000000000000000000000000000000000000000000000000000000000F50000000000000000000000000000000000000000000000000000000000000000F500F50000000000C300000000000000F5F50000000000002D000000000000F5F500000000000000C30000000000F500F5000000000000000000F50000
310
0000000000002D00000000000000F5000000000000002828000000002D0000000000282800000000000000F500000000000000002D00000000000000F50000000000000000000000000000000000000000000000F500000000000000000000000000000000000000000000F5F50000F5F50000000000000000F5F500000000
310
0000000000000000000000000000000000000000000000000000000000000000000000F50000000000000000000000000000000000000000000000000000000000000000F500F50000000000000000000000F5F500000000000000002D0000000000000000F5F5000000000000000000000000F5F5000000000000000000F5
310
00000000000000002D000000000000F500000000000000280000000000002D000000000000002800000000000000F5000000000000002D00000000000000F50000000000000000000000000000000000000000000000F500000000000000000000000000000000000000000000F5F50000F5F50000000000000000F5F50000
310
00000000000000000000000000000000000000000000000000000000000000000000000000F500000000000000000000000000000000000000000000000000000000000000F500F50000000000000000000000F5000000000000000000002D00000000000000000000F50000000000000000000000F500F500000000000000
310
00F5000000000000002D000000000000F50000000000000028000000000000002D00000000000000002800000000000000F50000000000002D0000000000000000F500000000000000000000000000000000000000000000F500000000000000000000000000000000000000000000F5F50000F5F50000000000000000F5F5
310
000000000000000000000000000000000000000000000000000000000000000000000000000000F5F5F5F5F5F50000000000000000000000000000000000000000000000000000F500F500000000000000000000F500000000000000000000F52DF5F5000000000000000000F50000000000000000000000F5F50000000000
310
0000F5000000000000002D00000000000000F50000000000002800000000000000002D00000000000000000028000000000000F5000000000000002D00000000000000F500000000000000000000000000000000000000000000F500000000000000000000000000000000000000000000F5F50000F5F50000000000000000
310
F5F50000000000000000000000000000000000000000000000000000000000000000000000000000000000000000F50000000000000000000000000000000000000000000000000000F5F500000000000000000000F500000000000000F5F5F5F5002D0000F5F50000000000000000F500000000000000000000F500F50000
310
00000000F5000000000000002D000000000000F5000000000028280000000000000000002D0000000000000000000028280000000000F50000000000002D00000000000000F500000000000000000000000000000000000000000000F500000000000000000000000000000000000000000000F5F50000F5F5000000000000
310
0000F5F50000000000000000000000000000000000000000000000000000000000000000000000000000000000000000F500000000000000000000000000000000000000000000000000F500F500000000000000000000F5000000000000F500000000002D00000000F5F5000000000000F50000000000000000000000F5F5
310
000000000000F50000000000002D00000000000000F5000000000028000000000000000000002D0000000000000000000000280000000000F50000000000002D2D000000000000F500000000000000000000000000000000000000000000F500000000000000000000000000000000000000000000F5F50000F5F500000000
310
00000000F5F50000000000000000000000000000000000000000000000000000000000000000000000000000000000000000F500000000000000000000000000000000000000000000000000F5F500000000000000000000F5000000000000F50000000000002D000000000000F5000000000000F500000000000000000000
310
F5F5000000000000F50000000000002D000000000000F500000000002800000000000000000000002D000000000000000000000000280000000000F50000000000002D00000000000000F5000000000000000000000000000000000000000000F500000000000000000000000000000000000000000000F5F50000F5F50000
310
000000000000F52828282828282828282828282828282828282828282828282828282828282828282828282828282828282828282800000000000000000000000000000000000000000000000000F5F500000000000000000000F50000000000F5000000000028282828280000000000F5000000000000F500000000000000
310
0000F5F50000000000F50000000000F5F52DF50000000000F500000000002800000000000000000000002D000000000000000000000000002800000000F50000000000F52DF5F50000000000F5000000000000000000000000000000000000000000F500000000000000000000000000000000000000000000F5F50000F5F5
310
0000000000000000F5F50000000000000000000000000000000000000000000000000000000000000000000000000000000000000000F500000000000000000000000000000000000000000000000000F5F5000000000000000000F50000000000F500000000002800002D0000282800000000F50000000000F50000000000
310
0000000000F5F500000000F5000000F5F5F5F52DF5F5F5000000F500000000280000000000000000000000002D000000000000000000000000002800000000F5000000F5F5F52DF5F5F5F5000000F5000000000000000000000000000000000000000000F500000000000000000000000000000000000000000000F5F50000
310
F5F50000000000000000F5F50000000000000000000000000000000000000000000000000000000000000000000000000000000000000000F5000000000000000000000000000000000000000000000000F5F500000000000000000000F50000000000F500000028280000002D0000000028280000F50000000000F5000000
310
00000000000000F5F500000000F50000F5F50000002D0000F5F500F50000000000280000000000000000000000F5F5F5F50000000000000000000000280000000000F500F5F500002D000000F5F50000F5000000000000000000000028282828282828282828F5F5F5F5F5F5F5F5F5F5F5F5F5F5F5F5F5F5F5F5F5F5F5F5F5
310
0000F5F50000000000000000F5F50000000000000000000000000000000000000000000000000000000000000000000000000000000000000000F5000000000000000000000000000000000000000000000000F5F5000000000000000000F50000000000F50000002800000000002D000000000028000000F50000000000F5
310
000000000000000000F5F500000000F50000F5F50000002D0000F5F5F5F500000000002800000000000000000000F5002D0000F500000000000000000000280000000000F500F5F50000002D0000F5F5F500F5000000000000000000000000280000000000000000F500000000000000000000000000000000000000000000
310
F5F50000F5F50000000000000000F5F5F5F5F5F5F5F5F5F5F5F5F5F5F5F5F5F5F5F5F5F5F5F5F5F5F5F5F5F5F5F5F5F5F5F5F5F5F5F5F5F5F5F5F5F5F528282828282828282828000000000000F5F500000000F5F5F5F5000000000000000000F50000000000F5000000280000000000F5000000000000280000F500000000
310
00F5000000000000000000F5F500000000F500F5F5000000002D000000F5F5F5000000002828000000000000000000F500002D000000F5000000000000000000282800000000F5F5F5000000002D000000F5F500F5000000000000000000000000280000000000000000F50000000000000000000000000000000000000000
310
0000F5F50000F5F50000000000000000F5F50000000000000000000000000000000000000000000000000000000000000000000000000000000000000000F500000000000000002800000000000000F5F5F5F5F5F5F500F5F5000000002D00000000F50000000000F500002800000000F5F52DF5F50000000028000000F500
310
000000F5000000000000000000F5F500000000F500F5F50000002D00000000F5F5F5000000002800000000000000000000F500002D000000F5000000000000000000002800000000F5F5F5000000002D000000F5F500F5000000000000000000000000280000000000000000F5000000000000000000000000000000000000
310
00000000F5F50000F5F50000000000000000F5F50000000000000000000000000000000000000000000000000000000000000000000000000000000000000000F500000000000000002800000000000000F5F52828282828F5F5F5000000282828000000F50000000000F500002800000000F5002D00F50000000028000000
310
F500000000F5000000000000000000F5F500002D2DF52DF52D2D2D2D2D2D2D2D2D2DF5F52D2D2D2D282D2D2D2D2D2D2D2D2D2DF52D2D2D2D2D2DF52D2D2D2D2D2D2D2D2D2D282D2D2D2DF5F52D2D2D2D2D2D2D2D2D2DF52DF52D2D0000000000000000000028000000000000002DF52D2D2D2D2D2D2D2D2D2D2D2D2D2D2D2D
310
2D2D2D2D2D2DF5F52D2DF5F52D2D2D2D2D2D2D2DF5F52D2D2D2D2D2D2D2D2D2D2D2D2D2D2D2D2D2D2D2D2D2D2D2D2D2D2D2D2D2D2D2D2D2D2D2D2D2D2D2D2D2D2D2D2D2D00000000000000280000000000002DF5F52DF52D2DF52DF5F52D2D2D28F5282D2D2D2D2D2D2D2D2D2D2D2D282D2D2D2DF52D2D2DF52D2D2D2D282D
310
2D2D2D2D2D2D2D2D2D2D2D2D2D2D2D2D2DF5F52D2D0000F500F5F50000002D00000000F5F5F5000000002800000000000000000000F500002D000000F5000000000000000000002800000000F5F5F5000000002D000000F5F500F5000000000000000000000000280000000000000000F50000000000000000000000000000
310
0000000000000000F5F50000F5F50000000000000000F5F50000000000000000000000000000000000000000000000000000000000000000000000000000000000000000F500000000000000002800000000000000F5F5F5F5F5F5F5F5F5F5000000002800000000F50000000000F500002800000000F5002D00F500000000
310
28000000F500000000F5000000000000000000F5F500000000F50000F5F50000002D000000F5F5F500000000280000000000000000000000F5002D0000F500000000000000000000002800000000F500F5F500002D00000000F5F500F5000000000000000000000000280000000000000000F5000000000000000000000000
310
00000000000000000000F5F50000F5F50000000000000000F5F5F5F5F5F5F5F5F5F5F5F5F5F5F5F5F5F5F5F5F5F5F5F5F5F5F5F5F5F5F5F5F5F5F5F5F5F5F5F5F5F5F5F5F5F5F52828282828282828F528000000000000F5F500000000F5F5F5F5000000000000000000F50000000000F50000282800000000F5F5F5000000
310
000028000000F500000000F5000000000000000000F5F500000000F50000F5F50000002D0000F5F500F50000000000280000000000000000000000F5F5F5F50000000000000000000000280000000000F500F5F500002D000000F5F50000F5000000000000000000000028F52828282828282828F5F5F5F5F5F5F5F5F5F5F5
310
F5F5F5F5F5F5F5F5F5F5F5F5F5F50000F5F50000000000000000F5F50000000000000000000000000000000000000000000000000000000000000000000000000000000000000000F5000000000000000028000000000000000000000000000000F5F5000000000000000000F50000000000F50000002800000000002D0000
310
00000028000000F50000000000F5000000000000000000F5F500000000F5000000F5F5F5F52DF5F5F50000F50000000000280000000000000000000000002D00000000000000000000000000280000000000F50000F5F5F52DF5F5F5F5000000F5000000000000000000000000280000000000000000F50000000000000000
310
0000000000000000000000000000F5F50000F5F50000000000000000F5F50000000000000000000000000000000000000000000000000000000000000000000000000000000000000000F5000000000000DCDC28000000000000000000000000000000F5F500000000000000000000F50000000000F500002828000000002D
310
000000002828000000F500000000F500000000000000000000F5F500000000F500000000F5F5F52DF5F500000000F500000000282800000000000000000000002D000000000000000000000000282800000000F500000000F5F52DF5F5F500000000F500000000000000000000DCDC280000000000000000F5000000000000
310
00000000000000000000000000000000F5F50000F5F50000000000000000F5F50000000000000000000000000000000000000000000000000000000000000000000000000000000000000000F5000000000000DCDC2800000000000000000000000000000000F5F5000000000000000000F50000000000F500000000280000
310
002D000000002800000000F500000000F500000000000000000000F5F50000000000F50000000000002D000000000000F500000000002800000000000000000000002D000000000000000000000000280000000000F50000000000002D00000000000000F500000000000000000000DCDC280000000000000000F500000000
310
000000000000000000000000000000000000F5F50000F5F50000000000000000F528282828282828282828282828282828282828282828282828282828282828282828282828282828282828282828000000000000DCDC2800000000000000000000000000000000F5F5000000280000000000F5000000000000F500000000
310
2828002D0028282800000000F50000000000F5000000000000000000F5F5000000000000F50000000000002D2D000000000000F5000000000028000000000000000000002D000000000000000000000028000000000000F50000000000002D000000000000F50000000000000000000000DCDC280000000000000000F50000
310
0000000000000000000000000000000000000000F5F50000F5F50000000000000000F5F50000000000000000000000000000000000000000000000000000000000000000000000000000000000000000F50000000000DCDCDC2800000000000000000000000000000000F5F5000028F5280000000000F50000000000F50000
310
00000028002D002800000000F5F50000000000F500000000000000000000F5F5000000000000F5000000000000002D000000000000F5000000000000280000000000000000002D0000000000000000000028000000000000F5000000000000002D000000000000F50000000000000000000000DCDC280000000000000000F5
310
00000000000000000000000000000000000000000000F5F50000F5F50000000000000000F5282828282828282828282828282828282828282828282828282828282828282828282828282828282828282828280000000000DCDCDC2800000000000000000000000000000000F500F5002828280000000000F5000000000000
310
F5F50000002828282828000000F500000000000000F500000000000000000000F5F5000000000000F500000000000000002D000000000000F50000000000002800000000000000002D00000000000000000000280000000000F5000000000000002D00000000000000F50000000000000000000000DCDC2800000000000000
310
00F500000000000000000000000000000000000000000000F5F50000F5F50000000000000000F5F50000000000000000000000000000000000000000000000000000000000000000000000000000000000000000F50000000000DCDCDC280000000000000000000000000000000000F5F500002D00000000000000F5000000
310
00000000F5F50000002D00000000F500000000000000F500000000000000000000F500F500000000000000F5000000000000002D000000000000F50000000000002828000000000000002D00000000000000002828000000000000F50000000000002D2D00000000000000F50000000000000000000000DCDC280000000000
310
000000F500000000000000000000000000000000000000000000F5F50000F5F50000000000000000F5F5000000000000000000000000000000000000000000000000000000000000000000000000000000F5F5F5F5F5F50000000000DCDCDC280000000000000000000000000000000000F500F500000000000000000000F5
310
0000000000000000F5F5F52DF5F5F5F500000000000000F50000000000000000000000F5F50000000000000000F5000000000000002D00000000000000F500000000000028280000000000002D000000000000002828000000000000F5000000000000002D00000000000000F5000000000000000000000000DCDC28000000
310
0000000000F500000000000000000000000000000000000000000000F5F50000F5F50000000000000000F5F5000000000000000000000000000000000000000000000000000000000000000000000000000000F50000000000000000000000DC00280000000000000000000000000000000000F500F5000000000000000000
310
0000F5000000000000000000002D00000000000000000000F50000000000000000000000F500F50000000000000000F500000000000000002D00000000000000F5000000000000002800000000002D0000000000002800000000000000F5000000000000002D0000000000000000F5000000000000000000000000DCDC2800
310
00000000000000F500000000000000000000000000000000000000000000F5F50000F5F50000000000000000F5F5000000000000000000000000000000000000000000000000000000000000000000000000000000F50000000000000000000000000000000000000000000000000000000000000000F500F5000000000000
310
0000000000F50000000000000000002D000000000000000000F5000000000000000000000000F5F500000000000000000000F5000000000000002D0000000000000000F50000000000000028280000002D00000000282800000000000000F500000000000000002D0000000000000000F50000000000000000000000000000
310
000000000000000000F528282828282828282828282828282828282828282828F5F50000F5F50000000000000000F5F5000000000000000000000000000000000000000000000000000000000000000000000000000000F50000000000000000000000000000000000000000000000000000000000000000F500F500000000
310
0000000000000000F5F5F50000000000002D00000000000000F5F5000000000000000000000000F500F500000000000000000000F500000000000000002D0000000000000000F500000000000000280000002D000000002800000000000000F500000000000000002D0000000000000000F500000000000000000000000000
310
0000000000000000000000F500000000000000000000000000000000000000000000F5F5F5F5F5F5F5F5F5F5F5F5F5F5F5F5000000000000000000000000000000000000000000000000000000000000000000000000000000F5000000000000000000000000000000000000000000000000000000000000000000F500F500
310
00000000000000000000000000F5F5000000002D00000000F5F5F500000000000000000000000000F500F5000000000000000000000000F500000000000000002D0000000000000000F5000000000000280000002D0000000028000000000000F500000000000000002D000000000000000000F50000000000000000000000
310
00000000000000000000000000F500000000000000000000000000000000000000000000F5F50000F5F50000000000000000F5F5000000000000000000000000000000000000000000000000000000000000000000000000000000F500000000000000000000000000000000000000000000000000000000000000000000F5
310
00F5000000000000000000000000000000F5F5F5F5F5F5F5F5F500000000000000000000000000000000F5F500000000000000000000000000F500000000000000002D000000000000000000F5F5000000002828282828282828282800000000F5F50000000000000000002D0000000000000000F500000000000000000000
310
000000000000000000000000000000282828282828282828282828282828282828282828282828F50000F5F50000000000000000F5F5F5F5F5000000000000000000000000000000000000000000000000000000000000000000000000F5000000000000000000000000000000000000000000000000000000000000000000
310
0000F500F50000000000000000000000000000000000002D00000000000000000000000000000000000000F500F50000000000000000000000000000F500000000000000002D00000000000000000000F5000000000000002D0000000000000000F5000000000000000000002D0000000000000000F5000000000000000000
310
0000000000000000000000000000000000F500000000000000000000000000000000000000000000F5F50000F5F50000000000000000F5F5F5F5F5F5F5F5000000000000000000000000000000000000000000000000000000000000000000F500000000000000000000000000000000000000000000000000000000000000
310
0000000000F500F500000000000000000000000000000000002D000000000000000000000000000000000000F500F500000000000000000000000000000000F500000000000000002D2D000000000000000000F5F5F5000000002D0000000000F5F5F50000000000000000002D2D000000000000000000F500000000000000
310
00000000000000000000000000000000000000F500000000000000000000000000000000000000000000F5F50000F5F5000000000000000000000000000000F5000000000000000000000000000000000000000000000000000000000000000000F50000000000000000000000000000000000000000000000000000000000
310
0000000000000000F5F500000000000000000000000000000000002D0000000000000000000000000000000000F500F50000000000000000000000000000000000F50000000000000000002D2D0000000000000000000000F5F5F5F5F5F5F5F5F5F50000000000000000000000002D000000000000000000F5000000000000
310
000000000000000000000000000000000000000000F5F5F5F5F5F5F5F5F5F5F5F5F5F5F5F5F5000000000000F5F50000F5F5000000000000000000000000000000F5000000000000000000000000000000000000000000000000000000000000000000F5000000000000000000000000000000000000000000000000000000
310
00000000000000000000F500F5000000000000000000000000000000002D00000000000000000000000000000000F500F500000000000000000000000000000000000000F5000000000000000000002D0000000000000000000000000000F50000000000000000000000000000002D2D000000000000000000F50000000000
310
0000000000000000000000000000000000000000000000000000000000000000000000F5F5F5F5F5000000000000F5F50000F5F5000000000000000000000000000000F5000000000000000000000000000000000000000000000000000000000000000000F500000000000000000000000000000000000000000000000000
310
00000000000000000000000000F500F5F500000000000000000000000000002D0000000000000000000000000000F5F500F5000000000000000000000000000000000000000000F50000000000000000002D2D000000000000000000000000F52DF5F50000000000000000000000002D2D000000000000000000F500000000
310
00000000000000000000000000000000000000000000000000000000000000000000000000F5000000F5000000000000F5F50000F5F5000000000000000000000000000000F5000000000000000000000000000000000000000000000000000000000000000000F50000000000000000000000000000000000000000000000
310
00000000000000000000000000000000F5F500F5000000000000000000000000002D00000000000000000000000000F500F5F50000000000000000000000000000000000000000000000F5000000000000000000002D2D0000000000000000F5F5002D0000F5F500000000000000002D2D00000000000000000000F5000000
310
000000000000000000000000000000000000000000000000000000000000000000000000000000F5000000F5000000000000F5F50000F5F5000000000000000000000000000000F5000000F50000000000000000000000000000000000000000000000000000000000F5000000000000000000000000000000000000000000
310
0000000000000000000000000000000000000000F500F5F500000000000000000000002D0000000000000000000000F5F500F50000000000000000000000000000000000000000000000000000F500000000000000000000002D2D0000000000F50000002D00000000F500000000002D2D0000000000000000000000F50000
310
0000000000000000000000000000000000000000000000000000000000000000000000000000000000F5F5F5F5F5000000000000F5F50000F5F5000000000000000000000000000000F5F5F5F5F50000000000000000000000000000000000000000000000000000000000F500000000000000000000000000000000000000
310
0000000000000000000000000000000000000000000000F5F500F5F50000000000000000002D000000000000000000F5F500F5F500000000000000000000000000000000000000000000000000000000F50000000000000000000000002D2D2D0000F50000002D00000000F500002D2D2D000000000000000000000000F500
310
00000000000000000000000000000000000000000000000000000000000000000000000000000000000000F5000000F5000000000000F5F50000F5F5000000000000000000000000000000F5000000F50000000000000000000000000000000000000000000000000000000000F50000000000000000000000000000000000
310
000000000000000000000000000000000000000000000000000000F5F5F5F5F5F5F500000000002D0000000000F5F5F5F5F5F5F500000000000000000000000000000000000000000000000000000000000000F500000000000000000000000000002D2D2D2D2D2D2D2D2D2D2D2D2D2D0000000000000000000000000000F5
310
0000000000000000000000000000000000000000000000000000000000000000000000000000000000000000002D2D2D2D2D2D2D2D2D2D2D2D2D2D2D2D2D2D2D2D2D2D2D2D2D2D2D2D2D2D2D2D2D00000000F5F50000000000000000F5F5000000000000000000000000000000F5F5F5000000000000000000000000000000
310
0000000000000000000000000000000000000000000000000000000000000000F5F5F500F5F5F5F5F5F5F5F5F5F5F500F5F5F50000000000000000000000000000000000000000000000000000000000000000000000F5000000000000000000000000000000F50000002D00000000F5000000000000000000000000000000
310
F500000000000000000000000000000000000000000000000000000000000000000000000000000000000000000000F5000000F5000000000000F5F50000F5F5000000000000000000000000000000F5000000000000F5F5F5F5F5F5F5F5F5F5F5F5F5F5F5F5F5F5F5F5F5F5F5F5F5F5000000000000000000000000000000
310
00000000000000000000000000000000000000000000000000000000000000000000000000F5F5F5F5F5F5F5F5F5F5F5F5F5000000000000000000000000000000000000000000000000000000000000000000000000000000F5F500000000000000000000000000F50000002D00000000F500000000000000000000000000
310
F5F50000000000000000000000000000000000000000000000000000000000000000000000000000000000000000000000F5000000F5000000000000F5F50000F5F5000000000000000000000000000000F5000000000000000000F5F52DF5F5000000000000000000F500F5002D00F500F500000000000000000000000000
310
000000000000000000000000000000000000000000000000000000000000000000000000000000000000F50000F50000F50000000000000000000000000000000000000000000000000000000000000000000000000000000000000000F5F50000000000000000000000F50000002D00000000F50000000000000000000000
310
F5F500000000000000000000000000000000000000000000000000000000000000000000000000000000000000000000000000F5F5F5F5F5000000000000F5F50000F5F5000000000000000000000000000000F5000000000000000000F5F5F5F5F5000000000000000000F500F5002D00F500F50000000000000000000000
310
0000000000000000000000000000000000000000000000000000000000000000000000000000000000000000F50000F50000F500000000000000000000000000000000000000000000000000000000000000000000000000000000000000000000F5F500000000000000000000F500002D0000F5F500000000000000000000
310
F5F5000000000000000000000000000000000000000000000000000000000000000000000000000000000000000000000000000000F5000000F5000000000000F5F50000F5F5000000000000000000000000000000F500000000000000000000F5F5F500000000000000000000F500F5002D00F500F5000000000000000000
310
00000000000000000000000000000000000000000000000000000000000000000000000000000000000000000000F50000F50000F5000000000000000000000000000000000000000000000000000000000000000000000000000000000000000000000000F5F5000000000000000000F5F52DF5F500000000000000000000
310
F5F50000000000000000000000000000000000000000000000000000000000000000000000000000000000000000000000000000000000F5000000F5000000000000F5F50000F5F5000000000000000000000000000000F500000000000000000000F5F5F500000000000000000000F500F5002D00F500F500000000000000
310
000000000000000000000000000000000000000000000000000000000000000000000000000000000000000000000000F500F5F5F500F50000000000000000000000000000000000000000000000000000000000000000000000000000000000000000000000000000F5F5000000000000000000F500000000000000000000
310
F5F500000000000000000000000000000000000000000000000000000000000000000000000000000000000000000000000000000000000000F5F5F5F5F5000000000000F5F5F5F5F5F5000000000000000000000000000000F500000000000000000000002D0000000000000000000000F5F5F5F5F5F5F5F5000000000000
310
0000000000000000000000000000000000000000000000000000000000000000000000000000000000000000000000000000F5F5F5F5F5F5F500000000000000000000000000000000000000000000000000000000000000000000000000000000000000000000000000000000F5F5F50000000000002D00000000000000F5
310
F5F500000000000000000000000000000000000000000000000000000000000000000000000000000000000000000000000000000000000000000000000000F5000000000000F500000000F5000000000000000000000000000000F5000000000000000000000000000000000000000000000000F500002D0000F500000000
310
0000000000000000000000000000000000000000000000000000000000000000000000000000000000000000000000000000000000F500F50000F500000000000000000000000000000000000000000000000000000000000000000000000000000000000000000000000000000000000000F5F5F5F5F5F5F5F5F5F5F5F5F5
310
F500000000000000000000000000000000000000000000000000000000000000000000000000000000000000000000000000000000000000000000000000000000F5F5F5F5F5F5F5F500000000F5F5F5F5F5F5F5F5F5F5F5F5F5F5F5F5F5000000000000000000000000000000000000000000000000F500002D00F5000000
310
00000000000000000000000000000000000000000000000000000000000000000000000000000000000000000000000000000000000000F500F500F500000000000000000000000000000000000000000000000000000000000000000000000000000000000000000000000000000000000000000000000000002D00000000
310
000000000000000000000000000000000000000000000000000000000000000000000000000000000000000000000000000000000000000000000000000000000000000000000000000000000000000000000000000000000000000000000000000000000000000000000000000000000000000000000000F5F5F5F5F5F5F5
310
0000000000000000000000000000000000000000000000000000000000000000000000000000000000000000000000000000000000000000F5F5F5F5F5F5F500000000000000000000000000000000000000000000000000000000000000000000000000000000000000000000000000000000000000000000000000000000
310
0000000000000000000000000000000000000000000000000000000000000000000000000000000000000000000000000000000000000000000000000000000000000000000000000000000000000000000000000000000000000000000000000000000000000000000000000000000000000000000000000000F5F5F5F5F5
310
F5F50000000000000000000000000000000000000000000000000000000000000000000000000000000000000000000000000000000000000000F5F5F5F5F5F5F50000000000000000000000000000000000000000000000000000000000000000000000000000000000000000000000000000000000000000000000000000
310
00000000000000000000000000000000000000000000000000000000000000000000000000000000000000000000000000000000000000000000000000000000000000000000000000000000000000000000000000000000000000000000000000000000000000000000000000000000000000000000000000000000000000
310
0000000000000000000000000000000000000000000000000000000000000000000000000000000000000000000000000000000000000000000000000000002D000000000000000000000000000000000000000000000000000000000000000000000000000000000000000000000000000000000000000000000000000000
310
00000000000000000000000000000000000000000000000000000000000000000000000000000000000000000000000000000000000000000000000000000000000000000000000000000000000000000000000000000000000000000000000000000000000000000000000000000000000000000000000000000000000000
310
00000000000000000000000000000000000000000000000000000000000000000000000000000000000000000000000000000000000000000000000000000000000000000000000000000000000000000000000000000000000000000000000000000000000000000000000000000000000000000000000000000000000000
310
00000000000000000000000000000000000000000000000000000000000000000000000000000000000000000000000000000000000000000000000000000000000000000000000000000000000000000000000000000000000000000000000000000000000000000000000000000000000000000000000000000000000000
310
00000000000000000000000000000000000000000000000000000000000000000000000000000000000000000000000000000000000000000000000000000000000000000000000000000000000000000000000000000000000000000000000000000000000000000000000000000000000000000000000000000000000000
310
00000000000000000000000000000000000000000000000000000000000000000000000000000000000000000000000000000000000000000000000000000000000000000000000000000000000000000000000000000000000000000000000000000000000000000000000000000000000000000000000000000000000000
310
00000000000000000000000000000000000000000000000000000000000000000000000000000000000000000000000000000000000000000000000000000000000000000000000000000000000000000000000000000000000000000000000000000000000000000000000000000000000000000000000000000000000000
310
00000000000000000000000000000000000000000000000000000000000000000000000000000000000000000000000000000000000000000000000000000000000000000000000000000000000000000000000000000000000000000000000000000000000000000000000000000000000000000000000000000000000000
310
00000000000000000000000000000000000000000000000000000000000000000000000000000000000000000000000000000000000000000000000000000000000000000000000000000000000000000000000000000000000000000000000000000000000000000000000000000000000000000000000000000000000000
310
00000000000000000000000000000000000000000000000000000000000000000000000000000000000000000000000000000000000000000000000000000000000000000000000000000000000000000000000000000000000000000000000000000000000000000000000000000000000000000000000000000000000000
310
00000000000000000000000000000000000000000000000000000000000000000000000000000000000000000000000000000000000000000000000000000000000000000000000000000000000000000000000000000000000000000000000000000000000000000000000000000000000000000000000000000000000000
310
00000000000000000000000000000000000000000000000000000000000000000000000000000000000000000000000000000000000000000000000000000000000000000000000000000000000000000000000000000000000000000000000000000000000000000000000000000000000000000000000000000000000000
310
00000000000000000000000000000000000000000000000000000000000000000000000000000000000000000000000000000000000000000000000000000000000000000000000000000000000000000000000000000000000000000000000000000000000000000000000000000000000000000000000000000000000000
310
00000000000000000000000000000000000000000000000000000000000000000000000000000000000000000000000000000000000000000000000000000000000000000000000000000000000000000000000000000000000000000000000000000000000000000000000000000000000000000000000000000000000000
310
00000000000000000000000000000000000000000000000000000000000000000000000000000000000000000000000000000000000000000000000000000000000000000000000000000000000000000000000000000000000000000000000000000000000000000000000000000000F500000000F5F5F500F50000F500F5
310
F5F5000000F5F5000000000000F5F5F5000000000000000000000000000000000000000000000000000000000000000000000000000000000000000000000000000000000000000000000000000000000000000000000000000000000000000000000000000000000000000000000000000000000000000000000000000000
310
000000000000000000000000000000000000000000000000000000000000000000000000000000000000000000000000000000000000000000000000000000000000000000000000000000000000000000000000000000000000000000000000000000000000000000000000000000000000F5000000F50000F500F50000F5
310
00000000F50000F500F50000000000000000F5000000000000000000000000000000000000000000000000000000000000000000000000000000000000000000000000000000000000000000000000000000000000000000000000000000000000000000000000000000000000000000000000000000000000000000000000
310
0000000000000000000000000000000000000000000000000000000000000000000000000000000000000000000000000000000000000000000000000000000000000000000000000000000000000000000000000000000000000000000000000000000000000000000000000000000000000000F5000000F5000000F5F5F5
310
00F500000000F500F50000F500F5F5F5F5000000F500000000000000000000000000000000000000000000000000000000000000000000000000000000000000000000000000000000000000000000000000000000000000000000000000000000000000000000000000000000000000000000000000000000000000000000
310
00000000000000000000000000000000000000000000000000000000000000000000000000000000000000000000000000000000000000000000000000000000000000000000000000000000000000000000000000000000000000000000000000000000000000000000000000000000000000000000F500000000F500F5F5
310
F500F500000000F5F50000F500F5000000000000F5F5F50000000000000000000000000000000000000000000000000000000000000000000000000000000000000000000000000000000000000000000000000000000000000000000000000000000000000000000000000000000000000000000000000000000000000000
310
00000000000000000000000000000000000000000000000000000000000000000000000000000000000000000000000000000000000000000000000000000000000000000000000000000000000000000000000000000000000000000000000000000000000000000000000000000000000000000000000000F5000000F500
310
000000F5F5F500000000F5F500F500F5000000000000F50000000000000000000000000000000000000000000000000000000000000000000000000000000000000000000000000000000000000000000000000000000000000000000000000000000000000000000000000000000000000000000000000000000000000000
310
000000000000000000000000000000000000000000000000000000000000000000000000000000000000000000000000000000000000000000000000000000000000000000000000000000000000000000000000000000000000000000000000000000000000000000000000000000000000000000000000000000F5000000
310
F500000000F500F50000000000F50000F5F5000000000000F5000000000000000000000000000000000000000000000000000000000000000000000000000000000000000000000000000000000000000000000000000000000000000000000000000000000000000000000000000000000000000000000000000000000000
310
00000000000000000000000000000000000000000000000000000000000000000000000000000000000000000000000000000000000000000000000000000000000000000000000000000000000000000000000000000000000000000000000000000000000000000000000000000000000000000000000000000000F5F5F5
310
F50000F5F5F500F50000F500F5F5F5000000F5F5000000000000F5F5F5F500000000000000000000000000000000000000000000000000000000000000000000000000000000000000000000000000000000000000000000000000000000000000000000000000000000000000000000000000000000000000000000000000
310
00000000000000000000000000000000000000000000000000000000000000000000000000000000000000000000000000000000000000000000000000000000000000000000000000000000000000000000000000000000000000000000000000000000000000000000000000000000000000000000000000000000000000
310
00000000000000000000000000000000000000000000000000000000000000000000000000000000000000000000000000000000000000000000000000000000000000000000000000000000000000000000000000000000000000000000000000000000000000000000000000000000000000000000000000000000000000
310
00000000000000000000000000000000000000000000000000000000000000000000000000000000000000000000000000000000000000000000000000000000000000000000000000000000000000000000000000000000000000000000000000000000000000000000000000000000000000000000000000000000000000
310
00000000000000000000000000000000000000000000000000000000000000000000000000000000000000000000000000000000000000000000000000000000000000000000000000000000000000000000000000000000000000000000000000000000000000000000000000000000000000000000000000000000000000
310
00000000000000000000000000000000000000000000000000000000000000000000000000000000000000000000000000000000000000000000000000000000000000000000000000000000000000000000000000000000000000000000000000000000000000000000000000000000000000000000000000000000000000
310
00000000000000000000000000000000000000000000000000000000000000000000000000000000000000000000000000000000000000000000000000000000000000000000000000000000000000000000000000000000000000000000000000000000000000000000000000000000000000000000000000000000000000
310
00000000000000000000000000000000000000000000000000000000000000000000000000000000000000000000000000000000000000000000000000000000000000000000000000000000000000000000000000000000000000000000000000000000000000000000000000000000000000000000000000000000000000
310
00000000000000000000000000000000000000000000000000000000000000000000000000000000000000000000000000000000000000000000000000000000000000000000000000000000000000000000000000000000000000000000000000000000000000000000000000000000000000000000000000000000000000
310
00000000000000000000000000000000000000000000000000000000000000000000000000000000000000000000000000000000000000000000000000000000000000000000000000000000000000000000000000000000000000000000000000000000000000000000000000000000000000000000000000000000000000
310
0000000000000000F5F50000F50000F50000F5F5F50000F5F5F500F50000F5000000000000F5F5F5F500F5F5F50000F5000000F500F50000F500F5F5F5000000000000000000000000000000000000000000000000000000000000000000000000000000000000000000000000000000000000000000000000000000000000
310
00000000000000000000000000000000000000000000000000000000000000000000000000000000000000000000000000000000000000000000000000000000000000000000000000000000000000000000000000000000000000000000000000000000000000000000000000000000000000000000000000000000000000
310
000000000000000000F50000F500F50000F50000F500F50000F5000000F50000F5000000000000F50000F500F50000F50000F50000F500F50000F500F50000F5000000000000000000000000000000000000000000000000000000000000000000000000000000000000000000000000000000000000000000000000000000
310
00000000000000000000000000000000000000000000000000000000000000000000000000000000000000000000000000000000000000000000000000000000000000000000000000000000000000000000000000000000000000000000000000000000000000000000000000000000000000000000000000000000000000
310
0000000000000000000000000000F500F50000F500F5000000F500F5000000F50000F5000000000000F50000F500F50000F50000F5F5F5F500F500F50000F5000000F5000000000000000000000000000000000000000000000000000000000000000000000000000000000000000000000000000000000000000000000000
310
00000000000000000000000000000000000000000000000000000000000000000000000000000000000000000000000000000000000000000000000000000000000000000000000000000000000000000000000000000000000000000000000000000000000000000000000000000000000000000000000000000000000000
310
0000000000000000000000000000F5F5F500F5F5F5F5F500F50000F500F5000000F5F5F500000000000000F500F5F500F50000F5000000F5F50000F5F5F5F500F5000000F500000000000000000000000000000000000000000000000000000000000000000000000000000000000000000000000000000000000000000000
310
00000000000000000000000000000000000000000000000000000000000000000000000000000000000000000000000000000000000000000000000000000000000000000000000000000000000000000000000000000000000000000000000000000000000000000000000000000000000000000000000000000000000000
310
000000000000000000000000000000F50000000000F50000F500F50000F500F500000000F5F500000000000000F50000000000F50000F50000F5F5000000F50000F500F50000F50000000000000000000000000000000000000000000000000000000000000000000000000000000000000000000000000000000000000000
310
00000000000000000000000000000000000000000000000000000000000000000000000000000000000000000000000000000000000000000000000000000000000000000000000000000000000000000000000000000000000000000000000000000000000000000000000000000000000000000000000000000000000000
310
0000000000000000000000000000000000F5F500000000F50000F500F50000F50000F5000000F500F5000000000000F50000000000F50000F5000000F5000000F50000F500F50000F5000000000000000000000000000000000000000000000000000000000000000000000000000000000000000000000000000000000000
310
00000000000000000000000000000000000000000000000000000000000000000000000000000000000000000000000000000000000000000000000000000000000000000000000000000000000000000000000000000000000000000000000000000000000000000000000000000000000000000000000000000000000000
310
0000000000000000000000000000000000000000F5F5F5F500F50000F50000F5F5F50000F5F5F500F50000F5000000000000F5F5F5F500F50000F5000000F5000000F5F5F50000F5F5F50000000000000000000000000000000000000000000000000000000000000000000000000000000000000000000000000000000000
310
00000000000000000000000000000000000000000000000000000000000000000000000000000000000000000000000000000000000000000000000000000000000000000000000000000000000000000000000000000000000000000000000000000000000000000000000000000000000000000000000000000000000000
310
00000000000000000000000000000000000000000000000000000000000000000000000000000000000000000000000000000000000000000000000000000000000000000000000000000000000000000000000000000000000000000000000000000000000000000000000000000000000000000000000000000000000000
310
00000000000000000000000000000000000000000000000000000000000000000000000000000000000000000000000000000000000000000000000000000000000000000000000000000000000000000000000000000000000000000000000000000000000000000000000000000000000000000000000000000000000000
310
00000000000000000000000000000000000000000000000000000000000000000000000000000000000000000000000000000000000000000000000000000000000000000000000000000000000000000000000000000000000000000000000000000000000000000000000000000000000000000000000000000000000000
310
00000000000000000000000000000000000000000000000000000000000000000000000000000000000000000000000000000000000000000000000000000000000000000000000000000000000000000000000000000000000000000000000000000000000000000000000000000000000000000000000000000000000000
310
00000000000000000000000000000000000000000000000000000000000000000000000000000000000000000000000000000000000000000000000000000000000000000000000000000000000000000000000000000000000000000000000000000000000000000000000000000000000000000000000000000000000000
310
00000000000000000000000000000000000000000000000000000000000000000000000000000000000000000000000000000000000000000000000000000000000000000000000000000000000000000000000000000000000000000000000000000000000000000000000000000000000000000000000000000000000000
310
00000000000000000000000000000000000000000000000000000000000000000000000000000000000000000000000000000000000000000000000000000000000000000000000000000000000000000000000000000000000000000000000000000000000000000000000000000000000000000000000000000000000000
310
00000000000000000000000000000000000000000000000000000000000000000000000000000000000000000000000000000000000000000000000000000000000000000000000000000000000000000000000000000000000000000000000000000000000000000000000000000000000000000000000000000000000000
310
0000000000000000000000000000000000000000000000000000000000F500000000F5F5F50000F5F5F500F5F5F5F50000F5000000F500F50000F500F5000000000000000000000000000000000000000000000000000000000000000000000000000000000000000000000000000000000000000000000000000000000000
310
00000000000000000000000000000000000000000000000000000000000000000000000000000000000000000000000000000000000000000000000000000000000000000000000000000000000000000000000000000000000000000000000000000000000000000000000000000000000000000000000000000000000000
310
00000000000000000000000000000000000000000000000000000000000000F5000000F50000F50000F500F500F5000000F50000F50000F500F50000F500F500000000000000000000000000000000000000000000000000000000000000000000000000000000000000000000000000000000000000000000000000000000
310
00000000000000000000000000000000000000000000000000000000000000000000000000000000000000000000000000000000000000000000000000000000000000000000000000000000000000000000000000000000000000000000000000000000000000000000000000000000000000000000000000000000000000
310
000000000000000000000000000000000000000000000000000000000000000000F5000000000000F500F5000000F5F5000000F50000F5F5F5F500F50000F500F50000000000000000000000000000000000000000000000000000000000000000000000000000000000000000000000000000000000000000000000000000
310
00000000000000000000000000000000000000000000000000000000000000000000000000000000000000000000000000000000000000000000000000000000000000000000000000000000000000000000000000000000000000000000000000000000000000000000000000000000000000000000000000000000000000
310
0000000000000000000000000000000000000000000000000000000000000000000000F500000000F5F50000F5000000F5F5F5F5F500000000F5F50000F5F5F50000F5000000000000000000000000000000000000000000000000000000000000000000000000000000000000000000000000000000000000000000000000
310
00000000000000000000000000000000000000000000000000000000000000000000000000000000000000000000000000000000000000000000000000000000000000000000000000000000000000000000000000000000000000000000000000000000000000000000000000000000000000000000000000000000000000
310
0000000000000000000000000000000000000000000000000000000000000000000000000000F5000000F500000000F50000F500F50000F5000000F5F5000000F5F5000000F5000000000000000000000000000000000000000000000000000000000000000000000000000000000000000000000000000000000000000000
310
00000000000000000000000000000000000000000000000000000000000000000000000000000000000000000000000000000000000000000000000000000000000000000000000000000000000000000000000000000000000000000000000000000000000000000000000000000000000000000000000000000000000000
310
00000000000000000000000000000000000000000000000000000000000000000000000000000000F5000000F500000000F50000F500F50000F500000000F5000000F500F50000F500000000000000000000000000000000000000000000000000000000000000000000000000000000000000000000000000000000000000
310
00000000000000000000000000000000000000000000000000000000000000000000000000000000000000000000000000000000000000000000000000000000000000000000000000000000000000000000000000000000000000000000000000000000000000000000000000000000000000000000000000000000000000
310
0000000000000000000000000000000000000000000000000000000000000000000000000000000000F5F5F5F50000F5F5F500F50000F500F5F5F5F500000000F5000000F50000F500F50000000000000000000000000000000000000000000000000000000000000000000000000000000000000000000000000000000000
310
00000000000000000000000000000000000000000000000000000000000000000000000000000000000000000000000000000000000000000000000000000000000000000000000000000000000000000000000000000000000000000000000000000000000000000000000000000000000000000000000000000000000000
310
00000000000000000000000000000000000000000000000000000000000000000000000000000000000000000000000000000000000000000000000000000000000000000000000000000000000000000000000000000000000000000000000000000000000000000000000000000000000000000000000000000000000000
310
00000000000000000000000000000000000000000000000000000000000000000000000000000000000000000000000000000000000000000000000000000000000000000000000000000000000000000000000000000000000000000000000000000000000000000000000000000000000000000000000000000000000000
310
00000000000000000000000000000000000000000000000000000000000000000000000000000000000000000000000000000000000000000000000000000000000000000000000000000000000000000000000000000000000000000000000000000000000000000000000000000000000000000000000000000000000000
310
00000000000000000000000000000000000000000000000000000000000000000000000000000000000000000000000000000000000000000000000000000000000000000000000000000000000000000000000000000000000000000000000000000000000000000000000000000000000000000000000000000000000000
310
00000000000000000000000000000000000000000000000000000000000000000000000000000000000000000000000000000000000000000000000000000000000000000000000000000000000000000000000000000000000000000000000000000000000000000000000000000000000000000000000000000000000000
310
00000000000000000000000000000000000000000000000000000000000000000000000000000000000000000000000000000000000000000000000000000000000000000000000000000000000000000000000000000000000000000000000000000000000000000000000000000000000000000000000000000000000000
310
00000000000000000000000000000000000000000000000000000000000000000000000000000000000000000000000000000000000000000000000000000000000000000000000000000000000000000000000000000000000000000000000000000000000000000000000000000000000000000000000000000000000000
310
00000000000000000000000000000000000000000000000000000000000000000000000000000000000000000000000000000000000000000000000000000000000000000000000000000000000000000000000000000000000000000000000000000000000000000000000000000000000000000000000000000000000000
310
00000000000000000000000000000000000000000000000000000000000000000000000000000000000000000000000000000000000000000000000000000000000000000000000000000000000000000000000000000000000000000000000000000000000000000000000000000000000000000000000000000000000000
310
00000000000000000000000000000000000000000000000000000000000000000000000000000000000000000000000000000000000000000000000000000000000000000000000000000000000000000000000000000000000000000000000000000000000000000000000000000000000000000000000000000000000000
310
00000000000000000000000000000000000000000000000000000000000000000000000000000000000000000000000000000000000000000000000000000000000000000000000000000000000000000000000000000000000000000000000000000000000000000000000000000000000000000000000000000000000000
310
00000000000000000000000000000000000000000000000000000000000000000000000000000000000000000000000000000000000000000000000000000000000000000000000000000000000000000000000000000000000000000000000000000000000000000000000000000000000000000000000000000000000000
310
00000000000000000000000000000000000000000000000000000000000000000000000000000000000000000000000000000000000000000000000000000000000000000000000000000000000000000000000000000000000000000000000000000000000000000000000000000000000000000000000000000000000000
310
00000000000000000000000000000000000000000000000000000000000000000000000000000000000000000000000000000000000000000000000000000000000000000000000000000000000000000000000000000000000000000000000000000000000000000000000000000000000000000000000000000000000000
310
00000000000000000000000000000000000000000000000000000000000000000000000000000000000000000000000000000000000000000000000000000000000000000000000000000000000000000000000000000000000000000000000000000000000000000000000000000000000000000000000000000000000000
310
00000000000000000000000000000000000000000000000000000000000000000000000000000000000000000000000000000000000000000000000000000000000000000000000000000000000000000000000000000000000000000000000000000000000000000000000000000000000000000000000000000000000000
310
00000000000000000000000000000000000000000000000000000000000000000000000000000000000000000000000000000000000000000000000000000000000000000000000000000000000000000000000000000000000000000000000000000000000000000000000000000000000000000000000000000000000000
310
00000000000000000000000000000000000000000000000000000000000000000000000000000000000000000000000000000000000000000000000000000000000000000000000000000000000000000000000000000000000000000000000000000000000000000000000000000000000000000000000000000000000000
310
00000000000000000000000000000000000000000000000000000000000000000000000000000000000000000000000000000000000000000000000000000000000000000000000000000000000000000000000000000000000000000000000000000000000000000000000000000000000000000000000000000000000000
310
00000000000000000000000000000000000000000000000000000000000000000000000000000000000000000000000000000000000000000000000000000000000000000000000000000000000000000000000000000000000000000000000000000000000000000000000000000000000000000000000000000000000000
310
00000000000000000000000000000000000000000000000000000000000000000000000000000000000000000000000000000000000000000000000000000000000000000000000000000000000000000000000000000000000000000000000000000000000000000000000000000000000000000000000000000000000000
310
00000000000000000000000000000000000000000000000000000000000000000000000000000000000000000000000000000000000000000000000000000000000000000000000000000000000000000000000000000000000000000000000000000000000000000000000000000000000000000000000000000000000000
310
00000000000000000000000000000000000000000000000000000000000000000000000000000000000000000000000000000000000000000000000000000000000000000000000000000000000000000000000000000000000000000000000000000000000000000000000000000000000000000000000000000000000000
310
00000000000000000000000000000000000000000000000000000000000000000000000000000000000000000000000000000000000000000000000000000000000000000000000000000000000000000000000000000000000000000000000000000000000000000000000000000000000000000000000000000000000000
310
00000000000000000000000000000000000000000000000000000000000000000000000000000000000000000000000000000000000000000000000000000000000000000000000000000000000000000000000000000000000000000000000000000000000000000000000000000000000000000000000000000000000000
310
00000000000000000000000000000000000000000000000000000000000000000000000000000000000000000000000000000000000000000000000000000000000000000000000000000000000000000000000000000000000000000000000000000000000000000000000000000000000000000000000000000000000000
310
00000000000000000000000000000000000000000000000000000000000000000000000000000000000000000000000000000000000000000000000000000000
  0
XRECORD
  5
F06E
102
{ACAD_REACTORS
330
F06D
102
}
330
F06D
100
AcDbXrecord
280
     1
102
SHADEPLOT
 70
     0
102
SHADEPLOTRESLEVEL
 70
     2
102
SHADEPLOTCUSTOMDPI
 70
   300
  0
XRECORD
  5
F071
102
{ACAD_REACTORS
330
8E95
102
}
330
8E95
100
AcDbXrecord
280
     1
102
MATERIAL
148
0.0
149
0.0
149
0.0
 93
        0
 94
      127
282
     0
 72
     0
 77
     0
171
     0
175
     0
179
     0
273
     0
  0
XRECORD
  5
8E97
102
{ACAD_REACTORS
330
8E95
102
}
330
8E95
100
AcDbXrecord
280
     1
270
     1
271
     1
  0
XRECORD
  5
8E96
102
{ACAD_REACTORS
330
8E95
102
}
330
8E95
100
AcDbXrecord
280
     1
270
     1
271
     1
  0
XRECORD
  5
8E9A
102
{ACAD_REACTORS
330
8E95
102
}
330
8E95
100
AcDbXrecord
280
     1
270
     1
271
     1
  0
XRECORD
  5
8E99
102
{ACAD_REACTORS
330
8E95
102
}
330
8E95
100
AcDbXrecord
280
     1
270
     1
271
     1
  0
XRECORD
  5
8E9B
102
{ACAD_REACTORS
330
8E95
102
}
330
8E95
100
AcDbXrecord
280
     1
270
     1
271
     1
  0
XRECORD
  5
8E98
102
{ACAD_REACTORS
330
8E95
102
}
330
8E95
100
AcDbXrecord
280
     1
270
     1
271
     1
  0
XRECORD
  5
F070
102
{ACAD_REACTORS
330
8E8D
102
}
330
8E8D
100
AcDbXrecord
280
     1
102
MATERIAL
148
0.0
149
0.0
149
0.0
 93
        0
 94
      127
282
     0
 72
     0
 77
     0
171
     0
175
     0
179
     0
273
     0
  0
XRECORD
  5
8E8F
102
{ACAD_REACTORS
330
8E8D
102
}
330
8E8D
100
AcDbXrecord
280
     1
270
     1
271
     1
  0
XRECORD
  5
8E8E
102
{ACAD_REACTORS
330
8E8D
102
}
330
8E8D
100
AcDbXrecord
280
     1
270
     1
271
     1
  0
XRECORD
  5
8E92
102
{ACAD_REACTORS
330
8E8D
102
}
330
8E8D
100
AcDbXrecord
280
     1
270
     1
271
     1
  0
XRECORD
  5
8E91
102
{ACAD_REACTORS
330
8E8D
102
}
330
8E8D
100
AcDbXrecord
280
     1
270
     1
271
     1
  0
XRECORD
  5
8E93
102
{ACAD_REACTORS
330
8E8D
102
}
330
8E8D
100
AcDbXrecord
280
     1
270
     1
271
     1
  0
XRECORD
  5
8E90
102
{ACAD_REACTORS
330
8E8D
102
}
330
8E8D
100
AcDbXrecord
280
     1
270
     1
271
     1
  0
XRECORD
  5
F072
102
{ACAD_REACTORS
330
8E9D
102
}
330
8E9D
100
AcDbXrecord
280
     1
102
MATERIAL
148
0.0
149
0.0
149
0.0
 93
        0
 94
      127
282
     0
 72
     0
 77
     0
171
     0
175
     0
179
     0
273
     0
  0
XRECORD
  5
8E9F
102
{ACAD_REACTORS
330
8E9D
102
}
330
8E9D
100
AcDbXrecord
280
     1
270
     1
271
     1
  0
XRECORD
  5
8E9E
102
{ACAD_REACTORS
330
8E9D
102
}
330
8E9D
100
AcDbXrecord
280
     1
270
     1
271
     1
  0
XRECORD
  5
8EA2
102
{ACAD_REACTORS
330
8E9D
102
}
330
8E9D
100
AcDbXrecord
280
     1
270
     1
271
     1
  0
XRECORD
  5
8EA1
102
{ACAD_REACTORS
330
8E9D
102
}
330
8E9D
100
AcDbXrecord
280
     1
270
     1
271
     1
  0
XRECORD
  5
8EA3
102
{ACAD_REACTORS
330
8E9D
102
}
330
8E9D
100
AcDbXrecord
280
     1
270
     1
271
     1
  0
XRECORD
  5
8EA0
102
{ACAD_REACTORS
330
8E9D
102
}
330
8E9D
100
AcDbXrecord
280
     1
270
     1
271
     1
  0
XRECORD
  5
F094
102
{ACAD_REACTORS
330
F093
102
}
330
F093
100
AcDbXrecord
280
     1
102
ACAD_ROUNDTRIP_2012_MLEADER_STYLE
298
     1
  0
XRECORD
  5
F0AA
102
{ACAD_REACTORS
330
F0A9
102
}
330
F0A9
100
AcDbXrecord
280
     1
102
DISPLAYNAME
  1
Metric50
102
FLAGS
 90
        0
  0
CELLSTYLEMAP
  5
F067
102
{ACAD_REACTORS
330
8EFC
102
}
330
8EFC
100
AcDbCellStyleMap
 90
        3
300
CELLSTYLE
  1
TABLEFORMAT_BEGIN
 90
        5
170
     1
 91
        0
 92
    32768
 62
   257
 93
        1
300
CONTENTFORMAT
  1
CONTENTFORMAT_BEGIN
 90
        0
 91
        0
 92
        4
 93
        0
300

 40
0.0
140
1.0
 94
        5
 62
     0
340
10
144
6.0
309
CONTENTFORMAT_END
171
     1
301
MARGIN
  1
CELLMARGIN_BEGIN
 40
1.5
 40
1.5
 40
1.5
 40
1.5
 40
0.18
 40
0.18
309
CELLMARGIN_END
 94
        6
 95
        1
302
GRIDFORMAT
  1
GRIDFORMAT_BEGIN
 90
        0
 91
        1
 62
     0
 92
       -2
340
0
 93
        0
 40
0.045
309
GRIDFORMAT_END
 95
        2
302
GRIDFORMAT
  1
GRIDFORMAT_BEGIN
 90
        0
 91
        1
 62
     0
 92
       -2
340
0
 93
        0
 40
0.045
309
GRIDFORMAT_END
 95
        4
302
GRIDFORMAT
  1
GRIDFORMAT_BEGIN
 90
        0
 91
        1
 62
     0
 92
       -2
340
0
 93
        0
 40
0.045
309
GRIDFORMAT_END
 95
        8
302
GRIDFORMAT
  1
GRIDFORMAT_BEGIN
 90
        0
 91
        1
 62
     0
 92
       -2
340
0
 93
        0
 40
0.045
309
GRIDFORMAT_END
 95
       16
302
GRIDFORMAT
  1
GRIDFORMAT_BEGIN
 90
        0
 91
        1
 62
     0
 92
       -2
340
0
 93
        0
 40
0.045
309
GRIDFORMAT_END
 95
       32
302
GRIDFORMAT
  1
GRIDFORMAT_BEGIN
 90
        0
 91
        1
 62
     0
 92
       -2
340
0
 93
        0
 40
0.045
309
GRIDFORMAT_END
309
TABLEFORMAT_END
  1
CELLSTYLE_BEGIN
 90
        1
 91
        1
300
_TITLE
309
CELLSTYLE_END
300
CELLSTYLE
  1
TABLEFORMAT_BEGIN
 90
        5
170
     1
 91
        0
 92
        0
 62
   257
 93
        1
300
CONTENTFORMAT
  1
CONTENTFORMAT_BEGIN
 90
        0
 91
        0
 92
        4
 93
        0
300

 40
0.0
140
1.0
 94
        5
 62
     0
340
10
144
4.5
309
CONTENTFORMAT_END
171
     1
301
MARGIN
  1
CELLMARGIN_BEGIN
 40
1.5
 40
1.5
 40
1.5
 40
1.5
 40
0.18
 40
0.18
309
CELLMARGIN_END
 94
        6
 95
        1
302
GRIDFORMAT
  1
GRIDFORMAT_BEGIN
 90
        0
 91
        1
 62
     0
 92
       -2
340
0
 93
        0
 40
0.045
309
GRIDFORMAT_END
 95
        2
302
GRIDFORMAT
  1
GRIDFORMAT_BEGIN
 90
        0
 91
        1
 62
     0
 92
       -2
340
0
 93
        0
 40
0.045
309
GRIDFORMAT_END
 95
        4
302
GRIDFORMAT
  1
GRIDFORMAT_BEGIN
 90
        0
 91
        1
 62
     0
 92
       -2
340
0
 93
        0
 40
0.045
309
GRIDFORMAT_END
 95
        8
302
GRIDFORMAT
  1
GRIDFORMAT_BEGIN
 90
        0
 91
        1
 62
     0
 92
       -2
340
0
 93
        0
 40
0.045
309
GRIDFORMAT_END
 95
       16
302
GRIDFORMAT
  1
GRIDFORMAT_BEGIN
 90
        0
 91
        1
 62
     0
 92
       -2
340
0
 93
        0
 40
0.045
309
GRIDFORMAT_END
 95
       32
302
GRIDFORMAT
  1
GRIDFORMAT_BEGIN
 90
        0
 91
        1
 62
     0
 92
       -2
340
0
 93
        0
 40
0.045
309
GRIDFORMAT_END
309
TABLEFORMAT_END
  1
CELLSTYLE_BEGIN
 90
        2
 91
        1
300
_HEADER
309
CELLSTYLE_END
300
CELLSTYLE
  1
TABLEFORMAT_BEGIN
 90
        5
170
     1
 91
        0
 92
        0
 62
   257
 93
        1
300
CONTENTFORMAT
  1
CONTENTFORMAT_BEGIN
 90
        0
 91
        0
 92
        4
 93
        0
300

 40
0.0
140
1.0
 94
        2
 62
     0
340
10
144
4.5
309
CONTENTFORMAT_END
171
     1
301
MARGIN
  1
CELLMARGIN_BEGIN
 40
1.5
 40
1.5
 40
1.5
 40
1.5
 40
0.18
 40
0.18
309
CELLMARGIN_END
 94
        6
 95
        1
302
GRIDFORMAT
  1
GRIDFORMAT_BEGIN
 90
        0
 91
        1
 62
     0
 92
       -2
340
0
 93
        0
 40
0.045
309
GRIDFORMAT_END
 95
        2
302
GRIDFORMAT
  1
GRIDFORMAT_BEGIN
 90
        0
 91
        1
 62
     0
 92
       -2
340
0
 93
        0
 40
0.045
309
GRIDFORMAT_END
 95
        4
302
GRIDFORMAT
  1
GRIDFORMAT_BEGIN
 90
        0
 91
        1
 62
     0
 92
       -2
340
0
 93
        0
 40
0.045
309
GRIDFORMAT_END
 95
        8
302
GRIDFORMAT
  1
GRIDFORMAT_BEGIN
 90
        0
 91
        1
 62
     0
 92
       -2
340
0
 93
        0
 40
0.045
309
GRIDFORMAT_END
 95
       16
302
GRIDFORMAT
  1
GRIDFORMAT_BEGIN
 90
        0
 91
        1
 62
     0
 92
       -2
340
0
 93
        0
 40
0.045
309
GRIDFORMAT_END
 95
       32
302
GRIDFORMAT
  1
GRIDFORMAT_BEGIN
 90
        0
 91
        1
 62
     0
 92
       -2
340
0
 93
        0
 40
0.045
309
GRIDFORMAT_END
309
TABLEFORMAT_END
  1
CELLSTYLE_BEGIN
 90
        3
 91
        2
300
_DATA
309
CELLSTYLE_END
  0
XRECORD
  5
F06F
102
{ACAD_REACTORS
330
8EFC
102
}
330
8EFC
100
AcDbXrecord
280
     1
102
ACAD_ROUNDTRIP_PRE2007_TABLESTYLE
 90
        4
 91
        0
  1

 92
        4
 93
        0
  2

 94
        4
 95
        0
  3

  0
XRECORD
  5
F07E
102
{ACAD_REACTORS
330
F07D
102
}
330
F07D
100
AcDbXrecord
280
     1
102
RTVSPost2010Prop28
280
     1
102
RTVSPost2010PropOp28
 70
     1
102
RTVSPost2010Prop29
280
     1
102
RTVSPost2010PropOp29
 70
     1
102
RTVSPost2010Prop30
280
     0
102
RTVSPost2010PropOp30
 70
     1
102
RTVSPost2010Prop31
280
     0
102
RTVSPost2010PropOp31
 70
     1
102
RTVSPost2010Prop32
280
     0
102
RTVSPost2010PropOp32
 70
     1
102
RTVSPost2010Prop33
280
     0
102
RTVSPost2010PropOp33
 70
     1
102
RTVSPost2010Prop34
280
     0
102
RTVSPost2010PropOp34
 70
     1
102
RTVSPost2010Prop35
280
     0
102
RTVSPost2010PropOp35
 70
     1
102
RTVSPost2010Prop36
280
     0
102
RTVSPost2010PropOp36
 70
     1
102
RTVSPost2010Prop37
 90
       50
102
RTVSPost2010PropOp37
 70
     1
102
RTVSPost2010Prop38
140
0.0
102
RTVSPost2010PropOp38
 70
     1
102
RTVSPost2010Prop39
140
1.0
102
RTVSPost2010PropOp39
 70
     1
102
RTVSPost2010Prop40
 90
        0
102
RTVSPost2010PropOp40
 70
     1
102
RTVSPost2010Prop41ColorIndex
 90
       18
102
RTVSPost2010Prop41ColorRGB
 90
        0
102
RTVSPost2010PropOp41
 70
     1
102
RTVSPost2010Prop42
 90
       50
102
RTVSPost2010PropOp42
 70
     1
102
RTVSPost2010Prop43
 90
        3
102
RTVSPost2010PropOp43
 70
     1
102
RTVSPost2010Prop44ColorIndex
 90
        5
102
RTVSPost2010Prop44ColorRGB
 90
      255
102
RTVSPost2010PropOp44
 70
     1
102
RTVSPost2010Prop45
280
     0
102
RTVSPost2010PropOp45
 70
     1
102
RTVSPost2010Prop46
 90
       50
102
RTVSPost2010PropOp46
 70
     1
102
RTVSPost2010Prop47
 90
       50
102
RTVSPost2010PropOp47
 70
     1
102
RTVSPost2010Prop48
 90
       50
102
RTVSPost2010PropOp48
 70
     1
102
RTVSPost2010Prop49
280
     0
102
RTVSPost2010PropOp49
 70
     1
102
RTVSPost2010Prop50
 90
       50
102
RTVSPost2010PropOp50
 70
     1
102
RTVSPost2010Prop51ColorIndex
 90
      256
102
RTVSPost2010Prop51ColorRGB
 90
-16777216
102
RTVSPost2010PropOp51
 70
     0
102
RTVSPost2010Prop52
140
1.0
102
RTVSPost2010PropOp52
 70
     0
102
RTVSPost2010Prop53
 90
        2
102
RTVSPost2010PropOp53
 70
     1
102
RTVSPost2010Prop54
  1
strokes_ogs.tif
102
RTVSPost2010PropOp54
 70
     1
102
RTVSPost2010Prop55
280
     0
102
RTVSPost2010PropOp55
 70
     1
102
RTVSPost2010Prop56
140
1.0
102
RTVSPost2010PropOp56
 70
     1
102
RTVSPost2010Prop57
140
1.0
102
RTVSPost2010PropOp57
 70
     1
102
RTVSPropertyOp0
 70
     1
102
RTVSPropertyOp1
 70
     1
102
RTVSPropertyOp2
 70
     1
102
RTVSPropertyOp3
 70
     1
102
RTVSPropertyOp4
 70
     1
102
RTVSPropertyOp5
 70
     1
102
RTVSPropertyOp6
 70
     1
102
RTVSPropertyOp7
 70
     1
102
RTVSPropertyOp8
 70
     1
102
RTVSPropertyOp9
 70
     1
102
RTVSPropertyOp10
 70
     1
102
RTVSPropertyOp11
 70
     1
102
RTVSPropertyOp12
 70
     1
102
RTVSPropertyOp13
 70
     1
102
RTVSPropertyOp14
 70
     1
102
RTVSPropertyOp15
 70
     1
102
RTVSPropertyOp16
 70
     1
102
RTVSPropertyOp17
 70
     1
102
RTVSPropertyOp18
 70
     1
102
RTVSPropertyOp19
 70
     1
102
RTVSPropertyOp20
 70
     1
102
RTVSPropertyOp21
 70
     1
102
RTVSPropertyOp22
 70
     1
102
RTVSPropertyOp23
 70
     1
102
RTVSPropertyOp24
 70
     1
102
RTVSPropertyOp25
 70
     1
102
RTVSPropertyOp26
 70
     1
102
RTVSPropertyOp27
 70
     1
102
RTVSPropertyOp28
 70
     1
102
RTVSPropertyOp29
 70
     1
102
RTVSPropertyOp30
 70
     1
102
RTVSPropertyOp31
 70
     1
102
RTVSPropertyOp32
 70
     1
102
RTVSPropertyOp33
 70
     1
102
RTVSPropertyOp34
 70
     1
102
RTVSPropertyOp35
 70
     1
102
RTVSPropertyOp36
 70
     1
102
RTVSPropertyOp37
 70
     1
102
RTVSPropertyOp38
 70
     1
102
RTVSPropertyOp39
 70
     1
102
RTVSPropertyOp40
 70
     1
102
RTVSPropertyOp41
 70
     1
102
RTVSPropertyOp42
 70
     1
102
RTVSPropertyOp43
 70
     1
102
RTVSPropertyOp44
 70
     1
102
RTVSPropertyOp45
 70
     1
102
RTVSPropertyOp46
 70
     1
102
RTVSPropertyOp47
 70
     1
102
RTVSPropertyOp48
 70
     1
102
RTVSPropertyOp49
 70
     1
102
RTVSPropertyOp50
 70
     1
102
RTVSPropertyOp51
 70
     0
102
RTVSPropertyOp52
 70
     0
102
RTVSPropertyOp53
 70
     1
102
RTVSPropertyOp54
 70
     1
102
RTVSPropertyOp55
 70
     1
102
RTVSPropertyOp56
 70
     1
102
RTVSPropertyOp57
 70
     1
102
RTVSPropertyOp58
 70
     1
102
RTVSPropertyOp59
 70
     1
102
RTVSPropertyOp60
 70
     1
102
RTVSPropertyOp61
 70
     1
102
RTVSPropertyOp62
 70
     1
  0
XRECORD
  5
F082
102
{ACAD_REACTORS
330
F081
102
}
330
F081
100
AcDbXrecord
280
     1
102
RTVSPost2010Prop28
280
     0
102
RTVSPost2010PropOp28
 70
     1
102
RTVSPost2010Prop29
280
     1
102
RTVSPost2010PropOp29
 70
     1
102
RTVSPost2010Prop30
280
     1
102
RTVSPost2010PropOp30
 70
     1
102
RTVSPost2010Prop31
280
     0
102
RTVSPost2010PropOp31
 70
     1
102
RTVSPost2010Prop32
280
     0
102
RTVSPost2010PropOp32
 70
     1
102
RTVSPost2010Prop33
280
     0
102
RTVSPost2010PropOp33
 70
     1
102
RTVSPost2010Prop34
280
     0
102
RTVSPost2010PropOp34
 70
     1
102
RTVSPost2010Prop35
280
     0
102
RTVSPost2010PropOp35
 70
     1
102
RTVSPost2010Prop36
280
     0
102
RTVSPost2010PropOp36
 70
     1
102
RTVSPost2010Prop37
 90
       50
102
RTVSPost2010PropOp37
 70
     1
102
RTVSPost2010Prop38
140
0.0
102
RTVSPost2010PropOp38
 70
     1
102
RTVSPost2010Prop39
140
1.0
102
RTVSPost2010PropOp39
 70
     1
102
RTVSPost2010Prop40
 90
        0
102
RTVSPost2010PropOp40
 70
     1
102
RTVSPost2010Prop41ColorIndex
 90
       18
102
RTVSPost2010Prop41ColorRGB
 90
        0
102
RTVSPost2010PropOp41
 70
     1
102
RTVSPost2010Prop42
 90
       50
102
RTVSPost2010PropOp42
 70
     1
102
RTVSPost2010Prop43
 90
        3
102
RTVSPost2010PropOp43
 70
     1
102
RTVSPost2010Prop44ColorIndex
 90
        5
102
RTVSPost2010Prop44ColorRGB
 90
      255
102
RTVSPost2010PropOp44
 70
     1
102
RTVSPost2010Prop45
280
     0
102
RTVSPost2010PropOp45
 70
     1
102
RTVSPost2010Prop46
 90
       50
102
RTVSPost2010PropOp46
 70
     1
102
RTVSPost2010Prop47
 90
       50
102
RTVSPost2010PropOp47
 70
     1
102
RTVSPost2010Prop48
 90
       50
102
RTVSPost2010PropOp48
 70
     1
102
RTVSPost2010Prop49
280
     0
102
RTVSPost2010PropOp49
 70
     1
102
RTVSPost2010Prop50
 90
       50
102
RTVSPost2010PropOp50
 70
     1
102
RTVSPost2010Prop51ColorIndex
 90
      256
102
RTVSPost2010Prop51ColorRGB
 90
-16777216
102
RTVSPost2010PropOp51
 70
     0
102
RTVSPost2010Prop52
140
1.0
102
RTVSPost2010PropOp52
 70
     0
102
RTVSPost2010Prop53
 90
        2
102
RTVSPost2010PropOp53
 70
     1
102
RTVSPost2010Prop54
  1
strokes_ogs.tif
102
RTVSPost2010PropOp54
 70
     1
102
RTVSPost2010Prop55
280
     0
102
RTVSPost2010PropOp55
 70
     1
102
RTVSPost2010Prop56
140
1.0
102
RTVSPost2010PropOp56
 70
     1
102
RTVSPost2010Prop57
140
1.0
102
RTVSPost2010PropOp57
 70
     1
102
RTVSPropertyOp0
 70
     1
102
RTVSPropertyOp1
 70
     1
102
RTVSPropertyOp2
 70
     1
102
RTVSPropertyOp3
 70
     1
102
RTVSPropertyOp4
 70
     1
102
RTVSPropertyOp5
 70
     1
102
RTVSPropertyOp6
 70
     1
102
RTVSPropertyOp7
 70
     1
102
RTVSPropertyOp8
 70
     1
102
RTVSPropertyOp9
 70
     1
102
RTVSPropertyOp10
 70
     1
102
RTVSPropertyOp11
 70
     1
102
RTVSPropertyOp12
 70
     1
102
RTVSPropertyOp13
 70
     1
102
RTVSPropertyOp14
 70
     1
102
RTVSPropertyOp15
 70
     1
102
RTVSPropertyOp16
 70
     1
102
RTVSPropertyOp17
 70
     1
102
RTVSPropertyOp18
 70
     1
102
RTVSPropertyOp19
 70
     1
102
RTVSPropertyOp20
 70
     1
102
RTVSPropertyOp21
 70
     1
102
RTVSPropertyOp22
 70
     1
102
RTVSPropertyOp23
 70
     1
102
RTVSPropertyOp24
 70
     1
102
RTVSPropertyOp25
 70
     1
102
RTVSPropertyOp26
 70
     1
102
RTVSPropertyOp27
 70
     1
102
RTVSPropertyOp28
 70
     1
102
RTVSPropertyOp29
 70
     1
102
RTVSPropertyOp30
 70
     1
102
RTVSPropertyOp31
 70
     1
102
RTVSPropertyOp32
 70
     1
102
RTVSPropertyOp33
 70
     1
102
RTVSPropertyOp34
 70
     1
102
RTVSPropertyOp35
 70
     1
102
RTVSPropertyOp36
 70
     1
102
RTVSPropertyOp37
 70
     1
102
RTVSPropertyOp38
 70
     1
102
RTVSPropertyOp39
 70
     1
102
RTVSPropertyOp40
 70
     1
102
RTVSPropertyOp41
 70
     1
102
RTVSPropertyOp42
 70
     1
102
RTVSPropertyOp43
 70
     1
102
RTVSPropertyOp44
 70
     1
102
RTVSPropertyOp45
 70
     1
102
RTVSPropertyOp46
 70
     1
102
RTVSPropertyOp47
 70
     1
102
RTVSPropertyOp48
 70
     1
102
RTVSPropertyOp49
 70
     1
102
RTVSPropertyOp50
 70
     1
102
RTVSPropertyOp51
 70
     0
102
RTVSPropertyOp52
 70
     0
102
RTVSPropertyOp53
 70
     1
102
RTVSPropertyOp54
 70
     1
102
RTVSPropertyOp55
 70
     1
102
RTVSPropertyOp56
 70
     1
102
RTVSPropertyOp57
 70
     1
102
RTVSPropertyOp58
 70
     1
102
RTVSPropertyOp59
 70
     1
102
RTVSPropertyOp60
 70
     1
102
RTVSPropertyOp61
 70
     1
102
RTVSPropertyOp62
 70
     1
  0
XRECORD
  5
F080
102
{ACAD_REACTORS
330
F07F
102
}
330
F07F
100
AcDbXrecord
280
     1
102
RTVSPost2010Prop28
280
     0
102
RTVSPost2010PropOp28
 70
     1
102
RTVSPost2010Prop29
280
     1
102
RTVSPost2010PropOp29
 70
     1
102
RTVSPost2010Prop30
280
     1
102
RTVSPost2010PropOp30
 70
     1
102
RTVSPost2010Prop31
280
     0
102
RTVSPost2010PropOp31
 70
     1
102
RTVSPost2010Prop32
280
     0
102
RTVSPost2010PropOp32
 70
     1
102
RTVSPost2010Prop33
280
     0
102
RTVSPost2010PropOp33
 70
     1
102
RTVSPost2010Prop34
280
     0
102
RTVSPost2010PropOp34
 70
     1
102
RTVSPost2010Prop35
280
     0
102
RTVSPost2010PropOp35
 70
     1
102
RTVSPost2010Prop36
280
     0
102
RTVSPost2010PropOp36
 70
     1
102
RTVSPost2010Prop37
 90
       50
102
RTVSPost2010PropOp37
 70
     1
102
RTVSPost2010Prop38
140
0.0
102
RTVSPost2010PropOp38
 70
     1
102
RTVSPost2010Prop39
140
1.0
102
RTVSPost2010PropOp39
 70
     1
102
RTVSPost2010Prop40
 90
        0
102
RTVSPost2010PropOp40
 70
     1
102
RTVSPost2010Prop41ColorIndex
 90
       18
102
RTVSPost2010Prop41ColorRGB
 90
        0
102
RTVSPost2010PropOp41
 70
     1
102
RTVSPost2010Prop42
 90
       50
102
RTVSPost2010PropOp42
 70
     1
102
RTVSPost2010Prop43
 90
        3
102
RTVSPost2010PropOp43
 70
     1
102
RTVSPost2010Prop44ColorIndex
 90
        5
102
RTVSPost2010Prop44ColorRGB
 90
      255
102
RTVSPost2010PropOp44
 70
     1
102
RTVSPost2010Prop45
280
     0
102
RTVSPost2010PropOp45
 70
     1
102
RTVSPost2010Prop46
 90
       50
102
RTVSPost2010PropOp46
 70
     1
102
RTVSPost2010Prop47
 90
       50
102
RTVSPost2010PropOp47
 70
     1
102
RTVSPost2010Prop48
 90
       50
102
RTVSPost2010PropOp48
 70
     1
102
RTVSPost2010Prop49
280
     0
102
RTVSPost2010PropOp49
 70
     1
102
RTVSPost2010Prop50
 90
       50
102
RTVSPost2010PropOp50
 70
     1
102
RTVSPost2010Prop51ColorIndex
 90
      256
102
RTVSPost2010Prop51ColorRGB
 90
-16777216
102
RTVSPost2010PropOp51
 70
     0
102
RTVSPost2010Prop52
140
1.0
102
RTVSPost2010PropOp52
 70
     0
102
RTVSPost2010Prop53
 90
        2
102
RTVSPost2010PropOp53
 70
     1
102
RTVSPost2010Prop54
  1
strokes_ogs.tif
102
RTVSPost2010PropOp54
 70
     1
102
RTVSPost2010Prop55
280
     0
102
RTVSPost2010PropOp55
 70
     1
102
RTVSPost2010Prop56
140
1.0
102
RTVSPost2010PropOp56
 70
     1
102
RTVSPost2010Prop57
140
1.0
102
RTVSPost2010PropOp57
 70
     1
102
RTVSPropertyOp0
 70
     1
102
RTVSPropertyOp1
 70
     1
102
RTVSPropertyOp2
 70
     1
102
RTVSPropertyOp3
 70
     1
102
RTVSPropertyOp4
 70
     1
102
RTVSPropertyOp5
 70
     1
102
RTVSPropertyOp6
 70
     1
102
RTVSPropertyOp7
 70
     1
102
RTVSPropertyOp8
 70
     1
102
RTVSPropertyOp9
 70
     1
102
RTVSPropertyOp10
 70
     1
102
RTVSPropertyOp11
 70
     1
102
RTVSPropertyOp12
 70
     1
102
RTVSPropertyOp13
 70
     1
102
RTVSPropertyOp14
 70
     1
102
RTVSPropertyOp15
 70
     1
102
RTVSPropertyOp16
 70
     1
102
RTVSPropertyOp17
 70
     1
102
RTVSPropertyOp18
 70
     1
102
RTVSPropertyOp19
 70
     1
102
RTVSPropertyOp20
 70
     1
102
RTVSPropertyOp21
 70
     1
102
RTVSPropertyOp22
 70
     1
102
RTVSPropertyOp23
 70
     1
102
RTVSPropertyOp24
 70
     1
102
RTVSPropertyOp25
 70
     1
102
RTVSPropertyOp26
 70
     1
102
RTVSPropertyOp27
 70
     1
102
RTVSPropertyOp28
 70
     1
102
RTVSPropertyOp29
 70
     1
102
RTVSPropertyOp30
 70
     1
102
RTVSPropertyOp31
 70
     1
102
RTVSPropertyOp32
 70
     1
102
RTVSPropertyOp33
 70
     1
102
RTVSPropertyOp34
 70
     1
102
RTVSPropertyOp35
 70
     1
102
RTVSPropertyOp36
 70
     1
102
RTVSPropertyOp37
 70
     1
102
RTVSPropertyOp38
 70
     1
102
RTVSPropertyOp39
 70
     1
102
RTVSPropertyOp40
 70
     1
102
RTVSPropertyOp41
 70
     1
102
RTVSPropertyOp42
 70
     1
102
RTVSPropertyOp43
 70
     1
102
RTVSPropertyOp44
 70
     1
102
RTVSPropertyOp45
 70
     1
102
RTVSPropertyOp46
 70
     1
102
RTVSPropertyOp47
 70
     1
102
RTVSPropertyOp48
 70
     1
102
RTVSPropertyOp49
 70
     1
102
RTVSPropertyOp50
 70
     1
102
RTVSPropertyOp51
 70
     0
102
RTVSPropertyOp52
 70
     0
102
RTVSPropertyOp53
 70
     1
102
RTVSPropertyOp54
 70
     1
102
RTVSPropertyOp55
 70
     1
102
RTVSPropertyOp56
 70
     1
102
RTVSPropertyOp57
 70
     1
102
RTVSPropertyOp58
 70
     1
102
RTVSPropertyOp59
 70
     1
102
RTVSPropertyOp60
 70
     1
102
RTVSPropertyOp61
 70
     1
102
RTVSPropertyOp62
 70
     1
  0
XRECORD
  5
F07C
102
{ACAD_REACTORS
330
F07B
102
}
330
F07B
100
AcDbXrecord
280
     1
102
RTVSPost2010Prop28
280
     0
102
RTVSPost2010PropOp28
 70
     1
102
RTVSPost2010Prop29
280
     1
102
RTVSPost2010PropOp29
 70
     1
102
RTVSPost2010Prop30
280
     1
102
RTVSPost2010PropOp30
 70
     1
102
RTVSPost2010Prop31
280
     0
102
RTVSPost2010PropOp31
 70
     1
102
RTVSPost2010Prop32
280
     0
102
RTVSPost2010PropOp32
 70
     1
102
RTVSPost2010Prop33
280
     0
102
RTVSPost2010PropOp33
 70
     1
102
RTVSPost2010Prop34
280
     0
102
RTVSPost2010PropOp34
 70
     1
102
RTVSPost2010Prop35
280
     0
102
RTVSPost2010PropOp35
 70
     1
102
RTVSPost2010Prop36
280
     0
102
RTVSPost2010PropOp36
 70
     1
102
RTVSPost2010Prop37
 90
       50
102
RTVSPost2010PropOp37
 70
     1
102
RTVSPost2010Prop38
140
0.0
102
RTVSPost2010PropOp38
 70
     1
102
RTVSPost2010Prop39
140
1.0
102
RTVSPost2010PropOp39
 70
     1
102
RTVSPost2010Prop40
 90
        0
102
RTVSPost2010PropOp40
 70
     1
102
RTVSPost2010Prop41ColorIndex
 90
       18
102
RTVSPost2010Prop41ColorRGB
 90
        0
102
RTVSPost2010PropOp41
 70
     1
102
RTVSPost2010Prop42
 90
       50
102
RTVSPost2010PropOp42
 70
     1
102
RTVSPost2010Prop43
 90
        3
102
RTVSPost2010PropOp43
 70
     1
102
RTVSPost2010Prop44ColorIndex
 90
        5
102
RTVSPost2010Prop44ColorRGB
 90
      255
102
RTVSPost2010PropOp44
 70
     1
102
RTVSPost2010Prop45
280
     0
102
RTVSPost2010PropOp45
 70
     1
102
RTVSPost2010Prop46
 90
       50
102
RTVSPost2010PropOp46
 70
     1
102
RTVSPost2010Prop47
 90
       50
102
RTVSPost2010PropOp47
 70
     1
102
RTVSPost2010Prop48
 90
       50
102
RTVSPost2010PropOp48
 70
     1
102
RTVSPost2010Prop49
280
     0
102
RTVSPost2010PropOp49
 70
     1
102
RTVSPost2010Prop50
 90
       50
102
RTVSPost2010PropOp50
 70
     1
102
RTVSPost2010Prop51ColorIndex
 90
      256
102
RTVSPost2010Prop51ColorRGB
 90
-16777216
102
RTVSPost2010PropOp51
 70
     0
102
RTVSPost2010Prop52
140
1.0
102
RTVSPost2010PropOp52
 70
     0
102
RTVSPost2010Prop53
 90
        2
102
RTVSPost2010PropOp53
 70
     1
102
RTVSPost2010Prop54
  1
strokes_ogs.tif
102
RTVSPost2010PropOp54
 70
     1
102
RTVSPost2010Prop55
280
     0
102
RTVSPost2010PropOp55
 70
     1
102
RTVSPost2010Prop56
140
1.0
102
RTVSPost2010PropOp56
 70
     1
102
RTVSPost2010Prop57
140
1.0
102
RTVSPost2010PropOp57
 70
     1
102
RTVSPropertyOp0
 70
     1
102
RTVSPropertyOp1
 70
     1
102
RTVSPropertyOp2
 70
     1
102
RTVSPropertyOp3
 70
     1
102
RTVSPropertyOp4
 70
     1
102
RTVSPropertyOp5
 70
     1
102
RTVSPropertyOp6
 70
     1
102
RTVSPropertyOp7
 70
     1
102
RTVSPropertyOp8
 70
     1
102
RTVSPropertyOp9
 70
     1
102
RTVSPropertyOp10
 70
     1
102
RTVSPropertyOp11
 70
     1
102
RTVSPropertyOp12
 70
     1
102
RTVSPropertyOp13
 70
     1
102
RTVSPropertyOp14
 70
     1
102
RTVSPropertyOp15
 70
     1
102
RTVSPropertyOp16
 70
     1
102
RTVSPropertyOp17
 70
     1
102
RTVSPropertyOp18
 70
     1
102
RTVSPropertyOp19
 70
     1
102
RTVSPropertyOp20
 70
     1
102
RTVSPropertyOp21
 70
     1
102
RTVSPropertyOp22
 70
     1
102
RTVSPropertyOp23
 70
     1
102
RTVSPropertyOp24
 70
     1
102
RTVSPropertyOp25
 70
     1
102
RTVSPropertyOp26
 70
     1
102
RTVSPropertyOp27
 70
     1
102
RTVSPropertyOp28
 70
     1
102
RTVSPropertyOp29
 70
     1
102
RTVSPropertyOp30
 70
     1
102
RTVSPropertyOp31
 70
     1
102
RTVSPropertyOp32
 70
     1
102
RTVSPropertyOp33
 70
     1
102
RTVSPropertyOp34
 70
     1
102
RTVSPropertyOp35
 70
     1
102
RTVSPropertyOp36
 70
     1
102
RTVSPropertyOp37
 70
     1
102
RTVSPropertyOp38
 70
     1
102
RTVSPropertyOp39
 70
     1
102
RTVSPropertyOp40
 70
     1
102
RTVSPropertyOp41
 70
     1
102
RTVSPropertyOp42
 70
     1
102
RTVSPropertyOp43
 70
     1
102
RTVSPropertyOp44
 70
     1
102
RTVSPropertyOp45
 70
     1
102
RTVSPropertyOp46
 70
     1
102
RTVSPropertyOp47
 70
     1
102
RTVSPropertyOp48
 70
     1
102
RTVSPropertyOp49
 70
     1
102
RTVSPropertyOp50
 70
     1
102
RTVSPropertyOp51
 70
     0
102
RTVSPropertyOp52
 70
     0
102
RTVSPropertyOp53
 70
     1
102
RTVSPropertyOp54
 70
     1
102
RTVSPropertyOp55
 70
     1
102
RTVSPropertyOp56
 70
     1
102
RTVSPropertyOp57
 70
     1
102
RTVSPropertyOp58
 70
     1
102
RTVSPropertyOp59
 70
     1
102
RTVSPropertyOp60
 70
     1
102
RTVSPropertyOp61
 70
     1
102
RTVSPropertyOp62
 70
     1
  0
XRECORD
  5
F08A
102
{ACAD_REACTORS
330
F089
102
}
330
F089
100
AcDbXrecord
280
     1
102
RTVSPost2010Prop28
280
     0
102
RTVSPost2010PropOp28
 70
     1
102
RTVSPost2010Prop29
280
     1
102
RTVSPost2010PropOp29
 70
     1
102
RTVSPost2010Prop30
280
     1
102
RTVSPost2010PropOp30
 70
     1
102
RTVSPost2010Prop31
280
     0
102
RTVSPost2010PropOp31
 70
     1
102
RTVSPost2010Prop32
280
     0
102
RTVSPost2010PropOp32
 70
     1
102
RTVSPost2010Prop33
280
     0
102
RTVSPost2010PropOp33
 70
     1
102
RTVSPost2010Prop34
280
     0
102
RTVSPost2010PropOp34
 70
     1
102
RTVSPost2010Prop35
280
     0
102
RTVSPost2010PropOp35
 70
     1
102
RTVSPost2010Prop36
280
     0
102
RTVSPost2010PropOp36
 70
     1
102
RTVSPost2010Prop37
 90
       50
102
RTVSPost2010PropOp37
 70
     1
102
RTVSPost2010Prop38
140
0.0
102
RTVSPost2010PropOp38
 70
     1
102
RTVSPost2010Prop39
140
1.0
102
RTVSPost2010PropOp39
 70
     1
102
RTVSPost2010Prop40
 90
        0
102
RTVSPost2010PropOp40
 70
     1
102
RTVSPost2010Prop41ColorIndex
 90
       18
102
RTVSPost2010Prop41ColorRGB
 90
        0
102
RTVSPost2010PropOp41
 70
     1
102
RTVSPost2010Prop42
 90
       50
102
RTVSPost2010PropOp42
 70
     1
102
RTVSPost2010Prop43
 90
        3
102
RTVSPost2010PropOp43
 70
     1
102
RTVSPost2010Prop44ColorIndex
 90
        5
102
RTVSPost2010Prop44ColorRGB
 90
      255
102
RTVSPost2010PropOp44
 70
     1
102
RTVSPost2010Prop45
280
     0
102
RTVSPost2010PropOp45
 70
     1
102
RTVSPost2010Prop46
 90
       50
102
RTVSPost2010PropOp46
 70
     1
102
RTVSPost2010Prop47
 90
       50
102
RTVSPost2010PropOp47
 70
     1
102
RTVSPost2010Prop48
 90
       50
102
RTVSPost2010PropOp48
 70
     1
102
RTVSPost2010Prop49
280
     0
102
RTVSPost2010PropOp49
 70
     1
102
RTVSPost2010Prop50
 90
       50
102
RTVSPost2010PropOp50
 70
     1
102
RTVSPost2010Prop51ColorIndex
 90
      256
102
RTVSPost2010Prop51ColorRGB
 90
-16777216
102
RTVSPost2010PropOp51
 70
     0
102
RTVSPost2010Prop52
140
1.0
102
RTVSPost2010PropOp52
 70
     0
102
RTVSPost2010Prop53
 90
        2
102
RTVSPost2010PropOp53
 70
     1
102
RTVSPost2010Prop54
  1
strokes_ogs.tif
102
RTVSPost2010PropOp54
 70
     1
102
RTVSPost2010Prop55
280
     0
102
RTVSPost2010PropOp55
 70
     1
102
RTVSPost2010Prop56
140
1.0
102
RTVSPost2010PropOp56
 70
     1
102
RTVSPost2010Prop57
140
1.0
102
RTVSPost2010PropOp57
 70
     1
102
RTVSPropertyOp0
 70
     1
102
RTVSPropertyOp1
 70
     1
102
RTVSPropertyOp2
 70
     1
102
RTVSPropertyOp3
 70
     1
102
RTVSPropertyOp4
 70
     1
102
RTVSPropertyOp5
 70
     1
102
RTVSPropertyOp6
 70
     1
102
RTVSPropertyOp7
 70
     1
102
RTVSPropertyOp8
 70
     1
102
RTVSPropertyOp9
 70
     1
102
RTVSPropertyOp10
 70
     1
102
RTVSPropertyOp11
 70
     1
102
RTVSPropertyOp12
 70
     1
102
RTVSPropertyOp13
 70
     1
102
RTVSPropertyOp14
 70
     1
102
RTVSPropertyOp15
 70
     1
102
RTVSPropertyOp16
 70
     1
102
RTVSPropertyOp17
 70
     1
102
RTVSPropertyOp18
 70
     1
102
RTVSPropertyOp19
 70
     1
102
RTVSPropertyOp20
 70
     1
102
RTVSPropertyOp21
 70
     1
102
RTVSPropertyOp22
 70
     1
102
RTVSPropertyOp23
 70
     1
102
RTVSPropertyOp24
 70
     1
102
RTVSPropertyOp25
 70
     1
102
RTVSPropertyOp26
 70
     1
102
RTVSPropertyOp27
 70
     1
102
RTVSPropertyOp28
 70
     1
102
RTVSPropertyOp29
 70
     1
102
RTVSPropertyOp30
 70
     1
102
RTVSPropertyOp31
 70
     1
102
RTVSPropertyOp32
 70
     1
102
RTVSPropertyOp33
 70
     1
102
RTVSPropertyOp34
 70
     1
102
RTVSPropertyOp35
 70
     1
102
RTVSPropertyOp36
 70
     1
102
RTVSPropertyOp37
 70
     1
102
RTVSPropertyOp38
 70
     1
102
RTVSPropertyOp39
 70
     1
102
RTVSPropertyOp40
 70
     1
102
RTVSPropertyOp41
 70
     1
102
RTVSPropertyOp42
 70
     1
102
RTVSPropertyOp43
 70
     1
102
RTVSPropertyOp44
 70
     1
102
RTVSPropertyOp45
 70
     1
102
RTVSPropertyOp46
 70
     1
102
RTVSPropertyOp47
 70
     1
102
RTVSPropertyOp48
 70
     1
102
RTVSPropertyOp49
 70
     1
102
RTVSPropertyOp50
 70
     1
102
RTVSPropertyOp51
 70
     0
102
RTVSPropertyOp52
 70
     0
102
RTVSPropertyOp53
 70
     1
102
RTVSPropertyOp54
 70
     1
102
RTVSPropertyOp55
 70
     1
102
RTVSPropertyOp56
 70
     1
102
RTVSPropertyOp57
 70
     1
102
RTVSPropertyOp58
 70
     1
102
RTVSPropertyOp59
 70
     1
102
RTVSPropertyOp60
 70
     1
102
RTVSPropertyOp61
 70
     1
102
RTVSPropertyOp62
 70
     1
  0
XRECORD
  5
F092
102
{ACAD_REACTORS
330
F091
102
}
330
F091
100
AcDbXrecord
280
     1
102
RTVSPost2010Prop28
280
     0
102
RTVSPost2010PropOp28
 70
     1
102
RTVSPost2010Prop29
280
     1
102
RTVSPost2010PropOp29
 70
     1
102
RTVSPost2010Prop30
280
     1
102
RTVSPost2010PropOp30
 70
     1
102
RTVSPost2010Prop31
280
     0
102
RTVSPost2010PropOp31
 70
     1
102
RTVSPost2010Prop32
280
     0
102
RTVSPost2010PropOp32
 70
     1
102
RTVSPost2010Prop33
280
     0
102
RTVSPost2010PropOp33
 70
     1
102
RTVSPost2010Prop34
280
     0
102
RTVSPost2010PropOp34
 70
     1
102
RTVSPost2010Prop35
280
     0
102
RTVSPost2010PropOp35
 70
     1
102
RTVSPost2010Prop36
280
     0
102
RTVSPost2010PropOp36
 70
     1
102
RTVSPost2010Prop37
 90
       50
102
RTVSPost2010PropOp37
 70
     1
102
RTVSPost2010Prop38
140
0.0
102
RTVSPost2010PropOp38
 70
     1
102
RTVSPost2010Prop39
140
1.0
102
RTVSPost2010PropOp39
 70
     1
102
RTVSPost2010Prop40
 90
        0
102
RTVSPost2010PropOp40
 70
     1
102
RTVSPost2010Prop41ColorIndex
 90
       18
102
RTVSPost2010Prop41ColorRGB
 90
        0
102
RTVSPost2010PropOp41
 70
     1
102
RTVSPost2010Prop42
 90
       50
102
RTVSPost2010PropOp42
 70
     1
102
RTVSPost2010Prop43
 90
        3
102
RTVSPost2010PropOp43
 70
     1
102
RTVSPost2010Prop44ColorIndex
 90
        5
102
RTVSPost2010Prop44ColorRGB
 90
      255
102
RTVSPost2010PropOp44
 70
     1
102
RTVSPost2010Prop45
280
     0
102
RTVSPost2010PropOp45
 70
     1
102
RTVSPost2010Prop46
 90
       50
102
RTVSPost2010PropOp46
 70
     1
102
RTVSPost2010Prop47
 90
       50
102
RTVSPost2010PropOp47
 70
     1
102
RTVSPost2010Prop48
 90
       50
102
RTVSPost2010PropOp48
 70
     1
102
RTVSPost2010Prop49
280
     0
102
RTVSPost2010PropOp49
 70
     1
102
RTVSPost2010Prop50
 90
       50
102
RTVSPost2010PropOp50
 70
     1
102
RTVSPost2010Prop51ColorIndex
 90
      256
102
RTVSPost2010Prop51ColorRGB
 90
-16777216
102
RTVSPost2010PropOp51
 70
     0
102
RTVSPost2010Prop52
140
1.0
102
RTVSPost2010PropOp52
 70
     0
102
RTVSPost2010Prop53
 90
        2
102
RTVSPost2010PropOp53
 70
     1
102
RTVSPost2010Prop54
  1
strokes_ogs.tif
102
RTVSPost2010PropOp54
 70
     1
102
RTVSPost2010Prop55
280
     0
102
RTVSPost2010PropOp55
 70
     1
102
RTVSPost2010Prop56
140
1.0
102
RTVSPost2010PropOp56
 70
     1
102
RTVSPost2010Prop57
140
1.0
102
RTVSPost2010PropOp57
 70
     1
102
RTVSPropertyOp0
 70
     1
102
RTVSPropertyOp1
 70
     1
102
RTVSPropertyOp2
 70
     1
102
RTVSPropertyOp3
 70
     1
102
RTVSPropertyOp4
 70
     1
102
RTVSPropertyOp5
 70
     1
102
RTVSPropertyOp6
 70
     1
102
RTVSPropertyOp7
 70
     1
102
RTVSPropertyOp8
 70
     1
102
RTVSPropertyOp9
 70
     1
102
RTVSPropertyOp10
 70
     1
102
RTVSPropertyOp11
 70
     1
102
RTVSPropertyOp12
 70
     1
102
RTVSPropertyOp13
 70
     1
102
RTVSPropertyOp14
 70
     1
102
RTVSPropertyOp15
 70
     1
102
RTVSPropertyOp16
 70
     1
102
RTVSPropertyOp17
 70
     1
102
RTVSPropertyOp18
 70
     1
102
RTVSPropertyOp19
 70
     1
102
RTVSPropertyOp20
 70
     1
102
RTVSPropertyOp21
 70
     1
102
RTVSPropertyOp22
 70
     1
102
RTVSPropertyOp23
 70
     1
102
RTVSPropertyOp24
 70
     1
102
RTVSPropertyOp25
 70
     1
102
RTVSPropertyOp26
 70
     1
102
RTVSPropertyOp27
 70
     1
102
RTVSPropertyOp28
 70
     1
102
RTVSPropertyOp29
 70
     1
102
RTVSPropertyOp30
 70
     1
102
RTVSPropertyOp31
 70
     1
102
RTVSPropertyOp32
 70
     1
102
RTVSPropertyOp33
 70
     1
102
RTVSPropertyOp34
 70
     1
102
RTVSPropertyOp35
 70
     1
102
RTVSPropertyOp36
 70
     1
102
RTVSPropertyOp37
 70
     1
102
RTVSPropertyOp38
 70
     1
102
RTVSPropertyOp39
 70
     1
102
RTVSPropertyOp40
 70
     1
102
RTVSPropertyOp41
 70
     1
102
RTVSPropertyOp42
 70
     1
102
RTVSPropertyOp43
 70
     1
102
RTVSPropertyOp44
 70
     1
102
RTVSPropertyOp45
 70
     1
102
RTVSPropertyOp46
 70
     1
102
RTVSPropertyOp47
 70
     1
102
RTVSPropertyOp48
 70
     1
102
RTVSPropertyOp49
 70
     1
102
RTVSPropertyOp50
 70
     1
102
RTVSPropertyOp51
 70
     0
102
RTVSPropertyOp52
 70
     0
102
RTVSPropertyOp53
 70
     1
102
RTVSPropertyOp54
 70
     1
102
RTVSPropertyOp55
 70
     1
102
RTVSPropertyOp56
 70
     1
102
RTVSPropertyOp57
 70
     1
102
RTVSPropertyOp58
 70
     1
102
RTVSPropertyOp59
 70
     1
102
RTVSPropertyOp60
 70
     1
102
RTVSPropertyOp61
 70
     1
102
RTVSPropertyOp62
 70
     1
  0
XRECORD
  5
F084
102
{ACAD_REACTORS
330
F083
102
}
330
F083
100
AcDbXrecord
280
     1
102
RTVSPost2010Prop28
280
     0
102
RTVSPost2010PropOp28
 70
     1
102
RTVSPost2010Prop29
280
     1
102
RTVSPost2010PropOp29
 70
     1
102
RTVSPost2010Prop30
280
     1
102
RTVSPost2010PropOp30
 70
     1
102
RTVSPost2010Prop31
280
     0
102
RTVSPost2010PropOp31
 70
     1
102
RTVSPost2010Prop32
280
     0
102
RTVSPost2010PropOp32
 70
     1
102
RTVSPost2010Prop33
280
     0
102
RTVSPost2010PropOp33
 70
     1
102
RTVSPost2010Prop34
280
     0
102
RTVSPost2010PropOp34
 70
     1
102
RTVSPost2010Prop35
280
     0
102
RTVSPost2010PropOp35
 70
     1
102
RTVSPost2010Prop36
280
     0
102
RTVSPost2010PropOp36
 70
     1
102
RTVSPost2010Prop37
 90
       50
102
RTVSPost2010PropOp37
 70
     1
102
RTVSPost2010Prop38
140
0.0
102
RTVSPost2010PropOp38
 70
     1
102
RTVSPost2010Prop39
140
1.0
102
RTVSPost2010PropOp39
 70
     1
102
RTVSPost2010Prop40
 90
        0
102
RTVSPost2010PropOp40
 70
     1
102
RTVSPost2010Prop41ColorIndex
 90
       18
102
RTVSPost2010Prop41ColorRGB
 90
        0
102
RTVSPost2010PropOp41
 70
     1
102
RTVSPost2010Prop42
 90
       50
102
RTVSPost2010PropOp42
 70
     1
102
RTVSPost2010Prop43
 90
        3
102
RTVSPost2010PropOp43
 70
     1
102
RTVSPost2010Prop44ColorIndex
 90
        5
102
RTVSPost2010Prop44ColorRGB
 90
      255
102
RTVSPost2010PropOp44
 70
     1
102
RTVSPost2010Prop45
280
     0
102
RTVSPost2010PropOp45
 70
     1
102
RTVSPost2010Prop46
 90
       50
102
RTVSPost2010PropOp46
 70
     1
102
RTVSPost2010Prop47
 90
       50
102
RTVSPost2010PropOp47
 70
     1
102
RTVSPost2010Prop48
 90
       50
102
RTVSPost2010PropOp48
 70
     1
102
RTVSPost2010Prop49
280
     0
102
RTVSPost2010PropOp49
 70
     1
102
RTVSPost2010Prop50
 90
       50
102
RTVSPost2010PropOp50
 70
     1
102
RTVSPost2010Prop51ColorIndex
 90
      256
102
RTVSPost2010Prop51ColorRGB
 90
-16777216
102
RTVSPost2010PropOp51
 70
     0
102
RTVSPost2010Prop52
140
1.0
102
RTVSPost2010PropOp52
 70
     0
102
RTVSPost2010Prop53
 90
        2
102
RTVSPost2010PropOp53
 70
     1
102
RTVSPost2010Prop54
  1
strokes_ogs.tif
102
RTVSPost2010PropOp54
 70
     1
102
RTVSPost2010Prop55
280
     0
102
RTVSPost2010PropOp55
 70
     1
102
RTVSPost2010Prop56
140
1.0
102
RTVSPost2010PropOp56
 70
     1
102
RTVSPost2010Prop57
140
1.0
102
RTVSPost2010PropOp57
 70
     1
102
RTVSPropertyOp0
 70
     1
102
RTVSPropertyOp1
 70
     1
102
RTVSPropertyOp2
 70
     1
102
RTVSPropertyOp3
 70
     1
102
RTVSPropertyOp4
 70
     1
102
RTVSPropertyOp5
 70
     1
102
RTVSPropertyOp6
 70
     1
102
RTVSPropertyOp7
 70
     1
102
RTVSPropertyOp8
 70
     1
102
RTVSPropertyOp9
 70
     1
102
RTVSPropertyOp10
 70
     1
102
RTVSPropertyOp11
 70
     1
102
RTVSPropertyOp12
 70
     1
102
RTVSPropertyOp13
 70
     1
102
RTVSPropertyOp14
 70
     1
102
RTVSPropertyOp15
 70
     1
102
RTVSPropertyOp16
 70
     1
102
RTVSPropertyOp17
 70
     1
102
RTVSPropertyOp18
 70
     1
102
RTVSPropertyOp19
 70
     1
102
RTVSPropertyOp20
 70
     1
102
RTVSPropertyOp21
 70
     1
102
RTVSPropertyOp22
 70
     1
102
RTVSPropertyOp23
 70
     1
102
RTVSPropertyOp24
 70
     1
102
RTVSPropertyOp25
 70
     1
102
RTVSPropertyOp26
 70
     1
102
RTVSPropertyOp27
 70
     1
102
RTVSPropertyOp28
 70
     1
102
RTVSPropertyOp29
 70
     1
102
RTVSPropertyOp30
 70
     1
102
RTVSPropertyOp31
 70
     1
102
RTVSPropertyOp32
 70
     1
102
RTVSPropertyOp33
 70
     1
102
RTVSPropertyOp34
 70
     1
102
RTVSPropertyOp35
 70
     1
102
RTVSPropertyOp36
 70
     1
102
RTVSPropertyOp37
 70
     1
102
RTVSPropertyOp38
 70
     1
102
RTVSPropertyOp39
 70
     1
102
RTVSPropertyOp40
 70
     1
102
RTVSPropertyOp41
 70
     1
102
RTVSPropertyOp42
 70
     1
102
RTVSPropertyOp43
 70
     1
102
RTVSPropertyOp44
 70
     1
102
RTVSPropertyOp45
 70
     1
102
RTVSPropertyOp46
 70
     1
102
RTVSPropertyOp47
 70
     1
102
RTVSPropertyOp48
 70
     1
102
RTVSPropertyOp49
 70
     1
102
RTVSPropertyOp50
 70
     1
102
RTVSPropertyOp51
 70
     0
102
RTVSPropertyOp52
 70
     0
102
RTVSPropertyOp53
 70
     1
102
RTVSPropertyOp54
 70
     1
102
RTVSPropertyOp55
 70
     1
102
RTVSPropertyOp56
 70
     1
102
RTVSPropertyOp57
 70
     1
102
RTVSPropertyOp58
 70
     1
102
RTVSPropertyOp59
 70
     1
102
RTVSPropertyOp60
 70
     1
102
RTVSPropertyOp61
 70
     1
102
RTVSPropertyOp62
 70
     1
  0
XRECORD
  5
F088
102
{ACAD_REACTORS
330
F087
102
}
330
F087
100
AcDbXrecord
280
     1
102
RTVSPost2010Prop28
280
     0
102
RTVSPost2010PropOp28
 70
     1
102
RTVSPost2010Prop29
280
     1
102
RTVSPost2010PropOp29
 70
     1
102
RTVSPost2010Prop30
280
     1
102
RTVSPost2010PropOp30
 70
     1
102
RTVSPost2010Prop31
280
     0
102
RTVSPost2010PropOp31
 70
     1
102
RTVSPost2010Prop32
280
     0
102
RTVSPost2010PropOp32
 70
     1
102
RTVSPost2010Prop33
280
     0
102
RTVSPost2010PropOp33
 70
     1
102
RTVSPost2010Prop34
280
     0
102
RTVSPost2010PropOp34
 70
     1
102
RTVSPost2010Prop35
280
     0
102
RTVSPost2010PropOp35
 70
     1
102
RTVSPost2010Prop36
280
     0
102
RTVSPost2010PropOp36
 70
     1
102
RTVSPost2010Prop37
 90
       50
102
RTVSPost2010PropOp37
 70
     1
102
RTVSPost2010Prop38
140
0.0
102
RTVSPost2010PropOp38
 70
     1
102
RTVSPost2010Prop39
140
1.0
102
RTVSPost2010PropOp39
 70
     1
102
RTVSPost2010Prop40
 90
        0
102
RTVSPost2010PropOp40
 70
     1
102
RTVSPost2010Prop41ColorIndex
 90
       18
102
RTVSPost2010Prop41ColorRGB
 90
        0
102
RTVSPost2010PropOp41
 70
     1
102
RTVSPost2010Prop42
 90
       50
102
RTVSPost2010PropOp42
 70
     1
102
RTVSPost2010Prop43
 90
        3
102
RTVSPost2010PropOp43
 70
     1
102
RTVSPost2010Prop44ColorIndex
 90
        5
102
RTVSPost2010Prop44ColorRGB
 90
      255
102
RTVSPost2010PropOp44
 70
     1
102
RTVSPost2010Prop45
280
     0
102
RTVSPost2010PropOp45
 70
     1
102
RTVSPost2010Prop46
 90
       50
102
RTVSPost2010PropOp46
 70
     1
102
RTVSPost2010Prop47
 90
       50
102
RTVSPost2010PropOp47
 70
     1
102
RTVSPost2010Prop48
 90
       50
102
RTVSPost2010PropOp48
 70
     1
102
RTVSPost2010Prop49
280
     0
102
RTVSPost2010PropOp49
 70
     1
102
RTVSPost2010Prop50
 90
       50
102
RTVSPost2010PropOp50
 70
     1
102
RTVSPost2010Prop51ColorIndex
 90
      256
102
RTVSPost2010Prop51ColorRGB
 90
-16777216
102
RTVSPost2010PropOp51
 70
     0
102
RTVSPost2010Prop52
140
1.0
102
RTVSPost2010PropOp52
 70
     0
102
RTVSPost2010Prop53
 90
        2
102
RTVSPost2010PropOp53
 70
     1
102
RTVSPost2010Prop54
  1
strokes_ogs.tif
102
RTVSPost2010PropOp54
 70
     1
102
RTVSPost2010Prop55
280
     0
102
RTVSPost2010PropOp55
 70
     1
102
RTVSPost2010Prop56
140
1.0
102
RTVSPost2010PropOp56
 70
     1
102
RTVSPost2010Prop57
140
1.0
102
RTVSPost2010PropOp57
 70
     1
102
RTVSPropertyOp0
 70
     1
102
RTVSPropertyOp1
 70
     1
102
RTVSPropertyOp2
 70
     1
102
RTVSPropertyOp3
 70
     1
102
RTVSPropertyOp4
 70
     1
102
RTVSPropertyOp5
 70
     1
102
RTVSPropertyOp6
 70
     1
102
RTVSPropertyOp7
 70
     1
102
RTVSPropertyOp8
 70
     1
102
RTVSPropertyOp9
 70
     1
102
RTVSPropertyOp10
 70
     1
102
RTVSPropertyOp11
 70
     1
102
RTVSPropertyOp12
 70
     1
102
RTVSPropertyOp13
 70
     1
102
RTVSPropertyOp14
 70
     1
102
RTVSPropertyOp15
 70
     1
102
RTVSPropertyOp16
 70
     1
102
RTVSPropertyOp17
 70
     1
102
RTVSPropertyOp18
 70
     1
102
RTVSPropertyOp19
 70
     1
102
RTVSPropertyOp20
 70
     1
102
RTVSPropertyOp21
 70
     1
102
RTVSPropertyOp22
 70
     1
102
RTVSPropertyOp23
 70
     1
102
RTVSPropertyOp24
 70
     1
102
RTVSPropertyOp25
 70
     1
102
RTVSPropertyOp26
 70
     1
102
RTVSPropertyOp27
 70
     1
102
RTVSPropertyOp28
 70
     1
102
RTVSPropertyOp29
 70
     1
102
RTVSPropertyOp30
 70
     1
102
RTVSPropertyOp31
 70
     1
102
RTVSPropertyOp32
 70
     1
102
RTVSPropertyOp33
 70
     1
102
RTVSPropertyOp34
 70
     1
102
RTVSPropertyOp35
 70
     1
102
RTVSPropertyOp36
 70
     1
102
RTVSPropertyOp37
 70
     1
102
RTVSPropertyOp38
 70
     1
102
RTVSPropertyOp39
 70
     1
102
RTVSPropertyOp40
 70
     1
102
RTVSPropertyOp41
 70
     1
102
RTVSPropertyOp42
 70
     1
102
RTVSPropertyOp43
 70
     1
102
RTVSPropertyOp44
 70
     1
102
RTVSPropertyOp45
 70
     1
102
RTVSPropertyOp46
 70
     1
102
RTVSPropertyOp47
 70
     1
102
RTVSPropertyOp48
 70
     1
102
RTVSPropertyOp49
 70
     1
102
RTVSPropertyOp50
 70
     1
102
RTVSPropertyOp51
 70
     0
102
RTVSPropertyOp52
 70
     0
102
RTVSPropertyOp53
 70
     1
102
RTVSPropertyOp54
 70
     1
102
RTVSPropertyOp55
 70
     1
102
RTVSPropertyOp56
 70
     1
102
RTVSPropertyOp57
 70
     1
102
RTVSPropertyOp58
 70
     1
102
RTVSPropertyOp59
 70
     1
102
RTVSPropertyOp60
 70
     1
102
RTVSPropertyOp61
 70
     1
102
RTVSPropertyOp62
 70
     1
  0
XRECORD
  5
F0A8
102
{ACAD_REACTORS
330
F0A7
102
}
330
F0A7
100
AcDbXrecord
280
     1
102
RTVSPost2010Prop28
280
     0
102
RTVSPost2010PropOp28
 70
     1
102
RTVSPost2010Prop29
280
     1
102
RTVSPost2010PropOp29
 70
     1
102
RTVSPost2010Prop30
280
     1
102
RTVSPost2010PropOp30
 70
     1
102
RTVSPost2010Prop31
280
     0
102
RTVSPost2010PropOp31
 70
     1
102
RTVSPost2010Prop32
280
     0
102
RTVSPost2010PropOp32
 70
     1
102
RTVSPost2010Prop33
280
     0
102
RTVSPost2010PropOp33
 70
     1
102
RTVSPost2010Prop34
280
     0
102
RTVSPost2010PropOp34
 70
     1
102
RTVSPost2010Prop35
280
     0
102
RTVSPost2010PropOp35
 70
     1
102
RTVSPost2010Prop36
280
     0
102
RTVSPost2010PropOp36
 70
     1
102
RTVSPost2010Prop37
 90
       50
102
RTVSPost2010PropOp37
 70
     1
102
RTVSPost2010Prop38
140
0.0
102
RTVSPost2010PropOp38
 70
     1
102
RTVSPost2010Prop39
140
1.0
102
RTVSPost2010PropOp39
 70
     1
102
RTVSPost2010Prop40
 90
        0
102
RTVSPost2010PropOp40
 70
     1
102
RTVSPost2010Prop41ColorIndex
 90
       18
102
RTVSPost2010Prop41ColorRGB
 90
        0
102
RTVSPost2010PropOp41
 70
     1
102
RTVSPost2010Prop42
 90
       50
102
RTVSPost2010PropOp42
 70
     1
102
RTVSPost2010Prop43
 90
        3
102
RTVSPost2010PropOp43
 70
     1
102
RTVSPost2010Prop44ColorIndex
 90
        5
102
RTVSPost2010Prop44ColorRGB
 90
      255
102
RTVSPost2010PropOp44
 70
     1
102
RTVSPost2010Prop45
280
     0
102
RTVSPost2010PropOp45
 70
     1
102
RTVSPost2010Prop46
 90
       50
102
RTVSPost2010PropOp46
 70
     1
102
RTVSPost2010Prop47
 90
       50
102
RTVSPost2010PropOp47
 70
     1
102
RTVSPost2010Prop48
 90
       50
102
RTVSPost2010PropOp48
 70
     1
102
RTVSPost2010Prop49
280
     0
102
RTVSPost2010PropOp49
 70
     1
102
RTVSPost2010Prop50
 90
       50
102
RTVSPost2010PropOp50
 70
     1
102
RTVSPost2010Prop51ColorIndex
 90
      256
102
RTVSPost2010Prop51ColorRGB
 90
-16777216
102
RTVSPost2010PropOp51
 70
     0
102
RTVSPost2010Prop52
140
1.0
102
RTVSPost2010PropOp52
 70
     0
102
RTVSPost2010Prop53
 90
        2
102
RTVSPost2010PropOp53
 70
     1
102
RTVSPost2010Prop54
  1
strokes_ogs.tif
102
RTVSPost2010PropOp54
 70
     1
102
RTVSPost2010Prop55
280
     0
102
RTVSPost2010PropOp55
 70
     1
102
RTVSPost2010Prop56
140
1.0
102
RTVSPost2010PropOp56
 70
     1
102
RTVSPost2010Prop57
140
1.0
102
RTVSPost2010PropOp57
 70
     1
102
RTVSPropertyOp0
 70
     0
102
RTVSPropertyOp1
 70
     0
102
RTVSPropertyOp2
 70
     0
102
RTVSPropertyOp3
 70
     0
102
RTVSPropertyOp4
 70
     0
102
RTVSPropertyOp5
 70
     0
102
RTVSPropertyOp6
 70
     0
102
RTVSPropertyOp7
 70
     0
102
RTVSPropertyOp8
 70
     0
102
RTVSPropertyOp9
 70
     0
102
RTVSPropertyOp10
 70
     0
102
RTVSPropertyOp11
 70
     0
102
RTVSPropertyOp12
 70
     0
102
RTVSPropertyOp13
 70
     0
102
RTVSPropertyOp14
 70
     2
102
RTVSPropertyOp15
 70
     0
102
RTVSPropertyOp16
 70
     0
102
RTVSPropertyOp17
 70
     0
102
RTVSPropertyOp18
 70
     0
102
RTVSPropertyOp19
 70
     0
102
RTVSPropertyOp20
 70
     0
102
RTVSPropertyOp21
 70
     0
102
RTVSPropertyOp22
 70
     0
102
RTVSPropertyOp23
 70
     0
102
RTVSPropertyOp24
 70
     0
102
RTVSPropertyOp25
 70
     0
102
RTVSPropertyOp26
 70
     0
102
RTVSPropertyOp27
 70
     0
102
RTVSPropertyOp28
 70
     1
102
RTVSPropertyOp29
 70
     1
102
RTVSPropertyOp30
 70
     1
102
RTVSPropertyOp31
 70
     1
102
RTVSPropertyOp32
 70
     1
102
RTVSPropertyOp33
 70
     1
102
RTVSPropertyOp34
 70
     1
102
RTVSPropertyOp35
 70
     1
102
RTVSPropertyOp36
 70
     1
102
RTVSPropertyOp37
 70
     1
102
RTVSPropertyOp38
 70
     1
102
RTVSPropertyOp39
 70
     1
102
RTVSPropertyOp40
 70
     1
102
RTVSPropertyOp41
 70
     1
102
RTVSPropertyOp42
 70
     1
102
RTVSPropertyOp43
 70
     1
102
RTVSPropertyOp44
 70
     1
102
RTVSPropertyOp45
 70
     1
102
RTVSPropertyOp46
 70
     1
102
RTVSPropertyOp47
 70
     1
102
RTVSPropertyOp48
 70
     1
102
RTVSPropertyOp49
 70
     1
102
RTVSPropertyOp50
 70
     1
102
RTVSPropertyOp51
 70
     0
102
RTVSPropertyOp52
 70
     0
102
RTVSPropertyOp53
 70
     1
102
RTVSPropertyOp54
 70
     1
102
RTVSPropertyOp55
 70
     1
102
RTVSPropertyOp56
 70
     1
102
RTVSPropertyOp57
 70
     1
102
RTVSPropertyOp58
 70
     1
102
RTVSPropertyOp59
 70
     1
102
RTVSPropertyOp60
 70
     1
102
RTVSPropertyOp61
 70
     1
102
RTVSPropertyOp62
 70
     1
  0
XRECORD
  5
F090
102
{ACAD_REACTORS
330
F08F
102
}
330
F08F
100
AcDbXrecord
280
     1
102
RTVSPost2010Prop28
280
     0
102
RTVSPost2010PropOp28
 70
     1
102
RTVSPost2010Prop29
280
     1
102
RTVSPost2010PropOp29
 70
     1
102
RTVSPost2010Prop30
280
     1
102
RTVSPost2010PropOp30
 70
     1
102
RTVSPost2010Prop31
280
     0
102
RTVSPost2010PropOp31
 70
     1
102
RTVSPost2010Prop32
280
     0
102
RTVSPost2010PropOp32
 70
     1
102
RTVSPost2010Prop33
280
     0
102
RTVSPost2010PropOp33
 70
     1
102
RTVSPost2010Prop34
280
     0
102
RTVSPost2010PropOp34
 70
     1
102
RTVSPost2010Prop35
280
     0
102
RTVSPost2010PropOp35
 70
     1
102
RTVSPost2010Prop36
280
     0
102
RTVSPost2010PropOp36
 70
     1
102
RTVSPost2010Prop37
 90
       50
102
RTVSPost2010PropOp37
 70
     1
102
RTVSPost2010Prop38
140
0.0
102
RTVSPost2010PropOp38
 70
     1
102
RTVSPost2010Prop39
140
1.0
102
RTVSPost2010PropOp39
 70
     1
102
RTVSPost2010Prop40
 90
        0
102
RTVSPost2010PropOp40
 70
     1
102
RTVSPost2010Prop41ColorIndex
 90
       18
102
RTVSPost2010Prop41ColorRGB
 90
        0
102
RTVSPost2010PropOp41
 70
     1
102
RTVSPost2010Prop42
 90
       50
102
RTVSPost2010PropOp42
 70
     1
102
RTVSPost2010Prop43
 90
        3
102
RTVSPost2010PropOp43
 70
     1
102
RTVSPost2010Prop44ColorIndex
 90
        5
102
RTVSPost2010Prop44ColorRGB
 90
      255
102
RTVSPost2010PropOp44
 70
     1
102
RTVSPost2010Prop45
280
     0
102
RTVSPost2010PropOp45
 70
     1
102
RTVSPost2010Prop46
 90
       50
102
RTVSPost2010PropOp46
 70
     1
102
RTVSPost2010Prop47
 90
       50
102
RTVSPost2010PropOp47
 70
     1
102
RTVSPost2010Prop48
 90
       50
102
RTVSPost2010PropOp48
 70
     1
102
RTVSPost2010Prop49
280
     0
102
RTVSPost2010PropOp49
 70
     1
102
RTVSPost2010Prop50
 90
       50
102
RTVSPost2010PropOp50
 70
     1
102
RTVSPost2010Prop51ColorIndex
 90
      256
102
RTVSPost2010Prop51ColorRGB
 90
-16777216
102
RTVSPost2010PropOp51
 70
     0
102
RTVSPost2010Prop52
140
1.0
102
RTVSPost2010PropOp52
 70
     0
102
RTVSPost2010Prop53
 90
        2
102
RTVSPost2010PropOp53
 70
     1
102
RTVSPost2010Prop54
  1
strokes_ogs.tif
102
RTVSPost2010PropOp54
 70
     1
102
RTVSPost2010Prop55
280
     0
102
RTVSPost2010PropOp55
 70
     1
102
RTVSPost2010Prop56
140
1.0
102
RTVSPost2010PropOp56
 70
     1
102
RTVSPost2010Prop57
140
1.0
102
RTVSPost2010PropOp57
 70
     1
102
RTVSPropertyOp0
 70
     1
102
RTVSPropertyOp1
 70
     1
102
RTVSPropertyOp2
 70
     1
102
RTVSPropertyOp3
 70
     1
102
RTVSPropertyOp4
 70
     1
102
RTVSPropertyOp5
 70
     1
102
RTVSPropertyOp6
 70
     1
102
RTVSPropertyOp7
 70
     1
102
RTVSPropertyOp8
 70
     1
102
RTVSPropertyOp9
 70
     1
102
RTVSPropertyOp10
 70
     1
102
RTVSPropertyOp11
 70
     1
102
RTVSPropertyOp12
 70
     1
102
RTVSPropertyOp13
 70
     1
102
RTVSPropertyOp14
 70
     1
102
RTVSPropertyOp15
 70
     1
102
RTVSPropertyOp16
 70
     1
102
RTVSPropertyOp17
 70
     1
102
RTVSPropertyOp18
 70
     1
102
RTVSPropertyOp19
 70
     1
102
RTVSPropertyOp20
 70
     1
102
RTVSPropertyOp21
 70
     1
102
RTVSPropertyOp22
 70
     1
102
RTVSPropertyOp23
 70
     1
102
RTVSPropertyOp24
 70
     1
102
RTVSPropertyOp25
 70
     1
102
RTVSPropertyOp26
 70
     1
102
RTVSPropertyOp27
 70
     1
102
RTVSPropertyOp28
 70
     1
102
RTVSPropertyOp29
 70
     1
102
RTVSPropertyOp30
 70
     1
102
RTVSPropertyOp31
 70
     1
102
RTVSPropertyOp32
 70
     1
102
RTVSPropertyOp33
 70
     1
102
RTVSPropertyOp34
 70
     1
102
RTVSPropertyOp35
 70
     1
102
RTVSPropertyOp36
 70
     1
102
RTVSPropertyOp37
 70
     1
102
RTVSPropertyOp38
 70
     1
102
RTVSPropertyOp39
 70
     1
102
RTVSPropertyOp40
 70
     1
102
RTVSPropertyOp41
 70
     1
102
RTVSPropertyOp42
 70
     1
102
RTVSPropertyOp43
 70
     1
102
RTVSPropertyOp44
 70
     1
102
RTVSPropertyOp45
 70
     1
102
RTVSPropertyOp46
 70
     1
102
RTVSPropertyOp47
 70
     1
102
RTVSPropertyOp48
 70
     1
102
RTVSPropertyOp49
 70
     1
102
RTVSPropertyOp50
 70
     1
102
RTVSPropertyOp51
 70
     0
102
RTVSPropertyOp52
 70
     0
102
RTVSPropertyOp53
 70
     1
102
RTVSPropertyOp54
 70
     1
102
RTVSPropertyOp55
 70
     1
102
RTVSPropertyOp56
 70
     1
102
RTVSPropertyOp57
 70
     1
102
RTVSPropertyOp58
 70
     1
102
RTVSPropertyOp59
 70
     1
102
RTVSPropertyOp60
 70
     1
102
RTVSPropertyOp61
 70
     1
102
RTVSPropertyOp62
 70
     1
  0
XRECORD
  5
F074
102
{ACAD_REACTORS
330
F073
102
}
330
F073
100
AcDbXrecord
280
     1
102
RTVSPost2010Prop28
280
     0
102
RTVSPost2010PropOp28
 70
     1
102
RTVSPost2010Prop29
280
     1
102
RTVSPost2010PropOp29
 70
     1
102
RTVSPost2010Prop30
280
     1
102
RTVSPost2010PropOp30
 70
     1
102
RTVSPost2010Prop31
280
     0
102
RTVSPost2010PropOp31
 70
     1
102
RTVSPost2010Prop32
280
     0
102
RTVSPost2010PropOp32
 70
     1
102
RTVSPost2010Prop33
280
     0
102
RTVSPost2010PropOp33
 70
     1
102
RTVSPost2010Prop34
280
     0
102
RTVSPost2010PropOp34
 70
     1
102
RTVSPost2010Prop35
280
     0
102
RTVSPost2010PropOp35
 70
     1
102
RTVSPost2010Prop36
280
     0
102
RTVSPost2010PropOp36
 70
     1
102
RTVSPost2010Prop37
 90
       50
102
RTVSPost2010PropOp37
 70
     1
102
RTVSPost2010Prop38
140
0.0
102
RTVSPost2010PropOp38
 70
     1
102
RTVSPost2010Prop39
140
1.0
102
RTVSPost2010PropOp39
 70
     1
102
RTVSPost2010Prop40
 90
        0
102
RTVSPost2010PropOp40
 70
     1
102
RTVSPost2010Prop41ColorIndex
 90
       18
102
RTVSPost2010Prop41ColorRGB
 90
        0
102
RTVSPost2010PropOp41
 70
     1
102
RTVSPost2010Prop42
 90
       50
102
RTVSPost2010PropOp42
 70
     1
102
RTVSPost2010Prop43
 90
        3
102
RTVSPost2010PropOp43
 70
     1
102
RTVSPost2010Prop44ColorIndex
 90
        5
102
RTVSPost2010Prop44ColorRGB
 90
      255
102
RTVSPost2010PropOp44
 70
     1
102
RTVSPost2010Prop45
280
     0
102
RTVSPost2010PropOp45
 70
     1
102
RTVSPost2010Prop46
 90
       50
102
RTVSPost2010PropOp46
 70
     1
102
RTVSPost2010Prop47
 90
       50
102
RTVSPost2010PropOp47
 70
     1
102
RTVSPost2010Prop48
 90
       50
102
RTVSPost2010PropOp48
 70
     1
102
RTVSPost2010Prop49
280
     0
102
RTVSPost2010PropOp49
 70
     1
102
RTVSPost2010Prop50
 90
       50
102
RTVSPost2010PropOp50
 70
     1
102
RTVSPost2010Prop51ColorIndex
 90
      256
102
RTVSPost2010Prop51ColorRGB
 90
-16777216
102
RTVSPost2010PropOp51
 70
     0
102
RTVSPost2010Prop52
140
1.0
102
RTVSPost2010PropOp52
 70
     0
102
RTVSPost2010Prop53
 90
        2
102
RTVSPost2010PropOp53
 70
     1
102
RTVSPost2010Prop54
  1
strokes_ogs.tif
102
RTVSPost2010PropOp54
 70
     1
102
RTVSPost2010Prop55
280
     0
102
RTVSPost2010PropOp55
 70
     1
102
RTVSPost2010Prop56
140
1.0
102
RTVSPost2010PropOp56
 70
     1
102
RTVSPost2010Prop57
140
1.0
102
RTVSPost2010PropOp57
 70
     1
102
RTVSPropertyOp0
 70
     1
102
RTVSPropertyOp1
 70
     1
102
RTVSPropertyOp2
 70
     1
102
RTVSPropertyOp3
 70
     1
102
RTVSPropertyOp4
 70
     1
102
RTVSPropertyOp5
 70
     1
102
RTVSPropertyOp6
 70
     1
102
RTVSPropertyOp7
 70
     1
102
RTVSPropertyOp8
 70
     1
102
RTVSPropertyOp9
 70
     1
102
RTVSPropertyOp10
 70
     1
102
RTVSPropertyOp11
 70
     1
102
RTVSPropertyOp12
 70
     1
102
RTVSPropertyOp13
 70
     1
102
RTVSPropertyOp14
 70
     1
102
RTVSPropertyOp15
 70
     1
102
RTVSPropertyOp16
 70
     1
102
RTVSPropertyOp17
 70
     1
102
RTVSPropertyOp18
 70
     1
102
RTVSPropertyOp19
 70
     1
102
RTVSPropertyOp20
 70
     1
102
RTVSPropertyOp21
 70
     1
102
RTVSPropertyOp22
 70
     1
102
RTVSPropertyOp23
 70
     1
102
RTVSPropertyOp24
 70
     1
102
RTVSPropertyOp25
 70
     1
102
RTVSPropertyOp26
 70
     1
102
RTVSPropertyOp27
 70
     1
102
RTVSPropertyOp28
 70
     1
102
RTVSPropertyOp29
 70
     1
102
RTVSPropertyOp30
 70
     1
102
RTVSPropertyOp31
 70
     1
102
RTVSPropertyOp32
 70
     1
102
RTVSPropertyOp33
 70
     1
102
RTVSPropertyOp34
 70
     1
102
RTVSPropertyOp35
 70
     1
102
RTVSPropertyOp36
 70
     1
102
RTVSPropertyOp37
 70
     1
102
RTVSPropertyOp38
 70
     1
102
RTVSPropertyOp39
 70
     1
102
RTVSPropertyOp40
 70
     1
102
RTVSPropertyOp41
 70
     1
102
RTVSPropertyOp42
 70
     1
102
RTVSPropertyOp43
 70
     1
102
RTVSPropertyOp44
 70
     1
102
RTVSPropertyOp45
 70
     1
102
RTVSPropertyOp46
 70
     1
102
RTVSPropertyOp47
 70
     1
102
RTVSPropertyOp48
 70
     1
102
RTVSPropertyOp49
 70
     1
102
RTVSPropertyOp50
 70
     1
102
RTVSPropertyOp51
 70
     0
102
RTVSPropertyOp52
 70
     0
102
RTVSPropertyOp53
 70
     1
102
RTVSPropertyOp54
 70
     1
102
RTVSPropertyOp55
 70
     1
102
RTVSPropertyOp56
 70
     1
102
RTVSPropertyOp57
 70
     1
102
RTVSPropertyOp58
 70
     1
102
RTVSPropertyOp59
 70
     1
102
RTVSPropertyOp60
 70
     1
102
RTVSPropertyOp61
 70
     1
102
RTVSPropertyOp62
 70
     1
  0
XRECORD
  5
F076
102
{ACAD_REACTORS
330
F075
102
}
330
F075
100
AcDbXrecord
280
     1
102
RTVSPost2010Prop28
280
     0
102
RTVSPost2010PropOp28
 70
     1
102
RTVSPost2010Prop29
280
     1
102
RTVSPost2010PropOp29
 70
     1
102
RTVSPost2010Prop30
280
     1
102
RTVSPost2010PropOp30
 70
     1
102
RTVSPost2010Prop31
280
     0
102
RTVSPost2010PropOp31
 70
     1
102
RTVSPost2010Prop32
280
     0
102
RTVSPost2010PropOp32
 70
     1
102
RTVSPost2010Prop33
280
     0
102
RTVSPost2010PropOp33
 70
     1
102
RTVSPost2010Prop34
280
     0
102
RTVSPost2010PropOp34
 70
     1
102
RTVSPost2010Prop35
280
     0
102
RTVSPost2010PropOp35
 70
     1
102
RTVSPost2010Prop36
280
     0
102
RTVSPost2010PropOp36
 70
     1
102
RTVSPost2010Prop37
 90
       50
102
RTVSPost2010PropOp37
 70
     1
102
RTVSPost2010Prop38
140
0.0
102
RTVSPost2010PropOp38
 70
     1
102
RTVSPost2010Prop39
140
1.0
102
RTVSPost2010PropOp39
 70
     1
102
RTVSPost2010Prop40
 90
        0
102
RTVSPost2010PropOp40
 70
     1
102
RTVSPost2010Prop41ColorIndex
 90
       18
102
RTVSPost2010Prop41ColorRGB
 90
        0
102
RTVSPost2010PropOp41
 70
     1
102
RTVSPost2010Prop42
 90
       50
102
RTVSPost2010PropOp42
 70
     1
102
RTVSPost2010Prop43
 90
        3
102
RTVSPost2010PropOp43
 70
     1
102
RTVSPost2010Prop44ColorIndex
 90
        5
102
RTVSPost2010Prop44ColorRGB
 90
      255
102
RTVSPost2010PropOp44
 70
     1
102
RTVSPost2010Prop45
280
     0
102
RTVSPost2010PropOp45
 70
     1
102
RTVSPost2010Prop46
 90
       50
102
RTVSPost2010PropOp46
 70
     1
102
RTVSPost2010Prop47
 90
       50
102
RTVSPost2010PropOp47
 70
     1
102
RTVSPost2010Prop48
 90
       50
102
RTVSPost2010PropOp48
 70
     1
102
RTVSPost2010Prop49
280
     0
102
RTVSPost2010PropOp49
 70
     1
102
RTVSPost2010Prop50
 90
       50
102
RTVSPost2010PropOp50
 70
     1
102
RTVSPost2010Prop51ColorIndex
 90
      256
102
RTVSPost2010Prop51ColorRGB
 90
-16777216
102
RTVSPost2010PropOp51
 70
     0
102
RTVSPost2010Prop52
140
1.0
102
RTVSPost2010PropOp52
 70
     0
102
RTVSPost2010Prop53
 90
        2
102
RTVSPost2010PropOp53
 70
     1
102
RTVSPost2010Prop54
  1
strokes_ogs.tif
102
RTVSPost2010PropOp54
 70
     1
102
RTVSPost2010Prop55
280
     0
102
RTVSPost2010PropOp55
 70
     1
102
RTVSPost2010Prop56
140
1.0
102
RTVSPost2010PropOp56
 70
     1
102
RTVSPost2010Prop57
140
1.0
102
RTVSPost2010PropOp57
 70
     1
102
RTVSPropertyOp0
 70
     1
102
RTVSPropertyOp1
 70
     1
102
RTVSPropertyOp2
 70
     1
102
RTVSPropertyOp3
 70
     1
102
RTVSPropertyOp4
 70
     1
102
RTVSPropertyOp5
 70
     1
102
RTVSPropertyOp6
 70
     1
102
RTVSPropertyOp7
 70
     1
102
RTVSPropertyOp8
 70
     1
102
RTVSPropertyOp9
 70
     1
102
RTVSPropertyOp10
 70
     1
102
RTVSPropertyOp11
 70
     1
102
RTVSPropertyOp12
 70
     1
102
RTVSPropertyOp13
 70
     1
102
RTVSPropertyOp14
 70
     1
102
RTVSPropertyOp15
 70
     1
102
RTVSPropertyOp16
 70
     1
102
RTVSPropertyOp17
 70
     1
102
RTVSPropertyOp18
 70
     1
102
RTVSPropertyOp19
 70
     1
102
RTVSPropertyOp20
 70
     1
102
RTVSPropertyOp21
 70
     1
102
RTVSPropertyOp22
 70
     1
102
RTVSPropertyOp23
 70
     1
102
RTVSPropertyOp24
 70
     1
102
RTVSPropertyOp25
 70
     1
102
RTVSPropertyOp26
 70
     1
102
RTVSPropertyOp27
 70
     1
102
RTVSPropertyOp28
 70
     1
102
RTVSPropertyOp29
 70
     1
102
RTVSPropertyOp30
 70
     1
102
RTVSPropertyOp31
 70
     1
102
RTVSPropertyOp32
 70
     1
102
RTVSPropertyOp33
 70
     1
102
RTVSPropertyOp34
 70
     1
102
RTVSPropertyOp35
 70
     1
102
RTVSPropertyOp36
 70
     1
102
RTVSPropertyOp37
 70
     1
102
RTVSPropertyOp38
 70
     1
102
RTVSPropertyOp39
 70
     1
102
RTVSPropertyOp40
 70
     1
102
RTVSPropertyOp41
 70
     1
102
RTVSPropertyOp42
 70
     1
102
RTVSPropertyOp43
 70
     1
102
RTVSPropertyOp44
 70
     1
102
RTVSPropertyOp45
 70
     1
102
RTVSPropertyOp46
 70
     1
102
RTVSPropertyOp47
 70
     1
102
RTVSPropertyOp48
 70
     1
102
RTVSPropertyOp49
 70
     1
102
RTVSPropertyOp50
 70
     1
102
RTVSPropertyOp51
 70
     0
102
RTVSPropertyOp52
 70
     0
102
RTVSPropertyOp53
 70
     1
102
RTVSPropertyOp54
 70
     1
102
RTVSPropertyOp55
 70
     1
102
RTVSPropertyOp56
 70
     1
102
RTVSPropertyOp57
 70
     1
102
RTVSPropertyOp58
 70
     1
102
RTVSPropertyOp59
 70
     1
102
RTVSPropertyOp60
 70
     1
102
RTVSPropertyOp61
 70
     1
102
RTVSPropertyOp62
 70
     1
  0
XRECORD
  5
F078
102
{ACAD_REACTORS
330
F077
102
}
330
F077
100
AcDbXrecord
280
     1
102
RTVSPost2010Prop28
280
     0
102
RTVSPost2010PropOp28
 70
     1
102
RTVSPost2010Prop29
280
     1
102
RTVSPost2010PropOp29
 70
     1
102
RTVSPost2010Prop30
280
     1
102
RTVSPost2010PropOp30
 70
     1
102
RTVSPost2010Prop31
280
     0
102
RTVSPost2010PropOp31
 70
     1
102
RTVSPost2010Prop32
280
     0
102
RTVSPost2010PropOp32
 70
     1
102
RTVSPost2010Prop33
280
     0
102
RTVSPost2010PropOp33
 70
     1
102
RTVSPost2010Prop34
280
     0
102
RTVSPost2010PropOp34
 70
     1
102
RTVSPost2010Prop35
280
     0
102
RTVSPost2010PropOp35
 70
     1
102
RTVSPost2010Prop36
280
     0
102
RTVSPost2010PropOp36
 70
     1
102
RTVSPost2010Prop37
 90
       50
102
RTVSPost2010PropOp37
 70
     1
102
RTVSPost2010Prop38
140
0.0
102
RTVSPost2010PropOp38
 70
     1
102
RTVSPost2010Prop39
140
1.0
102
RTVSPost2010PropOp39
 70
     1
102
RTVSPost2010Prop40
 90
        0
102
RTVSPost2010PropOp40
 70
     1
102
RTVSPost2010Prop41ColorIndex
 90
       18
102
RTVSPost2010Prop41ColorRGB
 90
        0
102
RTVSPost2010PropOp41
 70
     1
102
RTVSPost2010Prop42
 90
       50
102
RTVSPost2010PropOp42
 70
     1
102
RTVSPost2010Prop43
 90
        3
102
RTVSPost2010PropOp43
 70
     1
102
RTVSPost2010Prop44ColorIndex
 90
        5
102
RTVSPost2010Prop44ColorRGB
 90
      255
102
RTVSPost2010PropOp44
 70
     1
102
RTVSPost2010Prop45
280
     0
102
RTVSPost2010PropOp45
 70
     1
102
RTVSPost2010Prop46
 90
       50
102
RTVSPost2010PropOp46
 70
     1
102
RTVSPost2010Prop47
 90
       50
102
RTVSPost2010PropOp47
 70
     1
102
RTVSPost2010Prop48
 90
       50
102
RTVSPost2010PropOp48
 70
     1
102
RTVSPost2010Prop49
280
     0
102
RTVSPost2010PropOp49
 70
     1
102
RTVSPost2010Prop50
 90
       50
102
RTVSPost2010PropOp50
 70
     1
102
RTVSPost2010Prop51ColorIndex
 90
      256
102
RTVSPost2010Prop51ColorRGB
 90
-16777216
102
RTVSPost2010PropOp51
 70
     0
102
RTVSPost2010Prop52
140
1.0
102
RTVSPost2010PropOp52
 70
     0
102
RTVSPost2010Prop53
 90
        2
102
RTVSPost2010PropOp53
 70
     1
102
RTVSPost2010Prop54
  1
strokes_ogs.tif
102
RTVSPost2010PropOp54
 70
     1
102
RTVSPost2010Prop55
280
     0
102
RTVSPost2010PropOp55
 70
     1
102
RTVSPost2010Prop56
140
1.0
102
RTVSPost2010PropOp56
 70
     1
102
RTVSPost2010Prop57
140
1.0
102
RTVSPost2010PropOp57
 70
     1
102
RTVSPropertyOp0
 70
     1
102
RTVSPropertyOp1
 70
     1
102
RTVSPropertyOp2
 70
     1
102
RTVSPropertyOp3
 70
     1
102
RTVSPropertyOp4
 70
     1
102
RTVSPropertyOp5
 70
     1
102
RTVSPropertyOp6
 70
     1
102
RTVSPropertyOp7
 70
     1
102
RTVSPropertyOp8
 70
     1
102
RTVSPropertyOp9
 70
     1
102
RTVSPropertyOp10
 70
     1
102
RTVSPropertyOp11
 70
     1
102
RTVSPropertyOp12
 70
     1
102
RTVSPropertyOp13
 70
     1
102
RTVSPropertyOp14
 70
     1
102
RTVSPropertyOp15
 70
     1
102
RTVSPropertyOp16
 70
     1
102
RTVSPropertyOp17
 70
     1
102
RTVSPropertyOp18
 70
     1
102
RTVSPropertyOp19
 70
     1
102
RTVSPropertyOp20
 70
     1
102
RTVSPropertyOp21
 70
     1
102
RTVSPropertyOp22
 70
     1
102
RTVSPropertyOp23
 70
     1
102
RTVSPropertyOp24
 70
     1
102
RTVSPropertyOp25
 70
     1
102
RTVSPropertyOp26
 70
     1
102
RTVSPropertyOp27
 70
     1
102
RTVSPropertyOp28
 70
     1
102
RTVSPropertyOp29
 70
     1
102
RTVSPropertyOp30
 70
     1
102
RTVSPropertyOp31
 70
     1
102
RTVSPropertyOp32
 70
     1
102
RTVSPropertyOp33
 70
     1
102
RTVSPropertyOp34
 70
     1
102
RTVSPropertyOp35
 70
     1
102
RTVSPropertyOp36
 70
     1
102
RTVSPropertyOp37
 70
     1
102
RTVSPropertyOp38
 70
     1
102
RTVSPropertyOp39
 70
     1
102
RTVSPropertyOp40
 70
     1
102
RTVSPropertyOp41
 70
     1
102
RTVSPropertyOp42
 70
     1
102
RTVSPropertyOp43
 70
     1
102
RTVSPropertyOp44
 70
     1
102
RTVSPropertyOp45
 70
     1
102
RTVSPropertyOp46
 70
     1
102
RTVSPropertyOp47
 70
     1
102
RTVSPropertyOp48
 70
     1
102
RTVSPropertyOp49
 70
     1
102
RTVSPropertyOp50
 70
     1
102
RTVSPropertyOp51
 70
     0
102
RTVSPropertyOp52
 70
     0
102
RTVSPropertyOp53
 70
     1
102
RTVSPropertyOp54
 70
     1
102
RTVSPropertyOp55
 70
     1
102
RTVSPropertyOp56
 70
     1
102
RTVSPropertyOp57
 70
     1
102
RTVSPropertyOp58
 70
     1
102
RTVSPropertyOp59
 70
     1
102
RTVSPropertyOp60
 70
     1
102
RTVSPropertyOp61
 70
     1
102
RTVSPropertyOp62
 70
     1
  0
XRECORD
  5
F07A
102
{ACAD_REACTORS
330
F079
102
}
330
F079
100
AcDbXrecord
280
     1
102
RTVSPost2010Prop28
280
     0
102
RTVSPost2010PropOp28
 70
     1
102
RTVSPost2010Prop29
280
     1
102
RTVSPost2010PropOp29
 70
     1
102
RTVSPost2010Prop30
280
     1
102
RTVSPost2010PropOp30
 70
     1
102
RTVSPost2010Prop31
280
     0
102
RTVSPost2010PropOp31
 70
     1
102
RTVSPost2010Prop32
280
     0
102
RTVSPost2010PropOp32
 70
     1
102
RTVSPost2010Prop33
280
     0
102
RTVSPost2010PropOp33
 70
     1
102
RTVSPost2010Prop34
280
     0
102
RTVSPost2010PropOp34
 70
     1
102
RTVSPost2010Prop35
280
     0
102
RTVSPost2010PropOp35
 70
     1
102
RTVSPost2010Prop36
280
     0
102
RTVSPost2010PropOp36
 70
     1
102
RTVSPost2010Prop37
 90
       50
102
RTVSPost2010PropOp37
 70
     1
102
RTVSPost2010Prop38
140
0.0
102
RTVSPost2010PropOp38
 70
     1
102
RTVSPost2010Prop39
140
1.0
102
RTVSPost2010PropOp39
 70
     1
102
RTVSPost2010Prop40
 90
        0
102
RTVSPost2010PropOp40
 70
     1
102
RTVSPost2010Prop41ColorIndex
 90
       18
102
RTVSPost2010Prop41ColorRGB
 90
        0
102
RTVSPost2010PropOp41
 70
     1
102
RTVSPost2010Prop42
 90
       50
102
RTVSPost2010PropOp42
 70
     1
102
RTVSPost2010Prop43
 90
        3
102
RTVSPost2010PropOp43
 70
     1
102
RTVSPost2010Prop44ColorIndex
 90
        5
102
RTVSPost2010Prop44ColorRGB
 90
      255
102
RTVSPost2010PropOp44
 70
     1
102
RTVSPost2010Prop45
280
     0
102
RTVSPost2010PropOp45
 70
     1
102
RTVSPost2010Prop46
 90
       50
102
RTVSPost2010PropOp46
 70
     1
102
RTVSPost2010Prop47
 90
       50
102
RTVSPost2010PropOp47
 70
     1
102
RTVSPost2010Prop48
 90
       50
102
RTVSPost2010PropOp48
 70
     1
102
RTVSPost2010Prop49
280
     0
102
RTVSPost2010PropOp49
 70
     1
102
RTVSPost2010Prop50
 90
       50
102
RTVSPost2010PropOp50
 70
     1
102
RTVSPost2010Prop51ColorIndex
 90
      256
102
RTVSPost2010Prop51ColorRGB
 90
-16777216
102
RTVSPost2010PropOp51
 70
     0
102
RTVSPost2010Prop52
140
1.0
102
RTVSPost2010PropOp52
 70
     0
102
RTVSPost2010Prop53
 90
        2
102
RTVSPost2010PropOp53
 70
     1
102
RTVSPost2010Prop54
  1
strokes_ogs.tif
102
RTVSPost2010PropOp54
 70
     1
102
RTVSPost2010Prop55
280
     0
102
RTVSPost2010PropOp55
 70
     1
102
RTVSPost2010Prop56
140
1.0
102
RTVSPost2010PropOp56
 70
     1
102
RTVSPost2010Prop57
140
1.0
102
RTVSPost2010PropOp57
 70
     1
102
RTVSPropertyOp0
 70
     1
102
RTVSPropertyOp1
 70
     1
102
RTVSPropertyOp2
 70
     1
102
RTVSPropertyOp3
 70
     1
102
RTVSPropertyOp4
 70
     1
102
RTVSPropertyOp5
 70
     1
102
RTVSPropertyOp6
 70
     1
102
RTVSPropertyOp7
 70
     1
102
RTVSPropertyOp8
 70
     1
102
RTVSPropertyOp9
 70
     1
102
RTVSPropertyOp10
 70
     1
102
RTVSPropertyOp11
 70
     1
102
RTVSPropertyOp12
 70
     1
102
RTVSPropertyOp13
 70
     1
102
RTVSPropertyOp14
 70
     1
102
RTVSPropertyOp15
 70
     1
102
RTVSPropertyOp16
 70
     1
102
RTVSPropertyOp17
 70
     1
102
RTVSPropertyOp18
 70
     1
102
RTVSPropertyOp19
 70
     1
102
RTVSPropertyOp20
 70
     1
102
RTVSPropertyOp21
 70
     1
102
RTVSPropertyOp22
 70
     1
102
RTVSPropertyOp23
 70
     1
102
RTVSPropertyOp24
 70
     1
102
RTVSPropertyOp25
 70
     1
102
RTVSPropertyOp26
 70
     1
102
RTVSPropertyOp27
 70
     1
102
RTVSPropertyOp28
 70
     1
102
RTVSPropertyOp29
 70
     1
102
RTVSPropertyOp30
 70
     1
102
RTVSPropertyOp31
 70
     1
102
RTVSPropertyOp32
 70
     1
102
RTVSPropertyOp33
 70
     1
102
RTVSPropertyOp34
 70
     1
102
RTVSPropertyOp35
 70
     1
102
RTVSPropertyOp36
 70
     1
102
RTVSPropertyOp37
 70
     1
102
RTVSPropertyOp38
 70
     1
102
RTVSPropertyOp39
 70
     1
102
RTVSPropertyOp40
 70
     1
102
RTVSPropertyOp41
 70
     1
102
RTVSPropertyOp42
 70
     1
102
RTVSPropertyOp43
 70
     1
102
RTVSPropertyOp44
 70
     1
102
RTVSPropertyOp45
 70
     1
102
RTVSPropertyOp46
 70
     1
102
RTVSPropertyOp47
 70
     1
102
RTVSPropertyOp48
 70
     1
102
RTVSPropertyOp49
 70
     1
102
RTVSPropertyOp50
 70
     1
102
RTVSPropertyOp51
 70
     0
102
RTVSPropertyOp52
 70
     0
102
RTVSPropertyOp53
 70
     1
102
RTVSPropertyOp54
 70
     1
102
RTVSPropertyOp55
 70
     1
102
RTVSPropertyOp56
 70
     1
102
RTVSPropertyOp57
 70
     1
102
RTVSPropertyOp58
 70
     1
102
RTVSPropertyOp59
 70
     1
102
RTVSPropertyOp60
 70
     1
102
RTVSPropertyOp61
 70
     1
102
RTVSPropertyOp62
 70
     1
  0
XRECORD
  5
F098
102
{ACAD_REACTORS
330
F097
102
}
330
F097
100
AcDbXrecord
280
     1
102
RTVSPost2010Prop28
280
     0
102
RTVSPost2010PropOp28
 70
     1
102
RTVSPost2010Prop29
280
     1
102
RTVSPost2010PropOp29
 70
     1
102
RTVSPost2010Prop30
280
     1
102
RTVSPost2010PropOp30
 70
     1
102
RTVSPost2010Prop31
280
     0
102
RTVSPost2010PropOp31
 70
     1
102
RTVSPost2010Prop32
280
     0
102
RTVSPost2010PropOp32
 70
     1
102
RTVSPost2010Prop33
280
     0
102
RTVSPost2010PropOp33
 70
     1
102
RTVSPost2010Prop34
280
     0
102
RTVSPost2010PropOp34
 70
     1
102
RTVSPost2010Prop35
280
     0
102
RTVSPost2010PropOp35
 70
     1
102
RTVSPost2010Prop36
280
     0
102
RTVSPost2010PropOp36
 70
     1
102
RTVSPost2010Prop37
 90
       50
102
RTVSPost2010PropOp37
 70
     1
102
RTVSPost2010Prop38
140
0.0
102
RTVSPost2010PropOp38
 70
     1
102
RTVSPost2010Prop39
140
1.0
102
RTVSPost2010PropOp39
 70
     1
102
RTVSPost2010Prop40
 90
        0
102
RTVSPost2010PropOp40
 70
     1
102
RTVSPost2010Prop41ColorIndex
 90
       18
102
RTVSPost2010Prop41ColorRGB
 90
        0
102
RTVSPost2010PropOp41
 70
     1
102
RTVSPost2010Prop42
 90
       50
102
RTVSPost2010PropOp42
 70
     1
102
RTVSPost2010Prop43
 90
        3
102
RTVSPost2010PropOp43
 70
     1
102
RTVSPost2010Prop44ColorIndex
 90
        5
102
RTVSPost2010Prop44ColorRGB
 90
      255
102
RTVSPost2010PropOp44
 70
     1
102
RTVSPost2010Prop45
280
     0
102
RTVSPost2010PropOp45
 70
     1
102
RTVSPost2010Prop46
 90
       50
102
RTVSPost2010PropOp46
 70
     1
102
RTVSPost2010Prop47
 90
       50
102
RTVSPost2010PropOp47
 70
     1
102
RTVSPost2010Prop48
 90
       50
102
RTVSPost2010PropOp48
 70
     1
102
RTVSPost2010Prop49
280
     0
102
RTVSPost2010PropOp49
 70
     1
102
RTVSPost2010Prop50
 90
       50
102
RTVSPost2010PropOp50
 70
     1
102
RTVSPost2010Prop51ColorIndex
 90
      256
102
RTVSPost2010Prop51ColorRGB
 90
-16777216
102
RTVSPost2010PropOp51
 70
     0
102
RTVSPost2010Prop52
140
1.0
102
RTVSPost2010PropOp52
 70
     0
102
RTVSPost2010Prop53
 90
        2
102
RTVSPost2010PropOp53
 70
     1
102
RTVSPost2010Prop54
  1
strokes_ogs.tif
102
RTVSPost2010PropOp54
 70
     1
102
RTVSPost2010Prop55
280
     0
102
RTVSPost2010PropOp55
 70
     1
102
RTVSPost2010Prop56
140
1.0
102
RTVSPost2010PropOp56
 70
     1
102
RTVSPost2010Prop57
140
1.0
102
RTVSPost2010PropOp57
 70
     1
102
RTVSPropertyOp0
 70
     1
102
RTVSPropertyOp1
 70
     1
102
RTVSPropertyOp2
 70
     1
102
RTVSPropertyOp3
 70
     1
102
RTVSPropertyOp4
 70
     1
102
RTVSPropertyOp5
 70
     1
102
RTVSPropertyOp6
 70
     1
102
RTVSPropertyOp7
 70
     1
102
RTVSPropertyOp8
 70
     1
102
RTVSPropertyOp9
 70
     1
102
RTVSPropertyOp10
 70
     1
102
RTVSPropertyOp11
 70
     1
102
RTVSPropertyOp12
 70
     1
102
RTVSPropertyOp13
 70
     1
102
RTVSPropertyOp14
 70
     1
102
RTVSPropertyOp15
 70
     1
102
RTVSPropertyOp16
 70
     1
102
RTVSPropertyOp17
 70
     1
102
RTVSPropertyOp18
 70
     1
102
RTVSPropertyOp19
 70
     1
102
RTVSPropertyOp20
 70
     1
102
RTVSPropertyOp21
 70
     1
102
RTVSPropertyOp22
 70
     1
102
RTVSPropertyOp23
 70
     1
102
RTVSPropertyOp24
 70
     1
102
RTVSPropertyOp25
 70
     1
102
RTVSPropertyOp26
 70
     1
102
RTVSPropertyOp27
 70
     1
102
RTVSPropertyOp28
 70
     1
102
RTVSPropertyOp29
 70
     1
102
RTVSPropertyOp30
 70
     1
102
RTVSPropertyOp31
 70
     1
102
RTVSPropertyOp32
 70
     1
102
RTVSPropertyOp33
 70
     1
102
RTVSPropertyOp34
 70
     1
102
RTVSPropertyOp35
 70
     1
102
RTVSPropertyOp36
 70
     1
102
RTVSPropertyOp37
 70
     1
102
RTVSPropertyOp38
 70
     1
102
RTVSPropertyOp39
 70
     1
102
RTVSPropertyOp40
 70
     1
102
RTVSPropertyOp41
 70
     1
102
RTVSPropertyOp42
 70
     1
102
RTVSPropertyOp43
 70
     1
102
RTVSPropertyOp44
 70
     1
102
RTVSPropertyOp45
 70
     1
102
RTVSPropertyOp46
 70
     1
102
RTVSPropertyOp47
 70
     1
102
RTVSPropertyOp48
 70
     1
102
RTVSPropertyOp49
 70
     1
102
RTVSPropertyOp50
 70
     1
102
RTVSPropertyOp51
 70
     0
102
RTVSPropertyOp52
 70
     0
102
RTVSPropertyOp53
 70
     1
102
RTVSPropertyOp54
 70
     1
102
RTVSPropertyOp55
 70
     1
102
RTVSPropertyOp56
 70
     1
102
RTVSPropertyOp57
 70
     1
102
RTVSPropertyOp58
 70
     1
102
RTVSPropertyOp59
 70
     1
102
RTVSPropertyOp60
 70
     1
102
RTVSPropertyOp61
 70
     1
102
RTVSPropertyOp62
 70
     1
  0
XRECORD
  5
F0A4
102
{ACAD_REACTORS
330
F0A3
102
}
330
F0A3
100
AcDbXrecord
280
     1
102
RTVSPost2010Prop28
280
     0
102
RTVSPost2010PropOp28
 70
     1
102
RTVSPost2010Prop29
280
     1
102
RTVSPost2010PropOp29
 70
     1
102
RTVSPost2010Prop30
280
     1
102
RTVSPost2010PropOp30
 70
     1
102
RTVSPost2010Prop31
280
     0
102
RTVSPost2010PropOp31
 70
     1
102
RTVSPost2010Prop32
280
     0
102
RTVSPost2010PropOp32
 70
     1
102
RTVSPost2010Prop33
280
     0
102
RTVSPost2010PropOp33
 70
     1
102
RTVSPost2010Prop34
280
     0
102
RTVSPost2010PropOp34
 70
     1
102
RTVSPost2010Prop35
280
     0
102
RTVSPost2010PropOp35
 70
     1
102
RTVSPost2010Prop36
280
     0
102
RTVSPost2010PropOp36
 70
     1
102
RTVSPost2010Prop37
 90
       50
102
RTVSPost2010PropOp37
 70
     1
102
RTVSPost2010Prop38
140
0.0
102
RTVSPost2010PropOp38
 70
     1
102
RTVSPost2010Prop39
140
1.0
102
RTVSPost2010PropOp39
 70
     1
102
RTVSPost2010Prop40
 90
        0
102
RTVSPost2010PropOp40
 70
     1
102
RTVSPost2010Prop41ColorIndex
 90
       18
102
RTVSPost2010Prop41ColorRGB
 90
        0
102
RTVSPost2010PropOp41
 70
     1
102
RTVSPost2010Prop42
 90
       50
102
RTVSPost2010PropOp42
 70
     1
102
RTVSPost2010Prop43
 90
        3
102
RTVSPost2010PropOp43
 70
     1
102
RTVSPost2010Prop44ColorIndex
 90
        5
102
RTVSPost2010Prop44ColorRGB
 90
      255
102
RTVSPost2010PropOp44
 70
     1
102
RTVSPost2010Prop45
280
     0
102
RTVSPost2010PropOp45
 70
     1
102
RTVSPost2010Prop46
 90
       50
102
RTVSPost2010PropOp46
 70
     1
102
RTVSPost2010Prop47
 90
       50
102
RTVSPost2010PropOp47
 70
     1
102
RTVSPost2010Prop48
 90
       50
102
RTVSPost2010PropOp48
 70
     1
102
RTVSPost2010Prop49
280
     0
102
RTVSPost2010PropOp49
 70
     1
102
RTVSPost2010Prop50
 90
       50
102
RTVSPost2010PropOp50
 70
     1
102
RTVSPost2010Prop51ColorIndex
 90
      256
102
RTVSPost2010Prop51ColorRGB
 90
-16777216
102
RTVSPost2010PropOp51
 70
     0
102
RTVSPost2010Prop52
140
1.0
102
RTVSPost2010PropOp52
 70
     0
102
RTVSPost2010Prop53
 90
        2
102
RTVSPost2010PropOp53
 70
     1
102
RTVSPost2010Prop54
  1
strokes_ogs.tif
102
RTVSPost2010PropOp54
 70
     1
102
RTVSPost2010Prop55
280
     0
102
RTVSPost2010PropOp55
 70
     1
102
RTVSPost2010Prop56
140
1.0
102
RTVSPost2010PropOp56
 70
     1
102
RTVSPost2010Prop57
140
1.0
102
RTVSPost2010PropOp57
 70
     1
102
RTVSPropertyOp0
 70
     0
102
RTVSPropertyOp1
 70
     0
102
RTVSPropertyOp2
 70
     0
102
RTVSPropertyOp3
 70
     0
102
RTVSPropertyOp4
 70
     0
102
RTVSPropertyOp5
 70
     0
102
RTVSPropertyOp6
 70
     0
102
RTVSPropertyOp7
 70
     0
102
RTVSPropertyOp8
 70
     0
102
RTVSPropertyOp9
 70
     0
102
RTVSPropertyOp10
 70
     0
102
RTVSPropertyOp11
 70
     0
102
RTVSPropertyOp12
 70
     0
102
RTVSPropertyOp13
 70
     0
102
RTVSPropertyOp14
 70
     2
102
RTVSPropertyOp15
 70
     0
102
RTVSPropertyOp16
 70
     0
102
RTVSPropertyOp17
 70
     0
102
RTVSPropertyOp18
 70
     0
102
RTVSPropertyOp19
 70
     0
102
RTVSPropertyOp20
 70
     0
102
RTVSPropertyOp21
 70
     0
102
RTVSPropertyOp22
 70
     0
102
RTVSPropertyOp23
 70
     0
102
RTVSPropertyOp24
 70
     0
102
RTVSPropertyOp25
 70
     0
102
RTVSPropertyOp26
 70
     0
102
RTVSPropertyOp27
 70
     0
102
RTVSPropertyOp28
 70
     1
102
RTVSPropertyOp29
 70
     1
102
RTVSPropertyOp30
 70
     1
102
RTVSPropertyOp31
 70
     1
102
RTVSPropertyOp32
 70
     1
102
RTVSPropertyOp33
 70
     1
102
RTVSPropertyOp34
 70
     1
102
RTVSPropertyOp35
 70
     1
102
RTVSPropertyOp36
 70
     1
102
RTVSPropertyOp37
 70
     1
102
RTVSPropertyOp38
 70
     1
102
RTVSPropertyOp39
 70
     1
102
RTVSPropertyOp40
 70
     1
102
RTVSPropertyOp41
 70
     1
102
RTVSPropertyOp42
 70
     1
102
RTVSPropertyOp43
 70
     1
102
RTVSPropertyOp44
 70
     1
102
RTVSPropertyOp45
 70
     1
102
RTVSPropertyOp46
 70
     1
102
RTVSPropertyOp47
 70
     1
102
RTVSPropertyOp48
 70
     1
102
RTVSPropertyOp49
 70
     1
102
RTVSPropertyOp50
 70
     1
102
RTVSPropertyOp51
 70
     0
102
RTVSPropertyOp52
 70
     0
102
RTVSPropertyOp53
 70
     1
102
RTVSPropertyOp54
 70
     1
102
RTVSPropertyOp55
 70
     1
102
RTVSPropertyOp56
 70
     1
102
RTVSPropertyOp57
 70
     1
102
RTVSPropertyOp58
 70
     1
102
RTVSPropertyOp59
 70
     1
102
RTVSPropertyOp60
 70
     1
102
RTVSPropertyOp61
 70
     1
102
RTVSPropertyOp62
 70
     1
  0
XRECORD
  5
F08E
102
{ACAD_REACTORS
330
F08D
102
}
330
F08D
100
AcDbXrecord
280
     1
102
RTVSPost2010Prop28
280
     0
102
RTVSPost2010PropOp28
 70
     1
102
RTVSPost2010Prop29
280
     1
102
RTVSPost2010PropOp29
 70
     1
102
RTVSPost2010Prop30
280
     1
102
RTVSPost2010PropOp30
 70
     1
102
RTVSPost2010Prop31
280
     0
102
RTVSPost2010PropOp31
 70
     1
102
RTVSPost2010Prop32
280
     0
102
RTVSPost2010PropOp32
 70
     1
102
RTVSPost2010Prop33
280
     0
102
RTVSPost2010PropOp33
 70
     1
102
RTVSPost2010Prop34
280
     0
102
RTVSPost2010PropOp34
 70
     1
102
RTVSPost2010Prop35
280
     0
102
RTVSPost2010PropOp35
 70
     1
102
RTVSPost2010Prop36
280
     0
102
RTVSPost2010PropOp36
 70
     1
102
RTVSPost2010Prop37
 90
       50
102
RTVSPost2010PropOp37
 70
     1
102
RTVSPost2010Prop38
140
0.0
102
RTVSPost2010PropOp38
 70
     1
102
RTVSPost2010Prop39
140
1.0
102
RTVSPost2010PropOp39
 70
     1
102
RTVSPost2010Prop40
 90
        0
102
RTVSPost2010PropOp40
 70
     1
102
RTVSPost2010Prop41ColorIndex
 90
       18
102
RTVSPost2010Prop41ColorRGB
 90
        0
102
RTVSPost2010PropOp41
 70
     1
102
RTVSPost2010Prop42
 90
       50
102
RTVSPost2010PropOp42
 70
     1
102
RTVSPost2010Prop43
 90
        3
102
RTVSPost2010PropOp43
 70
     1
102
RTVSPost2010Prop44ColorIndex
 90
        5
102
RTVSPost2010Prop44ColorRGB
 90
      255
102
RTVSPost2010PropOp44
 70
     1
102
RTVSPost2010Prop45
280
     0
102
RTVSPost2010PropOp45
 70
     1
102
RTVSPost2010Prop46
 90
       50
102
RTVSPost2010PropOp46
 70
     1
102
RTVSPost2010Prop47
 90
       50
102
RTVSPost2010PropOp47
 70
     1
102
RTVSPost2010Prop48
 90
       50
102
RTVSPost2010PropOp48
 70
     1
102
RTVSPost2010Prop49
280
     0
102
RTVSPost2010PropOp49
 70
     1
102
RTVSPost2010Prop50
 90
       50
102
RTVSPost2010PropOp50
 70
     1
102
RTVSPost2010Prop51ColorIndex
 90
      256
102
RTVSPost2010Prop51ColorRGB
 90
-16777216
102
RTVSPost2010PropOp51
 70
     0
102
RTVSPost2010Prop52
140
1.0
102
RTVSPost2010PropOp52
 70
     0
102
RTVSPost2010Prop53
 90
        2
102
RTVSPost2010PropOp53
 70
     1
102
RTVSPost2010Prop54
  1
strokes_ogs.tif
102
RTVSPost2010PropOp54
 70
     1
102
RTVSPost2010Prop55
280
     0
102
RTVSPost2010PropOp55
 70
     1
102
RTVSPost2010Prop56
140
1.0
102
RTVSPost2010PropOp56
 70
     1
102
RTVSPost2010Prop57
140
1.0
102
RTVSPost2010PropOp57
 70
     1
102
RTVSPropertyOp0
 70
     1
102
RTVSPropertyOp1
 70
     1
102
RTVSPropertyOp2
 70
     1
102
RTVSPropertyOp3
 70
     1
102
RTVSPropertyOp4
 70
     1
102
RTVSPropertyOp5
 70
     1
102
RTVSPropertyOp6
 70
     1
102
RTVSPropertyOp7
 70
     1
102
RTVSPropertyOp8
 70
     1
102
RTVSPropertyOp9
 70
     1
102
RTVSPropertyOp10
 70
     1
102
RTVSPropertyOp11
 70
     1
102
RTVSPropertyOp12
 70
     1
102
RTVSPropertyOp13
 70
     1
102
RTVSPropertyOp14
 70
     1
102
RTVSPropertyOp15
 70
     1
102
RTVSPropertyOp16
 70
     1
102
RTVSPropertyOp17
 70
     1
102
RTVSPropertyOp18
 70
     1
102
RTVSPropertyOp19
 70
     1
102
RTVSPropertyOp20
 70
     1
102
RTVSPropertyOp21
 70
     1
102
RTVSPropertyOp22
 70
     1
102
RTVSPropertyOp23
 70
     1
102
RTVSPropertyOp24
 70
     1
102
RTVSPropertyOp25
 70
     1
102
RTVSPropertyOp26
 70
     1
102
RTVSPropertyOp27
 70
     1
102
RTVSPropertyOp28
 70
     1
102
RTVSPropertyOp29
 70
     1
102
RTVSPropertyOp30
 70
     1
102
RTVSPropertyOp31
 70
     1
102
RTVSPropertyOp32
 70
     1
102
RTVSPropertyOp33
 70
     1
102
RTVSPropertyOp34
 70
     1
102
RTVSPropertyOp35
 70
     1
102
RTVSPropertyOp36
 70
     1
102
RTVSPropertyOp37
 70
     1
102
RTVSPropertyOp38
 70
     1
102
RTVSPropertyOp39
 70
     1
102
RTVSPropertyOp40
 70
     1
102
RTVSPropertyOp41
 70
     1
102
RTVSPropertyOp42
 70
     1
102
RTVSPropertyOp43
 70
     1
102
RTVSPropertyOp44
 70
     1
102
RTVSPropertyOp45
 70
     1
102
RTVSPropertyOp46
 70
     1
102
RTVSPropertyOp47
 70
     1
102
RTVSPropertyOp48
 70
     1
102
RTVSPropertyOp49
 70
     1
102
RTVSPropertyOp50
 70
     1
102
RTVSPropertyOp51
 70
     0
102
RTVSPropertyOp52
 70
     0
102
RTVSPropertyOp53
 70
     1
102
RTVSPropertyOp54
 70
     1
102
RTVSPropertyOp55
 70
     1
102
RTVSPropertyOp56
 70
     1
102
RTVSPropertyOp57
 70
     1
102
RTVSPropertyOp58
 70
     1
102
RTVSPropertyOp59
 70
     1
102
RTVSPropertyOp60
 70
     1
102
RTVSPropertyOp61
 70
     1
102
RTVSPropertyOp62
 70
     1
  0
XRECORD
  5
F0A6
102
{ACAD_REACTORS
330
F0A5
102
}
330
F0A5
100
AcDbXrecord
280
     1
102
RTVSPost2010Prop28
280
     0
102
RTVSPost2010PropOp28
 70
     1
102
RTVSPost2010Prop29
280
     1
102
RTVSPost2010PropOp29
 70
     1
102
RTVSPost2010Prop30
280
     1
102
RTVSPost2010PropOp30
 70
     1
102
RTVSPost2010Prop31
280
     0
102
RTVSPost2010PropOp31
 70
     1
102
RTVSPost2010Prop32
280
     0
102
RTVSPost2010PropOp32
 70
     1
102
RTVSPost2010Prop33
280
     0
102
RTVSPost2010PropOp33
 70
     1
102
RTVSPost2010Prop34
280
     0
102
RTVSPost2010PropOp34
 70
     1
102
RTVSPost2010Prop35
280
     0
102
RTVSPost2010PropOp35
 70
     1
102
RTVSPost2010Prop36
280
     0
102
RTVSPost2010PropOp36
 70
     1
102
RTVSPost2010Prop37
 90
       50
102
RTVSPost2010PropOp37
 70
     1
102
RTVSPost2010Prop38
140
0.0
102
RTVSPost2010PropOp38
 70
     1
102
RTVSPost2010Prop39
140
1.0
102
RTVSPost2010PropOp39
 70
     1
102
RTVSPost2010Prop40
 90
        0
102
RTVSPost2010PropOp40
 70
     1
102
RTVSPost2010Prop41ColorIndex
 90
       18
102
RTVSPost2010Prop41ColorRGB
 90
        0
102
RTVSPost2010PropOp41
 70
     1
102
RTVSPost2010Prop42
 90
       50
102
RTVSPost2010PropOp42
 70
     1
102
RTVSPost2010Prop43
 90
        3
102
RTVSPost2010PropOp43
 70
     1
102
RTVSPost2010Prop44ColorIndex
 90
        5
102
RTVSPost2010Prop44ColorRGB
 90
      255
102
RTVSPost2010PropOp44
 70
     1
102
RTVSPost2010Prop45
280
     0
102
RTVSPost2010PropOp45
 70
     1
102
RTVSPost2010Prop46
 90
       50
102
RTVSPost2010PropOp46
 70
     1
102
RTVSPost2010Prop47
 90
       50
102
RTVSPost2010PropOp47
 70
     1
102
RTVSPost2010Prop48
 90
       50
102
RTVSPost2010PropOp48
 70
     1
102
RTVSPost2010Prop49
280
     0
102
RTVSPost2010PropOp49
 70
     1
102
RTVSPost2010Prop50
 90
       50
102
RTVSPost2010PropOp50
 70
     1
102
RTVSPost2010Prop51ColorIndex
 90
      256
102
RTVSPost2010Prop51ColorRGB
 90
-16777216
102
RTVSPost2010PropOp51
 70
     0
102
RTVSPost2010Prop52
140
1.0
102
RTVSPost2010PropOp52
 70
     0
102
RTVSPost2010Prop53
 90
        2
102
RTVSPost2010PropOp53
 70
     1
102
RTVSPost2010Prop54
  1
strokes_ogs.tif
102
RTVSPost2010PropOp54
 70
     1
102
RTVSPost2010Prop55
280
     0
102
RTVSPost2010PropOp55
 70
     1
102
RTVSPost2010Prop56
140
1.0
102
RTVSPost2010PropOp56
 70
     1
102
RTVSPost2010Prop57
140
1.0
102
RTVSPost2010PropOp57
 70
     1
102
RTVSPropertyOp0
 70
     0
102
RTVSPropertyOp1
 70
     0
102
RTVSPropertyOp2
 70
     0
102
RTVSPropertyOp3
 70
     0
102
RTVSPropertyOp4
 70
     0
102
RTVSPropertyOp5
 70
     0
102
RTVSPropertyOp6
 70
     0
102
RTVSPropertyOp7
 70
     0
102
RTVSPropertyOp8
 70
     0
102
RTVSPropertyOp9
 70
     0
102
RTVSPropertyOp10
 70
     0
102
RTVSPropertyOp11
 70
     0
102
RTVSPropertyOp12
 70
     0
102
RTVSPropertyOp13
 70
     0
102
RTVSPropertyOp14
 70
     2
102
RTVSPropertyOp15
 70
     0
102
RTVSPropertyOp16
 70
     0
102
RTVSPropertyOp17
 70
     0
102
RTVSPropertyOp18
 70
     0
102
RTVSPropertyOp19
 70
     0
102
RTVSPropertyOp20
 70
     0
102
RTVSPropertyOp21
 70
     0
102
RTVSPropertyOp22
 70
     0
102
RTVSPropertyOp23
 70
     0
102
RTVSPropertyOp24
 70
     0
102
RTVSPropertyOp25
 70
     0
102
RTVSPropertyOp26
 70
     0
102
RTVSPropertyOp27
 70
     0
102
RTVSPropertyOp28
 70
     1
102
RTVSPropertyOp29
 70
     1
102
RTVSPropertyOp30
 70
     1
102
RTVSPropertyOp31
 70
     1
102
RTVSPropertyOp32
 70
     1
102
RTVSPropertyOp33
 70
     1
102
RTVSPropertyOp34
 70
     1
102
RTVSPropertyOp35
 70
     1
102
RTVSPropertyOp36
 70
     1
102
RTVSPropertyOp37
 70
     1
102
RTVSPropertyOp38
 70
     1
102
RTVSPropertyOp39
 70
     1
102
RTVSPropertyOp40
 70
     1
102
RTVSPropertyOp41
 70
     1
102
RTVSPropertyOp42
 70
     1
102
RTVSPropertyOp43
 70
     1
102
RTVSPropertyOp44
 70
     1
102
RTVSPropertyOp45
 70
     1
102
RTVSPropertyOp46
 70
     1
102
RTVSPropertyOp47
 70
     1
102
RTVSPropertyOp48
 70
     1
102
RTVSPropertyOp49
 70
     1
102
RTVSPropertyOp50
 70
     1
102
RTVSPropertyOp51
 70
     0
102
RTVSPropertyOp52
 70
     0
102
RTVSPropertyOp53
 70
     1
102
RTVSPropertyOp54
 70
     1
102
RTVSPropertyOp55
 70
     1
102
RTVSPropertyOp56
 70
     1
102
RTVSPropertyOp57
 70
     1
102
RTVSPropertyOp58
 70
     1
102
RTVSPropertyOp59
 70
     1
102
RTVSPropertyOp60
 70
     1
102
RTVSPropertyOp61
 70
     1
102
RTVSPropertyOp62
 70
     1
  0
XRECORD
  5
F086
102
{ACAD_REACTORS
330
F085
102
}
330
F085
100
AcDbXrecord
280
     1
102
RTVSPost2010Prop28
280
     0
102
RTVSPost2010PropOp28
 70
     1
102
RTVSPost2010Prop29
280
     1
102
RTVSPost2010PropOp29
 70
     1
102
RTVSPost2010Prop30
280
     1
102
RTVSPost2010PropOp30
 70
     1
102
RTVSPost2010Prop31
280
     0
102
RTVSPost2010PropOp31
 70
     1
102
RTVSPost2010Prop32
280
     0
102
RTVSPost2010PropOp32
 70
     1
102
RTVSPost2010Prop33
280
     0
102
RTVSPost2010PropOp33
 70
     1
102
RTVSPost2010Prop34
280
     0
102
RTVSPost2010PropOp34
 70
     1
102
RTVSPost2010Prop35
280
     0
102
RTVSPost2010PropOp35
 70
     1
102
RTVSPost2010Prop36
280
     0
102
RTVSPost2010PropOp36
 70
     1
102
RTVSPost2010Prop37
 90
       50
102
RTVSPost2010PropOp37
 70
     1
102
RTVSPost2010Prop38
140
0.0
102
RTVSPost2010PropOp38
 70
     1
102
RTVSPost2010Prop39
140
1.0
102
RTVSPost2010PropOp39
 70
     1
102
RTVSPost2010Prop40
 90
        0
102
RTVSPost2010PropOp40
 70
     1
102
RTVSPost2010Prop41ColorIndex
 90
       18
102
RTVSPost2010Prop41ColorRGB
 90
        0
102
RTVSPost2010PropOp41
 70
     1
102
RTVSPost2010Prop42
 90
       50
102
RTVSPost2010PropOp42
 70
     1
102
RTVSPost2010Prop43
 90
        3
102
RTVSPost2010PropOp43
 70
     1
102
RTVSPost2010Prop44ColorIndex
 90
        5
102
RTVSPost2010Prop44ColorRGB
 90
      255
102
RTVSPost2010PropOp44
 70
     1
102
RTVSPost2010Prop45
280
     0
102
RTVSPost2010PropOp45
 70
     1
102
RTVSPost2010Prop46
 90
       50
102
RTVSPost2010PropOp46
 70
     1
102
RTVSPost2010Prop47
 90
       50
102
RTVSPost2010PropOp47
 70
     1
102
RTVSPost2010Prop48
 90
       50
102
RTVSPost2010PropOp48
 70
     1
102
RTVSPost2010Prop49
280
     0
102
RTVSPost2010PropOp49
 70
     1
102
RTVSPost2010Prop50
 90
       50
102
RTVSPost2010PropOp50
 70
     1
102
RTVSPost2010Prop51ColorIndex
 90
      256
102
RTVSPost2010Prop51ColorRGB
 90
-16777216
102
RTVSPost2010PropOp51
 70
     0
102
RTVSPost2010Prop52
140
1.0
102
RTVSPost2010PropOp52
 70
     0
102
RTVSPost2010Prop53
 90
        2
102
RTVSPost2010PropOp53
 70
     1
102
RTVSPost2010Prop54
  1
strokes_ogs.tif
102
RTVSPost2010PropOp54
 70
     1
102
RTVSPost2010Prop55
280
     0
102
RTVSPost2010PropOp55
 70
     1
102
RTVSPost2010Prop56
140
1.0
102
RTVSPost2010PropOp56
 70
     1
102
RTVSPost2010Prop57
140
1.0
102
RTVSPost2010PropOp57
 70
     1
102
RTVSPropertyOp0
 70
     1
102
RTVSPropertyOp1
 70
     1
102
RTVSPropertyOp2
 70
     1
102
RTVSPropertyOp3
 70
     1
102
RTVSPropertyOp4
 70
     1
102
RTVSPropertyOp5
 70
     1
102
RTVSPropertyOp6
 70
     1
102
RTVSPropertyOp7
 70
     1
102
RTVSPropertyOp8
 70
     1
102
RTVSPropertyOp9
 70
     1
102
RTVSPropertyOp10
 70
     1
102
RTVSPropertyOp11
 70
     1
102
RTVSPropertyOp12
 70
     1
102
RTVSPropertyOp13
 70
     1
102
RTVSPropertyOp14
 70
     1
102
RTVSPropertyOp15
 70
     1
102
RTVSPropertyOp16
 70
     1
102
RTVSPropertyOp17
 70
     1
102
RTVSPropertyOp18
 70
     1
102
RTVSPropertyOp19
 70
     1
102
RTVSPropertyOp20
 70
     1
102
RTVSPropertyOp21
 70
     1
102
RTVSPropertyOp22
 70
     1
102
RTVSPropertyOp23
 70
     1
102
RTVSPropertyOp24
 70
     1
102
RTVSPropertyOp25
 70
     1
102
RTVSPropertyOp26
 70
     1
102
RTVSPropertyOp27
 70
     1
102
RTVSPropertyOp28
 70
     1
102
RTVSPropertyOp29
 70
     1
102
RTVSPropertyOp30
 70
     1
102
RTVSPropertyOp31
 70
     1
102
RTVSPropertyOp32
 70
     1
102
RTVSPropertyOp33
 70
     1
102
RTVSPropertyOp34
 70
     1
102
RTVSPropertyOp35
 70
     1
102
RTVSPropertyOp36
 70
     1
102
RTVSPropertyOp37
 70
     1
102
RTVSPropertyOp38
 70
     1
102
RTVSPropertyOp39
 70
     1
102
RTVSPropertyOp40
 70
     1
102
RTVSPropertyOp41
 70
     1
102
RTVSPropertyOp42
 70
     1
102
RTVSPropertyOp43
 70
     1
102
RTVSPropertyOp44
 70
     1
102
RTVSPropertyOp45
 70
     1
102
RTVSPropertyOp46
 70
     1
102
RTVSPropertyOp47
 70
     1
102
RTVSPropertyOp48
 70
     1
102
RTVSPropertyOp49
 70
     1
102
RTVSPropertyOp50
 70
     1
102
RTVSPropertyOp51
 70
     0
102
RTVSPropertyOp52
 70
     0
102
RTVSPropertyOp53
 70
     1
102
RTVSPropertyOp54
 70
     1
102
RTVSPropertyOp55
 70
     1
102
RTVSPropertyOp56
 70
     1
102
RTVSPropertyOp57
 70
     1
102
RTVSPropertyOp58
 70
     1
102
RTVSPropertyOp59
 70
     1
102
RTVSPropertyOp60
 70
     1
102
RTVSPropertyOp61
 70
     1
102
RTVSPropertyOp62
 70
     1
  0
XRECORD
  5
F0A2
102
{ACAD_REACTORS
330
F0A1
102
}
330
F0A1
100
AcDbXrecord
280
     1
102
RTVSPost2010Prop28
280
     0
102
RTVSPost2010PropOp28
 70
     1
102
RTVSPost2010Prop29
280
     1
102
RTVSPost2010PropOp29
 70
     1
102
RTVSPost2010Prop30
280
     1
102
RTVSPost2010PropOp30
 70
     1
102
RTVSPost2010Prop31
280
     0
102
RTVSPost2010PropOp31
 70
     1
102
RTVSPost2010Prop32
280
     0
102
RTVSPost2010PropOp32
 70
     1
102
RTVSPost2010Prop33
280
     0
102
RTVSPost2010PropOp33
 70
     1
102
RTVSPost2010Prop34
280
     0
102
RTVSPost2010PropOp34
 70
     1
102
RTVSPost2010Prop35
280
     0
102
RTVSPost2010PropOp35
 70
     1
102
RTVSPost2010Prop36
280
     0
102
RTVSPost2010PropOp36
 70
     1
102
RTVSPost2010Prop37
 90
       50
102
RTVSPost2010PropOp37
 70
     1
102
RTVSPost2010Prop38
140
0.0
102
RTVSPost2010PropOp38
 70
     1
102
RTVSPost2010Prop39
140
1.0
102
RTVSPost2010PropOp39
 70
     1
102
RTVSPost2010Prop40
 90
        0
102
RTVSPost2010PropOp40
 70
     1
102
RTVSPost2010Prop41ColorIndex
 90
       18
102
RTVSPost2010Prop41ColorRGB
 90
        0
102
RTVSPost2010PropOp41
 70
     1
102
RTVSPost2010Prop42
 90
       50
102
RTVSPost2010PropOp42
 70
     1
102
RTVSPost2010Prop43
 90
        3
102
RTVSPost2010PropOp43
 70
     1
102
RTVSPost2010Prop44ColorIndex
 90
        5
102
RTVSPost2010Prop44ColorRGB
 90
      255
102
RTVSPost2010PropOp44
 70
     1
102
RTVSPost2010Prop45
280
     0
102
RTVSPost2010PropOp45
 70
     1
102
RTVSPost2010Prop46
 90
       50
102
RTVSPost2010PropOp46
 70
     1
102
RTVSPost2010Prop47
 90
       50
102
RTVSPost2010PropOp47
 70
     1
102
RTVSPost2010Prop48
 90
       50
102
RTVSPost2010PropOp48
 70
     1
102
RTVSPost2010Prop49
280
     0
102
RTVSPost2010PropOp49
 70
     1
102
RTVSPost2010Prop50
 90
       50
102
RTVSPost2010PropOp50
 70
     1
102
RTVSPost2010Prop51ColorIndex
 90
      256
102
RTVSPost2010Prop51ColorRGB
 90
-16777216
102
RTVSPost2010PropOp51
 70
     0
102
RTVSPost2010Prop52
140
1.0
102
RTVSPost2010PropOp52
 70
     0
102
RTVSPost2010Prop53
 90
        2
102
RTVSPost2010PropOp53
 70
     1
102
RTVSPost2010Prop54
  1
strokes_ogs.tif
102
RTVSPost2010PropOp54
 70
     1
102
RTVSPost2010Prop55
280
     0
102
RTVSPost2010PropOp55
 70
     1
102
RTVSPost2010Prop56
140
1.0
102
RTVSPost2010PropOp56
 70
     1
102
RTVSPost2010Prop57
140
1.0
102
RTVSPost2010PropOp57
 70
     1
102
RTVSPropertyOp0
 70
     1
102
RTVSPropertyOp1
 70
     1
102
RTVSPropertyOp2
 70
     1
102
RTVSPropertyOp3
 70
     1
102
RTVSPropertyOp4
 70
     1
102
RTVSPropertyOp5
 70
     1
102
RTVSPropertyOp6
 70
     1
102
RTVSPropertyOp7
 70
     1
102
RTVSPropertyOp8
 70
     1
102
RTVSPropertyOp9
 70
     1
102
RTVSPropertyOp10
 70
     1
102
RTVSPropertyOp11
 70
     1
102
RTVSPropertyOp12
 70
     1
102
RTVSPropertyOp13
 70
     1
102
RTVSPropertyOp14
 70
     1
102
RTVSPropertyOp15
 70
     1
102
RTVSPropertyOp16
 70
     1
102
RTVSPropertyOp17
 70
     1
102
RTVSPropertyOp18
 70
     1
102
RTVSPropertyOp19
 70
     1
102
RTVSPropertyOp20
 70
     1
102
RTVSPropertyOp21
 70
     1
102
RTVSPropertyOp22
 70
     1
102
RTVSPropertyOp23
 70
     1
102
RTVSPropertyOp24
 70
     1
102
RTVSPropertyOp25
 70
     1
102
RTVSPropertyOp26
 70
     1
102
RTVSPropertyOp27
 70
     1
102
RTVSPropertyOp28
 70
     1
102
RTVSPropertyOp29
 70
     1
102
RTVSPropertyOp30
 70
     1
102
RTVSPropertyOp31
 70
     1
102
RTVSPropertyOp32
 70
     1
102
RTVSPropertyOp33
 70
     1
102
RTVSPropertyOp34
 70
     1
102
RTVSPropertyOp35
 70
     1
102
RTVSPropertyOp36
 70
     1
102
RTVSPropertyOp37
 70
     1
102
RTVSPropertyOp38
 70
     1
102
RTVSPropertyOp39
 70
     1
102
RTVSPropertyOp40
 70
     1
102
RTVSPropertyOp41
 70
     1
102
RTVSPropertyOp42
 70
     1
102
RTVSPropertyOp43
 70
     1
102
RTVSPropertyOp44
 70
     1
102
RTVSPropertyOp45
 70
     1
102
RTVSPropertyOp46
 70
     1
102
RTVSPropertyOp47
 70
     1
102
RTVSPropertyOp48
 70
     1
102
RTVSPropertyOp49
 70
     1
102
RTVSPropertyOp50
 70
     1
102
RTVSPropertyOp51
 70
     0
102
RTVSPropertyOp52
 70
     0
102
RTVSPropertyOp53
 70
     1
102
RTVSPropertyOp54
 70
     1
102
RTVSPropertyOp55
 70
     1
102
RTVSPropertyOp56
 70
     1
102
RTVSPropertyOp57
 70
     1
102
RTVSPropertyOp58
 70
     1
102
RTVSPropertyOp59
 70
     1
102
RTVSPropertyOp60
 70
     1
102
RTVSPropertyOp61
 70
     1
102
RTVSPropertyOp62
 70
     1
  0
XRECORD
  5
F0A0
102
{ACAD_REACTORS
330
F09F
102
}
330
F09F
100
AcDbXrecord
280
     1
102
RTVSPost2010Prop28
280
     0
102
RTVSPost2010PropOp28
 70
     1
102
RTVSPost2010Prop29
280
     1
102
RTVSPost2010PropOp29
 70
     1
102
RTVSPost2010Prop30
280
     1
102
RTVSPost2010PropOp30
 70
     1
102
RTVSPost2010Prop31
280
     0
102
RTVSPost2010PropOp31
 70
     1
102
RTVSPost2010Prop32
280
     0
102
RTVSPost2010PropOp32
 70
     1
102
RTVSPost2010Prop33
280
     0
102
RTVSPost2010PropOp33
 70
     1
102
RTVSPost2010Prop34
280
     0
102
RTVSPost2010PropOp34
 70
     1
102
RTVSPost2010Prop35
280
     0
102
RTVSPost2010PropOp35
 70
     1
102
RTVSPost2010Prop36
280
     0
102
RTVSPost2010PropOp36
 70
     1
102
RTVSPost2010Prop37
 90
       50
102
RTVSPost2010PropOp37
 70
     1
102
RTVSPost2010Prop38
140
0.0
102
RTVSPost2010PropOp38
 70
     1
102
RTVSPost2010Prop39
140
1.0
102
RTVSPost2010PropOp39
 70
     1
102
RTVSPost2010Prop40
 90
        0
102
RTVSPost2010PropOp40
 70
     1
102
RTVSPost2010Prop41ColorIndex
 90
       18
102
RTVSPost2010Prop41ColorRGB
 90
        0
102
RTVSPost2010PropOp41
 70
     1
102
RTVSPost2010Prop42
 90
       50
102
RTVSPost2010PropOp42
 70
     1
102
RTVSPost2010Prop43
 90
        3
102
RTVSPost2010PropOp43
 70
     1
102
RTVSPost2010Prop44ColorIndex
 90
        5
102
RTVSPost2010Prop44ColorRGB
 90
      255
102
RTVSPost2010PropOp44
 70
     1
102
RTVSPost2010Prop45
280
     0
102
RTVSPost2010PropOp45
 70
     1
102
RTVSPost2010Prop46
 90
       50
102
RTVSPost2010PropOp46
 70
     1
102
RTVSPost2010Prop47
 90
       50
102
RTVSPost2010PropOp47
 70
     1
102
RTVSPost2010Prop48
 90
       50
102
RTVSPost2010PropOp48
 70
     1
102
RTVSPost2010Prop49
280
     0
102
RTVSPost2010PropOp49
 70
     1
102
RTVSPost2010Prop50
 90
       50
102
RTVSPost2010PropOp50
 70
     1
102
RTVSPost2010Prop51ColorIndex
 90
      256
102
RTVSPost2010Prop51ColorRGB
 90
-16777216
102
RTVSPost2010PropOp51
 70
     0
102
RTVSPost2010Prop52
140
1.0
102
RTVSPost2010PropOp52
 70
     0
102
RTVSPost2010Prop53
 90
        2
102
RTVSPost2010PropOp53
 70
     1
102
RTVSPost2010Prop54
  1
strokes_ogs.tif
102
RTVSPost2010PropOp54
 70
     1
102
RTVSPost2010Prop55
280
     0
102
RTVSPost2010PropOp55
 70
     1
102
RTVSPost2010Prop56
140
1.0
102
RTVSPost2010PropOp56
 70
     1
102
RTVSPost2010Prop57
140
1.0
102
RTVSPost2010PropOp57
 70
     1
102
RTVSPropertyOp0
 70
     1
102
RTVSPropertyOp1
 70
     1
102
RTVSPropertyOp2
 70
     1
102
RTVSPropertyOp3
 70
     1
102
RTVSPropertyOp4
 70
     1
102
RTVSPropertyOp5
 70
     1
102
RTVSPropertyOp6
 70
     1
102
RTVSPropertyOp7
 70
     1
102
RTVSPropertyOp8
 70
     1
102
RTVSPropertyOp9
 70
     1
102
RTVSPropertyOp10
 70
     1
102
RTVSPropertyOp11
 70
     1
102
RTVSPropertyOp12
 70
     1
102
RTVSPropertyOp13
 70
     1
102
RTVSPropertyOp14
 70
     1
102
RTVSPropertyOp15
 70
     1
102
RTVSPropertyOp16
 70
     1
102
RTVSPropertyOp17
 70
     1
102
RTVSPropertyOp18
 70
     1
102
RTVSPropertyOp19
 70
     1
102
RTVSPropertyOp20
 70
     1
102
RTVSPropertyOp21
 70
     1
102
RTVSPropertyOp22
 70
     1
102
RTVSPropertyOp23
 70
     1
102
RTVSPropertyOp24
 70
     1
102
RTVSPropertyOp25
 70
     1
102
RTVSPropertyOp26
 70
     1
102
RTVSPropertyOp27
 70
     1
102
RTVSPropertyOp28
 70
     1
102
RTVSPropertyOp29
 70
     1
102
RTVSPropertyOp30
 70
     1
102
RTVSPropertyOp31
 70
     1
102
RTVSPropertyOp32
 70
     1
102
RTVSPropertyOp33
 70
     1
102
RTVSPropertyOp34
 70
     1
102
RTVSPropertyOp35
 70
     1
102
RTVSPropertyOp36
 70
     1
102
RTVSPropertyOp37
 70
     1
102
RTVSPropertyOp38
 70
     1
102
RTVSPropertyOp39
 70
     1
102
RTVSPropertyOp40
 70
     1
102
RTVSPropertyOp41
 70
     1
102
RTVSPropertyOp42
 70
     1
102
RTVSPropertyOp43
 70
     1
102
RTVSPropertyOp44
 70
     1
102
RTVSPropertyOp45
 70
     1
102
RTVSPropertyOp46
 70
     1
102
RTVSPropertyOp47
 70
     1
102
RTVSPropertyOp48
 70
     1
102
RTVSPropertyOp49
 70
     1
102
RTVSPropertyOp50
 70
     1
102
RTVSPropertyOp51
 70
     0
102
RTVSPropertyOp52
 70
     0
102
RTVSPropertyOp53
 70
     1
102
RTVSPropertyOp54
 70
     1
102
RTVSPropertyOp55
 70
     1
102
RTVSPropertyOp56
 70
     1
102
RTVSPropertyOp57
 70
     1
102
RTVSPropertyOp58
 70
     1
102
RTVSPropertyOp59
 70
     1
102
RTVSPropertyOp60
 70
     1
102
RTVSPropertyOp61
 70
     1
102
RTVSPropertyOp62
 70
     1
  0
XRECORD
  5
F09A
102
{ACAD_REACTORS
330
F099
102
}
330
F099
100
AcDbXrecord
280
     1
102
RTVSPost2010Prop28
280
     0
102
RTVSPost2010PropOp28
 70
     1
102
RTVSPost2010Prop29
280
     1
102
RTVSPost2010PropOp29
 70
     1
102
RTVSPost2010Prop30
280
     1
102
RTVSPost2010PropOp30
 70
     1
102
RTVSPost2010Prop31
280
     0
102
RTVSPost2010PropOp31
 70
     1
102
RTVSPost2010Prop32
280
     0
102
RTVSPost2010PropOp32
 70
     1
102
RTVSPost2010Prop33
280
     0
102
RTVSPost2010PropOp33
 70
     1
102
RTVSPost2010Prop34
280
     0
102
RTVSPost2010PropOp34
 70
     1
102
RTVSPost2010Prop35
280
     0
102
RTVSPost2010PropOp35
 70
     1
102
RTVSPost2010Prop36
280
     0
102
RTVSPost2010PropOp36
 70
     1
102
RTVSPost2010Prop37
 90
       50
102
RTVSPost2010PropOp37
 70
     1
102
RTVSPost2010Prop38
140
0.0
102
RTVSPost2010PropOp38
 70
     1
102
RTVSPost2010Prop39
140
1.0
102
RTVSPost2010PropOp39
 70
     1
102
RTVSPost2010Prop40
 90
        0
102
RTVSPost2010PropOp40
 70
     1
102
RTVSPost2010Prop41ColorIndex
 90
       18
102
RTVSPost2010Prop41ColorRGB
 90
        0
102
RTVSPost2010PropOp41
 70
     1
102
RTVSPost2010Prop42
 90
       50
102
RTVSPost2010PropOp42
 70
     1
102
RTVSPost2010Prop43
 90
        3
102
RTVSPost2010PropOp43
 70
     1
102
RTVSPost2010Prop44ColorIndex
 90
        5
102
RTVSPost2010Prop44ColorRGB
 90
      255
102
RTVSPost2010PropOp44
 70
     1
102
RTVSPost2010Prop45
280
     0
102
RTVSPost2010PropOp45
 70
     1
102
RTVSPost2010Prop46
 90
       50
102
RTVSPost2010PropOp46
 70
     1
102
RTVSPost2010Prop47
 90
       50
102
RTVSPost2010PropOp47
 70
     1
102
RTVSPost2010Prop48
 90
       50
102
RTVSPost2010PropOp48
 70
     1
102
RTVSPost2010Prop49
280
     0
102
RTVSPost2010PropOp49
 70
     1
102
RTVSPost2010Prop50
 90
       50
102
RTVSPost2010PropOp50
 70
     1
102
RTVSPost2010Prop51ColorIndex
 90
      256
102
RTVSPost2010Prop51ColorRGB
 90
-16777216
102
RTVSPost2010PropOp51
 70
     0
102
RTVSPost2010Prop52
140
1.0
102
RTVSPost2010PropOp52
 70
     0
102
RTVSPost2010Prop53
 90
        2
102
RTVSPost2010PropOp53
 70
     1
102
RTVSPost2010Prop54
  1
strokes_ogs.tif
102
RTVSPost2010PropOp54
 70
     1
102
RTVSPost2010Prop55
280
     0
102
RTVSPost2010PropOp55
 70
     1
102
RTVSPost2010Prop56
140
1.0
102
RTVSPost2010PropOp56
 70
     1
102
RTVSPost2010Prop57
140
1.0
102
RTVSPost2010PropOp57
 70
     1
102
RTVSPropertyOp0
 70
     1
102
RTVSPropertyOp1
 70
     1
102
RTVSPropertyOp2
 70
     1
102
RTVSPropertyOp3
 70
     1
102
RTVSPropertyOp4
 70
     1
102
RTVSPropertyOp5
 70
     1
102
RTVSPropertyOp6
 70
     1
102
RTVSPropertyOp7
 70
     1
102
RTVSPropertyOp8
 70
     1
102
RTVSPropertyOp9
 70
     1
102
RTVSPropertyOp10
 70
     1
102
RTVSPropertyOp11
 70
     1
102
RTVSPropertyOp12
 70
     1
102
RTVSPropertyOp13
 70
     1
102
RTVSPropertyOp14
 70
     1
102
RTVSPropertyOp15
 70
     1
102
RTVSPropertyOp16
 70
     1
102
RTVSPropertyOp17
 70
     1
102
RTVSPropertyOp18
 70
     1
102
RTVSPropertyOp19
 70
     1
102
RTVSPropertyOp20
 70
     1
102
RTVSPropertyOp21
 70
     1
102
RTVSPropertyOp22
 70
     1
102
RTVSPropertyOp23
 70
     1
102
RTVSPropertyOp24
 70
     1
102
RTVSPropertyOp25
 70
     1
102
RTVSPropertyOp26
 70
     1
102
RTVSPropertyOp27
 70
     1
102
RTVSPropertyOp28
 70
     1
102
RTVSPropertyOp29
 70
     1
102
RTVSPropertyOp30
 70
     1
102
RTVSPropertyOp31
 70
     1
102
RTVSPropertyOp32
 70
     1
102
RTVSPropertyOp33
 70
     1
102
RTVSPropertyOp34
 70
     1
102
RTVSPropertyOp35
 70
     1
102
RTVSPropertyOp36
 70
     1
102
RTVSPropertyOp37
 70
     1
102
RTVSPropertyOp38
 70
     1
102
RTVSPropertyOp39
 70
     1
102
RTVSPropertyOp40
 70
     1
102
RTVSPropertyOp41
 70
     1
102
RTVSPropertyOp42
 70
     1
102
RTVSPropertyOp43
 70
     1
102
RTVSPropertyOp44
 70
     1
102
RTVSPropertyOp45
 70
     1
102
RTVSPropertyOp46
 70
     1
102
RTVSPropertyOp47
 70
     1
102
RTVSPropertyOp48
 70
     1
102
RTVSPropertyOp49
 70
     1
102
RTVSPropertyOp50
 70
     1
102
RTVSPropertyOp51
 70
     0
102
RTVSPropertyOp52
 70
     0
102
RTVSPropertyOp53
 70
     1
102
RTVSPropertyOp54
 70
     1
102
RTVSPropertyOp55
 70
     1
102
RTVSPropertyOp56
 70
     1
102
RTVSPropertyOp57
 70
     1
102
RTVSPropertyOp58
 70
     1
102
RTVSPropertyOp59
 70
     1
102
RTVSPropertyOp60
 70
     1
102
RTVSPropertyOp61
 70
     1
102
RTVSPropertyOp62
 70
     1
  0
XRECORD
  5
F09C
102
{ACAD_REACTORS
330
F09B
102
}
330
F09B
100
AcDbXrecord
280
     1
102
RTVSPost2010Prop28
280
     0
102
RTVSPost2010PropOp28
 70
     1
102
RTVSPost2010Prop29
280
     1
102
RTVSPost2010PropOp29
 70
     1
102
RTVSPost2010Prop30
280
     1
102
RTVSPost2010PropOp30
 70
     1
102
RTVSPost2010Prop31
280
     0
102
RTVSPost2010PropOp31
 70
     1
102
RTVSPost2010Prop32
280
     0
102
RTVSPost2010PropOp32
 70
     1
102
RTVSPost2010Prop33
280
     0
102
RTVSPost2010PropOp33
 70
     1
102
RTVSPost2010Prop34
280
     0
102
RTVSPost2010PropOp34
 70
     1
102
RTVSPost2010Prop35
280
     0
102
RTVSPost2010PropOp35
 70
     1
102
RTVSPost2010Prop36
280
     0
102
RTVSPost2010PropOp36
 70
     1
102
RTVSPost2010Prop37
 90
       50
102
RTVSPost2010PropOp37
 70
     1
102
RTVSPost2010Prop38
140
0.0
102
RTVSPost2010PropOp38
 70
     1
102
RTVSPost2010Prop39
140
1.0
102
RTVSPost2010PropOp39
 70
     1
102
RTVSPost2010Prop40
 90
        0
102
RTVSPost2010PropOp40
 70
     1
102
RTVSPost2010Prop41ColorIndex
 90
       18
102
RTVSPost2010Prop41ColorRGB
 90
        0
102
RTVSPost2010PropOp41
 70
     1
102
RTVSPost2010Prop42
 90
       50
102
RTVSPost2010PropOp42
 70
     1
102
RTVSPost2010Prop43
 90
        3
102
RTVSPost2010PropOp43
 70
     1
102
RTVSPost2010Prop44ColorIndex
 90
        5
102
RTVSPost2010Prop44ColorRGB
 90
      255
102
RTVSPost2010PropOp44
 70
     1
102
RTVSPost2010Prop45
280
     0
102
RTVSPost2010PropOp45
 70
     1
102
RTVSPost2010Prop46
 90
       50
102
RTVSPost2010PropOp46
 70
     1
102
RTVSPost2010Prop47
 90
       50
102
RTVSPost2010PropOp47
 70
     1
102
RTVSPost2010Prop48
 90
       50
102
RTVSPost2010PropOp48
 70
     1
102
RTVSPost2010Prop49
280
     0
102
RTVSPost2010PropOp49
 70
     1
102
RTVSPost2010Prop50
 90
       50
102
RTVSPost2010PropOp50
 70
     1
102
RTVSPost2010Prop51ColorIndex
 90
      256
102
RTVSPost2010Prop51ColorRGB
 90
-16777216
102
RTVSPost2010PropOp51
 70
     0
102
RTVSPost2010Prop52
140
1.0
102
RTVSPost2010PropOp52
 70
     0
102
RTVSPost2010Prop53
 90
        2
102
RTVSPost2010PropOp53
 70
     1
102
RTVSPost2010Prop54
  1
strokes_ogs.tif
102
RTVSPost2010PropOp54
 70
     1
102
RTVSPost2010Prop55
280
     0
102
RTVSPost2010PropOp55
 70
     1
102
RTVSPost2010Prop56
140
1.0
102
RTVSPost2010PropOp56
 70
     1
102
RTVSPost2010Prop57
140
1.0
102
RTVSPost2010PropOp57
 70
     1
102
RTVSPropertyOp0
 70
     1
102
RTVSPropertyOp1
 70
     1
102
RTVSPropertyOp2
 70
     1
102
RTVSPropertyOp3
 70
     1
102
RTVSPropertyOp4
 70
     1
102
RTVSPropertyOp5
 70
     1
102
RTVSPropertyOp6
 70
     1
102
RTVSPropertyOp7
 70
     1
102
RTVSPropertyOp8
 70
     1
102
RTVSPropertyOp9
 70
     1
102
RTVSPropertyOp10
 70
     1
102
RTVSPropertyOp11
 70
     1
102
RTVSPropertyOp12
 70
     1
102
RTVSPropertyOp13
 70
     1
102
RTVSPropertyOp14
 70
     1
102
RTVSPropertyOp15
 70
     1
102
RTVSPropertyOp16
 70
     1
102
RTVSPropertyOp17
 70
     1
102
RTVSPropertyOp18
 70
     1
102
RTVSPropertyOp19
 70
     1
102
RTVSPropertyOp20
 70
     1
102
RTVSPropertyOp21
 70
     1
102
RTVSPropertyOp22
 70
     1
102
RTVSPropertyOp23
 70
     1
102
RTVSPropertyOp24
 70
     1
102
RTVSPropertyOp25
 70
     1
102
RTVSPropertyOp26
 70
     1
102
RTVSPropertyOp27
 70
     1
102
RTVSPropertyOp28
 70
     1
102
RTVSPropertyOp29
 70
     1
102
RTVSPropertyOp30
 70
     1
102
RTVSPropertyOp31
 70
     1
102
RTVSPropertyOp32
 70
     1
102
RTVSPropertyOp33
 70
     1
102
RTVSPropertyOp34
 70
     1
102
RTVSPropertyOp35
 70
     1
102
RTVSPropertyOp36
 70
     1
102
RTVSPropertyOp37
 70
     1
102
RTVSPropertyOp38
 70
     1
102
RTVSPropertyOp39
 70
     1
102
RTVSPropertyOp40
 70
     1
102
RTVSPropertyOp41
 70
     1
102
RTVSPropertyOp42
 70
     1
102
RTVSPropertyOp43
 70
     1
102
RTVSPropertyOp44
 70
     1
102
RTVSPropertyOp45
 70
     1
102
RTVSPropertyOp46
 70
     1
102
RTVSPropertyOp47
 70
     1
102
RTVSPropertyOp48
 70
     1
102
RTVSPropertyOp49
 70
     1
102
RTVSPropertyOp50
 70
     1
102
RTVSPropertyOp51
 70
     0
102
RTVSPropertyOp52
 70
     0
102
RTVSPropertyOp53
 70
     1
102
RTVSPropertyOp54
 70
     1
102
RTVSPropertyOp55
 70
     1
102
RTVSPropertyOp56
 70
     1
102
RTVSPropertyOp57
 70
     1
102
RTVSPropertyOp58
 70
     1
102
RTVSPropertyOp59
 70
     1
102
RTVSPropertyOp60
 70
     1
102
RTVSPropertyOp61
 70
     1
102
RTVSPropertyOp62
 70
     1
  0
XRECORD
  5
F08C
102
{ACAD_REACTORS
330
F08B
102
}
330
F08B
100
AcDbXrecord
280
     1
102
RTVSPost2010Prop28
280
     0
102
RTVSPost2010PropOp28
 70
     1
102
RTVSPost2010Prop29
280
     1
102
RTVSPost2010PropOp29
 70
     1
102
RTVSPost2010Prop30
280
     1
102
RTVSPost2010PropOp30
 70
     1
102
RTVSPost2010Prop31
280
     0
102
RTVSPost2010PropOp31
 70
     1
102
RTVSPost2010Prop32
280
     0
102
RTVSPost2010PropOp32
 70
     1
102
RTVSPost2010Prop33
280
     0
102
RTVSPost2010PropOp33
 70
     1
102
RTVSPost2010Prop34
280
     0
102
RTVSPost2010PropOp34
 70
     1
102
RTVSPost2010Prop35
280
     0
102
RTVSPost2010PropOp35
 70
     1
102
RTVSPost2010Prop36
280
     0
102
RTVSPost2010PropOp36
 70
     1
102
RTVSPost2010Prop37
 90
       50
102
RTVSPost2010PropOp37
 70
     1
102
RTVSPost2010Prop38
140
0.0
102
RTVSPost2010PropOp38
 70
     1
102
RTVSPost2010Prop39
140
1.0
102
RTVSPost2010PropOp39
 70
     1
102
RTVSPost2010Prop40
 90
        0
102
RTVSPost2010PropOp40
 70
     1
102
RTVSPost2010Prop41ColorIndex
 90
       18
102
RTVSPost2010Prop41ColorRGB
 90
        0
102
RTVSPost2010PropOp41
 70
     1
102
RTVSPost2010Prop42
 90
       50
102
RTVSPost2010PropOp42
 70
     1
102
RTVSPost2010Prop43
 90
        3
102
RTVSPost2010PropOp43
 70
     1
102
RTVSPost2010Prop44ColorIndex
 90
        5
102
RTVSPost2010Prop44ColorRGB
 90
      255
102
RTVSPost2010PropOp44
 70
     1
102
RTVSPost2010Prop45
280
     0
102
RTVSPost2010PropOp45
 70
     1
102
RTVSPost2010Prop46
 90
       50
102
RTVSPost2010PropOp46
 70
     1
102
RTVSPost2010Prop47
 90
       50
102
RTVSPost2010PropOp47
 70
     1
102
RTVSPost2010Prop48
 90
       50
102
RTVSPost2010PropOp48
 70
     1
102
RTVSPost2010Prop49
280
     0
102
RTVSPost2010PropOp49
 70
     1
102
RTVSPost2010Prop50
 90
       50
102
RTVSPost2010PropOp50
 70
     1
102
RTVSPost2010Prop51ColorIndex
 90
      256
102
RTVSPost2010Prop51ColorRGB
 90
-16777216
102
RTVSPost2010PropOp51
 70
     0
102
RTVSPost2010Prop52
140
1.0
102
RTVSPost2010PropOp52
 70
     0
102
RTVSPost2010Prop53
 90
        2
102
RTVSPost2010PropOp53
 70
     1
102
RTVSPost2010Prop54
  1
strokes_ogs.tif
102
RTVSPost2010PropOp54
 70
     1
102
RTVSPost2010Prop55
280
     0
102
RTVSPost2010PropOp55
 70
     1
102
RTVSPost2010Prop56
140
1.0
102
RTVSPost2010PropOp56
 70
     1
102
RTVSPost2010Prop57
140
1.0
102
RTVSPost2010PropOp57
 70
     1
102
RTVSPropertyOp0
 70
     1
102
RTVSPropertyOp1
 70
     1
102
RTVSPropertyOp2
 70
     1
102
RTVSPropertyOp3
 70
     1
102
RTVSPropertyOp4
 70
     1
102
RTVSPropertyOp5
 70
     1
102
RTVSPropertyOp6
 70
     1
102
RTVSPropertyOp7
 70
     1
102
RTVSPropertyOp8
 70
     1
102
RTVSPropertyOp9
 70
     1
102
RTVSPropertyOp10
 70
     1
102
RTVSPropertyOp11
 70
     1
102
RTVSPropertyOp12
 70
     1
102
RTVSPropertyOp13
 70
     1
102
RTVSPropertyOp14
 70
     1
102
RTVSPropertyOp15
 70
     1
102
RTVSPropertyOp16
 70
     1
102
RTVSPropertyOp17
 70
     1
102
RTVSPropertyOp18
 70
     1
102
RTVSPropertyOp19
 70
     1
102
RTVSPropertyOp20
 70
     1
102
RTVSPropertyOp21
 70
     1
102
RTVSPropertyOp22
 70
     1
102
RTVSPropertyOp23
 70
     1
102
RTVSPropertyOp24
 70
     1
102
RTVSPropertyOp25
 70
     1
102
RTVSPropertyOp26
 70
     1
102
RTVSPropertyOp27
 70
     1
102
RTVSPropertyOp28
 70
     1
102
RTVSPropertyOp29
 70
     1
102
RTVSPropertyOp30
 70
     1
102
RTVSPropertyOp31
 70
     1
102
RTVSPropertyOp32
 70
     1
102
RTVSPropertyOp33
 70
     1
102
RTVSPropertyOp34
 70
     1
102
RTVSPropertyOp35
 70
     1
102
RTVSPropertyOp36
 70
     1
102
RTVSPropertyOp37
 70
     1
102
RTVSPropertyOp38
 70
     1
102
RTVSPropertyOp39
 70
     1
102
RTVSPropertyOp40
 70
     1
102
RTVSPropertyOp41
 70
     1
102
RTVSPropertyOp42
 70
     1
102
RTVSPropertyOp43
 70
     1
102
RTVSPropertyOp44
 70
     1
102
RTVSPropertyOp45
 70
     1
102
RTVSPropertyOp46
 70
     1
102
RTVSPropertyOp47
 70
     1
102
RTVSPropertyOp48
 70
     1
102
RTVSPropertyOp49
 70
     1
102
RTVSPropertyOp50
 70
     1
102
RTVSPropertyOp51
 70
     0
102
RTVSPropertyOp52
 70
     0
102
RTVSPropertyOp53
 70
     1
102
RTVSPropertyOp54
 70
     1
102
RTVSPropertyOp55
 70
     1
102
RTVSPropertyOp56
 70
     1
102
RTVSPropertyOp57
 70
     1
102
RTVSPropertyOp58
 70
     1
102
RTVSPropertyOp59
 70
     1
102
RTVSPropertyOp60
 70
     1
102
RTVSPropertyOp61
 70
     1
102
RTVSPropertyOp62
 70
     1
  0
XRECORD
  5
F096
102
{ACAD_REACTORS
330
F095
102
}
330
F095
100
AcDbXrecord
280
     1
102
RTVSPost2010Prop28
280
     0
102
RTVSPost2010PropOp28
 70
     1
102
RTVSPost2010Prop29
280
     1
102
RTVSPost2010PropOp29
 70
     1
102
RTVSPost2010Prop30
280
     1
102
RTVSPost2010PropOp30
 70
     1
102
RTVSPost2010Prop31
280
     0
102
RTVSPost2010PropOp31
 70
     1
102
RTVSPost2010Prop32
280
     0
102
RTVSPost2010PropOp32
 70
     1
102
RTVSPost2010Prop33
280
     0
102
RTVSPost2010PropOp33
 70
     1
102
RTVSPost2010Prop34
280
     0
102
RTVSPost2010PropOp34
 70
     1
102
RTVSPost2010Prop35
280
     0
102
RTVSPost2010PropOp35
 70
     1
102
RTVSPost2010Prop36
280
     0
102
RTVSPost2010PropOp36
 70
     1
102
RTVSPost2010Prop37
 90
       50
102
RTVSPost2010PropOp37
 70
     1
102
RTVSPost2010Prop38
140
0.0
102
RTVSPost2010PropOp38
 70
     1
102
RTVSPost2010Prop39
140
1.0
102
RTVSPost2010PropOp39
 70
     1
102
RTVSPost2010Prop40
 90
        0
102
RTVSPost2010PropOp40
 70
     1
102
RTVSPost2010Prop41ColorIndex
 90
       18
102
RTVSPost2010Prop41ColorRGB
 90
        0
102
RTVSPost2010PropOp41
 70
     1
102
RTVSPost2010Prop42
 90
       50
102
RTVSPost2010PropOp42
 70
     1
102
RTVSPost2010Prop43
 90
        3
102
RTVSPost2010PropOp43
 70
     1
102
RTVSPost2010Prop44ColorIndex
 90
        5
102
RTVSPost2010Prop44ColorRGB
 90
      255
102
RTVSPost2010PropOp44
 70
     1
102
RTVSPost2010Prop45
280
     0
102
RTVSPost2010PropOp45
 70
     1
102
RTVSPost2010Prop46
 90
       50
102
RTVSPost2010PropOp46
 70
     1
102
RTVSPost2010Prop47
 90
       50
102
RTVSPost2010PropOp47
 70
     1
102
RTVSPost2010Prop48
 90
       50
102
RTVSPost2010PropOp48
 70
     1
102
RTVSPost2010Prop49
280
     0
102
RTVSPost2010PropOp49
 70
     1
102
RTVSPost2010Prop50
 90
       50
102
RTVSPost2010PropOp50
 70
     1
102
RTVSPost2010Prop51ColorIndex
 90
      256
102
RTVSPost2010Prop51ColorRGB
 90
-16777216
102
RTVSPost2010PropOp51
 70
     0
102
RTVSPost2010Prop52
140
1.0
102
RTVSPost2010PropOp52
 70
     0
102
RTVSPost2010Prop53
 90
        2
102
RTVSPost2010PropOp53
 70
     1
102
RTVSPost2010Prop54
  1
strokes_ogs.tif
102
RTVSPost2010PropOp54
 70
     1
102
RTVSPost2010Prop55
280
     0
102
RTVSPost2010PropOp55
 70
     1
102
RTVSPost2010Prop56
140
1.0
102
RTVSPost2010PropOp56
 70
     1
102
RTVSPost2010Prop57
140
1.0
102
RTVSPost2010PropOp57
 70
     1
102
RTVSPropertyOp0
 70
     1
102
RTVSPropertyOp1
 70
     1
102
RTVSPropertyOp2
 70
     1
102
RTVSPropertyOp3
 70
     1
102
RTVSPropertyOp4
 70
     1
102
RTVSPropertyOp5
 70
     1
102
RTVSPropertyOp6
 70
     1
102
RTVSPropertyOp7
 70
     1
102
RTVSPropertyOp8
 70
     1
102
RTVSPropertyOp9
 70
     1
102
RTVSPropertyOp10
 70
     1
102
RTVSPropertyOp11
 70
     1
102
RTVSPropertyOp12
 70
     1
102
RTVSPropertyOp13
 70
     1
102
RTVSPropertyOp14
 70
     1
102
RTVSPropertyOp15
 70
     1
102
RTVSPropertyOp16
 70
     1
102
RTVSPropertyOp17
 70
     1
102
RTVSPropertyOp18
 70
     1
102
RTVSPropertyOp19
 70
     1
102
RTVSPropertyOp20
 70
     1
102
RTVSPropertyOp21
 70
     1
102
RTVSPropertyOp22
 70
     1
102
RTVSPropertyOp23
 70
     1
102
RTVSPropertyOp24
 70
     1
102
RTVSPropertyOp25
 70
     1
102
RTVSPropertyOp26
 70
     1
102
RTVSPropertyOp27
 70
     1
102
RTVSPropertyOp28
 70
     1
102
RTVSPropertyOp29
 70
     1
102
RTVSPropertyOp30
 70
     1
102
RTVSPropertyOp31
 70
     1
102
RTVSPropertyOp32
 70
     1
102
RTVSPropertyOp33
 70
     1
102
RTVSPropertyOp34
 70
     1
102
RTVSPropertyOp35
 70
     1
102
RTVSPropertyOp36
 70
     1
102
RTVSPropertyOp37
 70
     1
102
RTVSPropertyOp38
 70
     1
102
RTVSPropertyOp39
 70
     1
102
RTVSPropertyOp40
 70
     1
102
RTVSPropertyOp41
 70
     1
102
RTVSPropertyOp42
 70
     1
102
RTVSPropertyOp43
 70
     1
102
RTVSPropertyOp44
 70
     1
102
RTVSPropertyOp45
 70
     1
102
RTVSPropertyOp46
 70
     1
102
RTVSPropertyOp47
 70
     1
102
RTVSPropertyOp48
 70
     1
102
RTVSPropertyOp49
 70
     1
102
RTVSPropertyOp50
 70
     1
102
RTVSPropertyOp51
 70
     0
102
RTVSPropertyOp52
 70
     0
102
RTVSPropertyOp53
 70
     1
102
RTVSPropertyOp54
 70
     1
102
RTVSPropertyOp55
 70
     1
102
RTVSPropertyOp56
 70
     1
102
RTVSPropertyOp57
 70
     1
102
RTVSPropertyOp58
 70
     1
102
RTVSPropertyOp59
 70
     1
102
RTVSPropertyOp60
 70
     1
102
RTVSPropertyOp61
 70
     1
102
RTVSPropertyOp62
 70
     1
  0
XRECORD
  5
F09E
102
{ACAD_REACTORS
330
F09D
102
}
330
F09D
100
AcDbXrecord
280
     1
102
RTVSPost2010Prop28
280
     0
102
RTVSPost2010PropOp28
 70
     1
102
RTVSPost2010Prop29
280
     1
102
RTVSPost2010PropOp29
 70
     1
102
RTVSPost2010Prop30
280
     1
102
RTVSPost2010PropOp30
 70
     1
102
RTVSPost2010Prop31
280
     0
102
RTVSPost2010PropOp31
 70
     1
102
RTVSPost2010Prop32
280
     0
102
RTVSPost2010PropOp32
 70
     1
102
RTVSPost2010Prop33
280
     0
102
RTVSPost2010PropOp33
 70
     1
102
RTVSPost2010Prop34
280
     0
102
RTVSPost2010PropOp34
 70
     1
102
RTVSPost2010Prop35
280
     0
102
RTVSPost2010PropOp35
 70
     1
102
RTVSPost2010Prop36
280
     0
102
RTVSPost2010PropOp36
 70
     1
102
RTVSPost2010Prop37
 90
       50
102
RTVSPost2010PropOp37
 70
     1
102
RTVSPost2010Prop38
140
0.0
102
RTVSPost2010PropOp38
 70
     1
102
RTVSPost2010Prop39
140
1.0
102
RTVSPost2010PropOp39
 70
     1
102
RTVSPost2010Prop40
 90
        0
102
RTVSPost2010PropOp40
 70
     1
102
RTVSPost2010Prop41ColorIndex
 90
       18
102
RTVSPost2010Prop41ColorRGB
 90
        0
102
RTVSPost2010PropOp41
 70
     1
102
RTVSPost2010Prop42
 90
       50
102
RTVSPost2010PropOp42
 70
     1
102
RTVSPost2010Prop43
 90
        3
102
RTVSPost2010PropOp43
 70
     1
102
RTVSPost2010Prop44ColorIndex
 90
        5
102
RTVSPost2010Prop44ColorRGB
 90
      255
102
RTVSPost2010PropOp44
 70
     1
102
RTVSPost2010Prop45
280
     0
102
RTVSPost2010PropOp45
 70
     1
102
RTVSPost2010Prop46
 90
       50
102
RTVSPost2010PropOp46
 70
     1
102
RTVSPost2010Prop47
 90
       50
102
RTVSPost2010PropOp47
 70
     1
102
RTVSPost2010Prop48
 90
       50
102
RTVSPost2010PropOp48
 70
     1
102
RTVSPost2010Prop49
280
     0
102
RTVSPost2010PropOp49
 70
     1
102
RTVSPost2010Prop50
 90
       50
102
RTVSPost2010PropOp50
 70
     1
102
RTVSPost2010Prop51ColorIndex
 90
      256
102
RTVSPost2010Prop51ColorRGB
 90
-16777216
102
RTVSPost2010PropOp51
 70
     0
102
RTVSPost2010Prop52
140
1.0
102
RTVSPost2010PropOp52
 70
     0
102
RTVSPost2010Prop53
 90
        2
102
RTVSPost2010PropOp53
 70
     1
102
RTVSPost2010Prop54
  1
strokes_ogs.tif
102
RTVSPost2010PropOp54
 70
     1
102
RTVSPost2010Prop55
280
     0
102
RTVSPost2010PropOp55
 70
     1
102
RTVSPost2010Prop56
140
1.0
102
RTVSPost2010PropOp56
 70
     1
102
RTVSPost2010Prop57
140
1.0
102
RTVSPost2010PropOp57
 70
     1
102
RTVSPropertyOp0
 70
     1
102
RTVSPropertyOp1
 70
     1
102
RTVSPropertyOp2
 70
     1
102
RTVSPropertyOp3
 70
     1
102
RTVSPropertyOp4
 70
     1
102
RTVSPropertyOp5
 70
     1
102
RTVSPropertyOp6
 70
     1
102
RTVSPropertyOp7
 70
     1
102
RTVSPropertyOp8
 70
     1
102
RTVSPropertyOp9
 70
     1
102
RTVSPropertyOp10
 70
     1
102
RTVSPropertyOp11
 70
     1
102
RTVSPropertyOp12
 70
     1
102
RTVSPropertyOp13
 70
     1
102
RTVSPropertyOp14
 70
     1
102
RTVSPropertyOp15
 70
     1
102
RTVSPropertyOp16
 70
     1
102
RTVSPropertyOp17
 70
     1
102
RTVSPropertyOp18
 70
     1
102
RTVSPropertyOp19
 70
     1
102
RTVSPropertyOp20
 70
     1
102
RTVSPropertyOp21
 70
     1
102
RTVSPropertyOp22
 70
     1
102
RTVSPropertyOp23
 70
     1
102
RTVSPropertyOp24
 70
     1
102
RTVSPropertyOp25
 70
     1
102
RTVSPropertyOp26
 70
     1
102
RTVSPropertyOp27
 70
     1
102
RTVSPropertyOp28
 70
     1
102
RTVSPropertyOp29
 70
     1
102
RTVSPropertyOp30
 70
     1
102
RTVSPropertyOp31
 70
     1
102
RTVSPropertyOp32
 70
     1
102
RTVSPropertyOp33
 70
     1
102
RTVSPropertyOp34
 70
     1
102
RTVSPropertyOp35
 70
     1
102
RTVSPropertyOp36
 70
     1
102
RTVSPropertyOp37
 70
     1
102
RTVSPropertyOp38
 70
     1
102
RTVSPropertyOp39
 70
     1
102
RTVSPropertyOp40
 70
     1
102
RTVSPropertyOp41
 70
     1
102
RTVSPropertyOp42
 70
     1
102
RTVSPropertyOp43
 70
     1
102
RTVSPropertyOp44
 70
     1
102
RTVSPropertyOp45
 70
     1
102
RTVSPropertyOp46
 70
     1
102
RTVSPropertyOp47
 70
     1
102
RTVSPropertyOp48
 70
     1
102
RTVSPropertyOp49
 70
     1
102
RTVSPropertyOp50
 70
     1
102
RTVSPropertyOp51
 70
     0
102
RTVSPropertyOp52
 70
     0
102
RTVSPropertyOp53
 70
     1
102
RTVSPropertyOp54
 70
     1
102
RTVSPropertyOp55
 70
     1
102
RTVSPropertyOp56
 70
     1
102
RTVSPropertyOp57
 70
     1
102
RTVSPropertyOp58
 70
     1
102
RTVSPropertyOp59
 70
     1
102
RTVSPropertyOp60
 70
     1
102
RTVSPropertyOp61
 70
     1
102
RTVSPropertyOp62
 70
     1
  0
ENDSEC
  0
EOF
