  0
SECTION
  2
HEADER
  9
$ACADVER
  1
AC1015
  9
$ACADMAINTVER
 70
    20
  9
$DWGCODEPAGE
  3
ANSI_932
  9
$INSBASE
 10
0.0
 20
0.0
 30
0.0
  9
$EXTMIN
 10
-216.7869216595174
 20
205.7484891567942
 30
0.0
  9
$EXTMAX
 10
220.8103853689506
 20
408.5711445381079
 30
0.0
  9
$LIMMIN
 10
-704.2769679020084
 20
0.0
  9
$LIMMAX
 10
725.8302334741317
 20
738.6854191000034
  9
$ORTHOMODE
 70
     1
  9
$REGENMODE
 70
     1
  9
$FILLMODE
 70
     1
  9
$QTEXTMODE
 70
     0
  9
$MIRRTEXT
 70
     0
  9
$LTSCALE
 40
1.0
  9
$ATTMODE
 70
     1
  9
$TEXTSIZE
 40
3.5
  9
$TRACEWID
 40
1.0
  9
$TEXTSTYLE
  7
STANDARD
  9
$CLAYER
  8
0
  9
$CELTYPE
  6
BYLAYER
  9
$CECOLOR
 62
   256
  9
$CELTSCALE
 40
1.0
  9
$DISPSILH
 70
     0
  9
$DIMSCALE
 40
1.0
  9
$DIMASZ
 40
2.5
  9
$DIMEXO
 40
0.0
  9
$DIMDLI
 40
10.0
  9
$DIMRND
 40
0.0
  9
$DIMDLE
 40
0.0
  9
$DIMEXE
 40
2.0
  9
$DIMTP
 40
0.0
  9
$DIMTM
 40
0.000000001
  9
$DIMTXT
 40
3.5
  9
$DIMCEN
 40
-2.0
  9
$DIMTSZ
 40
0.0
  9
$DIMTOL
 70
     0
  9
$DIMLIM
 70
     0
  9
$DIMTIH
 70
     0
  9
$DIMTOH
 70
     0
  9
$DIMSE1
 70
     0
  9
$DIMSE2
 70
     0
  9
$DIMTAD
 70
     1
  9
$DIMZIN
 70
     8
  9
$DIMBLK
  1
Open
  9
$DIMASO
 70
     1
  9
$DIMSHO
 70
     1
  9
$DIMPOST
  1

  9
$DIMAPOST
  1

  9
$DIMALT
 70
     0
  9
$DIMALTD
 70
     2
  9
$DIMALTF
 40
25.4
  9
$DIMLFAC
 40
1.0
  9
$DIMTOFL
 70
     1
  9
$DIMTVP
 40
0.0
  9
$DIMTIX
 70
     0
  9
$DIMSOXD
 70
     0
  9
$DIMSAH
 70
     0
  9
$DIMBLK1
  1

  9
$DIMBLK2
  1

  9
$DIMSTYLE
  2
AM_ISO
  9
$DIMCLRD
 70
     3
  9
$DIMCLRE
 70
     3
  9
$DIMCLRT
 70
     2
  9
$DIMTFAC
 40
0.75
  9
$DIMGAP
 40
1.5
  9
$DIMJUST
 70
     0
  9
$DIMSD1
 70
     0
  9
$DIMSD2
 70
     0
  9
$DIMTOLJ
 70
     1
  9
$DIMTZIN
 70
     8
  9
$DIMALTZ
 70
     8
  9
$DIMALTTZ
 70
     0
  9
$DIMUPT
 70
     0
  9
$DIMDEC
 70
     2
  9
$DIMTDEC
 70
     2
  9
$DIMALTU
 70
     2
  9
$DIMALTTD
 70
     2
  9
$DIMTXSTY
  7
STANDARD
  9
$DIMAUNIT
 70
     0
  9
$DIMADEC
 70
     0
  9
$DIMALTRND
 40
0.0
  9
$DIMAZIN
 70
     0
  9
$DIMDSEP
 70
    46
  9
$DIMATFIT
 70
     3
  9
$DIMFRAC
 70
     0
  9
$DIMLDRBLK
  1
Open
  9
$DIMLUNIT
 70
     2
  9
$DIMLWD
 70
    -1
  9
$DIMLWE
 70
    -1
  9
$DIMTMOVE
 70
     0
  9
$LUNITS
 70
     2
  9
$LUPREC
 70
     4
  9
$SKETCHINC
 40
1.0
  9
$FILLETRAD
 40
0.0
  9
$AUNITS
 70
     0
  9
$AUPREC
 70
     0
  9
$MENU
  1
acad
  9
$ELEVATION
 40
0.0
  9
$PELEVATION
 40
0.0
  9
$THICKNESS
 40
0.0
  9
$LIMCHECK
 70
     0
  9
$CHAMFERA
 40
0.5
  9
$CHAMFERB
 40
0.5
  9
$CHAMFERC
 40
1.5
  9
$CHAMFERD
 40
0.3490658503988659
  9
$SKPOLY
 70
     0
  9
$TDCREATE
 40
2456785.473376019
  9
$TDUCREATE
 40
2456785.098376019
  9
$TDUPDATE
 40
2456793.498910972
  9
$TDUUPDATE
 40
2456793.123910973
  9
$TDINDWG
 40
0.1034509606
  9
$TDUSRTIMER
 40
0.1034509606
  9
$USRTIMER
 70
     1
  9
$ANGBASE
 50
0.0
  9
$ANGDIR
 70
     0
  9
$PDMODE
 70
     0
  9
$PDSIZE
 40
0.0
  9
$PLINEWID
 40
0.0
  9
$SPLFRAME
 70
     0
  9
$SPLINETYPE
 70
     6
  9
$SPLINESEGS
 70
     8
  9
$HANDSEED
  5
F17D
  9
$SURFTAB1
 70
     6
  9
$SURFTAB2
 70
     6
  9
$SURFTYPE
 70
     6
  9
$SURFU
 70
     6
  9
$SURFV
 70
     6
  9
$UCSBASE
  2

  9
$UCSNAME
  2

  9
$UCSORG
 10
0.0
 20
0.0
 30
0.0
  9
$UCSXDIR
 10
1.0
 20
0.0
 30
0.0
  9
$UCSYDIR
 10
0.0
 20
1.0
 30
0.0
  9
$UCSORTHOREF
  2

  9
$UCSORTHOVIEW
 70
     0
  9
$UCSORGTOP
 10
0.0
 20
0.0
 30
0.0
  9
$UCSORGBOTTOM
 10
0.0
 20
0.0
 30
0.0
  9
$UCSORGLEFT
 10
0.0
 20
0.0
 30
0.0
  9
$UCSORGRIGHT
 10
0.0
 20
0.0
 30
0.0
  9
$UCSORGFRONT
 10
0.0
 20
0.0
 30
0.0
  9
$UCSORGBACK
 10
0.0
 20
0.0
 30
0.0
  9
$PUCSBASE
  2

  9
$PUCSNAME
  2

  9
$PUCSORG
 10
0.0
 20
0.0
 30
0.0
  9
$PUCSXDIR
 10
1.0
 20
0.0
 30
0.0
  9
$PUCSYDIR
 10
0.0
 20
1.0
 30
0.0
  9
$PUCSORTHOREF
  2

  9
$PUCSORTHOVIEW
 70
     0
  9
$PUCSORGTOP
 10
0.0
 20
0.0
 30
0.0
  9
$PUCSORGBOTTOM
 10
0.0
 20
0.0
 30
0.0
  9
$PUCSORGLEFT
 10
0.0
 20
0.0
 30
0.0
  9
$PUCSORGRIGHT
 10
0.0
 20
0.0
 30
0.0
  9
$PUCSORGFRONT
 10
0.0
 20
0.0
 30
0.0
  9
$PUCSORGBACK
 10
0.0
 20
0.0
 30
0.0
  9
$USERI1
 70
     0
  9
$USERI2
 70
     0
  9
$USERI3
 70
     0
  9
$USERI4
 70
     0
  9
$USERI5
 70
     0
  9
$USERR1
 40
0.0
  9
$USERR2
 40
0.0
  9
$USERR3
 40
0.0
  9
$USERR4
 40
0.0
  9
$USERR5
 40
0.0
  9
$WORLDVIEW
 70
     1
  9
$SHADEDGE
 70
     3
  9
$SHADEDIF
 70
    70
  9
$TILEMODE
 70
     1
  9
$MAXACTVP
 70
    16
  9
$PINSBASE
 10
0.0
 20
0.0
 30
0.0
  9
$PLIMCHECK
 70
     0
  9
$PEXTMIN
 10
1.000000000000000E+20
 20
1.000000000000000E+20
 30
1.000000000000000E+20
  9
$PEXTMAX
 10
-1.000000000000000E+20
 20
-1.000000000000000E+20
 30
-1.000000000000000E+20
  9
$PLIMMIN
 10
0.0
 20
0.0
  9
$PLIMMAX
 10
420.0
 20
297.0
  9
$UNITMODE
 70
     0
  9
$VISRETAIN
 70
     0
  9
$PLINEGEN
 70
     0
  9
$PSLTSCALE
 70
     1
  9
$TREEDEPTH
 70
  3020
  9
$CMLSTYLE
  2
STANDARD
  9
$CMLJUST
 70
     0
  9
$CMLSCALE
 40
1.0
  9
$PROXYGRAPHICS
 70
     1
  9
$MEASUREMENT
 70
     1
  9
$CELWEIGHT
370
    -1
  9
$ENDCAPS
280
     0
  9
$JOINSTYLE
280
     0
  9
$LWDISPLAY
290
     0
  9
$INSUNITS
 70
     0
  9
$HYPERLINKBASE
  1

  9
$STYLESHEET
  1
mysample.ctb
  9
$XEDIT
290
     1
  9
$CEPSNTYPE
380
     0
  9
$PSTYLEMODE
290
     1
  9
$FINGERPRINTGUID
  2
{D3D77D6D-27E0-4C2A-8081-B6C2988A2408}
  9
$VERSIONGUID
  2
{67B3E4A2-659C-4B26-99EE-DB4BC9B17E97}
  9
$EXTNAMES
290
     1
  9
$PSVPSCALE
 40
0.0
  9
$OLESTARTUP
290
     0
  0
ENDSEC
  0
SECTION
  2
CLASSES
  0
CLASS
  1
ACDBDICTIONARYWDFLT
  2
AcDbDictionaryWithDefault
  3
ObjectDBX Classes
 90
        0
280
     0
281
     0
  0
CLASS
  1
ACDBPLACEHOLDER
  2
AcDbPlaceHolder
  3
ObjectDBX Classes
 90
        0
280
     0
281
     0
  0
CLASS
  1
LAYOUT
  2
AcDbLayout
  3
ObjectDBX Classes
 90
        0
280
     0
281
     0
  0
CLASS
  1
TABLESTYLE
  2
AcDbTableStyle
  3
ObjectDBX Classes
 90
     4095
280
     0
281
     0
  0
CLASS
  1
ACME_DOCUMENT
  2
AcMeDbDoc
  3
AcMeServices
 90
     1024
280
     0
281
     0
  0
CLASS
  1
AMGSETTINGSOBJ
  2
AmgSettingsObj
  3
"AcadM|Product Description: AutoCAD Mechanical|Company: Autodesk, Inc."
 90
     1024
280
     0
281
     0
  0
CLASS
  1
ACMESCOPE
  2
AcMeScope
  3
AcMeServices
 90
     1024
280
     0
281
     0
  0
CLASS
  1
ACMECOMMANDHISTORY
  2
AcMeCommandHistory
  3
AcMeServices
 90
     1024
280
     0
281
     0
  0
CLASS
  1
ACIMSYSVARMAN
  2
AcImSysVarManager
  3
AcMeServices
 90
     1024
280
     0
281
     0
  0
CLASS
  1
ACIMINTSYSVAR
  2
AcImIntSysVar
  3
AcMeServices
 90
     1024
280
     0
281
     0
  0
CLASS
  1
ACMEDRAWINGMAN
  2
AcMeDrawingMan
  3
AcMeServices
 90
    33792
280
     0
281
     0
  0
CLASS
  1
ACMEVIEW
  2
AcMeView
  3
AcMeServices
 90
    33792
280
     0
281
     0
  0
CLASS
  1
ACDBENTITYCACHE
  2
AcMeEntityCache
  3
AcMeServices
 90
     1024
280
     0
281
     0
  0
CLASS
  1
GSMANAGER
  2
AcMeGSManager
  3
AcMeServices
 90
    33792
280
     0
281
     0
  0
CLASS
  1
AMDTINTERNALREACTOR
  2
AmdtInternalReactor
  3
AcMeServices
 90
    33792
280
     0
281
     0
  0
CLASS
  1
ACMESTATEMGR
  2
AcMeStateMgr
  3
AcMeServices
 90
     1024
280
     0
281
     0
  0
CLASS
  1
ACGREFMASTER
  2
AcGrefMaster
  3
AcAttribServices
 90
     1024
280
     0
281
     0
  0
CLASS
  1
AM_DRAWING_MGR
  2
AcDmDwgMgr
  3
AcMechDwgViewMgmt
 90
    33792
280
     0
281
     0
  0
CLASS
  1
AM_DWG_DOCUMENT
  2
AcDmDwgDocument
  3
AcMechDwgViewMgmt
 90
    33792
280
     0
281
     0
  0
CLASS
  1
AM_DWG_SHEET
  2
AcDmSheet
  3
AcMechDwgViewMgmt
 90
    33792
280
     0
281
     0
  0
CLASS
  1
AM_VIEWDIMPARMAP
  2
AcDmViewDimParMap
  3
AcMechDwgViewMgmt
 90
    33792
280
     0
281
     0
  0
CLASS
  1
ACIMREALSYSVAR
  2
AcImRealSysVar
  3
AcMeServices
 90
     1024
280
     0
281
     0
  0
CLASS
  1
AM_DWGMGR_NAME
  2
AcDmDwgMgrName
  3
AcMechDwgViewMgmt
 90
    33792
280
     0
281
     0
  0
CLASS
  1
ACME_DATABASE
  2
AcMeDbDatabase
  3
AcMeServices
 90
     1024
280
     0
281
     0
  0
CLASS
  1
ACRFINSADJUSTERMGR
  2
AcRfInsAdjusterMgr
  3
AcMeServices
 90
     1024
280
     0
281
     0
  0
CLASS
  1
ACGREFACADMASTER
  2
AcGrefacadMaster
  3
AcGrefServices
 90
     1024
280
     0
281
     0
  0
CLASS
  1
AMDTMENUSTATEMGR
  2
AmdtMenuStateMgr
  3
McadcomServices
 90
     1024
280
     0
281
     0
  0
CLASS
  1
AMDTMCOMMENUSTATE
  2
AmdtMcomMenuState
  3
McadcomServices
 90
     1024
280
     0
281
     0
  0
CLASS
  1
AMIMASTER
  2
AmiMaster
  3
AmiServices
 90
     1024
280
     0
281
     0
  0
CLASS
  1
MAPIAMMOUDLE
  2
MApiAmModule
  3
MApiAmServices
 90
     1024
280
     0
281
     0
  0
CLASS
  1
ACIMSTRSYSVAR
  2
AcImStrSysVar
  3
AcMeServices
 90
     1024
280
     0
281
     0
  0
CLASS
  1
AMDTADMENUSTATE
  2
AmdtAdMenuState
  3
DesignerServices
 90
    33792
280
     0
281
     0
  0
CLASS
  1
ADAPPL
  2
AcAdAppl
  3
DesignerAssemblies
 90
    33792
280
     0
281
     0
  0
CLASS
  1
DEPMGR
  2
AcAdDepMgr
  3
DesignerAssemblies
 90
    33792
280
     0
281
     0
  0
CLASS
  1
PARAMMGR
  2
AcAdParamMgr
  3
DesignerAssemblies
 90
    33792
280
     0
281
     0
  0
CLASS
  1
PARAMSCOPE
  2
AcAdParamScope
  3
DesignerAssemblies
 90
    33792
280
     0
281
     0
  0
CLASS
  1
NAMEDAPPL
  2
AcAdNamedAppl
  3
DesignerAssemblies
 90
    33792
280
     0
281
     0
  0
CLASS
  1
AMDTDMMENUSTATE
  2
AmdtDmMenuState
  3
AcMechDwgViewMgmt
 90
    33792
280
     0
281
     0
  0
CLASS
  1
AMDTAMMENUSTATE
  2
AmdtAmMenuState
  3
DesignerAssemblies
 90
     1024
280
     0
281
     0
  0
CLASS
  1
ACAMPROJECT
  2
AcAmProject
  3
DesignerAssemblies
 90
     1024
280
     0
281
     0
  0
CLASS
  1
ACAMGRCOMPDEF
  2
AcAmGrCompDef
  3
DesignerAssemblies
 90
     1024
280
     0
281
     0
  0
CLASS
  1
ACCMCONTEXT
  2
AcCmContext
  3
DesignerAssemblies
 90
     1024
280
     0
281
     0
  0
CLASS
  1
ACAMCOMPDEF
  2
AcAmCompDef
  3
DesignerAssemblies
 90
     1024
280
     0
281
     0
  0
CLASS
  1
ACAMCOMPDEFMGR
  2
AcAmCompDefMgr
  3
DesignerAssemblies
 90
     1024
280
     0
281
     0
  0
CLASS
  1
AMCONTEXTMGR
  2
AcAmContextMgr
  3
DesignerAssemblies
 90
     1024
280
     0
281
     0
  0
CLASS
  1
ACAMCONTEXTMODELER
  2
AcAmContextModeler
  3
DesignerAssemblies
 90
     1024
280
     0
281
     0
  0
CLASS
  1
ACMDATADICTIONARY
  2
AcmDataDictionary
  3
"AcmSymBB|Product Description: AutoCAD Mechanical|Company: Autodesk, Inc."
 90
     1024
280
     0
281
     0
  0
CLASS
  1
CATALOGSTATE
  2
AcAmCatalogState
  3
DesignerAssemblies
 90
    33792
280
     0
281
     0
  0
CLASS
  1
ACAMGRCOMPDEFSET
  2
AcAmGrCompDefSet
  3
DesignerAssemblies
 90
     1024
280
     0
281
     0
  0
CLASS
  1
AMDTBROWSERDBTAB
  2
AmdtBrowserDbTab
  3
McadcomServices
 90
     1024
280
     0
281
     0
  0
CLASS
  1
CBROWSERAPPOBJECT
  2
CBrowserAppObject
  3
McadcomServices
 90
     1024
280
     0
281
     0
  0
CLASS
  1
DM_PLACEHOLDER
  2
AcDmSelsetPlaceholder
  3
McadcomServices
 90
     1024
280
     0
281
     0
  0
CLASS
  1
ACMSTANDARDISO
  2
AcmStandardISO
  3
"Amdt_StdImp|Product Description: AutoCAD Mechanical|Company: Autodesk, Inc."
 90
     1024
280
     0
281
     0
  0
CLASS
  1
AMGOBJPROPCFG
  2
AmgObjPropCfg
  3
"AmgLay|Product Description: AutoCAD Mechanical|Company: Autodesk, Inc."
 90
     1024
280
     0
281
     0
  0
CLASS
  1
AMDTEDGESTANDARDISO13715
  2
AmdtEdgeStdISO13715
  3
"Amdt_StdImp|Product Description: AutoCAD Mechanical|Company: Autodesk, Inc."
 90
     1024
280
     0
281
     0
  0
CLASS
  1
ACMSURFSTANDARDISO
  2
AcmSurfTextStdISO
  3
"Amdt_StdImp|Product Description: AutoCAD Mechanical|Company: Autodesk, Inc."
 90
     1024
280
     0
281
     0
  0
CLASS
  1
ACMFCFSTANDARDISO
  2
AcmFCFStdISO
  3
"Amdt_StdImp|Product Description: AutoCAD Mechanical|Company: Autodesk, Inc."
 90
     1024
280
     0
281
     0
  0
CLASS
  1
ACMWELDSTANDARDISO
  2
AcmWeldingStdISO
  3
"Amdt_StdImp|Product Description: AutoCAD Mechanical|Company: Autodesk, Inc."
 90
     1024
280
     0
281
     0
  0
CLASS
  1
ACMIDSTANDARDISO
  2
AcmIdStdISO
  3
"Amdt_StdImp|Product Description: AutoCAD Mechanical|Company: Autodesk, Inc."
 90
     1024
280
     0
281
     0
  0
CLASS
  1
ACMDATUMSTANDARDISO
  2
AcmDatumStdISO
  3
"Amdt_StdImp|Product Description: AutoCAD Mechanical|Company: Autodesk, Inc."
 90
     1024
280
     0
281
     0
  0
CLASS
  1
ACMBOMSTANDARDISO
  2
AcmBOMStdISO
  3
"Amdt_StdImp|Product Description: AutoCAD Mechanical|Company: Autodesk, Inc."
 90
     1024
280
     0
281
     0
  0
CLASS
  1
ACMDETAILSTANDARDISO
  2
AmdtDetailSymStdISO
  3
"Amdt_StdImp|Product Description: AutoCAD Mechanical|Company: Autodesk, Inc."
 90
     1024
280
     0
281
     0
  0
CLASS
  1
ACMSECTIONSTANDARDISO
  2
AmdtSectionSymStdISO
  3
"Amdt_StdImp|Product Description: AutoCAD Mechanical|Company: Autodesk, Inc."
 90
     1024
280
     0
281
     0
  0
CLASS
  1
ACMCENTERLINESTANDARDISO
  2
AmdtCenterLineStdISO
  3
"Amdt_StdImp|Product Description: AutoCAD Mechanical|Company: Autodesk, Inc."
 90
     1024
280
     0
281
     0
  0
CLASS
  1
ACMTHREADLINESTANDARDISO
  2
AmdtThreadLineStdISO
  3
"Amdt_StdImp|Product Description: AutoCAD Mechanical|Company: Autodesk, Inc."
 90
     1024
280
     0
281
     0
  0
CLASS
  1
ACMNOTESTANDARDISO
  2
AmdtNoteStdISO
  3
"Amdt_StdImp|Product Description: AutoCAD Mechanical|Company: Autodesk, Inc."
 90
     1024
280
     0
281
     0
  0
CLASS
  1
AMDTNOTETEMPLATEDB
  2
AmdtNoteTemplateDB
  3
AcmSymBB|Product Description: AutoCAD Mechanical|Company: Autodesk, Inc.
 90
     1024
280
     0
281
     0
  0
CLASS
  1
ACAMGLAYSTD
  2
AcAmgLayStd
  3
"AmgLay|Product Description: AutoCAD Mechanical|Company: Autodesk, Inc."
 90
     1024
280
     0
281
     0
  0
CLASS
  1
ACAMGDIMSTD
  2
AcAmgDimStd
  3
"AmgDim|Product Description: AutoCAD Mechanical|Company: Autodesk, Inc."
 90
     1024
280
     0
281
     0
  0
CLASS
  1
ACAMGHOLECHARTSTDISO
  2
AcAmgHoleChartStdISO
  3
AmgDim|Product Description: AutoCAD Mechanical|Company: Autodesk, Inc.
 90
     1024
280
     0
281
     0
  0
CLASS
  1
ACAMGTITLESTD
  2
AcAmgTitleStd
  3
"AmgTitle|Product Description: AutoCAD Mechanical|Company: Autodesk, Inc."
 90
     1024
280
     0
281
     0
  0
CLASS
  1
ACAMGFILTERDAT
  2
AcAmgFilterDat
  3
"AcadM|Product Description: AutoCAD Mechanical|Company: Autodesk, Inc."
 90
     1024
280
     0
281
     0
  0
CLASS
  1
SORTENTSTABLE
  2
AcDbSortentsTable
  3
ObjectDBX Classes
 90
        0
280
     0
281
     0
  0
CLASS
  1
AC_AM_MVD_DEP_MGR
  2
AcAmMVDdepMgr
  3
DesignerAssemblies
 90
     1024
280
     0
281
     0
  0
CLASS
  1
AC_AM_MASTER_VIEW_DEF
  2
AcAmMasterViewDef
  3
DesignerAssemblies
 90
     1024
280
     0
281
     0
  0
CLASS
  1
AC_AM_DIRTY_NODES
  2
AcAmDirtyNodes
  3
DesignerAssemblies
 90
     1024
280
     0
281
     0
  0
CLASS
  1
AC_AM_MAPPER_CACHE
  2
AcAmMapperCache
  3
DesignerAssemblies
 90
     1024
280
     0
281
     0
  0
CLASS
  1
ACAMMVDBACKUPOBJECT
  2
AcAmMVDBackupObject
  3
DesignerAssemblies
 90
     1024
280
     0
281
     0
  0
CLASS
  1
STDPART2D
  2
AmgStdPart
  3
AmgStdPart|Product Description: AutoCAD Mechanical|Company: Autodesk, Inc.
 90
    33792
280
     0
281
     1
  0
CLASS
  1
ACAMSTDPCOMPDEF
  2
AcAmStdpCompDef
  3
DesignerAssemblies
 90
    33792
280
     0
281
     0
  0
CLASS
  1
ACRFATTGENMGR
  2
AcRfAttGeneralMgr
  3
AcAttribServices
 90
    33792
280
     0
281
     0
  0
CLASS
  1
ACRFOBJATTMGR
  2
AcRfObjAttGroupMgr
  3
AcAttribServices
 90
    33792
280
     0
281
     0
  0
CLASS
  1
ACRFMCADAPIATTHOLDER
  2
AcRfMCADAPIAttHolder
  3
AcAttribServices
 90
    33792
280
     0
281
     0
  0
CLASS
  1
AMDTSYSATTR
  2
AmdtSystemAttribute
  3
AcAttribServices
 90
    33792
280
     0
281
     0
  0
CLASS
  1
ACAMCOMP
  2
AcAmComp
  3
DesignerAssemblies
 90
    33792
280
     0
281
     0
  0
CLASS
  1
AC_AM_STDP_VIEW_DEF
  2
AcAmStdpViewDef
  3
DesignerAssemblies
 90
    33792
280
     0
281
     0
  0
CLASS
  1
AC_AM_COMP_VIEW_INST
  2
AcAmCompView
  3
DesignerAssemblies
 90
    33792
280
     0
281
     0
  0
CLASS
  1
NEWSTDPARTPARLIST
  2
AmgNewParListFiler
  3
"AmgParList|Product Description: AutoCAD Mechanical|Company: Autodesk, Inc."
 90
    33792
280
     0
281
     0
  0
CLASS
  1
AC_AM_2D_XREF_MGR
  2
AcAmXrefMgr2d
  3
DesignerAssemblies
 90
     1024
280
     0
281
     0
  0
CLASS
  1
AC_AM_TRANSFORM_GHOST
  2
AcDbTransformGhost
  3
DesignerAssemblies
 90
    33792
280
     0
281
     1
  0
CLASS
  1
ACAMWBLOCKTEMPENTS
  2
AcAmStructInOutTempObjsHolder
  3
DesignerAssemblies
 90
    33792
280
     0
281
     0
  0
CLASS
  1
OBJCLONER
  2
ObjCloner
  3
DesignerAssemblies
 90
    33792
280
     0
281
     1
  0
CLASS
  1
DICTIONARYVAR
  2
AcDbDictionaryVar
  3
ObjectDBX Classes
 90
        0
280
     0
281
     0
  0
CLASS
  1
AC_AM_HIDE_SITUATION
  2
AcAmHideSituation
  3
DesignerAssemblies
 90
    33792
280
     0
281
     0
  0
CLASS
  1
AC_AM_COMPLEX_HIDE_SITUATION
  2
AcAmComplexHideSituation
  3
DesignerAssemblies
 90
    33792
280
     0
281
     0
  0
CLASS
  1
ACMDATAENTRYBLOCK
  2
AcmDataEntryBlock
  3
AcmSymBB|Product Description: AutoCAD Mechanical|Company: Autodesk, Inc.
 90
    33792
280
     0
281
     0
  0
CLASS
  1
MATERIAL
  2
AcDbMaterial
  3
ObjectDBX Classes
 90
     1153
280
     0
281
     0
  0
CLASS
  1
VISUALSTYLE
  2
AcDbVisualStyle
  3
ObjectDBX Classes
 90
     4095
280
     0
281
     0
  0
CLASS
  1
SCALE
  2
AcDbScale
  3
ObjectDBX Classes
 90
     1153
280
     0
281
     0
  0
CLASS
  1
MLEADERSTYLE
  2
AcDbMLeaderStyle
  3
ACDB_MLEADERSTYLE_CLASS
 90
     4095
280
     0
281
     0
  0
CLASS
  1
ACMTAPERSTANDARDISO
  2
AcmTaperStdISO
  3
"Amdt_StdImp|Product Description: AutoCAD Mechanical|Company: Autodesk, Inc."
 90
     1024
280
     0
281
     0
  0
CLASS
  1
ACMANOOTATIONVIEWSTANDARDISO
  2
AmdtAnViewStdISO
  3
"Amdt_StdImp|Product Description: AutoCAD Mechanical|Company: Autodesk, Inc."
 90
     1024
280
     0
281
     0
  0
CLASS
  1
CELLSTYLEMAP
  2
AcDbCellStyleMap
  3
ObjectDBX Classes
 90
     1152
280
     0
281
     0
  0
CLASS
  1
ACAD_EVALUATION_GRAPH
  2
AcDbEvalGraph
  3
ObjectDBX Classes
 90
    33921
280
     0
281
     0
  0
CLASS
  1
ACAECUSTOBJ
  2
AcAeEditorObj
  3
AcAeEditorObj
 90
    33792
280
     0
281
     0
  0
CLASS
  1
ACDB_DYNAMICBLOCKPURGEPREVENTER_VERSION
  2
AcDbDynamicBlockPurgePreventer
  3
ObjectDBX Classes
 90
    33921
280
     0
281
     0
  0
CLASS
  1
EXACXREFPANELOBJECT
  2
ExAcXREFPanelObject
  3
EXAC_ESW
 90
     1025
280
     0
281
     0
  0
CLASS
  1
NPOCOLLECTION
  2
AcDbImpNonPersistentObjectsCollection
  3
ObjectDBX Classes
 90
     1153
280
     0
281
     0
  0
CLASS
  1
CAMSSTRUCTBTNSTATE
  2
StructBtnState
  3
DesignerAssemblies
 90
     1024
280
     0
281
     0
  0
CLASS
  1
ACMFCFRAME
  2
AcmFCF
  3
"AcmSymBB|Product Description: AutoCAD Mechanical|Company: Autodesk, Inc."
 90
    33792
280
     0
281
     1
  0
CLASS
  1
ACDBLINERES
  2
AcDbLineRes
  3
AcGrefServices
 90
    33792
280
     0
281
     0
  0
CLASS
  1
ACMDATUMID
  2
AcmDatumId
  3
"AcmSymBB|Product Description: AutoCAD Mechanical|Company: Autodesk, Inc."
 90
    33792
280
     0
281
     1
  0
CLASS
  1
BLOCKPOINTPARAMETER
  2
AcDbBlockPointParameter
  3
ObjectDBX Classes
 90
    33921
280
     0
281
     0
  0
CLASS
  1
BLOCKLINEARPARAMETER
  2
AcDbBlockLinearParameter
  3
ObjectDBX Classes
 90
    33921
280
     0
281
     0
  0
CLASS
  1
ACDBASSOCACTION
  2
AcDbAssocAction
  3
ObjectDBX Classes
 90
    33793
280
     0
281
     0
  0
CLASS
  1
ACDBASSOCARRAYACTIONBODY
  2
AcDbAssocArrayActionBody
  3
ObjectDBX Classes
 90
    33793
280
     0
281
     0
  0
CLASS
  1
ACDBASSOCVERTEXACTIONPARAM
  2
AcDbAssocVertexActionParam
  3
ObjectDBX Classes
 90
    33793
280
     0
281
     0
  0
CLASS
  1
ACDBASSOCDEPENDENCY
  2
AcDbAssocDependency
  3
ObjectDBX Classes
 90
    33793
280
     0
281
     0
  0
CLASS
  1
ACDBASSOCARRAYPOLARPARAMETERS
  2
AcDbAssocArrayPolarParameters
  3
ObjectDBX Classes
 90
    33793
280
     0
281
     0
  0
CLASS
  1
ACDBASSOCNETWORK
  2
AcDbAssocNetwork
  3
ObjectDBX Classes
 90
    33793
280
     0
281
     0
  0
CLASS
  1
ACMDATAENTRYPART
  2
AcmDataEntryPart
  3
AcmSymBB|Product Description: AutoCAD Mechanical|Company: Autodesk, Inc.
 90
    33792
280
     0
281
     0
  0
CLASS
  1
ACMPARTREF
  2
AcmPartRef
  3
"AcmSymBB|Product Description: AutoCAD Mechanical|Company: Autodesk, Inc."
 90
    33792
280
     0
281
     1
  0
CLASS
  1
ACDBSTDPARTRES_LINE
  2
AcDbStdPartRes_Line
  3
AmgStdPart|Product Description: AutoCAD Mechanical|Company: Autodesk, Inc.
 90
     1024
280
     0
281
     0
  0
CLASS
  1
ACDBSECTIONVIEWSTYLE
  2
AcDbSectionViewStyle
  3
ObjectDBX Classes
 90
     1025
280
     0
281
     0
  0
CLASS
  1
ACDBDETAILVIEWSTYLE
  2
AcDbDetailViewStyle
  3
ObjectDBX Classes
 90
     1025
280
     0
281
     0
  0
CLASS
  1
ACMSECTIONSTANDARDCUSTOM
  2
AmdtSectionSymStdCustom
  3
"Amdt_StdImp|Product Description: AutoCAD Mechanical|Company: Autodesk, Inc."
 90
     1024
280
     0
281
     0
  0
CLASS
  1
ACMDETAILTANDARDCUSTOM
  2
AmdtDetailSymStdCustom
  3
"Amdt_StdImp|Product Description: AutoCAD Mechanical|Company: Autodesk, Inc."
 90
     1024
280
     0
281
     0
  0
CLASS
  1
FIELD
  2
AcDbField
  3
ObjectDBX Classes
 90
     1152
280
     0
281
     0
  0
CLASS
  1
FIELDLIST
  2
AcDbFieldList
  3
ObjectDBX Classes
 90
     1152
280
     0
281
     0
  0
ENDSEC
  0
SECTION
  2
TABLES
  0
TABLE
  2
VPORT
  5
8
330
0
100
AcDbSymbolTable
 70
     1
  0
VPORT
  5
8E8A
330
8
100
AcDbSymbolTableRecord
100
AcDbViewportTableRecord
  2
*Active
 70
     0
 10
0.0
 20
0.0
 11
1.0
 21
1.0
 12
7.272282158272048
 22
307.1806920578654
 13
0.0
 23
0.0
 14
2.5
 24
2.5
 15
10.0
 25
10.0
 16
0.0
 26
0.0
 36
1.0
 17
0.0
 27
0.0
 37
0.0
 40
232.7705802494352
 41
1.931696905016008
 42
50.0
 43
0.0
 44
0.0
 50
0.0
 51
0.0
 71
    16
 72
   100
 73
     1
 74
     0
 75
     0
 76
     0
 77
     0
 78
     0
281
     0
 65
     1
110
0.0
120
0.0
130
0.0
111
1.0
121
0.0
131
0.0
112
0.0
122
1.0
132
0.0
 79
     0
146
0.0
1001
ACAD_NAV_VCDISPLAY
1070
     3
  0
ENDTAB
  0
TABLE
  2
LTYPE
  5
5
330
0
100
AcDbSymbolTable
 70
    25
  0
LTYPE
  5
12
330
5
100
AcDbSymbolTableRecord
100
AcDbLinetypeTableRecord
  2
BYBLOCK
 70
     0
  3

 72
    65
 73
     0
 40
0.0
  0
LTYPE
  5
13
330
5
100
AcDbSymbolTableRecord
100
AcDbLinetypeTableRecord
  2
BYLAYER
 70
     0
  3

 72
    65
 73
     0
 40
0.0
  0
LTYPE
  5
14
330
5
100
AcDbSymbolTableRecord
100
AcDbLinetypeTableRecord
  2
CONTINUOUS
 70
     0
  3
Solid line
 72
    65
 73
     0
 40
0.0
  0
LTYPE
  5
1E
330
5
100
AcDbSymbolTableRecord
100
AcDbLinetypeTableRecord
  2
GEN3A
 70
     0
  3
 - - - - -
 72
    65
 73
     2
 40
3.1
 49
2.5
 74
     0
 49
-0.6
 74
     0
  0
LTYPE
  5
20
330
5
100
AcDbSymbolTableRecord
100
AcDbLinetypeTableRecord
  2
GEN7A
 70
     0
  3
__ . __ . __
 72
    65
 73
     4
 40
7.5
 49
5.0
 74
     0
 49
-0.75
 74
     0
 49
1.0
 74
     0
 49
-0.75
 74
     0
  0
LTYPE
  5
21
330
5
100
AcDbSymbolTableRecord
100
AcDbLinetypeTableRecord
  2
GEN4A
 70
     0
  3
_____ . . _____ . . _____ . . ____ .. ____
 72
    65
 73
     6
 40
15.0
 49
10.0
 74
     0
 49
-1.0
 74
     0
 49
1.0
 74
     0
 49
-1.0
 74
     0
 49
1.0
 74
     0
 49
-1.0
 74
     0
  0
LTYPE
  5
8519
330
5
100
AcDbSymbolTableRecord
100
AcDbLinetypeTableRecord
  2
AM_ISO02W050
 70
     0
  3
__ __ __ __ __ __ __ __ __ __ __ __ __ __ __
 72
    65
 73
     2
 40
7.5
 49
6.0
 74
     0
 49
-1.5
 74
     0
  0
LTYPE
  5
851A
330
5
100
AcDbSymbolTableRecord
100
AcDbLinetypeTableRecord
  2
AM_ISO08W050
 70
     0
  3
____ . ____ . ____ . ____ . ____ . ____ . ____
 72
    65
 73
     4
 40
18.0
 49
12.0
 74
     0
 49
-1.5
 74
     0
 49
3.0
 74
     0
 49
-1.5
 74
     0
  0
LTYPE
  5
851B
330
5
100
AcDbSymbolTableRecord
100
AcDbLinetypeTableRecord
  2
AM_ISO09W050
 70
     0
  3
_____ . . _____ . . _____ . . ____ .. ____
 72
    65
 73
     6
 40
22.5
 49
12.0
 74
     0
 49
-1.5
 74
     0
 49
3.0
 74
     0
 49
-1.5
 74
     0
 49
3.0
 74
     0
 49
-1.5
 74
     0
  0
LTYPE
  5
851C
330
5
100
AcDbSymbolTableRecord
100
AcDbLinetypeTableRecord
  2
Amconstr
 70
     0
  3
_______________________
 72
    65
 73
     2
 40
9999.0
 49
9999.0
 74
     0
 49
0.0
 74
     0
  0
LTYPE
  5
851D
330
5
100
AcDbSymbolTableRecord
100
AcDbLinetypeTableRecord
  2
AM_ISO08W050x2
 70
     0
  3
__ . __ . __ . __ . __ . __
 72
    65
 73
     4
 40
9.0
 49
6.0
 74
     0
 49
-0.75
 74
     0
 49
1.5
 74
     0
 49
-0.75
 74
     0
  0
LTYPE
  5
851E
330
5
100
AcDbSymbolTableRecord
100
AcDbLinetypeTableRecord
  2
AM_ISO02W050x2
 70
     0
  3
 _ _ _ _ _ _ _ _ _ _ _ _
 72
    65
 73
     2
 40
3.75
 49
3.0
 74
     0
 49
-0.75
 74
     0
  0
LTYPE
  5
8521
330
5
100
AcDbSymbolTableRecord
100
AcDbLinetypeTableRecord
  2
Amzigzag
 70
     0
  3
/\/-/\/-/\/-/\/-/\/-/\/
 72
    65
 73
     2
 40
11.0001
 49
0.0001
 74
     4
 75
   136
340
8520
 46
0.04
 50
0.0
 44
0.0
 45
0.0
 49
-11.0
 74
     0
  0
LTYPE
  5
8530
330
5
100
AcDbSymbolTableRecord
100
AcDbLinetypeTableRecord
  2
ACISOWELD
 70
     0
  3
_ _ _ _ _
 72
    65
 73
     2
 40
2.0
 49
2.0
 74
     0
 49
-1.0
 74
     0
  0
LTYPE
  5
8531
330
5
100
AcDbSymbolTableRecord
100
AcDbLinetypeTableRecord
  2
ACISOTGB
 70
     0
  3
__ . . __ . .
 72
    65
 73
     6
 40
9.0
 49
4.0
 74
     0
 49
-1.0
 74
     0
 49
1.0
 74
     0
 49
-1.0
 74
     0
 49
1.0
 74
     0
 49
-1.0
 74
     0
  0
LTYPE
  5
8532
330
5
100
AcDbSymbolTableRecord
100
AcDbLinetypeTableRecord
  2
ACISOTGL
 70
     0
  3
_ _ _ _ _
 72
    65
 73
     2
 40
3.0
 49
2.0
 74
     0
 49
-1.0
 74
     0
  0
LTYPE
  5
EF31
330
5
100
AcDbSymbolTableRecord
100
AcDbLinetypeTableRecord
  2
PHANTOM
 70
     0
  3
Phantom ______  __  __  ______  __  __  ______
 72
    65
 73
     6
 40
63.5
 49
31.75
 74
     0
 49
-6.349999999999999
 74
     0
 49
6.349999999999999
 74
     0
 49
-6.349999999999999
 74
     0
 49
6.349999999999999
 74
     0
 49
-6.349999999999999
 74
     0
  0
ENDTAB
  0
TABLE
  2
LAYER
  5
2
102
{ACAD_XDICTIONARY
360
8594
102
}
330
0
100
AcDbSymbolTable
 70
    34
  0
LAYER
  5
F
102
{ACAD_XDICTIONARY
360
8F23
102
}
330
2
100
AcDbSymbolTableRecord
100
AcDbLayerTableRecord
  2
0
 70
     0
 62
     7
  6
CONTINUOUS
370
    -3
390
4B4
  0
LAYER
  5
29
102
{ACAD_XDICTIONARY
360
8F2D
102
}
330
2
100
AcDbSymbolTableRecord
100
AcDbLayerTableRecord
  2
3A
 70
     0
 62
     6
  6
GEN3A
370
    -3
390
4B4
  0
LAYER
  5
2A
102
{ACAD_XDICTIONARY
360
8F2F
102
}
330
2
100
AcDbSymbolTableRecord
100
AcDbLayerTableRecord
  2
4A
 70
     0
 62
     3
  6
GEN4A
370
    -3
390
4B4
  0
LAYER
  5
2B
102
{ACAD_XDICTIONARY
360
8F31
102
}
330
2
100
AcDbSymbolTableRecord
100
AcDbLayerTableRecord
  2
5
 70
     0
 62
     3
  6
CONTINUOUS
370
    -3
390
4B4
  0
LAYER
  5
2F
102
{ACAD_XDICTIONARY
360
8F39
102
}
330
2
100
AcDbSymbolTableRecord
100
AcDbLayerTableRecord
  2
7A
 70
     0
 62
     4
  6
GEN7A
370
    -3
390
4B4
  0
LAYER
  5
30
330
2
100
AcDbSymbolTableRecord
100
AcDbLayerTableRecord
  2
DEFPOINTS
 70
     0
 62
     7
  6
CONTINUOUS
290
     0
370
    -3
390
4B4
  0
LAYER
  5
8F1
102
{ACAD_XDICTIONARY
360
8F65
102
}
330
2
100
AcDbSymbolTableRecord
100
AcDbLayerTableRecord
  2
SUNPOU
 70
     0
 62
     3
  6
CONTINUOUS
370
    -3
390
4B4
  0
LAYER
  5
EF32
102
{ACAD_XDICTIONARY
360
EF33
102
}
330
2
100
AcDbSymbolTableRecord
100
AcDbLayerTableRecord
  2
LY_1
 70
     0
 62
     7
  6
CONTINUOUS
370
    -3
390
4B4
  0
ENDTAB
  0
TABLE
  2
STYLE
  5
3
330
0
100
AcDbSymbolTable
 70
    11
  0
STYLE
  5
10
330
3
100
AcDbSymbolTableRecord
100
AcDbTextStyleTableRecord
  2
STANDARD
 70
     0
 40
0.0
 41
1.0
 50
10.0
 71
     0
 42
3.5
  3
ISOCP.SHX
  4
extfont.shx
  0
STYLE
  5
8F4
330
3
100
AcDbSymbolTableRecord
100
AcDbTextStyleTableRecord
  2
BIGFONT
 70
     0
 40
0.0
 41
1.0
 50
10.0
 71
     0
 42
3.5
  3
txt.shx
  4
bigfont.shx
  0
STYLE
  5
8520
330
3
100
AcDbSymbolTableRecord
100
AcDbTextStyleTableRecord
  2

 70
     1
 40
0.0
 41
1.0
 50
0.0
 71
     0
 42
3.5
  3
genltshp.shx
  4

  0
STYLE
  5
8522
330
3
100
AcDbSymbolTableRecord
100
AcDbTextStyleTableRecord
  2
ACISOTS
 70
     0
 40
1.0
 41
1.0
 50
10.0
 71
     0
 42
3.5
  3
isocp.shx
  4
extfont.shx
  0
STYLE
  5
852F
330
3
100
AcDbSymbolTableRecord
100
AcDbTextStyleTableRecord
  2
ACISOGDT
 70
     0
 40
0.0
 41
1.0
 50
0.0
 71
     0
 42
3.5
  3
AMGDT.shx
  4

  0
ENDTAB
  0
TABLE
  2
VIEW
  5
6
330
0
100
AcDbSymbolTable
 70
     6
  0
VIEW
  5
C980
330
6
100
AcDbSymbolTableRecord
100
AcDbViewTableRecord
  2
AM_VIEW1
 70
     0
 40
379.2549484312416
 10
-346.7501675579734
 20
549.0579448843828
 41
715.0536006880701
 11
0.0
 21
0.0
 31
1.0
 12
0.0
 22
0.0
 32
0.0
 42
50.0
 43
0.0
 44
0.0
 50
0.0
 71
    16
281
     0
 72
     0
  0
VIEW
  5
C981
330
6
100
AcDbSymbolTableRecord
100
AcDbViewTableRecord
  2
AM_VIEW2
 70
     0
 40
379.2549484312416
 10
368.3034331300967
 20
549.0579448843828
 41
715.0536006880701
 11
0.0
 21
0.0
 31
1.0
 12
0.0
 22
0.0
 32
0.0
 42
50.0
 43
0.0
 44
0.0
 50
0.0
 71
    16
281
     0
 72
     0
  0
VIEW
  5
C982
330
6
100
AcDbSymbolTableRecord
100
AcDbViewTableRecord
  2
AM_VIEW3
 70
     0
 40
379.2549484312416
 10
-346.7501675579734
 20
189.6274742156208
 41
715.0536006880701
 11
0.0
 21
0.0
 31
1.0
 12
0.0
 22
0.0
 32
0.0
 42
50.0
 43
0.0
 44
0.0
 50
0.0
 71
    16
281
     0
 72
     0
  0
VIEW
  5
C983
330
6
100
AcDbSymbolTableRecord
100
AcDbViewTableRecord
  2
AM_VIEW4
 70
     0
 40
379.2549484312416
 10
368.3034331300967
 20
189.6274742156208
 41
715.0536006880701
 11
0.0
 21
0.0
 31
1.0
 12
0.0
 22
0.0
 32
0.0
 42
50.0
 43
0.0
 44
0.0
 50
0.0
 71
    16
281
     0
 72
     0
  0
VIEW
  5
C984
330
6
100
AcDbSymbolTableRecord
100
AcDbViewTableRecord
  2
AM_VIEW5
 70
     0
 40
379.2549484312416
 10
10.77663278606167
 20
369.3427095500017
 41
715.0536006880701
 11
0.0
 21
0.0
 31
1.0
 12
0.0
 22
0.0
 32
0.0
 42
50.0
 43
0.0
 44
0.0
 50
0.0
 71
    16
281
     0
 72
     0
  0
VIEW
  5
C985
330
6
100
AcDbSymbolTableRecord
100
AcDbViewTableRecord
  2
AM_VIEW6
 70
     0
 40
758.5023117635146
 10
10.77663278606167
 20
369.3427095500017
 41
1430.092900304126
 11
0.0
 21
0.0
 31
1.0
 12
0.0
 22
0.0
 32
0.0
 42
50.0
 43
0.0
 44
0.0
 50
0.0
 71
    16
281
     0
 72
     0
  0
ENDTAB
  0
TABLE
  2
UCS
  5
7
330
0
100
AcDbSymbolTable
 70
     0
  0
ENDTAB
  0
TABLE
  2
APPID
  5
9
330
0
100
AcDbSymbolTable
 70
    64
  0
APPID
  5
11
330
9
100
AcDbSymbolTableRecord
100
AcDbRegAppTableRecord
  2
ACAD
 70
     0
  0
APPID
  5
323
330
9
100
AcDbSymbolTableRecord
100
AcDbRegAppTableRecord
  2
CONTENTTABDATA
 70
     0
  0
APPID
  5
324
330
9
100
AcDbSymbolTableRecord
100
AcDbRegAppTableRecord
  2
CONTENTCURRENTTAB
 70
     0
  0
APPID
  5
8FD
330
9
100
AcDbSymbolTableRecord
100
AcDbRegAppTableRecord
  2
CONTENTBLOCKICON
 70
     0
  0
APPID
  5
8FE
330
9
100
AcDbSymbolTableRecord
100
AcDbRegAppTableRecord
  2
CONTENTBLOCKDESCRIPTION
 70
     0
  0
APPID
  5
84B6
330
9
100
AcDbSymbolTableRecord
100
AcDbRegAppTableRecord
  2
MCAD_NO_VIS
 70
     0
  0
APPID
  5
84B7
330
9
100
AcDbSymbolTableRecord
100
AcDbRegAppTableRecord
  2
ACAD_TEMP_GRAPHIC
 70
     0
  0
APPID
  5
84E7
330
9
100
AcDbSymbolTableRecord
100
AcDbRegAppTableRecord
  2
AD_DRAW
 70
     0
  0
APPID
  5
84EA
330
9
100
AcDbSymbolTableRecord
100
AcDbRegAppTableRecord
  2
ACATTRIBSERVICES
 70
     0
  0
APPID
  5
850A
330
9
100
AcDbSymbolTableRecord
100
AcDbRegAppTableRecord
  2
DESIGNERASSEMBLIES
 70
     0
  0
APPID
  5
8510
330
9
100
AcDbSymbolTableRecord
100
AcDbRegAppTableRecord
  2
ACADM_DIM_EDIT
 70
     0
  0
APPID
  5
8511
330
9
100
AcDbSymbolTableRecord
100
AcDbRegAppTableRecord
  2
AMDT_DM_ADJ
 70
     0
  0
APPID
  5
853D
330
9
100
AcDbSymbolTableRecord
100
AcDbRegAppTableRecord
  2
ACAD_DSTYLE_DIMARC_LENGTH_SYMBOL
 70
     0
  0
APPID
  5
853E
330
9
100
AcDbSymbolTableRecord
100
AcDbRegAppTableRecord
  2
ACAD_DSTYLE_DIMJOGGED_JOGANGLE_SYMBOL
 70
     0
  0
APPID
  5
856C
330
9
100
AcDbSymbolTableRecord
100
AcDbRegAppTableRecord
  2
AcAecLayerStandard
 70
     0
  0
APPID
  5
8583
330
9
100
AcDbSymbolTableRecord
100
AcDbRegAppTableRecord
  2
AMG_2DHIDE
 70
     0
  0
APPID
  5
8584
330
9
100
AcDbSymbolTableRecord
100
AcDbRegAppTableRecord
  2
AMG_2DSTRUCT_BTR
 70
     0
  0
APPID
  5
858D
330
9
100
AcDbSymbolTableRecord
100
AcDbRegAppTableRecord
  2
GEVID1153440513
 70
     0
  0
APPID
  5
858E
330
9
100
AcDbSymbolTableRecord
100
AcDbRegAppTableRecord
  2
GEVDC
 70
     0
  0
APPID
  5
858F
330
9
100
AcDbSymbolTableRecord
100
AcDbRegAppTableRecord
  2
GEVCON
 70
     0
  0
APPID
  5
859D
330
9
100
AcDbSymbolTableRecord
100
AcDbRegAppTableRecord
  2
GENIUS_GENOBJ-F-SCPASSM_13
 70
     0
  0
APPID
  5
859E
330
9
100
AcDbSymbolTableRecord
100
AcDbRegAppTableRecord
  2
GENIUS_GENODEF_13
 70
     0
  0
APPID
  5
859F
330
9
100
AcDbSymbolTableRecord
100
AcDbRegAppTableRecord
  2
GENIUS_GENOLIS_13
 70
     0
  0
APPID
  5
85A0
330
9
100
AcDbSymbolTableRecord
100
AcDbRegAppTableRecord
  2
GENIUS_GENOENT_13
 70
     0
  0
APPID
  5
85A1
330
9
100
AcDbSymbolTableRecord
100
AcDbRegAppTableRecord
  2
GENIUS_GENOREF_13
 70
     0
  0
APPID
  5
85B1
330
9
100
AcDbSymbolTableRecord
100
AcDbRegAppTableRecord
  2
ACADM_2DVIEW_IGN_NOTIFY
 70
     0
  0
APPID
  5
86D3
330
9
100
AcDbSymbolTableRecord
100
AcDbRegAppTableRecord
  2
GEVID1153440514
 70
     0
  0
APPID
  5
86FB
330
9
100
AcDbSymbolTableRecord
100
AcDbRegAppTableRecord
  2
GEVID1153440515
 70
     0
  0
APPID
  5
877C
330
9
100
AcDbSymbolTableRecord
100
AcDbRegAppTableRecord
  2
GEVID1153440516
 70
     0
  0
APPID
  5
8A1B
330
9
100
AcDbSymbolTableRecord
100
AcDbRegAppTableRecord
  2
GENIUS_GENDTOL_13
 70
     0
  0
APPID
  5
8BA0
330
9
100
AcDbSymbolTableRecord
100
AcDbRegAppTableRecord
  2
ACAD_PSEXT
 70
     0
  0
APPID
  5
8ED9
330
9
100
AcDbSymbolTableRecord
100
AcDbRegAppTableRecord
  2
ACAD_MLEADERVER
 70
     0
  0
APPID
  5
8FEB
330
9
100
AcDbSymbolTableRecord
100
AcDbRegAppTableRecord
  2
ACAUTHENVIRON
 70
     0
  0
APPID
  5
9011
330
9
100
AcDbSymbolTableRecord
100
AcDbRegAppTableRecord
  2
ACAD_EXEMPT_FROM_CAD_STANDARDS
 70
     0
  0
APPID
  5
9017
330
9
100
AcDbSymbolTableRecord
100
AcDbRegAppTableRecord
  2
AcDbDynamicBlockTrueName
 70
     0
  0
APPID
  5
9018
330
9
100
AcDbSymbolTableRecord
100
AcDbRegAppTableRecord
  2
AcDbDynamicBlockGUID
 70
     0
  0
APPID
  5
901A
330
9
100
AcDbSymbolTableRecord
100
AcDbRegAppTableRecord
  2
ACDBBLOCKREPETAG
 70
     0
  0
APPID
  5
96ED
330
9
100
AcDbSymbolTableRecord
100
AcDbRegAppTableRecord
  2
ACAD_DSTYLE_DIMJAG
 70
     0
  0
APPID
  5
96EE
330
9
100
AcDbSymbolTableRecord
100
AcDbRegAppTableRecord
  2
ACAD_DSTYLE_DIMTALN
 70
     0
  0
APPID
  5
9A29
330
9
100
AcDbSymbolTableRecord
100
AcDbRegAppTableRecord
  2
ACAD_DSTYLE_DIMINSPECT
 70
     0
  0
APPID
  5
9D00
330
9
100
AcDbSymbolTableRecord
100
AcDbRegAppTableRecord
  2
ACAD_DSTYLE_DIMRADIAL_EXTENSION
 70
     0
  0
APPID
  5
A234
330
9
100
AcDbSymbolTableRecord
100
AcDbRegAppTableRecord
  2
AcadAnnoPO
 70
     0
  0
APPID
  5
AF14
330
9
100
AcDbSymbolTableRecord
100
AcDbRegAppTableRecord
  2
GENIUS_GENOBJ-N-HTC_13
 70
     0
  0
APPID
  5
AF15
330
9
100
AcDbSymbolTableRecord
100
AcDbRegAppTableRecord
  2
GENIUS_GENHATCH_13
 70
     0
  0
APPID
  5
B24F
330
9
100
AcDbSymbolTableRecord
100
AcDbRegAppTableRecord
  2
GEVID1302483527
 70
     0
  0
APPID
  5
B252
330
9
100
AcDbSymbolTableRecord
100
AcDbRegAppTableRecord
  2
GENIUS_GENBH_13
 70
     0
  0
APPID
  5
B254
330
9
100
AcDbSymbolTableRecord
100
AcDbRegAppTableRecord
  2
GENIUS_GENOBJ-NBEHI-BHF_13
 70
     0
  0
APPID
  5
B256
330
9
100
AcDbSymbolTableRecord
100
AcDbRegAppTableRecord
  2
GENIUS_GENOBJ-NBEHI-BHB_13
 70
     0
  0
APPID
  5
BB68
330
9
100
AcDbSymbolTableRecord
100
AcDbRegAppTableRecord
  2
ACAD_NAV_VCDISPLAY
 70
     0
  0
APPID
  5
BBE9
330
9
100
AcDbSymbolTableRecord
100
AcDbRegAppTableRecord
  2
GENIUS_GENTRA_14
 70
     0
  0
APPID
  5
C8B7
330
9
100
AcDbSymbolTableRecord
100
AcDbRegAppTableRecord
  2
GENIUS_GENBLLY_14
 70
     0
  0
APPID
  5
C8B8
330
9
100
AcDbSymbolTableRecord
100
AcDbRegAppTableRecord
  2
GENIUS_GENOBJ-N-TIT_13
 70
     0
  0
APPID
  5
C8B9
330
9
100
AcDbSymbolTableRecord
100
AcDbRegAppTableRecord
  2
GENIUS_GENTITLE_13
 70
     0
  0
APPID
  5
C8BA
330
9
100
AcDbSymbolTableRecord
100
AcDbRegAppTableRecord
  2
GENIUS_GENSCREG_15
 70
     0
  0
APPID
  5
C8BB
330
9
100
AcDbSymbolTableRecord
100
AcDbRegAppTableRecord
  2
GENIUS_GENOBJ-N-SDF_13
 70
     0
  0
APPID
  5
D97A
330
9
100
AcDbSymbolTableRecord
100
AcDbRegAppTableRecord
  2
GENIUS_GENFIL_13
 70
     0
  0
APPID
  5
D97B
330
9
100
AcDbSymbolTableRecord
100
AcDbRegAppTableRecord
  2
GENIUS_GENOBJ-N-CHA_13
 70
     0
  0
APPID
  5
ED86
330
9
100
AcDbSymbolTableRecord
100
AcDbRegAppTableRecord
  2
GEVID1399429584
 70
     0
  0
APPID
  5
ED92
330
9
100
AcDbSymbolTableRecord
100
AcDbRegAppTableRecord
  2
ACM_PP_DIM_CONSTRAINT
 70
     0
  0
APPID
  5
ED93
330
9
100
AcDbSymbolTableRecord
100
AcDbRegAppTableRecord
  2
ACM_PP_ASSOCVAR
 70
     0
  0
APPID
  5
ED94
330
9
100
AcDbSymbolTableRecord
100
AcDbRegAppTableRecord
  2
ACM_PP_DIM_ACTION_MACRO
 70
     0
  0
APPID
  5
ED95
330
9
100
AcDbSymbolTableRecord
100
AcDbRegAppTableRecord
  2
ACM_PP_DIM_CONSTRAINT_DRAG_GRIP
 70
     0
  0
APPID
  5
EDA0
330
9
100
AcDbSymbolTableRecord
100
AcDbRegAppTableRecord
  2
GEVID1399429586
 70
     0
  0
APPID
  5
F12E
330
9
100
AcDbSymbolTableRecord
100
AcDbRegAppTableRecord
  2
DCO15
 70
     0
  0
ENDTAB
  0
TABLE
  2
DIMSTYLE
  5
A
330
0
100
AcDbSymbolTable
 70
    18
100
AcDbDimStyleTable
 71
     3
340
853C
340
8558
340
117
  0
DIMSTYLE
105
117
330
A
100
AcDbSymbolTableRecord
100
AcDbDimStyleTableRecord
  2
STANDARD
 70
     0
340
10
  0
DIMSTYLE
105
853C
102
{ACAD_REACTORS
330
EEA7
330
EFFB
102
}
330
A
100
AcDbSymbolTableRecord
100
AcDbDimStyleTableRecord
  2
AM_ISO
 70
     0
 41
2.5
 42
0.0
 43
10.0
 44
2.0
 48
0.000000001
 73
     0
 74
     0
 77
     1
 78
     8
140
3.5
141
-2.0
146
0.75
147
1.5
172
     1
176
     3
177
     3
178
     2
271
     2
272
     2
284
     8
285
     8
340
10
341
9EA
342
9EA
371
    -1
372
    -1
1001
ACAD_DSTYLE_DIMJOGGED_JOGANGLE_SYMBOL
1070
   384
1040
0.7853981633974483
1001
ACAD_DSTYLE_DIMJAG
1070
   388
1040
1.5
1001
ACAD_DSTYLE_DIMTALN
1070
   392
1070
     0
  0
DIMSTYLE
105
8545
330
A
100
AcDbSymbolTableRecord
100
AcDbDimStyleTableRecord
  2
AM_ISO$3
 70
     0
 41
2.5
 42
0.0
 43
10.0
 44
2.0
 48
0.000000001
 73
     0
 77
     1
 78
     8
140
3.5
141
-2.0
146
0.75
147
1.5
172
     1
176
     3
177
     3
178
     2
271
     2
272
     2
284
     8
285
     8
289
     2
340
10
341
9EA
342
9EA
371
    -1
372
    -1
1001
ACAD_DSTYLE_DIMJOGGED_JOGANGLE_SYMBOL
1070
   384
1040
0.7853981633974483
1001
ACAD_DSTYLE_DIMJAG
1070
   388
1040
1.5
1001
ACAD_DSTYLE_DIMTALN
1070
   392
1070
     0
  0
DIMSTYLE
105
8548
330
A
100
AcDbSymbolTableRecord
100
AcDbDimStyleTableRecord
  2
AM_ISO$4
 70
     0
 41
2.5
 42
0.0
 43
10.0
 44
2.0
 48
0.000000001
 73
     0
 74
     0
 77
     1
 78
     8
140
3.5
141
-2.0
146
0.75
147
1.5
172
     1
176
     3
177
     3
178
     2
271
     2
272
     2
284
     8
285
     8
340
10
341
9EA
342
9EA
371
    -1
372
    -1
1001
ACAD_DSTYLE_DIMJOGGED_JOGANGLE_SYMBOL
1070
   384
1040
0.7853981633974483
1001
ACAD_DSTYLE_DIMJAG
1070
   388
1040
1.5
1001
ACAD_DSTYLE_DIMTALN
1070
   392
1070
     0
  0
DIMSTYLE
105
854B
330
A
100
AcDbSymbolTableRecord
100
AcDbDimStyleTableRecord
  2
AM_ISO$6
 70
     0
 41
2.5
 42
0.0
 43
10.0
 44
2.0
 48
0.000000001
 73
     0
 74
     0
 78
     8
140
3.5
141
-2.0
146
0.75
147
1.5
172
     1
176
     3
177
     3
178
     2
271
     2
272
     2
284
     8
285
     8
340
10
341
9EA
342
9EA
371
    -1
372
    -1
1001
ACAD_DSTYLE_DIMJOGGED_JOGANGLE_SYMBOL
1070
   384
1040
0.7853981633974483
  0
DIMSTYLE
105
854E
330
A
100
AcDbSymbolTableRecord
100
AcDbDimStyleTableRecord
  2
AM_ISO$7
 70
     0
 41
2.5
 42
0.0
 43
10.0
 44
2.0
 48
0.000000001
 73
     0
 74
     0
 77
     1
 78
     8
140
3.5
141
-2.0
146
0.75
147
1.5
172
     1
176
     3
177
     3
178
     2
271
     2
272
     2
284
     8
285
     8
340
10
341
9EA
342
9EA
371
    -1
372
    -1
1001
ACAD_DSTYLE_DIMJOGGED_JOGANGLE_SYMBOL
1070
   384
1040
0.7853981633974483
1001
ACAD_DSTYLE_DIMJAG
1070
   388
1040
1.5
1001
ACAD_DSTYLE_DIMTALN
1070
   392
1070
     0
  0
DIMSTYLE
105
8551
330
A
100
AcDbSymbolTableRecord
100
AcDbDimStyleTableRecord
  2
AM_ISO$SF
 70
     0
 41
2.5
 42
0.0
 43
10.0
 44
2.0
 48
0.000000001
 73
     0
 74
     0
 75
     1
 76
     1
 77
     1
 78
     8
140
3.5
141
-2.0
146
0.75
147
1.5
172
     1
176
     3
177
     3
178
     2
271
     2
272
     2
284
     8
285
     8
340
10
341
9EA
342
9EA
371
    -1
372
    -1
1001
ACAD_DSTYLE_DIMJOGGED_JOGANGLE_SYMBOL
1070
   384
1040
0.7853981633974483
1001
ACAD_DSTYLE_DIMJAG
1070
   388
1040
1.5
1001
ACAD_DSTYLE_DIMTALN
1070
   392
1070
     0
  0
DIMSTYLE
105
8558
330
A
100
AcDbSymbolTableRecord
100
AcDbDimStyleTableRecord
  2
AM_ISO$SH
 70
     0
 41
2.5
 42
0.0
 43
10.0
 44
2.0
 48
0.000000001
 73
     0
 74
     0
 75
     1
 76
     1
 77
     1
 78
     8
140
3.5
141
-2.0
144
2.0
146
0.75
147
1.5
172
     1
173
     1
176
     3
177
     3
178
     2
271
     2
272
     2
284
     8
285
     8
340
10
341
9EA
342
9EA
343
8552
371
    -1
372
    -1
1001
ACAD_DSTYLE_DIMJOGGED_JOGANGLE_SYMBOL
1070
   384
1040
0.7853981633974483
  0
ENDTAB
  0
TABLE
  2
BLOCK_RECORD
  5
1
330
0
100
AcDbSymbolTable
 70
   142
  0
BLOCK_RECORD
  5
18
102
{ACAD_XDICTIONARY
360
9045
102
}
330
1
100
AcDbSymbolTableRecord
100
AcDbBlockTableRecord
  2
*MODEL_SPACE
340
4B7
1001
ACDBBLOCKREPETAG
1070
     1
1071
        6
  0
BLOCK_RECORD
  5
15
330
1
100
AcDbSymbolTableRecord
100
AcDbBlockTableRecord
  2
*PAPER_SPACE
340
4B8
  0
BLOCK_RECORD
  5
9EA
330
1
100
AcDbSymbolTableRecord
100
AcDbBlockTableRecord
  2
_Open
340
0
102
{BLKREFS
331
F02D
331
F02E
331
F037
331
F038
102
}
  0
BLOCK_RECORD
  5
8552
330
1
100
AcDbSymbolTableRecord
100
AcDbBlockTableRecord
  2
GENAXEH
340
0
  0
BLOCK_RECORD
  5
E449
102
{ACAD_XDICTIONARY
360
E44A
102
}
330
1
100
AcDbSymbolTableRecord
100
AcDbBlockTableRecord
  2
A$C48405559
340
0
102
{BLKREFS
331
EB19
102
}
  0
BLOCK_RECORD
  5
EEA8
330
1
100
AcDbSymbolTableRecord
100
AcDbBlockTableRecord
  2
*D137
340
0
  0
BLOCK_RECORD
  5
EF09
102
{ACAD_XDICTIONARY
360
EF0A
102
}
330
1
100
AcDbSymbolTableRecord
100
AcDbBlockTableRecord
  2
A$C124820DC-1
340
0
102
{BLKREFS
331
EFF3
102
}
  0
BLOCK_RECORD
  5
EF19
102
{ACAD_XDICTIONARY
360
EF1A
102
}
330
1
100
AcDbSymbolTableRecord
100
AcDbBlockTableRecord
  2
A$C1228088A
340
0
102
{BLKREFS
331
EFE4
331
EFE5
331
EFE6
331
EFE7
102
}
  0
BLOCK_RECORD
  5
EFFC
330
1
100
AcDbSymbolTableRecord
100
AcDbBlockTableRecord
  2
*D140
340
0
  0
BLOCK_RECORD
  5
F11A
330
1
100
AcDbSymbolTableRecord
100
AcDbBlockTableRecord
  2
_ACMFILLED15
340
0
  0
ENDTAB
  0
ENDSEC
  0
SECTION
  2
BLOCKS
  0
BLOCK
  5
44
330
18
100
AcDbEntity
  8
0
100
AcDbBlockBegin
  2
*MODEL_SPACE
 70
     0
 10
0.0
 20
0.0
 30
0.0
  3
*MODEL_SPACE
  1

  0
ENDBLK
  5
45
330
18
100
AcDbEntity
  8
0
100
AcDbBlockEnd
  0
BLOCK
  5
42
330
15
100
AcDbEntity
 67
     1
  8
0
100
AcDbBlockBegin
  2
*PAPER_SPACE
 70
     0
 10
0.0
 20
0.0
 30
0.0
  3
*PAPER_SPACE
  1

  0
ENDBLK
  5
43
330
15
100
AcDbEntity
 67
     1
  8
0
100
AcDbBlockEnd
  0
BLOCK
  5
9EE
330
9EA
100
AcDbEntity
  8
0
100
AcDbBlockBegin
  2
_Open
 70
     0
 10
0.0
 20
0.0
 30
0.0
  3
_Open
  1

  0
LINE
  5
9EB
330
9EA
100
AcDbEntity
  8
0
  6
ByBlock
 62
     0
370
    -2
100
AcDbLine
 10
-1.0
 20
0.1666666666666666
 30
0.0
 11
0.0
 21
0.0
 31
0.0
  0
LINE
  5
9EC
330
9EA
100
AcDbEntity
  8
0
  6
ByBlock
 62
     0
370
    -2
100
AcDbLine
 10
-1.0
 20
-0.1666666666666666
 30
0.0
 11
0.0
 21
0.0
 31
0.0
  0
LINE
  5
9ED
330
9EA
100
AcDbEntity
  8
0
  6
ByBlock
 62
     0
370
    -2
100
AcDbLine
 10
0.0
 20
0.0
 30
0.0
 11
-1.0
 21
0.0
 31
0.0
  0
ENDBLK
  5
9EF
330
9EA
100
AcDbEntity
  8
0
100
AcDbBlockEnd
  0
BLOCK
  5
8554
330
8552
100
AcDbEntity
  8
0
100
AcDbBlockBegin
  2
GENAXEH
 70
     0
 10
0.0
 20
0.0
 30
0.0
  3
GENAXEH
  1

  0
LINE
  5
8553
330
8552
100
AcDbEntity
  8
0
100
AcDbLine
 10
-1.0
 20
0.0
 30
0.0
 11
1.0
 21
0.0
 31
0.0
  0
ENDBLK
  5
8555
330
8552
100
AcDbEntity
  8
0
100
AcDbBlockEnd
  0
BLOCK
  5
E44C
330
E449
100
AcDbEntity
  8
0
100
AcDbBlockBegin
  2
A$C48405559
 70
     0
 10
0.0
 20
0.0
 30
0.0
  3
A$C48405559
  1

  0
LINE
  5
E44D
330
E449
100
AcDbEntity
  8
0
100
AcDbLine
 10
6.000000000000113
 20
0.0000000000002274
 30
0.0
 11
6.000000000000113
 21
6.500000000000227
 31
0.0
  0
LINE
  5
E44E
330
E449
100
AcDbEntity
  8
0
100
AcDbLine
 10
-0.0000000000001137
 20
0.0
 30
0.0
 11
-0.0000000000001137
 21
6.5
 31
0.0
  0
LINE
  5
E44F
330
E449
100
AcDbEntity
  8
0
100
AcDbLine
 10
-6.000000000000113
 20
0.0
 30
0.0
 11
-6.000000000000113
 21
6.5
 31
0.0
  0
LINE
  5
E450
330
E449
100
AcDbEntity
  8
0
100
AcDbLine
 10
-6.000000000000113
 20
0.0
 30
0.0
 11
6.000000000000113
 21
0.0
 31
0.0
  0
LINE
  5
E451
330
E449
100
AcDbEntity
  8
0
 48
0.5
100
AcDbLine
 10
-5.000000000000113
 20
17.0
 30
0.0
 11
4.999999999999886
 21
17.0
 31
0.0
  0
LINE
  5
E452
330
E449
100
AcDbEntity
  8
0
 48
0.5
100
AcDbLine
 10
-5.000000000000113
 20
15.5
 30
0.0
 11
4.999999999999886
 21
15.5
 31
0.0
  0
LINE
  5
E453
330
E449
100
AcDbEntity
  8
0
 48
0.5
100
AcDbLine
 10
5.499999999999886
 20
12.0
 30
0.0
 11
-0.0000000000001137
 21
12.0
 31
0.0
  0
LINE
  5
E454
330
E449
100
AcDbEntity
  8
0
 48
0.5
100
AcDbLine
 10
5.499999999999886
 20
11.0
 30
0.0
 11
-0.0000000000001137
 21
11.0
 31
0.0
  0
LINE
  5
E455
330
E449
100
AcDbEntity
  8
0
 48
0.5
100
AcDbLine
 10
-5.500000000000113
 20
8.0
 30
0.0
 11
5.499999999999658
 21
8.0
 31
0.0
  0
LINE
  5
E456
330
E449
100
AcDbEntity
  8
0
100
AcDbLine
 10
-5.000000000000113
 20
15.5
 30
0.0
 11
-5.000000000000113
 21
17.0
 31
0.0
  0
LINE
  5
E457
330
E449
100
AcDbEntity
  8
0
100
AcDbLine
 10
-4.000000000000113
 20
12.00000000000011
 30
0.0
 11
-4.000000000000113
 21
15.5
 31
0.0
  0
LINE
  5
E458
330
E449
100
AcDbEntity
  8
0
100
AcDbLine
 10
-5.500000000000113
 20
7.329156197588758
 30
0.0
 11
-5.500000000000113
 21
12.0
 31
0.0
  0
LINE
  5
E459
330
E449
100
AcDbEntity
  8
0
 48
0.5
100
AcDbLine
 10
-5.500000000000113
 20
11.0
 30
0.0
 11
-0.0000000000001137
 21
11.0
 31
0.0
  0
LINE
  5
E45A
330
E449
100
AcDbEntity
  8
0
 48
0.5
100
AcDbLine
 10
-5.500000000000113
 20
12.0
 30
0.0
 11
-0.0000000000001137
 21
12.0
 31
0.0
  0
LINE
  5
E45B
330
E449
100
AcDbEntity
  8
0
100
AcDbLine
 10
4.999999999999886
 20
15.5
 30
0.0
 11
4.999999999999886
 21
17.0
 31
0.0
  0
LINE
  5
E45C
330
E449
100
AcDbEntity
  8
0
100
AcDbLine
 10
3.999999999999886
 20
12.00000000000011
 30
0.0
 11
3.999999999999886
 21
15.5
 31
0.0
  0
LINE
  5
E45D
330
E449
100
AcDbEntity
  8
0
100
AcDbLine
 10
5.499999999999658
 20
7.329156197589441
 30
0.0
 11
5.499999999999886
 21
12.0
 31
0.0
  0
ELLIPSE
  5
E45E
330
E449
100
AcDbEntity
  8
0
100
AcDbEllipse
 10
-3.000000000000113
 20
6.5
 30
0.0
 11
-3.0
 21
0.0
 31
0.0
210
0.0
220
0.0
230
1.0
 40
0.4999999999999811
 41
3.141592653589793
 42
6.283185307179586
  0
ELLIPSE
  5
E45F
330
E449
100
AcDbEntity
  8
0
100
AcDbEllipse
 10
3.000000000000113
 20
6.500000000000227
 30
0.0
 11
3.0
 21
0.0000000000002552
 31
0.0
210
0.0
220
0.0
230
-1.0
 40
0.4999999999999811
 41
3.141592653589793
 42
6.283185307179586
  0
ENDBLK
  5
E460
330
E449
100
AcDbEntity
  8
0
100
AcDbBlockEnd
  0
BLOCK
  5
EEA9
330
EEA8
100
AcDbEntity
  8
0
100
AcDbBlockBegin
  2
*D137
 70
     1
 10
0.0
 20
0.0
 30
0.0
  3
*D137
  1

  0
LINE
  5
F029
330
EEA8
100
AcDbEntity
  8
0
 62
     3
100
AcDbLine
 10
75.49846963915285
 20
263.748564609405
 30
0.0
 11
97.41092356132657
 21
263.748564609405
 31
0.0
  0
LINE
  5
F02A
330
EEA8
100
AcDbEntity
  8
0
 62
     3
100
AcDbLine
 10
75.49846963915285
 20
271.748564609405
 30
0.0
 11
97.41092356132657
 21
271.748564609405
 31
0.0
  0
LINE
  5
F02B
330
EEA8
100
AcDbEntity
  8
0
 62
     3
100
AcDbLine
 10
95.41092356132656
 20
266.248564609405
 30
0.0
 11
95.41092356132656
 21
269.248564609405
 31
0.0
  0
LINE
  5
F02C
330
EEA8
100
AcDbEntity
  8
0
 62
     3
100
AcDbLine
 10
95.41092356132656
 20
271.748564609405
 30
0.0
 11
95.41092356132658
 21
290.1605179355594
 31
0.0
  0
INSERT
  5
F02D
330
EEA8
100
AcDbEntity
  8
0
 62
     3
100
AcDbBlockReference
  2
_Open
 10
95.41092356132656
 20
263.748564609405
 30
0.0
 41
2.5
 42
2.5
 43
2.5
 50
270.0
  0
INSERT
  5
F02E
330
EEA8
100
AcDbEntity
  8
0
 62
     3
100
AcDbBlockReference
  2
_Open
 10
95.41092356132656
 20
271.748564609405
 30
0.0
 41
2.5
 42
2.5
 43
2.5
 50
90.0
  0
MTEXT
  5
F02F
330
EEA8
100
AcDbEntity
  8
0
 62
     2
100
AcDbMText
 10
92.16092356132653
 20
282.2045412724822
 30
0.0
 40
3.5
 41
0.0
 71
     5
 72
     1
  1
\A1;%%c8下穴
 11
0.0000000000000001
 21
1.0
 31
0.0
 73
     1
 44
1.0
1001
ACAD
1000
MTEXTBEGIN
1070
    73
1070
     1
1070
    44
1040
1.0
1070
    74
1070
     0
1000
MTEXTEND
  0
POINT
  5
F030
330
EEA8
100
AcDbEntity
  8
DEFPOINTS
 62
     0
100
AcDbPoint
 10
75.49846963915285
 20
263.748564609405
 30
0.0
  0
POINT
  5
F031
330
EEA8
100
AcDbEntity
  8
DEFPOINTS
 62
     0
100
AcDbPoint
 10
75.49846963915285
 20
271.748564609405
 30
0.0
  0
POINT
  5
F032
330
EEA8
100
AcDbEntity
  8
DEFPOINTS
 62
     0
100
AcDbPoint
 10
95.41092356132656
 20
271.748564609405
 30
0.0
  0
ENDBLK
  5
EEAA
330
EEA8
100
AcDbEntity
  8
0
100
AcDbBlockEnd
  0
BLOCK
  5
EF0C
330
EF09
100
AcDbEntity
  8
0
100
AcDbBlockBegin
  2
A$C124820DC-1
 70
     0
 10
0.0
 20
0.0
 30
0.0
  3
A$C124820DC-1
  1

  0
LINE
  5
EF0D
330
EF09
100
AcDbEntity
  8
4A
100
AcDbLine
 10
0.0
 20
-3.725006000000007
 30
0.0
 11
2.0
 21
-3.725006000000007
 31
0.0
  0
LINE
  5
EF0E
330
EF09
100
AcDbEntity
  8
4A
100
AcDbLine
 10
0.0
 20
3.724991000000045
 30
0.0
 11
2.0
 21
3.724991000000045
 31
0.0
  0
LINE
  5
EF0F
330
EF09
100
AcDbEntity
  8
4A
100
AcDbLine
 10
0.0
 20
-4.0
 30
0.0
 11
0.0
 21
4.0
 31
0.0
  0
LINE
  5
EF10
330
EF09
100
AcDbEntity
  8
4A
100
AcDbLine
 10
8.000014999999962
 20
3.752731000000039
 30
0.0
 11
2.000045999999997
 21
3.752731000000039
 31
0.0
  0
LINE
  5
EF11
330
EF09
100
AcDbEntity
  8
4A
100
AcDbLine
 10
8.000014999999962
 20
-3.752806999999961
 30
0.0
 11
2.000045999999997
 21
-3.752806999999961
 31
0.0
  0
LINE
  5
EF12
330
EF09
100
AcDbEntity
  8
4A
100
AcDbLine
 10
8.000015000000075
 20
7.505493000000001
 30
0.0
 11
8.000014999999962
 21
-7.505584999999996
 31
0.0
  0
LINE
  5
EF13
330
EF09
100
AcDbEntity
  8
4A
100
AcDbLine
 10
8.000014999999962
 20
-7.505584999999996
 30
0.0
 11
2.000045999999997
 21
-7.505584999999996
 31
0.0
  0
LINE
  5
EF14
330
EF09
100
AcDbEntity
  8
4A
100
AcDbLine
 10
8.000015000000075
 20
7.505493000000001
 30
0.0
 11
2.000045999999997
 21
7.505493000000001
 31
0.0
  0
LINE
  5
EF15
330
EF09
100
AcDbEntity
  8
4A
100
AcDbLine
 10
2.0
 20
-7.505584999999996
 30
0.0
 11
2.0
 21
7.505493000000001
 31
0.0
  0
LINE
  5
EF16
330
EF09
100
AcDbEntity
  8
4A
100
AcDbLine
 10
0.0
 20
-4.0
 30
0.0
 11
-5.0
 21
-4.0
 31
0.0
  0
LINE
  5
EF17
330
EF09
100
AcDbEntity
  8
4A
100
AcDbLine
 10
0.0
 20
4.0
 30
0.0
 11
-5.0
 21
4.0
 31
0.0
  0
ENDBLK
  5
EF18
330
EF09
100
AcDbEntity
  8
0
100
AcDbBlockEnd
  0
BLOCK
  5
EF1C
330
EF19
100
AcDbEntity
  8
0
100
AcDbBlockBegin
  2
A$C1228088A
 70
     0
 10
0.0
 20
0.0
 30
0.0
  3
A$C1228088A
  1

  0
LINE
  5
EF1D
330
EF19
100
AcDbEntity
  8
0
100
AcDbLine
 10
-6.5
 20
3.752776749732589
 30
0.0
 11
-6.5
 21
-3.752776749732504
 31
0.0
  0
LINE
  5
EF1E
330
EF19
100
AcDbEntity
  8
0
100
AcDbLine
 10
6.5
 20
3.752776749732589
 30
0.0
 11
6.499999999999971
 21
-3.752776749732532
 31
0.0
  0
LINE
  5
EF1F
330
EF19
100
AcDbEntity
  8
0
100
AcDbLine
 10
0.0
 20
7.50555349946515
 30
0.0
 11
-6.5
 21
3.752776749732589
 31
0.0
  0
LINE
  5
EF20
330
EF19
100
AcDbEntity
  8
0
100
AcDbLine
 10
-0.0000000000000284
 20
7.50555349946515
 30
0.0
 11
6.5
 21
3.752776749732589
 31
0.0
  0
LINE
  5
EF21
330
EF19
100
AcDbEntity
  8
0
100
AcDbLine
 10
0.0000000000000284
 20
-7.50555349946515
 30
0.0
 11
-6.499999999999971
 21
-3.752776749732561
 31
0.0
  0
LINE
  5
EF22
330
EF19
100
AcDbEntity
  8
0
100
AcDbLine
 10
-0.0000000000000284
 20
-7.50555349946515
 30
0.0
 11
6.499999999999971
 21
-3.752776749732561
 31
0.0
  0
ENDBLK
  5
EF23
330
EF19
100
AcDbEntity
  8
0
100
AcDbBlockEnd
  0
BLOCK
  5
EFFD
330
EFFC
100
AcDbEntity
  8
0
100
AcDbBlockBegin
  2
*D140
 70
     1
 10
0.0
 20
0.0
 30
0.0
  3
*D140
  1

  0
LINE
  5
F033
330
EFFC
100
AcDbEntity
  8
0
 62
     3
100
AcDbLine
 10
-57.50152536084721
 20
260.2485085718323
 30
0.0
 11
-77.75325213236309
 21
260.2485085718323
 31
0.0
  0
LINE
  5
F034
330
EFFC
100
AcDbEntity
  8
0
 62
     3
100
AcDbLine
 10
-57.50152536084721
 20
275.2485085718323
 30
0.0
 11
-77.75325213236309
 21
275.2485085718323
 31
0.0
  0
LINE
  5
F035
330
EFFC
100
AcDbEntity
  8
0
 62
     3
100
AcDbLine
 10
-75.75325213236308
 20
262.7485085718323
 30
0.0
 11
-75.75325213236308
 21
272.7485085718323
 31
0.0
  0
LINE
  5
F036
330
EFFC
100
AcDbEntity
  8
0
 62
     3
100
AcDbLine
 10
-75.75325213236308
 20
275.2485085718323
 30
0.0
 11
-75.75325213236308
 21
295.4104618979867
 31
0.0
  0
INSERT
  5
F037
330
EFFC
100
AcDbEntity
  8
0
 62
     3
100
AcDbBlockReference
  2
_Open
 10
-75.75325213236308
 20
260.2485085718323
 30
0.0
 41
2.5
 42
2.5
 43
2.5
 50
270.0
  0
INSERT
  5
F038
330
EFFC
100
AcDbEntity
  8
0
 62
     3
100
AcDbBlockReference
  2
_Open
 10
-75.75325213236308
 20
275.2485085718323
 30
0.0
 41
2.5
 42
2.5
 43
2.5
 50
90.0
  0
MTEXT
  5
F039
330
EFFC
100
AcDbEntity
  8
0
 62
     2
100
AcDbMText
 10
-79.00325213236313
 20
286.5794852349095
 30
0.0
 40
3.5
 41
0.0
 71
     5
 72
     1
  1
\A1;%%c15下穴
 11
0.0000000000000001
 21
1.0
 31
0.0
 73
     1
 44
1.0
1001
ACAD
1000
MTEXTBEGIN
1070
    73
1070
     1
1070
    44
1040
1.0
1070
    74
1070
     0
1000
MTEXTEND
  0
POINT
  5
F03A
330
EFFC
100
AcDbEntity
  8
DEFPOINTS
 62
     0
100
AcDbPoint
 10
-57.50152536084721
 20
260.2485085718323
 30
0.0
  0
POINT
  5
F03B
330
EFFC
100
AcDbEntity
  8
DEFPOINTS
 62
     0
100
AcDbPoint
 10
-57.50152536084721
 20
275.2485085718323
 30
0.0
  0
POINT
  5
F03C
330
EFFC
100
AcDbEntity
  8
DEFPOINTS
 62
     0
100
AcDbPoint
 10
-75.75325213236308
 20
275.2485085718323
 30
0.0
  0
ENDBLK
  5
EFFE
330
EFFC
100
AcDbEntity
  8
0
100
AcDbBlockEnd
  0
BLOCK
  5
F11B
330
F11A
100
AcDbEntity
  8
0
100
AcDbBlockBegin
  2
_ACMFILLED15
 70
     0
 10
0.0
 20
0.0
 30
0.0
  3
_ACMFILLED15
  1

  0
TRACE
  5
F11D
330
F11A
100
AcDbEntity
  8
0
 62
     0
100
AcDbTrace
 10
-1.0
 20
-0.131652497
 30
0.0
 11
-1.0
 21
0.131652497
 31
0.0
 12
0.0
 22
0.0
 32
0.0
 13
0.0
 23
0.0
 33
0.0
  0
ENDBLK
  5
F11C
330
F11A
100
AcDbEntity
  8
0
100
AcDbBlockEnd
  0
ENDSEC
  0
SECTION
  2
ENTITIES
  0
MTEXT
  5
9040
330
18
100
AcDbEntity
  8
0
 62
     2
100
AcDbMText
 10
725.8302334741317
 20
462.3337694669714
 30
0.0
 40
3.5
 41
6.771099999999999
 71
     1
 72
     1
  1

 73
     1
 44
1.0
1001
ACDBBLOCKREPETAG
1070
     1
1071
        0
1005
9040
1001
ACAD
1000
MTEXTBEGIN
1070
    73
1070
     1
1070
    44
1040
1.0
1070
    74
1070
     0
1000
MTEXTEND
  0
MTEXT
  5
9041
330
18
100
AcDbEntity
  8
0
 62
     2
100
AcDbMText
 10
644.22800264287
 20
458.8337694669714
 30
0.0
 40
3.5
 41
19.1536
 71
     9
 72
     1
  1

 73
     1
 44
1.0
1001
ACDBBLOCKREPETAG
1070
     1
1071
        1
1005
9041
1001
ACAD
1000
MTEXTBEGIN
1070
    73
1070
     1
1070
    44
1040
1.0
1070
    74
1070
     0
1000
MTEXTEND
  0
MTEXT
  5
9042
330
18
100
AcDbEntity
  8
0
100
AcDbMText
 10
91.50728563183724
 20
133.5907727525446
 30
0.0
 40
3.5
 41
62.45709999999999
 71
     1
 72
     5
  1

 73
     1
 44
1.0
1001
ACDBBLOCKREPETAG
1070
     1
1071
        2
1005
9042
1001
ACAD
1000
MTEXTBEGIN
1070
    73
1070
     1
1070
    44
1040
1.0
1070
    74
1070
     0
1000
MTEXTEND
  0
MTEXT
  5
9043
330
18
100
AcDbEntity
  8
0
 62
     2
100
AcDbMText
 10
220.4913533957434
 20
158.6405205428185
 30
0.0
 40
3.5
 41
131.3072
 71
     7
 72
     1
  1

 73
     1
 44
1.0
1001
ACDBBLOCKREPETAG
1070
     1
1071
        3
1005
9043
1001
ACAD
1000
MTEXTBEGIN
1070
    73
1070
     1
1070
    44
1040
1.0
1070
    74
1070
     0
1000
MTEXTEND
  0
MTEXT
  5
A856
330
18
100
AcDbEntity
  8
0
 62
     2
100
AcDbMText
 10
180.0469659806923
 20
146.8667252221584
 30
0.0
 40
3.5
 41
131.3072382375658
 71
     7
 72
     1
  1
\A1;
 73
     1
 44
1.0
1001
ACAD
1000
MTEXTBEGIN
1070
    73
1070
     1
1070
    44
1040
1.0
1070
    74
1070
     0
1000
MTEXTEND
  0
MTEXT
  5
E33A
330
18
100
AcDbEntity
  8
0
 62
     2
100
AcDbMText
 10
725.8302334741317
 20
462.3337694669714
 30
0.0
 40
3.5
 41
6.771099999999999
 71
     1
 72
     1
  1

 73
     1
 44
1.0
1001
ACDBBLOCKREPETAG
1070
     1
1071
        0
1005
E33A
1001
ACAD
1000
MTEXTBEGIN
1070
    73
1070
     1
1070
    44
1040
1.0
1070
    74
1070
     0
1000
MTEXTEND
  0
MTEXT
  5
E33B
330
18
100
AcDbEntity
  8
0
 62
     2
100
AcDbMText
 10
644.22800264287
 20
458.8337694669714
 30
0.0
 40
3.5
 41
19.1536
 71
     9
 72
     1
  1

 73
     1
 44
1.0
1001
ACDBBLOCKREPETAG
1070
     1
1071
        1
1005
E33B
1001
ACAD
1000
MTEXTBEGIN
1070
    73
1070
     1
1070
    44
1040
1.0
1070
    74
1070
     0
1000
MTEXTEND
  0
MTEXT
  5
E33C
330
18
100
AcDbEntity
  8
0
100
AcDbMText
 10
91.50728563183724
 20
133.5907727525446
 30
0.0
 40
3.5
 41
62.45709999999999
 71
     1
 72
     5
  1

 73
     1
 44
1.0
1001
ACDBBLOCKREPETAG
1070
     1
1071
        2
1005
E33C
1001
ACAD
1000
MTEXTBEGIN
1070
    73
1070
     1
1070
    44
1040
1.0
1070
    74
1070
     0
1000
MTEXTEND
  0
MTEXT
  5
E33D
330
18
100
AcDbEntity
  8
0
 62
     2
100
AcDbMText
 10
220.4913533957434
 20
158.6405205428185
 30
0.0
 40
3.5
 41
131.3072
 71
     7
 72
     1
  1

 73
     1
 44
1.0
1001
ACDBBLOCKREPETAG
1070
     1
1071
        3
1005
E33D
1001
ACAD
1000
MTEXTBEGIN
1070
    73
1070
     1
1070
    44
1040
1.0
1070
    74
1070
     0
1000
MTEXTEND
  0
MTEXT
  5
E33E
330
18
100
AcDbEntity
  8
0
 62
     2
100
AcDbMText
 10
180.0469659806923
 20
146.8667252221584
 30
0.0
 40
3.5
 41
131.3072382375658
 71
     7
 72
     1
  1
\A1;
 73
     1
 44
1.0
1001
ACAD
1000
MTEXTBEGIN
1070
    73
1070
     1
1070
    44
1040
1.0
1070
    74
1070
     0
1000
MTEXTEND
  0
TEXT
  5
E33F
330
18
100
AcDbEntity
  8
SUNPOU
100
AcDbText
 10
-447.8768037888425
 20
111.9360511193997
 30
0.0
 40
3.5
  1

  7
BIGFONT
100
AcDbText
  0
TEXT
  5
E340
330
18
100
AcDbEntity
  8
SUNPOU
100
AcDbText
 10
-305.7850241439334
 20
139.331155584361
 30
0.0
 40
3.5
  1

  7
BIGFONT
100
AcDbText
  0
TEXT
  5
E341
330
18
100
AcDbEntity
  8
SUNPOU
  6
Continuous
 48
3.0
100
AcDbText
 10
-164.3935397559994
 20
55.94719848308205
 30
0.0
 40
3.5
  1

 50
359.7804362230555
 41
0.6085702442471829
  7
BIGFONT
 72
     5
 11
-149.4836782488184
 21
55.8900619617043
 31
0.0
100
AcDbText
  0
TEXT
  5
E359
330
18
100
AcDbEntity
  8
SUNPOU
  6
Continuous
 48
3.0
100
AcDbText
 10
-420.7937038691653
 20
655.3014619987245
 30
0.0
 40
3.5
  1

 50
359.7804362230555
 41
0.6085702442471829
  7
BIGFONT
 72
     5
 11
-405.8838423619844
 21
655.2443254773468
 31
0.0
100
AcDbText
  0
TEXT
  5
E35A
330
18
100
AcDbEntity
  8
SUNPOU
100
AcDbText
 10
-562.1851882570992
 20
738.6854191000034
 30
0.0
 40
3.5
  1

  7
BIGFONT
100
AcDbText
  0
TEXT
  5
E35B
330
18
100
AcDbEntity
  8
SUNPOU
100
AcDbText
 10
-704.2769679020084
 20
711.2903146350422
 30
0.0
 40
3.5
  1

  7
BIGFONT
100
AcDbText
  0
LINE
  5
E870
330
18
100
AcDbEntity
  8
0
100
AcDbLine
 10
66.49846963915291
 20
252.748564609406
 30
0.0
 11
66.49846963915297
 21
234.248564609406
 31
0.0
  0
ARC
  5
E884
330
18
100
AcDbEntity
  8
4A
100
AcDbCircle
 10
25.99846963915292
 20
223.9978099105797
 30
0.0
 40
4.249404206397255
100
AcDbArc
 50
241.9232285871793
 51
298.0767714128352
  0
ARC
  5
E885
330
18
100
AcDbEntity
  8
4A
100
AcDbCircle
 10
25.99846963915292
 20
219.4991604030088
 30
0.0
 40
4.249404206397255
100
AcDbArc
 50
61.92322858716476
 51
118.0767714128207
  0
LINE
  5
E886
330
18
100
AcDbEntity
  8
4A
100
AcDbLine
 10
22.56906463915328
 20
219.7484851567942
 30
0.0
 11
29.37590363915331
 21
219.7484851567942
 31
0.0
  0
LINE
  5
E887
330
18
100
AcDbEntity
  8
4A
100
AcDbLine
 10
23.99846963915292
 20
206.7484891567942
 30
0.0
 11
27.99846963915348
 21
206.7484891567942
 31
0.0
  0
ARC
  5
E888
330
18
100
AcDbEntity
  8
4A
100
AcDbCircle
 10
27.99846963915348
 20
209.2484891567956
 30
0.0
 40
2.500000000000591
100
AcDbArc
 50
216.8698976458514
 51
323.1301023541299
  0
LINE
  5
E889
330
18
100
AcDbEntity
  8
4A
100
AcDbLine
 10
21.99846963915326
 20
210.2484891567942
 30
0.0
 11
29.99846963915326
 21
210.2484891567942
 31
0.0
  0
LINE
  5
E88A
330
18
100
AcDbEntity
  8
0
100
AcDbLine
 10
30.59846963915294
 20
223.7485646094061
 30
0.0
 11
16.99846963915291
 21
223.7485646094061
 31
0.0
  0
LINE
  5
E88E
330
18
100
AcDbEntity
  8
0
100
AcDbLine
 10
14.99846963915291
 20
225.748564609406
 30
0.0
 11
16.99846963915291
 21
223.7485646094061
 31
0.0
  0
LINE
  5
E891
330
18
100
AcDbEntity
  8
7A
100
AcDbLine
 10
25.99846963915326
 20
205.7484891567942
 30
0.0
 11
25.99846963915326
 21
224.748564609406
 31
0.0
  0
LINE
  5
E892
330
18
100
AcDbEntity
  8
4A
100
AcDbLine
 10
23.49846963915326
 20
210.2484891567942
 30
0.0
 11
23.49846963915326
 21
219.7484851567942
 31
0.0
  0
LINE
  5
E893
330
18
100
AcDbEntity
  8
4A
100
AcDbLine
 10
23.99846963915326
 20
210.2484891567942
 30
0.0
 11
23.99846963915326
 21
219.7484851567942
 31
0.0
  0
LINE
  5
E894
330
18
100
AcDbEntity
  8
4A
100
AcDbLine
 10
25.99846963915326
 20
207.748489156795
 30
0.0
 11
25.99846963915326
 21
210.2484891567942
 31
0.0
  0
LINE
  5
E895
330
18
100
AcDbEntity
  8
4A
100
AcDbLine
 10
21.99846963915326
 20
207.7484891567942
 30
0.0
 11
21.99846963915326
 21
210.2484891567942
 31
0.0
  0
ARC
  5
E896
330
18
100
AcDbEntity
  8
4A
100
AcDbCircle
 10
23.99846963915292
 20
209.2484891567956
 30
0.0
 40
2.500000000000591
100
AcDbArc
 50
216.8698976458701
 51
323.1301023541485
  0
LINE
  5
E897
330
18
100
AcDbEntity
  8
4A
100
AcDbLine
 10
23.99846963915326
 20
220.2484851567942
 30
0.0
 11
23.99846963915326
 21
223.2484851567942
 31
0.0
  0
LINE
  5
E898
330
18
100
AcDbEntity
  8
4A
100
AcDbLine
 10
21.39847163915334
 20
220.2484851567942
 30
0.0
 11
21.39847163915334
 21
223.2484851567942
 31
0.0
  0
ARC
  5
E899
330
18
100
AcDbEntity
  8
4A
100
AcDbCircle
 10
22.69847063915353
 20
221.6717366439578
 30
0.0
 40
1.927600113020037
100
AcDbArc
 50
227.5914000326132
 51
312.4085999673689
  0
ARC
  5
E89A
330
18
100
AcDbEntity
  8
4A
100
AcDbCircle
 10
22.69847063915353
 20
221.8252336696306
 30
0.0
 40
1.927600113020037
100
AcDbArc
 50
47.59140003263113
 51
132.4085999673868
  0
LINE
  5
E89C
330
18
100
AcDbEntity
  8
0
100
AcDbLine
 10
7.498469639152915
 20
239.249047609406
 30
0.0
 11
7.498469639152915
 21
227.749048609406
 31
0.0
  0
LINE
  5
E89F
330
18
100
AcDbEntity
  8
0
100
AcDbLine
 10
14.49846963915291
 20
229.749048609406
 30
0.0
 11
14.99846963915291
 21
229.7490486094061
 31
0.0
  0
LINE
  5
E8A4
330
18
100
AcDbEntity
  8
0
100
AcDbLine
 10
14.49846963915291
 20
229.749048609406
 30
0.0
 11
14.49846963915291
 21
227.749048609406
 31
0.0
  0
LINE
  5
E8A5
330
18
100
AcDbEntity
  8
0
100
AcDbLine
 10
7.498469639152915
 20
227.749048609406
 30
0.0
 11
14.49846963915291
 21
227.749048609406
 31
0.0
  0
LINE
  5
E8A9
330
18
100
AcDbEntity
  8
0
100
AcDbLine
 10
14.99846963915291
 20
225.748564609406
 30
0.0
 11
14.99846963915291
 21
229.7490486094061
 31
0.0
  0
LINE
  5
E8B3
330
18
100
AcDbEntity
  8
4A
100
AcDbLine
 10
54.49846963915295
 20
233.7485646094061
 30
0.0
 11
56.99846963915295
 21
233.748564609406
 31
0.0
  0
LINE
  5
E8B7
330
18
100
AcDbEntity
  8
0
100
AcDbLine
 10
32.99846963915292
 20
223.748564609406
 30
0.0
 11
61.99846963915295
 21
223.748564609406
 31
0.0
  0
LINE
  5
E8B8
330
18
100
AcDbEntity
  8
4A
100
AcDbLine
 10
52.49846963915294
 20
233.7485646094061
 30
0.0
 11
52.49846963915294
 21
223.7940426577342
 31
0.0
  0
LINE
  5
E8B9
330
18
100
AcDbEntity
  8
4A
100
AcDbLine
 10
51.99846963915295
 20
233.7485646094061
 30
0.0
 11
51.99846963915295
 21
223.8196447501607
 31
0.0
  0
LINE
  5
E8BA
330
18
100
AcDbEntity
  8
7A
100
AcDbLine
 10
54.49846963915295
 20
222.7485646094059
 30
0.0
 11
54.49846963915295
 21
234.7485646094061
 31
0.0
  0
LINE
  5
E8BD
330
18
100
AcDbEntity
  8
0
100
AcDbLine
 10
30.89846963915289
 20
226.248564609406
 30
0.0
 11
30.89846963915295
 21
224.0485646094061
 31
0.0
  0
LINE
  5
E8BE
330
18
100
AcDbEntity
  8
0
100
AcDbLine
 10
32.69846963915287
 20
226.448564609406
 30
0.0
 11
32.6984696391529
 21
224.048564609406
 31
0.0
  0
LINE
  5
E8BF
330
18
100
AcDbEntity
  8
4A
100
AcDbLine
 10
28.49846963915326
 20
210.2484891567942
 30
0.0
 11
28.49846963915326
 21
219.7484851567942
 31
0.0
  0
LINE
  5
E8C0
330
18
100
AcDbEntity
  8
4A
100
AcDbLine
 10
27.99846963915326
 20
210.2484891567942
 30
0.0
 11
27.99846963915326
 21
219.7484851567942
 31
0.0
  0
LINE
  5
E8C5
330
18
100
AcDbEntity
  8
4A
100
AcDbLine
 10
29.99846963915326
 20
207.7484891567943
 30
0.0
 11
29.99846963915326
 21
210.2484891567942
 31
0.0
  0
LINE
  5
E8C6
330
18
100
AcDbEntity
  8
4A
100
AcDbLine
 10
27.99846963915332
 20
220.2484851567942
 30
0.0
 11
27.99846963915332
 21
223.2484851567942
 31
0.0
  0
LINE
  5
E8C7
330
18
100
AcDbEntity
  8
4A
100
AcDbLine
 10
30.59846863915328
 20
220.2484851567942
 30
0.0
 11
30.59846863915328
 21
223.2484851567942
 31
0.0
  0
ARC
  5
E8C8
330
18
100
AcDbEntity
  8
4A
100
AcDbCircle
 10
29.29846913915373
 20
221.6824877550032
 30
0.0
 40
1.935552156794072
100
AcDbArc
 50
227.8060229425885
 51
312.1939770573752
  0
ARC
  5
E8C9
330
18
100
AcDbEntity
  8
4A
100
AcDbCircle
 10
29.29846913915373
 20
221.8144825585853
 30
0.0
 40
1.935552156794072
100
AcDbArc
 50
47.80602294262475
 51
132.1939770574115
  0
LINE
  5
E8CF
330
18
100
AcDbEntity
  8
0
100
AcDbLine
 10
31.99846963915291
 20
226.448564609406
 30
0.0
 11
31.99846963915291
 21
226.748564609406
 31
0.0
  0
LINE
  5
E8D1
330
18
100
AcDbEntity
  8
0
100
AcDbLine
 10
31.39846963915289
 20
226.748564609406
 30
0.0
 11
31.99846963915291
 21
226.748564609406
 31
0.0
  0
ARC
  5
E8DC
330
18
100
AcDbEntity
  8
0
100
AcDbCircle
 10
31.39846963915289
 20
226.248564609406
 30
0.0
 40
0.5
100
AcDbArc
 50
90.0
 51
180.0
  0
LINE
  5
E8DF
330
18
100
AcDbEntity
  8
0
100
AcDbLine
 10
31.99846963915291
 20
226.448564609406
 30
0.0
 11
32.69846963915287
 21
226.448564609406
 31
0.0
  0
LINE
  5
E8EE
330
18
100
AcDbEntity
  8
4A
100
AcDbLine
 10
54.49846963915295
 20
233.7485646094061
 30
0.0
 11
51.99846963915295
 21
233.7485646094061
 31
0.0
  0
LINE
  5
E8F6
330
18
100
AcDbEntity
  8
4A
100
AcDbLine
 10
56.49846963915294
 20
233.748564609406
 30
0.0
 11
56.49846963915294
 21
223.7940426577342
 31
0.0
  0
LINE
  5
E8F7
330
18
100
AcDbEntity
  8
4A
100
AcDbLine
 10
56.99846963915295
 20
233.748564609406
 30
0.0
 11
56.99846963915295
 21
223.8196447501607
 31
0.0
  0
LINE
  5
E8F8
330
18
100
AcDbEntity
  8
0
100
AcDbLine
 10
61.99846963915295
 20
223.748564609406
 30
0.0
 11
62.99846963915294
 21
224.748564609406
 31
0.0
  0
LINE
  5
E905
330
18
100
AcDbEntity
  8
0
100
AcDbLine
 10
62.99846963915297
 20
225.248564609406
 30
0.0
 11
65.49846963915294
 21
225.248564609406
 31
0.0
  0
LINE
  5
E906
330
18
100
AcDbEntity
  8
0
100
AcDbLine
 10
65.49846963915294
 20
225.248564609406
 30
0.0
 11
66.49846963915294
 21
226.248564609406
 31
0.0
  0
LINE
  5
E90A
330
18
100
AcDbEntity
  8
4A
100
AcDbLine
 10
75.49846963915294
 20
257.748564609406
 30
0.0
 11
-3.501530360847084
 21
257.748564609406
 31
0.0
  0
LINE
  5
E90B
330
18
100
AcDbEntity
  8
4A
100
AcDbLine
 10
75.49846963915294
 20
277.2879566235755
 30
0.0
 11
-3.501530360847084
 21
277.2879566235755
 31
0.0
  0
LINE
  5
E90C
330
18
100
AcDbEntity
  8
4A
100
AcDbLine
 10
75.49846963915294
 20
280.5485646094061
 30
0.0
 11
-3.501530360847084
 21
280.548564609406
 31
0.0
  0
ARC
  5
E90E
330
18
100
AcDbEntity
  8
0
100
AcDbCircle
 10
23.85711813915276
 20
313.7928380003832
 30
0.0
 40
0.9287726090230423
100
AcDbArc
 50
23.86999038996564
 51
156.1300096100164
  0
ARC
  5
E90F
330
18
100
AcDbEntity
  8
0
100
AcDbCircle
 10
23.85711813915276
 20
312.6773372184288
 30
0.0
 40
0.9287726090230423
100
AcDbArc
 50
203.8699903899872
 51
336.1300096100344
  0
LINE
  5
E910
330
18
100
AcDbEntity
  8
0
100
AcDbLine
 10
30.59846963915288
 20
311.748564609406
 30
0.0
 11
16.99846963915291
 21
311.7485646094061
 31
0.0
  0
LINE
  5
E916
330
18
100
AcDbEntity
  8
7A
100
AcDbLine
 10
-59.50152536084722
 20
267.7485646094062
 30
0.0
 11
77.49846963915294
 21
267.748564609406
 31
0.0
  0
LINE
  5
E920
330
18
100
AcDbEntity
  8
0
100
AcDbLine
 10
3.998469639152915
 20
296.249047609406
 30
0.0
 11
3.998469639152915
 21
293.249047609406
 31
0.0
  0
LINE
  5
E922
330
18
100
AcDbEntity
  8
0
100
AcDbLine
 10
-3.501530360847084
 20
282.249048609406
 30
0.0
 11
-3.501530360847084
 21
267.748564609406
 31
0.0
  0
LINE
  5
E930
330
18
100
AcDbEntity
  8
0
100
AcDbLine
 10
-3.001530360847084
 20
292.9490476094061
 30
0.0
 11
-3.001530360847084
 21
282.749048609406
 31
0.0
  0
LINE
  5
E931
330
18
100
AcDbEntity
  8
0
100
AcDbLine
 10
-2.70153136084707
 20
293.249050609406
 30
0.0
 11
-3.001534360847074
 21
292.9490476094061
 31
0.0
  0
LINE
  5
E934
330
18
100
AcDbEntity
  8
0
100
AcDbLine
 10
-3.001534360847074
 20
282.749047609406
 30
0.0
 11
-3.501534360847074
 21
282.249046609406
 31
0.0
  0
LINE
  5
E93A
330
18
100
AcDbEntity
  8
0
100
AcDbLine
 10
-2.701534360847006
 20
293.2490476094061
 30
0.0
 11
3.998469639152915
 21
293.249047609406
 31
0.0
  0
LINE
  5
E95B
330
18
100
AcDbEntity
  8
0
100
AcDbLine
 10
3.998469639152915
 20
296.249047609406
 30
0.0
 11
7.498469639152915
 21
296.249047609406
 31
0.0
  0
LINE
  5
E964
330
18
100
AcDbEntity
  8
0
100
AcDbLine
 10
7.498469639152915
 20
307.749048609406
 30
0.0
 11
7.498469639152915
 21
296.249047609406
 31
0.0
  0
LINE
  5
E978
330
18
100
AcDbEntity
  8
0
100
AcDbLine
 10
14.49846963915291
 20
305.7490486094061
 30
0.0
 11
14.99846963915291
 21
305.7490486094061
 31
0.0
  0
LINE
  5
E979
330
18
100
AcDbEntity
  8
0
100
AcDbLine
 10
7.498469639152915
 20
307.749048609406
 30
0.0
 11
14.49846963915291
 21
307.749048609406
 31
0.0
  0
LINE
  5
E97A
330
18
100
AcDbEntity
  8
0
100
AcDbLine
 10
14.49846963915291
 20
307.749048609406
 30
0.0
 11
14.49846963915291
 21
305.7490486094061
 31
0.0
  0
LINE
  5
E97B
330
18
100
AcDbEntity
  8
0
100
AcDbLine
 10
14.99846963915291
 20
309.7485646094061
 30
0.0
 11
16.99846963915291
 21
311.7485646094061
 31
0.0
  0
LINE
  5
E97C
330
18
100
AcDbEntity
  8
0
100
AcDbLine
 10
23.00778813915286
 20
314.205061609406
 30
0.0
 11
23.00778813915286
 21
312.346556609406
 31
0.0
  0
LINE
  5
E980
330
18
100
AcDbEntity
  8
0
100
AcDbLine
 10
14.99846963915291
 20
309.7485646094061
 30
0.0
 11
14.99846963915291
 21
305.7490486094061
 31
0.0
  0
LINE
  5
E981
330
18
100
AcDbEntity
  8
0
100
AcDbLine
 10
66.49846963915291
 20
282.748564609406
 30
0.0
 11
66.49846963915294
 21
309.248564609406
 31
0.0
  0
LINE
  5
E989
330
18
100
AcDbEntity
  8
0
100
AcDbLine
 10
31.99846963915291
 20
309.0485646094061
 30
0.0
 11
31.99846963915291
 21
308.7485646094061
 31
0.0
  0
LINE
  5
E9AA
330
18
100
AcDbEntity
  8
0
100
AcDbLine
 10
75.49846963915294
 20
282.248564609406
 30
0.0
 11
75.49846963915283
 21
267.748564609406
 31
0.0
  0
LINE
  5
E9AB
330
18
100
AcDbEntity
  8
0
100
AcDbLine
 10
75.49846963915294
 20
253.748564609406
 30
0.0
 11
75.49846963915283
 21
267.748564609406
 31
0.0
  0
LINE
  5
E9B2
330
18
100
AcDbEntity
  8
0
100
AcDbLine
 10
74.49846963915295
 20
252.748564609406
 30
0.0
 11
75.49846963915294
 21
253.748564609406
 31
0.0
  0
LINE
  5
E9B4
330
18
100
AcDbEntity
  8
0
100
AcDbLine
 10
66.49846963915291
 20
252.748564609406
 30
0.0
 11
74.49846963915295
 21
252.748564609406
 31
0.0
  0
LINE
  5
E9C2
330
18
100
AcDbEntity
  8
0
100
AcDbLine
 10
74.99846963915294
 20
282.748564609406
 30
0.0
 11
75.49846963915294
 21
282.248564609406
 31
0.0
  0
LINE
  5
E9C3
330
18
100
AcDbEntity
  8
0
100
AcDbLine
 10
66.49846963915291
 20
282.748564609406
 30
0.0
 11
74.99846963915294
 21
282.748564609406
 31
0.0
  0
LINE
  5
E9C4
330
18
100
AcDbEntity
  8
0
100
AcDbLine
 10
49.49846963915291
 20
327.248564609406
 30
0.0
 11
59.49846963915295
 21
327.2485646094061
 31
0.0
  0
LINE
  5
E9C5
330
18
100
AcDbEntity
  8
0
100
AcDbLine
 10
59.99846963915292
 20
323.7485646094061
 30
0.0
 11
54.49846963915291
 21
323.7485646094061
 31
0.0
  0
LINE
  5
E9C6
330
18
100
AcDbEntity
  8
0
100
AcDbLine
 10
59.99846963915292
 20
322.7485646094061
 30
0.0
 11
54.49846963915291
 21
322.7485646094061
 31
0.0
  0
ELLIPSE
  5
E9C7
330
18
100
AcDbEntity
  8
0
100
AcDbEllipse
 10
54.49846963915297
 20
318.248564609406
 30
0.0
 11
-3.464101615137763
 21
-0.0000000000000656
 31
0.0
210
0.0
220
0.0
230
1.0
 40
0.4330127018922222
 41
3.14159265358973
 42
6.283185307179556
  0
LINE
  5
E9C8
330
18
100
AcDbEntity
  8
0
100
AcDbLine
 10
49.30231721644634
 20
319.7485646094061
 30
0.0
 11
59.69462206185955
 21
319.748564609406
 31
0.0
  0
LINE
  5
E9C9
330
18
100
AcDbEntity
  8
0
100
AcDbLine
 10
49.49846963915291
 20
328.748564609406
 30
0.0
 11
59.49846963915295
 21
328.748564609406
 31
0.0
  0
LINE
  5
E9CA
330
18
100
AcDbEntity
  8
0
100
AcDbLine
 10
32.99846963915292
 20
311.7485646094061
 30
0.0
 11
61.99846963915295
 21
311.7485646094061
 31
0.0
  0
LINE
  5
E9CC
330
18
100
AcDbEntity
  8
0
100
AcDbLine
 10
51.03436802401521
 20
311.7485646094061
 30
0.0
 11
51.03436802401521
 21
318.2485646094061
 31
0.0
  0
LINE
  5
E9CD
330
18
100
AcDbEntity
  8
0
100
AcDbLine
 10
47.57026640887744
 20
311.7485646094061
 30
0.0
 11
47.57026640887744
 21
318.2485646094061
 31
0.0
  0
LINE
  5
E9CE
330
18
100
AcDbEntity
  8
7A
100
AcDbLine
 10
54.49846963915295
 20
310.748564609406
 30
0.0
 11
54.49846963915295
 21
329.748564609406
 31
0.0
  0
LINE
  5
E9CF
330
18
100
AcDbEntity
  8
0
100
AcDbLine
 10
30.20218476799312
 20
314.4439076262551
 30
0.0
 11
28.40669413915288
 21
317.5133136094059
 31
0.0
  0
LINE
  5
E9D0
330
18
100
AcDbEntity
  8
0
100
AcDbLine
 10
23.19478444410612
 20
314.4439390952044
 30
0.0
 11
24.99025513915285
 21
317.5133136094059
 31
0.0
  0
LINE
  5
E9D1
330
18
100
AcDbEntity
  8
7A
100
AcDbLine
 10
26.6984696391529
 20
321.3485646094058
 30
0.0
 11
26.6984696391529
 21
310.748564609406
 31
0.0
  0
ARC
  5
E9EF
330
18
100
AcDbEntity
  8
0
100
AcDbCircle
 10
26.6984696391529
 20
310.8568778200179
 30
0.0
 40
3.864732789388028
100
AcDbArc
 50
58.9734480589162
 51
121.0265519410838
  0
ARC
  5
E9F0
330
18
100
AcDbEntity
  8
0
100
AcDbCircle
 10
29.53982013915294
 20
313.7928380003832
 30
0.0
 40
0.9287726090230423
100
AcDbArc
 50
23.86999038998716
 51
156.1300096100343
  0
ARC
  5
E9F1
330
18
100
AcDbEntity
  8
0
100
AcDbCircle
 10
29.53982013915294
 20
312.6773372184288
 30
0.0
 40
0.9287726090230423
100
AcDbArc
 50
203.8699903899656
 51
336.1300096100129
  0
ARC
  5
E9F2
330
18
100
AcDbEntity
  8
0
100
AcDbCircle
 10
26.6984696391529
 20
315.613297398794
 30
0.0
 40
3.864732789388028
100
AcDbArc
 50
238.9734480589162
 51
301.0265519410838
  0
LINE
  5
E9F3
330
18
100
AcDbEntity
  8
0
100
AcDbLine
 10
28.69048913915288
 20
314.168677609406
 30
0.0
 11
28.69048913915288
 21
312.301497609406
 31
0.0
  0
LINE
  5
E9F4
330
18
100
AcDbEntity
  8
0
100
AcDbLine
 10
30.38915113915283
 20
314.205061609406
 30
0.0
 11
30.38915113915283
 21
312.346556609406
 31
0.0
  0
LINE
  5
E9F5
330
18
100
AcDbEntity
  8
0
100
AcDbLine
 10
24.70645013915288
 20
314.168677609406
 30
0.0
 11
24.70645013915288
 21
312.301497609406
 31
0.0
  0
LINE
  5
E9F7
330
18
100
AcDbEntity
  8
0
100
AcDbLine
 10
32.69846963915288
 20
309.0485646094061
 30
0.0
 11
32.69846963915296
 21
311.4485646094061
 31
0.0
  0
LINE
  5
E9F8
330
18
100
AcDbEntity
  8
0
100
AcDbLine
 10
31.99846963915291
 20
309.0485646094061
 30
0.0
 11
32.69846963915288
 21
309.0485646094061
 31
0.0
  0
ARC
  5
E9FB
330
18
100
AcDbEntity
  8
0
100
AcDbCircle
 10
26.69846913915285
 20
319.848564609406
 30
0.0
 40
0.5
100
AcDbArc
 50
0.0
 51
179.9999849999985
  0
ARC
  5
E9FC
330
18
100
AcDbEntity
  8
0
100
AcDbCircle
 10
28.83455513915289
 20
317.772026609406
 30
0.0
 40
0.5
100
AcDbArc
 50
134.9999850000007
 51
211.1597959999982
  0
ARC
  5
E9FD
330
18
100
AcDbEntity
  8
0
100
AcDbCircle
 10
24.56238413915287
 20
317.772026609406
 30
0.0
 40
0.5
100
AcDbArc
 50
328.8401779999988
 51
44.99999600000092
  0
LINE
  5
E9FE
330
18
100
AcDbEntity
  8
0
100
AcDbLine
 10
24.44966713915284
 20
318.591850609406
 30
0.0
 11
28.94727113915286
 21
318.591850609406
 31
0.0
  0
LINE
  5
E9FF
330
18
100
AcDbEntity
  8
0
100
AcDbLine
 10
25.69018413915291
 20
317.848564609406
 30
0.0
 11
27.61858213915286
 21
317.848564609406
 31
0.0
  0
LINE
  5
EA00
330
18
100
AcDbEntity
  8
0
100
AcDbLine
 10
28.48100113915285
 20
318.1255806094061
 30
0.0
 11
28.94727513915285
 21
318.591850609406
 31
0.0
  0
LINE
  5
EA01
330
18
100
AcDbEntity
  8
0
100
AcDbLine
 10
28.94727513915285
 20
318.591850609406
 30
0.0
 11
28.36126513915287
 21
319.8485576094061
 31
0.0
  0
LINE
  5
EA02
330
18
100
AcDbEntity
  8
0
100
AcDbLine
 10
28.36125813915288
 20
319.848564609406
 30
0.0
 11
26.69846913915285
 21
319.848564609406
 31
0.0
  0
LINE
  5
EA03
330
18
100
AcDbEntity
  8
0
100
AcDbLine
 10
24.91593713915285
 20
318.125588609406
 30
0.0
 11
24.44966713915284
 21
318.591858609406
 31
0.0
  0
LINE
  5
EA04
330
18
100
AcDbEntity
  8
0
100
AcDbLine
 10
24.44967113915288
 20
318.591850609406
 30
0.0
 11
25.03568113915287
 21
319.8485576094061
 31
0.0
  0
LINE
  5
EA05
330
18
100
AcDbEntity
  8
0
100
AcDbLine
 10
25.03568113915287
 20
319.848564609406
 30
0.0
 11
26.69846913915285
 21
319.848564609406
 31
0.0
  0
ARC
  5
EA06
330
18
100
AcDbEntity
  8
0
100
AcDbCircle
 10
26.6984696391529
 20
315.713297398794
 30
0.0
 40
3.864732789388028
100
AcDbArc
 50
58.9734480589162
 51
121.0265519410838
  0
LINE
  5
EA07
330
18
100
AcDbEntity
  8
0
100
AcDbLine
 10
49.49846963915291
 20
327.248564609406
 30
0.0
 11
49.49846963915291
 21
328.748564609406
 31
0.0
  0
ELLIPSE
  5
EA08
330
18
100
AcDbEntity
  8
0
100
AcDbEllipse
 10
49.30231721644634
 20
318.2485646094061
 30
0.0
 11
-1.732050807568867
 21
-0.0000000000000328
 31
0.0
210
0.0
220
0.0
230
1.0
 40
0.8660254037844351
 41
3.141592653589771
 42
6.283185307179691
  0
LINE
  5
EA09
330
18
100
AcDbEntity
  8
0
100
AcDbLine
 10
50.49846963915297
 20
323.7485646094061
 30
0.0
 11
50.49846963915297
 21
327.248564609406
 31
0.0
  0
LINE
  5
EA0A
330
18
100
AcDbEntity
  8
0
100
AcDbLine
 10
48.99846963915297
 20
322.7485646094061
 30
0.0
 11
54.49846963915297
 21
322.7485646094061
 31
0.0
  0
LINE
  5
EA0B
330
18
100
AcDbEntity
  8
0
100
AcDbLine
 10
48.99846963915297
 20
323.7485646094061
 30
0.0
 11
54.49846963915297
 21
323.7485646094061
 31
0.0
  0
LINE
  5
EA0C
330
18
100
AcDbEntity
  8
0
100
AcDbLine
 10
48.99846963915294
 20
319.725303410728
 30
0.0
 11
48.99846963915294
 21
323.7485646094061
 31
0.0
  0
LINE
  5
EA0D
330
18
100
AcDbEntity
  8
0
100
AcDbLine
 10
61.42667286942844
 20
311.7485646094061
 30
0.0
 11
61.42667286942844
 21
318.2485646094061
 31
0.0
  0
LINE
  5
EA0E
330
18
100
AcDbEntity
  8
0
100
AcDbLine
 10
57.96257125429071
 20
311.748564609406
 30
0.0
 11
57.96257125429071
 21
318.248564609406
 31
0.0
  0
LINE
  5
EA0F
330
18
100
AcDbEntity
  8
0
100
AcDbLine
 10
62.99846963915294
 20
310.248564609406
 30
0.0
 11
62.99846963915294
 21
310.748564609406
 31
0.0
  0
LINE
  5
EA10
330
18
100
AcDbEntity
  8
0
100
AcDbLine
 10
62.99846963915297
 20
310.248564609406
 30
0.0
 11
65.49846963915294
 21
310.248564609406
 31
0.0
  0
LINE
  5
EA11
330
18
100
AcDbEntity
  8
0
100
AcDbLine
 10
61.99846963915295
 20
311.7485646094061
 30
0.0
 11
62.99846963915294
 21
310.748564609406
 31
0.0
  0
LINE
  5
EA12
330
18
100
AcDbEntity
  8
0
100
AcDbLine
 10
65.49846963915294
 20
310.248564609406
 30
0.0
 11
66.49846963915294
 21
309.248564609406
 31
0.0
  0
LINE
  5
EA13
330
18
100
AcDbEntity
  8
0
100
AcDbLine
 10
59.49846963915297
 20
327.248564609406
 30
0.0
 11
59.49846963915295
 21
328.748564609406
 31
0.0
  0
LINE
  5
EA14
330
18
100
AcDbEntity
  8
0
100
AcDbLine
 10
58.49846963915294
 20
323.7485646094061
 30
0.0
 11
58.49846963915294
 21
327.248564609406
 31
0.0
  0
LINE
  5
EA15
330
18
100
AcDbEntity
  8
0
100
AcDbLine
 10
59.99846963915294
 20
319.725303410728
 30
0.0
 11
59.99846963915294
 21
323.7485646094061
 31
0.0
  0
ELLIPSE
  5
EA16
330
18
100
AcDbEntity
  8
0
100
AcDbEllipse
 10
59.69462206185955
 20
318.2485646094061
 30
0.0
 11
1.732050807568867
 21
-0.0000000000000328
 31
0.0
210
0.0
220
0.0
230
-1.0
 40
0.8660254037844351
 41
3.141592653589771
 42
6.283185307179711
  0
CIRCLE
  5
EA19
330
18
100
AcDbEntity
  8
0
100
AcDbCircle
 10
174.8103853689506
 20
267.748564609406
 30
0.0
 40
25.0
  0
LINE
  5
EA1A
330
18
100
AcDbEntity
  8
7A
100
AcDbLine
 10
174.8103853689506
 20
330.748564609406
 30
0.0
 11
174.8103853689506
 21
221.748564609406
 31
0.0
  0
LINE
  5
EA1B
330
18
100
AcDbEntity
  8
3A
100
AcDbLine
 10
149.0009878556416
 20
245.4747010020299
 30
0.0
 11
141.9801812933115
 21
238.4538944396997
 31
0.0
  0
LINE
  5
EA1C
330
18
100
AcDbEntity
  8
3A
100
AcDbLine
 10
152.5365217615743
 20
241.9391670960971
 30
0.0
 11
145.5157151992442
 21
234.9183605337669
 31
0.0
  0
LINE
  5
EA1F
330
18
100
AcDbEntity
  8
3A
100
AcDbLine
 10
150.768754808608
 20
243.7069340490634
 30
0.0
 11
149.0009878556416
 21
245.4747010020299
 31
0.0
  0
LINE
  5
EA22
330
18
100
AcDbEntity
  8
3A
100
AcDbLine
 10
150.768754808608
 20
243.7069340490634
 30
0.0
 11
152.5365217615743
 21
241.9391670960971
 31
0.0
  0
LINE
  5
EA26
330
18
100
AcDbEntity
  8
3A
100
AcDbLine
 10
197.0842489763269
 20
241.9391670960971
 30
0.0
 11
204.105055538657
 21
234.9183605337669
 31
0.0
  0
LINE
  5
EA27
330
18
100
AcDbEntity
  8
3A
100
AcDbLine
 10
198.8520159292932
 20
243.7069340490634
 30
0.0
 11
200.6197828822596
 21
245.4747010020299
 31
0.0
  0
LINE
  5
EA2D
330
18
100
AcDbEntity
  8
3A
100
AcDbLine
 10
198.8520159292932
 20
243.7069340490634
 30
0.0
 11
197.0842489763269
 21
241.9391670960971
 31
0.0
  0
LINE
  5
EA2E
330
18
100
AcDbEntity
  8
3A
100
AcDbLine
 10
200.6197828822596
 20
245.4747010020299
 30
0.0
 11
207.6405894445898
 21
238.4538944396997
 31
0.0
  0
LINE
  5
EA2F
330
18
100
AcDbEntity
  8
7A
100
AcDbLine
 10
111.8103099163388
 20
267.748564609406
 30
0.0
 11
220.8103853689506
 21
267.748564609406
 31
0.0
  0
LINE
  5
EA30
330
18
100
AcDbEntity
  8
7A
100
AcDbLine
 10
139.8103850402208
 20
264.248564609406
 30
0.0
 11
139.8103857285
 21
271.248564609406
 31
0.0
  0
LINE
  5
EA32
330
18
100
AcDbEntity
  8
7A
100
AcDbLine
 10
143.3103872503461
 20
282.7485711978449
 30
0.0
 11
136.3103872503461
 21
282.7485704851648
 31
0.0
  0
ARC
  5
EA33
330
18
100
AcDbEntity
  8
4A
100
AcDbCircle
 10
174.8103853689506
 20
267.748564609406
 30
0.0
 40
10.0
100
AcDbArc
 50
107.4576031237219
 51
72.54239687627722
  0
CIRCLE
  5
EA34
330
18
100
AcDbEntity
  8
0
100
AcDbCircle
 10
174.8103853689506
 20
267.748564609406
 30
0.0
 40
15.0
  0
LINE
  5
EA35
330
18
100
AcDbEntity
  8
4A
100
AcDbLine
 10
171.8103853689506
 20
280.5485646094061
 30
0.0
 11
177.8103853689506
 21
280.5485646094061
 31
0.0
  0
LINE
  5
EA36
330
18
100
AcDbEntity
  8
4A
100
AcDbLine
 10
171.8103853689506
 20
280.5485646094061
 30
0.0
 11
171.8103853689506
 21
277.2879566235755
 31
0.0
  0
LINE
  5
EA37
330
18
100
AcDbEntity
  8
4A
100
AcDbLine
 10
177.8103853689506
 20
280.5485646094061
 30
0.0
 11
177.8103853689506
 21
277.2879566235755
 31
0.0
  0
LINE
  5
EA57
330
18
100
AcDbEntity
  8
0
100
AcDbLine
 10
-3.501530360847084
 20
253.248080609406
 30
0.0
 11
-3.501530360847084
 21
267.748564609406
 31
0.0
  0
LINE
  5
EA5D
330
18
100
AcDbEntity
  8
0
100
AcDbLine
 10
-3.001530360847084
 20
242.5480816094061
 30
0.0
 11
-3.001530360847084
 21
252.748077609398
 31
0.0
  0
LINE
  5
EA6D
330
18
100
AcDbEntity
  8
0
100
AcDbLine
 10
-3.001530360847084
 20
252.748077609398
 30
0.0
 11
-3.501534360847074
 21
253.248082609406
 31
0.0
  0
LINE
  5
EA84
330
18
100
AcDbEntity
  8
0
100
AcDbLine
 10
-2.701534360847006
 20
242.248081609406
 30
0.0
 11
3.998469639152915
 21
242.248081609406
 31
0.0
  0
LINE
  5
EA88
330
18
100
AcDbEntity
  8
0
100
AcDbLine
 10
-2.70153136084707
 20
242.248078609406
 30
0.0
 11
-3.001534360847074
 21
242.5480816094061
 31
0.0
  0
LINE
  5
EA94
330
18
100
AcDbEntity
  8
0
100
AcDbLine
 10
3.998469639152915
 20
239.248081609406
 30
0.0
 11
3.998469639152911
 21
242.248081609406
 31
0.0
  0
LINE
  5
EA99
330
18
100
AcDbEntity
  8
0
100
AcDbLine
 10
3.998469639152915
 20
239.248081609406
 30
0.0
 11
7.498469639152915
 21
239.248081609406
 31
0.0
  0
LINE
  5
EA9A
330
18
100
AcDbEntity
  8
0
100
AcDbLine
 10
7.498469639152915
 20
227.748080609406
 30
0.0
 11
7.498469639152915
 21
239.248081609406
 31
0.0
  0
LINE
  5
EAA3
330
18
100
AcDbEntity
  8
0
100
AcDbLine
 10
66.49846963915294
 20
226.248564609406
 30
0.0
 11
66.49846963915294
 21
231.2485646094061
 31
0.0
  0
LINE
  5
EAAA
330
18
100
AcDbEntity
  8
0
100
AcDbLine
 10
66.49846963915294
 20
232.748564609406
 30
0.0
 11
66.49846963915294
 21
242.4985606094058
 31
0.0
  0
LINE
  5
EAAC
330
18
100
AcDbEntity
  8
0
100
AcDbLine
 10
66.49846963915297
 20
232.748564609406
 30
0.0
 11
66.49846963915294
 21
226.248564609406
 31
0.0
  0
LINE
  5
EACD
330
18
100
AcDbEntity
  8
0
100
AcDbLine
 10
32.69846963915296
 20
311.4485646094061
 30
0.0
 11
32.99846963915292
 21
311.7485646094061
 31
0.0
  0
LINE
  5
EACE
330
18
100
AcDbEntity
  8
0
100
AcDbLine
 10
30.59846963915288
 20
311.748564609406
 30
0.0
 11
30.89846963915289
 21
311.4485646094061
 31
0.0
  0
LINE
  5
EACF
330
18
100
AcDbEntity
  8
0
100
AcDbLine
 10
30.89846963915295
 20
224.0485646094061
 30
0.0
 11
30.59846963915294
 21
223.7485646094061
 31
0.0
  0
LINE
  5
EAD1
330
18
100
AcDbEntity
  8
0
100
AcDbLine
 10
32.6984696391529
 20
224.048564609406
 30
0.0
 11
32.99846963915292
 21
223.748564609406
 31
0.0
  0
LINE
  5
EADA
330
18
100
AcDbEntity
  8
0
100
AcDbLine
 10
31.39846963915289
 20
308.748564609406
 30
0.0
 11
31.99846963915291
 21
308.748564609406
 31
0.0
  0
ARC
  5
EADB
330
18
100
AcDbEntity
  8
0
100
AcDbCircle
 10
31.39846963915289
 20
309.248564609406
 30
0.0
 40
0.5
100
AcDbArc
 50
180.0
 51
270.0
  0
LINE
  5
EADC
330
18
100
AcDbEntity
  8
0
100
AcDbLine
 10
30.89846963915289
 20
309.248564609406
 30
0.0
 11
30.89846963915295
 21
311.448564609406
 31
0.0
  0
CIRCLE
  5
EAE5
330
18
100
AcDbEntity
  8
0
100
AcDbCircle
 10
174.8103853689506
 20
267.748564609406
 30
0.0
 40
42.5
  0
CIRCLE
  5
EAE6
330
18
100
AcDbEntity
  8
0
100
AcDbCircle
 10
174.8103853689506
 20
267.748564609406
 30
0.0
 40
43.99999999999999
  0
CIRCLE
  5
EAE7
330
18
100
AcDbEntity
  8
0
100
AcDbCircle
 10
139.8103853689506
 20
267.748564609406
 30
0.0
 40
2.5
  0
CIRCLE
  5
EAE8
330
18
100
AcDbEntity
  8
5
100
AcDbCircle
 10
139.8103853689506
 20
267.748564609406
 30
0.0
 40
2.0
  0
CIRCLE
  5
EAE9
330
18
100
AcDbEntity
  8
0
100
AcDbCircle
 10
139.8103853689506
 20
267.748564609406
 30
0.0
 40
1.6
  0
CIRCLE
  5
EAEA
330
18
100
AcDbEntity
  8
0
100
AcDbCircle
 10
139.8103872503461
 20
282.7485708415048
 30
0.0
 40
2.5
  0
CIRCLE
  5
EAEB
330
18
100
AcDbEntity
  8
5
100
AcDbCircle
 10
139.8103872503461
 20
282.7485708415048
 30
0.0
 40
2.0
  0
CIRCLE
  5
EAEC
330
18
100
AcDbEntity
  8
0
100
AcDbCircle
 10
139.8103872503461
 20
282.7485708415048
 30
0.0
 40
1.6
  0
ARC
  5
EAED
330
18
100
AcDbEntity
  8
0
100
AcDbCircle
 10
116.3103099163401
 20
269.748564609406
 30
0.0
 40
2.500000000000591
100
AcDbArc
 50
126.86989764587
 51
233.1301023541492
  0
LINE
  5
EAEE
330
18
100
AcDbEntity
  8
0
100
AcDbLine
 10
117.3103099163387
 20
271.7485646094057
 30
0.0
 11
117.3103099163387
 21
263.7485646094057
 31
0.0
  0
LINE
  5
EAEF
330
18
100
AcDbEntity
  8
0
100
AcDbLine
 10
113.8103099163388
 20
269.748564609406
 30
0.0
 11
113.8103099163388
 21
265.7485646094055
 31
0.0
  0
LINE
  5
EAF0
330
18
100
AcDbEntity
  8
0
100
AcDbLine
 10
126.8103059163388
 20
271.1779696094057
 30
0.0
 11
126.8103059163388
 21
264.3711306094057
 31
0.0
  0
ARC
  5
EAF1
330
18
100
AcDbEntity
  8
0
100
AcDbCircle
 10
126.5609811625533
 20
267.7485646094061
 30
0.0
 40
4.249404206397255
100
AcDbArc
 50
331.9232285871644
 51
28.07677141282063
  0
ARC
  5
EAF2
330
18
100
AcDbEntity
  8
0
100
AcDbCircle
 10
131.0596306701242
 20
267.7485646094061
 30
0.0
 40
4.249404206397255
100
AcDbArc
 50
151.9232285871793
 51
208.0767714128356
  0
LINE
  5
EAF3
330
18
100
AcDbEntity
  8
5
100
AcDbLine
 10
117.3103099163387
 20
269.7485646094057
 30
0.0
 11
126.8103059163388
 21
269.7485646094057
 31
0.0
  0
LINE
  5
EAF4
330
18
100
AcDbEntity
  8
0
100
AcDbLine
 10
117.3103099163387
 20
270.2485646094057
 30
0.0
 11
126.8103059163388
 21
270.2485646094057
 31
0.0
  0
LINE
  5
EAF5
330
18
100
AcDbEntity
  8
0
100
AcDbLine
 10
114.8103099163388
 20
271.7485646094057
 30
0.0
 11
117.3103099163387
 21
271.7485646094057
 31
0.0
  0
ARC
  5
EAF6
330
18
100
AcDbEntity
  8
0
100
AcDbCircle
 10
128.8870544291752
 20
271.0485636094054
 30
0.0
 40
1.927600113020037
100
AcDbArc
 50
317.5914000326313
 51
42.40859996738661
  0
ARC
  5
EAF7
330
18
100
AcDbEntity
  8
0
100
AcDbCircle
 10
128.7335574035023
 20
271.0485636094054
 30
0.0
 40
1.927600113020037
100
AcDbArc
 50
137.5914000326134
 51
222.4085999673688
  0
LINE
  5
EAF8
330
18
100
AcDbEntity
  8
0
100
AcDbLine
 10
127.3103059163388
 20
272.3485626094056
 30
0.0
 11
130.3103059163388
 21
272.3485626094056
 31
0.0
  0
LINE
  5
EAF9
330
18
100
AcDbEntity
  8
0
100
AcDbLine
 10
127.3103059163388
 20
269.7485646094057
 30
0.0
 11
130.3103059163388
 21
269.7485646094057
 31
0.0
  0
LINE
  5
EAFA
330
18
100
AcDbEntity
  8
5
100
AcDbLine
 10
117.3103099163387
 20
265.7485646094057
 30
0.0
 11
126.8103059163388
 21
265.7485646094057
 31
0.0
  0
LINE
  5
EAFB
330
18
100
AcDbEntity
  8
0
100
AcDbLine
 10
117.3103099163387
 20
265.2485646094057
 30
0.0
 11
126.8103059163388
 21
265.2485646094057
 31
0.0
  0
ARC
  5
EAFC
330
18
100
AcDbEntity
  8
0
100
AcDbCircle
 10
116.3103099163401
 20
265.7485646094055
 30
0.0
 40
2.500000000000591
100
AcDbArc
 50
126.8698976458508
 51
233.1301023541299
  0
LINE
  5
EAFD
330
18
100
AcDbEntity
  8
0
100
AcDbLine
 10
114.8103099163388
 20
263.7485646094057
 30
0.0
 11
117.3103099163387
 21
263.7485646094057
 31
0.0
  0
LINE
  5
EAFE
330
18
100
AcDbEntity
  8
0
100
AcDbLine
 10
114.8103099163396
 20
267.7485646094057
 30
0.0
 11
117.3103099163387
 21
267.7485646094057
 31
0.0
  0
ARC
  5
EAFF
330
18
100
AcDbEntity
  8
0
100
AcDbCircle
 10
128.8763033181298
 20
264.4485651094052
 30
0.0
 40
1.935552156794072
100
AcDbArc
 50
317.8060229426254
 51
42.19397705741149
  0
ARC
  5
EB00
330
18
100
AcDbEntity
  8
0
100
AcDbCircle
 10
128.7443085145477
 20
264.4485651094052
 30
0.0
 40
1.935552156794072
100
AcDbArc
 50
137.8060229425885
 51
222.1939770573746
  0
LINE
  5
EB01
330
18
100
AcDbEntity
  8
0
100
AcDbLine
 10
127.3103059163388
 20
263.1485656094056
 30
0.0
 11
130.3103059163388
 21
263.1485656094056
 31
0.0
  0
LINE
  5
EB02
330
18
100
AcDbEntity
  8
0
100
AcDbLine
 10
127.3103059163388
 20
265.7485646094057
 30
0.0
 11
130.3103059163388
 21
265.7485646094057
 31
0.0
  0
INSERT
  5
EB19
330
18
100
AcDbEntity
  8
0
100
AcDbBlockReference
  2
A$C48405559
 10
174.8103853689506
 20
311.748564609406
 30
0.0
  0
MTEXT
  5
EDDC
330
18
100
AcDbEntity
  8
0
100
AcDbMText
 10
-212.563098415859
 20
409.2711445381079
 30
0.0
 40
14.0
 41
0.0
 71
     1
 72
     5
  1
TSUBAKI\PSHOCK GUARD\PTGK20-5
 73
     1
 44
1.0
1001
ACAD
1000
MTEXTBEGIN
1070
    73
1070
     1
1070
    44
1040
1.0
1070
    74
1070
     0
1000
MTEXTEND
  0
LINE
  5
EDDE
330
18
100
AcDbEntity
  8
7A
100
AcDbLine
 10
139.8103868756327
 20
279.2485708415048
 30
0.0
 11
139.8103875639119
 21
286.2485708415048
 31
0.0
  0
LINE
  5
EDE0
330
18
100
AcDbEntity
  8
0
100
AcDbLine
 10
62.99846963915295
 20
225.248564609406
 30
0.0
 11
62.99846963915294
 21
224.748564609406
 31
0.0
  0
LINE
  5
EDFE
330
18
100
AcDbEntity
  8
3A
100
AcDbLine
 10
152.1829683709811
 20
242.2927204866903
 30
0.0
 11
145.1440583954836
 21
235.2538105111928
 31
0.0
  0
LINE
  5
EDFF
330
18
100
AcDbEntity
  8
3A
100
AcDbLine
 10
149.3545412462349
 20
245.1211476114365
 30
0.0
 11
142.3156312707374
 21
238.082237635939
 31
0.0
  0
LINE
  5
EE00
330
18
100
AcDbEntity
  8
7A
100
AcDbLine
 10
151.4758615897945
 20
244.4140408302499
 30
0.0
 11
142.9905802155559
 21
235.9287594560114
 31
0.0
  0
LINE
  5
EE01
330
18
100
AcDbEntity
  8
7A
100
AcDbLine
 10
198.1449091481066
 20
244.41404083025
 30
0.0
 11
206.6301905223453
 21
235.9287594560114
 31
0.0
  0
LINE
  5
EE02
330
18
100
AcDbEntity
  8
3A
100
AcDbLine
 10
197.4378023669201
 20
242.2927204866903
 30
0.0
 11
204.4767123424176
 21
235.2538105111928
 31
0.0
  0
LINE
  5
EE03
330
18
100
AcDbEntity
  8
3A
100
AcDbLine
 10
200.2662294916663
 20
245.1211476114366
 30
0.0
 11
207.3051394671638
 21
238.082237635939
 31
0.0
  0
CIRCLE
  5
EE54
330
18
100
AcDbEntity
  8
0
100
AcDbCircle
 10
174.8103853689506
 20
267.748564609406
 30
0.0
 40
4.0
  0
LINE
  5
EE56
330
18
100
AcDbEntity
  8
0
100
AcDbLine
 10
75.49846963915285
 20
271.748564609405
 30
0.0
 11
-3.501530360847084
 21
271.748564609405
 31
0.0
  0
LINE
  5
EE57
330
18
100
AcDbEntity
  8
0
100
AcDbLine
 10
75.49846963915285
 20
263.748564609405
 30
0.0
 11
-3.501530360847084
 21
263.748564609405
 31
0.0
  0
DIMENSION
  5
EEA7
330
18
100
AcDbEntity
  8
0
100
AcDbDimension
  2
*D137
 10
95.41092356132656
 20
271.748564609405
 30
0.0
 11
92.16092356132653
 21
282.2045412724822
 31
0.0
 70
    32
  1
%%c<>下穴
 71
     5
 42
8.0
  3
AM_ISO
100
AcDbAlignedDimension
 13
75.49846963915285
 23
263.748564609405
 33
0.0
 14
75.49846963915285
 24
271.748564609405
 34
0.0
 50
90.0
100
AcDbRotatedDimension
1001
ACAD_DSTYLE_DIMINSPECT
1070
   396
1000
100%
1070
   395
1000

1070
   394
1070
    33
1070
   393
1070
     0
  0
LINE
  5
EF9B
330
18
100
AcDbEntity
  8
0
100
AcDbLine
 10
-12.80152836084706
 20
319.7485336094059
 30
0.0
 11
-12.80152836084705
 21
215.7485946094059
 31
0.0
  0
LINE
  5
EF9C
330
18
100
AcDbEntity
  8
0
100
AcDbLine
 10
7.498469639152908
 20
230.681510652362
 30
0.0
 11
7.498469639152908
 21
215.7485946094059
 31
0.0
  0
LINE
  5
EF9D
330
18
100
AcDbEntity
  8
0
100
AcDbLine
 10
-12.80152836084716
 20
215.7485946094059
 30
0.0
 11
7.498469639152908
 21
215.7485946094059
 31
0.0
  0
LINE
  5
EF9E
330
18
100
AcDbEntity
  8
0
100
AcDbLine
 10
-12.80152836084716
 20
233.7109998523621
 30
0.0
 11
-12.80152836084716
 21
234.7485613456377
 31
0.0
  0
LINE
  5
EF9F
330
18
100
AcDbEntity
  8
0
100
AcDbLine
 10
-3.501276369746683
 20
239.2489833386612
 30
0.0
 11
6.498469639152908
 21
239.2484978523621
 31
0.0
  0
LINE
  5
EFA0
330
18
100
AcDbEntity
  8
0
100
AcDbLine
 10
7.498469639152794
 20
238.248500852362
 30
0.0
 11
7.498469639152908
 21
235.2484978523621
 31
0.0
  0
LINE
  5
EFA1
330
18
100
AcDbEntity
  8
0
100
AcDbLine
 10
-4.50129489881187
 20
296.2484978523621
 30
0.0
 11
6.498469639152908
 21
296.2484978523621
 31
0.0
  0
LINE
  5
EFA2
330
18
100
AcDbEntity
  8
0
100
AcDbLine
 10
-12.80152836084706
 20
319.748533609406
 30
0.0
 11
7.498469639152908
 21
319.748533609406
 31
0.0
  0
LINE
  5
EFA3
330
18
100
AcDbEntity
  8
0
  6
Continuous
 62
     7
100
AcDbLine
 10
3.998469639152908
 20
239.2480158523621
 30
0.0
 11
7.498469639152908
 21
239.2480158523621
 31
0.0
  0
LINE
  5
EFA4
330
18
100
AcDbEntity
  8
0
  6
Continuous
 62
     7
100
AcDbLine
 10
7.498469639152908
 20
227.7480148523621
 30
0.0
 11
7.498469639152794
 21
230.248982852362
 31
0.0
  0
LINE
  5
EFA5
330
18
100
AcDbEntity
  8
0
  6
Continuous
 62
     7
100
AcDbLine
 10
7.498469639152794
 20
234.8154850523621
 30
0.0
 11
7.498469639152908
 21
239.2480158523621
 31
0.0
  0
LINE
  5
EFA6
330
18
100
AcDbEntity
  8
0
  6
Continuous
 62
     7
100
AcDbLine
 10
7.498469639152908
 20
307.748982852362
 30
0.0
 11
7.498469639152908
 21
296.248981852362
 31
0.0
  0
LINE
  5
EFA7
330
18
100
AcDbEntity
  8
0
  6
Continuous
 62
     7
100
AcDbLine
 10
3.998469639152908
 20
296.248981852362
 30
0.0
 11
7.498469639152908
 21
296.248981852362
 31
0.0
  0
ARC
  5
EFA8
330
18
100
AcDbEntity
  8
0
100
AcDbCircle
 10
-22.50152536084722
 20
303.2486500138382
 30
0.0
 40
2.5
100
AcDbArc
 50
269.9999989999986
 51
0.0000360000049259
  0
ARC
  5
EFA9
330
18
100
AcDbEntity
  8
0
100
AcDbCircle
 10
-22.50152536084722
 20
314.2486500138382
 30
0.0
 40
2.5
100
AcDbArc
 50
0.0000909999974337
 51
90.00001799999919
  0
ARC
  5
EFAA
330
18
100
AcDbEntity
  8
0
100
AcDbCircle
 10
-14.25154136084717
 20
303.2486500138382
 30
0.0
 40
2.5
100
AcDbArc
 50
180.0
 51
269.9999269999953
  0
ARC
  5
EFAB
330
18
100
AcDbEntity
  8
0
100
AcDbCircle
 10
-14.25154136084717
 20
314.2486500138382
 30
0.0
 40
2.5
100
AcDbArc
 50
90.00007299999822
 51
180.0
  0
LINE
  5
EFAC
330
18
100
AcDbEntity
  8
0
100
AcDbLine
 10
-24.0015253608472
 20
319.7486500138382
 30
0.0
 11
-24.00152536084724
 21
215.7487110138381
 31
0.0
  0
LINE
  5
EFAD
330
18
100
AcDbEntity
  8
0
100
AcDbLine
 10
-57.50152536084721
 20
237.2487110138381
 30
0.0
 11
-33.00152536084722
 21
237.2487110138381
 31
0.0
  0
LINE
  5
EFAE
330
18
100
AcDbEntity
  8
0
100
AcDbLine
 10
-33.00152536084722
 20
215.7487110138382
 30
0.0
 11
-24.00152536084724
 21
215.7487110138382
 31
0.0
  0
LINE
  5
EFAF
330
18
100
AcDbEntity
  8
0
100
AcDbLine
 10
-33.00152536084722
 20
237.2487110138381
 30
0.0
 11
-33.00152536084722
 21
215.7487110138382
 31
0.0
  0
LINE
  5
EFB0
330
18
100
AcDbEntity
  8
0
100
AcDbLine
 10
-33.00152536084722
 20
298.2486500138382
 30
0.0
 11
-57.50152536084721
 21
298.2486500138382
 31
0.0
  0
LINE
  5
EFB1
330
18
100
AcDbEntity
  8
0
100
AcDbLine
 10
-24.0015253608472
 20
319.7486500138382
 30
0.0
 11
-33.0015253608472
 21
319.7486500138382
 31
0.0
  0
LINE
  5
EFB2
330
18
100
AcDbEntity
  8
0
100
AcDbLine
 10
-57.50152536084721
 20
298.2486500138382
 30
0.0
 11
-57.50152536084721
 21
237.2487110138381
 31
0.0
  0
LINE
  5
EFB3
330
18
100
AcDbEntity
  8
0
100
AcDbLine
 10
-33.00152536084722
 20
319.7486500138382
 30
0.0
 11
-33.00152536084722
 21
298.2486500138382
 31
0.0
  0
LINE
  5
EFB4
330
18
100
AcDbEntity
  8
7A
100
AcDbLine
 10
8.458480639152803
 20
308.7486500138382
 30
0.0
 11
-40.00154136084728
 21
308.7486500138382
 31
0.0
  0
LINE
  5
EFB5
330
18
100
AcDbEntity
  8
0
100
AcDbLine
 10
-39.00154136084717
 20
312.5013810138382
 30
0.0
 11
-33.0015713608471
 21
312.5013810138382
 31
0.0
  0
LINE
  5
EFB6
330
18
100
AcDbEntity
  8
0
100
AcDbLine
 10
-39.00154136084717
 20
304.9958430138382
 30
0.0
 11
-33.0015713608471
 21
304.9958430138382
 31
0.0
  0
LINE
  5
EFB7
330
18
100
AcDbEntity
  8
0
100
AcDbLine
 10
-39.00154136084717
 20
316.2541430138382
 30
0.0
 11
-39.00154136084717
 21
301.2430650138382
 31
0.0
  0
LINE
  5
EFB8
330
18
100
AcDbEntity
  8
0
100
AcDbLine
 10
-39.00154136084717
 20
301.2430650138382
 30
0.0
 11
-33.0015713608471
 21
301.2430650138382
 31
0.0
  0
LINE
  5
EFB9
330
18
100
AcDbEntity
  8
0
100
AcDbLine
 10
-39.00154136084717
 20
316.2541430138382
 30
0.0
 11
-33.0015713608471
 21
316.2541430138382
 31
0.0
  0
LINE
  5
EFBA
330
18
100
AcDbEntity
  8
0
100
AcDbLine
 10
-22.50152536084722
 20
300.7486500138382
 30
0.0
 11
-24.00152536084722
 21
300.7486500138382
 31
0.0
  0
LINE
  5
EFBB
330
18
100
AcDbEntity
  8
0
100
AcDbLine
 10
-22.50152536084722
 20
316.7486500138382
 30
0.0
 11
-24.00152536084722
 21
316.7486500138382
 31
0.0
  0
LINE
  5
EFBC
330
18
100
AcDbEntity
  8
0
100
AcDbLine
 10
-12.80152836084706
 20
300.7486500138382
 30
0.0
 11
-14.25154136084717
 21
300.7486500138382
 31
0.0
  0
LINE
  5
EFBD
330
18
100
AcDbEntity
  8
0
100
AcDbLine
 10
-12.80152836084706
 20
316.7486500138382
 30
0.0
 11
-14.25154136084717
 21
316.7486500138382
 31
0.0
  0
LINE
  5
EFBE
330
18
100
AcDbEntity
  8
0
100
AcDbLine
 10
-16.80152836084716
 20
290.2486650138383
 30
0.0
 11
-20.00152536084722
 21
290.2486650138383
 31
0.0
  0
LINE
  5
EFBF
330
18
100
AcDbEntity
  8
0
100
AcDbLine
 10
-16.80152836084716
 20
317.3086480138382
 30
0.0
 11
-20.00152536084723
 21
317.3086480138382
 31
0.0
  0
LINE
  5
EFC0
330
18
100
AcDbEntity
  8
0
100
AcDbLine
 10
-20.00152536084723
 20
317.3086480138383
 30
0.0
 11
-20.0015253608472
 21
218.1885633456375
 31
0.0
  0
LINE
  5
EFC1
330
18
100
AcDbEntity
  8
0
100
AcDbLine
 10
-16.80152836084718
 20
317.3086480138383
 30
0.0
 11
-16.80152836084718
 21
218.1885633456375
 31
0.0
  0
LINE
  5
EFC2
330
18
100
AcDbEntity
  8
4A
100
AcDbLine
 10
-24.00152536084722
 20
246.7486810138382
 30
0.0
 11
-57.50152536084721
 21
246.7486810138382
 31
0.0
  0
LINE
  5
EFC3
330
18
100
AcDbEntity
  8
4A
100
AcDbLine
 10
-24.00152536084722
 20
287.8731764069041
 30
0.0
 11
-57.50152536084721
 21
287.8731764069041
 31
0.0
  0
POINT
  5
EFC4
330
18
100
AcDbEntity
  8
0
100
AcDbPoint
 10
-57.50152536084721
 20
267.7486810138382
 30
0.0
 50
180.0
  0
POINT
  5
EFC5
330
18
100
AcDbEntity
  8
0
100
AcDbPoint
 10
-57.50152536084721
 20
267.7486810138382
 30
0.0
 50
180.0
  0
LINE
  5
EFC6
330
18
100
AcDbEntity
  8
7A
100
AcDbLine
 10
8.458480639152803
 20
226.7485613456377
 30
0.0
 11
-40.00155536084725
 21
226.7485613456377
 31
0.0
  0
LINE
  5
EFC7
330
18
100
AcDbEntity
  8
0
100
AcDbLine
 10
-16.80152836084716
 20
245.2485463456376
 30
0.0
 11
-20.00152536084722
 21
245.2485463456376
 31
0.0
  0
LINE
  5
EFC8
330
18
100
AcDbEntity
  8
0
100
AcDbLine
 10
-16.80152836084716
 20
218.1885633456375
 30
0.0
 11
-20.00152536084722
 21
218.1885633456375
 31
0.0
  0
ARC
  5
EFC9
330
18
100
AcDbEntity
  8
0
100
AcDbCircle
 10
-22.50152536084722
 20
232.2485613456377
 30
0.0
 40
2.5
100
AcDbArc
 50
359.9999639999951
 51
90.00000100000141
  0
ARC
  5
EFCA
330
18
100
AcDbEntity
  8
0
100
AcDbCircle
 10
-22.50152536084722
 20
221.2485613456376
 30
0.0
 40
2.5
100
AcDbArc
 50
269.9999820000008
 51
359.999908999996
  0
ARC
  5
EFCB
330
18
100
AcDbEntity
  8
0
100
AcDbCircle
 10
-14.25154136084717
 20
232.2485613456377
 30
0.0
 40
2.5
100
AcDbArc
 50
90.00007299999822
 51
180.0
  0
ARC
  5
EFCC
330
18
100
AcDbEntity
  8
0
100
AcDbCircle
 10
-14.25154136084717
 20
221.2485613456376
 30
0.0
 40
2.5
100
AcDbArc
 50
180.0
 51
269.9999269999953
  0
LINE
  5
EFCD
330
18
100
AcDbEntity
  8
0
100
AcDbLine
 10
-22.50152536084722
 20
234.7485613456377
 30
0.0
 11
-24.00152536084722
 21
234.7485613456377
 31
0.0
  0
LINE
  5
EFCE
330
18
100
AcDbEntity
  8
0
100
AcDbLine
 10
-22.50152536084722
 20
218.7485613456376
 30
0.0
 11
-24.00152536084722
 21
218.7485613456376
 31
0.0
  0
LINE
  5
EFCF
330
18
100
AcDbEntity
  8
0
100
AcDbLine
 10
-12.80152836084716
 20
234.7485613456377
 30
0.0
 11
-14.25154136084717
 21
234.7485613456377
 31
0.0
  0
LINE
  5
EFD0
330
18
100
AcDbEntity
  8
0
100
AcDbLine
 10
-12.80152836084716
 20
218.7485613456376
 30
0.0
 11
-14.25154136084717
 21
218.7485613456376
 31
0.0
  0
LINE
  5
EFD1
330
18
100
AcDbEntity
  8
0
100
AcDbLine
 10
-16.80152836084719
 20
218.1885633456374
 30
0.0
 11
-20.0015253608472
 21
218.1885633456374
 31
0.0
  0
LINE
  5
EFD2
330
18
100
AcDbEntity
  8
0
100
AcDbLine
 10
-33.00154036084718
 20
219.2487133456375
 30
0.0
 11
-33.00154036084718
 21
234.2485613456377
 31
0.0
  0
LINE
  5
EFD3
330
18
100
AcDbEntity
  8
0
100
AcDbLine
 10
-24.00152536084722
 20
234.7485613456377
 30
0.0
 11
-22.55151236084721
 21
234.7485613456377
 31
0.0
  0
LINE
  5
EFD4
330
18
100
AcDbEntity
  8
0
100
AcDbLine
 10
-24.00152536084722
 20
218.7485613456376
 30
0.0
 11
-22.55151236084721
 21
218.7485613456376
 31
0.0
  0
LINE
  5
EFD5
330
18
100
AcDbEntity
  8
4A
100
AcDbLine
 10
-57.50152536084721
 20
292.048564609406
 30
0.0
 11
-24.00152536084722
 21
292.048564609406
 31
0.0
  0
LINE
  5
EFD6
330
18
100
AcDbEntity
  8
LY_1
  6
PHANTOM
 62
     7
100
AcDbLine
 10
-39.00155536084719
 20
222.9957139412054
 30
0.0
 11
-33.00158636084718
 21
222.9957139412054
 31
0.0
  0
LINE
  5
EFD7
330
18
100
AcDbEntity
  8
LY_1
  6
PHANTOM
 62
     7
100
AcDbLine
 10
-39.00155536084719
 20
230.5012519412054
 30
0.0
 11
-33.00158636084718
 21
230.5012519412054
 31
0.0
  0
LINE
  5
EFD8
330
18
100
AcDbEntity
  8
LY_1
  6
PHANTOM
 62
     7
100
AcDbLine
 10
-39.00155536084719
 20
219.2429519412054
 30
0.0
 11
-39.00155536084719
 21
234.2540299412054
 31
0.0
  0
LINE
  5
EFD9
330
18
100
AcDbEntity
  8
LY_1
  6
PHANTOM
 62
     7
100
AcDbLine
 10
-39.00155536084719
 20
234.2540299412054
 30
0.0
 11
-33.00158636084718
 21
234.2540299412054
 31
0.0
  0
LINE
  5
EFDA
330
18
100
AcDbEntity
  8
LY_1
  6
PHANTOM
 62
     7
100
AcDbLine
 10
-39.00155536084719
 20
219.2429519412054
 30
0.0
 11
-33.00158636084718
 21
219.2429519412054
 31
0.0
  0
LINE
  5
EFDB
330
18
100
AcDbEntity
  8
LY_1
  6
PHANTOM
 62
     7
100
AcDbLine
 10
-33.00154036084718
 20
234.2540299412054
 30
0.0
 11
-33.00154036084718
 21
219.2429519412054
 31
0.0
  0
CIRCLE
  5
EFDC
330
18
100
AcDbEntity
  8
0
100
AcDbCircle
 10
-162.7869216595174
 20
267.748564609406
 30
0.0
 40
52.0
  0
LINE
  5
EFDD
330
18
100
AcDbEntity
  8
7A
100
AcDbLine
 10
-216.7869216595174
 20
267.748564609406
 30
0.0
 11
-108.7869216595174
 21
267.748564609406
 31
0.0
  0
LINE
  5
EFDE
330
18
100
AcDbEntity
  8
7A
100
AcDbLine
 10
-162.7869216595174
 20
213.748564609406
 30
0.0
 11
-162.7869216595174
 21
321.748564609406
 31
0.0
  0
CIRCLE
  5
EFDF
330
18
100
AcDbEntity
  8
7A
100
AcDbCircle
 10
-162.7869216595174
 20
267.748564609406
 30
0.0
 40
41.0
  0
CIRCLE
  5
EFE0
330
18
100
AcDbEntity
  8
0
100
AcDbCircle
 10
-203.7869216595174
 20
267.748564609406
 30
0.0
 40
8.75
  0
CIRCLE
  5
EFE1
330
18
100
AcDbEntity
  8
0
100
AcDbCircle
 10
-121.7869216595174
 20
267.748564609406
 30
0.0
 40
8.75
  0
CIRCLE
  5
EFE2
330
18
100
AcDbEntity
  8
0
100
AcDbCircle
 10
-121.7869216595174
 20
267.748564609406
 30
0.0
 40
8.0
  0
CIRCLE
  5
EFE3
330
18
100
AcDbEntity
  8
0
100
AcDbCircle
 10
-203.7869216595174
 20
267.748564609406
 30
0.0
 40
8.0
  0
INSERT
  5
EFE4
330
18
100
AcDbEntity
  8
0
100
AcDbBlockReference
  2
A$C1228088A
 10
-162.7869216595174
 20
308.748564609406
 30
0.0
  0
INSERT
  5
EFE5
330
18
100
AcDbEntity
  8
0
100
AcDbBlockReference
  2
A$C1228088A
 10
-203.7869216595174
 20
267.748564609406
 30
0.0
 50
90.0
  0
INSERT
  5
EFE6
330
18
100
AcDbEntity
  8
0
100
AcDbBlockReference
  2
A$C1228088A
 10
-162.7869216595174
 20
226.748564609406
 30
0.0
 50
180.0
  0
INSERT
  5
EFE7
330
18
100
AcDbEntity
  8
0
100
AcDbBlockReference
  2
A$C1228088A
 10
-121.7869216595174
 20
267.748564609406
 30
0.0
 50
269.9999999999999
  0
CIRCLE
  5
EFE8
330
18
100
AcDbEntity
  8
0
100
AcDbCircle
 10
-162.7869216595174
 20
267.748564609406
 30
0.0
 40
30.5
  0
LINE
  5
EFE9
330
18
100
AcDbEntity
  8
0
100
AcDbLine
 10
7.498469639152908
 20
296.248981852362
 30
0.0
 11
7.498469639152908
 21
319.748533609406
 31
0.0
  0
LINE
  5
EFEA
330
18
100
AcDbEntity
  8
0
100
AcDbLine
 10
-12.80152836084716
 20
290.248699153948
 30
0.0
 11
-4.50129489881187
 21
290.248699153948
 31
0.0
  0
LINE
  5
EFEB
330
18
100
AcDbEntity
  8
0
100
AcDbLine
 10
-4.501244768655233
 20
267.7487405953916
 30
0.0
 11
-4.501345028968508
 21
296.2484978523621
 31
0.0
  0
LINE
  5
EFEC
330
18
100
AcDbEntity
  8
0
100
AcDbLine
 10
-4.501091038046702
 20
239.2490234436871
 30
0.0
 11
6.498723629856208
 21
239.2490724591046
 31
0.0
  0
LINE
  5
EFED
330
18
100
AcDbEntity
  8
0
100
AcDbLine
 10
-4.501218033417053
 20
267.7487405955107
 30
0.0
 11
-4.5010910378681
 21
239.2489833386612
 31
0.0
  0
LINE
  5
EFEE
330
18
100
AcDbEntity
  8
0
100
AcDbLine
 10
-12.80152836084728
 20
245.2486985426652
 30
0.0
 11
-4.501117772896641
 21
245.2487355294785
 31
0.0
  0
ARC
  5
EFEF
330
18
100
AcDbEntity
  8
4A
100
AcDbCircle
 10
-162.7869216595174
 20
267.748564609406
 30
0.0
 40
21.0
100
AcDbArc
 50
106.6015495990193
 51
73.39845040098068
  0
LINE
  5
EFF0
330
18
100
AcDbEntity
  8
4A
100
AcDbLine
 10
-168.7869216595174
 20
292.048564609406
 30
0.0
 11
-156.7869216595174
 21
292.048564609406
 31
0.0
  0
LINE
  5
EFF1
330
18
100
AcDbEntity
  8
4A
100
AcDbLine
 10
-156.7869216595174
 20
292.048564609406
 30
0.0
 11
-156.7869216595174
 21
287.8731764069041
 31
0.0
  0
LINE
  5
EFF2
330
18
100
AcDbEntity
  8
4A
100
AcDbLine
 10
-168.7869216595174
 20
292.048564609406
 30
0.0
 11
-168.7869216595174
 21
287.8731764069041
 31
0.0
  0
INSERT
  5
EFF3
330
18
100
AcDbEntity
  8
4A
100
AcDbBlockReference
  2
A$C124820DC-1
 10
-70.50151036084713
 20
226.7485613456377
 30
0.0
 50
180.0
  0
LINE
  5
EFF4
330
18
100
AcDbEntity
  8
0
100
AcDbLine
 10
7.498469639152865
 20
307.7487756493953
 30
0.0
 11
7.498469639152922
 21
296.2487756493953
 31
0.0
  0
LINE
  5
EFF5
330
18
100
AcDbEntity
  8
0
100
AcDbLine
 10
3.998469639152922
 20
296.2487756493953
 30
0.0
 11
7.498469639152922
 21
296.2487756493953
 31
0.0
  0
LINE
  5
EFF6
330
18
100
AcDbEntity
  8
0
100
AcDbLine
 10
7.498469639152865
 20
227.7487756493953
 30
0.0
 11
7.498469639152922
 21
239.2487756493953
 31
0.0
  0
LINE
  5
EFF7
330
18
100
AcDbEntity
  8
0
100
AcDbLine
 10
3.998469639152922
 20
239.2487756493953
 30
0.0
 11
7.498469639152922
 21
239.2487756493953
 31
0.0
  0
CIRCLE
  5
EFF8
330
18
100
AcDbEntity
  8
0
100
AcDbCircle
 10
-162.7869216595174
 20
267.748564609406
 30
0.0
 40
7.5
  0
LINE
  5
EFF9
330
18
100
AcDbEntity
  8
0
100
AcDbLine
 10
-57.50152536084721
 20
275.2485085718323
 30
0.0
 11
-24.0015253608472
 21
275.2485085718323
 31
0.0
  0
LINE
  5
EFFA
330
18
100
AcDbEntity
  8
0
100
AcDbLine
 10
-57.50152536084721
 20
260.2485085718323
 30
0.0
 11
-24.00152536084722
 21
260.2485085718323
 31
0.0
  0
DIMENSION
  5
EFFB
330
18
100
AcDbEntity
  8
0
100
AcDbDimension
  2
*D140
 10
-75.75325213236308
 20
275.2485085718323
 30
0.0
 11
-79.00325213236313
 21
286.5794852349095
 31
0.0
 70
    32
  1
%%c<>下穴
 71
     5
 42
15.0
  3
AM_ISO
100
AcDbAlignedDimension
 13
-57.50152536084721
 23
260.2485085718323
 33
0.0
 14
-57.50152536084721
 24
275.2485085718323
 34
0.0
 50
90.0
100
AcDbRotatedDimension
1001
ACAD_DSTYLE_DIMINSPECT
1070
   396
1000
100%
1070
   395
1000

1070
   394
1070
    33
1070
   393
1070
     0
  0
LINE
  5
F0F0
330
18
100
AcDbEntity
  8
4A
100
AcDbLine
 10
31.19846963915326
 20
207.7484891567943
 30
0.0
 11
31.19846963915326
 21
210.2484891567942
 31
0.0
  0
ARC
  5
F0F1
330
18
100
AcDbEntity
  8
4A
100
AcDbCircle
 10
29.19846963915347
 20
209.2484891567955
 30
0.0
 40
2.500000000000591
100
AcDbArc
 50
270.0
 51
323.1301023541299
  0
LINE
  5
F0F2
330
18
100
AcDbEntity
  8
4A
100
AcDbLine
 10
31.79846963915326
 20
207.7484891567943
 30
0.0
 11
31.79846963915326
 21
210.2484891567942
 31
0.0
  0
ARC
  5
F0F3
330
18
100
AcDbEntity
  8
4A
100
AcDbCircle
 10
29.79846963915347
 20
209.2484891567955
 30
0.0
 40
2.500000000000591
100
AcDbArc
 50
270.0
 51
323.1301023541299
  0
ENDSEC
  0
SECTION
  2
OBJECTS
  0
DICTIONARY
  5
C
330
0
100
AcDbDictionary
281
     1
  3
ACAD_2007HEADERVARS_RT
350
F13A
  3
ACAD_CIP_PREVIOUS_PRODUCT_INFO
350
BB58
  3
ACAD_COLOR
350
84A7
  3
ACAD_DETAILVIEWSTYLE
350
F100
  3
ACAD_FIELDLIST
350
F123
  3
ACAD_GROUP
350
D
  3
ACAD_LAYOUT
350
4B5
  3
ACAD_MATERIAL
350
84A6
  3
ACAD_MLEADERSTYLE
350
8ED7
  3
ACAD_MLINESTYLE
350
E
  3
ACAD_PLOTSETTINGS
350
4B6
  3
ACAD_PLOTSTYLENAME
350
4B3
  3
ACAD_SCALELIST
350
8EB5
  3
ACAD_SECTIONVIEWSTYLE
350
F0FE
  3
ACAD_TABLESTYLE
350
84A8
  3
ACAD_VISUALSTYLE
350
8EA4
  3
AcadDim
350
B582
  3
ACDB_RECOMPOSE_DATA
350
F138
  3
AcDbVariableDictionary
350
86EE
  3
AcmDictionary
350
850B
  3
AEC_PROPERTY_SET_DEFS
350
BD5A
  3
AMG
350
84B1
  3
AMGSNAPSETTINGS
350
8561
  3
ASE_INDEX_DICTIONARY
350
F12D
  3
CONTENTDICTIONARY
350
322
  3
DWGPROPS
350
F139
  0
DICTIONARY
  5
8594
330
2
100
AcDbDictionary
280
     1
281
     1
  3
ACAD_LAYERFILTERS
360
A5B9
  3
ACAD_LAYERSTATES
360
C8BC
  3
ACLYDICTIONARY
360
A5B8
  3
AMLAYER_GROUPCOLORS
360
8595
  0
DICTIONARY
  5
8F23
330
F
100
AcDbDictionary
280
     1
281
     1
  3
ADSK_XREC_LAYER_RECONCILED
360
ED45
  0
DICTIONARY
  5
8F2D
330
29
100
AcDbDictionary
280
     1
281
     1
  3
ADSK_XREC_LAYER_RECONCILED
360
ED47
  0
DICTIONARY
  5
8F2F
330
2A
100
AcDbDictionary
280
     1
281
     1
  3
ADSK_XREC_LAYER_RECONCILED
360
ED48
  0
DICTIONARY
  5
8F31
330
2B
100
AcDbDictionary
280
     1
281
     1
  3
ADSK_XREC_LAYER_RECONCILED
360
ED49
  0
DICTIONARY
  5
8F39
330
2F
100
AcDbDictionary
280
     1
281
     1
  3
ADSK_XREC_LAYER_RECONCILED
360
ED4B
  0
DICTIONARY
  5
8F65
330
8F1
100
AcDbDictionary
280
     1
281
     1
  3
ADSK_XREC_LAYER_RECONCILED
360
ED51
  0
DICTIONARY
  5
EF33
330
EF32
100
AcDbDictionary
280
     1
281
     1
  0
DICTIONARY
  5
9045
330
18
100
AcDbDictionary
280
     1
281
     1
  3
ACAD_SORTENTS
360
9046
  0
DICTIONARY
  5
E44A
330
E449
100
AcDbDictionary
280
     1
281
     1
  3
ACAD_SORTENTS
360
E85B
  0
DICTIONARY
  5
EF0A
330
EF09
100
AcDbDictionary
280
     1
281
     1
  3
ACAD_SORTENTS
360
EF0B
  0
DICTIONARY
  5
EF1A
330
EF19
100
AcDbDictionary
280
     1
281
     1
  3
ACAD_SORTENTS
360
EF1B
  0
DICTIONARY
  5
F13A
102
{ACAD_REACTORS
330
C
102
}
330
C
100
AcDbDictionary
281
     1
  3
INTERFEREVPVS
350
F13B
  0
XRECORD
  5
BB58
102
{ACAD_REACTORS
330
C
102
}
330
C
100
AcDbXrecord
280
     1
300
AMECH_PP
300
2014
300
PDSU_F_S
  0
DICTIONARY
  5
84A7
102
{ACAD_REACTORS
330
C
102
}
330
C
100
AcDbDictionary
281
     1
  0
DICTIONARY
  5
F100
102
{ACAD_REACTORS
330
C
102
}
330
C
100
AcDbDictionary
281
     1
  3
Metric50
350
F101
  0
FIELDLIST
  5
F123
102
{ACAD_REACTORS
330
C
102
}
330
C
100
AcDbIdSet
 90
        3
330
F121
330
F122
330
F124
100
AcDbFieldList
  0
DICTIONARY
  5
D
102
{ACAD_REACTORS
330
C
102
}
330
C
100
AcDbDictionary
281
     1
  0
DICTIONARY
  5
4B5
102
{ACAD_REACTORS
330
C
102
}
330
C
100
AcDbDictionary
281
     1
  3
Model
350
4B7
  3
ﾚｲｱｳﾄ1
350
4B8
  0
DICTIONARY
  5
84A6
102
{ACAD_REACTORS
330
C
102
}
330
C
100
AcDbDictionary
281
     1
  3
ByBlock
350
8E94
  3
ByLayer
350
8E8C
  3
Global
350
8E9C
  0
DICTIONARY
  5
8ED7
102
{ACAD_REACTORS
330
C
102
}
330
C
100
AcDbDictionary
281
     1
  3
Standard
350
8ED8
  0
DICTIONARY
  5
E
102
{ACAD_REACTORS
330
C
102
}
330
C
100
AcDbDictionary
281
     1
  3
STANDARD
350
1B
  0
DICTIONARY
  5
4B6
102
{ACAD_REACTORS
330
C
102
}
330
C
100
AcDbDictionary
281
     1
  0
ACDBDICTIONARYWDFLT
  5
4B3
102
{ACAD_REACTORS
330
C
102
}
330
C
100
AcDbDictionary
281
     1
  3
Normal
350
4B4
100
AcDbDictionaryWithDefault
340
4B4
  0
DICTIONARY
  5
8EB5
102
{ACAD_REACTORS
330
C
102
}
330
C
100
AcDbDictionary
281
     1
  3
*A1
350
E3B4
  3
A0
350
8EB6
  3
A1
350
8EB7
  3
A2
350
8EB8
  3
A3
350
8EB9
  3
A4
350
8EBA
  3
A5
350
8EBB
  3
A6
350
8EBC
  3
A7
350
8EBD
  3
A8
350
8EBE
  3
A9
350
8EBF
  3
B0
350
8EC0
  3
B1
350
8EC1
  3
B2
350
8EC2
  3
B3
350
8EC3
  3
B4
350
8EC4
  3
B5
350
8EC5
  3
B6
350
8EC6
  3
B7
350
8EC7
  3
B8
350
8EC8
  3
B9
350
8EC9
  3
C0
350
8ECA
  3
C1
350
8ECB
  3
C2
350
8ECC
  3
C3
350
8ECD
  3
C4
350
8ECE
  3
C5
350
8ECF
  3
C6
350
8ED0
  3
C7
350
8ED1
  3
C8
350
8ED2
  3
C9
350
8ED3
  3
D0
350
8ED4
  3
D1
350
8ED5
  3
D2
350
8ED6
  0
DICTIONARY
  5
F0FE
102
{ACAD_REACTORS
330
C
102
}
330
C
100
AcDbDictionary
281
     1
  3
Metric50
350
F0FF
  0
DICTIONARY
  5
84A8
102
{ACAD_REACTORS
330
C
102
}
330
C
100
AcDbDictionary
281
     1
  3
Standard
350
84A9
  0
DICTIONARY
  5
8EA4
102
{ACAD_REACTORS
330
C
102
}
330
C
100
AcDbDictionary
281
     1
  3
2dWireframe
350
8EAA
  3
3D Hidden
350
8EAC
  3
3dWireframe
350
8EAB
  3
Basic
350
8EA9
  3
Brighten
350
8EB0
  3
ColorChange
350
8EB4
  3
Conceptual
350
8EAD
  3
Dim
350
8EAF
  3
EdgeColorOff
350
BB4D
  3
Facepattern
350
8EB3
  3
Flat
350
8EA5
  3
FlatWithEdges
350
8EA6
  3
Gouraud
350
8EA7
  3
GouraudWithEdges
350
8EA8
  3
Hidden
350
BB45
  3
JitterOff
350
BB4B
  3
Linepattern
350
8EB2
  3
OverhangOff
350
BB4C
  3
Realistic
350
8EAE
  3
Shaded
350
BB4A
  3
Shaded with edges
350
BB49
  3
Shades of Gray
350
BB46
  3
Sketchy
350
BB47
  3
Thicken
350
8EB1
  3
Wireframe
350
BB44
  3
X-Ray
350
BB48
  0
XRECORD
  5
B582
102
{ACAD_REACTORS
330
C
102
}
330
C
100
AcDbXrecord
280
     1
 90
   990106
  3

 60
     0
 61
     0
 62
     4
 63
     4
 64
     1
 65
     0
 66
     0
 67
     3
 68
     0
 69
     0
 70
     0
 71
     0
 72
     0
 40
131.3072382375658
170
     0
  0
XRECORD
  5
F138
102
{ACAD_REACTORS
330
C
102
}
330
C
100
AcDbXrecord
280
     1
 90
        1
330
84A9
  0
DICTIONARY
  5
86EE
102
{ACAD_REACTORS
330
C
102
}
330
C
100
AcDbDictionary
281
     1
  3
CANNOSCALE
350
8F01
  3
CMLEADERSTYLE
350
8EFF
  3
CTABLESTYLE
350
86EF
  3
CVIEWDETAILSTYLE
350
F130
  3
CVIEWSECTIONSTYLE
350
F131
  3
DIMASSOC
350
F135
  3
INDEXCTL
350
F133
  3
LAYEREVAL
350
A129
  3
LAYERNOTIFY
350
A12A
  3
LIGHTINGUNITS
350
8F02
  3
MSLTSCALE
350
8F00
  3
SOLIDHIST
350
F136
  3
SORTENTS
350
F132
  3
XCLIPFRAME
350
F134
  0
DICTIONARY
  5
850B
102
{ACAD_REACTORS
330
C
102
}
330
C
100
AcDbDictionary
281
     1
  3
AcmStdDictionary
350
8516
  3
AMDTSECTSYM_ARROWCOLOR
350
8533
  0
DICTIONARY
  5
BD5A
102
{ACAD_REACTORS
330
C
102
}
330
C
100
AcDbDictionary
281
     1
  0
DICTIONARY
  5
84B1
102
{ACAD_REACTORS
330
C
102
}
330
C
100
AcDbDictionary
281
     1
  0
DICTIONARY
  5
8561
102
{ACAD_REACTORS
330
C
102
}
330
C
100
AcDbDictionary
281
     1
  0
DICTIONARY
  5
F12D
102
{ACAD_REACTORS
330
C
102
}
330
C
100
AcDbDictionary
281
     1
  3
ASEBlockHierarchyIndexRecord
350
F12F
1001
DCO15
1040
1813560801.908
  0
DICTIONARY
  5
322
102
{ACAD_REACTORS
330
C
102
}
330
C
100
AcDbDictionary
281
     1
  0
XRECORD
  5
F139
102
{ACAD_REACTORS
330
C
102
}
330
C
100
AcDbXrecord
280
     1
  1
DWGPROPS COOKIE
  2

  3

  4

  6

  7

  8
yasuhito.suzuki
  9

300
=
301
=
302
=
303
=
304
=
305
=
306
=
307
=
308
=
309
=
 40
0.1034495138888889
 41
2456785.473376019
 42
2456793.498910972
  1

 90
        0
  0
DICTIONARY
  5
A5B9
102
{ACAD_REACTORS
330
8594
102
}
330
8594
100
AcDbDictionary
281
     1
  0
DICTIONARY
  5
C8BC
102
{ACAD_REACTORS
330
8594
102
}
330
8594
100
AcDbDictionary
281
     1
  0
DICTIONARY
  5
A5B8
102
{ACAD_REACTORS
330
8594
102
}
330
8594
100
AcDbDictionary
281
     1
1001
ACAD
1000
<All
  0
DICTIONARY
  5
8595
102
{ACAD_REACTORS
330
8594
102
}
330
8594
100
AcDbDictionary
280
     1
281
     1
  0
XRECORD
  5
ED45
102
{ACAD_REACTORS
330
8F23
102
}
330
8F23
100
AcDbXrecord
280
     1
290
     1
  0
XRECORD
  5
ED47
102
{ACAD_REACTORS
330
8F2D
102
}
330
8F2D
100
AcDbXrecord
280
     1
290
     1
  0
XRECORD
  5
ED48
102
{ACAD_REACTORS
330
8F2F
102
}
330
8F2F
100
AcDbXrecord
280
     1
290
     1
  0
XRECORD
  5
ED49
102
{ACAD_REACTORS
330
8F31
102
}
330
8F31
100
AcDbXrecord
280
     1
290
     1
  0
XRECORD
  5
ED4B
102
{ACAD_REACTORS
330
8F39
102
}
330
8F39
100
AcDbXrecord
280
     1
290
     1
  0
XRECORD
  5
ED51
102
{ACAD_REACTORS
330
8F65
102
}
330
8F65
100
AcDbXrecord
280
     1
290
     1
  0
SORTENTSTABLE
  5
9046
102
{ACAD_REACTORS
330
9045
102
}
330
9045
100
AcDbSortentsTable
330
18
331
EFC7
  5
EFC8
331
EFC3
  5
EFC4
331
EFFA
  5
EFFB
331
9042
  5
E33A
331
E89A
  5
E8A0
331
E33D
  5
E340
331
E896
  5
E89A
331
E892
  5
E896
331
E8D1
  5
E8F6
331
E9FC
  5
EA01
331
E922
  5
E93A
331
E916
  5
E931
331
EDFF
  5
EA2C
331
EA37
  5
EAAC
331
E9F8
  5
E9FF
331
EAF5
  5
EB03
331
EAF1
  5
EAFF
331
EA33
  5
EA96
331
E9F4
  5
E9FC
331
EA9A
  5
EADF
331
E989
  5
E9B4
331
E9F0
  5
E9F5
331
EFBF
  5
EFC0
331
EFBB
  5
EFBC
331
EFF6
  5
EFF7
331
EFF2
  5
EFF3
331
EFB7
  5
EFB8
331
EFB3
  5
EFB4
331
EFEE
  5
EFEF
331
EFEA
  5
EFEB
331
E88E
  5
E894
331
E88A
  5
E893
331
E8C9
  5
E8DF
331
E886
  5
E88A
331
E8C5
  5
E8C9
331
E90E
  5
E920
331
EA2F
  5
EA5F
331
EAED
  5
EAFB
331
E981
  5
E9B2
331
E90A
  5
E90F
331
EAE9
  5
EAF7
331
EAE5
  5
EAF3
331
EA27
  5
EA37
331
E906
  5
E90E
331
E979
  5
E980
331
E9D0
  5
E9F2
331
EFAF
  5
EFB0
331
EFE6
  5
EFE7
331
EFAB
  5
EFAC
331
EFA7
  5
EFA8
331
EFE2
  5
EFE3
331
EFDE
  5
EFDF
331
EFA3
  5
EFA4
331
EFDA
  5
EFDB
331
E8BD
  5
E8C5
331
E8B9
  5
E8BF
331
EA1F
  5
EA2D
331
E9CC
  5
E9D0
331
EA1B
  5
EA24
331
E9C8
  5
E9CD
331
E8F6
  5
E906
331
E9C4
  5
E9C8
331
EA13
  5
EA19
331
EAD1
  5
EAEF
331
EF9F
  5
EFA0
331
EFD6
  5
EFD7
331
EE54
  5
EE56
331
EF9B
  5
EF9C
331
EFD2
  5
EFD3
331
EFCE
  5
EFCF
331
EE00
  5
EA1E
331
EFCA
  5
EFCB
331
E8A9
  5
E8B9
331
E8A5
  5
E8B8
331
EACD
  5
EAEC
331
EA0F
  5
EA14
331
E8EE
  5
E905
331
E340
  5
E35A
331
E9B4
  5
E9C5
331
EA0B
  5
EA10
331
EA07
  5
EA0C
331
EB00
  5
EDFC
331
E931
  5
E964
331
EAFC
  5
EDF8
331
EA03
  5
EA08
331
EAF8
  5
EDDE
331
A856
  5
E33C
331
EFC6
  5
EFC7
331
EFC2
  5
EFC3
331
EFF9
  5
EFFA
331
9041
  5
E324
331
E899
  5
E89F
331
E33C
  5
E33F
331
E895
  5
E899
331
E9FF
  5
EA04
331
E891
  5
E895
331
E9FB
  5
EA00
331
EA36
  5
EAA5
331
EAF4
  5
EB02
331
E9F7
  5
E9FE
331
EDFE
  5
EA2B
331
EAF0
  5
EAFE
331
EA32
  5
EA8A
331
E9F3
  5
E9FB
331
EA99
  5
EADD
331
EFBE
  5
EFBF
331
EFF5
  5
EFF6
331
EFBA
  5
EFBB
331
EFB6
  5
EFB7
331
EFF1
  5
EFF2
331
EFED
  5
EFEE
331
EFB2
  5
EFB3
331
EFE9
  5
EFEA
331
E889
  5
E892
331
E8C8
  5
E8DC
331
E885
  5
E889
331
EA2E
  5
EA59
331
E9EF
  5
E9F4
331
EAEC
  5
EAFA
331
E8C0
  5
E8C8
331
E980
  5
E9AB
331
EAE8
  5
EAF6
331
EA26
  5
EA36
331
EDDE
  5
EA86
331
E905
  5
E90C
331
E97C
  5
E9AA
331
E978
  5
E97C
331
EA22
  5
EA2F
331
EFAE
  5
EFAF
331
EFE5
  5
EFE6
331
EFAA
  5
EFAB
331
EEA7
  5
EF9B
331
EFA6
  5
EFA7
331
EFE1
  5
EFE2
331
EFDD
  5
EFDE
331
EFA2
  5
EFA3
331
EFD9
  5
EFDA
331
E8B8
  5
E8BE
331
E9CF
  5
E9F1
331
EADC
  5
EAF2
331
E964
  5
E97B
331
EA1A
  5
EA23
331
E9C7
  5
E9CC
331
EA16
  5
EA1D
331
EA6D
  5
EAD0
331
E9C3
  5
E9C7
331
EA12
  5
EA17
331
EE57
  5
EE84
331
EF9E
  5
EF9F
331
EFD5
  5
EFD6
331
EFD1
  5
EFD2
331
EFCD
  5
EFCE
331
EE03
  5
EA38
331
EFC9
  5
EFCA
331
E35B
  5
E886
331
E8A4
  5
E8B7
331
EA0E
  5
EA13
331
EA5D
  5
EACF
331
EA0A
  5
EA0F
331
EA06
  5
EA0B
331
EAAC
  5
EAEB
331
EAFF
  5
EDFB
331
E934
  5
E978
331
E930
  5
E95B
331
EAFB
  5
EDE1
331
E9AB
  5
E9C3
331
EA02
  5
EA07
331
EFC5
  5
EFC6
331
EFC1
  5
EFC2
331
EFF8
  5
EFF9
331
9040
  5
CD7F
331
E89C
  5
E8A2
331
E33F
  5
E359
331
E898
  5
E89C
331
E33B
  5
E33E
331
E894
  5
E898
331
E9FE
  5
EA03
331
E920
  5
E934
331
EAF7
  5
EB1B
331
EA35
  5
EAA4
331
EAF3
  5
EB01
331
E910
  5
E930
331
E9F2
  5
E9F8
331
EFBD
  5
EFBE
331
EFF4
  5
EFF5
331
EFB9
  5
EFBA
331
EFB5
  5
EFB6
331
EFF0
  5
EFF1
331
EFEC
  5
EFED
331
EFB1
  5
EFB2
331
EFE8
  5
EFE9
331
E8CF
  5
E8EE
331
E888
  5
E891
331
E8C7
  5
E8D1
331
EAEF
  5
EAFD
331
E884
  5
E888
331
EAEB
  5
EAF9
331
EA2D
  5
EA39
331
EA94
  5
EADC
331
E90C
  5
E916
331
EAE7
  5
EAF5
331
E97B
  5
E989
331
EA88
  5
EAD3
331
EFAD
  5
EFAE
331
EFE4
  5
EFE5
331
EFA9
  5
EFAA
331
EFA5
  5
EFA6
331
EFE0
  5
EFE1
331
EFDC
  5
EFDD
331
EFA1
  5
EFA2
331
EFD8
  5
EFD9
331
E8BF
  5
E8C7
331
E870
  5
E887
331
E8B7
  5
E8BD
331
E8B3
  5
E8BA
331
E9CE
  5
E9F0
331
EA84
  5
EAD1
331
EADB
  5
EAF1
331
E8F8
  5
E90B
331
E9CA
  5
E9CF
331
EA19
  5
EA21
331
E9C6
  5
E9CA
331
EA15
  5
EA1C
331
E95B
  5
E97A
331
E9C2
  5
E9C6
331
EA11
  5
EA16
331
EE56
  5
EE57
331
EF9D
  5
EF9E
331
EFD4
  5
EFD5
331
EFD0
  5
EFD1
331
EFCC
  5
EFCD
331
EE02
  5
EA35
331
EFC8
  5
EFC9
331
E35A
  5
E885
331
EACF
  5
EAEE
331
EA0D
  5
EA12
331
EB02
  5
EDFE
331
E9B2
  5
E9C4
331
EA09
  5
EA0E
331
EA05
  5
EA0A
331
EAFE
  5
EDFA
331
E8DC
  5
E8F7
331
EAFA
  5
EDE0
331
E9AA
  5
E9C2
331
EA01
  5
EA06
331
EFC4
  5
EFC5
331
EFFB
  5
F013
331
EFC0
  5
EFC1
331
9043
  5
E33B
331
E89F
  5
E8A3
331
E33E
  5
E358
331
E897
  5
E89B
331
E33A
  5
E33D
331
E893
  5
E897
331
E9FD
  5
EA02
331
EAA3
  5
EAE8
331
EAF6
  5
EB12
331
EA34
  5
EA9B
331
E9F5
  5
E9FD
331
EAF2
  5
EB00
331
EA30
  5
EA6F
331
E9F1
  5
E9F6
331
EFBC
  5
EFBD
331
EFF7
  5
EFF8
331
EFF3
  5
EFF4
331
EFB8
  5
EFB9
331
EFB4
  5
EFB5
331
EFEF
  5
EFF0
331
EFEB
  5
EFEC
331
EFB0
  5
EFB1
331
E887
  5
E88E
331
E8C6
  5
E8CF
331
E90F
  5
E922
331
EAEE
  5
EAFC
331
EAEA
  5
EAF8
331
E90B
  5
E910
331
EDE0
  5
EAEA
331
EAE6
  5
EAF4
331
EDDC
  5
EE01
331
E97A
  5
E981
331
E9D1
  5
E9F3
331
EFAC
  5
EFAD
331
EFE7
  5
EFE8
331
EFE3
  5
EFE4
331
EFA8
  5
EFA9
331
EFA4
  5
EFA5
331
EFDF
  5
EFE0
331
EFDB
  5
EFDC
331
EFA0
  5
EFA1
331
E8BE
  5
E8C6
331
E8BA
  5
E8C0
331
E9CD
  5
E9D1
331
EA1C
  5
EA27
331
EADA
  5
EAF0
331
E8F7
  5
E90A
331
E9C9
  5
E9CE
331
E9C5
  5
E9C9
331
EA14
  5
EA1B
331
EB19
  5
EE00
331
EA10
  5
EA15
331
EF9C
  5
EF9D
331
EFD7
  5
EFD8
331
EFD3
  5
EFD4
331
EFCF
  5
EFD0
331
EFCB
  5
EFCC
331
EE01
  5
EA1F
331
E359
  5
E884
331
E341
  5
E870
331
EACE
  5
EAED
331
EA0C
  5
EA11
331
E93A
  5
E979
331
E8DF
  5
E8F8
331
EB01
  5
EDFD
331
EA08
  5
EA0D
331
EA57
  5
EAAE
331
EA04
  5
EA09
331
EAAA
  5
EAE9
331
EAFD
  5
EDF9
331
EAF9
  5
EDDF
331
EA00
  5
EA05
  0
SORTENTSTABLE
  5
E85B
102
{ACAD_REACTORS
330
E44A
102
}
330
E44A
100
AcDbSortentsTable
330
E449
  0
SORTENTSTABLE
  5
EF0B
102
{ACAD_REACTORS
330
EF0A
102
}
330
EF0A
100
AcDbSortentsTable
330
EF09
  0
SORTENTSTABLE
  5
EF1B
102
{ACAD_REACTORS
330
EF1A
102
}
330
EF1A
100
AcDbSortentsTable
330
EF19
  0
XRECORD
  5
F13B
102
{ACAD_REACTORS
330
F13A
102
}
330
F13A
100
AcDbXrecord
280
     1
340
8EAB
  0
ACDBDETAILVIEWSTYLE
  5
F101
102
{ACAD_XDICTIONARY
360
F17B
102
}
102
{ACAD_REACTORS
330
F100
330
F118
102
}
330
F100
100
AcDbModelDocViewStyle
 70
     0
  3
Metric50
290
     0
100
AcDbDetailViewStyle
 70
     0
 71
     0
 90
        3
 71
     1
340
10
 40
5.0
340
0
 40
5.0
300

 40
0.0
280
     1
 71
     2
340
14
 90
       25
 71
     3
340
10
 40
5.0
 90
        0
 40
15.0
 90
        1
300
%<\AcVar ViewDetailId>% (%<\AcVar ViewScale \f "%sn">%)
 71
     4
340
14
 90
       25
340
14
 90
       25
280
     0
  0
LAYOUT
  5
4B7
102
{ACAD_XDICTIONARY
360
E108
102
}
102
{ACAD_REACTORS
330
4B5
102
}
330
4B5
100
AcDbPlotSettings
  1

  2
RICOH imagio MP C4001 RPCS (一時).pc3
  4
A3
  6

 40
5.873749732971191
 41
5.873747825622558
 42
5.873748779296875
 43
5.873748779296875
 44
296.9259948730469
 45
419.9466552734374
 46
0.0
 47
0.0535853563059163
 48
5.909999999999968
 49
5.879999999999995
140
414.0899999999996
141
291.1199999999998
142
1.0
143
1.00021566716988
 70
 11956
 72
     1
 73
     1
 74
     4
  7
mysample.ctb
 75
     0
147
0.9997843793324182
148
-5.909999999999968
149
-5.879999999999995
100
AcDbLayout
  1
Model
 70
     1
 71
     0
 10
0.0
 20
0.0
 11
12.0
 21
9.0
 12
0.0
 22
0.0
 32
0.0
 14
0.0
 24
0.0
 34
0.0
 15
0.0
 25
0.0
 35
0.0
146
0.0
 13
0.0
 23
0.0
 33
0.0
 16
1.0
 26
0.0
 36
0.0
 17
0.0
 27
1.0
 37
0.0
 76
     0
330
18
331
8E8A
1001
ACAD_PSEXT
1000
RICOH imagio MP C4001 RPCS (一時).pc3
1000
RICOH imagio MP C4001 RPCS
1000
IP_192.168.50.152
1000
RPCS Driver (Windows 2000/XP/Server 2003/2008/Vista/7)
1070
     0
  0
LAYOUT
  5
4B8
102
{ACAD_XDICTIONARY
360
F13D
102
}
102
{ACAD_REACTORS
330
4B5
102
}
330
4B5
100
AcDbPlotSettings
  1

  2
C:\Program Files\ACAD LT 2000\plotters\DWF Classic.pc3
  4

  6

 40
0.0
 41
0.0
 42
0.0
 43
0.0
 44
0.0
 45
0.0
 46
0.0
 47
0.0
 48
0.0
 49
0.0
140
0.0
141
0.0
142
1.0
143
1.0
 70
   688
 72
     0
 73
     0
 74
     5
  7
mysample.ctb
 75
    16
147
1.0
148
0.0
149
0.0
100
AcDbLayout
  1
ﾚｲｱｳﾄ1
 70
     1
 71
     1
 10
0.0
 20
0.0
 11
420.0
 21
297.0
 12
0.0
 22
0.0
 32
0.0
 14
1.000000000000000E+20
 24
1.000000000000000E+20
 34
1.000000000000000E+20
 15
-1.000000000000000E+20
 25
-1.000000000000000E+20
 35
-1.000000000000000E+20
146
0.0
 13
0.0
 23
0.0
 33
0.0
 16
1.0
 26
0.0
 36
0.0
 17
0.0
 27
1.0
 37
0.0
 76
     0
330
15
  0
MATERIAL
  5
8E94
102
{ACAD_XDICTIONARY
360
8E95
102
}
102
{ACAD_REACTORS
330
84A6
102
}
330
84A6
100
AcDbMaterial
  1
ByBlock
 72
     0
 43
0.0208333333333333
 43
0.0
 43
0.0
 43
0.0
 43
0.0
 43
0.0208333333333333
 43
0.0
 43
0.0
 43
0.0
 43
0.0
 43
1.0
 43
0.0
 43
0.0
 43
0.0
 43
0.0
 43
1.0
 77
     0
 47
0.0208333333333333
 47
0.0
 47
0.0
 47
0.0
 47
0.0
 47
0.0208333333333333
 47
0.0
 47
0.0
 47
0.0
 47
0.0
 47
1.0
 47
0.0
 47
0.0
 47
0.0
 47
0.0
 47
1.0
171
     0
 49
0.0208333333333333
 49
0.0
 49
0.0
 49
0.0
 49
0.0
 49
0.0208333333333333
 49
0.0
 49
0.0
 49
0.0
 49
0.0
 49
1.0
 49
0.0
 49
0.0
 49
0.0
 49
0.0
 49
1.0
175
     0
142
0.0208333333333333
142
0.0
142
0.0
142
0.0
142
0.0
142
0.0208333333333333
142
0.0
142
0.0
142
0.0
142
0.0
142
1.0
142
0.0
142
0.0
142
0.0
142
0.0
142
1.0
179
     0
144
0.0208333333333333
144
0.0
144
0.0
144
0.0
144
0.0
144
0.0208333333333333
144
0.0
144
0.0
144
0.0
144
0.0
144
1.0
144
0.0
144
0.0
144
0.0
144
0.0
144
1.0
147
0.0208333333333333
147
0.0
147
0.0
147
0.0
147
0.0
147
0.0208333333333333
147
0.0
147
0.0
147
0.0
147
0.0
147
1.0
147
0.0
147
0.0
147
0.0
147
0.0
147
1.0
  0
MATERIAL
  5
8E8C
102
{ACAD_XDICTIONARY
360
8E8D
102
}
102
{ACAD_REACTORS
330
84A6
102
}
330
84A6
100
AcDbMaterial
  1
ByLayer
 72
     0
 43
0.0208333333333333
 43
0.0
 43
0.0
 43
0.0
 43
0.0
 43
0.0208333333333333
 43
0.0
 43
0.0
 43
0.0
 43
0.0
 43
1.0
 43
0.0
 43
0.0
 43
0.0
 43
0.0
 43
1.0
 77
     0
 47
0.0208333333333333
 47
0.0
 47
0.0
 47
0.0
 47
0.0
 47
0.0208333333333333
 47
0.0
 47
0.0
 47
0.0
 47
0.0
 47
1.0
 47
0.0
 47
0.0
 47
0.0
 47
0.0
 47
1.0
171
     0
 49
0.0208333333333333
 49
0.0
 49
0.0
 49
0.0
 49
0.0
 49
0.0208333333333333
 49
0.0
 49
0.0
 49
0.0
 49
0.0
 49
1.0
 49
0.0
 49
0.0
 49
0.0
 49
0.0
 49
1.0
175
     0
142
0.0208333333333333
142
0.0
142
0.0
142
0.0
142
0.0
142
0.0208333333333333
142
0.0
142
0.0
142
0.0
142
0.0
142
1.0
142
0.0
142
0.0
142
0.0
142
0.0
142
1.0
179
     0
144
0.0208333333333333
144
0.0
144
0.0
144
0.0
144
0.0
144
0.0208333333333333
144
0.0
144
0.0
144
0.0
144
0.0
144
1.0
144
0.0
144
0.0
144
0.0
144
0.0
144
1.0
147
0.0208333333333333
147
0.0
147
0.0
147
0.0
147
0.0
147
0.0208333333333333
147
0.0
147
0.0
147
0.0
147
0.0
147
1.0
147
0.0
147
0.0
147
0.0
147
0.0
147
1.0
  0
MATERIAL
  5
8E9C
102
{ACAD_XDICTIONARY
360
8E9D
102
}
102
{ACAD_REACTORS
330
84A6
102
}
330
84A6
100
AcDbMaterial
  1
Global
 72
     0
 43
0.0208333333333333
 43
0.0
 43
0.0
 43
0.0
 43
0.0
 43
0.0208333333333333
 43
0.0
 43
0.0
 43
0.0
 43
0.0
 43
1.0
 43
0.0
 43
0.0
 43
0.0
 43
0.0
 43
1.0
 77
     0
 47
0.0208333333333333
 47
0.0
 47
0.0
 47
0.0
 47
0.0
 47
0.0208333333333333
 47
0.0
 47
0.0
 47
0.0
 47
0.0
 47
1.0
 47
0.0
 47
0.0
 47
0.0
 47
0.0
 47
1.0
171
     0
 49
0.0208333333333333
 49
0.0
 49
0.0
 49
0.0
 49
0.0
 49
0.0208333333333333
 49
0.0
 49
0.0
 49
0.0
 49
0.0
 49
1.0
 49
0.0
 49
0.0
 49
0.0
 49
0.0
 49
1.0
175
     0
142
0.0208333333333333
142
0.0
142
0.0
142
0.0
142
0.0
142
0.0208333333333333
142
0.0
142
0.0
142
0.0
142
0.0
142
1.0
142
0.0
142
0.0
142
0.0
142
0.0
142
1.0
179
     0
144
0.0208333333333333
144
0.0
144
0.0
144
0.0
144
0.0
144
0.0208333333333333
144
0.0
144
0.0
144
0.0
144
0.0
144
1.0
144
0.0
144
0.0
144
0.0
144
0.0
144
1.0
147
0.0208333333333333
147
0.0
147
0.0
147
0.0
147
0.0
147
0.0208333333333333
147
0.0
147
0.0
147
0.0
147
0.0
147
1.0
147
0.0
147
0.0
147
0.0
147
0.0
147
1.0
  0
MLEADERSTYLE
  5
8ED8
102
{ACAD_XDICTIONARY
360
F163
102
}
102
{ACAD_REACTORS
330
8ED7
102
}
330
8ED7
100
AcDbMLeaderStyle
170
     2
171
     1
172
     0
 90
        2
 40
0.0
 41
0.0
173
     1
 91
-1056964608
340
12
 92
       -2
290
     1
 42
2.0
291
     1
 43
0.36
  3
Standard
 44
4.0
300

342
10
174
     1
178
     6
175
     1
176
     0
 93
-1056964608
 45
4.0
292
     0
297
     0
 46
4.0
 94
-1056964608
 47
1.0
 49
1.0
140
1.0
293
     1
141
0.0
294
     1
177
     0
142
1.0
295
     0
296
     0
143
0.125
1001
ACAD_MLEADERVER
1070
     2
  0
MLINESTYLE
  5
1B
102
{ACAD_REACTORS
330
E
102
}
330
E
100
AcDbMlineStyle
  2
STANDARD
 70
     0
  3

 62
     0
 51
90.0
 52
90.0
 71
     2
 49
0.5
 62
   256
  6
BYLAYER
 49
-0.5
 62
   256
  6
BYLAYER
  0
ACDBPLACEHOLDER
  5
4B4
102
{ACAD_REACTORS
330
4B3
102
}
330
4B3
  0
SCALE
  5
E3B4
102
{ACAD_REACTORS
330
8EB5
102
}
330
8EB5
100
AcDbScale
 70
     0
300
1:1.5
140
1.0
141
1.5
290
     0
  0
SCALE
  5
8EB6
102
{ACAD_REACTORS
330
8EB5
102
}
330
8EB5
100
AcDbScale
 70
     0
300
1:1
140
1.0
141
1.0
290
     1
  0
SCALE
  5
8EB7
102
{ACAD_REACTORS
330
8EB5
102
}
330
8EB5
100
AcDbScale
 70
     0
300
1:2
140
1.0
141
2.0
290
     0
  0
SCALE
  5
8EB8
102
{ACAD_REACTORS
330
8EB5
102
}
330
8EB5
100
AcDbScale
 70
     0
300
1:4
140
1.0
141
4.0
290
     0
  0
SCALE
  5
8EB9
102
{ACAD_REACTORS
330
8EB5
102
}
330
8EB5
100
AcDbScale
 70
     0
300
1:5
140
1.0
141
5.0
290
     0
  0
SCALE
  5
8EBA
102
{ACAD_REACTORS
330
8EB5
102
}
330
8EB5
100
AcDbScale
 70
     0
300
1:8
140
1.0
141
8.0
290
     0
  0
SCALE
  5
8EBB
102
{ACAD_REACTORS
330
8EB5
102
}
330
8EB5
100
AcDbScale
 70
     0
300
1:10
140
1.0
141
10.0
290
     0
  0
SCALE
  5
8EBC
102
{ACAD_REACTORS
330
8EB5
102
}
330
8EB5
100
AcDbScale
 70
     0
300
1:16
140
1.0
141
16.0
290
     0
  0
SCALE
  5
8EBD
102
{ACAD_REACTORS
330
8EB5
102
}
330
8EB5
100
AcDbScale
 70
     0
300
1:20
140
1.0
141
20.0
290
     0
  0
SCALE
  5
8EBE
102
{ACAD_REACTORS
330
8EB5
102
}
330
8EB5
100
AcDbScale
 70
     0
300
1:30
140
1.0
141
30.0
290
     0
  0
SCALE
  5
8EBF
102
{ACAD_REACTORS
330
8EB5
102
}
330
8EB5
100
AcDbScale
 70
     0
300
1:40
140
1.0
141
40.0
290
     0
  0
SCALE
  5
8EC0
102
{ACAD_REACTORS
330
8EB5
102
}
330
8EB5
100
AcDbScale
 70
     0
300
1:50
140
1.0
141
50.0
290
     0
  0
SCALE
  5
8EC1
102
{ACAD_REACTORS
330
8EB5
102
}
330
8EB5
100
AcDbScale
 70
     0
300
1:100
140
1.0
141
100.0
290
     0
  0
SCALE
  5
8EC2
102
{ACAD_REACTORS
330
8EB5
102
}
330
8EB5
100
AcDbScale
 70
     0
300
2:1
140
2.0
141
1.0
290
     0
  0
SCALE
  5
8EC3
102
{ACAD_REACTORS
330
8EB5
102
}
330
8EB5
100
AcDbScale
 70
     0
300
4:1
140
4.0
141
1.0
290
     0
  0
SCALE
  5
8EC4
102
{ACAD_REACTORS
330
8EB5
102
}
330
8EB5
100
AcDbScale
 70
     0
300
8:1
140
8.0
141
1.0
290
     0
  0
SCALE
  5
8EC5
102
{ACAD_REACTORS
330
8EB5
102
}
330
8EB5
100
AcDbScale
 70
     0
300
10:1
140
10.0
141
1.0
290
     0
  0
SCALE
  5
8EC6
102
{ACAD_REACTORS
330
8EB5
102
}
330
8EB5
100
AcDbScale
 70
     0
300
100:1
140
100.0
141
1.0
290
     0
  0
SCALE
  5
8EC7
102
{ACAD_REACTORS
330
8EB5
102
}
330
8EB5
100
AcDbScale
 70
     0
300
1/128" = 1'-0"
140
0.0078125
141
12.0
290
     0
  0
SCALE
  5
8EC8
102
{ACAD_REACTORS
330
8EB5
102
}
330
8EB5
100
AcDbScale
 70
     0
300
1/64" = 1'-0"
140
0.015625
141
12.0
290
     0
  0
SCALE
  5
8EC9
102
{ACAD_REACTORS
330
8EB5
102
}
330
8EB5
100
AcDbScale
 70
     0
300
1/32" = 1'-0"
140
0.03125
141
12.0
290
     0
  0
SCALE
  5
8ECA
102
{ACAD_REACTORS
330
8EB5
102
}
330
8EB5
100
AcDbScale
 70
     0
300
1/16" = 1'-0"
140
0.0625
141
12.0
290
     0
  0
SCALE
  5
8ECB
102
{ACAD_REACTORS
330
8EB5
102
}
330
8EB5
100
AcDbScale
 70
     0
300
3/32" = 1'-0"
140
0.09375
141
12.0
290
     0
  0
SCALE
  5
8ECC
102
{ACAD_REACTORS
330
8EB5
102
}
330
8EB5
100
AcDbScale
 70
     0
300
1/8" = 1'-0"
140
0.125
141
12.0
290
     0
  0
SCALE
  5
8ECD
102
{ACAD_REACTORS
330
8EB5
102
}
330
8EB5
100
AcDbScale
 70
     0
300
3/16" = 1'-0"
140
0.1875
141
12.0
290
     0
  0
SCALE
  5
8ECE
102
{ACAD_REACTORS
330
8EB5
102
}
330
8EB5
100
AcDbScale
 70
     0
300
1/4" = 1'-0"
140
0.25
141
12.0
290
     0
  0
SCALE
  5
8ECF
102
{ACAD_REACTORS
330
8EB5
102
}
330
8EB5
100
AcDbScale
 70
     0
300
3/8" = 1'-0"
140
0.375
141
12.0
290
     0
  0
SCALE
  5
8ED0
102
{ACAD_REACTORS
330
8EB5
102
}
330
8EB5
100
AcDbScale
 70
     0
300
1/2" = 1'-0"
140
0.5
141
12.0
290
     0
  0
SCALE
  5
8ED1
102
{ACAD_REACTORS
330
8EB5
102
}
330
8EB5
100
AcDbScale
 70
     0
300
3/4" = 1'-0"
140
0.75
141
12.0
290
     0
  0
SCALE
  5
8ED2
102
{ACAD_REACTORS
330
8EB5
102
}
330
8EB5
100
AcDbScale
 70
     0
300
1" = 1'-0"
140
1.0
141
12.0
290
     0
  0
SCALE
  5
8ED3
102
{ACAD_REACTORS
330
8EB5
102
}
330
8EB5
100
AcDbScale
 70
     0
300
1-1/2" = 1'-0"
140
1.5
141
12.0
290
     0
  0
SCALE
  5
8ED4
102
{ACAD_REACTORS
330
8EB5
102
}
330
8EB5
100
AcDbScale
 70
     0
300
3" = 1'-0"
140
3.0
141
12.0
290
     0
  0
SCALE
  5
8ED5
102
{ACAD_REACTORS
330
8EB5
102
}
330
8EB5
100
AcDbScale
 70
     0
300
6" = 1'-0"
140
6.0
141
12.0
290
     0
  0
SCALE
  5
8ED6
102
{ACAD_REACTORS
330
8EB5
102
}
330
8EB5
100
AcDbScale
 70
     0
300
1'-0" = 1'-0"
140
12.0
141
12.0
290
     0
  0
ACDBSECTIONVIEWSTYLE
  5
F0FF
102
{ACAD_XDICTIONARY
360
F179
102
}
102
{ACAD_REACTORS
330
F0FE
330
F117
102
}
330
F0FE
100
AcDbModelDocViewStyle
 70
     0
  3
Metric50
290
     0
100
AcDbSectionViewStyle
 70
     0
 71
     0
 90
      102
 71
     1
340
10
 40
5.0
340
0
340
0
 40
5.0
300
I, O, Q, S, X, Z
 40
10.0
 90
        0
 40
2.5
 90
        0
 71
     2
340
14
 90
       25
340
14
 90
       50
 40
5.0
 40
2.5
 40
5.0
 71
     3
340
10
 40
5.0
 90
        0
 40
15.0
 90
        1
300
%<\AcVar ViewSectionStartId>%-%<\AcVar ViewSectionEndId>% (%<\AcVar ViewScale \f "%sn">%)
 71
     4
300
ANSI31
 40
1.0
 90
        0
290
     0
290
     0
 90
        6
 40
0.0
 40
1.570796326794896
 40
0.2617993877991494
 40
1.308996938995747
 40
-0.2617993877991494
 40
1.832595714594046
  0
TABLESTYLE
  5
84A9
102
{ACAD_XDICTIONARY
360
8EFC
102
}
102
{ACAD_REACTORS
330
84A8
102
}
330
84A8
100
AcDbTableStyle
  3
Standard
 70
     0
 71
     0
 40
1.5
 41
1.5
280
     0
281
     0
  7
STANDARD
140
4.5
170
     2
 62
     0
 63
     7
283
     0
274
    -2
284
     1
 64
     0
275
    -2
285
     1
 65
     0
276
    -2
286
     1
 66
     0
277
    -2
287
     1
 67
     0
278
    -2
288
     1
 68
     0
279
    -2
289
     1
 69
     0
  7
STANDARD
140
6.0
170
     5
 62
     0
 63
     7
283
     0
274
    -2
284
     1
 64
     0
275
    -2
285
     1
 65
     0
276
    -2
286
     1
 66
     0
277
    -2
287
     1
 67
     0
278
    -2
288
     1
 68
     0
279
    -2
289
     1
 69
     0
  7
STANDARD
140
4.5
170
     5
 62
     0
 63
     7
283
     0
274
    -2
284
     1
 64
     0
275
    -2
285
     1
 65
     0
276
    -2
286
     1
 66
     0
277
    -2
287
     1
 67
     0
278
    -2
288
     1
 68
     0
279
    -2
289
     1
 69
     0
  0
VISUALSTYLE
  5
8EAA
102
{ACAD_XDICTIONARY
360
F14D
102
}
102
{ACAD_REACTORS
330
8EA4
102
}
330
8EA4
100
AcDbVisualStyle
  2
2dWireframe
 70
     4
 71
     0
 72
     2
 73
     0
 90
        0
 40
-0.6
 41
-30.0
 62
     5
 63
     7
 74
     1
 91
        4
 64
     7
 65
   257
 75
     1
175
     1
 42
1.0
 92
        0
 66
   257
 43
1.0
 76
     1
 77
     6
 78
     2
 67
     7
 79
     5
170
     0
171
     0
290
     0
174
     0
 93
        1
 44
0.0
173
     0
291
     0
 45
0.0
1001
ACAD
1000
AcDbSavedByObjectVersion
1070
     0
  0
VISUALSTYLE
  5
8EAC
102
{ACAD_XDICTIONARY
360
F151
102
}
102
{ACAD_REACTORS
330
8EA4
102
}
330
8EA4
100
AcDbVisualStyle
  2
3D Hidden
 70
     6
 71
     1
 72
     2
 73
     2
 90
        0
 40
-0.6
 41
-30.0
 62
     5
 63
     7
 74
     2
 91
        2
 64
     7
 65
   257
 75
     2
175
     1
 42
40.0
 92
        0
 66
   257
 43
1.0
 76
     1
 77
     6
 78
     2
 67
     7
 79
     3
170
     0
171
     0
290
     0
174
     0
 93
        1
 44
0.0
173
     0
291
     0
 45
0.0
1001
ACAD
1000
AcDbSavedByObjectVersion
1070
     0
  0
VISUALSTYLE
  5
8EAB
102
{ACAD_XDICTIONARY
360
F14F
102
}
102
{ACAD_REACTORS
330
8EA4
102
}
330
8EA4
100
AcDbVisualStyle
  2
3dWireframe
 70
     5
 71
     0
 72
     2
 73
     0
 90
        0
 40
-0.6
 41
-30.0
 62
     5
 63
     7
 74
     1
 91
        4
 64
     7
 65
   257
 75
     1
175
     1
 42
1.0
 92
        0
 66
   257
 43
1.0
 76
     1
 77
     6
 78
     2
 67
     7
 79
     5
170
     0
171
     0
290
     0
174
     0
 93
        1
 44
0.0
173
     0
291
     0
 45
0.0
1001
ACAD
1000
AcDbSavedByObjectVersion
1070
     0
  0
VISUALSTYLE
  5
8EA9
102
{ACAD_XDICTIONARY
360
F14B
102
}
102
{ACAD_REACTORS
330
8EA4
102
}
330
8EA4
100
AcDbVisualStyle
  2
Basic
 70
     7
 71
     1
 72
     0
 73
     1
 90
        0
 40
-0.6
 41
-30.0
 62
     5
 63
     7
 74
     0
 91
        4
 64
     7
 65
   257
 75
     1
175
     1
 42
1.0
 92
        8
 66
     7
 43
1.0
 76
     1
 77
     6
 78
     2
 67
     7
 79
     5
170
     0
171
     0
290
     0
174
     0
 93
        1
 44
0.0
173
     0
291
     1
 45
0.0
1001
ACAD
1000
AcDbSavedByObjectVersion
1070
     0
  0
VISUALSTYLE
  5
8EB0
102
{ACAD_XDICTIONARY
360
F159
102
}
102
{ACAD_REACTORS
330
8EA4
102
}
330
8EA4
100
AcDbVisualStyle
  2
Brighten
 70
    12
 71
     2
 72
     2
 73
     0
 90
        0
 40
-0.6
 41
-30.0
 62
     5
 63
     7
 74
     1
 91
        4
 64
     7
 65
   257
 75
     1
175
     1
 42
1.0
 92
        8
 66
     7
 43
1.0
 76
     1
 77
     6
 78
     2
 67
     7
 79
     5
170
     0
171
     0
290
     0
174
     0
 93
        1
 44
50.0
173
     0
291
     1
 45
0.0
1001
ACAD
1000
AcDbSavedByObjectVersion
1070
     0
  0
VISUALSTYLE
  5
8EB4
102
{ACAD_XDICTIONARY
360
F161
102
}
102
{ACAD_REACTORS
330
8EA4
102
}
330
8EA4
100
AcDbVisualStyle
  2
ColorChange
 70
    16
 71
     2
 72
     2
 73
     3
 90
        0
 40
-0.6
 41
-30.0
 62
     5
 63
     8
 74
     1
 91
        4
 64
     7
 65
   257
 75
     1
175
     1
 42
1.0
 92
        8
 66
     8
 43
1.0
 76
     1
 77
     6
 78
     2
 67
     7
 79
     5
170
     0
171
     0
290
     0
174
     0
 93
        1
 44
0.0
173
     0
291
     1
 45
0.0
1001
ACAD
1000
AcDbSavedByObjectVersion
1070
     0
  0
VISUALSTYLE
  5
8EAD
102
{ACAD_XDICTIONARY
360
F153
102
}
102
{ACAD_REACTORS
330
8EA4
102
}
330
8EA4
100
AcDbVisualStyle
  2
Conceptual
 70
     9
 71
     3
 72
     2
 73
     0
 90
        0
 40
-0.6
 41
-30.0
 62
     5
 63
     7
 74
     2
 91
        2
 64
     7
 65
   257
 75
     1
175
     1
 42
40.0
 92
        8
 66
     7
 43
1.0
 76
     1
 77
     6
 78
     2
 67
     7
 79
     3
170
     0
171
     0
290
     0
174
     0
 93
        1
 44
0.0
173
     0
291
     0
 45
0.0
1001
ACAD
1000
AcDbSavedByObjectVersion
1070
     0
  0
VISUALSTYLE
  5
8EAF
102
{ACAD_XDICTIONARY
360
F157
102
}
102
{ACAD_REACTORS
330
8EA4
102
}
330
8EA4
100
AcDbVisualStyle
  2
Dim
 70
    11
 71
     2
 72
     2
 73
     0
 90
        0
 40
-0.6
 41
-30.0
 62
     5
 63
     7
 74
     1
 91
        4
 64
     7
 65
   257
 75
     1
175
     1
 42
1.0
 92
        8
 66
     7
 43
1.0
 76
     1
 77
     6
 78
     2
 67
     7
 79
     5
170
     0
171
     0
290
     0
174
     0
 93
        1
 44
-50.0
173
     0
291
     1
 45
0.0
1001
ACAD
1000
AcDbSavedByObjectVersion
1070
     0
  0
VISUALSTYLE
  5
BB4D
102
{ACAD_XDICTIONARY
360
F177
102
}
102
{ACAD_REACTORS
330
8EA4
102
}
330
8EA4
100
AcDbVisualStyle
  2
EdgeColorOff
 70
    22
 71
     2
 72
     2
 73
     0
 90
        0
 40
-0.6
 41
-30.0
 62
     5
 63
     7
 74
     1
 91
        4
 64
     7
 65
   257
 75
     1
175
     1
 42
1.0
 92
        8
 66
     7
 43
1.0
 76
     1
 77
     6
 78
     2
 67
     7
 79
     5
170
     0
171
     0
290
     0
174
     0
 93
        1
 44
0.0
173
     0
291
     1
 45
0.0
1001
ACAD
1000
AcDbSavedByObjectVersion
1070
     0
  0
VISUALSTYLE
  5
8EB3
102
{ACAD_XDICTIONARY
360
F15F
102
}
102
{ACAD_REACTORS
330
8EA4
102
}
330
8EA4
100
AcDbVisualStyle
  2
Facepattern
 70
    15
 71
     2
 72
     2
 73
     0
 90
        0
 40
-0.6
 41
-30.0
 62
     5
 63
     7
 74
     1
 91
        4
 64
     7
 65
   257
 75
     1
175
     1
 42
1.0
 92
        8
 66
     7
 43
1.0
 76
     1
 77
     6
 78
     2
 67
     7
 79
     5
170
     0
171
     0
290
     0
174
     0
 93
        1
 44
0.0
173
     0
291
     1
 45
0.0
1001
ACAD
1000
AcDbSavedByObjectVersion
1070
     0
  0
VISUALSTYLE
  5
8EA5
102
{ACAD_XDICTIONARY
360
F143
102
}
102
{ACAD_REACTORS
330
8EA4
102
}
330
8EA4
100
AcDbVisualStyle
  2
Flat
 70
     0
 71
     2
 72
     1
 73
     1
 90
        2
 40
-0.6
 41
30.0
 62
     5
 63
     7
 74
     0
 91
        4
 64
     7
 65
   257
 75
     1
175
     1
 42
1.0
 92
        8
 66
     7
 43
1.0
 76
     1
 77
     6
 78
     2
 67
     7
 79
     5
170
     0
171
     0
290
     0
174
     0
 93
       13
 44
0.0
173
     0
291
     1
 45
0.0
1001
ACAD
1000
AcDbSavedByObjectVersion
1070
     0
  0
VISUALSTYLE
  5
8EA6
102
{ACAD_XDICTIONARY
360
F145
102
}
102
{ACAD_REACTORS
330
8EA4
102
}
330
8EA4
100
AcDbVisualStyle
  2
FlatWithEdges
 70
     1
 71
     2
 72
     1
 73
     1
 90
        2
 40
-0.6
 41
30.0
 62
     5
 63
     7
 74
     1
 91
        4
 64
     7
 65
   257
 75
     1
175
     1
 42
1.0
 92
        0
 66
   257
 43
1.0
 76
     1
 77
     6
 78
     2
 67
     7
 79
     5
170
     0
171
     0
290
     0
174
     0
 93
       13
 44
0.0
173
     0
291
     1
 45
0.0
1001
ACAD
1000
AcDbSavedByObjectVersion
1070
     0
  0
VISUALSTYLE
  5
8EA7
102
{ACAD_XDICTIONARY
360
F147
102
}
102
{ACAD_REACTORS
330
8EA4
102
}
330
8EA4
100
AcDbVisualStyle
  2
Gouraud
 70
     2
 71
     2
 72
     2
 73
     1
 90
        2
 40
-0.6
 41
30.0
 62
     5
 63
     7
 74
     0
 91
        4
 64
     7
 65
   257
 75
     1
175
     1
 42
1.0
 92
        0
 66
     7
 43
1.0
 76
     1
 77
     6
 78
     2
 67
     7
 79
     5
170
     0
171
     0
290
     0
174
     0
 93
       13
 44
0.0
173
     0
291
     1
 45
0.0
1001
ACAD
1000
AcDbSavedByObjectVersion
1070
     0
  0
VISUALSTYLE
  5
8EA8
102
{ACAD_XDICTIONARY
360
F149
102
}
102
{ACAD_REACTORS
330
8EA4
102
}
330
8EA4
100
AcDbVisualStyle
  2
GouraudWithEdges
 70
     3
 71
     2
 72
     2
 73
     1
 90
        2
 40
-0.6
 41
30.0
 62
     5
 63
     7
 74
     1
 91
        4
 64
     7
 65
   257
 75
     1
175
     1
 42
1.0
 92
        0
 66
   257
 43
1.0
 76
     1
 77
     6
 78
     2
 67
     7
 79
     5
170
     0
171
     0
290
     0
174
     0
 93
       13
 44
0.0
173
     0
291
     1
 45
0.0
1001
ACAD
1000
AcDbSavedByObjectVersion
1070
     0
  0
VISUALSTYLE
  5
BB45
102
{ACAD_XDICTIONARY
360
F167
102
}
102
{ACAD_REACTORS
330
8EA4
102
}
330
8EA4
100
AcDbVisualStyle
  2
Hidden
 70
     6
 71
     1
 72
     2
 73
     2
 90
        0
 40
-0.6
 41
-30.0
 62
     5
 63
     7
 74
     2
 91
        2
 64
     7
 65
   257
 75
     2
175
     1
 42
40.0
 92
        0
 66
   257
 43
1.0
 76
     1
 77
     6
 78
     2
 67
     7
 79
     3
170
     0
171
     0
290
     0
174
     0
 93
        1
 44
0.0
173
     0
291
     0
 45
0.0
1001
ACAD
1000
AcDbSavedByObjectVersion
1070
     0
  0
VISUALSTYLE
  5
BB4B
102
{ACAD_XDICTIONARY
360
F173
102
}
102
{ACAD_REACTORS
330
8EA4
102
}
330
8EA4
100
AcDbVisualStyle
  2
JitterOff
 70
    20
 71
     2
 72
     2
 73
     0
 90
        0
 40
-0.6
 41
-30.0
 62
     5
 63
     7
 74
     1
 91
        4
 64
     7
 65
   257
 75
     1
175
     1
 42
1.0
 92
       10
 66
     7
 43
1.0
 76
     1
 77
     6
 78
     2
 67
     7
 79
     5
170
     0
171
     0
290
     0
174
     0
 93
        1
 44
0.0
173
     0
291
     1
 45
0.0
1001
ACAD
1000
AcDbSavedByObjectVersion
1070
     0
  0
VISUALSTYLE
  5
8EB2
102
{ACAD_XDICTIONARY
360
F15D
102
}
102
{ACAD_REACTORS
330
8EA4
102
}
330
8EA4
100
AcDbVisualStyle
  2
Linepattern
 70
    14
 71
     2
 72
     2
 73
     0
 90
        0
 40
-0.6
 41
-30.0
 62
     5
 63
     7
 74
     1
 91
        4
 64
     7
 65
   257
 75
     7
175
     7
 42
1.0
 92
        8
 66
     7
 43
1.0
 76
     1
 77
     6
 78
     2
 67
     7
 79
     5
170
     0
171
     0
290
     0
174
     0
 93
        1
 44
0.0
173
     0
291
     1
 45
0.0
1001
ACAD
1000
AcDbSavedByObjectVersion
1070
     0
  0
VISUALSTYLE
  5
BB4C
102
{ACAD_XDICTIONARY
360
F175
102
}
102
{ACAD_REACTORS
330
8EA4
102
}
330
8EA4
100
AcDbVisualStyle
  2
OverhangOff
 70
    21
 71
     2
 72
     2
 73
     0
 90
        0
 40
-0.6
 41
-30.0
 62
     5
 63
     7
 74
     1
 91
        4
 64
     7
 65
   257
 75
     1
175
     1
 42
1.0
 92
        9
 66
     7
 43
1.0
 76
     1
 77
     6
 78
     2
 67
     7
 79
     5
170
     0
171
     0
290
     0
174
     0
 93
        1
 44
0.0
173
     0
291
     1
 45
0.0
1001
ACAD
1000
AcDbSavedByObjectVersion
1070
     0
  0
VISUALSTYLE
  5
8EAE
102
{ACAD_XDICTIONARY
360
F155
102
}
102
{ACAD_REACTORS
330
8EA4
102
}
330
8EA4
100
AcDbVisualStyle
  2
Realistic
 70
     8
 71
     2
 72
     2
 73
     0
 90
        0
 40
-0.6
 41
-30.0
 62
     5
 63
     7
 74
     1
 91
        0
 64
     7
 65
   257
 75
     1
175
     1
 42
1.0
 92
        8
 66
     8
 43
1.0
 76
     1
 77
     6
 78
     2
 67
     7
 79
     5
170
     0
171
     0
290
     0
174
     0
 93
       13
 44
0.0
173
     0
291
     0
 45
0.0
1001
ACAD
1000
AcDbSavedByObjectVersion
1070
     0
  0
VISUALSTYLE
  5
BB4A
102
{ACAD_XDICTIONARY
360
F171
102
}
102
{ACAD_REACTORS
330
8EA4
102
}
330
8EA4
100
AcDbVisualStyle
  2
Shaded
 70
    27
 71
     2
 72
     2
 73
     1
 90
        2
 40
-0.6
 41
30.0
 62
     5
 63
     7
 74
     0
 91
        4
 64
     7
 65
   257
 75
     1
175
     1
 42
1.0
 92
        8
 66
   257
 43
1.0
 76
     1
 77
     6
 78
     2
 67
     8
 79
     3
170
     0
171
     0
290
     0
174
     0
 93
        5
 44
0.0
173
     0
291
     0
 45
0.0
1001
ACAD
1000
AcDbSavedByObjectVersion
1070
     0
  0
VISUALSTYLE
  5
BB49
102
{ACAD_XDICTIONARY
360
F16F
102
}
102
{ACAD_REACTORS
330
8EA4
102
}
330
8EA4
100
AcDbVisualStyle
  2
Shaded with edges
 70
    26
 71
     2
 72
     2
 73
     1
 90
        2
 40
-0.6
 41
30.0
 62
     5
 63
     7
 74
     1
 91
       10
 64
     7
 65
   257
 75
     2
175
     1
 42
1.0
 92
        8
 66
   257
 43
1.0
 76
     1
 77
     6
 78
     2
 67
     7
 79
     3
170
     0
171
     0
290
     0
174
     0
 93
        5
 44
0.0
173
     0
291
     0
 45
0.0
1001
ACAD
1000
AcDbSavedByObjectVersion
1070
     0
  0
VISUALSTYLE
  5
BB46
102
{ACAD_XDICTIONARY
360
F169
102
}
102
{ACAD_REACTORS
330
8EA4
102
}
330
8EA4
100
AcDbVisualStyle
  2
Shades of Gray
 70
    23
 71
     2
 72
     2
 73
     3
 90
        0
 40
-0.6
 41
-30.0
 62
     5
 63
     7
 74
     2
 91
        2
 64
     7
 65
     7
 75
     1
175
     1
 42
40.0
 92
        8
 66
     7
 43
1.0
 76
     1
 77
     6
 78
     2
 67
     7
 79
     3
170
     0
171
     0
290
     0
174
     0
 93
        1
 44
0.0
173
     0
291
     0
 45
0.0
1001
ACAD
1000
AcDbSavedByObjectVersion
1070
     0
  0
VISUALSTYLE
  5
BB47
102
{ACAD_XDICTIONARY
360
F16B
102
}
102
{ACAD_REACTORS
330
8EA4
102
}
330
8EA4
100
AcDbVisualStyle
  2
Sketchy
 70
    24
 71
     1
 72
     2
 73
     2
 90
        0
 40
-0.6
 41
-30.0
 62
     5
 63
     7
 74
     2
 91
        2
 64
     7
 65
     7
 75
     1
175
     1
 42
40.0
 92
       11
 66
     7
 43
1.0
 76
     1
 77
     6
 78
     2
 67
     7
 79
     6
170
     0
171
     0
290
     0
174
     0
 93
        1
 44
0.0
173
     0
291
     0
 45
0.0
1001
ACAD
1000
AcDbSavedByObjectVersion
1070
     0
  0
VISUALSTYLE
  5
8EB1
102
{ACAD_XDICTIONARY
360
F15B
102
}
102
{ACAD_REACTORS
330
8EA4
102
}
330
8EA4
100
AcDbVisualStyle
  2
Thicken
 70
    13
 71
     2
 72
     2
 73
     0
 90
        0
 40
-0.6
 41
-30.0
 62
     5
 63
     7
 74
     1
 91
        4
 64
     7
 65
   257
 75
     1
175
     1
 42
1.0
 92
       12
 66
     7
 43
1.0
 76
     1
 77
     6
 78
     2
 67
     7
 79
     5
170
     0
171
     0
290
     0
174
     0
 93
        1
 44
0.0
173
     0
291
     1
 45
0.0
1001
ACAD
1000
AcDbSavedByObjectVersion
1070
     0
  0
VISUALSTYLE
  5
BB44
102
{ACAD_XDICTIONARY
360
F165
102
}
102
{ACAD_REACTORS
330
8EA4
102
}
330
8EA4
100
AcDbVisualStyle
  2
Wireframe
 70
     5
 71
     0
 72
     2
 73
     0
 90
        0
 40
-0.6
 41
-30.0
 62
     5
 63
     7
 74
     1
 91
        4
 64
     7
 65
   257
 75
     1
175
     1
 42
1.0
 92
        0
 66
   257
 43
1.0
 76
     1
 77
     6
 78
     2
 67
     7
 79
     3
170
     0
171
     0
290
     0
174
     0
 93
        1
 44
0.0
173
     0
291
     0
 45
0.0
1001
ACAD
1000
AcDbSavedByObjectVersion
1070
     0
  0
VISUALSTYLE
  5
BB48
102
{ACAD_XDICTIONARY
360
F16D
102
}
102
{ACAD_REACTORS
330
8EA4
102
}
330
8EA4
100
AcDbVisualStyle
  2
X-Ray
 70
    25
 71
     2
 72
     2
 73
     1
 90
        1
 40
0.5
 41
-30.0
 62
     5
 63
     7
 74
     1
 91
        0
 64
     7
 65
   257
 75
     1
175
     1
 42
1.0
 92
        8
 66
     7
 43
1.0
 76
     1
 77
     6
 78
     2
 67
     7
 79
     3
170
     0
171
     0
290
     0
174
     0
 93
       13
 44
0.0
173
     0
291
     0
 45
0.0
1001
ACAD
1000
AcDbSavedByObjectVersion
1070
     0
  0
DICTIONARYVAR
  5
8F01
102
{ACAD_REACTORS
330
86EE
102
}
330
86EE
100
DictionaryVariables
280
     0
  1
1:1
  0
DICTIONARYVAR
  5
8EFF
102
{ACAD_REACTORS
330
86EE
102
}
330
86EE
100
DictionaryVariables
280
     0
  1
STANDARD
  0
DICTIONARYVAR
  5
86EF
102
{ACAD_REACTORS
330
86EE
102
}
330
86EE
100
DictionaryVariables
280
     0
  1
STANDARD
  0
DICTIONARYVAR
  5
F130
102
{ACAD_REACTORS
330
86EE
102
}
330
86EE
100
DictionaryVariables
280
     0
  1
Metric50
  0
DICTIONARYVAR
  5
F131
102
{ACAD_REACTORS
330
86EE
102
}
330
86EE
100
DictionaryVariables
280
     0
  1
Metric50
  0
DICTIONARYVAR
  5
F135
102
{ACAD_REACTORS
330
86EE
102
}
330
86EE
100
DictionaryVariables
280
     0
  1
1
  0
DICTIONARYVAR
  5
F133
102
{ACAD_REACTORS
330
86EE
102
}
330
86EE
100
DictionaryVariables
280
     0
  1
0
  0
DICTIONARYVAR
  5
A129
102
{ACAD_REACTORS
330
86EE
102
}
330
86EE
100
DictionaryVariables
280
     0
  1
1
  0
DICTIONARYVAR
  5
A12A
102
{ACAD_REACTORS
330
86EE
102
}
330
86EE
100
DictionaryVariables
280
     0
  1
15
  0
DICTIONARYVAR
  5
8F02
102
{ACAD_REACTORS
330
86EE
102
}
330
86EE
100
DictionaryVariables
280
     0
  1
0
  0
DICTIONARYVAR
  5
8F00
102
{ACAD_REACTORS
330
86EE
102
}
330
86EE
100
DictionaryVariables
280
     0
  1
0
  0
DICTIONARYVAR
  5
F136
102
{ACAD_REACTORS
330
86EE
102
}
330
86EE
100
DictionaryVariables
280
     0
  1
1
  0
DICTIONARYVAR
  5
F132
102
{ACAD_REACTORS
330
86EE
102
}
330
86EE
100
DictionaryVariables
280
     0
  1
127
  0
DICTIONARYVAR
  5
F134
102
{ACAD_REACTORS
330
86EE
102
}
330
86EE
100
DictionaryVariables
280
     0
  1
0
  0
DICTIONARY
  5
8516
102
{ACAD_REACTORS
330
850B
102
}
330
850B
100
AcDbDictionary
281
     1
  0
XRECORD
  5
8533
102
{ACAD_REACTORS
330
850B
102
}
330
850B
100
AcDbXrecord
280
     1
 90
-1023410169
  0
XRECORD
  5
F12F
102
{ACAD_REACTORS
330
F12D
102
}
330
F12D
100
AcDbXrecord
280
     1
330
EB19
330
EFE4
330
EFE5
330
EFE6
330
EFE7
330
EFF3
330
F02D
330
F02E
330
F037
330
F038
  0
DICTIONARY
  5
F17B
330
F101
100
AcDbDictionary
280
     1
281
     1
  3
ACAD_XREC_ROUNDTRIP
360
F17C
  0
DICTIONARY
  5
E108
330
4B7
100
AcDbDictionary
280
     1
281
     1
  3
ACAD_XREC_ROUNDTRIP
360
F13C
  3
ADSK_XREC_LAYOUTTHUMBNAIL
360
E109
  0
DICTIONARY
  5
F13D
330
4B8
100
AcDbDictionary
280
     1
281
     1
  3
ACAD_XREC_ROUNDTRIP
360
F13E
  0
DICTIONARY
  5
8E95
330
8E94
100
AcDbDictionary
280
     1
281
     1
  3
ACAD_XREC_ROUNDTRIP
360
F141
  3
BUMPTILE
360
8E97
  3
DIFFUSETILE
360
8E96
  3
OPACITYTILE
360
8E9A
  3
REFLECTIONTILE
360
8E99
  3
REFRACTIONTILE
360
8E9B
  3
SPECULARTILE
360
8E98
  0
DICTIONARY
  5
8E8D
330
8E8C
100
AcDbDictionary
280
     1
281
     1
  3
ACAD_XREC_ROUNDTRIP
360
F140
  3
BUMPTILE
360
8E8F
  3
DIFFUSETILE
360
8E8E
  3
OPACITYTILE
360
8E92
  3
REFLECTIONTILE
360
8E91
  3
REFRACTIONTILE
360
8E93
  3
SPECULARTILE
360
8E90
  0
DICTIONARY
  5
8E9D
330
8E9C
100
AcDbDictionary
280
     1
281
     1
  3
ACAD_XREC_ROUNDTRIP
360
F142
  3
BUMPTILE
360
8E9F
  3
DIFFUSETILE
360
8E9E
  3
OPACITYTILE
360
8EA2
  3
REFLECTIONTILE
360
8EA1
  3
REFRACTIONTILE
360
8EA3
  3
SPECULARTILE
360
8EA0
  0
DICTIONARY
  5
F163
330
8ED8
100
AcDbDictionary
280
     1
281
     1
  3
ACAD_XREC_ROUNDTRIP
360
F164
  0
DICTIONARY
  5
F179
330
F0FF
100
AcDbDictionary
280
     1
281
     1
  3
ACAD_XREC_ROUNDTRIP
360
F17A
  0
DICTIONARY
  5
8EFC
330
84A9
100
AcDbDictionary
280
     1
281
     1
  3
ACAD_ROUNDTRIP_2008_TABLESTYLE_CELLSTYLEMAP
360
F137
  3
ACAD_XREC_ROUNDTRIP
360
F13F
  0
DICTIONARY
  5
F14D
330
8EAA
100
AcDbDictionary
280
     1
281
     1
  3
ACAD_XREC_ROUNDTRIP
360
F14E
  0
DICTIONARY
  5
F151
330
8EAC
100
AcDbDictionary
280
     1
281
     1
  3
ACAD_XREC_ROUNDTRIP
360
F152
  0
DICTIONARY
  5
F14F
330
8EAB
100
AcDbDictionary
280
     1
281
     1
  3
ACAD_XREC_ROUNDTRIP
360
F150
  0
DICTIONARY
  5
F14B
330
8EA9
100
AcDbDictionary
280
     1
281
     1
  3
ACAD_XREC_ROUNDTRIP
360
F14C
  0
DICTIONARY
  5
F159
330
8EB0
100
AcDbDictionary
280
     1
281
     1
  3
ACAD_XREC_ROUNDTRIP
360
F15A
  0
DICTIONARY
  5
F161
330
8EB4
100
AcDbDictionary
280
     1
281
     1
  3
ACAD_XREC_ROUNDTRIP
360
F162
  0
DICTIONARY
  5
F153
330
8EAD
100
AcDbDictionary
280
     1
281
     1
  3
ACAD_XREC_ROUNDTRIP
360
F154
  0
DICTIONARY
  5
F157
330
8EAF
100
AcDbDictionary
280
     1
281
     1
  3
ACAD_XREC_ROUNDTRIP
360
F158
  0
DICTIONARY
  5
F177
330
BB4D
100
AcDbDictionary
280
     1
281
     1
  3
ACAD_XREC_ROUNDTRIP
360
F178
  0
DICTIONARY
  5
F15F
330
8EB3
100
AcDbDictionary
280
     1
281
     1
  3
ACAD_XREC_ROUNDTRIP
360
F160
  0
DICTIONARY
  5
F143
330
8EA5
100
AcDbDictionary
280
     1
281
     1
  3
ACAD_XREC_ROUNDTRIP
360
F144
  0
DICTIONARY
  5
F145
330
8EA6
100
AcDbDictionary
280
     1
281
     1
  3
ACAD_XREC_ROUNDTRIP
360
F146
  0
DICTIONARY
  5
F147
330
8EA7
100
AcDbDictionary
280
     1
281
     1
  3
ACAD_XREC_ROUNDTRIP
360
F148
  0
DICTIONARY
  5
F149
330
8EA8
100
AcDbDictionary
280
     1
281
     1
  3
ACAD_XREC_ROUNDTRIP
360
F14A
  0
DICTIONARY
  5
F167
330
BB45
100
AcDbDictionary
280
     1
281
     1
  3
ACAD_XREC_ROUNDTRIP
360
F168
  0
DICTIONARY
  5
F173
330
BB4B
100
AcDbDictionary
280
     1
281
     1
  3
ACAD_XREC_ROUNDTRIP
360
F174
  0
DICTIONARY
  5
F15D
330
8EB2
100
AcDbDictionary
280
     1
281
     1
  3
ACAD_XREC_ROUNDTRIP
360
F15E
  0
DICTIONARY
  5
F175
330
BB4C
100
AcDbDictionary
280
     1
281
     1
  3
ACAD_XREC_ROUNDTRIP
360
F176
  0
DICTIONARY
  5
F155
330
8EAE
100
AcDbDictionary
280
     1
281
     1
  3
ACAD_XREC_ROUNDTRIP
360
F156
  0
DICTIONARY
  5
F171
330
BB4A
100
AcDbDictionary
280
     1
281
     1
  3
ACAD_XREC_ROUNDTRIP
360
F172
  0
DICTIONARY
  5
F16F
330
BB49
100
AcDbDictionary
280
     1
281
     1
  3
ACAD_XREC_ROUNDTRIP
360
F170
  0
DICTIONARY
  5
F169
330
BB46
100
AcDbDictionary
280
     1
281
     1
  3
ACAD_XREC_ROUNDTRIP
360
F16A
  0
DICTIONARY
  5
F16B
330
BB47
100
AcDbDictionary
280
     1
281
     1
  3
ACAD_XREC_ROUNDTRIP
360
F16C
  0
DICTIONARY
  5
F15B
330
8EB1
100
AcDbDictionary
280
     1
281
     1
  3
ACAD_XREC_ROUNDTRIP
360
F15C
  0
DICTIONARY
  5
F165
330
BB44
100
AcDbDictionary
280
     1
281
     1
  3
ACAD_XREC_ROUNDTRIP
360
F166
  0
DICTIONARY
  5
F16D
330
BB48
100
AcDbDictionary
280
     1
281
     1
  3
ACAD_XREC_ROUNDTRIP
360
F16E
  0
XRECORD
  5
F17C
102
{ACAD_REACTORS
330
F17B
102
}
330
F17B
100
AcDbXrecord
280
     1
102
DISPLAYNAME
  1
Metric50
102
FLAGS
 90
        0
  0
XRECORD
  5
F13C
102
{ACAD_REACTORS
330
E108
102
}
330
E108
100
AcDbXrecord
280
     1
102
SHADEPLOT
 70
     0
102
SHADEPLOTRESLEVEL
 70
     2
102
SHADEPLOTCUSTOMDPI
 70
   300
  0
XRECORD
  5
E109
102
{ACAD_REACTORS
330
E108
102
}
330
E108
100
AcDbXrecord
280
     1
310
280000000001000087000000010008000000000000870000000000000000000000010000000000003028210000000000C8C8C8000000000000000000000000000000000000000000000000000000000000000000330000006600000099000000CC000000FF00000000330000333300006633000099330000CC330000FF3300
310
0000660000336600006666000099660000CC660000FF66000000990000339900006699000099990000CC990000FF99000000CC000033CC000066CC000099CC0000CCCC0000FFCC000000FF000033FF000066FF000099FF0000CCFF0000FFFF000000003300330033006600330099003300CC003300FF003300003333003333
310
33006633330099333300CC333300FF33330000663300336633006666330099663300CC663300FF66330000993300339933006699330099993300CC993300FF99330000CC330033CC330066CC330099CC3300CCCC3300FFCC330000FF330033FF330066FF330099FF3300CCFF3300FFFF330000006600330066006600660099
310
006600CC006600FF00660000336600333366006633660099336600CC336600FF33660000666600336666006666660099666600CC666600FF66660000996600339966006699660099996600CC996600FF99660000CC660033CC660066CC660099CC6600CCCC6600FFCC660000FF660033FF660066FF660099FF6600CCFF6600
310
FFFF660000009900330099006600990099009900CC009900FF00990000339900333399006633990099339900CC339900FF33990000669900336699006666990099669900CC669900FF66990000999900339999006699990099999900CC999900FF99990000CC990033CC990066CC990099CC9900CCCC9900FFCC990000FF99
310
0033FF990066FF990099FF9900CCFF9900FFFF99000000CC003300CC006600CC009900CC00CC00CC00FF00CC000033CC003333CC006633CC009933CC00CC33CC00FF33CC000066CC003366CC006666CC009966CC00CC66CC00FF66CC000099CC003399CC006699CC009999CC00CC99CC00FF99CC0000CCCC0033CCCC0066CC
310
CC0099CCCC00CCCCCC00FFCCCC0000FFCC0033FFCC0066FFCC0099FFCC00CCFFCC00FFFFCC000000FF003300FF006600FF009900FF00CC00FF00FF00FF000033FF003333FF006633FF009933FF00CC33FF00FF33FF000066FF003366FF006666FF009966FF00CC66FF00FF66FF000099FF003399FF006699FF009999FF00CC
310
99FF00FF99FF0000CCFF0033CCFF0066CCFF0099CCFF00CCCCFF00FFCCFF0000FFFF0033FFFF0066FFFF0099FFFF00CCFFFF00FFFFFF00000000000D0D0D001A1A1A00282828003535350043434300505050005D5D5D006B6B6B00787878008686860093939300A1A1A100AEAEAE00BBBBBB00C9C9C900D6D6D600E4E4E400
310
F1F1F100FFFFFF000000000000000000000000000000000000000000000000000000000000000000000000000000000000000000000000000000000000000000000000000000000000000000000000000000000000000000000000000000000000000000000000000000000000000000000000000000000000000000000000
310
00000000000000000000000000000000000000000000000000000000000000000000000000000000000000000000000000000000000000000000000000000000000000000000000000000000000000000000000000000000000000000000000000000000000000000000000000000000000000000000000000000000000000
310
00000000000000000000000000000000000000000000000000000000000000000000000000000000000000000000000000000000000000000000000000000000000000000000000000000000000000000000000000000000000000000000000000000000000000000000000000000000000000000000000000000000000000
310
00000000000000000000000000000000000000000000000000000000000000000000000000000000000000000000000000000000000000000000000000000000000000000000000000000000000000000000000000000000000000000000000000000000000000000000000000000000000000000000000000000000000000
310
00000000000000000000000000000000000000000000000000000000000000000000000000000000000000000000000000000000000000000000000000000000000000000000000000000000000000000000000000000000000000000000000000000000000000000000000000000000000000000000000000000000000000
310
00000000000000000000000000000000000000000000000000000000000000000000000000000000000000000000000000000000000000000000000000000000000000000000000000000000000000000000000000000000000000000000000000000000000000000000000000000000000000000000000000000000000000
310
00000000000000000000000000000000000000000000000000000000000000000000000000000000000000000000000000000000000000000000000000000000000000000000000000000000000000000000000000000000000000000000000000000000000000000000000000000000000000000000000000000000000000
310
00000000000000000000000000000000000000000000000000000000000000000000000000000000000000000000000000000000000000000000000000000000000000000000000000000000000000000000000000000000000000000000000000000000000000000000000000000000000000000000000000000000000000
310
00000000000000000000000000000000000000000000000000000000000000000000000000000000000000000000000000000000000000000000000000000000000000000000000000000000000000000000000000000000000000000000000000000000000000000000000000000000000000000000000000000000000000
310
00000000000000000000000000000000000000000000000000000000000000000000000000000000000000000000000000000000000000000000000000000000000000000000000000000000000000000000000000000000000000000000000000000000000000000000000000000000000000000000000000000000000000
310
00000000000000000000000000000000000000000000000000000000000000000000000000000000000000000000000000000000000000000000000000000000000000000000000000000000000000000000000000000000000000000000000000000000000000000000000000000000000000000000000000000000000000
310
00000000000000000000000000000000000000000000000000000000000000000000000000000000000000000000000000000000000000000000000000000000000000000000000000000000000000000000000000000000000000000000000000000000000000000000000000000000000000000000000000000000000000
310
00000000000000000000000000000000000000000000000000000000000000000000000000000000000000000000000000000000000000000000000000000000000000000000000000000000000000000000000000000000000000000000000000000000000000000000000000000000000000000000000000000000000000
310
00000000000000000000000000000000000000000000000000000000000000000000000000000000000000000000000000000000000000000000000000000000000000000000000000000000000000000000000000000000000000000000000000000000000000000000000000000000000000000000000000000000000000
310
00000000000000000000000000000000000000000000000000000000000000000000000000000000000000000000000000000000000000000000000000000000000000000000000000000000000000000000000000000000000000000000000000000000000000000000000000000000000000000000000000000000000000
310
00000000000000000000000000000000000000000000000000000000000000000000000000000000000000000000000000000000000000000000000000000000000000000000000000000000000000000000000000000000000000000000000000000000000000000000000000000000000000000000000000000000000000
310
00000000000000000000000000000000000000000000000000000000000000000000000000000000000000000000000000000000000000000000000000000000000000000000000000000000000000000000000000000000000000000000000000000000000000000000000000000000000000000000000000000000000000
310
00000000000000000000000000000000000000000000000000000000000000000000000000000000000000000000000000000000000000000000000000000000000000000000000000000000000000000000000000000000000000000000000000000000000000000000000000000000000000000000000000000000000000
310
00000000000000000000000000000000000000000000000000000000000000000000000000000000000000000000000000000000000000000000000000000000000000000000000000000000000000000000000000000000000000000000000000000000000000000000000000000000000000000000000000000000000000
310
00000000000000000000000000000000000000000000000000000000000000000000000000000000000000000000000000000000000000000000000000000000000000000000000000000000000000282828282800000000000000000000000000000000000000000000000000000000000000000000000000000000000000
310
00000000000000000000000000000000000000000000000000000000000000000000000000000000000000000000000000000000000000000000000000000000000000000000000000000000000000000000000000000000000000000000000000000000000000000000000000000000000000000000000000000000000000
310
00000000000000000000000000000000000000000000000000000000000000000000000000000000000000000000000000000000000000000000000000000000000000000000000000000000000000002800280000282800000000000000000000000000000000000000000000000000000000000000000000000000000000
310
00000000000000000000000000000000000000000000000000000000000000000000000000000000000000000000000000000000000000000000000000000000000000000000000000000000000000000000000000000000000000000000000000000000000000000000000000000000000000000000000000000000000000
310
00000000000000000000000000000000000000000000000000000000000000000000000000000000000000000000000000000000000000000000000000000000000000000000000000000000000000000000282828282828280000000000000000000000000000000000000000000000000000000000000000000000000000
310
00000000000000000000000000000000000000000000000000000000000000000000000000000000000000000000000000000000000000000000000000000000000000000000000000000000000000000000000000000000000000000000000000000000000000000000000000000000000000000000000000000000000000
310
00000000000000000000000000000000000000000000000000000000000000000000000000000000000000000000000000000000000000000000000000000000000000000000000000000000000000000000000000282D00280000000000000000000000000000000000000000000000000000000000000000000000000000
310
000000000000000000000000000000000000000000000000000000000000000000000000000000000000000000000000000000000000000000000000000000000000000000000000000000000000000000000000000000000000000000000000000000000000000000002D0000000000000000000000000000000000000000
310
000000000000000000000000000000000000000000000000000000000000000000000000000000000000000000000000000000000000000000000000000000000000000000000000000000000000000000000000000000282D0028000000000000000000000000000000000000000000000000000000000000000000000000
310
0000000000000000000000000000000000000000000000000000000000000000000000000000000000000000000000000000000000000000000000000000000000000000000000000000000000000000000000000000000000000000000000000000000000000000000000F52DF50000000000000000000000000000000000
310
0000000000000000000000000000000000000000000000000000000000000000000000000000000000000000000000000000000000000000F5F5F5F5F5F5000000000000F5F5F5F5F5F5F5F5F5F5F5F5F50000000000000000282D002800000000000000000000000000000000000000000000000000000000000000000000
310
000000000000000000000000000000000000000000000000000000000000000000000000000000000000000000000000000000000000000000000000000000000000000000000000000000000000000000000000000000000000000000000000000000000000F5F5F5F5F5F5F5002D00F5F5F5F5F5F5F50000000000000000
310
00000000000000000000000000000000000000000000000000000000000000000000000000000000000000000000000000000000000000000000F500000000F5000000000000F50000000000000000000000F50000000000000000282D00280000000000000000000000000000000000000000000000000000000000000000
310
000000000000000000000000000000000000000000000000000000000000000000000000000000000000000000000000000000000000000000000000000000000000000000000000000000000000000000000000000000000000000000000000000000000000F5F50000000000000000F50000000000000000F5F500000000
310
000000000000000000000000000000000000000000000000000000000000000000002828282800000000000000000000000000000000000000F5F5F5F500000000F5F5F5F5F5F5F5F50000000000000000000000F50000000000000000282D0028000000000000000000000000000000000000000000000000000000000000
310
0000000000000000000000000000000000000000000000000000000000000000000000000000000000000000000000000000000000000000000000000000000000000000000000000000000000000000000000000000000000000000000000000000000000F5F5F5000000000000000000F52DF5000000000000000000F5F5
310
0000000000000000000000000000000000000000000000000000000000000000000000002800002800000000000000000000000000000000000000F50000F500000000F50000F500F500F50000000000000000000000F50000000000000028282D282828000000000000000000000000000000000000000000000000000000
310
0000000000000000000000000000000000000000000000000000000000000000000000000000000000000000000000000000000000000000000000000000000000000000000000000000000000000000000000000000000000000000000000000000000000F5F500000000000000000000F5F5002D00F5F500000000000000
310
0000F5F5F50000000000000000000000000000000000000000000000000000000000000000002800002828282828000000000000000000000000000000F50000F500000000F50000F500F500F50000000000000000000000F50000000000000028282D002828000000000000000000000000002D0000000000000000000000
310
000000000000000000000000000000000000000000000000000000000000000000000000000000000000000000000000000000000000000000002D000000000000000000000000000000000000000000000000000000000000000000000000000000000000F5F50000000000000000000000F50000002D000000F500000000
310
00000000000000F500000000000000000000000000000000000000000000000000000000000000002828282828000000000000000000000000000000000000F5F5F5F500000000F50000F500F500F50000000000000000000000F500000000F5F5F528282DF528F5F5F5F5F5F5F5F5F5F5F5F5F5282D28F5F5F50000000000
310
00000000000000000000000000000000000000000000000000000000000000000000000000000000000000000000000000000000000000F5F5F5F5F5F5F5F5F5F5F5000000000000000000000000000000000000000000000000000000000000000000000000F500000000000000000000000000F50000002D000000F50000
310
00000000000000000000F5000000000000000000000000000000000000000000000000000000000000002800002828000000000000000000000000000000000000F50000F500000000F50000F500F500F50000000000000000000000F5000000F500000000002D0000F5F50000000000000000000000282D28000000F5F5F5
310
000000000000000000000000000000000000000000000000000000000000000000000000000000000000000000000000000000000000F5F5F5F5F5F5F5F5F5F5F5F5F500F5F5F50000000000000000000000000000000000000000000000000000000000000000F5000000000000000000000000002DF52D2D2D2D2D2D2DF5
310
2D000000000000000000000000F5000000000000000000000000000000000000000000000000000000000000280000282800000000000000000000000000000000002DF52D2DF52D2D2D2D2D2D2D2D2D2D2D2D2D2D2D2D2D2D2D2D2D2D2DF5F5F5F5F50000000000000000F5F50000000000000000000000282D2800000000
310
00F5000000000000000000000000000000000000000000000000000000000000000000000000000000000000000000000000000000F5F5F5F5F5F500000000002D00000000F5F5F5F5F5F500000000000000000000000000000000000000000000000000000000F5F5000000000000000000002D2D2D2D00F50000002D0000
310
00F5002D2D0000000000000000000000F5F5000000000000000000000000000000000000000000000000000000002800002828000000000000000000000000000000000000F50000F500000000F50000F500F500F50000000000000000000000F5000000F5000000000000000000000000000000000000000000282D280000
310
000000F500000000000000000000000000000000000000000000000000000000000000000000000000000000000000000000000000F5F500F5F500000000000000002D0000000000000000F5F5F5F500000000000000000000000000000000000000000000000000F5000000000000000000002D2D0000000000F50000002D
310
000000F50000002D2D2D2D000000000000000000F50000000000000000000000000000000000000000000000000000002828282828282828000000000000000000000000000000F5F5F5F500000000F50000F500F500F50000000000000000000000F500000000000000000000000000000000000000000000000000282D28
310
0000000000F5000000000000000000000000000000000000000000000000000000000000000000000000000000000000000000000000F500F5F5000000000000000000002D00000000000000000000F5F5F5F500000000000000000000000000000000000000000000F5000000000000000000002D0000000000000000F5F5
310
002D00F5F500000000000000002D000000000000000000F500000000000000000000000000000000000000000000000000002800002800000000000000000000000000000000000000F50000F500000000F50000F500F500F50000000000000000000000F50000000000000000000000000000000000000000000000000028
310
2D280000000000F500000000000000000000000000000000000000000000000000000000000000000000000000000000000000000000F5F500F50000000000000000000000002D000000000000000000000000F500F5F50000000000000000000000000000000000000000F5000000000000002D2D2D000000000000000000
310
0000F5F5F500000000000000000000002D2D0000000000000000F5000000000000000000000000000000000000000000000000002828282800000000000000000000000000000000000000F5F5F5F500000000F5F5F5F500F5F5F50000000000000000000000F5000000000000000000000000000000000000000000000000
310
002828280000000000F5000000000000000000000000000000000000000000000000000000000000000000000000000000000000000000F500F5F5000000000000000000000000002D00000000000000000000000000F5F500F5000000000000000000000000000000000000F5000000000000002D2D000000000000000000
310
00000000002D00000000000000000000000000002D0000000000000000F50000000000000000000000000000000000000000000000000000000000000000000000000000000000000000000000000000F500000000F50000F500F500F50000000000000000000000F500000000000000000000000000000000000000000000
310
0000000000000000000000F5000000000000000000000000000000000000000000000000000000000000000000000000000000000000002DF5C3F50000000000000000000000000000002D000000000000000000000000000000F5C3F500000000000000000000000000000000F500000000000000002D0000000000000000
310
000000F5F5F5F5F5F5F5F5F500000000000000000000002D0000000000000000F50000000000000000000000000000000000000000000000000000000000000000000000F5F5F5F5F5F5F5F5F5F5F5F5F5F5F500000000F50000F500F500F50000000000000000000000F50000000000000000000000000000000000000000
310
00000000000000000000000000F500000000000000000000000000000000000000000000000000000000000000000000000000000000000000C3F5F500C300000000000000000000000000002D0000000000000000000000000000C300F5F5C3000000000000000000000000000000F50000000000002D2D00000000000000
310
0000F5F5F5000000002D00000000F5F5F50000000000000000002D00000000000000F50000000000000000000000000000000000000000000000000000000000000000000000F5000000000000000000000000000000000000F50000F500F500F500000000F5F5F5F5F5F5F5F5000000000000000000000000000000000000
310
000000000000000000000000000000F500000000000000000000000000000000000000000000000000000000000000000000000000000000000000F5C32D2DC300000000000000000000000000002D0000000000000000000000000000C32D00C3F50000000000000000000000000000F5000000000000002D000000000000
310
0000F5F5000000000000002D00000000000000F5F500000000000000002D00000000000000F500000000000000000000000000000000000000000000000000000000000000000000F5000000000000000000000000000000000000F50000F500F500F500000000F500000000F5000000000000000000000000000000000000
310
0000000000000000000000000000000000F5000000000000000000000000000000000000000000000000000000000000000000000000000000000000F50000C32D00C3C30000000000000000000000002D000000000000000000000000C3C32D2DC30000F500000000000000000000000000F50000000000002D0000000000
310
0000F5F50000000000000000002D000000000000000000F500000000000000002D00000000000000F5000000000000000000000000000000000000000000000000000000000000000000F5000000000000000000000000000000000000F50000F500F500F500000000F5F5F5F5F5F500000000000000000000000000000000
310
00000000000000000000000000000000000000F50000000000000000000000000000000000000000000000000000000000000000000000000000000000F5F50000C3C32DC3C30000000000000000F5F5F5F52DF5F5F5000000000000000000C3C300C3C30000F5000000000000000000000000F5000000000000002D000000
310
000000F500000000000000000000002D00000000000000000000F5000000000000002D00000000000000F5000000000000000000000000000000000000000000000000000000000000000000F5000000000000000000000000000000000000F50000F5F5F500F5F5F5F5F5F5F5000000000000000000000000000000000000
310
000000000000000000000000000000000000000000F500000000000000000000000000000000000000000000000000000000000000000000000000000000F5F500000000C3C32D00000000000000F5F5000000002D000000F5F5F50000000000002D00C3C300000000F50000000000000000000000F500000000002D2D0000
310
00000000F5000000000000000000002828282800000000000000000000F5000000000000002D00000000000000F5000000000000000000000000000000000000000000000000000000000000000028282828282828282828282828282828282828280000F500F500F500000000F5F500000000000000000000000000000000
310
0000000000000000000000000000000000000000000000F500000000000000000000000000000000000000000000000000000000000000000000000000000000F500000000000000000000000000F5F50000000000002D000000000000F5F5000000000000000000000000F5F5000000000000000000F50000000000002D00
310
0000000000F5000000000000000000282800002D002828280000000000000000F5000000000000002D000000000000F50000000000000000000000000000000000000000000000000000000000000000F5000000000000000000000000000000000000F50000F500F500F500000000F5F50000000000000000000000000000
310
00000000000000000000000000000000000000000000000000F5000000000000000000000000000000000000000000000000000000000000000000000000000000F5F5000000000000000000000000F500000000000000002D0000000000000000F5000000000000000000000000F5000000000000000000F5000000000000
310
2D0000000000F500000000000000282828000000002D00000000282828000000000000F50000000000002D000000000000F50000000000000000000000000000000000000000000000000000000000000000F5000000000000000000000000000000000000F50000F500F500F500000000F5F5000000000000000000000000
310
000000000000000000000000000000000000000000000000000000F5000000000000000000000000000000000000000000000000000000000000000000000000000000F5000000000000000000000000F50000000000000000002D000000000000000000F50000000000000000000000F5F50000000000000000F500000000
310
00002D0000000000F500000000000028280000000000002D00000000000028280000000000F5000000000000002D000000000000F500000000000000000000000000000000000000000000000000000000000000F5000000000000000000000000000000000000F50000F500F500F500000000F5F500000000000000000000
310
0000000000000000000000000000000000000000000000000000000000F50000000000000000000000000000000000000000000000000000000000000000000000000000F5F50000000000000000000000F5000000000000000000002D00000000000000000000F50000000000000000000000F500000000000000F5000000
310
00002D2D0000000000F50000000000002800000000000000002D0000000000000028280000000000F50000000000002D000000000000F500000000000000000000000000000000000000000000000000000000000000F5000000000000000000000000000000000000F50000F500F500F500000000F5F50000000000000000
310
00000000000000000000000000000000000000000000000000000000000000F5F5F5F5F5F5000000000000000000000000000000000000000000000000000000000000000000F50000000000000000000000F5000000000000000000F5F5F5F5F5000000000000000000F500000000000000000000F5F5000000000000F500
310
000000002D000000000000F50000000000280000000000000000002D000000000000000028000000000000F500000000002D000000000000F500000000000000000000000000000000000000000000000000000000000000F5000000000000000000000000000000000000F50000F500F500F500000000F500000000000000
310
0000000000000000000000000000000000000000000000000000000000000000000000000000F50000000000000000000000000000000000000000000000000000000000000000F5F500000000000000000000F50000000000000000F5F500002D0000F5F500000000000000F50000000000000000000000F5000000000000
310
F500000000002D0000000000F5000000000000280000000000000000002D000000000000000000280000000000F50000000000002D0000000000F500000000000000000000000000000000000000000000000000000000000000F5000000000000000000000000000000000000F50000F500F500F500000000F50000000000
310
00000000000000000000000000000000000000000000000000000000000000000000000000000000F50000000000000000000000000000000000000000000000000000000000000000F5F500000000000000000000F5000000000000F5F5000000002D00000000F5F5000000000000F500000000000000000000F500000000
310
00F50000000000F5000000000000F5000000000028000000000000000000002D000000000000000000002800000000F50000000000002DF50000000000F5000000000000000000000000000000000000000000000000000000000000F5000000000000000000000000000000000000F50000F500F500F500000000F5282828
310
282828282828282828282828282828282828282828282828282828282828282828282828282828282828F50000000000000000000000000000000000000000000000000000000000000000F5F5000000000000000000F5000000000000F500000000282828282800000000F50000000000F500000000000000000000F5F500
310
000000F50000F5F5F5F5F5F5F50000F5000000000000280000000000000000F5F5F5F5000000000000000000280000000000F5000000F5F5F5F5F5F5F50000F5000000000000000000000000000000000000282828282828282828282828F5F5F5F5F5F5F5F5F5F5F5F5F5F5F5F5F5F5F5F50000F500F500F500000000F500
310
0000000000000000000000000000000000000000000000000000000000000000000000000000000000000000F50000000000000000000000000000000000000000000000000000000000000000F500000000000000000000F50000000000F5000000282800002D000028000000F5000000000000F5000000000000000000F5
310
F500000000F500F5F5F5F5F5F5F5F5F500F50000000000280000000000000000F500002D00F50000000000000000282800000000F50000F5F5F5F5F5F5F500F500F5000000000000000000000000000000000000002828000000000000000000F5000000000000000000000000000000000000F50000F500F500F500000000
310
F5000000000000000000000000000000000000000000000000000000000000000000000000000000000000000000F50000000000000000000000000000000000000000000000000000000000000000F500000000000000000000F50000000000F5000028000000002D00000028280000F50000000000F50000000000000000
310
00F5F500000000F500F5F500002D0000F5F5F5F500000000002800000000000000F50000002D0000F500000000000000002800000000F50000F500002D000000F5F500F5000000000000000000000000000000000000002800000000000000000000F5000000000000000000000000000000000000F50000F500F500F50000
310
0000F5F5F5F5F5F5F5F5F5F5F5F5F5F5F5F5F5F5F5F5F5F5F5F5F5F5F5F5F5F5F5F5F5F5F5F5F5F5F5F5F5F5F5F5F5F5F528282828282828282828282828000000000000000000F5F50000000000F5F5F5F5000000002D0000000000F500000000F500000028000000F5F5F5000000280000F50000000000F5000000000000
310
000000F5F500000000F5F5F5F500002D0000F5F5F5F500000000002800000000000000F50000002D000000F500000000000000280000000000F5F5F500002D2D0000F5F500F5000000000000000000000000000000000000002800000000000000000000F5000000000000000000000000000000000000F50000F500F500F5
310
00000000F5000000000000000000000000000000000000000000000000000000000000000000000000000000000000000000F5000000000000000000000028000000000000000000F5F5F5F5F5F5F5F5F5F5F5F500000028F500000000F50000000000F5000028000000F5002D00F5000028000000F500000000F500000000
310
000000000000F500002D2D2DF5F52D2D2D2D2D2D2DF5F5F52D2D2D2D2D282D2D2D2D2D2DF52D2D2D2D2D2D2D2DF52D2D2D2D2D2D2D282D2D2D2D2DF5F52D2D2D2D2D2D2D2DF5F52D2D000000000000000000000000000000000000280000000000000000002DF52D2D2D2D2D2D2D2D2D2D2D2D2D2D2D2D2D2DF52D2DF52DF5
310
2DF52D2D2D2DF52D2D2D2D2D2D2D2D2D2D2D2D2D2D2D2D2D2D2D2D2D2D2D2D2D2D2D2D2D2D2D2D2D2D2D2D2D2D2D2D2D2D2D2D2DF52D000000000000000000002800000000000000002DF5F5F52D2D2D2D2DF52DF5F52D2D28F5F5282D2D2D2D2D2D2D2D2DF52D2D282D2D2DF52D2D2DF52D2D2D282D2DF52D2D2D2D2D2D2D
310
2D2D2D2D2D2D2D2DF52D2D0000F5F5F5F500002D000000F5F5F500000000002800000000000000F50000002D000000F500000000000000280000000000F5F5F50000002D000000F5F5F5000000000000000000000000000000000000002800000000000000000000F5000000000000000000000000000000000000F50000F5
310
00F500F500000000F5000000000000000000000000000000000000000000000000000000000000000000000000000000000000000000F5000000000000000000000028000000000000000000F5F5282828282828F5F5F5F50000F5F5F528000000F50000000000F5000028000000F5002D00F5000000280000F500000000F5
310
00000000000000000000F500000000F5F5F5F500002D0000F5F5F5F500000000002800000000000000F50000002D000000F5000000000000002800000000F500F5F500002D000000F5F500F5000000000000000000000000000000000000002800000000000000000000F5000000000000000000000000000000000000F500
310
00F500F500F500000000F5000000000000000000000000000000000000000000000000000000000000000000000000000000000000000000F500000000000000000000002800000000000000000000F5F5F5F5F5F5F5F500F5F5000000F5F50000000000F500000000F500002800000000F52DF5000000280000F500000000
310
00F500000000000000000000F500000000F500F500F5002D0000F5F500F500000000002800000000000000F50000002D0000F500000000000000002800000000F50000F5F5002D000000F5F500F5000000000000000000000000000000000000002828000000000000000000F5000000000000000000000000000000000000
310
F50000F500F500F500000000F5F5F5F5F5F5F5F5F5F5F5F5F5F5F5F5F5F5F5F5F5F5F5F5F5F5F5F5F5F5F5F5F5F5F5F5F5F5F5F5F5F5F5F5F5F5F52828282828282828282828F528000000000000000000F5F50000000000F5F5F5F500000000000000000000F500000000F50000002800000000F500000000280000F50000
310
000000F5000000000000000000F5F500000000F50000F5F5F5F5F5F5F50000F50000000000280000000000000000F5F5002DF5F50000000000000000280000000000F5000000F5F5F5F5F5F5F50000F5000000000000000000000000000000000000002828000000000000000000F500000000000000000000000000000000
310
0000F50000F500F500F500000000F5000000000000000000000000000000000000000000000000000000000000000000000000000000000000000000F50000000000000000000000280000000000000000000000000000000000000000F500000000000000000000F50000000000F5000028000000002D00000000280000F5
310
0000000000F5000000000000000000F5F500000000F5000000F5F5F5F5F500000000F5000000000028000000000000000000F5F5000000000000000000002800000000F50000000000F5F5F5F5F5000000F500000000000000000000000000000000000028F528282828282828282828F5F5F5F5F5F5F5F5F5F5F5F5F5F5F5
310
F5F5F5F5F50000F500F500F500000000F5000000000000000000000000000000000000000000000000000000000000000000000000000000000000000000F50000000000000000DCDCDC280000000000000000000000000000000000000000F500000000000000000000F50000000000F5000000280000002D000028280000
310
F50000000000F500000000000000000000F5F50000000000F500000000002D0000000000F5000000000028000000000000000000002D000000000000000000282800000000F50000000000002D000000000000F5000000000000000000000000000000000000002800000000000000000000F5000000000000000000000000
310
000000000000F50000F500F500F500000000F5282828282828282828282828282828282828282828282828282828282828282828282828282828282828282828F50000000000000000DCDC00280000000000000000000000000000000000000000F5F5000000000000000000F5000000000000F5F500002828002D00280000
310
00F5000000000000F500000000000000000000F5000000000000F500000000002D0000000000F5000000000028280000000000000000002D000000000000000000280000000000F500000000002D000000000000F5000000000000000000000000000000000000DCDC2800000000000000000000F500000000000000000000
310
0000000000000000F50000F500F500F500000000F5000000000000000000000000000000000000000000000000000000000000000000000000000000000000000000F50000000000000000DCDCDC280000000000000000000000000000000000000000F5F5000000F5000000000000F500000000000000F5000028002D0028
310
0000F500000000000000F500000000000000000000F5000000000000F500000000002D000000000000F50000000000280000000000000000002D0000000000000000282800000000F50000000000002D000000000000F5000000000000000000000000000000000000DCDC2800000000000000000000F50000000000000000
310
00000000000000000000F50000F500F500F500000000F5282828282828282828282828282828282828282828282828282828282828282828282828282828282828282828F50000000000000000DCDC0028000000000000000000000000000000000000000000F500F5F5F528000000000000F500000000000000F500282828
310
282800F500000000000000F500000000000000000000F5F5000000000000F50000000000002D0000000000F50000000000002800000000000000002D0000000000000000280000000000F50000000000002D000000000000F5000000000000000000000000000000000000DCDC2800000000000000000000F5000000000000
310
000000000000000000000000F50000F500F500F500000000F5F5000000000000000000000000000000000000000000000000000000000000000000000000000000F5F5F5F5F5F50000000000000000DCDCDC28000000000000000000000000000000000000000000F5F528F5F5282D000000000000F500000000000000F5F5
310
F5F5F5F5F500000000000000F50000000000000000000000F5F500000000000000F500000000002D000000000000F500000000000028000000000000002D00000000000000280000000000F5000000000000002D000000000000F5000000000000000000000000000000000000DCDC2800000000000000000000F500000000
310
0000000000000000000000000000F50000F500F500F500000000F5F5000000000000000000000000000000000000000000000000000000000000000000000000000000F500000000000000000000000000DCDCDC2800000000000000000000000000000000000000000000F5F5F5F5280000000000000000F5000000000000
310
0000002D000000000000000000F50000000000000000000000F5F50000000000000000F50000000000002D0000000000F500000000000000282800000000002D00000000282828000000000000F50000000000002D000000000000F5000000000000000000000000000000000000DCDCDC2800000000000000000000F50000
310
00000000000000000000000000000000F50000F500F500F500000000F5F5000000000000000000000000000000000000000000000000000000000000000000000000000000F500000000000000000000000000DCDC002800000000000000000000000000000000000000000000F5F5002D00000000000000000000F5000000
310
00000000002D0000000000000000F5000000000000000000000000F5F50000000000000000F5000000000000002D0000000000F5000000000000000028280000002D000028280000000000000000F50000000000002D2D000000000000F5000000000000000000000000000000000000DCDCDC280000000000000000000028
310
282828282828282828282828282828282828280000F500F500F500000000F5F5000000000000000000000000000000000000000000000000000000000000000000000000000000F500000000000000000000000000DCDCDC2800000000000000000000000000000000000000000000F5F500000000000000000000000000F5
310
000000000000002D00000000000000F500000000000000000000000000F500000000000000000000F50000000000002D000000000000F50000000000000000280000002D0000280000000000000000F5000000000000002D000000000000F500000000000000000000000000000000000000DCDCDC28000000000000000000
310
00F5000000000000000000000000000000000000F50000F5F5F500F5F5F5F5F5F5F5000000000000000000000000000000000000000000000000000000000000000000000000000000F500000000000000000000000000000000280000000000000000000000000000000000000000000000F5F50000000000000000000000
310
0000F50000000000002D0000000000F5F500000000000000000000000000F5F500000000000000000000F50000000000002D2D000000000000F500000000000000282828282828282800000000000000F5000000000000002D00000000000000F500000000000000000000000000000000000000DCDCDC2800000000000000
310
00000028282828282828282828282828282828282828280000F500F500F500000000F5F5000000000000000000000000000000000000000000000000000000000000000000000000000000F500000000000000000000000000000000000000000000000000000000000000000000000000000000F5F5000000000000000000
310
0000000000F5F5F5F5F5002D00F5F5F5F5000000000000000000000000000000F5000000000000000000000000F5000000000000002D000000000000F5F50000000000000000002D000000000000000000F5000000000000002D00000000000000F5000000000000000000000000000000000000000000DCDC280000000000
310
0000000000F5000000000000000000000000000000000000F50000F500F500F500000000F5F5F5F5F5F50000000000000000000000000000000000000000000000000000000000000000000000F50000000000000000000000000000000000000000000000000000000000000000000000000000000000F5F5000000000000
310
000000000000000000000000F52DF5000000000000000000000000000000000000F50000000000000000000000000000F50000000000002D2D00000000000000F5F5000000000000002D00000000000000F5F5000000000000002D2D00000000000000F5000000000000000000000000000000000000000000000028000000
310
00000000000000F5000000000000000000000000000000000000F50000F500F500F500000000F500000000F50000000000000000000000000000000000000000000000000000000000000000000000F5000000000000000000000000000000000000000000000000000000000000000000000000000000000000F5F5000000
310
0000000000000000000000000000002D000000000000000000000000000000000000F5F50000000000000000000000000000F5000000000000002D000000000000000000F5F5F5000000002D00000000F5F5F50000000000000000002D00000000000000F50000000000000000000000000000000000000000000000000000
310
000000000000000000F5000000000000000000000000000000000000F50000F500F500F500000000F5F5F5F5F5F5F5F5000000000000000000000000000000000000000000000000000000000000000000F500000000000000000000000000000000000000000000000000000000000000000000000000000000000000F5F5
310
00000000000000000000000000000000002D0000000000000000000000000000000000F5F500000000000000000000000000000000F5000000000000002D0000000000000000000000F5F5F5F5F5F5F5F5F5000000000000000000002D2D0000000000000000F5000000000000000000000000000000000000000000000000
310
0000000000000000000000F5F5F5F5F5F5F5F5F5F5F5F5F5F5F500000000F50000F500F500F50000000000000000000000F5000000000000000000000000000000000000000000000000000000000000000000F500000000000000000000000000000000000000000000000000000000000000000000000000000000000000
310
00F5F5000000000000000000000000000000002D00000000000000000000000000000000F5F50000000000000000000000000000000000F500000000000000002D2D000000000000000000000000002D000000000000000000000000002D000000000000000000F50000000000000000000000000000000000000000000000
310
000000000000000000000000000000000000000000000000000000F500000000F5F5F5F500F5F5F50000000000000000000000F5000000000000000000000000000000000000000000000000000000000000000000F50000000000000000000000000000000000000000000000000000000000000000000000000000000000
310
00000000F5F50000000000000000000000000000002D000000000000000000000000000000F5F500000000000000000000000000000000000000F500000000000000002D2D000000000000000000000000F50000000000000000000000002D0000000000000000F5F500000000000000000000000000000000000000000000
310
0000000000000000000000000000000000000000000000000000F5F5F5F500000000F50000F500F500F50000000000000000000000F5000000000000000000000000000000000000000000000000000000000000000000F5000000000000000000000000000000000000000000000000000000000000000000000000000000
310
00000000000000F5F5F5000000000000000000000000002D00000000000000000000000000F5F5F5000000000000000000000000000000000000000000F50000000000000000002D2D0000000000000000F5F52DF5F5000000000000002D2D2D0000000000000000F500000000000000000000000000000000000000000000
310
00000000000000000000000000000000000000000000000000000000F50000F500000000F50000F500F500F50000000000000000000000F5000000000000000000000000000000000000000000000000000000000000000000F500000000000000000000000000000000000000000000000000000000000000000000000000
310
00000000000000000000F500F50000000000000000000000002D000000000000000000000000F500F50000000000000000000000000000000000000000000000F5000000000000000000002D2D00000000F5F500002D0000F5F5000000002D00000000000000000000F5000000000000000000000000000000000000000000
310
000000000000000000000000000000000000000000000000000000000000F5F5F5F500000000F50000F500F500F50000000000000000000000F5000000F50000000000000000000000000000000000000000000000000000000000F50000000000000000000000000000000000000000000000000000000000000000000000
310
00000000000000000000000000F5F5F5F5000000000000000000002D00000000000000000000F5F5F5F500000000000000000000000000000000000000000000000000F500000000000000000000002D2D2D2DF50000002D000000F5002D2D2D00000000000000000000F50000000000000000000000000000000000000000
310
0000000000000000000000000000000000000000000000000000000000000000F50000F500000000F50000F500F500F50000000000000000000000F5F5F5F5F50000000000000000000000000000000000000000000000000000000000F5000000000000000000000000000000000000000000000000000000000000000000
310
0000000000000000000000000000000000F5F5F5F500000000000000002D0000000000000000F5F5F5F500000000000000000000000000000000000000000000000000000000F50000000000000000000000000000F52D2D2D2D2D2D2DF52D000000000000000000000000F500000000000000000000000000000000000000
310
0000000000000000000000000000000000000000000000000000000000000000002DF52D2D2D2D2D2D2D2D2D2DF52DF52D2D2D2D2D2D2D2D2D2D2D2D2DF5000000F50000000000000000F5F500000000000000000000000000000000000000F500000000000000000000000000000000000000000000000000000000000000
310
000000000000000000000000000000000000000000F5F5F5F5F500000000002D0000000000F5F5F5F50000000000000000000000000000000000000000000000000000000000000000F5F5000000000000000000000000F50000002D000000F50000000000000000000000F5F5000000000000000000000000000000000000
310
000000000000000000000000000000000000000000000000000000000000000000000000F50000F500000000F50000F500F500F50000000000000000000000F500000000F500000000002D00F5F50000000000000000000000002D00000000F5F5000000000000000000000000000000000000000000000000000000000000
310
00000000000000000000000000000000000000000000000000F5F5F5F5F5F5F5F5F5F5F5F5F5F5F5F5000000000000000000000000000000000000000000000000000000000000000000000000F5F500000000000000000000F50000002D000000F500000000000000000000F5000000000000000000000000000000000000
310
0000000000000000000000000000000000000000000000000000000000000000000000000000F5F5F5F500000000F50000F500F500F50000000000000000000000F500000000F5F5F5F5F5F5F5F5F500F5F5F5F5F5F5F5F5F5F5F5F52DF5F5F5F5000000000000000000000000000000000000000000000000000000000000
310
00000000000000000000000000000000000000000000000000000000000000F5F5F5F5F5F5F5F5000000000000000000000000000000000000000000000000000000000000000000000000000000000000F5F5000000000000000000F5F5002D00F5F5000000000000000000F5F50000000000000000000000000000000000
310
00000000000000000000000000000000000000000000000000000000000000000000000000000000F50000F500000000F50000F500F500F50000000000000000000000F50000000000000000F5F5F5F5F5000000000000000000F500F5002D00F500F500000000000000000000000000000000000000000000000000000000
310
000000000000000000000000000000000000000000000000000000000000000000F5000000F50000F50000000000000000000000000000000000000000000000000000000000000000000000000000000000000000F5F5000000000000000000F5F5F50000000000000000F5F5F50000000000000000000000000000000000
310
000000000000000000000000000000000000000000000000000000000000000000000000000000000000F5F5F5F500000000F500F5F500F500F50000000000000000000000F5000000000000000000F52D00F5000000000000000000F500F5002D00F500F50000000000000000000000000000000000000000000000000000
310
0000000000000000000000000000000000000000000000000000000000000000000000F5000000F50000F500000000000000000000000000000000000000000000000000000000000000000000000000000000000000000000F5F5F5F50000000000002D000000000000F5F5F5000000000000000000000000000000000000
310
0000000000000000000000000000000000000000000000000000000000000000000000000000000000000000000000F500000000F5F500F5F5F5F5F50000000000000000000000F5000000000000000000F5F5F500000000000000000000F500F5002D00F500F5000000000000000000000000000000000000000000000000
310
00000000000000000000000000000000000000000000000000000000000000000000000000F5000000F50000F50000000000000000000000000000000000000000000000000000000000000000000000000000000000000000000000000000F5F5F5F5F5F52DF5F5F5F5F5F500000000000000000000000000000000000000
310
00000000000000000000000000000000000000000000000000000000000000000000000000000000000000000000000000F5F5F5F5F5F5000000000000F5F5F5F5F5F5F5F5F5F5F5F5F5000000000000000000F5F5F500000000000000000000F5F5F5F52DF5F5F5F500000000000000000000000000000000000000000000
310
000000000000000000000000000000000000000000000000000000000000000000000000000000F5F5F5F5F5F5F5F500000000000000000000000000000000000000000000000000000000000000000000000000000000000000000000000000000000000000002D0000000000000000000000000000000000000000000000
310
0000000000000000000000000000000000000000000000000000000000000000000000000000000000000000000000000000000000000000000000000000000000000000000000000000000000000000000000000000F5000000000000000000000000F500002D0000F5000000000000000000000000000000000000000000
310
000000000000000000000000000000000000000000000000000000000000000000000000000000000000F500002D0000F5000000000000000000000000000000000000000000000000000000000000000000000000000000000000000000000000000000000000000000000000000000000000000000000000000000000000
310
0000000000000000000000000000000000000000000000000000000000000000000000000000000000000000000000000000000000000000000000000000000000000000000000000000000000000000000000000000000000000000000000000000000000F5F5F5F5F5F5F500000000000000000000000000000000000000
310
0000000000000000000000000000000000000000000000000000000000000000000000000000000000000000F5F5F5F5F5F5F500000000000000000000000000000000000000000000000000000000000000000000000000000000000000000000000000000000000000000000000000000000000000000000000000000000
310
00000000000000000000000000000000000000000000000000000000000000000000000000000000000000000000000000000000000000000000000000000000000000000000000000000000000000000000000000000000000000000000000000000000000000F5F5F5F5F5F5F50000000000000000000000000000000000
310
00000000000000000000000000000000000000000000000000000000000000000000000000000000000000000000F5F5F5F5F5F5F50000000000000000000000000000000000000000000000000000000000000000000000000000000000000000000000000000000000000000000000000000000000000000000000000000
310
00000000000000000000000000000000000000000000000000000000000000000000000000000000000000000000000000000000000000000000000000000000000000000000000000000000000000000000000000000000000000000000000000000000000000000000F5002D00F500000000000000000000000000000000
310
00000000000000000000000000000000000000000000000000000000000000000000000000000000000000000000000000F5002D00F500000000000000000000000000000000000000000000000000000000000000000000000000000000000000000000000000000000000000000000000000000000000000000000000000
310
0000000000000000000000000000000000000000000000000000000000000000000000000000000000000000000000000000000000000000000000000000000000000000000000000000000000000000000000000000000000000000000000000000000000000000000000F5F5F52DF5F5F500000000000000000000000000
310
0000000000000000000000000000000000000000000000000000000000000000000000000000000000000000000000000000F5F5F5F5F5F5F500000000000000000000000000000000000000000000000000000000000000000000000000000000000000000000000000000000000000000000000000000000000000000000
310
000000000000000000000000000000000000000000000000000000000000000000000000000000000000000000000000000000000000000000000000000000000000000000000000000000000000000000000000000000000000000000000000000000000000000000000000000000002D0000000000000000000000000000
310
000000000000000000000000000000000000000000000000000000000000000000000000000000000000000000000000000000000000002D0000000000000000000000000000000000000000000000000000000000000000000000000000000000000000000000000000000000000000000000000000000000000000000000
310
00000000000000000000000000000000000000000000000000000000000000000000000000000000000000000000000000000000000000000000000000000000000000000000000000000000000000000000000000000000000000000000000000000000000000000000000000000000000000000000000000000000000000
310
0000000000000000000000000000000000000000000000000000000000000000000000000000000000000000000000000000000000000000002D000000000000000000000000000000000000000000000000000000000000000000000000000000000000000000000000000000000000000000000000000000000000000000
310
00000000000000000000000000000000000000000000000000000000000000000000000000000000000000000000000000000000000000000000000000000000000000000000000000000000000000000000000000000000000000000000000000000000000000000000000000000000000000000000000000000000000000
310
00000000000000000000000000000000000000000000000000000000000000000000000000000000000000000000000000000000000000000000000000000000000000000000000000000000000000000000000000000000000000000000000000000000000000000000000000000000000000000000000000000000000000
310
00000000000000000000000000000000000000000000000000000000000000000000000000000000000000000000000000000000000000000000000000000000000000000000000000000000000000000000000000000000000000000000000000000000000000000000000000000000000000000000000000000000000000
310
00000000000000000000000000000000000000000000000000000000000000000000000000000000000000000000000000000000000000000000000000000000000000000000000000000000000000000000000000000000000000000000000000000000000000000000000000000000000000000000000000000000000000
310
00000000000000000000000000000000000000000000000000000000000000000000000000000000000000000000000000000000000000000000000000000000000000000000000000000000000000000000000000000000000000000000000000000000000000000000000000000000000000000000000000000000000000
310
00000000000000000000000000000000000000000000000000000000000000000000000000000000000000000000000000000000000000000000000000000000000000000000000000000000000000000000000000000000000000000000000000000000000000000000000000000000000000000000000000000000000000
310
00000000000000000000000000000000000000000000000000000000000000000000000000000000000000000000000000000000000000000000000000000000000000000000000000000000000000000000000000000000000000000000000000000000000000000000000000000000000000000000000000000000000000
310
00000000000000000000000000000000000000000000000000000000000000000000000000000000000000000000000000000000000000000000000000000000000000000000000000000000000000000000000000000000000000000000000000000000000000000000000000000000000000000000000000000000000000
310
00000000000000000000000000000000000000000000000000000000000000000000000000000000000000000000000000000000000000000000000000000000000000000000000000000000000000000000000000000000000000000000000000000000000000000000000000000000000000000000000000000000000000
310
00000000000000000000000000000000000000000000000000000000000000000000000000000000000000000000000000000000000000000000000000000000000000000000000000000000000000000000000000000000000000000000000000000000000000000000000000000000000000000000000000000000000000
310
00000000000000000000000000000000000000000000000000000000000000000000000000000000000000000000000000000000000000000000000000000000000000000000000000000000000000000000000000000000000000000000000000000000000000000000000000000000000000000000000000000000000000
310
00000000000000000000000000000000000000000000000000000000000000000000000000000000000000000000000000000000000000000000000000000000000000000000000000000000000000000000000000000000000000000000000000000000000000000000000000000000000000000000000000000000000000
310
00000000000000000000000000000000000000000000000000000000000000000000000000000000000000000000000000000000000000000000000000000000000000000000000000000000000000000000000000000000000000000000000000000000000000000000000000000000000000000000000000000000000000
310
00000000000000000000000000000000000000000000000000000000000000000000000000000000000000000000000000000000000000000000000000000000000000000000000000000000000000000000000000000000000000000000000000000000000000000000000000000000000000000000000000000000000000
310
00000000000000000000000000000000000000000000000000000000000000000000000000000000000000000000000000000000000000000000000000000000000000000000000000000000000000000000000000000000000000000000000000000000000000000000000000000000000000000000000000000000000000
310
00000000000000000000000000000000000000000000000000000000000000000000000000000000000000000000000000000000000000000000000000000000000000000000000000000000000000000000000000000000000000000000000000000000000000000000000000000000000000000000000000000000000000
310
00000000000000000000000000000000000000000000000000000000000000000000000000000000000000000000000000000000000000000000000000000000000000000000000000000000000000000000000000000000000000000000000000000000000000000000000000000000000000000000000000000000000000
310
0000000000000000000000000000000000000000000000000000000000000000000000000000000000000000000000000000000000000000000000000000000000000000000000000000000000000000000000000000000000000000000000000000000000000000000000F500000000F5F5F5F50000F5000000F500F5F5F5
310
F5000000F5F50000000000000000F5F5F5F500000000000000000000000000000000000000000000000000000000000000000000000000000000000000000000000000000000000000000000000000000000000000000000000000000000000000000000000000000000000000000000000000000000000000000000000000
310
00000000000000000000000000000000000000000000000000000000000000000000000000000000000000000000000000000000000000000000000000000000000000000000000000000000000000000000000000000000000000000000000000000000000000000000000000F5000000F5F50000F50000F5000000F50000
310
F50000000000F5F50000000000000000000000F50000000000000000000000000000000000000000000000000000000000000000000000000000000000000000000000000000000000000000000000000000000000000000000000000000000000000000000000000000000000000000000000000000000000000000000000
310
000000000000000000000000000000000000000000000000000000000000000000000000000000000000000000000000000000000000000000000000000000000000000000000000000000000000000000000000000000000000000000000000000000000000000000000000000000F5000000F500000000F500F50000F500
310
000000F5000000F50000F50000000000000000000000F50000000000000000000000000000000000000000000000000000000000000000000000000000000000000000000000000000000000000000000000000000000000000000000000000000000000000000000000000000000000000000000000000000000000000000
310
0000000000000000000000000000000000000000000000000000000000000000000000000000000000000000000000000000000000000000000000000000000000000000000000000000000000000000000000000000000000000000000000000000000000000000000000000000000000F5000000F500000000F500F50000
310
F500000000F5000000F5000000F500F5F5F5F50000000000F5000000000000000000000000000000000000000000000000000000000000000000000000000000000000000000000000000000000000000000000000000000000000000000000000000000000000000000000000000000000000000000000000000000000000
310
0000000000000000000000000000000000000000000000000000000000000000000000000000000000000000000000000000000000000000000000000000000000000000000000000000000000000000000000000000000000000000000000000000000000000000000000000000000000000000F5000000F50000F5F50000
310
F5F5000000000000F50000F5000000F500000000000000F5F5F50000000000000000000000000000000000000000000000000000000000000000000000000000000000000000000000000000000000000000000000000000000000000000000000000000000000000000000000000000000000000000000000000000000000
310
00000000000000000000000000000000000000000000000000000000000000000000000000000000000000000000000000000000000000000000000000000000000000000000000000000000000000000000000000000000000000000000000000000000000000000000000000000000000000000000F5000000F500000000
310
0000F5F5F5000000000000F50000F50000F500000000000000F50000000000000000000000000000000000000000000000000000000000000000000000000000000000000000000000000000000000000000000000000000000000000000000000000000000000000000000000000000000000000000000000000000000000
310
000000000000000000000000000000000000000000000000000000000000000000000000000000000000000000000000000000000000000000000000000000000000000000000000000000000000000000000000000000000000000000000000000000000000000000000000000000000000000000000000F5000000F50000
310
00000000F50000F50000F50000F5000000F500F50000000000000000F50000000000000000000000000000000000000000000000000000000000000000000000000000000000000000000000000000000000000000000000000000000000000000000000000000000000000000000000000000000000000000000000000000
310
000000000000000000000000000000000000000000000000000000000000000000000000000000000000000000000000000000000000000000000000000000000000000000000000000000000000000000000000000000000000000000000000000000000000000000000000000000000000000000000000F5F5F5F5F50000
310
F5F5F5F50000F5000000F50000F5F5F5000000F5F5F50000000000000000F5F5F500000000000000000000000000000000000000000000000000000000000000000000000000000000000000000000000000000000000000000000000000000000000000000000000000000000000000000000000000000000000000000000
310
00000000000000000000000000000000000000000000000000000000000000000000000000000000000000000000000000000000000000000000000000000000000000000000000000000000000000000000000000000000000000000000000000000000000000000000000000000000000000000000000000000000000000
310
00000000000000000000000000000000000000000000000000000000000000000000000000000000000000000000000000000000000000000000000000000000000000000000000000000000000000000000000000000000000000000000000000000000000000000000000000000000000000000000000000000000000000
310
00000000000000000000000000000000000000000000000000000000000000000000000000000000000000000000000000000000000000000000000000000000000000000000000000000000000000000000000000000000000000000000000000000000000000000000000000000000000000000000000000000000000000
310
00000000000000000000000000000000000000000000000000000000000000000000000000000000000000000000000000000000000000000000000000000000000000000000000000000000000000000000000000000000000000000000000000000000000000000000000000000000000000000000000000000000000000
310
00000000000000000000000000000000000000000000000000000000000000000000000000000000000000000000000000000000000000000000000000000000000000000000000000000000000000000000000000000000000000000000000000000000000000000000000000000000000000000000000000000000000000
310
00000000000000000000000000000000000000000000000000000000000000000000000000000000000000000000000000000000000000000000000000000000000000000000000000000000000000000000000000000000000000000000000000000000000000000000000000000000000000000000000000000000000000
310
00000000000000000000000000000000000000000000000000000000000000000000000000000000000000000000000000000000000000000000000000000000000000000000000000000000000000000000000000000000000000000000000000000000000000000000000000000000000000000000000000000000000000
310
00000000000000000000000000000000000000000000000000000000000000000000000000000000000000000000000000000000000000000000000000000000000000000000000000000000000000000000000000000000000000000000000000000000000000000000000000000000000000000000000000000000000000
310
00000000000000000000000000000000000000000000000000000000000000000000000000000000000000000000000000000000000000000000000000000000000000000000000000000000000000000000000000000000000000000000000000000000000000000000000000000000000000000000000000000000000000
310
00000000000000000000000000000000000000000000000000000000000000000000000000000000000000000000000000000000000000000000000000000000000000000000000000000000000000000000000000000000000000000000000000000000000000000000000000000000000000000000000000000000000000
310
00000000000000000000000000000000000000000000000000000000000000000000000000000000000000000000000000000000000000000000000000000000000000000000000000000000000000000000000000000000000000000000000000000000000000000000000000000000000000000000000000000000000000
310
00000000000000000000000000000000000000000000000000000000000000000000000000000000000000000000000000000000000000000000000000000000000000000000000000000000000000000000000000000000000000000000000000000000000000000000000000000000000000000000000000000000000000
310
00000000000000000000000000000000000000000000000000000000000000000000000000000000000000000000000000000000000000000000000000000000000000000000000000000000000000000000000000000000000000000000000000000000000000000000000000000000000000000000000000000000000000
310
00000000000000F5F5F5F5F500F5000000F5000000F5F5F5000000F5F5F5F500F5000000F500000000000000F5F5F5F5F50000F5F5F5F500F500000000F50000F5000000F500F5F5F5F5F500000000000000000000000000000000000000000000000000000000000000000000000000000000000000000000000000000000
310
00000000000000000000000000000000000000000000000000000000000000000000000000000000000000000000000000000000000000000000000000000000000000000000000000000000000000000000000000000000000000000000000000000000000000000000000000000000000000000000000000000000000000
310
00000000000000000000000000F500F5000000F50000F5000000F50000F500000000F5000000F500000000000000F5000000F500F5000000F50000F5000000F50000F5000000F500F5000000F50000000000000000000000000000000000000000000000000000000000000000000000000000000000000000000000000000
310
00000000000000000000000000000000000000000000000000000000000000000000000000000000000000000000000000000000000000000000000000000000000000000000000000000000000000000000000000000000000000000000000000000000000000000000000000000000000000000000000000000000000000
310
000000000000000000000000000000F50000F5000000F500F5000000F50000F500000000F5F500F50000000000000000F5000000F500F5000000F50000F5F5F5F5F50000F50000F5000000F5000000F50000000000000000000000000000000000000000000000000000000000000000000000000000000000000000000000
310
00000000000000000000000000000000000000000000000000000000000000000000000000000000000000000000000000000000000000000000000000000000000000000000000000000000000000000000000000000000000000000000000000000000000000000000000000000000000000000000000000000000000000
310
00000000000000000000000000000000F5F50000F5000000F500F5000000F50000F500000000F500F5F50000000000000000F5000000F500F5000000F5000000F50000F50000F5F5F5F5F50000F5000000F5000000000000000000000000000000000000000000000000000000000000000000000000000000000000000000
310
00000000000000000000000000000000000000000000000000000000000000000000000000000000000000000000000000000000000000000000000000000000000000000000000000000000000000000000000000000000000000000000000000000000000000000000000000000000000000000000000000000000000000
310
00000000000000000000000000000000F5F500000000F5F5F5F5F50000F5000000F500F50000000000F5F5F50000000000000000F50000F5F500F5000000F5000000F500F500000000F50000F50000F5000000F500000000000000000000000000000000000000000000000000000000000000000000000000000000000000
310
00000000000000000000000000000000000000000000000000000000000000000000000000000000000000000000000000000000000000000000000000000000000000000000000000000000000000000000000000000000000000000000000000000000000000000000000000000000000000000000000000000000000000
310
000000000000000000000000000000000000F50000000000F5000000F50000F5000000F500F50000000000F500F50000000000000000F5000000000000F5000000F5000000F5F500000000F5000000F500F5000000F50000000000000000000000000000000000000000000000000000000000000000000000000000000000
310
00000000000000000000000000000000000000000000000000000000000000000000000000000000000000000000000000000000000000000000000000000000000000000000000000000000000000000000000000000000000000000000000000000000000000000000000000000000000000000000000000000000000000
310
0000000000000000000000000000000000000000F5000000F50000F5000000F500F5F50000F50000F500000000F50000F50000000000000000F50000000000F5000000F5000000F5F500000000F50000F5F50000F50000F5000000000000000000000000000000000000000000000000000000000000000000000000000000
310
00000000000000000000000000000000000000000000000000000000000000000000000000000000000000000000000000000000000000000000000000000000000000000000000000000000000000000000000000000000000000000000000000000000000000000000000000000000000000000000000000000000000000
310
0000000000000000000000000000000000000000000000F5F5F5000000F5000000F50000F5F5F500000000F5F5F500F5000000F50000000000000000F5F5F5F500F5000000F500000000F500000000F5F5F5F5000000F5F5F50000000000000000000000000000000000000000000000000000000000000000000000000000
310
00000000000000000000000000000000000000000000000000000000000000000000000000000000000000000000000000000000000000000000000000000000000000000000000000000000000000000000000000000000000000000000000000000000000000000000000000000000000000000000000000000000000000
310
00000000000000000000000000000000000000000000000000000000000000000000000000000000000000000000000000000000000000000000000000000000000000000000000000000000000000000000000000000000000000000000000000000000000000000000000000000000000000000000000000000000000000
310
00000000000000000000000000000000000000000000000000000000000000000000000000000000000000000000000000000000000000000000000000000000000000000000000000000000000000000000000000000000000000000000000000000000000000000000000000000000000000000000000000000000000000
310
00000000000000000000000000000000000000000000000000000000000000000000000000000000000000000000000000000000000000000000000000000000000000000000000000000000000000000000000000000000000000000000000000000000000000000000000000000000000000000000000000000000000000
310
00000000000000000000000000000000000000000000000000000000000000000000000000000000000000000000000000000000000000000000000000000000000000000000000000000000000000000000000000000000000000000000000000000000000000000000000000000000000000000000000000000000000000
310
00000000000000000000000000000000000000000000000000000000000000000000000000000000000000000000000000000000000000000000000000000000000000000000000000000000000000000000000000000000000000000000000000000000000000000000000000000000000000000000000000000000000000
310
00000000000000000000000000000000000000000000000000000000000000000000000000000000000000000000000000000000000000000000000000000000000000000000000000000000000000000000000000000000000000000000000000000000000000000000000000000000000000000000000000000000000000
310
00000000000000000000000000000000000000000000000000000000000000000000000000000000000000000000000000000000000000000000000000000000000000000000000000000000000000000000000000000000000000000000000000000000000000000000000000000000000000000000000000000000000000
310
00000000000000000000000000000000000000000000000000000000000000000000000000000000000000000000000000000000000000000000000000000000000000000000000000000000000000000000000000000000000000000000000000000000000000000000000000000000000000000000000000000000000000
310
00000000000000000000000000000000000000000000000000000000000000000000000000000000000000000000000000000000000000000000000000000000000000000000000000000000000000000000000000000000000000000000000000000000000000000000000000000000000000000000000000000000000000
310
00000000000000000000000000000000000000000000000000000000000000000000000000000000000000000000000000000000000000000000000000000000000000000000000000000000000000000000000000000000000000000000000000000000000000000000000000000000000000000000000000000000000000
310
00000000000000000000000000000000000000000000000000000000000000000000F500000000F5F5F500000000F5F5000000F5F5F5F5000000F500000000F500F5000000F500F500000000000000000000000000000000000000000000000000000000000000000000000000000000000000000000000000000000000000
310
00000000000000000000000000000000000000000000000000000000000000000000000000000000000000000000000000000000000000000000000000000000000000000000000000000000000000000000000000000000000000000000000000000000000000000000000000000000000000000000000000000000000000
310
000000000000000000000000000000000000000000000000000000000000000000000000F5000000F5000000F50000F50000F5F500F5000000F50000F500000000F500F5000000F500F50000000000000000000000000000000000000000000000000000000000000000000000000000000000000000000000000000000000
310
00000000000000000000000000000000000000000000000000000000000000000000000000000000000000000000000000000000000000000000000000000000000000000000000000000000000000000000000000000000000000000000000000000000000000000000000000000000000000000000000000000000000000
310
0000000000000000000000000000000000000000000000000000000000000000000000000000F500000000000000F50000F5000000F500F500000000F50000F5F5F5F50000F50000F5000000F50000000000000000000000000000000000000000000000000000000000000000000000000000000000000000000000000000
310
00000000000000000000000000000000000000000000000000000000000000000000000000000000000000000000000000000000000000000000000000000000000000000000000000000000000000000000000000000000000000000000000000000000000000000000000000000000000000000000000000000000000000
310
00000000000000000000000000000000000000000000000000000000000000000000000000000000F500000000000000F50000F5000000F500F500000000F50000F50000F50000F50000F5000000F5000000000000000000000000000000000000000000000000000000000000000000000000000000000000000000000000
310
00000000000000000000000000000000000000000000000000000000000000000000000000000000000000000000000000000000000000000000000000000000000000000000000000000000000000000000000000000000000000000000000000000000000000000000000000000000000000000000000000000000000000
310
00000000000000000000000000000000000000000000000000000000000000000000000000000000000000F500000000F5F5000000F5000000F50000F5F5F5F500000000F500F5000000F5F500000000F500000000000000000000000000000000000000000000000000000000000000000000000000000000000000000000
310
00000000000000000000000000000000000000000000000000000000000000000000000000000000000000000000000000000000000000000000000000000000000000000000000000000000000000000000000000000000000000000000000000000000000000000000000000000000000000000000000000000000000000
310
000000000000000000000000000000000000000000000000000000000000000000000000000000000000000000F5000000F5000000000000F5000000F500F50000F500000000F500F5000000F5F5F5000000F50000000000000000000000000000000000000000000000000000000000000000000000000000000000000000
310
00000000000000000000000000000000000000000000000000000000000000000000000000000000000000000000000000000000000000000000000000000000000000000000000000000000000000000000000000000000000000000000000000000000000000000000000000000000000000000000000000000000000000
310
0000000000000000000000000000000000000000000000000000000000000000000000000000000000000000000000F5000000F5000000000000F5000000F500F5000000F500000000F500000000F50000F5000000F50000000000000000000000000000000000000000000000000000000000000000000000000000000000
310
00000000000000000000000000000000000000000000000000000000000000000000000000000000000000000000000000000000000000000000000000000000000000000000000000000000000000000000000000000000000000000000000000000000000000000000000000000000000000000000000000000000000000
310
0000000000000000000000000000000000000000000000000000000000000000000000000000000000000000000000F5F5F5F5F500F5F5F5F5F50000F5000000F500F5F5F5F5F500000000F500000000F5000000F50000F5000000000000000000000000000000000000000000000000000000000000000000000000000000
310
00000000000000000000000000000000000000000000000000000000000000000000000000000000000000000000000000000000000000000000000000000000000000000000000000000000000000000000000000000000000000000000000000000000000000000000000000000000000000000000000000000000000000
310
00000000000000000000000000000000000000000000000000000000000000000000000000000000000000000000000000000000000000000000000000000000000000000000000000000000000000000000000000000000000000000000000000000000000000000000000000000000000000000000000000000000000000
310
00000000000000000000000000000000000000000000000000000000000000000000000000000000000000000000000000000000000000000000000000000000000000000000000000000000000000000000000000000000000000000000000000000000000000000000000000000000000000000000000000000000000000
310
00000000000000000000000000000000000000000000000000000000000000000000000000000000000000000000000000000000000000000000000000000000000000000000000000000000000000000000000000000000000000000000000000000000000000000000000000000000000000000000000000000000000000
310
00000000000000000000000000000000000000000000000000000000000000000000000000000000000000000000000000000000000000000000000000000000000000000000000000000000000000000000000000000000000000000000000000000000000000000000000000000000000000000000000000000000000000
310
00000000000000000000000000000000000000000000000000000000000000000000000000000000000000000000000000000000000000000000000000000000000000000000000000000000000000000000000000000000000000000000000000000000000000000000000000000000000000000000000000000000000000
310
00000000000000000000000000000000000000000000000000000000000000000000000000000000000000000000000000000000000000000000000000000000000000000000000000000000000000000000000000000000000000000000000000000000000000000000000000000000000000000000000000000000000000
310
00000000000000000000000000000000000000000000000000000000000000000000000000000000000000000000000000000000000000000000000000000000000000000000000000000000000000000000000000000000000000000000000000000000000000000000000000000000000000000000000000000000000000
310
00000000000000000000000000000000000000000000000000000000000000000000000000000000000000000000000000000000000000000000000000000000000000000000000000000000000000000000000000000000000000000000000000000000000000000000000000000000000000000000000000000000000000
310
00000000000000000000000000000000000000000000000000000000000000000000000000000000000000000000000000000000000000000000000000000000000000000000000000000000000000000000000000000000000000000000000000000000000000000000000000000000000000000000000000000000000000
310
00000000000000000000000000000000000000000000000000000000000000000000000000000000000000000000000000000000000000000000000000000000000000000000000000000000000000000000000000000000000000000000000000000000000000000000000000000000000000000000000000000000000000
310
00000000000000000000000000000000000000000000000000000000000000000000000000000000000000000000000000000000000000000000000000000000000000000000000000000000000000000000000000000000000000000000000000000000000000000000000000000000000000000000000000000000000000
310
00000000000000000000000000000000000000000000000000000000000000000000000000000000000000000000000000000000000000000000000000000000000000000000000000000000000000000000000000000000000000000000000000000000000000000000000000000000000000000000000000000000000000
310
00000000000000000000000000000000000000000000000000000000000000000000000000000000000000000000000000000000000000000000000000000000000000000000000000000000000000000000000000000000000000000000000000000000000000000000000000000000000000000000000000000000000000
310
00000000000000000000000000000000000000000000000000000000000000000000000000000000000000000000000000000000000000000000000000000000000000000000000000000000000000000000000000000000000000000000000000000000000000000000000000000000000000000000000000000000000000
310
00000000000000000000000000000000000000000000000000000000000000000000000000000000000000000000000000000000000000000000000000000000000000000000000000000000000000000000000000000000000000000000000000000000000000000000000000000000000000000000000000000000000000
310
00000000000000000000000000000000000000000000000000000000000000000000000000000000000000000000000000000000000000000000000000000000000000000000000000000000000000000000000000000000000000000000000000000000000000000000000000000000000000000000000000000000000000
310
00000000000000000000000000000000000000000000000000000000000000000000000000000000000000000000000000000000000000000000000000000000000000000000000000000000000000000000000000000000000000000000000000000000000000000000000000000000000000000000000000000000000000
310
00000000000000000000000000000000000000000000000000000000000000000000000000000000000000000000000000000000000000000000000000000000000000000000000000000000000000000000000000000000000000000000000000000000000000000000000000000000000000000000000000000000000000
310
00000000000000000000000000000000000000000000000000000000000000000000000000000000000000000000000000000000000000000000000000000000
  0
XRECORD
  5
F13E
102
{ACAD_REACTORS
330
F13D
102
}
330
F13D
100
AcDbXrecord
280
     1
102
SHADEPLOT
 70
     0
102
SHADEPLOTRESLEVEL
 70
     2
102
SHADEPLOTCUSTOMDPI
 70
   300
  0
XRECORD
  5
F141
102
{ACAD_REACTORS
330
8E95
102
}
330
8E95
100
AcDbXrecord
280
     1
102
MATERIAL
148
0.0
149
0.0
149
0.0
 93
        0
 94
      127
282
     0
 72
     0
 77
     0
171
     0
175
     0
179
     0
273
     0
  0
XRECORD
  5
8E97
102
{ACAD_REACTORS
330
8E95
102
}
330
8E95
100
AcDbXrecord
280
     1
270
     1
271
     1
  0
XRECORD
  5
8E96
102
{ACAD_REACTORS
330
8E95
102
}
330
8E95
100
AcDbXrecord
280
     1
270
     1
271
     1
  0
XRECORD
  5
8E9A
102
{ACAD_REACTORS
330
8E95
102
}
330
8E95
100
AcDbXrecord
280
     1
270
     1
271
     1
  0
XRECORD
  5
8E99
102
{ACAD_REACTORS
330
8E95
102
}
330
8E95
100
AcDbXrecord
280
     1
270
     1
271
     1
  0
XRECORD
  5
8E9B
102
{ACAD_REACTORS
330
8E95
102
}
330
8E95
100
AcDbXrecord
280
     1
270
     1
271
     1
  0
XRECORD
  5
8E98
102
{ACAD_REACTORS
330
8E95
102
}
330
8E95
100
AcDbXrecord
280
     1
270
     1
271
     1
  0
XRECORD
  5
F140
102
{ACAD_REACTORS
330
8E8D
102
}
330
8E8D
100
AcDbXrecord
280
     1
102
MATERIAL
148
0.0
149
0.0
149
0.0
 93
        0
 94
      127
282
     0
 72
     0
 77
     0
171
     0
175
     0
179
     0
273
     0
  0
XRECORD
  5
8E8F
102
{ACAD_REACTORS
330
8E8D
102
}
330
8E8D
100
AcDbXrecord
280
     1
270
     1
271
     1
  0
XRECORD
  5
8E8E
102
{ACAD_REACTORS
330
8E8D
102
}
330
8E8D
100
AcDbXrecord
280
     1
270
     1
271
     1
  0
XRECORD
  5
8E92
102
{ACAD_REACTORS
330
8E8D
102
}
330
8E8D
100
AcDbXrecord
280
     1
270
     1
271
     1
  0
XRECORD
  5
8E91
102
{ACAD_REACTORS
330
8E8D
102
}
330
8E8D
100
AcDbXrecord
280
     1
270
     1
271
     1
  0
XRECORD
  5
8E93
102
{ACAD_REACTORS
330
8E8D
102
}
330
8E8D
100
AcDbXrecord
280
     1
270
     1
271
     1
  0
XRECORD
  5
8E90
102
{ACAD_REACTORS
330
8E8D
102
}
330
8E8D
100
AcDbXrecord
280
     1
270
     1
271
     1
  0
XRECORD
  5
F142
102
{ACAD_REACTORS
330
8E9D
102
}
330
8E9D
100
AcDbXrecord
280
     1
102
MATERIAL
148
0.0
149
0.0
149
0.0
 93
        0
 94
      127
282
     0
 72
     0
 77
     0
171
     0
175
     0
179
     0
273
     0
  0
XRECORD
  5
8E9F
102
{ACAD_REACTORS
330
8E9D
102
}
330
8E9D
100
AcDbXrecord
280
     1
270
     1
271
     1
  0
XRECORD
  5
8E9E
102
{ACAD_REACTORS
330
8E9D
102
}
330
8E9D
100
AcDbXrecord
280
     1
270
     1
271
     1
  0
XRECORD
  5
8EA2
102
{ACAD_REACTORS
330
8E9D
102
}
330
8E9D
100
AcDbXrecord
280
     1
270
     1
271
     1
  0
XRECORD
  5
8EA1
102
{ACAD_REACTORS
330
8E9D
102
}
330
8E9D
100
AcDbXrecord
280
     1
270
     1
271
     1
  0
XRECORD
  5
8EA3
102
{ACAD_REACTORS
330
8E9D
102
}
330
8E9D
100
AcDbXrecord
280
     1
270
     1
271
     1
  0
XRECORD
  5
8EA0
102
{ACAD_REACTORS
330
8E9D
102
}
330
8E9D
100
AcDbXrecord
280
     1
270
     1
271
     1
  0
XRECORD
  5
F164
102
{ACAD_REACTORS
330
F163
102
}
330
F163
100
AcDbXrecord
280
     1
102
ACAD_ROUNDTRIP_2012_MLEADER_STYLE
298
     1
  0
XRECORD
  5
F17A
102
{ACAD_REACTORS
330
F179
102
}
330
F179
100
AcDbXrecord
280
     1
102
DISPLAYNAME
  1
Metric50
102
FLAGS
 90
        0
  0
CELLSTYLEMAP
  5
F137
102
{ACAD_REACTORS
330
8EFC
102
}
330
8EFC
100
AcDbCellStyleMap
 90
        3
300
CELLSTYLE
  1
TABLEFORMAT_BEGIN
 90
        5
170
     1
 91
        0
 92
    32768
 62
   257
 93
        1
300
CONTENTFORMAT
  1
CONTENTFORMAT_BEGIN
 90
        0
 91
        0
 92
        4
 93
        0
300

 40
0.0
140
1.0
 94
        5
 62
     0
340
10
144
6.0
309
CONTENTFORMAT_END
171
     1
301
MARGIN
  1
CELLMARGIN_BEGIN
 40
1.5
 40
1.5
 40
1.5
 40
1.5
 40
0.18
 40
0.18
309
CELLMARGIN_END
 94
        6
 95
        1
302
GRIDFORMAT
  1
GRIDFORMAT_BEGIN
 90
        0
 91
        1
 62
     0
 92
       -2
340
0
 93
        0
 40
0.045
309
GRIDFORMAT_END
 95
        2
302
GRIDFORMAT
  1
GRIDFORMAT_BEGIN
 90
        0
 91
        1
 62
     0
 92
       -2
340
0
 93
        0
 40
0.045
309
GRIDFORMAT_END
 95
        4
302
GRIDFORMAT
  1
GRIDFORMAT_BEGIN
 90
        0
 91
        1
 62
     0
 92
       -2
340
0
 93
        0
 40
0.045
309
GRIDFORMAT_END
 95
        8
302
GRIDFORMAT
  1
GRIDFORMAT_BEGIN
 90
        0
 91
        1
 62
     0
 92
       -2
340
0
 93
        0
 40
0.045
309
GRIDFORMAT_END
 95
       16
302
GRIDFORMAT
  1
GRIDFORMAT_BEGIN
 90
        0
 91
        1
 62
     0
 92
       -2
340
0
 93
        0
 40
0.045
309
GRIDFORMAT_END
 95
       32
302
GRIDFORMAT
  1
GRIDFORMAT_BEGIN
 90
        0
 91
        1
 62
     0
 92
       -2
340
0
 93
        0
 40
0.045
309
GRIDFORMAT_END
309
TABLEFORMAT_END
  1
CELLSTYLE_BEGIN
 90
        1
 91
        1
300
_TITLE
309
CELLSTYLE_END
300
CELLSTYLE
  1
TABLEFORMAT_BEGIN
 90
        5
170
     1
 91
        0
 92
        0
 62
   257
 93
        1
300
CONTENTFORMAT
  1
CONTENTFORMAT_BEGIN
 90
        0
 91
        0
 92
        4
 93
        0
300

 40
0.0
140
1.0
 94
        5
 62
     0
340
10
144
4.5
309
CONTENTFORMAT_END
171
     1
301
MARGIN
  1
CELLMARGIN_BEGIN
 40
1.5
 40
1.5
 40
1.5
 40
1.5
 40
0.18
 40
0.18
309
CELLMARGIN_END
 94
        6
 95
        1
302
GRIDFORMAT
  1
GRIDFORMAT_BEGIN
 90
        0
 91
        1
 62
     0
 92
       -2
340
0
 93
        0
 40
0.045
309
GRIDFORMAT_END
 95
        2
302
GRIDFORMAT
  1
GRIDFORMAT_BEGIN
 90
        0
 91
        1
 62
     0
 92
       -2
340
0
 93
        0
 40
0.045
309
GRIDFORMAT_END
 95
        4
302
GRIDFORMAT
  1
GRIDFORMAT_BEGIN
 90
        0
 91
        1
 62
     0
 92
       -2
340
0
 93
        0
 40
0.045
309
GRIDFORMAT_END
 95
        8
302
GRIDFORMAT
  1
GRIDFORMAT_BEGIN
 90
        0
 91
        1
 62
     0
 92
       -2
340
0
 93
        0
 40
0.045
309
GRIDFORMAT_END
 95
       16
302
GRIDFORMAT
  1
GRIDFORMAT_BEGIN
 90
        0
 91
        1
 62
     0
 92
       -2
340
0
 93
        0
 40
0.045
309
GRIDFORMAT_END
 95
       32
302
GRIDFORMAT
  1
GRIDFORMAT_BEGIN
 90
        0
 91
        1
 62
     0
 92
       -2
340
0
 93
        0
 40
0.045
309
GRIDFORMAT_END
309
TABLEFORMAT_END
  1
CELLSTYLE_BEGIN
 90
        2
 91
        1
300
_HEADER
309
CELLSTYLE_END
300
CELLSTYLE
  1
TABLEFORMAT_BEGIN
 90
        5
170
     1
 91
        0
 92
        0
 62
   257
 93
        1
300
CONTENTFORMAT
  1
CONTENTFORMAT_BEGIN
 90
        0
 91
        0
 92
        4
 93
        0
300

 40
0.0
140
1.0
 94
        2
 62
     0
340
10
144
4.5
309
CONTENTFORMAT_END
171
     1
301
MARGIN
  1
CELLMARGIN_BEGIN
 40
1.5
 40
1.5
 40
1.5
 40
1.5
 40
0.18
 40
0.18
309
CELLMARGIN_END
 94
        6
 95
        1
302
GRIDFORMAT
  1
GRIDFORMAT_BEGIN
 90
        0
 91
        1
 62
     0
 92
       -2
340
0
 93
        0
 40
0.045
309
GRIDFORMAT_END
 95
        2
302
GRIDFORMAT
  1
GRIDFORMAT_BEGIN
 90
        0
 91
        1
 62
     0
 92
       -2
340
0
 93
        0
 40
0.045
309
GRIDFORMAT_END
 95
        4
302
GRIDFORMAT
  1
GRIDFORMAT_BEGIN
 90
        0
 91
        1
 62
     0
 92
       -2
340
0
 93
        0
 40
0.045
309
GRIDFORMAT_END
 95
        8
302
GRIDFORMAT
  1
GRIDFORMAT_BEGIN
 90
        0
 91
        1
 62
     0
 92
       -2
340
0
 93
        0
 40
0.045
309
GRIDFORMAT_END
 95
       16
302
GRIDFORMAT
  1
GRIDFORMAT_BEGIN
 90
        0
 91
        1
 62
     0
 92
       -2
340
0
 93
        0
 40
0.045
309
GRIDFORMAT_END
 95
       32
302
GRIDFORMAT
  1
GRIDFORMAT_BEGIN
 90
        0
 91
        1
 62
     0
 92
       -2
340
0
 93
        0
 40
0.045
309
GRIDFORMAT_END
309
TABLEFORMAT_END
  1
CELLSTYLE_BEGIN
 90
        3
 91
        2
300
_DATA
309
CELLSTYLE_END
  0
XRECORD
  5
F13F
102
{ACAD_REACTORS
330
8EFC
102
}
330
8EFC
100
AcDbXrecord
280
     1
102
ACAD_ROUNDTRIP_PRE2007_TABLESTYLE
 90
        4
 91
        0
  1

 92
        4
 93
        0
  2

 94
        4
 95
        0
  3

  0
XRECORD
  5
F14E
102
{ACAD_REACTORS
330
F14D
102
}
330
F14D
100
AcDbXrecord
280
     1
102
RTVSPost2010Prop28
280
     1
102
RTVSPost2010PropOp28
 70
     1
102
RTVSPost2010Prop29
280
     1
102
RTVSPost2010PropOp29
 70
     1
102
RTVSPost2010Prop30
280
     0
102
RTVSPost2010PropOp30
 70
     1
102
RTVSPost2010Prop31
280
     0
102
RTVSPost2010PropOp31
 70
     1
102
RTVSPost2010Prop32
280
     0
102
RTVSPost2010PropOp32
 70
     1
102
RTVSPost2010Prop33
280
     0
102
RTVSPost2010PropOp33
 70
     1
102
RTVSPost2010Prop34
280
     0
102
RTVSPost2010PropOp34
 70
     1
102
RTVSPost2010Prop35
280
     0
102
RTVSPost2010PropOp35
 70
     1
102
RTVSPost2010Prop36
280
     0
102
RTVSPost2010PropOp36
 70
     1
102
RTVSPost2010Prop37
 90
       50
102
RTVSPost2010PropOp37
 70
     1
102
RTVSPost2010Prop38
140
0.0
102
RTVSPost2010PropOp38
 70
     1
102
RTVSPost2010Prop39
140
1.0
102
RTVSPost2010PropOp39
 70
     1
102
RTVSPost2010Prop40
 90
        0
102
RTVSPost2010PropOp40
 70
     1
102
RTVSPost2010Prop41ColorIndex
 90
       18
102
RTVSPost2010Prop41ColorRGB
 90
        0
102
RTVSPost2010PropOp41
 70
     1
102
RTVSPost2010Prop42
 90
       50
102
RTVSPost2010PropOp42
 70
     1
102
RTVSPost2010Prop43
 90
        3
102
RTVSPost2010PropOp43
 70
     1
102
RTVSPost2010Prop44ColorIndex
 90
        5
102
RTVSPost2010Prop44ColorRGB
 90
      255
102
RTVSPost2010PropOp44
 70
     1
102
RTVSPost2010Prop45
280
     0
102
RTVSPost2010PropOp45
 70
     1
102
RTVSPost2010Prop46
 90
       50
102
RTVSPost2010PropOp46
 70
     1
102
RTVSPost2010Prop47
 90
       50
102
RTVSPost2010PropOp47
 70
     1
102
RTVSPost2010Prop48
 90
       50
102
RTVSPost2010PropOp48
 70
     1
102
RTVSPost2010Prop49
280
     0
102
RTVSPost2010PropOp49
 70
     1
102
RTVSPost2010Prop50
 90
       50
102
RTVSPost2010PropOp50
 70
     1
102
RTVSPost2010Prop51ColorIndex
 90
      256
102
RTVSPost2010Prop51ColorRGB
 90
-16777216
102
RTVSPost2010PropOp51
 70
     0
102
RTVSPost2010Prop52
140
1.0
102
RTVSPost2010PropOp52
 70
     0
102
RTVSPost2010Prop53
 90
        2
102
RTVSPost2010PropOp53
 70
     1
102
RTVSPost2010Prop54
  1
strokes_ogs.tif
102
RTVSPost2010PropOp54
 70
     1
102
RTVSPost2010Prop55
280
     0
102
RTVSPost2010PropOp55
 70
     1
102
RTVSPost2010Prop56
140
1.0
102
RTVSPost2010PropOp56
 70
     1
102
RTVSPost2010Prop57
140
1.0
102
RTVSPost2010PropOp57
 70
     1
102
RTVSPropertyOp0
 70
     1
102
RTVSPropertyOp1
 70
     1
102
RTVSPropertyOp2
 70
     1
102
RTVSPropertyOp3
 70
     1
102
RTVSPropertyOp4
 70
     1
102
RTVSPropertyOp5
 70
     1
102
RTVSPropertyOp6
 70
     1
102
RTVSPropertyOp7
 70
     1
102
RTVSPropertyOp8
 70
     1
102
RTVSPropertyOp9
 70
     1
102
RTVSPropertyOp10
 70
     1
102
RTVSPropertyOp11
 70
     1
102
RTVSPropertyOp12
 70
     1
102
RTVSPropertyOp13
 70
     1
102
RTVSPropertyOp14
 70
     1
102
RTVSPropertyOp15
 70
     1
102
RTVSPropertyOp16
 70
     1
102
RTVSPropertyOp17
 70
     1
102
RTVSPropertyOp18
 70
     1
102
RTVSPropertyOp19
 70
     1
102
RTVSPropertyOp20
 70
     1
102
RTVSPropertyOp21
 70
     1
102
RTVSPropertyOp22
 70
     1
102
RTVSPropertyOp23
 70
     1
102
RTVSPropertyOp24
 70
     1
102
RTVSPropertyOp25
 70
     1
102
RTVSPropertyOp26
 70
     1
102
RTVSPropertyOp27
 70
     1
102
RTVSPropertyOp28
 70
     1
102
RTVSPropertyOp29
 70
     1
102
RTVSPropertyOp30
 70
     1
102
RTVSPropertyOp31
 70
     1
102
RTVSPropertyOp32
 70
     1
102
RTVSPropertyOp33
 70
     1
102
RTVSPropertyOp34
 70
     1
102
RTVSPropertyOp35
 70
     1
102
RTVSPropertyOp36
 70
     1
102
RTVSPropertyOp37
 70
     1
102
RTVSPropertyOp38
 70
     1
102
RTVSPropertyOp39
 70
     1
102
RTVSPropertyOp40
 70
     1
102
RTVSPropertyOp41
 70
     1
102
RTVSPropertyOp42
 70
     1
102
RTVSPropertyOp43
 70
     1
102
RTVSPropertyOp44
 70
     1
102
RTVSPropertyOp45
 70
     1
102
RTVSPropertyOp46
 70
     1
102
RTVSPropertyOp47
 70
     1
102
RTVSPropertyOp48
 70
     1
102
RTVSPropertyOp49
 70
     1
102
RTVSPropertyOp50
 70
     1
102
RTVSPropertyOp51
 70
     0
102
RTVSPropertyOp52
 70
     0
102
RTVSPropertyOp53
 70
     1
102
RTVSPropertyOp54
 70
     1
102
RTVSPropertyOp55
 70
     1
102
RTVSPropertyOp56
 70
     1
102
RTVSPropertyOp57
 70
     1
102
RTVSPropertyOp58
 70
     1
102
RTVSPropertyOp59
 70
     1
102
RTVSPropertyOp60
 70
     1
102
RTVSPropertyOp61
 70
     1
102
RTVSPropertyOp62
 70
     1
  0
XRECORD
  5
F152
102
{ACAD_REACTORS
330
F151
102
}
330
F151
100
AcDbXrecord
280
     1
102
RTVSPost2010Prop28
280
     0
102
RTVSPost2010PropOp28
 70
     1
102
RTVSPost2010Prop29
280
     1
102
RTVSPost2010PropOp29
 70
     1
102
RTVSPost2010Prop30
280
     1
102
RTVSPost2010PropOp30
 70
     1
102
RTVSPost2010Prop31
280
     0
102
RTVSPost2010PropOp31
 70
     1
102
RTVSPost2010Prop32
280
     0
102
RTVSPost2010PropOp32
 70
     1
102
RTVSPost2010Prop33
280
     0
102
RTVSPost2010PropOp33
 70
     1
102
RTVSPost2010Prop34
280
     0
102
RTVSPost2010PropOp34
 70
     1
102
RTVSPost2010Prop35
280
     0
102
RTVSPost2010PropOp35
 70
     1
102
RTVSPost2010Prop36
280
     0
102
RTVSPost2010PropOp36
 70
     1
102
RTVSPost2010Prop37
 90
       50
102
RTVSPost2010PropOp37
 70
     1
102
RTVSPost2010Prop38
140
0.0
102
RTVSPost2010PropOp38
 70
     1
102
RTVSPost2010Prop39
140
1.0
102
RTVSPost2010PropOp39
 70
     1
102
RTVSPost2010Prop40
 90
        0
102
RTVSPost2010PropOp40
 70
     1
102
RTVSPost2010Prop41ColorIndex
 90
       18
102
RTVSPost2010Prop41ColorRGB
 90
        0
102
RTVSPost2010PropOp41
 70
     1
102
RTVSPost2010Prop42
 90
       50
102
RTVSPost2010PropOp42
 70
     1
102
RTVSPost2010Prop43
 90
        3
102
RTVSPost2010PropOp43
 70
     1
102
RTVSPost2010Prop44ColorIndex
 90
        5
102
RTVSPost2010Prop44ColorRGB
 90
      255
102
RTVSPost2010PropOp44
 70
     1
102
RTVSPost2010Prop45
280
     0
102
RTVSPost2010PropOp45
 70
     1
102
RTVSPost2010Prop46
 90
       50
102
RTVSPost2010PropOp46
 70
     1
102
RTVSPost2010Prop47
 90
       50
102
RTVSPost2010PropOp47
 70
     1
102
RTVSPost2010Prop48
 90
       50
102
RTVSPost2010PropOp48
 70
     1
102
RTVSPost2010Prop49
280
     0
102
RTVSPost2010PropOp49
 70
     1
102
RTVSPost2010Prop50
 90
       50
102
RTVSPost2010PropOp50
 70
     1
102
RTVSPost2010Prop51ColorIndex
 90
      256
102
RTVSPost2010Prop51ColorRGB
 90
-16777216
102
RTVSPost2010PropOp51
 70
     0
102
RTVSPost2010Prop52
140
1.0
102
RTVSPost2010PropOp52
 70
     0
102
RTVSPost2010Prop53
 90
        2
102
RTVSPost2010PropOp53
 70
     1
102
RTVSPost2010Prop54
  1
strokes_ogs.tif
102
RTVSPost2010PropOp54
 70
     1
102
RTVSPost2010Prop55
280
     0
102
RTVSPost2010PropOp55
 70
     1
102
RTVSPost2010Prop56
140
1.0
102
RTVSPost2010PropOp56
 70
     1
102
RTVSPost2010Prop57
140
1.0
102
RTVSPost2010PropOp57
 70
     1
102
RTVSPropertyOp0
 70
     1
102
RTVSPropertyOp1
 70
     1
102
RTVSPropertyOp2
 70
     1
102
RTVSPropertyOp3
 70
     1
102
RTVSPropertyOp4
 70
     1
102
RTVSPropertyOp5
 70
     1
102
RTVSPropertyOp6
 70
     1
102
RTVSPropertyOp7
 70
     1
102
RTVSPropertyOp8
 70
     1
102
RTVSPropertyOp9
 70
     1
102
RTVSPropertyOp10
 70
     1
102
RTVSPropertyOp11
 70
     1
102
RTVSPropertyOp12
 70
     1
102
RTVSPropertyOp13
 70
     1
102
RTVSPropertyOp14
 70
     1
102
RTVSPropertyOp15
 70
     1
102
RTVSPropertyOp16
 70
     1
102
RTVSPropertyOp17
 70
     1
102
RTVSPropertyOp18
 70
     1
102
RTVSPropertyOp19
 70
     1
102
RTVSPropertyOp20
 70
     1
102
RTVSPropertyOp21
 70
     1
102
RTVSPropertyOp22
 70
     1
102
RTVSPropertyOp23
 70
     1
102
RTVSPropertyOp24
 70
     1
102
RTVSPropertyOp25
 70
     1
102
RTVSPropertyOp26
 70
     1
102
RTVSPropertyOp27
 70
     1
102
RTVSPropertyOp28
 70
     1
102
RTVSPropertyOp29
 70
     1
102
RTVSPropertyOp30
 70
     1
102
RTVSPropertyOp31
 70
     1
102
RTVSPropertyOp32
 70
     1
102
RTVSPropertyOp33
 70
     1
102
RTVSPropertyOp34
 70
     1
102
RTVSPropertyOp35
 70
     1
102
RTVSPropertyOp36
 70
     1
102
RTVSPropertyOp37
 70
     1
102
RTVSPropertyOp38
 70
     1
102
RTVSPropertyOp39
 70
     1
102
RTVSPropertyOp40
 70
     1
102
RTVSPropertyOp41
 70
     1
102
RTVSPropertyOp42
 70
     1
102
RTVSPropertyOp43
 70
     1
102
RTVSPropertyOp44
 70
     1
102
RTVSPropertyOp45
 70
     1
102
RTVSPropertyOp46
 70
     1
102
RTVSPropertyOp47
 70
     1
102
RTVSPropertyOp48
 70
     1
102
RTVSPropertyOp49
 70
     1
102
RTVSPropertyOp50
 70
     1
102
RTVSPropertyOp51
 70
     0
102
RTVSPropertyOp52
 70
     0
102
RTVSPropertyOp53
 70
     1
102
RTVSPropertyOp54
 70
     1
102
RTVSPropertyOp55
 70
     1
102
RTVSPropertyOp56
 70
     1
102
RTVSPropertyOp57
 70
     1
102
RTVSPropertyOp58
 70
     1
102
RTVSPropertyOp59
 70
     1
102
RTVSPropertyOp60
 70
     1
102
RTVSPropertyOp61
 70
     1
102
RTVSPropertyOp62
 70
     1
  0
XRECORD
  5
F150
102
{ACAD_REACTORS
330
F14F
102
}
330
F14F
100
AcDbXrecord
280
     1
102
RTVSPost2010Prop28
280
     0
102
RTVSPost2010PropOp28
 70
     1
102
RTVSPost2010Prop29
280
     1
102
RTVSPost2010PropOp29
 70
     1
102
RTVSPost2010Prop30
280
     1
102
RTVSPost2010PropOp30
 70
     1
102
RTVSPost2010Prop31
280
     0
102
RTVSPost2010PropOp31
 70
     1
102
RTVSPost2010Prop32
280
     0
102
RTVSPost2010PropOp32
 70
     1
102
RTVSPost2010Prop33
280
     0
102
RTVSPost2010PropOp33
 70
     1
102
RTVSPost2010Prop34
280
     0
102
RTVSPost2010PropOp34
 70
     1
102
RTVSPost2010Prop35
280
     0
102
RTVSPost2010PropOp35
 70
     1
102
RTVSPost2010Prop36
280
     0
102
RTVSPost2010PropOp36
 70
     1
102
RTVSPost2010Prop37
 90
       50
102
RTVSPost2010PropOp37
 70
     1
102
RTVSPost2010Prop38
140
0.0
102
RTVSPost2010PropOp38
 70
     1
102
RTVSPost2010Prop39
140
1.0
102
RTVSPost2010PropOp39
 70
     1
102
RTVSPost2010Prop40
 90
        0
102
RTVSPost2010PropOp40
 70
     1
102
RTVSPost2010Prop41ColorIndex
 90
       18
102
RTVSPost2010Prop41ColorRGB
 90
        0
102
RTVSPost2010PropOp41
 70
     1
102
RTVSPost2010Prop42
 90
       50
102
RTVSPost2010PropOp42
 70
     1
102
RTVSPost2010Prop43
 90
        3
102
RTVSPost2010PropOp43
 70
     1
102
RTVSPost2010Prop44ColorIndex
 90
        5
102
RTVSPost2010Prop44ColorRGB
 90
      255
102
RTVSPost2010PropOp44
 70
     1
102
RTVSPost2010Prop45
280
     0
102
RTVSPost2010PropOp45
 70
     1
102
RTVSPost2010Prop46
 90
       50
102
RTVSPost2010PropOp46
 70
     1
102
RTVSPost2010Prop47
 90
       50
102
RTVSPost2010PropOp47
 70
     1
102
RTVSPost2010Prop48
 90
       50
102
RTVSPost2010PropOp48
 70
     1
102
RTVSPost2010Prop49
280
     0
102
RTVSPost2010PropOp49
 70
     1
102
RTVSPost2010Prop50
 90
       50
102
RTVSPost2010PropOp50
 70
     1
102
RTVSPost2010Prop51ColorIndex
 90
      256
102
RTVSPost2010Prop51ColorRGB
 90
-16777216
102
RTVSPost2010PropOp51
 70
     0
102
RTVSPost2010Prop52
140
1.0
102
RTVSPost2010PropOp52
 70
     0
102
RTVSPost2010Prop53
 90
        2
102
RTVSPost2010PropOp53
 70
     1
102
RTVSPost2010Prop54
  1
strokes_ogs.tif
102
RTVSPost2010PropOp54
 70
     1
102
RTVSPost2010Prop55
280
     0
102
RTVSPost2010PropOp55
 70
     1
102
RTVSPost2010Prop56
140
1.0
102
RTVSPost2010PropOp56
 70
     1
102
RTVSPost2010Prop57
140
1.0
102
RTVSPost2010PropOp57
 70
     1
102
RTVSPropertyOp0
 70
     1
102
RTVSPropertyOp1
 70
     1
102
RTVSPropertyOp2
 70
     1
102
RTVSPropertyOp3
 70
     1
102
RTVSPropertyOp4
 70
     1
102
RTVSPropertyOp5
 70
     1
102
RTVSPropertyOp6
 70
     1
102
RTVSPropertyOp7
 70
     1
102
RTVSPropertyOp8
 70
     1
102
RTVSPropertyOp9
 70
     1
102
RTVSPropertyOp10
 70
     1
102
RTVSPropertyOp11
 70
     1
102
RTVSPropertyOp12
 70
     1
102
RTVSPropertyOp13
 70
     1
102
RTVSPropertyOp14
 70
     1
102
RTVSPropertyOp15
 70
     1
102
RTVSPropertyOp16
 70
     1
102
RTVSPropertyOp17
 70
     1
102
RTVSPropertyOp18
 70
     1
102
RTVSPropertyOp19
 70
     1
102
RTVSPropertyOp20
 70
     1
102
RTVSPropertyOp21
 70
     1
102
RTVSPropertyOp22
 70
     1
102
RTVSPropertyOp23
 70
     1
102
RTVSPropertyOp24
 70
     1
102
RTVSPropertyOp25
 70
     1
102
RTVSPropertyOp26
 70
     1
102
RTVSPropertyOp27
 70
     1
102
RTVSPropertyOp28
 70
     1
102
RTVSPropertyOp29
 70
     1
102
RTVSPropertyOp30
 70
     1
102
RTVSPropertyOp31
 70
     1
102
RTVSPropertyOp32
 70
     1
102
RTVSPropertyOp33
 70
     1
102
RTVSPropertyOp34
 70
     1
102
RTVSPropertyOp35
 70
     1
102
RTVSPropertyOp36
 70
     1
102
RTVSPropertyOp37
 70
     1
102
RTVSPropertyOp38
 70
     1
102
RTVSPropertyOp39
 70
     1
102
RTVSPropertyOp40
 70
     1
102
RTVSPropertyOp41
 70
     1
102
RTVSPropertyOp42
 70
     1
102
RTVSPropertyOp43
 70
     1
102
RTVSPropertyOp44
 70
     1
102
RTVSPropertyOp45
 70
     1
102
RTVSPropertyOp46
 70
     1
102
RTVSPropertyOp47
 70
     1
102
RTVSPropertyOp48
 70
     1
102
RTVSPropertyOp49
 70
     1
102
RTVSPropertyOp50
 70
     1
102
RTVSPropertyOp51
 70
     0
102
RTVSPropertyOp52
 70
     0
102
RTVSPropertyOp53
 70
     1
102
RTVSPropertyOp54
 70
     1
102
RTVSPropertyOp55
 70
     1
102
RTVSPropertyOp56
 70
     1
102
RTVSPropertyOp57
 70
     1
102
RTVSPropertyOp58
 70
     1
102
RTVSPropertyOp59
 70
     1
102
RTVSPropertyOp60
 70
     1
102
RTVSPropertyOp61
 70
     1
102
RTVSPropertyOp62
 70
     1
  0
XRECORD
  5
F14C
102
{ACAD_REACTORS
330
F14B
102
}
330
F14B
100
AcDbXrecord
280
     1
102
RTVSPost2010Prop28
280
     0
102
RTVSPost2010PropOp28
 70
     1
102
RTVSPost2010Prop29
280
     1
102
RTVSPost2010PropOp29
 70
     1
102
RTVSPost2010Prop30
280
     1
102
RTVSPost2010PropOp30
 70
     1
102
RTVSPost2010Prop31
280
     0
102
RTVSPost2010PropOp31
 70
     1
102
RTVSPost2010Prop32
280
     0
102
RTVSPost2010PropOp32
 70
     1
102
RTVSPost2010Prop33
280
     0
102
RTVSPost2010PropOp33
 70
     1
102
RTVSPost2010Prop34
280
     0
102
RTVSPost2010PropOp34
 70
     1
102
RTVSPost2010Prop35
280
     0
102
RTVSPost2010PropOp35
 70
     1
102
RTVSPost2010Prop36
280
     0
102
RTVSPost2010PropOp36
 70
     1
102
RTVSPost2010Prop37
 90
       50
102
RTVSPost2010PropOp37
 70
     1
102
RTVSPost2010Prop38
140
0.0
102
RTVSPost2010PropOp38
 70
     1
102
RTVSPost2010Prop39
140
1.0
102
RTVSPost2010PropOp39
 70
     1
102
RTVSPost2010Prop40
 90
        0
102
RTVSPost2010PropOp40
 70
     1
102
RTVSPost2010Prop41ColorIndex
 90
       18
102
RTVSPost2010Prop41ColorRGB
 90
        0
102
RTVSPost2010PropOp41
 70
     1
102
RTVSPost2010Prop42
 90
       50
102
RTVSPost2010PropOp42
 70
     1
102
RTVSPost2010Prop43
 90
        3
102
RTVSPost2010PropOp43
 70
     1
102
RTVSPost2010Prop44ColorIndex
 90
        5
102
RTVSPost2010Prop44ColorRGB
 90
      255
102
RTVSPost2010PropOp44
 70
     1
102
RTVSPost2010Prop45
280
     0
102
RTVSPost2010PropOp45
 70
     1
102
RTVSPost2010Prop46
 90
       50
102
RTVSPost2010PropOp46
 70
     1
102
RTVSPost2010Prop47
 90
       50
102
RTVSPost2010PropOp47
 70
     1
102
RTVSPost2010Prop48
 90
       50
102
RTVSPost2010PropOp48
 70
     1
102
RTVSPost2010Prop49
280
     0
102
RTVSPost2010PropOp49
 70
     1
102
RTVSPost2010Prop50
 90
       50
102
RTVSPost2010PropOp50
 70
     1
102
RTVSPost2010Prop51ColorIndex
 90
      256
102
RTVSPost2010Prop51ColorRGB
 90
-16777216
102
RTVSPost2010PropOp51
 70
     0
102
RTVSPost2010Prop52
140
1.0
102
RTVSPost2010PropOp52
 70
     0
102
RTVSPost2010Prop53
 90
        2
102
RTVSPost2010PropOp53
 70
     1
102
RTVSPost2010Prop54
  1
strokes_ogs.tif
102
RTVSPost2010PropOp54
 70
     1
102
RTVSPost2010Prop55
280
     0
102
RTVSPost2010PropOp55
 70
     1
102
RTVSPost2010Prop56
140
1.0
102
RTVSPost2010PropOp56
 70
     1
102
RTVSPost2010Prop57
140
1.0
102
RTVSPost2010PropOp57
 70
     1
102
RTVSPropertyOp0
 70
     1
102
RTVSPropertyOp1
 70
     1
102
RTVSPropertyOp2
 70
     1
102
RTVSPropertyOp3
 70
     1
102
RTVSPropertyOp4
 70
     1
102
RTVSPropertyOp5
 70
     1
102
RTVSPropertyOp6
 70
     1
102
RTVSPropertyOp7
 70
     1
102
RTVSPropertyOp8
 70
     1
102
RTVSPropertyOp9
 70
     1
102
RTVSPropertyOp10
 70
     1
102
RTVSPropertyOp11
 70
     1
102
RTVSPropertyOp12
 70
     1
102
RTVSPropertyOp13
 70
     1
102
RTVSPropertyOp14
 70
     1
102
RTVSPropertyOp15
 70
     1
102
RTVSPropertyOp16
 70
     1
102
RTVSPropertyOp17
 70
     1
102
RTVSPropertyOp18
 70
     1
102
RTVSPropertyOp19
 70
     1
102
RTVSPropertyOp20
 70
     1
102
RTVSPropertyOp21
 70
     1
102
RTVSPropertyOp22
 70
     1
102
RTVSPropertyOp23
 70
     1
102
RTVSPropertyOp24
 70
     1
102
RTVSPropertyOp25
 70
     1
102
RTVSPropertyOp26
 70
     1
102
RTVSPropertyOp27
 70
     1
102
RTVSPropertyOp28
 70
     1
102
RTVSPropertyOp29
 70
     1
102
RTVSPropertyOp30
 70
     1
102
RTVSPropertyOp31
 70
     1
102
RTVSPropertyOp32
 70
     1
102
RTVSPropertyOp33
 70
     1
102
RTVSPropertyOp34
 70
     1
102
RTVSPropertyOp35
 70
     1
102
RTVSPropertyOp36
 70
     1
102
RTVSPropertyOp37
 70
     1
102
RTVSPropertyOp38
 70
     1
102
RTVSPropertyOp39
 70
     1
102
RTVSPropertyOp40
 70
     1
102
RTVSPropertyOp41
 70
     1
102
RTVSPropertyOp42
 70
     1
102
RTVSPropertyOp43
 70
     1
102
RTVSPropertyOp44
 70
     1
102
RTVSPropertyOp45
 70
     1
102
RTVSPropertyOp46
 70
     1
102
RTVSPropertyOp47
 70
     1
102
RTVSPropertyOp48
 70
     1
102
RTVSPropertyOp49
 70
     1
102
RTVSPropertyOp50
 70
     1
102
RTVSPropertyOp51
 70
     0
102
RTVSPropertyOp52
 70
     0
102
RTVSPropertyOp53
 70
     1
102
RTVSPropertyOp54
 70
     1
102
RTVSPropertyOp55
 70
     1
102
RTVSPropertyOp56
 70
     1
102
RTVSPropertyOp57
 70
     1
102
RTVSPropertyOp58
 70
     1
102
RTVSPropertyOp59
 70
     1
102
RTVSPropertyOp60
 70
     1
102
RTVSPropertyOp61
 70
     1
102
RTVSPropertyOp62
 70
     1
  0
XRECORD
  5
F15A
102
{ACAD_REACTORS
330
F159
102
}
330
F159
100
AcDbXrecord
280
     1
102
RTVSPost2010Prop28
280
     0
102
RTVSPost2010PropOp28
 70
     1
102
RTVSPost2010Prop29
280
     1
102
RTVSPost2010PropOp29
 70
     1
102
RTVSPost2010Prop30
280
     1
102
RTVSPost2010PropOp30
 70
     1
102
RTVSPost2010Prop31
280
     0
102
RTVSPost2010PropOp31
 70
     1
102
RTVSPost2010Prop32
280
     0
102
RTVSPost2010PropOp32
 70
     1
102
RTVSPost2010Prop33
280
     0
102
RTVSPost2010PropOp33
 70
     1
102
RTVSPost2010Prop34
280
     0
102
RTVSPost2010PropOp34
 70
     1
102
RTVSPost2010Prop35
280
     0
102
RTVSPost2010PropOp35
 70
     1
102
RTVSPost2010Prop36
280
     0
102
RTVSPost2010PropOp36
 70
     1
102
RTVSPost2010Prop37
 90
       50
102
RTVSPost2010PropOp37
 70
     1
102
RTVSPost2010Prop38
140
0.0
102
RTVSPost2010PropOp38
 70
     1
102
RTVSPost2010Prop39
140
1.0
102
RTVSPost2010PropOp39
 70
     1
102
RTVSPost2010Prop40
 90
        0
102
RTVSPost2010PropOp40
 70
     1
102
RTVSPost2010Prop41ColorIndex
 90
       18
102
RTVSPost2010Prop41ColorRGB
 90
        0
102
RTVSPost2010PropOp41
 70
     1
102
RTVSPost2010Prop42
 90
       50
102
RTVSPost2010PropOp42
 70
     1
102
RTVSPost2010Prop43
 90
        3
102
RTVSPost2010PropOp43
 70
     1
102
RTVSPost2010Prop44ColorIndex
 90
        5
102
RTVSPost2010Prop44ColorRGB
 90
      255
102
RTVSPost2010PropOp44
 70
     1
102
RTVSPost2010Prop45
280
     0
102
RTVSPost2010PropOp45
 70
     1
102
RTVSPost2010Prop46
 90
       50
102
RTVSPost2010PropOp46
 70
     1
102
RTVSPost2010Prop47
 90
       50
102
RTVSPost2010PropOp47
 70
     1
102
RTVSPost2010Prop48
 90
       50
102
RTVSPost2010PropOp48
 70
     1
102
RTVSPost2010Prop49
280
     0
102
RTVSPost2010PropOp49
 70
     1
102
RTVSPost2010Prop50
 90
       50
102
RTVSPost2010PropOp50
 70
     1
102
RTVSPost2010Prop51ColorIndex
 90
      256
102
RTVSPost2010Prop51ColorRGB
 90
-16777216
102
RTVSPost2010PropOp51
 70
     0
102
RTVSPost2010Prop52
140
1.0
102
RTVSPost2010PropOp52
 70
     0
102
RTVSPost2010Prop53
 90
        2
102
RTVSPost2010PropOp53
 70
     1
102
RTVSPost2010Prop54
  1
strokes_ogs.tif
102
RTVSPost2010PropOp54
 70
     1
102
RTVSPost2010Prop55
280
     0
102
RTVSPost2010PropOp55
 70
     1
102
RTVSPost2010Prop56
140
1.0
102
RTVSPost2010PropOp56
 70
     1
102
RTVSPost2010Prop57
140
1.0
102
RTVSPost2010PropOp57
 70
     1
102
RTVSPropertyOp0
 70
     1
102
RTVSPropertyOp1
 70
     1
102
RTVSPropertyOp2
 70
     1
102
RTVSPropertyOp3
 70
     1
102
RTVSPropertyOp4
 70
     1
102
RTVSPropertyOp5
 70
     1
102
RTVSPropertyOp6
 70
     1
102
RTVSPropertyOp7
 70
     1
102
RTVSPropertyOp8
 70
     1
102
RTVSPropertyOp9
 70
     1
102
RTVSPropertyOp10
 70
     1
102
RTVSPropertyOp11
 70
     1
102
RTVSPropertyOp12
 70
     1
102
RTVSPropertyOp13
 70
     1
102
RTVSPropertyOp14
 70
     1
102
RTVSPropertyOp15
 70
     1
102
RTVSPropertyOp16
 70
     1
102
RTVSPropertyOp17
 70
     1
102
RTVSPropertyOp18
 70
     1
102
RTVSPropertyOp19
 70
     1
102
RTVSPropertyOp20
 70
     1
102
RTVSPropertyOp21
 70
     1
102
RTVSPropertyOp22
 70
     1
102
RTVSPropertyOp23
 70
     1
102
RTVSPropertyOp24
 70
     1
102
RTVSPropertyOp25
 70
     1
102
RTVSPropertyOp26
 70
     1
102
RTVSPropertyOp27
 70
     1
102
RTVSPropertyOp28
 70
     1
102
RTVSPropertyOp29
 70
     1
102
RTVSPropertyOp30
 70
     1
102
RTVSPropertyOp31
 70
     1
102
RTVSPropertyOp32
 70
     1
102
RTVSPropertyOp33
 70
     1
102
RTVSPropertyOp34
 70
     1
102
RTVSPropertyOp35
 70
     1
102
RTVSPropertyOp36
 70
     1
102
RTVSPropertyOp37
 70
     1
102
RTVSPropertyOp38
 70
     1
102
RTVSPropertyOp39
 70
     1
102
RTVSPropertyOp40
 70
     1
102
RTVSPropertyOp41
 70
     1
102
RTVSPropertyOp42
 70
     1
102
RTVSPropertyOp43
 70
     1
102
RTVSPropertyOp44
 70
     1
102
RTVSPropertyOp45
 70
     1
102
RTVSPropertyOp46
 70
     1
102
RTVSPropertyOp47
 70
     1
102
RTVSPropertyOp48
 70
     1
102
RTVSPropertyOp49
 70
     1
102
RTVSPropertyOp50
 70
     1
102
RTVSPropertyOp51
 70
     0
102
RTVSPropertyOp52
 70
     0
102
RTVSPropertyOp53
 70
     1
102
RTVSPropertyOp54
 70
     1
102
RTVSPropertyOp55
 70
     1
102
RTVSPropertyOp56
 70
     1
102
RTVSPropertyOp57
 70
     1
102
RTVSPropertyOp58
 70
     1
102
RTVSPropertyOp59
 70
     1
102
RTVSPropertyOp60
 70
     1
102
RTVSPropertyOp61
 70
     1
102
RTVSPropertyOp62
 70
     1
  0
XRECORD
  5
F162
102
{ACAD_REACTORS
330
F161
102
}
330
F161
100
AcDbXrecord
280
     1
102
RTVSPost2010Prop28
280
     0
102
RTVSPost2010PropOp28
 70
     1
102
RTVSPost2010Prop29
280
     1
102
RTVSPost2010PropOp29
 70
     1
102
RTVSPost2010Prop30
280
     1
102
RTVSPost2010PropOp30
 70
     1
102
RTVSPost2010Prop31
280
     0
102
RTVSPost2010PropOp31
 70
     1
102
RTVSPost2010Prop32
280
     0
102
RTVSPost2010PropOp32
 70
     1
102
RTVSPost2010Prop33
280
     0
102
RTVSPost2010PropOp33
 70
     1
102
RTVSPost2010Prop34
280
     0
102
RTVSPost2010PropOp34
 70
     1
102
RTVSPost2010Prop35
280
     0
102
RTVSPost2010PropOp35
 70
     1
102
RTVSPost2010Prop36
280
     0
102
RTVSPost2010PropOp36
 70
     1
102
RTVSPost2010Prop37
 90
       50
102
RTVSPost2010PropOp37
 70
     1
102
RTVSPost2010Prop38
140
0.0
102
RTVSPost2010PropOp38
 70
     1
102
RTVSPost2010Prop39
140
1.0
102
RTVSPost2010PropOp39
 70
     1
102
RTVSPost2010Prop40
 90
        0
102
RTVSPost2010PropOp40
 70
     1
102
RTVSPost2010Prop41ColorIndex
 90
       18
102
RTVSPost2010Prop41ColorRGB
 90
        0
102
RTVSPost2010PropOp41
 70
     1
102
RTVSPost2010Prop42
 90
       50
102
RTVSPost2010PropOp42
 70
     1
102
RTVSPost2010Prop43
 90
        3
102
RTVSPost2010PropOp43
 70
     1
102
RTVSPost2010Prop44ColorIndex
 90
        5
102
RTVSPost2010Prop44ColorRGB
 90
      255
102
RTVSPost2010PropOp44
 70
     1
102
RTVSPost2010Prop45
280
     0
102
RTVSPost2010PropOp45
 70
     1
102
RTVSPost2010Prop46
 90
       50
102
RTVSPost2010PropOp46
 70
     1
102
RTVSPost2010Prop47
 90
       50
102
RTVSPost2010PropOp47
 70
     1
102
RTVSPost2010Prop48
 90
       50
102
RTVSPost2010PropOp48
 70
     1
102
RTVSPost2010Prop49
280
     0
102
RTVSPost2010PropOp49
 70
     1
102
RTVSPost2010Prop50
 90
       50
102
RTVSPost2010PropOp50
 70
     1
102
RTVSPost2010Prop51ColorIndex
 90
      256
102
RTVSPost2010Prop51ColorRGB
 90
-16777216
102
RTVSPost2010PropOp51
 70
     0
102
RTVSPost2010Prop52
140
1.0
102
RTVSPost2010PropOp52
 70
     0
102
RTVSPost2010Prop53
 90
        2
102
RTVSPost2010PropOp53
 70
     1
102
RTVSPost2010Prop54
  1
strokes_ogs.tif
102
RTVSPost2010PropOp54
 70
     1
102
RTVSPost2010Prop55
280
     0
102
RTVSPost2010PropOp55
 70
     1
102
RTVSPost2010Prop56
140
1.0
102
RTVSPost2010PropOp56
 70
     1
102
RTVSPost2010Prop57
140
1.0
102
RTVSPost2010PropOp57
 70
     1
102
RTVSPropertyOp0
 70
     1
102
RTVSPropertyOp1
 70
     1
102
RTVSPropertyOp2
 70
     1
102
RTVSPropertyOp3
 70
     1
102
RTVSPropertyOp4
 70
     1
102
RTVSPropertyOp5
 70
     1
102
RTVSPropertyOp6
 70
     1
102
RTVSPropertyOp7
 70
     1
102
RTVSPropertyOp8
 70
     1
102
RTVSPropertyOp9
 70
     1
102
RTVSPropertyOp10
 70
     1
102
RTVSPropertyOp11
 70
     1
102
RTVSPropertyOp12
 70
     1
102
RTVSPropertyOp13
 70
     1
102
RTVSPropertyOp14
 70
     1
102
RTVSPropertyOp15
 70
     1
102
RTVSPropertyOp16
 70
     1
102
RTVSPropertyOp17
 70
     1
102
RTVSPropertyOp18
 70
     1
102
RTVSPropertyOp19
 70
     1
102
RTVSPropertyOp20
 70
     1
102
RTVSPropertyOp21
 70
     1
102
RTVSPropertyOp22
 70
     1
102
RTVSPropertyOp23
 70
     1
102
RTVSPropertyOp24
 70
     1
102
RTVSPropertyOp25
 70
     1
102
RTVSPropertyOp26
 70
     1
102
RTVSPropertyOp27
 70
     1
102
RTVSPropertyOp28
 70
     1
102
RTVSPropertyOp29
 70
     1
102
RTVSPropertyOp30
 70
     1
102
RTVSPropertyOp31
 70
     1
102
RTVSPropertyOp32
 70
     1
102
RTVSPropertyOp33
 70
     1
102
RTVSPropertyOp34
 70
     1
102
RTVSPropertyOp35
 70
     1
102
RTVSPropertyOp36
 70
     1
102
RTVSPropertyOp37
 70
     1
102
RTVSPropertyOp38
 70
     1
102
RTVSPropertyOp39
 70
     1
102
RTVSPropertyOp40
 70
     1
102
RTVSPropertyOp41
 70
     1
102
RTVSPropertyOp42
 70
     1
102
RTVSPropertyOp43
 70
     1
102
RTVSPropertyOp44
 70
     1
102
RTVSPropertyOp45
 70
     1
102
RTVSPropertyOp46
 70
     1
102
RTVSPropertyOp47
 70
     1
102
RTVSPropertyOp48
 70
     1
102
RTVSPropertyOp49
 70
     1
102
RTVSPropertyOp50
 70
     1
102
RTVSPropertyOp51
 70
     0
102
RTVSPropertyOp52
 70
     0
102
RTVSPropertyOp53
 70
     1
102
RTVSPropertyOp54
 70
     1
102
RTVSPropertyOp55
 70
     1
102
RTVSPropertyOp56
 70
     1
102
RTVSPropertyOp57
 70
     1
102
RTVSPropertyOp58
 70
     1
102
RTVSPropertyOp59
 70
     1
102
RTVSPropertyOp60
 70
     1
102
RTVSPropertyOp61
 70
     1
102
RTVSPropertyOp62
 70
     1
  0
XRECORD
  5
F154
102
{ACAD_REACTORS
330
F153
102
}
330
F153
100
AcDbXrecord
280
     1
102
RTVSPost2010Prop28
280
     0
102
RTVSPost2010PropOp28
 70
     1
102
RTVSPost2010Prop29
280
     1
102
RTVSPost2010PropOp29
 70
     1
102
RTVSPost2010Prop30
280
     1
102
RTVSPost2010PropOp30
 70
     1
102
RTVSPost2010Prop31
280
     0
102
RTVSPost2010PropOp31
 70
     1
102
RTVSPost2010Prop32
280
     0
102
RTVSPost2010PropOp32
 70
     1
102
RTVSPost2010Prop33
280
     0
102
RTVSPost2010PropOp33
 70
     1
102
RTVSPost2010Prop34
280
     0
102
RTVSPost2010PropOp34
 70
     1
102
RTVSPost2010Prop35
280
     0
102
RTVSPost2010PropOp35
 70
     1
102
RTVSPost2010Prop36
280
     0
102
RTVSPost2010PropOp36
 70
     1
102
RTVSPost2010Prop37
 90
       50
102
RTVSPost2010PropOp37
 70
     1
102
RTVSPost2010Prop38
140
0.0
102
RTVSPost2010PropOp38
 70
     1
102
RTVSPost2010Prop39
140
1.0
102
RTVSPost2010PropOp39
 70
     1
102
RTVSPost2010Prop40
 90
        0
102
RTVSPost2010PropOp40
 70
     1
102
RTVSPost2010Prop41ColorIndex
 90
       18
102
RTVSPost2010Prop41ColorRGB
 90
        0
102
RTVSPost2010PropOp41
 70
     1
102
RTVSPost2010Prop42
 90
       50
102
RTVSPost2010PropOp42
 70
     1
102
RTVSPost2010Prop43
 90
        3
102
RTVSPost2010PropOp43
 70
     1
102
RTVSPost2010Prop44ColorIndex
 90
        5
102
RTVSPost2010Prop44ColorRGB
 90
      255
102
RTVSPost2010PropOp44
 70
     1
102
RTVSPost2010Prop45
280
     0
102
RTVSPost2010PropOp45
 70
     1
102
RTVSPost2010Prop46
 90
       50
102
RTVSPost2010PropOp46
 70
     1
102
RTVSPost2010Prop47
 90
       50
102
RTVSPost2010PropOp47
 70
     1
102
RTVSPost2010Prop48
 90
       50
102
RTVSPost2010PropOp48
 70
     1
102
RTVSPost2010Prop49
280
     0
102
RTVSPost2010PropOp49
 70
     1
102
RTVSPost2010Prop50
 90
       50
102
RTVSPost2010PropOp50
 70
     1
102
RTVSPost2010Prop51ColorIndex
 90
      256
102
RTVSPost2010Prop51ColorRGB
 90
-16777216
102
RTVSPost2010PropOp51
 70
     0
102
RTVSPost2010Prop52
140
1.0
102
RTVSPost2010PropOp52
 70
     0
102
RTVSPost2010Prop53
 90
        2
102
RTVSPost2010PropOp53
 70
     1
102
RTVSPost2010Prop54
  1
strokes_ogs.tif
102
RTVSPost2010PropOp54
 70
     1
102
RTVSPost2010Prop55
280
     0
102
RTVSPost2010PropOp55
 70
     1
102
RTVSPost2010Prop56
140
1.0
102
RTVSPost2010PropOp56
 70
     1
102
RTVSPost2010Prop57
140
1.0
102
RTVSPost2010PropOp57
 70
     1
102
RTVSPropertyOp0
 70
     1
102
RTVSPropertyOp1
 70
     1
102
RTVSPropertyOp2
 70
     1
102
RTVSPropertyOp3
 70
     1
102
RTVSPropertyOp4
 70
     1
102
RTVSPropertyOp5
 70
     1
102
RTVSPropertyOp6
 70
     1
102
RTVSPropertyOp7
 70
     1
102
RTVSPropertyOp8
 70
     1
102
RTVSPropertyOp9
 70
     1
102
RTVSPropertyOp10
 70
     1
102
RTVSPropertyOp11
 70
     1
102
RTVSPropertyOp12
 70
     1
102
RTVSPropertyOp13
 70
     1
102
RTVSPropertyOp14
 70
     1
102
RTVSPropertyOp15
 70
     1
102
RTVSPropertyOp16
 70
     1
102
RTVSPropertyOp17
 70
     1
102
RTVSPropertyOp18
 70
     1
102
RTVSPropertyOp19
 70
     1
102
RTVSPropertyOp20
 70
     1
102
RTVSPropertyOp21
 70
     1
102
RTVSPropertyOp22
 70
     1
102
RTVSPropertyOp23
 70
     1
102
RTVSPropertyOp24
 70
     1
102
RTVSPropertyOp25
 70
     1
102
RTVSPropertyOp26
 70
     1
102
RTVSPropertyOp27
 70
     1
102
RTVSPropertyOp28
 70
     1
102
RTVSPropertyOp29
 70
     1
102
RTVSPropertyOp30
 70
     1
102
RTVSPropertyOp31
 70
     1
102
RTVSPropertyOp32
 70
     1
102
RTVSPropertyOp33
 70
     1
102
RTVSPropertyOp34
 70
     1
102
RTVSPropertyOp35
 70
     1
102
RTVSPropertyOp36
 70
     1
102
RTVSPropertyOp37
 70
     1
102
RTVSPropertyOp38
 70
     1
102
RTVSPropertyOp39
 70
     1
102
RTVSPropertyOp40
 70
     1
102
RTVSPropertyOp41
 70
     1
102
RTVSPropertyOp42
 70
     1
102
RTVSPropertyOp43
 70
     1
102
RTVSPropertyOp44
 70
     1
102
RTVSPropertyOp45
 70
     1
102
RTVSPropertyOp46
 70
     1
102
RTVSPropertyOp47
 70
     1
102
RTVSPropertyOp48
 70
     1
102
RTVSPropertyOp49
 70
     1
102
RTVSPropertyOp50
 70
     1
102
RTVSPropertyOp51
 70
     0
102
RTVSPropertyOp52
 70
     0
102
RTVSPropertyOp53
 70
     1
102
RTVSPropertyOp54
 70
     1
102
RTVSPropertyOp55
 70
     1
102
RTVSPropertyOp56
 70
     1
102
RTVSPropertyOp57
 70
     1
102
RTVSPropertyOp58
 70
     1
102
RTVSPropertyOp59
 70
     1
102
RTVSPropertyOp60
 70
     1
102
RTVSPropertyOp61
 70
     1
102
RTVSPropertyOp62
 70
     1
  0
XRECORD
  5
F158
102
{ACAD_REACTORS
330
F157
102
}
330
F157
100
AcDbXrecord
280
     1
102
RTVSPost2010Prop28
280
     0
102
RTVSPost2010PropOp28
 70
     1
102
RTVSPost2010Prop29
280
     1
102
RTVSPost2010PropOp29
 70
     1
102
RTVSPost2010Prop30
280
     1
102
RTVSPost2010PropOp30
 70
     1
102
RTVSPost2010Prop31
280
     0
102
RTVSPost2010PropOp31
 70
     1
102
RTVSPost2010Prop32
280
     0
102
RTVSPost2010PropOp32
 70
     1
102
RTVSPost2010Prop33
280
     0
102
RTVSPost2010PropOp33
 70
     1
102
RTVSPost2010Prop34
280
     0
102
RTVSPost2010PropOp34
 70
     1
102
RTVSPost2010Prop35
280
     0
102
RTVSPost2010PropOp35
 70
     1
102
RTVSPost2010Prop36
280
     0
102
RTVSPost2010PropOp36
 70
     1
102
RTVSPost2010Prop37
 90
       50
102
RTVSPost2010PropOp37
 70
     1
102
RTVSPost2010Prop38
140
0.0
102
RTVSPost2010PropOp38
 70
     1
102
RTVSPost2010Prop39
140
1.0
102
RTVSPost2010PropOp39
 70
     1
102
RTVSPost2010Prop40
 90
        0
102
RTVSPost2010PropOp40
 70
     1
102
RTVSPost2010Prop41ColorIndex
 90
       18
102
RTVSPost2010Prop41ColorRGB
 90
        0
102
RTVSPost2010PropOp41
 70
     1
102
RTVSPost2010Prop42
 90
       50
102
RTVSPost2010PropOp42
 70
     1
102
RTVSPost2010Prop43
 90
        3
102
RTVSPost2010PropOp43
 70
     1
102
RTVSPost2010Prop44ColorIndex
 90
        5
102
RTVSPost2010Prop44ColorRGB
 90
      255
102
RTVSPost2010PropOp44
 70
     1
102
RTVSPost2010Prop45
280
     0
102
RTVSPost2010PropOp45
 70
     1
102
RTVSPost2010Prop46
 90
       50
102
RTVSPost2010PropOp46
 70
     1
102
RTVSPost2010Prop47
 90
       50
102
RTVSPost2010PropOp47
 70
     1
102
RTVSPost2010Prop48
 90
       50
102
RTVSPost2010PropOp48
 70
     1
102
RTVSPost2010Prop49
280
     0
102
RTVSPost2010PropOp49
 70
     1
102
RTVSPost2010Prop50
 90
       50
102
RTVSPost2010PropOp50
 70
     1
102
RTVSPost2010Prop51ColorIndex
 90
      256
102
RTVSPost2010Prop51ColorRGB
 90
-16777216
102
RTVSPost2010PropOp51
 70
     0
102
RTVSPost2010Prop52
140
1.0
102
RTVSPost2010PropOp52
 70
     0
102
RTVSPost2010Prop53
 90
        2
102
RTVSPost2010PropOp53
 70
     1
102
RTVSPost2010Prop54
  1
strokes_ogs.tif
102
RTVSPost2010PropOp54
 70
     1
102
RTVSPost2010Prop55
280
     0
102
RTVSPost2010PropOp55
 70
     1
102
RTVSPost2010Prop56
140
1.0
102
RTVSPost2010PropOp56
 70
     1
102
RTVSPost2010Prop57
140
1.0
102
RTVSPost2010PropOp57
 70
     1
102
RTVSPropertyOp0
 70
     1
102
RTVSPropertyOp1
 70
     1
102
RTVSPropertyOp2
 70
     1
102
RTVSPropertyOp3
 70
     1
102
RTVSPropertyOp4
 70
     1
102
RTVSPropertyOp5
 70
     1
102
RTVSPropertyOp6
 70
     1
102
RTVSPropertyOp7
 70
     1
102
RTVSPropertyOp8
 70
     1
102
RTVSPropertyOp9
 70
     1
102
RTVSPropertyOp10
 70
     1
102
RTVSPropertyOp11
 70
     1
102
RTVSPropertyOp12
 70
     1
102
RTVSPropertyOp13
 70
     1
102
RTVSPropertyOp14
 70
     1
102
RTVSPropertyOp15
 70
     1
102
RTVSPropertyOp16
 70
     1
102
RTVSPropertyOp17
 70
     1
102
RTVSPropertyOp18
 70
     1
102
RTVSPropertyOp19
 70
     1
102
RTVSPropertyOp20
 70
     1
102
RTVSPropertyOp21
 70
     1
102
RTVSPropertyOp22
 70
     1
102
RTVSPropertyOp23
 70
     1
102
RTVSPropertyOp24
 70
     1
102
RTVSPropertyOp25
 70
     1
102
RTVSPropertyOp26
 70
     1
102
RTVSPropertyOp27
 70
     1
102
RTVSPropertyOp28
 70
     1
102
RTVSPropertyOp29
 70
     1
102
RTVSPropertyOp30
 70
     1
102
RTVSPropertyOp31
 70
     1
102
RTVSPropertyOp32
 70
     1
102
RTVSPropertyOp33
 70
     1
102
RTVSPropertyOp34
 70
     1
102
RTVSPropertyOp35
 70
     1
102
RTVSPropertyOp36
 70
     1
102
RTVSPropertyOp37
 70
     1
102
RTVSPropertyOp38
 70
     1
102
RTVSPropertyOp39
 70
     1
102
RTVSPropertyOp40
 70
     1
102
RTVSPropertyOp41
 70
     1
102
RTVSPropertyOp42
 70
     1
102
RTVSPropertyOp43
 70
     1
102
RTVSPropertyOp44
 70
     1
102
RTVSPropertyOp45
 70
     1
102
RTVSPropertyOp46
 70
     1
102
RTVSPropertyOp47
 70
     1
102
RTVSPropertyOp48
 70
     1
102
RTVSPropertyOp49
 70
     1
102
RTVSPropertyOp50
 70
     1
102
RTVSPropertyOp51
 70
     0
102
RTVSPropertyOp52
 70
     0
102
RTVSPropertyOp53
 70
     1
102
RTVSPropertyOp54
 70
     1
102
RTVSPropertyOp55
 70
     1
102
RTVSPropertyOp56
 70
     1
102
RTVSPropertyOp57
 70
     1
102
RTVSPropertyOp58
 70
     1
102
RTVSPropertyOp59
 70
     1
102
RTVSPropertyOp60
 70
     1
102
RTVSPropertyOp61
 70
     1
102
RTVSPropertyOp62
 70
     1
  0
XRECORD
  5
F178
102
{ACAD_REACTORS
330
F177
102
}
330
F177
100
AcDbXrecord
280
     1
102
RTVSPost2010Prop28
280
     0
102
RTVSPost2010PropOp28
 70
     1
102
RTVSPost2010Prop29
280
     1
102
RTVSPost2010PropOp29
 70
     1
102
RTVSPost2010Prop30
280
     1
102
RTVSPost2010PropOp30
 70
     1
102
RTVSPost2010Prop31
280
     0
102
RTVSPost2010PropOp31
 70
     1
102
RTVSPost2010Prop32
280
     0
102
RTVSPost2010PropOp32
 70
     1
102
RTVSPost2010Prop33
280
     0
102
RTVSPost2010PropOp33
 70
     1
102
RTVSPost2010Prop34
280
     0
102
RTVSPost2010PropOp34
 70
     1
102
RTVSPost2010Prop35
280
     0
102
RTVSPost2010PropOp35
 70
     1
102
RTVSPost2010Prop36
280
     0
102
RTVSPost2010PropOp36
 70
     1
102
RTVSPost2010Prop37
 90
       50
102
RTVSPost2010PropOp37
 70
     1
102
RTVSPost2010Prop38
140
0.0
102
RTVSPost2010PropOp38
 70
     1
102
RTVSPost2010Prop39
140
1.0
102
RTVSPost2010PropOp39
 70
     1
102
RTVSPost2010Prop40
 90
        0
102
RTVSPost2010PropOp40
 70
     1
102
RTVSPost2010Prop41ColorIndex
 90
       18
102
RTVSPost2010Prop41ColorRGB
 90
        0
102
RTVSPost2010PropOp41
 70
     1
102
RTVSPost2010Prop42
 90
       50
102
RTVSPost2010PropOp42
 70
     1
102
RTVSPost2010Prop43
 90
        3
102
RTVSPost2010PropOp43
 70
     1
102
RTVSPost2010Prop44ColorIndex
 90
        5
102
RTVSPost2010Prop44ColorRGB
 90
      255
102
RTVSPost2010PropOp44
 70
     1
102
RTVSPost2010Prop45
280
     0
102
RTVSPost2010PropOp45
 70
     1
102
RTVSPost2010Prop46
 90
       50
102
RTVSPost2010PropOp46
 70
     1
102
RTVSPost2010Prop47
 90
       50
102
RTVSPost2010PropOp47
 70
     1
102
RTVSPost2010Prop48
 90
       50
102
RTVSPost2010PropOp48
 70
     1
102
RTVSPost2010Prop49
280
     0
102
RTVSPost2010PropOp49
 70
     1
102
RTVSPost2010Prop50
 90
       50
102
RTVSPost2010PropOp50
 70
     1
102
RTVSPost2010Prop51ColorIndex
 90
      256
102
RTVSPost2010Prop51ColorRGB
 90
-16777216
102
RTVSPost2010PropOp51
 70
     0
102
RTVSPost2010Prop52
140
1.0
102
RTVSPost2010PropOp52
 70
     0
102
RTVSPost2010Prop53
 90
        2
102
RTVSPost2010PropOp53
 70
     1
102
RTVSPost2010Prop54
  1
strokes_ogs.tif
102
RTVSPost2010PropOp54
 70
     1
102
RTVSPost2010Prop55
280
     0
102
RTVSPost2010PropOp55
 70
     1
102
RTVSPost2010Prop56
140
1.0
102
RTVSPost2010PropOp56
 70
     1
102
RTVSPost2010Prop57
140
1.0
102
RTVSPost2010PropOp57
 70
     1
102
RTVSPropertyOp0
 70
     0
102
RTVSPropertyOp1
 70
     0
102
RTVSPropertyOp2
 70
     0
102
RTVSPropertyOp3
 70
     0
102
RTVSPropertyOp4
 70
     0
102
RTVSPropertyOp5
 70
     0
102
RTVSPropertyOp6
 70
     0
102
RTVSPropertyOp7
 70
     0
102
RTVSPropertyOp8
 70
     0
102
RTVSPropertyOp9
 70
     0
102
RTVSPropertyOp10
 70
     0
102
RTVSPropertyOp11
 70
     0
102
RTVSPropertyOp12
 70
     0
102
RTVSPropertyOp13
 70
     0
102
RTVSPropertyOp14
 70
     2
102
RTVSPropertyOp15
 70
     0
102
RTVSPropertyOp16
 70
     0
102
RTVSPropertyOp17
 70
     0
102
RTVSPropertyOp18
 70
     0
102
RTVSPropertyOp19
 70
     0
102
RTVSPropertyOp20
 70
     0
102
RTVSPropertyOp21
 70
     0
102
RTVSPropertyOp22
 70
     0
102
RTVSPropertyOp23
 70
     0
102
RTVSPropertyOp24
 70
     0
102
RTVSPropertyOp25
 70
     0
102
RTVSPropertyOp26
 70
     0
102
RTVSPropertyOp27
 70
     0
102
RTVSPropertyOp28
 70
     1
102
RTVSPropertyOp29
 70
     1
102
RTVSPropertyOp30
 70
     1
102
RTVSPropertyOp31
 70
     1
102
RTVSPropertyOp32
 70
     1
102
RTVSPropertyOp33
 70
     1
102
RTVSPropertyOp34
 70
     1
102
RTVSPropertyOp35
 70
     1
102
RTVSPropertyOp36
 70
     1
102
RTVSPropertyOp37
 70
     1
102
RTVSPropertyOp38
 70
     1
102
RTVSPropertyOp39
 70
     1
102
RTVSPropertyOp40
 70
     1
102
RTVSPropertyOp41
 70
     1
102
RTVSPropertyOp42
 70
     1
102
RTVSPropertyOp43
 70
     1
102
RTVSPropertyOp44
 70
     1
102
RTVSPropertyOp45
 70
     1
102
RTVSPropertyOp46
 70
     1
102
RTVSPropertyOp47
 70
     1
102
RTVSPropertyOp48
 70
     1
102
RTVSPropertyOp49
 70
     1
102
RTVSPropertyOp50
 70
     1
102
RTVSPropertyOp51
 70
     0
102
RTVSPropertyOp52
 70
     0
102
RTVSPropertyOp53
 70
     1
102
RTVSPropertyOp54
 70
     1
102
RTVSPropertyOp55
 70
     1
102
RTVSPropertyOp56
 70
     1
102
RTVSPropertyOp57
 70
     1
102
RTVSPropertyOp58
 70
     1
102
RTVSPropertyOp59
 70
     1
102
RTVSPropertyOp60
 70
     1
102
RTVSPropertyOp61
 70
     1
102
RTVSPropertyOp62
 70
     1
  0
XRECORD
  5
F160
102
{ACAD_REACTORS
330
F15F
102
}
330
F15F
100
AcDbXrecord
280
     1
102
RTVSPost2010Prop28
280
     0
102
RTVSPost2010PropOp28
 70
     1
102
RTVSPost2010Prop29
280
     1
102
RTVSPost2010PropOp29
 70
     1
102
RTVSPost2010Prop30
280
     1
102
RTVSPost2010PropOp30
 70
     1
102
RTVSPost2010Prop31
280
     0
102
RTVSPost2010PropOp31
 70
     1
102
RTVSPost2010Prop32
280
     0
102
RTVSPost2010PropOp32
 70
     1
102
RTVSPost2010Prop33
280
     0
102
RTVSPost2010PropOp33
 70
     1
102
RTVSPost2010Prop34
280
     0
102
RTVSPost2010PropOp34
 70
     1
102
RTVSPost2010Prop35
280
     0
102
RTVSPost2010PropOp35
 70
     1
102
RTVSPost2010Prop36
280
     0
102
RTVSPost2010PropOp36
 70
     1
102
RTVSPost2010Prop37
 90
       50
102
RTVSPost2010PropOp37
 70
     1
102
RTVSPost2010Prop38
140
0.0
102
RTVSPost2010PropOp38
 70
     1
102
RTVSPost2010Prop39
140
1.0
102
RTVSPost2010PropOp39
 70
     1
102
RTVSPost2010Prop40
 90
        0
102
RTVSPost2010PropOp40
 70
     1
102
RTVSPost2010Prop41ColorIndex
 90
       18
102
RTVSPost2010Prop41ColorRGB
 90
        0
102
RTVSPost2010PropOp41
 70
     1
102
RTVSPost2010Prop42
 90
       50
102
RTVSPost2010PropOp42
 70
     1
102
RTVSPost2010Prop43
 90
        3
102
RTVSPost2010PropOp43
 70
     1
102
RTVSPost2010Prop44ColorIndex
 90
        5
102
RTVSPost2010Prop44ColorRGB
 90
      255
102
RTVSPost2010PropOp44
 70
     1
102
RTVSPost2010Prop45
280
     0
102
RTVSPost2010PropOp45
 70
     1
102
RTVSPost2010Prop46
 90
       50
102
RTVSPost2010PropOp46
 70
     1
102
RTVSPost2010Prop47
 90
       50
102
RTVSPost2010PropOp47
 70
     1
102
RTVSPost2010Prop48
 90
       50
102
RTVSPost2010PropOp48
 70
     1
102
RTVSPost2010Prop49
280
     0
102
RTVSPost2010PropOp49
 70
     1
102
RTVSPost2010Prop50
 90
       50
102
RTVSPost2010PropOp50
 70
     1
102
RTVSPost2010Prop51ColorIndex
 90
      256
102
RTVSPost2010Prop51ColorRGB
 90
-16777216
102
RTVSPost2010PropOp51
 70
     0
102
RTVSPost2010Prop52
140
1.0
102
RTVSPost2010PropOp52
 70
     0
102
RTVSPost2010Prop53
 90
        2
102
RTVSPost2010PropOp53
 70
     1
102
RTVSPost2010Prop54
  1
strokes_ogs.tif
102
RTVSPost2010PropOp54
 70
     1
102
RTVSPost2010Prop55
280
     0
102
RTVSPost2010PropOp55
 70
     1
102
RTVSPost2010Prop56
140
1.0
102
RTVSPost2010PropOp56
 70
     1
102
RTVSPost2010Prop57
140
1.0
102
RTVSPost2010PropOp57
 70
     1
102
RTVSPropertyOp0
 70
     1
102
RTVSPropertyOp1
 70
     1
102
RTVSPropertyOp2
 70
     1
102
RTVSPropertyOp3
 70
     1
102
RTVSPropertyOp4
 70
     1
102
RTVSPropertyOp5
 70
     1
102
RTVSPropertyOp6
 70
     1
102
RTVSPropertyOp7
 70
     1
102
RTVSPropertyOp8
 70
     1
102
RTVSPropertyOp9
 70
     1
102
RTVSPropertyOp10
 70
     1
102
RTVSPropertyOp11
 70
     1
102
RTVSPropertyOp12
 70
     1
102
RTVSPropertyOp13
 70
     1
102
RTVSPropertyOp14
 70
     1
102
RTVSPropertyOp15
 70
     1
102
RTVSPropertyOp16
 70
     1
102
RTVSPropertyOp17
 70
     1
102
RTVSPropertyOp18
 70
     1
102
RTVSPropertyOp19
 70
     1
102
RTVSPropertyOp20
 70
     1
102
RTVSPropertyOp21
 70
     1
102
RTVSPropertyOp22
 70
     1
102
RTVSPropertyOp23
 70
     1
102
RTVSPropertyOp24
 70
     1
102
RTVSPropertyOp25
 70
     1
102
RTVSPropertyOp26
 70
     1
102
RTVSPropertyOp27
 70
     1
102
RTVSPropertyOp28
 70
     1
102
RTVSPropertyOp29
 70
     1
102
RTVSPropertyOp30
 70
     1
102
RTVSPropertyOp31
 70
     1
102
RTVSPropertyOp32
 70
     1
102
RTVSPropertyOp33
 70
     1
102
RTVSPropertyOp34
 70
     1
102
RTVSPropertyOp35
 70
     1
102
RTVSPropertyOp36
 70
     1
102
RTVSPropertyOp37
 70
     1
102
RTVSPropertyOp38
 70
     1
102
RTVSPropertyOp39
 70
     1
102
RTVSPropertyOp40
 70
     1
102
RTVSPropertyOp41
 70
     1
102
RTVSPropertyOp42
 70
     1
102
RTVSPropertyOp43
 70
     1
102
RTVSPropertyOp44
 70
     1
102
RTVSPropertyOp45
 70
     1
102
RTVSPropertyOp46
 70
     1
102
RTVSPropertyOp47
 70
     1
102
RTVSPropertyOp48
 70
     1
102
RTVSPropertyOp49
 70
     1
102
RTVSPropertyOp50
 70
     1
102
RTVSPropertyOp51
 70
     0
102
RTVSPropertyOp52
 70
     0
102
RTVSPropertyOp53
 70
     1
102
RTVSPropertyOp54
 70
     1
102
RTVSPropertyOp55
 70
     1
102
RTVSPropertyOp56
 70
     1
102
RTVSPropertyOp57
 70
     1
102
RTVSPropertyOp58
 70
     1
102
RTVSPropertyOp59
 70
     1
102
RTVSPropertyOp60
 70
     1
102
RTVSPropertyOp61
 70
     1
102
RTVSPropertyOp62
 70
     1
  0
XRECORD
  5
F144
102
{ACAD_REACTORS
330
F143
102
}
330
F143
100
AcDbXrecord
280
     1
102
RTVSPost2010Prop28
280
     0
102
RTVSPost2010PropOp28
 70
     1
102
RTVSPost2010Prop29
280
     1
102
RTVSPost2010PropOp29
 70
     1
102
RTVSPost2010Prop30
280
     1
102
RTVSPost2010PropOp30
 70
     1
102
RTVSPost2010Prop31
280
     0
102
RTVSPost2010PropOp31
 70
     1
102
RTVSPost2010Prop32
280
     0
102
RTVSPost2010PropOp32
 70
     1
102
RTVSPost2010Prop33
280
     0
102
RTVSPost2010PropOp33
 70
     1
102
RTVSPost2010Prop34
280
     0
102
RTVSPost2010PropOp34
 70
     1
102
RTVSPost2010Prop35
280
     0
102
RTVSPost2010PropOp35
 70
     1
102
RTVSPost2010Prop36
280
     0
102
RTVSPost2010PropOp36
 70
     1
102
RTVSPost2010Prop37
 90
       50
102
RTVSPost2010PropOp37
 70
     1
102
RTVSPost2010Prop38
140
0.0
102
RTVSPost2010PropOp38
 70
     1
102
RTVSPost2010Prop39
140
1.0
102
RTVSPost2010PropOp39
 70
     1
102
RTVSPost2010Prop40
 90
        0
102
RTVSPost2010PropOp40
 70
     1
102
RTVSPost2010Prop41ColorIndex
 90
       18
102
RTVSPost2010Prop41ColorRGB
 90
        0
102
RTVSPost2010PropOp41
 70
     1
102
RTVSPost2010Prop42
 90
       50
102
RTVSPost2010PropOp42
 70
     1
102
RTVSPost2010Prop43
 90
        3
102
RTVSPost2010PropOp43
 70
     1
102
RTVSPost2010Prop44ColorIndex
 90
        5
102
RTVSPost2010Prop44ColorRGB
 90
      255
102
RTVSPost2010PropOp44
 70
     1
102
RTVSPost2010Prop45
280
     0
102
RTVSPost2010PropOp45
 70
     1
102
RTVSPost2010Prop46
 90
       50
102
RTVSPost2010PropOp46
 70
     1
102
RTVSPost2010Prop47
 90
       50
102
RTVSPost2010PropOp47
 70
     1
102
RTVSPost2010Prop48
 90
       50
102
RTVSPost2010PropOp48
 70
     1
102
RTVSPost2010Prop49
280
     0
102
RTVSPost2010PropOp49
 70
     1
102
RTVSPost2010Prop50
 90
       50
102
RTVSPost2010PropOp50
 70
     1
102
RTVSPost2010Prop51ColorIndex
 90
      256
102
RTVSPost2010Prop51ColorRGB
 90
-16777216
102
RTVSPost2010PropOp51
 70
     0
102
RTVSPost2010Prop52
140
1.0
102
RTVSPost2010PropOp52
 70
     0
102
RTVSPost2010Prop53
 90
        2
102
RTVSPost2010PropOp53
 70
     1
102
RTVSPost2010Prop54
  1
strokes_ogs.tif
102
RTVSPost2010PropOp54
 70
     1
102
RTVSPost2010Prop55
280
     0
102
RTVSPost2010PropOp55
 70
     1
102
RTVSPost2010Prop56
140
1.0
102
RTVSPost2010PropOp56
 70
     1
102
RTVSPost2010Prop57
140
1.0
102
RTVSPost2010PropOp57
 70
     1
102
RTVSPropertyOp0
 70
     1
102
RTVSPropertyOp1
 70
     1
102
RTVSPropertyOp2
 70
     1
102
RTVSPropertyOp3
 70
     1
102
RTVSPropertyOp4
 70
     1
102
RTVSPropertyOp5
 70
     1
102
RTVSPropertyOp6
 70
     1
102
RTVSPropertyOp7
 70
     1
102
RTVSPropertyOp8
 70
     1
102
RTVSPropertyOp9
 70
     1
102
RTVSPropertyOp10
 70
     1
102
RTVSPropertyOp11
 70
     1
102
RTVSPropertyOp12
 70
     1
102
RTVSPropertyOp13
 70
     1
102
RTVSPropertyOp14
 70
     1
102
RTVSPropertyOp15
 70
     1
102
RTVSPropertyOp16
 70
     1
102
RTVSPropertyOp17
 70
     1
102
RTVSPropertyOp18
 70
     1
102
RTVSPropertyOp19
 70
     1
102
RTVSPropertyOp20
 70
     1
102
RTVSPropertyOp21
 70
     1
102
RTVSPropertyOp22
 70
     1
102
RTVSPropertyOp23
 70
     1
102
RTVSPropertyOp24
 70
     1
102
RTVSPropertyOp25
 70
     1
102
RTVSPropertyOp26
 70
     1
102
RTVSPropertyOp27
 70
     1
102
RTVSPropertyOp28
 70
     1
102
RTVSPropertyOp29
 70
     1
102
RTVSPropertyOp30
 70
     1
102
RTVSPropertyOp31
 70
     1
102
RTVSPropertyOp32
 70
     1
102
RTVSPropertyOp33
 70
     1
102
RTVSPropertyOp34
 70
     1
102
RTVSPropertyOp35
 70
     1
102
RTVSPropertyOp36
 70
     1
102
RTVSPropertyOp37
 70
     1
102
RTVSPropertyOp38
 70
     1
102
RTVSPropertyOp39
 70
     1
102
RTVSPropertyOp40
 70
     1
102
RTVSPropertyOp41
 70
     1
102
RTVSPropertyOp42
 70
     1
102
RTVSPropertyOp43
 70
     1
102
RTVSPropertyOp44
 70
     1
102
RTVSPropertyOp45
 70
     1
102
RTVSPropertyOp46
 70
     1
102
RTVSPropertyOp47
 70
     1
102
RTVSPropertyOp48
 70
     1
102
RTVSPropertyOp49
 70
     1
102
RTVSPropertyOp50
 70
     1
102
RTVSPropertyOp51
 70
     0
102
RTVSPropertyOp52
 70
     0
102
RTVSPropertyOp53
 70
     1
102
RTVSPropertyOp54
 70
     1
102
RTVSPropertyOp55
 70
     1
102
RTVSPropertyOp56
 70
     1
102
RTVSPropertyOp57
 70
     1
102
RTVSPropertyOp58
 70
     1
102
RTVSPropertyOp59
 70
     1
102
RTVSPropertyOp60
 70
     1
102
RTVSPropertyOp61
 70
     1
102
RTVSPropertyOp62
 70
     1
  0
XRECORD
  5
F146
102
{ACAD_REACTORS
330
F145
102
}
330
F145
100
AcDbXrecord
280
     1
102
RTVSPost2010Prop28
280
     0
102
RTVSPost2010PropOp28
 70
     1
102
RTVSPost2010Prop29
280
     1
102
RTVSPost2010PropOp29
 70
     1
102
RTVSPost2010Prop30
280
     1
102
RTVSPost2010PropOp30
 70
     1
102
RTVSPost2010Prop31
280
     0
102
RTVSPost2010PropOp31
 70
     1
102
RTVSPost2010Prop32
280
     0
102
RTVSPost2010PropOp32
 70
     1
102
RTVSPost2010Prop33
280
     0
102
RTVSPost2010PropOp33
 70
     1
102
RTVSPost2010Prop34
280
     0
102
RTVSPost2010PropOp34
 70
     1
102
RTVSPost2010Prop35
280
     0
102
RTVSPost2010PropOp35
 70
     1
102
RTVSPost2010Prop36
280
     0
102
RTVSPost2010PropOp36
 70
     1
102
RTVSPost2010Prop37
 90
       50
102
RTVSPost2010PropOp37
 70
     1
102
RTVSPost2010Prop38
140
0.0
102
RTVSPost2010PropOp38
 70
     1
102
RTVSPost2010Prop39
140
1.0
102
RTVSPost2010PropOp39
 70
     1
102
RTVSPost2010Prop40
 90
        0
102
RTVSPost2010PropOp40
 70
     1
102
RTVSPost2010Prop41ColorIndex
 90
       18
102
RTVSPost2010Prop41ColorRGB
 90
        0
102
RTVSPost2010PropOp41
 70
     1
102
RTVSPost2010Prop42
 90
       50
102
RTVSPost2010PropOp42
 70
     1
102
RTVSPost2010Prop43
 90
        3
102
RTVSPost2010PropOp43
 70
     1
102
RTVSPost2010Prop44ColorIndex
 90
        5
102
RTVSPost2010Prop44ColorRGB
 90
      255
102
RTVSPost2010PropOp44
 70
     1
102
RTVSPost2010Prop45
280
     0
102
RTVSPost2010PropOp45
 70
     1
102
RTVSPost2010Prop46
 90
       50
102
RTVSPost2010PropOp46
 70
     1
102
RTVSPost2010Prop47
 90
       50
102
RTVSPost2010PropOp47
 70
     1
102
RTVSPost2010Prop48
 90
       50
102
RTVSPost2010PropOp48
 70
     1
102
RTVSPost2010Prop49
280
     0
102
RTVSPost2010PropOp49
 70
     1
102
RTVSPost2010Prop50
 90
       50
102
RTVSPost2010PropOp50
 70
     1
102
RTVSPost2010Prop51ColorIndex
 90
      256
102
RTVSPost2010Prop51ColorRGB
 90
-16777216
102
RTVSPost2010PropOp51
 70
     0
102
RTVSPost2010Prop52
140
1.0
102
RTVSPost2010PropOp52
 70
     0
102
RTVSPost2010Prop53
 90
        2
102
RTVSPost2010PropOp53
 70
     1
102
RTVSPost2010Prop54
  1
strokes_ogs.tif
102
RTVSPost2010PropOp54
 70
     1
102
RTVSPost2010Prop55
280
     0
102
RTVSPost2010PropOp55
 70
     1
102
RTVSPost2010Prop56
140
1.0
102
RTVSPost2010PropOp56
 70
     1
102
RTVSPost2010Prop57
140
1.0
102
RTVSPost2010PropOp57
 70
     1
102
RTVSPropertyOp0
 70
     1
102
RTVSPropertyOp1
 70
     1
102
RTVSPropertyOp2
 70
     1
102
RTVSPropertyOp3
 70
     1
102
RTVSPropertyOp4
 70
     1
102
RTVSPropertyOp5
 70
     1
102
RTVSPropertyOp6
 70
     1
102
RTVSPropertyOp7
 70
     1
102
RTVSPropertyOp8
 70
     1
102
RTVSPropertyOp9
 70
     1
102
RTVSPropertyOp10
 70
     1
102
RTVSPropertyOp11
 70
     1
102
RTVSPropertyOp12
 70
     1
102
RTVSPropertyOp13
 70
     1
102
RTVSPropertyOp14
 70
     1
102
RTVSPropertyOp15
 70
     1
102
RTVSPropertyOp16
 70
     1
102
RTVSPropertyOp17
 70
     1
102
RTVSPropertyOp18
 70
     1
102
RTVSPropertyOp19
 70
     1
102
RTVSPropertyOp20
 70
     1
102
RTVSPropertyOp21
 70
     1
102
RTVSPropertyOp22
 70
     1
102
RTVSPropertyOp23
 70
     1
102
RTVSPropertyOp24
 70
     1
102
RTVSPropertyOp25
 70
     1
102
RTVSPropertyOp26
 70
     1
102
RTVSPropertyOp27
 70
     1
102
RTVSPropertyOp28
 70
     1
102
RTVSPropertyOp29
 70
     1
102
RTVSPropertyOp30
 70
     1
102
RTVSPropertyOp31
 70
     1
102
RTVSPropertyOp32
 70
     1
102
RTVSPropertyOp33
 70
     1
102
RTVSPropertyOp34
 70
     1
102
RTVSPropertyOp35
 70
     1
102
RTVSPropertyOp36
 70
     1
102
RTVSPropertyOp37
 70
     1
102
RTVSPropertyOp38
 70
     1
102
RTVSPropertyOp39
 70
     1
102
RTVSPropertyOp40
 70
     1
102
RTVSPropertyOp41
 70
     1
102
RTVSPropertyOp42
 70
     1
102
RTVSPropertyOp43
 70
     1
102
RTVSPropertyOp44
 70
     1
102
RTVSPropertyOp45
 70
     1
102
RTVSPropertyOp46
 70
     1
102
RTVSPropertyOp47
 70
     1
102
RTVSPropertyOp48
 70
     1
102
RTVSPropertyOp49
 70
     1
102
RTVSPropertyOp50
 70
     1
102
RTVSPropertyOp51
 70
     0
102
RTVSPropertyOp52
 70
     0
102
RTVSPropertyOp53
 70
     1
102
RTVSPropertyOp54
 70
     1
102
RTVSPropertyOp55
 70
     1
102
RTVSPropertyOp56
 70
     1
102
RTVSPropertyOp57
 70
     1
102
RTVSPropertyOp58
 70
     1
102
RTVSPropertyOp59
 70
     1
102
RTVSPropertyOp60
 70
     1
102
RTVSPropertyOp61
 70
     1
102
RTVSPropertyOp62
 70
     1
  0
XRECORD
  5
F148
102
{ACAD_REACTORS
330
F147
102
}
330
F147
100
AcDbXrecord
280
     1
102
RTVSPost2010Prop28
280
     0
102
RTVSPost2010PropOp28
 70
     1
102
RTVSPost2010Prop29
280
     1
102
RTVSPost2010PropOp29
 70
     1
102
RTVSPost2010Prop30
280
     1
102
RTVSPost2010PropOp30
 70
     1
102
RTVSPost2010Prop31
280
     0
102
RTVSPost2010PropOp31
 70
     1
102
RTVSPost2010Prop32
280
     0
102
RTVSPost2010PropOp32
 70
     1
102
RTVSPost2010Prop33
280
     0
102
RTVSPost2010PropOp33
 70
     1
102
RTVSPost2010Prop34
280
     0
102
RTVSPost2010PropOp34
 70
     1
102
RTVSPost2010Prop35
280
     0
102
RTVSPost2010PropOp35
 70
     1
102
RTVSPost2010Prop36
280
     0
102
RTVSPost2010PropOp36
 70
     1
102
RTVSPost2010Prop37
 90
       50
102
RTVSPost2010PropOp37
 70
     1
102
RTVSPost2010Prop38
140
0.0
102
RTVSPost2010PropOp38
 70
     1
102
RTVSPost2010Prop39
140
1.0
102
RTVSPost2010PropOp39
 70
     1
102
RTVSPost2010Prop40
 90
        0
102
RTVSPost2010PropOp40
 70
     1
102
RTVSPost2010Prop41ColorIndex
 90
       18
102
RTVSPost2010Prop41ColorRGB
 90
        0
102
RTVSPost2010PropOp41
 70
     1
102
RTVSPost2010Prop42
 90
       50
102
RTVSPost2010PropOp42
 70
     1
102
RTVSPost2010Prop43
 90
        3
102
RTVSPost2010PropOp43
 70
     1
102
RTVSPost2010Prop44ColorIndex
 90
        5
102
RTVSPost2010Prop44ColorRGB
 90
      255
102
RTVSPost2010PropOp44
 70
     1
102
RTVSPost2010Prop45
280
     0
102
RTVSPost2010PropOp45
 70
     1
102
RTVSPost2010Prop46
 90
       50
102
RTVSPost2010PropOp46
 70
     1
102
RTVSPost2010Prop47
 90
       50
102
RTVSPost2010PropOp47
 70
     1
102
RTVSPost2010Prop48
 90
       50
102
RTVSPost2010PropOp48
 70
     1
102
RTVSPost2010Prop49
280
     0
102
RTVSPost2010PropOp49
 70
     1
102
RTVSPost2010Prop50
 90
       50
102
RTVSPost2010PropOp50
 70
     1
102
RTVSPost2010Prop51ColorIndex
 90
      256
102
RTVSPost2010Prop51ColorRGB
 90
-16777216
102
RTVSPost2010PropOp51
 70
     0
102
RTVSPost2010Prop52
140
1.0
102
RTVSPost2010PropOp52
 70
     0
102
RTVSPost2010Prop53
 90
        2
102
RTVSPost2010PropOp53
 70
     1
102
RTVSPost2010Prop54
  1
strokes_ogs.tif
102
RTVSPost2010PropOp54
 70
     1
102
RTVSPost2010Prop55
280
     0
102
RTVSPost2010PropOp55
 70
     1
102
RTVSPost2010Prop56
140
1.0
102
RTVSPost2010PropOp56
 70
     1
102
RTVSPost2010Prop57
140
1.0
102
RTVSPost2010PropOp57
 70
     1
102
RTVSPropertyOp0
 70
     1
102
RTVSPropertyOp1
 70
     1
102
RTVSPropertyOp2
 70
     1
102
RTVSPropertyOp3
 70
     1
102
RTVSPropertyOp4
 70
     1
102
RTVSPropertyOp5
 70
     1
102
RTVSPropertyOp6
 70
     1
102
RTVSPropertyOp7
 70
     1
102
RTVSPropertyOp8
 70
     1
102
RTVSPropertyOp9
 70
     1
102
RTVSPropertyOp10
 70
     1
102
RTVSPropertyOp11
 70
     1
102
RTVSPropertyOp12
 70
     1
102
RTVSPropertyOp13
 70
     1
102
RTVSPropertyOp14
 70
     1
102
RTVSPropertyOp15
 70
     1
102
RTVSPropertyOp16
 70
     1
102
RTVSPropertyOp17
 70
     1
102
RTVSPropertyOp18
 70
     1
102
RTVSPropertyOp19
 70
     1
102
RTVSPropertyOp20
 70
     1
102
RTVSPropertyOp21
 70
     1
102
RTVSPropertyOp22
 70
     1
102
RTVSPropertyOp23
 70
     1
102
RTVSPropertyOp24
 70
     1
102
RTVSPropertyOp25
 70
     1
102
RTVSPropertyOp26
 70
     1
102
RTVSPropertyOp27
 70
     1
102
RTVSPropertyOp28
 70
     1
102
RTVSPropertyOp29
 70
     1
102
RTVSPropertyOp30
 70
     1
102
RTVSPropertyOp31
 70
     1
102
RTVSPropertyOp32
 70
     1
102
RTVSPropertyOp33
 70
     1
102
RTVSPropertyOp34
 70
     1
102
RTVSPropertyOp35
 70
     1
102
RTVSPropertyOp36
 70
     1
102
RTVSPropertyOp37
 70
     1
102
RTVSPropertyOp38
 70
     1
102
RTVSPropertyOp39
 70
     1
102
RTVSPropertyOp40
 70
     1
102
RTVSPropertyOp41
 70
     1
102
RTVSPropertyOp42
 70
     1
102
RTVSPropertyOp43
 70
     1
102
RTVSPropertyOp44
 70
     1
102
RTVSPropertyOp45
 70
     1
102
RTVSPropertyOp46
 70
     1
102
RTVSPropertyOp47
 70
     1
102
RTVSPropertyOp48
 70
     1
102
RTVSPropertyOp49
 70
     1
102
RTVSPropertyOp50
 70
     1
102
RTVSPropertyOp51
 70
     0
102
RTVSPropertyOp52
 70
     0
102
RTVSPropertyOp53
 70
     1
102
RTVSPropertyOp54
 70
     1
102
RTVSPropertyOp55
 70
     1
102
RTVSPropertyOp56
 70
     1
102
RTVSPropertyOp57
 70
     1
102
RTVSPropertyOp58
 70
     1
102
RTVSPropertyOp59
 70
     1
102
RTVSPropertyOp60
 70
     1
102
RTVSPropertyOp61
 70
     1
102
RTVSPropertyOp62
 70
     1
  0
XRECORD
  5
F14A
102
{ACAD_REACTORS
330
F149
102
}
330
F149
100
AcDbXrecord
280
     1
102
RTVSPost2010Prop28
280
     0
102
RTVSPost2010PropOp28
 70
     1
102
RTVSPost2010Prop29
280
     1
102
RTVSPost2010PropOp29
 70
     1
102
RTVSPost2010Prop30
280
     1
102
RTVSPost2010PropOp30
 70
     1
102
RTVSPost2010Prop31
280
     0
102
RTVSPost2010PropOp31
 70
     1
102
RTVSPost2010Prop32
280
     0
102
RTVSPost2010PropOp32
 70
     1
102
RTVSPost2010Prop33
280
     0
102
RTVSPost2010PropOp33
 70
     1
102
RTVSPost2010Prop34
280
     0
102
RTVSPost2010PropOp34
 70
     1
102
RTVSPost2010Prop35
280
     0
102
RTVSPost2010PropOp35
 70
     1
102
RTVSPost2010Prop36
280
     0
102
RTVSPost2010PropOp36
 70
     1
102
RTVSPost2010Prop37
 90
       50
102
RTVSPost2010PropOp37
 70
     1
102
RTVSPost2010Prop38
140
0.0
102
RTVSPost2010PropOp38
 70
     1
102
RTVSPost2010Prop39
140
1.0
102
RTVSPost2010PropOp39
 70
     1
102
RTVSPost2010Prop40
 90
        0
102
RTVSPost2010PropOp40
 70
     1
102
RTVSPost2010Prop41ColorIndex
 90
       18
102
RTVSPost2010Prop41ColorRGB
 90
        0
102
RTVSPost2010PropOp41
 70
     1
102
RTVSPost2010Prop42
 90
       50
102
RTVSPost2010PropOp42
 70
     1
102
RTVSPost2010Prop43
 90
        3
102
RTVSPost2010PropOp43
 70
     1
102
RTVSPost2010Prop44ColorIndex
 90
        5
102
RTVSPost2010Prop44ColorRGB
 90
      255
102
RTVSPost2010PropOp44
 70
     1
102
RTVSPost2010Prop45
280
     0
102
RTVSPost2010PropOp45
 70
     1
102
RTVSPost2010Prop46
 90
       50
102
RTVSPost2010PropOp46
 70
     1
102
RTVSPost2010Prop47
 90
       50
102
RTVSPost2010PropOp47
 70
     1
102
RTVSPost2010Prop48
 90
       50
102
RTVSPost2010PropOp48
 70
     1
102
RTVSPost2010Prop49
280
     0
102
RTVSPost2010PropOp49
 70
     1
102
RTVSPost2010Prop50
 90
       50
102
RTVSPost2010PropOp50
 70
     1
102
RTVSPost2010Prop51ColorIndex
 90
      256
102
RTVSPost2010Prop51ColorRGB
 90
-16777216
102
RTVSPost2010PropOp51
 70
     0
102
RTVSPost2010Prop52
140
1.0
102
RTVSPost2010PropOp52
 70
     0
102
RTVSPost2010Prop53
 90
        2
102
RTVSPost2010PropOp53
 70
     1
102
RTVSPost2010Prop54
  1
strokes_ogs.tif
102
RTVSPost2010PropOp54
 70
     1
102
RTVSPost2010Prop55
280
     0
102
RTVSPost2010PropOp55
 70
     1
102
RTVSPost2010Prop56
140
1.0
102
RTVSPost2010PropOp56
 70
     1
102
RTVSPost2010Prop57
140
1.0
102
RTVSPost2010PropOp57
 70
     1
102
RTVSPropertyOp0
 70
     1
102
RTVSPropertyOp1
 70
     1
102
RTVSPropertyOp2
 70
     1
102
RTVSPropertyOp3
 70
     1
102
RTVSPropertyOp4
 70
     1
102
RTVSPropertyOp5
 70
     1
102
RTVSPropertyOp6
 70
     1
102
RTVSPropertyOp7
 70
     1
102
RTVSPropertyOp8
 70
     1
102
RTVSPropertyOp9
 70
     1
102
RTVSPropertyOp10
 70
     1
102
RTVSPropertyOp11
 70
     1
102
RTVSPropertyOp12
 70
     1
102
RTVSPropertyOp13
 70
     1
102
RTVSPropertyOp14
 70
     1
102
RTVSPropertyOp15
 70
     1
102
RTVSPropertyOp16
 70
     1
102
RTVSPropertyOp17
 70
     1
102
RTVSPropertyOp18
 70
     1
102
RTVSPropertyOp19
 70
     1
102
RTVSPropertyOp20
 70
     1
102
RTVSPropertyOp21
 70
     1
102
RTVSPropertyOp22
 70
     1
102
RTVSPropertyOp23
 70
     1
102
RTVSPropertyOp24
 70
     1
102
RTVSPropertyOp25
 70
     1
102
RTVSPropertyOp26
 70
     1
102
RTVSPropertyOp27
 70
     1
102
RTVSPropertyOp28
 70
     1
102
RTVSPropertyOp29
 70
     1
102
RTVSPropertyOp30
 70
     1
102
RTVSPropertyOp31
 70
     1
102
RTVSPropertyOp32
 70
     1
102
RTVSPropertyOp33
 70
     1
102
RTVSPropertyOp34
 70
     1
102
RTVSPropertyOp35
 70
     1
102
RTVSPropertyOp36
 70
     1
102
RTVSPropertyOp37
 70
     1
102
RTVSPropertyOp38
 70
     1
102
RTVSPropertyOp39
 70
     1
102
RTVSPropertyOp40
 70
     1
102
RTVSPropertyOp41
 70
     1
102
RTVSPropertyOp42
 70
     1
102
RTVSPropertyOp43
 70
     1
102
RTVSPropertyOp44
 70
     1
102
RTVSPropertyOp45
 70
     1
102
RTVSPropertyOp46
 70
     1
102
RTVSPropertyOp47
 70
     1
102
RTVSPropertyOp48
 70
     1
102
RTVSPropertyOp49
 70
     1
102
RTVSPropertyOp50
 70
     1
102
RTVSPropertyOp51
 70
     0
102
RTVSPropertyOp52
 70
     0
102
RTVSPropertyOp53
 70
     1
102
RTVSPropertyOp54
 70
     1
102
RTVSPropertyOp55
 70
     1
102
RTVSPropertyOp56
 70
     1
102
RTVSPropertyOp57
 70
     1
102
RTVSPropertyOp58
 70
     1
102
RTVSPropertyOp59
 70
     1
102
RTVSPropertyOp60
 70
     1
102
RTVSPropertyOp61
 70
     1
102
RTVSPropertyOp62
 70
     1
  0
XRECORD
  5
F168
102
{ACAD_REACTORS
330
F167
102
}
330
F167
100
AcDbXrecord
280
     1
102
RTVSPost2010Prop28
280
     0
102
RTVSPost2010PropOp28
 70
     1
102
RTVSPost2010Prop29
280
     1
102
RTVSPost2010PropOp29
 70
     1
102
RTVSPost2010Prop30
280
     1
102
RTVSPost2010PropOp30
 70
     1
102
RTVSPost2010Prop31
280
     0
102
RTVSPost2010PropOp31
 70
     1
102
RTVSPost2010Prop32
280
     0
102
RTVSPost2010PropOp32
 70
     1
102
RTVSPost2010Prop33
280
     0
102
RTVSPost2010PropOp33
 70
     1
102
RTVSPost2010Prop34
280
     0
102
RTVSPost2010PropOp34
 70
     1
102
RTVSPost2010Prop35
280
     0
102
RTVSPost2010PropOp35
 70
     1
102
RTVSPost2010Prop36
280
     0
102
RTVSPost2010PropOp36
 70
     1
102
RTVSPost2010Prop37
 90
       50
102
RTVSPost2010PropOp37
 70
     1
102
RTVSPost2010Prop38
140
0.0
102
RTVSPost2010PropOp38
 70
     1
102
RTVSPost2010Prop39
140
1.0
102
RTVSPost2010PropOp39
 70
     1
102
RTVSPost2010Prop40
 90
        0
102
RTVSPost2010PropOp40
 70
     1
102
RTVSPost2010Prop41ColorIndex
 90
       18
102
RTVSPost2010Prop41ColorRGB
 90
        0
102
RTVSPost2010PropOp41
 70
     1
102
RTVSPost2010Prop42
 90
       50
102
RTVSPost2010PropOp42
 70
     1
102
RTVSPost2010Prop43
 90
        3
102
RTVSPost2010PropOp43
 70
     1
102
RTVSPost2010Prop44ColorIndex
 90
        5
102
RTVSPost2010Prop44ColorRGB
 90
      255
102
RTVSPost2010PropOp44
 70
     1
102
RTVSPost2010Prop45
280
     0
102
RTVSPost2010PropOp45
 70
     1
102
RTVSPost2010Prop46
 90
       50
102
RTVSPost2010PropOp46
 70
     1
102
RTVSPost2010Prop47
 90
       50
102
RTVSPost2010PropOp47
 70
     1
102
RTVSPost2010Prop48
 90
       50
102
RTVSPost2010PropOp48
 70
     1
102
RTVSPost2010Prop49
280
     0
102
RTVSPost2010PropOp49
 70
     1
102
RTVSPost2010Prop50
 90
       50
102
RTVSPost2010PropOp50
 70
     1
102
RTVSPost2010Prop51ColorIndex
 90
      256
102
RTVSPost2010Prop51ColorRGB
 90
-16777216
102
RTVSPost2010PropOp51
 70
     0
102
RTVSPost2010Prop52
140
1.0
102
RTVSPost2010PropOp52
 70
     0
102
RTVSPost2010Prop53
 90
        2
102
RTVSPost2010PropOp53
 70
     1
102
RTVSPost2010Prop54
  1
strokes_ogs.tif
102
RTVSPost2010PropOp54
 70
     1
102
RTVSPost2010Prop55
280
     0
102
RTVSPost2010PropOp55
 70
     1
102
RTVSPost2010Prop56
140
1.0
102
RTVSPost2010PropOp56
 70
     1
102
RTVSPost2010Prop57
140
1.0
102
RTVSPost2010PropOp57
 70
     1
102
RTVSPropertyOp0
 70
     1
102
RTVSPropertyOp1
 70
     1
102
RTVSPropertyOp2
 70
     1
102
RTVSPropertyOp3
 70
     1
102
RTVSPropertyOp4
 70
     1
102
RTVSPropertyOp5
 70
     1
102
RTVSPropertyOp6
 70
     1
102
RTVSPropertyOp7
 70
     1
102
RTVSPropertyOp8
 70
     1
102
RTVSPropertyOp9
 70
     1
102
RTVSPropertyOp10
 70
     1
102
RTVSPropertyOp11
 70
     1
102
RTVSPropertyOp12
 70
     1
102
RTVSPropertyOp13
 70
     1
102
RTVSPropertyOp14
 70
     1
102
RTVSPropertyOp15
 70
     1
102
RTVSPropertyOp16
 70
     1
102
RTVSPropertyOp17
 70
     1
102
RTVSPropertyOp18
 70
     1
102
RTVSPropertyOp19
 70
     1
102
RTVSPropertyOp20
 70
     1
102
RTVSPropertyOp21
 70
     1
102
RTVSPropertyOp22
 70
     1
102
RTVSPropertyOp23
 70
     1
102
RTVSPropertyOp24
 70
     1
102
RTVSPropertyOp25
 70
     1
102
RTVSPropertyOp26
 70
     1
102
RTVSPropertyOp27
 70
     1
102
RTVSPropertyOp28
 70
     1
102
RTVSPropertyOp29
 70
     1
102
RTVSPropertyOp30
 70
     1
102
RTVSPropertyOp31
 70
     1
102
RTVSPropertyOp32
 70
     1
102
RTVSPropertyOp33
 70
     1
102
RTVSPropertyOp34
 70
     1
102
RTVSPropertyOp35
 70
     1
102
RTVSPropertyOp36
 70
     1
102
RTVSPropertyOp37
 70
     1
102
RTVSPropertyOp38
 70
     1
102
RTVSPropertyOp39
 70
     1
102
RTVSPropertyOp40
 70
     1
102
RTVSPropertyOp41
 70
     1
102
RTVSPropertyOp42
 70
     1
102
RTVSPropertyOp43
 70
     1
102
RTVSPropertyOp44
 70
     1
102
RTVSPropertyOp45
 70
     1
102
RTVSPropertyOp46
 70
     1
102
RTVSPropertyOp47
 70
     1
102
RTVSPropertyOp48
 70
     1
102
RTVSPropertyOp49
 70
     1
102
RTVSPropertyOp50
 70
     1
102
RTVSPropertyOp51
 70
     0
102
RTVSPropertyOp52
 70
     0
102
RTVSPropertyOp53
 70
     1
102
RTVSPropertyOp54
 70
     1
102
RTVSPropertyOp55
 70
     1
102
RTVSPropertyOp56
 70
     1
102
RTVSPropertyOp57
 70
     1
102
RTVSPropertyOp58
 70
     1
102
RTVSPropertyOp59
 70
     1
102
RTVSPropertyOp60
 70
     1
102
RTVSPropertyOp61
 70
     1
102
RTVSPropertyOp62
 70
     1
  0
XRECORD
  5
F174
102
{ACAD_REACTORS
330
F173
102
}
330
F173
100
AcDbXrecord
280
     1
102
RTVSPost2010Prop28
280
     0
102
RTVSPost2010PropOp28
 70
     1
102
RTVSPost2010Prop29
280
     1
102
RTVSPost2010PropOp29
 70
     1
102
RTVSPost2010Prop30
280
     1
102
RTVSPost2010PropOp30
 70
     1
102
RTVSPost2010Prop31
280
     0
102
RTVSPost2010PropOp31
 70
     1
102
RTVSPost2010Prop32
280
     0
102
RTVSPost2010PropOp32
 70
     1
102
RTVSPost2010Prop33
280
     0
102
RTVSPost2010PropOp33
 70
     1
102
RTVSPost2010Prop34
280
     0
102
RTVSPost2010PropOp34
 70
     1
102
RTVSPost2010Prop35
280
     0
102
RTVSPost2010PropOp35
 70
     1
102
RTVSPost2010Prop36
280
     0
102
RTVSPost2010PropOp36
 70
     1
102
RTVSPost2010Prop37
 90
       50
102
RTVSPost2010PropOp37
 70
     1
102
RTVSPost2010Prop38
140
0.0
102
RTVSPost2010PropOp38
 70
     1
102
RTVSPost2010Prop39
140
1.0
102
RTVSPost2010PropOp39
 70
     1
102
RTVSPost2010Prop40
 90
        0
102
RTVSPost2010PropOp40
 70
     1
102
RTVSPost2010Prop41ColorIndex
 90
       18
102
RTVSPost2010Prop41ColorRGB
 90
        0
102
RTVSPost2010PropOp41
 70
     1
102
RTVSPost2010Prop42
 90
       50
102
RTVSPost2010PropOp42
 70
     1
102
RTVSPost2010Prop43
 90
        3
102
RTVSPost2010PropOp43
 70
     1
102
RTVSPost2010Prop44ColorIndex
 90
        5
102
RTVSPost2010Prop44ColorRGB
 90
      255
102
RTVSPost2010PropOp44
 70
     1
102
RTVSPost2010Prop45
280
     0
102
RTVSPost2010PropOp45
 70
     1
102
RTVSPost2010Prop46
 90
       50
102
RTVSPost2010PropOp46
 70
     1
102
RTVSPost2010Prop47
 90
       50
102
RTVSPost2010PropOp47
 70
     1
102
RTVSPost2010Prop48
 90
       50
102
RTVSPost2010PropOp48
 70
     1
102
RTVSPost2010Prop49
280
     0
102
RTVSPost2010PropOp49
 70
     1
102
RTVSPost2010Prop50
 90
       50
102
RTVSPost2010PropOp50
 70
     1
102
RTVSPost2010Prop51ColorIndex
 90
      256
102
RTVSPost2010Prop51ColorRGB
 90
-16777216
102
RTVSPost2010PropOp51
 70
     0
102
RTVSPost2010Prop52
140
1.0
102
RTVSPost2010PropOp52
 70
     0
102
RTVSPost2010Prop53
 90
        2
102
RTVSPost2010PropOp53
 70
     1
102
RTVSPost2010Prop54
  1
strokes_ogs.tif
102
RTVSPost2010PropOp54
 70
     1
102
RTVSPost2010Prop55
280
     0
102
RTVSPost2010PropOp55
 70
     1
102
RTVSPost2010Prop56
140
1.0
102
RTVSPost2010PropOp56
 70
     1
102
RTVSPost2010Prop57
140
1.0
102
RTVSPost2010PropOp57
 70
     1
102
RTVSPropertyOp0
 70
     0
102
RTVSPropertyOp1
 70
     0
102
RTVSPropertyOp2
 70
     0
102
RTVSPropertyOp3
 70
     0
102
RTVSPropertyOp4
 70
     0
102
RTVSPropertyOp5
 70
     0
102
RTVSPropertyOp6
 70
     0
102
RTVSPropertyOp7
 70
     0
102
RTVSPropertyOp8
 70
     0
102
RTVSPropertyOp9
 70
     0
102
RTVSPropertyOp10
 70
     0
102
RTVSPropertyOp11
 70
     0
102
RTVSPropertyOp12
 70
     0
102
RTVSPropertyOp13
 70
     0
102
RTVSPropertyOp14
 70
     2
102
RTVSPropertyOp15
 70
     0
102
RTVSPropertyOp16
 70
     0
102
RTVSPropertyOp17
 70
     0
102
RTVSPropertyOp18
 70
     0
102
RTVSPropertyOp19
 70
     0
102
RTVSPropertyOp20
 70
     0
102
RTVSPropertyOp21
 70
     0
102
RTVSPropertyOp22
 70
     0
102
RTVSPropertyOp23
 70
     0
102
RTVSPropertyOp24
 70
     0
102
RTVSPropertyOp25
 70
     0
102
RTVSPropertyOp26
 70
     0
102
RTVSPropertyOp27
 70
     0
102
RTVSPropertyOp28
 70
     1
102
RTVSPropertyOp29
 70
     1
102
RTVSPropertyOp30
 70
     1
102
RTVSPropertyOp31
 70
     1
102
RTVSPropertyOp32
 70
     1
102
RTVSPropertyOp33
 70
     1
102
RTVSPropertyOp34
 70
     1
102
RTVSPropertyOp35
 70
     1
102
RTVSPropertyOp36
 70
     1
102
RTVSPropertyOp37
 70
     1
102
RTVSPropertyOp38
 70
     1
102
RTVSPropertyOp39
 70
     1
102
RTVSPropertyOp40
 70
     1
102
RTVSPropertyOp41
 70
     1
102
RTVSPropertyOp42
 70
     1
102
RTVSPropertyOp43
 70
     1
102
RTVSPropertyOp44
 70
     1
102
RTVSPropertyOp45
 70
     1
102
RTVSPropertyOp46
 70
     1
102
RTVSPropertyOp47
 70
     1
102
RTVSPropertyOp48
 70
     1
102
RTVSPropertyOp49
 70
     1
102
RTVSPropertyOp50
 70
     1
102
RTVSPropertyOp51
 70
     0
102
RTVSPropertyOp52
 70
     0
102
RTVSPropertyOp53
 70
     1
102
RTVSPropertyOp54
 70
     1
102
RTVSPropertyOp55
 70
     1
102
RTVSPropertyOp56
 70
     1
102
RTVSPropertyOp57
 70
     1
102
RTVSPropertyOp58
 70
     1
102
RTVSPropertyOp59
 70
     1
102
RTVSPropertyOp60
 70
     1
102
RTVSPropertyOp61
 70
     1
102
RTVSPropertyOp62
 70
     1
  0
XRECORD
  5
F15E
102
{ACAD_REACTORS
330
F15D
102
}
330
F15D
100
AcDbXrecord
280
     1
102
RTVSPost2010Prop28
280
     0
102
RTVSPost2010PropOp28
 70
     1
102
RTVSPost2010Prop29
280
     1
102
RTVSPost2010PropOp29
 70
     1
102
RTVSPost2010Prop30
280
     1
102
RTVSPost2010PropOp30
 70
     1
102
RTVSPost2010Prop31
280
     0
102
RTVSPost2010PropOp31
 70
     1
102
RTVSPost2010Prop32
280
     0
102
RTVSPost2010PropOp32
 70
     1
102
RTVSPost2010Prop33
280
     0
102
RTVSPost2010PropOp33
 70
     1
102
RTVSPost2010Prop34
280
     0
102
RTVSPost2010PropOp34
 70
     1
102
RTVSPost2010Prop35
280
     0
102
RTVSPost2010PropOp35
 70
     1
102
RTVSPost2010Prop36
280
     0
102
RTVSPost2010PropOp36
 70
     1
102
RTVSPost2010Prop37
 90
       50
102
RTVSPost2010PropOp37
 70
     1
102
RTVSPost2010Prop38
140
0.0
102
RTVSPost2010PropOp38
 70
     1
102
RTVSPost2010Prop39
140
1.0
102
RTVSPost2010PropOp39
 70
     1
102
RTVSPost2010Prop40
 90
        0
102
RTVSPost2010PropOp40
 70
     1
102
RTVSPost2010Prop41ColorIndex
 90
       18
102
RTVSPost2010Prop41ColorRGB
 90
        0
102
RTVSPost2010PropOp41
 70
     1
102
RTVSPost2010Prop42
 90
       50
102
RTVSPost2010PropOp42
 70
     1
102
RTVSPost2010Prop43
 90
        3
102
RTVSPost2010PropOp43
 70
     1
102
RTVSPost2010Prop44ColorIndex
 90
        5
102
RTVSPost2010Prop44ColorRGB
 90
      255
102
RTVSPost2010PropOp44
 70
     1
102
RTVSPost2010Prop45
280
     0
102
RTVSPost2010PropOp45
 70
     1
102
RTVSPost2010Prop46
 90
       50
102
RTVSPost2010PropOp46
 70
     1
102
RTVSPost2010Prop47
 90
       50
102
RTVSPost2010PropOp47
 70
     1
102
RTVSPost2010Prop48
 90
       50
102
RTVSPost2010PropOp48
 70
     1
102
RTVSPost2010Prop49
280
     0
102
RTVSPost2010PropOp49
 70
     1
102
RTVSPost2010Prop50
 90
       50
102
RTVSPost2010PropOp50
 70
     1
102
RTVSPost2010Prop51ColorIndex
 90
      256
102
RTVSPost2010Prop51ColorRGB
 90
-16777216
102
RTVSPost2010PropOp51
 70
     0
102
RTVSPost2010Prop52
140
1.0
102
RTVSPost2010PropOp52
 70
     0
102
RTVSPost2010Prop53
 90
        2
102
RTVSPost2010PropOp53
 70
     1
102
RTVSPost2010Prop54
  1
strokes_ogs.tif
102
RTVSPost2010PropOp54
 70
     1
102
RTVSPost2010Prop55
280
     0
102
RTVSPost2010PropOp55
 70
     1
102
RTVSPost2010Prop56
140
1.0
102
RTVSPost2010PropOp56
 70
     1
102
RTVSPost2010Prop57
140
1.0
102
RTVSPost2010PropOp57
 70
     1
102
RTVSPropertyOp0
 70
     1
102
RTVSPropertyOp1
 70
     1
102
RTVSPropertyOp2
 70
     1
102
RTVSPropertyOp3
 70
     1
102
RTVSPropertyOp4
 70
     1
102
RTVSPropertyOp5
 70
     1
102
RTVSPropertyOp6
 70
     1
102
RTVSPropertyOp7
 70
     1
102
RTVSPropertyOp8
 70
     1
102
RTVSPropertyOp9
 70
     1
102
RTVSPropertyOp10
 70
     1
102
RTVSPropertyOp11
 70
     1
102
RTVSPropertyOp12
 70
     1
102
RTVSPropertyOp13
 70
     1
102
RTVSPropertyOp14
 70
     1
102
RTVSPropertyOp15
 70
     1
102
RTVSPropertyOp16
 70
     1
102
RTVSPropertyOp17
 70
     1
102
RTVSPropertyOp18
 70
     1
102
RTVSPropertyOp19
 70
     1
102
RTVSPropertyOp20
 70
     1
102
RTVSPropertyOp21
 70
     1
102
RTVSPropertyOp22
 70
     1
102
RTVSPropertyOp23
 70
     1
102
RTVSPropertyOp24
 70
     1
102
RTVSPropertyOp25
 70
     1
102
RTVSPropertyOp26
 70
     1
102
RTVSPropertyOp27
 70
     1
102
RTVSPropertyOp28
 70
     1
102
RTVSPropertyOp29
 70
     1
102
RTVSPropertyOp30
 70
     1
102
RTVSPropertyOp31
 70
     1
102
RTVSPropertyOp32
 70
     1
102
RTVSPropertyOp33
 70
     1
102
RTVSPropertyOp34
 70
     1
102
RTVSPropertyOp35
 70
     1
102
RTVSPropertyOp36
 70
     1
102
RTVSPropertyOp37
 70
     1
102
RTVSPropertyOp38
 70
     1
102
RTVSPropertyOp39
 70
     1
102
RTVSPropertyOp40
 70
     1
102
RTVSPropertyOp41
 70
     1
102
RTVSPropertyOp42
 70
     1
102
RTVSPropertyOp43
 70
     1
102
RTVSPropertyOp44
 70
     1
102
RTVSPropertyOp45
 70
     1
102
RTVSPropertyOp46
 70
     1
102
RTVSPropertyOp47
 70
     1
102
RTVSPropertyOp48
 70
     1
102
RTVSPropertyOp49
 70
     1
102
RTVSPropertyOp50
 70
     1
102
RTVSPropertyOp51
 70
     0
102
RTVSPropertyOp52
 70
     0
102
RTVSPropertyOp53
 70
     1
102
RTVSPropertyOp54
 70
     1
102
RTVSPropertyOp55
 70
     1
102
RTVSPropertyOp56
 70
     1
102
RTVSPropertyOp57
 70
     1
102
RTVSPropertyOp58
 70
     1
102
RTVSPropertyOp59
 70
     1
102
RTVSPropertyOp60
 70
     1
102
RTVSPropertyOp61
 70
     1
102
RTVSPropertyOp62
 70
     1
  0
XRECORD
  5
F176
102
{ACAD_REACTORS
330
F175
102
}
330
F175
100
AcDbXrecord
280
     1
102
RTVSPost2010Prop28
280
     0
102
RTVSPost2010PropOp28
 70
     1
102
RTVSPost2010Prop29
280
     1
102
RTVSPost2010PropOp29
 70
     1
102
RTVSPost2010Prop30
280
     1
102
RTVSPost2010PropOp30
 70
     1
102
RTVSPost2010Prop31
280
     0
102
RTVSPost2010PropOp31
 70
     1
102
RTVSPost2010Prop32
280
     0
102
RTVSPost2010PropOp32
 70
     1
102
RTVSPost2010Prop33
280
     0
102
RTVSPost2010PropOp33
 70
     1
102
RTVSPost2010Prop34
280
     0
102
RTVSPost2010PropOp34
 70
     1
102
RTVSPost2010Prop35
280
     0
102
RTVSPost2010PropOp35
 70
     1
102
RTVSPost2010Prop36
280
     0
102
RTVSPost2010PropOp36
 70
     1
102
RTVSPost2010Prop37
 90
       50
102
RTVSPost2010PropOp37
 70
     1
102
RTVSPost2010Prop38
140
0.0
102
RTVSPost2010PropOp38
 70
     1
102
RTVSPost2010Prop39
140
1.0
102
RTVSPost2010PropOp39
 70
     1
102
RTVSPost2010Prop40
 90
        0
102
RTVSPost2010PropOp40
 70
     1
102
RTVSPost2010Prop41ColorIndex
 90
       18
102
RTVSPost2010Prop41ColorRGB
 90
        0
102
RTVSPost2010PropOp41
 70
     1
102
RTVSPost2010Prop42
 90
       50
102
RTVSPost2010PropOp42
 70
     1
102
RTVSPost2010Prop43
 90
        3
102
RTVSPost2010PropOp43
 70
     1
102
RTVSPost2010Prop44ColorIndex
 90
        5
102
RTVSPost2010Prop44ColorRGB
 90
      255
102
RTVSPost2010PropOp44
 70
     1
102
RTVSPost2010Prop45
280
     0
102
RTVSPost2010PropOp45
 70
     1
102
RTVSPost2010Prop46
 90
       50
102
RTVSPost2010PropOp46
 70
     1
102
RTVSPost2010Prop47
 90
       50
102
RTVSPost2010PropOp47
 70
     1
102
RTVSPost2010Prop48
 90
       50
102
RTVSPost2010PropOp48
 70
     1
102
RTVSPost2010Prop49
280
     0
102
RTVSPost2010PropOp49
 70
     1
102
RTVSPost2010Prop50
 90
       50
102
RTVSPost2010PropOp50
 70
     1
102
RTVSPost2010Prop51ColorIndex
 90
      256
102
RTVSPost2010Prop51ColorRGB
 90
-16777216
102
RTVSPost2010PropOp51
 70
     0
102
RTVSPost2010Prop52
140
1.0
102
RTVSPost2010PropOp52
 70
     0
102
RTVSPost2010Prop53
 90
        2
102
RTVSPost2010PropOp53
 70
     1
102
RTVSPost2010Prop54
  1
strokes_ogs.tif
102
RTVSPost2010PropOp54
 70
     1
102
RTVSPost2010Prop55
280
     0
102
RTVSPost2010PropOp55
 70
     1
102
RTVSPost2010Prop56
140
1.0
102
RTVSPost2010PropOp56
 70
     1
102
RTVSPost2010Prop57
140
1.0
102
RTVSPost2010PropOp57
 70
     1
102
RTVSPropertyOp0
 70
     0
102
RTVSPropertyOp1
 70
     0
102
RTVSPropertyOp2
 70
     0
102
RTVSPropertyOp3
 70
     0
102
RTVSPropertyOp4
 70
     0
102
RTVSPropertyOp5
 70
     0
102
RTVSPropertyOp6
 70
     0
102
RTVSPropertyOp7
 70
     0
102
RTVSPropertyOp8
 70
     0
102
RTVSPropertyOp9
 70
     0
102
RTVSPropertyOp10
 70
     0
102
RTVSPropertyOp11
 70
     0
102
RTVSPropertyOp12
 70
     0
102
RTVSPropertyOp13
 70
     0
102
RTVSPropertyOp14
 70
     2
102
RTVSPropertyOp15
 70
     0
102
RTVSPropertyOp16
 70
     0
102
RTVSPropertyOp17
 70
     0
102
RTVSPropertyOp18
 70
     0
102
RTVSPropertyOp19
 70
     0
102
RTVSPropertyOp20
 70
     0
102
RTVSPropertyOp21
 70
     0
102
RTVSPropertyOp22
 70
     0
102
RTVSPropertyOp23
 70
     0
102
RTVSPropertyOp24
 70
     0
102
RTVSPropertyOp25
 70
     0
102
RTVSPropertyOp26
 70
     0
102
RTVSPropertyOp27
 70
     0
102
RTVSPropertyOp28
 70
     1
102
RTVSPropertyOp29
 70
     1
102
RTVSPropertyOp30
 70
     1
102
RTVSPropertyOp31
 70
     1
102
RTVSPropertyOp32
 70
     1
102
RTVSPropertyOp33
 70
     1
102
RTVSPropertyOp34
 70
     1
102
RTVSPropertyOp35
 70
     1
102
RTVSPropertyOp36
 70
     1
102
RTVSPropertyOp37
 70
     1
102
RTVSPropertyOp38
 70
     1
102
RTVSPropertyOp39
 70
     1
102
RTVSPropertyOp40
 70
     1
102
RTVSPropertyOp41
 70
     1
102
RTVSPropertyOp42
 70
     1
102
RTVSPropertyOp43
 70
     1
102
RTVSPropertyOp44
 70
     1
102
RTVSPropertyOp45
 70
     1
102
RTVSPropertyOp46
 70
     1
102
RTVSPropertyOp47
 70
     1
102
RTVSPropertyOp48
 70
     1
102
RTVSPropertyOp49
 70
     1
102
RTVSPropertyOp50
 70
     1
102
RTVSPropertyOp51
 70
     0
102
RTVSPropertyOp52
 70
     0
102
RTVSPropertyOp53
 70
     1
102
RTVSPropertyOp54
 70
     1
102
RTVSPropertyOp55
 70
     1
102
RTVSPropertyOp56
 70
     1
102
RTVSPropertyOp57
 70
     1
102
RTVSPropertyOp58
 70
     1
102
RTVSPropertyOp59
 70
     1
102
RTVSPropertyOp60
 70
     1
102
RTVSPropertyOp61
 70
     1
102
RTVSPropertyOp62
 70
     1
  0
XRECORD
  5
F156
102
{ACAD_REACTORS
330
F155
102
}
330
F155
100
AcDbXrecord
280
     1
102
RTVSPost2010Prop28
280
     0
102
RTVSPost2010PropOp28
 70
     1
102
RTVSPost2010Prop29
280
     1
102
RTVSPost2010PropOp29
 70
     1
102
RTVSPost2010Prop30
280
     1
102
RTVSPost2010PropOp30
 70
     1
102
RTVSPost2010Prop31
280
     0
102
RTVSPost2010PropOp31
 70
     1
102
RTVSPost2010Prop32
280
     0
102
RTVSPost2010PropOp32
 70
     1
102
RTVSPost2010Prop33
280
     0
102
RTVSPost2010PropOp33
 70
     1
102
RTVSPost2010Prop34
280
     0
102
RTVSPost2010PropOp34
 70
     1
102
RTVSPost2010Prop35
280
     0
102
RTVSPost2010PropOp35
 70
     1
102
RTVSPost2010Prop36
280
     0
102
RTVSPost2010PropOp36
 70
     1
102
RTVSPost2010Prop37
 90
       50
102
RTVSPost2010PropOp37
 70
     1
102
RTVSPost2010Prop38
140
0.0
102
RTVSPost2010PropOp38
 70
     1
102
RTVSPost2010Prop39
140
1.0
102
RTVSPost2010PropOp39
 70
     1
102
RTVSPost2010Prop40
 90
        0
102
RTVSPost2010PropOp40
 70
     1
102
RTVSPost2010Prop41ColorIndex
 90
       18
102
RTVSPost2010Prop41ColorRGB
 90
        0
102
RTVSPost2010PropOp41
 70
     1
102
RTVSPost2010Prop42
 90
       50
102
RTVSPost2010PropOp42
 70
     1
102
RTVSPost2010Prop43
 90
        3
102
RTVSPost2010PropOp43
 70
     1
102
RTVSPost2010Prop44ColorIndex
 90
        5
102
RTVSPost2010Prop44ColorRGB
 90
      255
102
RTVSPost2010PropOp44
 70
     1
102
RTVSPost2010Prop45
280
     0
102
RTVSPost2010PropOp45
 70
     1
102
RTVSPost2010Prop46
 90
       50
102
RTVSPost2010PropOp46
 70
     1
102
RTVSPost2010Prop47
 90
       50
102
RTVSPost2010PropOp47
 70
     1
102
RTVSPost2010Prop48
 90
       50
102
RTVSPost2010PropOp48
 70
     1
102
RTVSPost2010Prop49
280
     0
102
RTVSPost2010PropOp49
 70
     1
102
RTVSPost2010Prop50
 90
       50
102
RTVSPost2010PropOp50
 70
     1
102
RTVSPost2010Prop51ColorIndex
 90
      256
102
RTVSPost2010Prop51ColorRGB
 90
-16777216
102
RTVSPost2010PropOp51
 70
     0
102
RTVSPost2010Prop52
140
1.0
102
RTVSPost2010PropOp52
 70
     0
102
RTVSPost2010Prop53
 90
        2
102
RTVSPost2010PropOp53
 70
     1
102
RTVSPost2010Prop54
  1
strokes_ogs.tif
102
RTVSPost2010PropOp54
 70
     1
102
RTVSPost2010Prop55
280
     0
102
RTVSPost2010PropOp55
 70
     1
102
RTVSPost2010Prop56
140
1.0
102
RTVSPost2010PropOp56
 70
     1
102
RTVSPost2010Prop57
140
1.0
102
RTVSPost2010PropOp57
 70
     1
102
RTVSPropertyOp0
 70
     1
102
RTVSPropertyOp1
 70
     1
102
RTVSPropertyOp2
 70
     1
102
RTVSPropertyOp3
 70
     1
102
RTVSPropertyOp4
 70
     1
102
RTVSPropertyOp5
 70
     1
102
RTVSPropertyOp6
 70
     1
102
RTVSPropertyOp7
 70
     1
102
RTVSPropertyOp8
 70
     1
102
RTVSPropertyOp9
 70
     1
102
RTVSPropertyOp10
 70
     1
102
RTVSPropertyOp11
 70
     1
102
RTVSPropertyOp12
 70
     1
102
RTVSPropertyOp13
 70
     1
102
RTVSPropertyOp14
 70
     1
102
RTVSPropertyOp15
 70
     1
102
RTVSPropertyOp16
 70
     1
102
RTVSPropertyOp17
 70
     1
102
RTVSPropertyOp18
 70
     1
102
RTVSPropertyOp19
 70
     1
102
RTVSPropertyOp20
 70
     1
102
RTVSPropertyOp21
 70
     1
102
RTVSPropertyOp22
 70
     1
102
RTVSPropertyOp23
 70
     1
102
RTVSPropertyOp24
 70
     1
102
RTVSPropertyOp25
 70
     1
102
RTVSPropertyOp26
 70
     1
102
RTVSPropertyOp27
 70
     1
102
RTVSPropertyOp28
 70
     1
102
RTVSPropertyOp29
 70
     1
102
RTVSPropertyOp30
 70
     1
102
RTVSPropertyOp31
 70
     1
102
RTVSPropertyOp32
 70
     1
102
RTVSPropertyOp33
 70
     1
102
RTVSPropertyOp34
 70
     1
102
RTVSPropertyOp35
 70
     1
102
RTVSPropertyOp36
 70
     1
102
RTVSPropertyOp37
 70
     1
102
RTVSPropertyOp38
 70
     1
102
RTVSPropertyOp39
 70
     1
102
RTVSPropertyOp40
 70
     1
102
RTVSPropertyOp41
 70
     1
102
RTVSPropertyOp42
 70
     1
102
RTVSPropertyOp43
 70
     1
102
RTVSPropertyOp44
 70
     1
102
RTVSPropertyOp45
 70
     1
102
RTVSPropertyOp46
 70
     1
102
RTVSPropertyOp47
 70
     1
102
RTVSPropertyOp48
 70
     1
102
RTVSPropertyOp49
 70
     1
102
RTVSPropertyOp50
 70
     1
102
RTVSPropertyOp51
 70
     0
102
RTVSPropertyOp52
 70
     0
102
RTVSPropertyOp53
 70
     1
102
RTVSPropertyOp54
 70
     1
102
RTVSPropertyOp55
 70
     1
102
RTVSPropertyOp56
 70
     1
102
RTVSPropertyOp57
 70
     1
102
RTVSPropertyOp58
 70
     1
102
RTVSPropertyOp59
 70
     1
102
RTVSPropertyOp60
 70
     1
102
RTVSPropertyOp61
 70
     1
102
RTVSPropertyOp62
 70
     1
  0
XRECORD
  5
F172
102
{ACAD_REACTORS
330
F171
102
}
330
F171
100
AcDbXrecord
280
     1
102
RTVSPost2010Prop28
280
     0
102
RTVSPost2010PropOp28
 70
     1
102
RTVSPost2010Prop29
280
     1
102
RTVSPost2010PropOp29
 70
     1
102
RTVSPost2010Prop30
280
     1
102
RTVSPost2010PropOp30
 70
     1
102
RTVSPost2010Prop31
280
     0
102
RTVSPost2010PropOp31
 70
     1
102
RTVSPost2010Prop32
280
     0
102
RTVSPost2010PropOp32
 70
     1
102
RTVSPost2010Prop33
280
     0
102
RTVSPost2010PropOp33
 70
     1
102
RTVSPost2010Prop34
280
     0
102
RTVSPost2010PropOp34
 70
     1
102
RTVSPost2010Prop35
280
     0
102
RTVSPost2010PropOp35
 70
     1
102
RTVSPost2010Prop36
280
     0
102
RTVSPost2010PropOp36
 70
     1
102
RTVSPost2010Prop37
 90
       50
102
RTVSPost2010PropOp37
 70
     1
102
RTVSPost2010Prop38
140
0.0
102
RTVSPost2010PropOp38
 70
     1
102
RTVSPost2010Prop39
140
1.0
102
RTVSPost2010PropOp39
 70
     1
102
RTVSPost2010Prop40
 90
        0
102
RTVSPost2010PropOp40
 70
     1
102
RTVSPost2010Prop41ColorIndex
 90
       18
102
RTVSPost2010Prop41ColorRGB
 90
        0
102
RTVSPost2010PropOp41
 70
     1
102
RTVSPost2010Prop42
 90
       50
102
RTVSPost2010PropOp42
 70
     1
102
RTVSPost2010Prop43
 90
        3
102
RTVSPost2010PropOp43
 70
     1
102
RTVSPost2010Prop44ColorIndex
 90
        5
102
RTVSPost2010Prop44ColorRGB
 90
      255
102
RTVSPost2010PropOp44
 70
     1
102
RTVSPost2010Prop45
280
     0
102
RTVSPost2010PropOp45
 70
     1
102
RTVSPost2010Prop46
 90
       50
102
RTVSPost2010PropOp46
 70
     1
102
RTVSPost2010Prop47
 90
       50
102
RTVSPost2010PropOp47
 70
     1
102
RTVSPost2010Prop48
 90
       50
102
RTVSPost2010PropOp48
 70
     1
102
RTVSPost2010Prop49
280
     0
102
RTVSPost2010PropOp49
 70
     1
102
RTVSPost2010Prop50
 90
       50
102
RTVSPost2010PropOp50
 70
     1
102
RTVSPost2010Prop51ColorIndex
 90
      256
102
RTVSPost2010Prop51ColorRGB
 90
-16777216
102
RTVSPost2010PropOp51
 70
     0
102
RTVSPost2010Prop52
140
1.0
102
RTVSPost2010PropOp52
 70
     0
102
RTVSPost2010Prop53
 90
        2
102
RTVSPost2010PropOp53
 70
     1
102
RTVSPost2010Prop54
  1
strokes_ogs.tif
102
RTVSPost2010PropOp54
 70
     1
102
RTVSPost2010Prop55
280
     0
102
RTVSPost2010PropOp55
 70
     1
102
RTVSPost2010Prop56
140
1.0
102
RTVSPost2010PropOp56
 70
     1
102
RTVSPost2010Prop57
140
1.0
102
RTVSPost2010PropOp57
 70
     1
102
RTVSPropertyOp0
 70
     1
102
RTVSPropertyOp1
 70
     1
102
RTVSPropertyOp2
 70
     1
102
RTVSPropertyOp3
 70
     1
102
RTVSPropertyOp4
 70
     1
102
RTVSPropertyOp5
 70
     1
102
RTVSPropertyOp6
 70
     1
102
RTVSPropertyOp7
 70
     1
102
RTVSPropertyOp8
 70
     1
102
RTVSPropertyOp9
 70
     1
102
RTVSPropertyOp10
 70
     1
102
RTVSPropertyOp11
 70
     1
102
RTVSPropertyOp12
 70
     1
102
RTVSPropertyOp13
 70
     1
102
RTVSPropertyOp14
 70
     1
102
RTVSPropertyOp15
 70
     1
102
RTVSPropertyOp16
 70
     1
102
RTVSPropertyOp17
 70
     1
102
RTVSPropertyOp18
 70
     1
102
RTVSPropertyOp19
 70
     1
102
RTVSPropertyOp20
 70
     1
102
RTVSPropertyOp21
 70
     1
102
RTVSPropertyOp22
 70
     1
102
RTVSPropertyOp23
 70
     1
102
RTVSPropertyOp24
 70
     1
102
RTVSPropertyOp25
 70
     1
102
RTVSPropertyOp26
 70
     1
102
RTVSPropertyOp27
 70
     1
102
RTVSPropertyOp28
 70
     1
102
RTVSPropertyOp29
 70
     1
102
RTVSPropertyOp30
 70
     1
102
RTVSPropertyOp31
 70
     1
102
RTVSPropertyOp32
 70
     1
102
RTVSPropertyOp33
 70
     1
102
RTVSPropertyOp34
 70
     1
102
RTVSPropertyOp35
 70
     1
102
RTVSPropertyOp36
 70
     1
102
RTVSPropertyOp37
 70
     1
102
RTVSPropertyOp38
 70
     1
102
RTVSPropertyOp39
 70
     1
102
RTVSPropertyOp40
 70
     1
102
RTVSPropertyOp41
 70
     1
102
RTVSPropertyOp42
 70
     1
102
RTVSPropertyOp43
 70
     1
102
RTVSPropertyOp44
 70
     1
102
RTVSPropertyOp45
 70
     1
102
RTVSPropertyOp46
 70
     1
102
RTVSPropertyOp47
 70
     1
102
RTVSPropertyOp48
 70
     1
102
RTVSPropertyOp49
 70
     1
102
RTVSPropertyOp50
 70
     1
102
RTVSPropertyOp51
 70
     0
102
RTVSPropertyOp52
 70
     0
102
RTVSPropertyOp53
 70
     1
102
RTVSPropertyOp54
 70
     1
102
RTVSPropertyOp55
 70
     1
102
RTVSPropertyOp56
 70
     1
102
RTVSPropertyOp57
 70
     1
102
RTVSPropertyOp58
 70
     1
102
RTVSPropertyOp59
 70
     1
102
RTVSPropertyOp60
 70
     1
102
RTVSPropertyOp61
 70
     1
102
RTVSPropertyOp62
 70
     1
  0
XRECORD
  5
F170
102
{ACAD_REACTORS
330
F16F
102
}
330
F16F
100
AcDbXrecord
280
     1
102
RTVSPost2010Prop28
280
     0
102
RTVSPost2010PropOp28
 70
     1
102
RTVSPost2010Prop29
280
     1
102
RTVSPost2010PropOp29
 70
     1
102
RTVSPost2010Prop30
280
     1
102
RTVSPost2010PropOp30
 70
     1
102
RTVSPost2010Prop31
280
     0
102
RTVSPost2010PropOp31
 70
     1
102
RTVSPost2010Prop32
280
     0
102
RTVSPost2010PropOp32
 70
     1
102
RTVSPost2010Prop33
280
     0
102
RTVSPost2010PropOp33
 70
     1
102
RTVSPost2010Prop34
280
     0
102
RTVSPost2010PropOp34
 70
     1
102
RTVSPost2010Prop35
280
     0
102
RTVSPost2010PropOp35
 70
     1
102
RTVSPost2010Prop36
280
     0
102
RTVSPost2010PropOp36
 70
     1
102
RTVSPost2010Prop37
 90
       50
102
RTVSPost2010PropOp37
 70
     1
102
RTVSPost2010Prop38
140
0.0
102
RTVSPost2010PropOp38
 70
     1
102
RTVSPost2010Prop39
140
1.0
102
RTVSPost2010PropOp39
 70
     1
102
RTVSPost2010Prop40
 90
        0
102
RTVSPost2010PropOp40
 70
     1
102
RTVSPost2010Prop41ColorIndex
 90
       18
102
RTVSPost2010Prop41ColorRGB
 90
        0
102
RTVSPost2010PropOp41
 70
     1
102
RTVSPost2010Prop42
 90
       50
102
RTVSPost2010PropOp42
 70
     1
102
RTVSPost2010Prop43
 90
        3
102
RTVSPost2010PropOp43
 70
     1
102
RTVSPost2010Prop44ColorIndex
 90
        5
102
RTVSPost2010Prop44ColorRGB
 90
      255
102
RTVSPost2010PropOp44
 70
     1
102
RTVSPost2010Prop45
280
     0
102
RTVSPost2010PropOp45
 70
     1
102
RTVSPost2010Prop46
 90
       50
102
RTVSPost2010PropOp46
 70
     1
102
RTVSPost2010Prop47
 90
       50
102
RTVSPost2010PropOp47
 70
     1
102
RTVSPost2010Prop48
 90
       50
102
RTVSPost2010PropOp48
 70
     1
102
RTVSPost2010Prop49
280
     0
102
RTVSPost2010PropOp49
 70
     1
102
RTVSPost2010Prop50
 90
       50
102
RTVSPost2010PropOp50
 70
     1
102
RTVSPost2010Prop51ColorIndex
 90
      256
102
RTVSPost2010Prop51ColorRGB
 90
-16777216
102
RTVSPost2010PropOp51
 70
     0
102
RTVSPost2010Prop52
140
1.0
102
RTVSPost2010PropOp52
 70
     0
102
RTVSPost2010Prop53
 90
        2
102
RTVSPost2010PropOp53
 70
     1
102
RTVSPost2010Prop54
  1
strokes_ogs.tif
102
RTVSPost2010PropOp54
 70
     1
102
RTVSPost2010Prop55
280
     0
102
RTVSPost2010PropOp55
 70
     1
102
RTVSPost2010Prop56
140
1.0
102
RTVSPost2010PropOp56
 70
     1
102
RTVSPost2010Prop57
140
1.0
102
RTVSPost2010PropOp57
 70
     1
102
RTVSPropertyOp0
 70
     1
102
RTVSPropertyOp1
 70
     1
102
RTVSPropertyOp2
 70
     1
102
RTVSPropertyOp3
 70
     1
102
RTVSPropertyOp4
 70
     1
102
RTVSPropertyOp5
 70
     1
102
RTVSPropertyOp6
 70
     1
102
RTVSPropertyOp7
 70
     1
102
RTVSPropertyOp8
 70
     1
102
RTVSPropertyOp9
 70
     1
102
RTVSPropertyOp10
 70
     1
102
RTVSPropertyOp11
 70
     1
102
RTVSPropertyOp12
 70
     1
102
RTVSPropertyOp13
 70
     1
102
RTVSPropertyOp14
 70
     1
102
RTVSPropertyOp15
 70
     1
102
RTVSPropertyOp16
 70
     1
102
RTVSPropertyOp17
 70
     1
102
RTVSPropertyOp18
 70
     1
102
RTVSPropertyOp19
 70
     1
102
RTVSPropertyOp20
 70
     1
102
RTVSPropertyOp21
 70
     1
102
RTVSPropertyOp22
 70
     1
102
RTVSPropertyOp23
 70
     1
102
RTVSPropertyOp24
 70
     1
102
RTVSPropertyOp25
 70
     1
102
RTVSPropertyOp26
 70
     1
102
RTVSPropertyOp27
 70
     1
102
RTVSPropertyOp28
 70
     1
102
RTVSPropertyOp29
 70
     1
102
RTVSPropertyOp30
 70
     1
102
RTVSPropertyOp31
 70
     1
102
RTVSPropertyOp32
 70
     1
102
RTVSPropertyOp33
 70
     1
102
RTVSPropertyOp34
 70
     1
102
RTVSPropertyOp35
 70
     1
102
RTVSPropertyOp36
 70
     1
102
RTVSPropertyOp37
 70
     1
102
RTVSPropertyOp38
 70
     1
102
RTVSPropertyOp39
 70
     1
102
RTVSPropertyOp40
 70
     1
102
RTVSPropertyOp41
 70
     1
102
RTVSPropertyOp42
 70
     1
102
RTVSPropertyOp43
 70
     1
102
RTVSPropertyOp44
 70
     1
102
RTVSPropertyOp45
 70
     1
102
RTVSPropertyOp46
 70
     1
102
RTVSPropertyOp47
 70
     1
102
RTVSPropertyOp48
 70
     1
102
RTVSPropertyOp49
 70
     1
102
RTVSPropertyOp50
 70
     1
102
RTVSPropertyOp51
 70
     0
102
RTVSPropertyOp52
 70
     0
102
RTVSPropertyOp53
 70
     1
102
RTVSPropertyOp54
 70
     1
102
RTVSPropertyOp55
 70
     1
102
RTVSPropertyOp56
 70
     1
102
RTVSPropertyOp57
 70
     1
102
RTVSPropertyOp58
 70
     1
102
RTVSPropertyOp59
 70
     1
102
RTVSPropertyOp60
 70
     1
102
RTVSPropertyOp61
 70
     1
102
RTVSPropertyOp62
 70
     1
  0
XRECORD
  5
F16A
102
{ACAD_REACTORS
330
F169
102
}
330
F169
100
AcDbXrecord
280
     1
102
RTVSPost2010Prop28
280
     0
102
RTVSPost2010PropOp28
 70
     1
102
RTVSPost2010Prop29
280
     1
102
RTVSPost2010PropOp29
 70
     1
102
RTVSPost2010Prop30
280
     1
102
RTVSPost2010PropOp30
 70
     1
102
RTVSPost2010Prop31
280
     0
102
RTVSPost2010PropOp31
 70
     1
102
RTVSPost2010Prop32
280
     0
102
RTVSPost2010PropOp32
 70
     1
102
RTVSPost2010Prop33
280
     0
102
RTVSPost2010PropOp33
 70
     1
102
RTVSPost2010Prop34
280
     0
102
RTVSPost2010PropOp34
 70
     1
102
RTVSPost2010Prop35
280
     0
102
RTVSPost2010PropOp35
 70
     1
102
RTVSPost2010Prop36
280
     0
102
RTVSPost2010PropOp36
 70
     1
102
RTVSPost2010Prop37
 90
       50
102
RTVSPost2010PropOp37
 70
     1
102
RTVSPost2010Prop38
140
0.0
102
RTVSPost2010PropOp38
 70
     1
102
RTVSPost2010Prop39
140
1.0
102
RTVSPost2010PropOp39
 70
     1
102
RTVSPost2010Prop40
 90
        0
102
RTVSPost2010PropOp40
 70
     1
102
RTVSPost2010Prop41ColorIndex
 90
       18
102
RTVSPost2010Prop41ColorRGB
 90
        0
102
RTVSPost2010PropOp41
 70
     1
102
RTVSPost2010Prop42
 90
       50
102
RTVSPost2010PropOp42
 70
     1
102
RTVSPost2010Prop43
 90
        3
102
RTVSPost2010PropOp43
 70
     1
102
RTVSPost2010Prop44ColorIndex
 90
        5
102
RTVSPost2010Prop44ColorRGB
 90
      255
102
RTVSPost2010PropOp44
 70
     1
102
RTVSPost2010Prop45
280
     0
102
RTVSPost2010PropOp45
 70
     1
102
RTVSPost2010Prop46
 90
       50
102
RTVSPost2010PropOp46
 70
     1
102
RTVSPost2010Prop47
 90
       50
102
RTVSPost2010PropOp47
 70
     1
102
RTVSPost2010Prop48
 90
       50
102
RTVSPost2010PropOp48
 70
     1
102
RTVSPost2010Prop49
280
     0
102
RTVSPost2010PropOp49
 70
     1
102
RTVSPost2010Prop50
 90
       50
102
RTVSPost2010PropOp50
 70
     1
102
RTVSPost2010Prop51ColorIndex
 90
      256
102
RTVSPost2010Prop51ColorRGB
 90
-16777216
102
RTVSPost2010PropOp51
 70
     0
102
RTVSPost2010Prop52
140
1.0
102
RTVSPost2010PropOp52
 70
     0
102
RTVSPost2010Prop53
 90
        2
102
RTVSPost2010PropOp53
 70
     1
102
RTVSPost2010Prop54
  1
strokes_ogs.tif
102
RTVSPost2010PropOp54
 70
     1
102
RTVSPost2010Prop55
280
     0
102
RTVSPost2010PropOp55
 70
     1
102
RTVSPost2010Prop56
140
1.0
102
RTVSPost2010PropOp56
 70
     1
102
RTVSPost2010Prop57
140
1.0
102
RTVSPost2010PropOp57
 70
     1
102
RTVSPropertyOp0
 70
     1
102
RTVSPropertyOp1
 70
     1
102
RTVSPropertyOp2
 70
     1
102
RTVSPropertyOp3
 70
     1
102
RTVSPropertyOp4
 70
     1
102
RTVSPropertyOp5
 70
     1
102
RTVSPropertyOp6
 70
     1
102
RTVSPropertyOp7
 70
     1
102
RTVSPropertyOp8
 70
     1
102
RTVSPropertyOp9
 70
     1
102
RTVSPropertyOp10
 70
     1
102
RTVSPropertyOp11
 70
     1
102
RTVSPropertyOp12
 70
     1
102
RTVSPropertyOp13
 70
     1
102
RTVSPropertyOp14
 70
     1
102
RTVSPropertyOp15
 70
     1
102
RTVSPropertyOp16
 70
     1
102
RTVSPropertyOp17
 70
     1
102
RTVSPropertyOp18
 70
     1
102
RTVSPropertyOp19
 70
     1
102
RTVSPropertyOp20
 70
     1
102
RTVSPropertyOp21
 70
     1
102
RTVSPropertyOp22
 70
     1
102
RTVSPropertyOp23
 70
     1
102
RTVSPropertyOp24
 70
     1
102
RTVSPropertyOp25
 70
     1
102
RTVSPropertyOp26
 70
     1
102
RTVSPropertyOp27
 70
     1
102
RTVSPropertyOp28
 70
     1
102
RTVSPropertyOp29
 70
     1
102
RTVSPropertyOp30
 70
     1
102
RTVSPropertyOp31
 70
     1
102
RTVSPropertyOp32
 70
     1
102
RTVSPropertyOp33
 70
     1
102
RTVSPropertyOp34
 70
     1
102
RTVSPropertyOp35
 70
     1
102
RTVSPropertyOp36
 70
     1
102
RTVSPropertyOp37
 70
     1
102
RTVSPropertyOp38
 70
     1
102
RTVSPropertyOp39
 70
     1
102
RTVSPropertyOp40
 70
     1
102
RTVSPropertyOp41
 70
     1
102
RTVSPropertyOp42
 70
     1
102
RTVSPropertyOp43
 70
     1
102
RTVSPropertyOp44
 70
     1
102
RTVSPropertyOp45
 70
     1
102
RTVSPropertyOp46
 70
     1
102
RTVSPropertyOp47
 70
     1
102
RTVSPropertyOp48
 70
     1
102
RTVSPropertyOp49
 70
     1
102
RTVSPropertyOp50
 70
     1
102
RTVSPropertyOp51
 70
     0
102
RTVSPropertyOp52
 70
     0
102
RTVSPropertyOp53
 70
     1
102
RTVSPropertyOp54
 70
     1
102
RTVSPropertyOp55
 70
     1
102
RTVSPropertyOp56
 70
     1
102
RTVSPropertyOp57
 70
     1
102
RTVSPropertyOp58
 70
     1
102
RTVSPropertyOp59
 70
     1
102
RTVSPropertyOp60
 70
     1
102
RTVSPropertyOp61
 70
     1
102
RTVSPropertyOp62
 70
     1
  0
XRECORD
  5
F16C
102
{ACAD_REACTORS
330
F16B
102
}
330
F16B
100
AcDbXrecord
280
     1
102
RTVSPost2010Prop28
280
     0
102
RTVSPost2010PropOp28
 70
     1
102
RTVSPost2010Prop29
280
     1
102
RTVSPost2010PropOp29
 70
     1
102
RTVSPost2010Prop30
280
     1
102
RTVSPost2010PropOp30
 70
     1
102
RTVSPost2010Prop31
280
     0
102
RTVSPost2010PropOp31
 70
     1
102
RTVSPost2010Prop32
280
     0
102
RTVSPost2010PropOp32
 70
     1
102
RTVSPost2010Prop33
280
     0
102
RTVSPost2010PropOp33
 70
     1
102
RTVSPost2010Prop34
280
     0
102
RTVSPost2010PropOp34
 70
     1
102
RTVSPost2010Prop35
280
     0
102
RTVSPost2010PropOp35
 70
     1
102
RTVSPost2010Prop36
280
     0
102
RTVSPost2010PropOp36
 70
     1
102
RTVSPost2010Prop37
 90
       50
102
RTVSPost2010PropOp37
 70
     1
102
RTVSPost2010Prop38
140
0.0
102
RTVSPost2010PropOp38
 70
     1
102
RTVSPost2010Prop39
140
1.0
102
RTVSPost2010PropOp39
 70
     1
102
RTVSPost2010Prop40
 90
        0
102
RTVSPost2010PropOp40
 70
     1
102
RTVSPost2010Prop41ColorIndex
 90
       18
102
RTVSPost2010Prop41ColorRGB
 90
        0
102
RTVSPost2010PropOp41
 70
     1
102
RTVSPost2010Prop42
 90
       50
102
RTVSPost2010PropOp42
 70
     1
102
RTVSPost2010Prop43
 90
        3
102
RTVSPost2010PropOp43
 70
     1
102
RTVSPost2010Prop44ColorIndex
 90
        5
102
RTVSPost2010Prop44ColorRGB
 90
      255
102
RTVSPost2010PropOp44
 70
     1
102
RTVSPost2010Prop45
280
     0
102
RTVSPost2010PropOp45
 70
     1
102
RTVSPost2010Prop46
 90
       50
102
RTVSPost2010PropOp46
 70
     1
102
RTVSPost2010Prop47
 90
       50
102
RTVSPost2010PropOp47
 70
     1
102
RTVSPost2010Prop48
 90
       50
102
RTVSPost2010PropOp48
 70
     1
102
RTVSPost2010Prop49
280
     0
102
RTVSPost2010PropOp49
 70
     1
102
RTVSPost2010Prop50
 90
       50
102
RTVSPost2010PropOp50
 70
     1
102
RTVSPost2010Prop51ColorIndex
 90
      256
102
RTVSPost2010Prop51ColorRGB
 90
-16777216
102
RTVSPost2010PropOp51
 70
     0
102
RTVSPost2010Prop52
140
1.0
102
RTVSPost2010PropOp52
 70
     0
102
RTVSPost2010Prop53
 90
        2
102
RTVSPost2010PropOp53
 70
     1
102
RTVSPost2010Prop54
  1
strokes_ogs.tif
102
RTVSPost2010PropOp54
 70
     1
102
RTVSPost2010Prop55
280
     0
102
RTVSPost2010PropOp55
 70
     1
102
RTVSPost2010Prop56
140
1.0
102
RTVSPost2010PropOp56
 70
     1
102
RTVSPost2010Prop57
140
1.0
102
RTVSPost2010PropOp57
 70
     1
102
RTVSPropertyOp0
 70
     1
102
RTVSPropertyOp1
 70
     1
102
RTVSPropertyOp2
 70
     1
102
RTVSPropertyOp3
 70
     1
102
RTVSPropertyOp4
 70
     1
102
RTVSPropertyOp5
 70
     1
102
RTVSPropertyOp6
 70
     1
102
RTVSPropertyOp7
 70
     1
102
RTVSPropertyOp8
 70
     1
102
RTVSPropertyOp9
 70
     1
102
RTVSPropertyOp10
 70
     1
102
RTVSPropertyOp11
 70
     1
102
RTVSPropertyOp12
 70
     1
102
RTVSPropertyOp13
 70
     1
102
RTVSPropertyOp14
 70
     1
102
RTVSPropertyOp15
 70
     1
102
RTVSPropertyOp16
 70
     1
102
RTVSPropertyOp17
 70
     1
102
RTVSPropertyOp18
 70
     1
102
RTVSPropertyOp19
 70
     1
102
RTVSPropertyOp20
 70
     1
102
RTVSPropertyOp21
 70
     1
102
RTVSPropertyOp22
 70
     1
102
RTVSPropertyOp23
 70
     1
102
RTVSPropertyOp24
 70
     1
102
RTVSPropertyOp25
 70
     1
102
RTVSPropertyOp26
 70
     1
102
RTVSPropertyOp27
 70
     1
102
RTVSPropertyOp28
 70
     1
102
RTVSPropertyOp29
 70
     1
102
RTVSPropertyOp30
 70
     1
102
RTVSPropertyOp31
 70
     1
102
RTVSPropertyOp32
 70
     1
102
RTVSPropertyOp33
 70
     1
102
RTVSPropertyOp34
 70
     1
102
RTVSPropertyOp35
 70
     1
102
RTVSPropertyOp36
 70
     1
102
RTVSPropertyOp37
 70
     1
102
RTVSPropertyOp38
 70
     1
102
RTVSPropertyOp39
 70
     1
102
RTVSPropertyOp40
 70
     1
102
RTVSPropertyOp41
 70
     1
102
RTVSPropertyOp42
 70
     1
102
RTVSPropertyOp43
 70
     1
102
RTVSPropertyOp44
 70
     1
102
RTVSPropertyOp45
 70
     1
102
RTVSPropertyOp46
 70
     1
102
RTVSPropertyOp47
 70
     1
102
RTVSPropertyOp48
 70
     1
102
RTVSPropertyOp49
 70
     1
102
RTVSPropertyOp50
 70
     1
102
RTVSPropertyOp51
 70
     0
102
RTVSPropertyOp52
 70
     0
102
RTVSPropertyOp53
 70
     1
102
RTVSPropertyOp54
 70
     1
102
RTVSPropertyOp55
 70
     1
102
RTVSPropertyOp56
 70
     1
102
RTVSPropertyOp57
 70
     1
102
RTVSPropertyOp58
 70
     1
102
RTVSPropertyOp59
 70
     1
102
RTVSPropertyOp60
 70
     1
102
RTVSPropertyOp61
 70
     1
102
RTVSPropertyOp62
 70
     1
  0
XRECORD
  5
F15C
102
{ACAD_REACTORS
330
F15B
102
}
330
F15B
100
AcDbXrecord
280
     1
102
RTVSPost2010Prop28
280
     0
102
RTVSPost2010PropOp28
 70
     1
102
RTVSPost2010Prop29
280
     1
102
RTVSPost2010PropOp29
 70
     1
102
RTVSPost2010Prop30
280
     1
102
RTVSPost2010PropOp30
 70
     1
102
RTVSPost2010Prop31
280
     0
102
RTVSPost2010PropOp31
 70
     1
102
RTVSPost2010Prop32
280
     0
102
RTVSPost2010PropOp32
 70
     1
102
RTVSPost2010Prop33
280
     0
102
RTVSPost2010PropOp33
 70
     1
102
RTVSPost2010Prop34
280
     0
102
RTVSPost2010PropOp34
 70
     1
102
RTVSPost2010Prop35
280
     0
102
RTVSPost2010PropOp35
 70
     1
102
RTVSPost2010Prop36
280
     0
102
RTVSPost2010PropOp36
 70
     1
102
RTVSPost2010Prop37
 90
       50
102
RTVSPost2010PropOp37
 70
     1
102
RTVSPost2010Prop38
140
0.0
102
RTVSPost2010PropOp38
 70
     1
102
RTVSPost2010Prop39
140
1.0
102
RTVSPost2010PropOp39
 70
     1
102
RTVSPost2010Prop40
 90
        0
102
RTVSPost2010PropOp40
 70
     1
102
RTVSPost2010Prop41ColorIndex
 90
       18
102
RTVSPost2010Prop41ColorRGB
 90
        0
102
RTVSPost2010PropOp41
 70
     1
102
RTVSPost2010Prop42
 90
       50
102
RTVSPost2010PropOp42
 70
     1
102
RTVSPost2010Prop43
 90
        3
102
RTVSPost2010PropOp43
 70
     1
102
RTVSPost2010Prop44ColorIndex
 90
        5
102
RTVSPost2010Prop44ColorRGB
 90
      255
102
RTVSPost2010PropOp44
 70
     1
102
RTVSPost2010Prop45
280
     0
102
RTVSPost2010PropOp45
 70
     1
102
RTVSPost2010Prop46
 90
       50
102
RTVSPost2010PropOp46
 70
     1
102
RTVSPost2010Prop47
 90
       50
102
RTVSPost2010PropOp47
 70
     1
102
RTVSPost2010Prop48
 90
       50
102
RTVSPost2010PropOp48
 70
     1
102
RTVSPost2010Prop49
280
     0
102
RTVSPost2010PropOp49
 70
     1
102
RTVSPost2010Prop50
 90
       50
102
RTVSPost2010PropOp50
 70
     1
102
RTVSPost2010Prop51ColorIndex
 90
      256
102
RTVSPost2010Prop51ColorRGB
 90
-16777216
102
RTVSPost2010PropOp51
 70
     0
102
RTVSPost2010Prop52
140
1.0
102
RTVSPost2010PropOp52
 70
     0
102
RTVSPost2010Prop53
 90
        2
102
RTVSPost2010PropOp53
 70
     1
102
RTVSPost2010Prop54
  1
strokes_ogs.tif
102
RTVSPost2010PropOp54
 70
     1
102
RTVSPost2010Prop55
280
     0
102
RTVSPost2010PropOp55
 70
     1
102
RTVSPost2010Prop56
140
1.0
102
RTVSPost2010PropOp56
 70
     1
102
RTVSPost2010Prop57
140
1.0
102
RTVSPost2010PropOp57
 70
     1
102
RTVSPropertyOp0
 70
     1
102
RTVSPropertyOp1
 70
     1
102
RTVSPropertyOp2
 70
     1
102
RTVSPropertyOp3
 70
     1
102
RTVSPropertyOp4
 70
     1
102
RTVSPropertyOp5
 70
     1
102
RTVSPropertyOp6
 70
     1
102
RTVSPropertyOp7
 70
     1
102
RTVSPropertyOp8
 70
     1
102
RTVSPropertyOp9
 70
     1
102
RTVSPropertyOp10
 70
     1
102
RTVSPropertyOp11
 70
     1
102
RTVSPropertyOp12
 70
     1
102
RTVSPropertyOp13
 70
     1
102
RTVSPropertyOp14
 70
     1
102
RTVSPropertyOp15
 70
     1
102
RTVSPropertyOp16
 70
     1
102
RTVSPropertyOp17
 70
     1
102
RTVSPropertyOp18
 70
     1
102
RTVSPropertyOp19
 70
     1
102
RTVSPropertyOp20
 70
     1
102
RTVSPropertyOp21
 70
     1
102
RTVSPropertyOp22
 70
     1
102
RTVSPropertyOp23
 70
     1
102
RTVSPropertyOp24
 70
     1
102
RTVSPropertyOp25
 70
     1
102
RTVSPropertyOp26
 70
     1
102
RTVSPropertyOp27
 70
     1
102
RTVSPropertyOp28
 70
     1
102
RTVSPropertyOp29
 70
     1
102
RTVSPropertyOp30
 70
     1
102
RTVSPropertyOp31
 70
     1
102
RTVSPropertyOp32
 70
     1
102
RTVSPropertyOp33
 70
     1
102
RTVSPropertyOp34
 70
     1
102
RTVSPropertyOp35
 70
     1
102
RTVSPropertyOp36
 70
     1
102
RTVSPropertyOp37
 70
     1
102
RTVSPropertyOp38
 70
     1
102
RTVSPropertyOp39
 70
     1
102
RTVSPropertyOp40
 70
     1
102
RTVSPropertyOp41
 70
     1
102
RTVSPropertyOp42
 70
     1
102
RTVSPropertyOp43
 70
     1
102
RTVSPropertyOp44
 70
     1
102
RTVSPropertyOp45
 70
     1
102
RTVSPropertyOp46
 70
     1
102
RTVSPropertyOp47
 70
     1
102
RTVSPropertyOp48
 70
     1
102
RTVSPropertyOp49
 70
     1
102
RTVSPropertyOp50
 70
     1
102
RTVSPropertyOp51
 70
     0
102
RTVSPropertyOp52
 70
     0
102
RTVSPropertyOp53
 70
     1
102
RTVSPropertyOp54
 70
     1
102
RTVSPropertyOp55
 70
     1
102
RTVSPropertyOp56
 70
     1
102
RTVSPropertyOp57
 70
     1
102
RTVSPropertyOp58
 70
     1
102
RTVSPropertyOp59
 70
     1
102
RTVSPropertyOp60
 70
     1
102
RTVSPropertyOp61
 70
     1
102
RTVSPropertyOp62
 70
     1
  0
XRECORD
  5
F166
102
{ACAD_REACTORS
330
F165
102
}
330
F165
100
AcDbXrecord
280
     1
102
RTVSPost2010Prop28
280
     0
102
RTVSPost2010PropOp28
 70
     1
102
RTVSPost2010Prop29
280
     1
102
RTVSPost2010PropOp29
 70
     1
102
RTVSPost2010Prop30
280
     1
102
RTVSPost2010PropOp30
 70
     1
102
RTVSPost2010Prop31
280
     0
102
RTVSPost2010PropOp31
 70
     1
102
RTVSPost2010Prop32
280
     0
102
RTVSPost2010PropOp32
 70
     1
102
RTVSPost2010Prop33
280
     0
102
RTVSPost2010PropOp33
 70
     1
102
RTVSPost2010Prop34
280
     0
102
RTVSPost2010PropOp34
 70
     1
102
RTVSPost2010Prop35
280
     0
102
RTVSPost2010PropOp35
 70
     1
102
RTVSPost2010Prop36
280
     0
102
RTVSPost2010PropOp36
 70
     1
102
RTVSPost2010Prop37
 90
       50
102
RTVSPost2010PropOp37
 70
     1
102
RTVSPost2010Prop38
140
0.0
102
RTVSPost2010PropOp38
 70
     1
102
RTVSPost2010Prop39
140
1.0
102
RTVSPost2010PropOp39
 70
     1
102
RTVSPost2010Prop40
 90
        0
102
RTVSPost2010PropOp40
 70
     1
102
RTVSPost2010Prop41ColorIndex
 90
       18
102
RTVSPost2010Prop41ColorRGB
 90
        0
102
RTVSPost2010PropOp41
 70
     1
102
RTVSPost2010Prop42
 90
       50
102
RTVSPost2010PropOp42
 70
     1
102
RTVSPost2010Prop43
 90
        3
102
RTVSPost2010PropOp43
 70
     1
102
RTVSPost2010Prop44ColorIndex
 90
        5
102
RTVSPost2010Prop44ColorRGB
 90
      255
102
RTVSPost2010PropOp44
 70
     1
102
RTVSPost2010Prop45
280
     0
102
RTVSPost2010PropOp45
 70
     1
102
RTVSPost2010Prop46
 90
       50
102
RTVSPost2010PropOp46
 70
     1
102
RTVSPost2010Prop47
 90
       50
102
RTVSPost2010PropOp47
 70
     1
102
RTVSPost2010Prop48
 90
       50
102
RTVSPost2010PropOp48
 70
     1
102
RTVSPost2010Prop49
280
     0
102
RTVSPost2010PropOp49
 70
     1
102
RTVSPost2010Prop50
 90
       50
102
RTVSPost2010PropOp50
 70
     1
102
RTVSPost2010Prop51ColorIndex
 90
      256
102
RTVSPost2010Prop51ColorRGB
 90
-16777216
102
RTVSPost2010PropOp51
 70
     0
102
RTVSPost2010Prop52
140
1.0
102
RTVSPost2010PropOp52
 70
     0
102
RTVSPost2010Prop53
 90
        2
102
RTVSPost2010PropOp53
 70
     1
102
RTVSPost2010Prop54
  1
strokes_ogs.tif
102
RTVSPost2010PropOp54
 70
     1
102
RTVSPost2010Prop55
280
     0
102
RTVSPost2010PropOp55
 70
     1
102
RTVSPost2010Prop56
140
1.0
102
RTVSPost2010PropOp56
 70
     1
102
RTVSPost2010Prop57
140
1.0
102
RTVSPost2010PropOp57
 70
     1
102
RTVSPropertyOp0
 70
     1
102
RTVSPropertyOp1
 70
     1
102
RTVSPropertyOp2
 70
     1
102
RTVSPropertyOp3
 70
     1
102
RTVSPropertyOp4
 70
     1
102
RTVSPropertyOp5
 70
     1
102
RTVSPropertyOp6
 70
     1
102
RTVSPropertyOp7
 70
     1
102
RTVSPropertyOp8
 70
     1
102
RTVSPropertyOp9
 70
     1
102
RTVSPropertyOp10
 70
     1
102
RTVSPropertyOp11
 70
     1
102
RTVSPropertyOp12
 70
     1
102
RTVSPropertyOp13
 70
     1
102
RTVSPropertyOp14
 70
     1
102
RTVSPropertyOp15
 70
     1
102
RTVSPropertyOp16
 70
     1
102
RTVSPropertyOp17
 70
     1
102
RTVSPropertyOp18
 70
     1
102
RTVSPropertyOp19
 70
     1
102
RTVSPropertyOp20
 70
     1
102
RTVSPropertyOp21
 70
     1
102
RTVSPropertyOp22
 70
     1
102
RTVSPropertyOp23
 70
     1
102
RTVSPropertyOp24
 70
     1
102
RTVSPropertyOp25
 70
     1
102
RTVSPropertyOp26
 70
     1
102
RTVSPropertyOp27
 70
     1
102
RTVSPropertyOp28
 70
     1
102
RTVSPropertyOp29
 70
     1
102
RTVSPropertyOp30
 70
     1
102
RTVSPropertyOp31
 70
     1
102
RTVSPropertyOp32
 70
     1
102
RTVSPropertyOp33
 70
     1
102
RTVSPropertyOp34
 70
     1
102
RTVSPropertyOp35
 70
     1
102
RTVSPropertyOp36
 70
     1
102
RTVSPropertyOp37
 70
     1
102
RTVSPropertyOp38
 70
     1
102
RTVSPropertyOp39
 70
     1
102
RTVSPropertyOp40
 70
     1
102
RTVSPropertyOp41
 70
     1
102
RTVSPropertyOp42
 70
     1
102
RTVSPropertyOp43
 70
     1
102
RTVSPropertyOp44
 70
     1
102
RTVSPropertyOp45
 70
     1
102
RTVSPropertyOp46
 70
     1
102
RTVSPropertyOp47
 70
     1
102
RTVSPropertyOp48
 70
     1
102
RTVSPropertyOp49
 70
     1
102
RTVSPropertyOp50
 70
     1
102
RTVSPropertyOp51
 70
     0
102
RTVSPropertyOp52
 70
     0
102
RTVSPropertyOp53
 70
     1
102
RTVSPropertyOp54
 70
     1
102
RTVSPropertyOp55
 70
     1
102
RTVSPropertyOp56
 70
     1
102
RTVSPropertyOp57
 70
     1
102
RTVSPropertyOp58
 70
     1
102
RTVSPropertyOp59
 70
     1
102
RTVSPropertyOp60
 70
     1
102
RTVSPropertyOp61
 70
     1
102
RTVSPropertyOp62
 70
     1
  0
XRECORD
  5
F16E
102
{ACAD_REACTORS
330
F16D
102
}
330
F16D
100
AcDbXrecord
280
     1
102
RTVSPost2010Prop28
280
     0
102
RTVSPost2010PropOp28
 70
     1
102
RTVSPost2010Prop29
280
     1
102
RTVSPost2010PropOp29
 70
     1
102
RTVSPost2010Prop30
280
     1
102
RTVSPost2010PropOp30
 70
     1
102
RTVSPost2010Prop31
280
     0
102
RTVSPost2010PropOp31
 70
     1
102
RTVSPost2010Prop32
280
     0
102
RTVSPost2010PropOp32
 70
     1
102
RTVSPost2010Prop33
280
     0
102
RTVSPost2010PropOp33
 70
     1
102
RTVSPost2010Prop34
280
     0
102
RTVSPost2010PropOp34
 70
     1
102
RTVSPost2010Prop35
280
     0
102
RTVSPost2010PropOp35
 70
     1
102
RTVSPost2010Prop36
280
     0
102
RTVSPost2010PropOp36
 70
     1
102
RTVSPost2010Prop37
 90
       50
102
RTVSPost2010PropOp37
 70
     1
102
RTVSPost2010Prop38
140
0.0
102
RTVSPost2010PropOp38
 70
     1
102
RTVSPost2010Prop39
140
1.0
102
RTVSPost2010PropOp39
 70
     1
102
RTVSPost2010Prop40
 90
        0
102
RTVSPost2010PropOp40
 70
     1
102
RTVSPost2010Prop41ColorIndex
 90
       18
102
RTVSPost2010Prop41ColorRGB
 90
        0
102
RTVSPost2010PropOp41
 70
     1
102
RTVSPost2010Prop42
 90
       50
102
RTVSPost2010PropOp42
 70
     1
102
RTVSPost2010Prop43
 90
        3
102
RTVSPost2010PropOp43
 70
     1
102
RTVSPost2010Prop44ColorIndex
 90
        5
102
RTVSPost2010Prop44ColorRGB
 90
      255
102
RTVSPost2010PropOp44
 70
     1
102
RTVSPost2010Prop45
280
     0
102
RTVSPost2010PropOp45
 70
     1
102
RTVSPost2010Prop46
 90
       50
102
RTVSPost2010PropOp46
 70
     1
102
RTVSPost2010Prop47
 90
       50
102
RTVSPost2010PropOp47
 70
     1
102
RTVSPost2010Prop48
 90
       50
102
RTVSPost2010PropOp48
 70
     1
102
RTVSPost2010Prop49
280
     0
102
RTVSPost2010PropOp49
 70
     1
102
RTVSPost2010Prop50
 90
       50
102
RTVSPost2010PropOp50
 70
     1
102
RTVSPost2010Prop51ColorIndex
 90
      256
102
RTVSPost2010Prop51ColorRGB
 90
-16777216
102
RTVSPost2010PropOp51
 70
     0
102
RTVSPost2010Prop52
140
1.0
102
RTVSPost2010PropOp52
 70
     0
102
RTVSPost2010Prop53
 90
        2
102
RTVSPost2010PropOp53
 70
     1
102
RTVSPost2010Prop54
  1
strokes_ogs.tif
102
RTVSPost2010PropOp54
 70
     1
102
RTVSPost2010Prop55
280
     0
102
RTVSPost2010PropOp55
 70
     1
102
RTVSPost2010Prop56
140
1.0
102
RTVSPost2010PropOp56
 70
     1
102
RTVSPost2010Prop57
140
1.0
102
RTVSPost2010PropOp57
 70
     1
102
RTVSPropertyOp0
 70
     1
102
RTVSPropertyOp1
 70
     1
102
RTVSPropertyOp2
 70
     1
102
RTVSPropertyOp3
 70
     1
102
RTVSPropertyOp4
 70
     1
102
RTVSPropertyOp5
 70
     1
102
RTVSPropertyOp6
 70
     1
102
RTVSPropertyOp7
 70
     1
102
RTVSPropertyOp8
 70
     1
102
RTVSPropertyOp9
 70
     1
102
RTVSPropertyOp10
 70
     1
102
RTVSPropertyOp11
 70
     1
102
RTVSPropertyOp12
 70
     1
102
RTVSPropertyOp13
 70
     1
102
RTVSPropertyOp14
 70
     1
102
RTVSPropertyOp15
 70
     1
102
RTVSPropertyOp16
 70
     1
102
RTVSPropertyOp17
 70
     1
102
RTVSPropertyOp18
 70
     1
102
RTVSPropertyOp19
 70
     1
102
RTVSPropertyOp20
 70
     1
102
RTVSPropertyOp21
 70
     1
102
RTVSPropertyOp22
 70
     1
102
RTVSPropertyOp23
 70
     1
102
RTVSPropertyOp24
 70
     1
102
RTVSPropertyOp25
 70
     1
102
RTVSPropertyOp26
 70
     1
102
RTVSPropertyOp27
 70
     1
102
RTVSPropertyOp28
 70
     1
102
RTVSPropertyOp29
 70
     1
102
RTVSPropertyOp30
 70
     1
102
RTVSPropertyOp31
 70
     1
102
RTVSPropertyOp32
 70
     1
102
RTVSPropertyOp33
 70
     1
102
RTVSPropertyOp34
 70
     1
102
RTVSPropertyOp35
 70
     1
102
RTVSPropertyOp36
 70
     1
102
RTVSPropertyOp37
 70
     1
102
RTVSPropertyOp38
 70
     1
102
RTVSPropertyOp39
 70
     1
102
RTVSPropertyOp40
 70
     1
102
RTVSPropertyOp41
 70
     1
102
RTVSPropertyOp42
 70
     1
102
RTVSPropertyOp43
 70
     1
102
RTVSPropertyOp44
 70
     1
102
RTVSPropertyOp45
 70
     1
102
RTVSPropertyOp46
 70
     1
102
RTVSPropertyOp47
 70
     1
102
RTVSPropertyOp48
 70
     1
102
RTVSPropertyOp49
 70
     1
102
RTVSPropertyOp50
 70
     1
102
RTVSPropertyOp51
 70
     0
102
RTVSPropertyOp52
 70
     0
102
RTVSPropertyOp53
 70
     1
102
RTVSPropertyOp54
 70
     1
102
RTVSPropertyOp55
 70
     1
102
RTVSPropertyOp56
 70
     1
102
RTVSPropertyOp57
 70
     1
102
RTVSPropertyOp58
 70
     1
102
RTVSPropertyOp59
 70
     1
102
RTVSPropertyOp60
 70
     1
102
RTVSPropertyOp61
 70
     1
102
RTVSPropertyOp62
 70
     1
  0
ENDSEC
  0
EOF
