  0
SECTION
  2
HEADER
  9
$ACADVER
  1
AC1014
  9
$ACADMAINTVER
 70
         0
  9
$DWGCODEPAGE
  3
ANSI_932
  9
$INSBASE
 10
0.0
 20
0.0
 30
0.0
  9
$EXTMIN
 10
-464.041555
 20
-279.928601
 30
0.0
  9
$EXTMAX
 10
775.726241
 20
110.0
 30
0.0
  9
$LIMMIN
 10
-464.041555
 20
-279.928601
  9
$LIMMAX
 10
775.726241
 20
110.0
  9
$ORTHOMODE
 70
         0
  9
$REGENMODE
 70
         1
  9
$FILLMODE
 70
         1
  9
$QTEXTMODE
 70
         0
  9
$MIRRTEXT
 70
         1
  9
$DRAGMODE
 70
         2
  9
$LTSCALE
 40
1.0
  9
$OSMODE
 70
         0
  9
$ATTMODE
 70
         1
  9
$TEXTSIZE
 40
3.2000000477
  9
$TRACEWID
 40
0.05
  9
$TEXTSTYLE
  7
MX_NOTE_STANDARD
  9
$CLAYER
  8
0
  9
$CELTYPE
  6
CONTINUOUS
  9
$CECOLOR
 62
       256
  9
$CELTSCALE
 40
1.0
  9
$DELOBJ
 70
         1
  9
$DISPSILH
 70
         0
  9
$DIMSCALE
 40
1.0
  9
$DIMASZ
 40
2.5
  9
$DIMEXO
 40
0.0
  9
$DIMDLI
 40
3.75
  9
$DIMRND
 40
0.0
  9
$DIMDLE
 40
0.0
  9
$DIMEXE
 40
2.5
  9
$DIMTP
 40
0.0
  9
$DIMTM
 40
0.0
  9
$DIMTXT
 40
3.2000000477
  9
$DIMCEN
 40
2.5
  9
$DIMTSZ
 40
0.0
  9
$DIMTOL
 70
         0
  9
$DIMLIM
 70
         0
  9
$DIMTIH
 70
         0
  9
$DIMTOH
 70
         0
  9
$DIMSE1
 70
         0
  9
$DIMSE2
 70
         0
  9
$DIMTAD
 70
         1
  9
$DIMZIN
 70
         8
  9
$DIMBLK
  1

  9
$DIMASO
 70
         1
  9
$DIMSHO
 70
         1
  9
$DIMPOST
  1

  9
$DIMAPOST
  1

  9
$DIMALT
 70
         0
  9
$DIMALTD
 70
         4
  9
$DIMALTF
 40
0.0393700787
  9
$DIMLFAC
 40
1.0
  9
$DIMTOFL
 70
         1
  9
$DIMTVP
 40
0.0
  9
$DIMTIX
 70
         0
  9
$DIMSOXD
 70
         0
  9
$DIMSAH
 70
         1
  9
$DIMBLK1
  1
_OPEN30
  9
$DIMBLK2
  1
_OPEN30
  9
$DIMSTYLE
  2
MXDIMSTYLE
  9
$DIMCLRD
 70
         0
  9
$DIMCLRE
 70
         0
  9
$DIMCLRT
 70
         0
  9
$DIMTFAC
 40
1.0
  9
$DIMGAP
 40
1.0
  9
$DIMJUST
 70
         0
  9
$DIMSD1
 70
         0
  9
$DIMSD2
 70
         0
  9
$DIMTOLJ
 70
         0
  9
$DIMTZIN
 70
         0
  9
$DIMALTZ
 70
         0
  9
$DIMALTTZ
 70
         0
  9
$DIMFIT
 70
         3
  9
$DIMUPT
 70
         0
  9
$DIMUNIT
 70
         2
  9
$DIMDEC
 70
         2
  9
$DIMTDEC
 70
         2
  9
$DIMALTU
 70
         2
  9
$DIMALTTD
 70
         4
  9
$DIMTXSTY
  7
MX_NOTE_STANDARD
  9
$DIMAUNIT
 70
         0
  9
$LUNITS
 70
         2
  9
$LUPREC
 70
         4
  9
$SKETCHINC
 40
0.1
  9
$FILLETRAD
 40
0.0
  9
$AUNITS
 70
         0
  9
$AUPREC
 70
         0
  9
$MENU
  1
acad
  9
$ELEVATION
 40
0.0
  9
$PELEVATION
 40
0.0
  9
$THICKNESS
 40
0.0
  9
$LIMCHECK
 70
         0
  9
$BLIPMODE
 70
         1
  9
$CHAMFERA
 40
0.0
  9
$CHAMFERB
 40
0.0
  9
$CHAMFERC
 40
0.0
  9
$CHAMFERD
 40
0.0
  9
$SKPOLY
 70
         0
  9
$TDCREATE
 40
2456603.443437500
  9
$TDUPDATE
 40
2456603.443437500
  9
$TDINDWG
 40
0.0000000000
  9
$TDUSRTIMER
 40
0.0000000000
  9
$USRTIMER
 70
         1
  9
$ANGBASE
 50
0.0
  9
$ANGDIR
 70
         0
  9
$PDMODE
 70
         0
  9
$PDSIZE
 40
0.0
  9
$PLINEWID
 40
0.0
  9
$COORDS
 70
         1
  9
$SPLFRAME
 70
         0
  9
$SPLINETYPE
 70
         6
  9
$SPLINESEGS
 70
         8
  9
$ATTDIA
 70
         0
  9
$ATTREQ
 70
         1
  9
$HANDLING
 70
         1
  9
$HANDSEED
  5
211
  9
$SURFTAB1
 70
         6
  9
$SURFTAB2
 70
         6
  9
$SURFTYPE
 70
         6
  9
$SURFU
 70
         6
  9
$SURFV
 70
         6
  9
$UCSNAME
  2

  9
$UCSORG
 10
0.0
 20
0.0
 30
0.0
  9
$UCSXDIR
 10
1.0
 20
0.0
 30
0.0
  9
$UCSYDIR
 10
0.0
 20
1.0
 30
0.0
  9
$PUCSNAME
  2

  9
$PUCSORG
 10
0.0
 20
0.0
 30
0.0
  9
$PUCSXDIR
 10
1.0
 20
0.0
 30
0.0
  9
$PUCSYDIR
 10
0.0
 20
1.0
 30
0.0
  9
$USERI1
 70
         0
  9
$USERI2
 70
         0
  9
$USERI3
 70
         0
  9
$USERI4
 70
         0
  9
$USERI5
 70
         0
  9
$USERR1
 40
0.0
  9
$USERR2
 40
0.0
  9
$USERR3
 40
0.0
  9
$USERR4
 40
0.0
  9
$USERR5
 40
0.0
  9
$WORLDVIEW
 70
         1
  9
$SHADEDGE
 70
         3
  9
$SHADEDIF
 70
        70
  9
$TILEMODE
 70
         1
  9
$MAXACTVP
 70
        16
  9
$PINSBASE
 10
0.0
 20
0.0
 30
0.0
  9
$PLIMCHECK
 70
         0
  9
$PEXTMIN
 10
1.0000000000E+20
 20
1.0000000000E+20
 30
1.0000000000E+20
  9
$PEXTMAX
 10
-1.0000000000E+20
 20
-1.0000000000E+20
 30
-1.0000000000E+20
  9
$PLIMMIN
 10
0.0
 20
0.0
  9
$PLIMMAX
 10
12.0
 20
9.0
  9
$UNITMODE
 70
         0
  9
$VISRETAIN
 70
         0
  9
$PLINEGEN
 70
         1
  9
$PSLTSCALE
 70
         0
  9
$TREEDEPTH
 70
      3020
  9
$PICKSTYLE
 70
         1
  9
$CMLSTYLE
  2
Standard
  9
$CMLJUST
 70
         0
  9
$CMLSCALE
 40
1.0
  9
$PROXYGRAPHICS
 70
         0
  9
$MEASUREMENT
 70
         1
  0
ENDSEC
  0
SECTION
  2
CLASSES
  0
CLASS
  1
LWPOLYLINE
  2
AcDbPolyline
  3
"AutoCAD"
 90
        0
280
         0
281
         1
  0
CLASS
  1
IMAGE
  2
AcDbRasterImage
  3
ISM
 90
      127
280
         0
281
         1
  0
CLASS
  1
OLE2FRAME
  2
AcDbOle2Frame
  3
""
 90
        0
280
         0
281
         1
  0
CLASS
  1
HATCH
  2
AcDbHatch
  3
"ACAD_SEDONA"
 90
        0
280
         0
281
         1
  0
CLASS
  1
DICTIONARYVAR
  2
AcDbDictionaryVar
  3
"AutoCAD"
 90
        0
280
         0
281
         0
  0
CLASS
  1
RASTERVARIABLES
  2
AcDbRasterVariables
  3
ISM
 90
        0
280
         0
281
         0
  0
CLASS
  1
IMAGEDEF
  2
AcDbRasterImageDef
  3
ISM
 90
        0
280
         0
281
         0
  0
CLASS
  1
IMAGEDEF_REACTOR
  2
AcDbRasterImageDefReactor
  3
ISM
 90
        1
280
         0
281
         0
  0
CLASS
  1
IDBUFFER
  2
AcDbIdBuffer
  3
"Acad"
 90
        0
280
         0
281
         0
  0
CLASS
  1
SPATIAL_FILTER
  2
AcDbSpatialFilter
  3
"Acad"
 90
        0
280
         0
281
         0
  0
CLASS
  1
XRECORD
  2
AcDbXrecord
  3
"<Built In>"
 90
        0
280
         0
281
         0
  0
CLASS
  1
SORTENTSTABLE
  2
AcDbSortentsTable
  3
"AutoCAD"
 90
        0
280
         0
281
         0
  0
CLASS
  1
LAYER_INDEX
  2
AcDbLayerIndex
  3
"Acad"
 90
        0
280
         0
281
         0
  0
CLASS
  1
SPATIAL_INDEX
  2
AcDbSpatialIndex
  3
"Acad"
 90
        0
280
         0
281
         0
  0
CLASS
  1
OBJECT_PTR
  2
CAseDLPNTableRecord
  3
"ASE-LPNTableRecord"
 90
        1
280
         0
281
         0
  0
CLASS
  1
LAYOUT
  2
AcDbLayout
  3
"AutoCAD 2000"
 90
        0
280
         0
281
         0
  0
CLASS
  1
PLOTSETTINGS
  2
AcDbPlotSettings
  3
"AutoCAD 2000"
 90
        0
280
         0
281
         0
  0
CLASS
  1
ACDBDICTIONARYWDFLT
  2
AcDbDictionaryWithDefault
  3
"AutoCAD 2000"
 90
        0
280
         0
281
         0
  0
CLASS
  1
ACDBPLACEHOLDER
  2
AcDbPlaceHolder
  3
"AutoCAD 2000"
 90
        0
280
         0
281
         0
  0
ENDSEC
  0
SECTION
  2
TABLES
  0
TABLE
  2
VPORT
  5
7
100
AcDbSymbolTable
 70
         1
  0
VPORT
  5
15
100
AcDbSymbolTableRecord
100
AcDbViewportTableRecord
  2
*ACTIVE
 70
         0
 10
0.0
 20
0.0
 11
1.0
 21
1.0
 12
155.842343
 22
-84.9643005
 13
0.0
 23
0.0
 14
1.0
 24
1.0
 15
0.0
 25
0.0
 16
0.0
 26
0.0
 36
1.0
 17
0.0
 27
0.0
 37
0.0
 40
393.82788701
 41
1.7320508076
 42
50.0
 43
0.0
 44
0.0
 50
0.0
 51
0.0
 71
         0
 72
       100
 73
         1
 74
         1
 75
         0
 76
         0
 77
         0
 78
         0
  0
ENDTAB
  0
TABLE
  2
LTYPE
  5
4
100
AcDbSymbolTable
 70
         5
  0
LTYPE
  5
11
100
AcDbSymbolTableRecord
100
AcDbLinetypeTableRecord
  2
BYBLOCK
 70
        64
  3

 72
        65
 73
         0
 40
0.0
  0
LTYPE
  5
12
100
AcDbSymbolTableRecord
100
AcDbLinetypeTableRecord
  2
BYLAYER
 70
        64
  3

 72
        65
 73
         0
 40
0.0
  0
LTYPE
  5
13
100
AcDbSymbolTableRecord
100
AcDbLinetypeTableRecord
  2
CONTINUOUS
 70
        64
  3
Solid line
 72
        65
 73
         0
 40
0.0
  0
LTYPE
  5
40
100
AcDbSymbolTableRecord
100
AcDbLinetypeTableRecord
  2
CENTER
 70
        64
  3
Center ____ _ ____ _ ____ _ ____ _ ____ _ ____
 72
        65
 73
         4
 40
50.8
 49
31.75
 74
         0
 49
-6.35
 74
         0
 49
6.35
 74
         0
 49
-6.35
 74
         0
  0
LTYPE
  5
4F
100
AcDbSymbolTableRecord
100
AcDbLinetypeTableRecord
  2
PHANTOM
 70
        64
  3
Phantom ______  __  __  ______  __  __  ______
 72
        65
 73
         6
 40
63.5
 49
31.75
 74
         0
 49
-6.35
 74
         0
 49
6.35
 74
         0
 49
-6.35
 74
         0
 49
6.35
 74
         0
 49
-6.35
 74
         0
  0
ENDTAB
  0
TABLE
  2
LAYER
  5
2
100
AcDbSymbolTable
 70
         3
  0
LAYER
  5
14
100
AcDbSymbolTableRecord
100
AcDbLayerTableRecord
  2
0
 70
         0
 62
         7
  6
CONTINUOUS
  0
LAYER
  5
1D
100
AcDbSymbolTableRecord
100
AcDbLayerTableRecord
  2
PV
 70
         0
 62
         3
  6
CONTINUOUS
  0
LAYER
  5
1E
100
AcDbSymbolTableRecord
100
AcDbLayerTableRecord
  2
DEFPOINTS
 70
         0
 62
         7
  6
CONTINUOUS
  0
ENDTAB
  0
TABLE
  2
STYLE
  5
3
100
AcDbSymbolTable
 70
         2
  0
STYLE
  5
17
100
AcDbSymbolTableRecord
100
AcDbTextStyleTableRecord
  2
MX_NOTE_STANDARD
 70
         0
 40
0.0
 41
1.0
 50
0.0
 71
         0
 42
3.2000000477
  3
txt.shx
  4
extfont.shx
  0
STYLE
  5
1BF
100
AcDbSymbolTableRecord
100
AcDbTextStyleTableRecord
  2
MX_DIMTXSTY_2
 70
         0
 40
0.0
 41
1.05
 50
0.0
 71
         0
 42
3.2000000477
  3
txt.shx
  4
extfont.shx
  0
ENDTAB
  0
TABLE
  2
VIEW
  5
5
100
AcDbSymbolTable
 70
         0
  0
ENDTAB
  0
TABLE
  2
UCS
  5
6
100
AcDbSymbolTable
 70
         0
  0
ENDTAB
  0
TABLE
  2
APPID
  5
8
100
AcDbSymbolTable
 70
         1
  0
APPID
  5
16
100
AcDbSymbolTableRecord
100
AcDbRegAppTableRecord
  2
ACAD
 70
         0
  0
ENDTAB
  0
TABLE
  2
DIMSTYLE
  5
9
100
AcDbSymbolTable
 70
         1
  0
DIMSTYLE
105
18
100
AcDbSymbolTableRecord
100
AcDbDimStyleTableRecord
  2
MXDIMSTYLE
 70
         0
  3

  4

  5

  6
_OPEN30
  7
_OPEN30
 40
1.0
 41
2.5
 42
0.0
 43
3.75
 44
2.5
 45
0.0
 46
0.0
 47
0.0
 48
0.0
 71
         0
 72
         0
 73
         0
 74
         0
 75
         0
 76
         0
 77
         1
 78
         8
140
3.2000000477
141
2.5
142
0.0
143
0.0393700787
144
1.0
145
0.0
146
1.0
147
1.0
170
         0
171
         4
172
         1
173
         1
174
         0
175
         0
176
         0
177
         0
178
         0
270
         2
271
         2
272
         2
273
         2
274
         4
275
         0
280
         0
281
         0
282
         0
283
         0
284
         0
285
         0
286
         0
287
         3
288
         0
340
17
  0
ENDTAB
  0
TABLE
  2
BLOCK_RECORD
  5
1
100
AcDbSymbolTable
 70
        10
  0
BLOCK_RECORD
  5
A
100
AcDbSymbolTableRecord
100
AcDbBlockTableRecord
  2
*MODEL_SPACE
  0
BLOCK_RECORD
  5
B
100
AcDbSymbolTableRecord
100
AcDbBlockTableRecord
  2
*PAPER_SPACE
  0
BLOCK_RECORD
  5
1F
100
AcDbSymbolTableRecord
100
AcDbBlockTableRecord
  2
ARROW
  0
BLOCK_RECORD
  5
20
100
AcDbSymbolTableRecord
100
AcDbBlockTableRecord
  2
_OPEN30
  0
BLOCK_RECORD
  5
19A
100
AcDbSymbolTableRecord
100
AcDbBlockTableRecord
  2
*D2
  0
BLOCK_RECORD
  5
1A9
100
AcDbSymbolTableRecord
100
AcDbBlockTableRecord
  2
*D3
  0
BLOCK_RECORD
  5
1B8
100
AcDbSymbolTableRecord
100
AcDbBlockTableRecord
  2
*D4
  0
BLOCK_RECORD
  5
1C6
100
AcDbSymbolTableRecord
100
AcDbBlockTableRecord
  2
*D5
  0
BLOCK_RECORD
  5
1D5
100
AcDbSymbolTableRecord
100
AcDbBlockTableRecord
  2
*D6
  0
BLOCK_RECORD
  5
1E4
100
AcDbSymbolTableRecord
100
AcDbBlockTableRecord
  2
*D7
  0
BLOCK_RECORD
  5
1F3
100
AcDbSymbolTableRecord
100
AcDbBlockTableRecord
  2
*D8
  0
BLOCK_RECORD
  5
202
100
AcDbSymbolTableRecord
100
AcDbBlockTableRecord
  2
*D9
  0
ENDTAB
  0
ENDSEC
  0
SECTION
  2
BLOCKS
  0
BLOCK
  5
D
100
AcDbEntity
  8
0
100
AcDbBlockBegin
  2
*MODEL_SPACE
 70
         0
 10
0.0
 20
0.0
 30
0.0
  3
*MODEL_SPACE
  1

  0
ENDBLK
  5
E
100
AcDbEntity
  8
0
100
AcDbBlockEnd
  0
BLOCK
  5
F
100
AcDbEntity
 67
         1
  8
0
100
AcDbBlockBegin
  2
*PAPER_SPACE
 70
         0
 10
0.0
 20
0.0
 30
0.0
  3
*PAPER_SPACE
  1

  0
ENDBLK
  5
10
100
AcDbEntity
 67
         1
  8
0
100
AcDbBlockEnd
  0
BLOCK
  5
26
100
AcDbEntity
  8
0
100
AcDbBlockBegin
  2
ARROW
 70
         0
 10
0.0
 20
0.0
 30
0.0
  3
ARROW
  1

  0
LWPOLYLINE
  5
27
100
AcDbEntity
  8
0
  6
CONTINUOUS
 62
       193
100
AcDbPolyline
 90
        3
 70
         0
 10
2.73995074
 20
0.734167589
 10
0.0
 20
0.0
 10
2.73995074
 20
-0.734167589
  0
ENDBLK
  5
28
100
AcDbEntity
  8
0
100
AcDbBlockEnd
  0
BLOCK
  5
21
100
AcDbEntity
  8
0
  6
ByBlock
 62
         0
100
AcDbBlockBegin
  2
_OPEN30
 70
         2
 10
0.0
 20
0.0
 30
0.0
  3
_OPEN30
  1

  0
LINE
  5
22
100
AcDbEntity
  8
0
  6
ByBlock
 62
         0
100
AcDbLine
 10
-1.0
 20
0.267949
 30
0.0
 11
0.0
 21
0.0
 31
0.0
  0
LINE
  5
23
100
AcDbEntity
  8
0
  6
ByBlock
 62
         0
100
AcDbLine
 10
0.0
 20
0.0
 30
0.0
 11
-1.0
 21
-0.267949
 31
0.0
  0
LINE
  5
24
100
AcDbEntity
  8
0
  6
ByBlock
 62
         0
100
AcDbLine
 10
0.0
 20
0.0
 30
0.0
 11
-1.0
 21
0.0
 31
0.0
  0
ENDBLK
  5
25
100
AcDbEntity
  8
0
  6
ByBlock
 62
         0
100
AcDbBlockEnd
  0
BLOCK
  5
19B
100
AcDbEntity
  8
0
  6
ByBlock
 62
         0
100
AcDbBlockBegin
  2
*D2
 70
         1
 10
0.0
 20
0.0
 30
0.0
  3
*D2
  1

  0
LINE
  5
19C
100
AcDbEntity
  8
0
  6
CONTINUOUS
 62
       110
100
AcDbLine
 10
752.139887
 20
-272.671867
 30
0.0
 11
457.434887
 21
-272.671867
 31
0.0
  0
LINE
  5
19D
100
AcDbEntity
  8
0
  6
CONTINUOUS
 62
       110
100
AcDbLine
 10
752.139887
 20
-197.2759014238
 30
0.0
 11
752.139887
 21
-275.171867
 31
0.0
  0
LINE
  5
19E
100
AcDbEntity
  8
0
  6
CONTINUOUS
 62
       110
100
AcDbLine
 10
457.434887
 20
-271.2878130545
 30
0.0
 11
457.434887
 21
-275.171867
 31
0.0
  0
LINE
  5
19F
100
AcDbEntity
  8
0
  6
CONTINUOUS
 62
       110
100
AcDbLine
 10
752.139887
 20
-272.671867
 30
0.0
 11
756.139887
 21
-272.671867
 31
0.0
  0
LINE
  5
1A0
100
AcDbEntity
  8
0
  6
CONTINUOUS
 62
       110
100
AcDbLine
 10
457.434887
 20
-272.671867
 30
0.0
 11
453.434887
 21
-272.671867
 31
0.0
  0
SOLID
  5
1A1
100
AcDbEntity
  8
0
  6
CONTINUOUS
 62
       110
100
AcDbTrace
 10
753.1398870298
 20
-272.838534005
 30
0.0
 11
753.1398870298
 21
-272.505199995
 31
0.0
 12
752.139887
 22
-272.671867
 32
0.0
 13
752.139887
 23
-272.671867
 33
0.0
  0
SOLID
  5
1A2
100
AcDbEntity
  8
0
  6
CONTINUOUS
 62
       110
100
AcDbTrace
 10
456.4348869702
 20
-272.505199995
 30
0.0
 11
456.4348869702
 21
-272.838534005
 31
0.0
 12
457.434887
 22
-272.671867
 32
0.0
 13
457.434887
 23
-272.671867
 33
0.0
  0
MTEXT
  5
1A3
100
AcDbEntity
  8
0
  6
CONTINUOUS
 62
       110
100
AcDbMText
 10
605.0873967656
 20
-270.0718669762
 30
0.0
 40
3.2000000477
 41
0.0
 71
         5
 72
         1
  1
\A1;295
 11
1.0
 21
0.0
 31
0.0
  0
POINT
  5
1A4
100
AcDbEntity
  8
DEFPOINTS
  6
CONTINUOUS
 62
         0
100
AcDbPoint
 10
752.139887
 20
-197.2134014238
 30
0.0
  0
POINT
  5
1A5
100
AcDbEntity
  8
DEFPOINTS
  6
CONTINUOUS
 62
         0
100
AcDbPoint
 10
457.434887
 20
-271.2253130545
 30
0.0
  0
POINT
  5
1A6
100
AcDbEntity
  8
DEFPOINTS
  6
CONTINUOUS
 62
         0
100
AcDbPoint
 10
457.434887
 20
-272.671867
 30
0.0
  0
ENDBLK
  5
1A7
100
AcDbEntity
  8
0
  6
ByBlock
 62
         0
100
AcDbBlockEnd
  0
BLOCK
  5
1AA
100
AcDbEntity
  8
0
  6
ByBlock
 62
         0
100
AcDbBlockBegin
  2
*D3
 70
         1
 10
0.0
 20
0.0
 30
0.0
  3
*D3
  1

  0
LINE
  5
1AB
100
AcDbEntity
  8
0
  6
CONTINUOUS
 62
       110
100
AcDbLine
 10
752.139887
 20
-246.513773
 30
0.0
 11
522.369887
 21
-246.513773
 31
0.0
  0
LINE
  5
1AC
100
AcDbEntity
  8
0
  6
CONTINUOUS
 62
       110
100
AcDbLine
 10
752.139887
 20
-197.2758999226
 30
0.0
 11
752.139887
 21
-249.013773
 31
0.0
  0
LINE
  5
1AD
100
AcDbEntity
  8
0
  6
CONTINUOUS
 62
       110
100
AcDbLine
 10
522.369887
 20
-197.2758999226
 30
0.0
 11
522.369887
 21
-249.013773
 31
0.0
  0
LINE
  5
1AE
100
AcDbEntity
  8
0
  6
CONTINUOUS
 62
       110
100
AcDbLine
 10
752.139887
 20
-246.513773
 30
0.0
 11
756.139887
 21
-246.513773
 31
0.0
  0
LINE
  5
1AF
100
AcDbEntity
  8
0
  6
CONTINUOUS
 62
       110
100
AcDbLine
 10
522.369887
 20
-246.513773
 30
0.0
 11
518.369887
 21
-246.513773
 31
0.0
  0
SOLID
  5
1B0
100
AcDbEntity
  8
0
  6
CONTINUOUS
 62
       110
100
AcDbTrace
 10
753.1398870298
 20
-246.680440005
 30
0.0
 11
753.1398870298
 21
-246.347105995
 31
0.0
 12
752.139887
 22
-246.513773
 32
0.0
 13
752.139887
 23
-246.513773
 33
0.0
  0
SOLID
  5
1B1
100
AcDbEntity
  8
0
  6
CONTINUOUS
 62
       110
100
AcDbTrace
 10
521.3698869702
 20
-246.347105995
 30
0.0
 11
521.3698869702
 21
-246.680440005
 31
0.0
 12
522.369887
 22
-246.513773
 32
0.0
 13
522.369887
 23
-246.513773
 33
0.0
  0
MTEXT
  5
1B2
100
AcDbEntity
  8
0
  6
CONTINUOUS
 62
       110
100
AcDbMText
 10
637.5548879155
 20
-243.9137729762
 30
0.0
 40
3.2000000477
 41
0.0
 71
         5
 72
         1
  1
\A1;230
 11
1.0
 21
0.0
 31
0.0
  0
POINT
  5
1B3
100
AcDbEntity
  8
DEFPOINTS
  6
CONTINUOUS
 62
         0
100
AcDbPoint
 10
752.139887
 20
-197.2133999226
 30
0.0
  0
POINT
  5
1B4
100
AcDbEntity
  8
DEFPOINTS
  6
CONTINUOUS
 62
         0
100
AcDbPoint
 10
522.369887
 20
-197.2133999226
 30
0.0
  0
POINT
  5
1B5
100
AcDbEntity
  8
DEFPOINTS
  6
CONTINUOUS
 62
         0
100
AcDbPoint
 10
522.369887
 20
-246.513773
 30
0.0
  0
ENDBLK
  5
1B6
100
AcDbEntity
  8
0
  6
ByBlock
 62
         0
100
AcDbBlockEnd
  0
BLOCK
  5
1B9
100
AcDbEntity
  8
0
  6
ByBlock
 62
         0
100
AcDbBlockBegin
  2
*D4
 70
         1
 10
0.0
 20
0.0
 30
0.0
  3
*D4
  1

  0
LINE
  5
1BA
100
AcDbEntity
  8
0
  6
CONTINUOUS
 62
       110
100
AcDbLine
 10
773.226241
 20
-187.223399
 30
0.0
 11
773.226241
 21
-197.213399
 31
0.0
  0
LINE
  5
1BB
100
AcDbEntity
  8
0
  6
CONTINUOUS
 62
       110
100
AcDbLine
 10
752.202387698
 20
-187.223399
 30
0.0
 11
775.726241
 21
-187.223399
 31
0.0
  0
LINE
  5
1BC
100
AcDbEntity
  8
0
  6
CONTINUOUS
 62
       110
100
AcDbLine
 10
752.202387698
 20
-197.213399
 30
0.0
 11
775.726241
 21
-197.213399
 31
0.0
  0
SOLID
  5
1BD
100
AcDbEntity
  8
0
  6
CONTINUOUS
 62
       110
100
AcDbTrace
 10
773.059573995
 20
-188.2233990298
 30
0.0
 11
773.392908005
 21
-188.2233990298
 31
0.0
 12
773.226241
 22
-187.223399
 32
0.0
 13
773.226241
 23
-187.223399
 33
0.0
  0
SOLID
  5
1BE
100
AcDbEntity
  8
0
  6
CONTINUOUS
 62
       110
100
AcDbTrace
 10
773.392908005
 20
-196.2133989702
 30
0.0
 11
773.059573995
 21
-196.2133989702
 31
0.0
 12
773.226241
 22
-197.213399
 32
0.0
 13
773.226241
 23
-197.213399
 33
0.0
  0
MTEXT
  5
1C0
100
AcDbEntity
  8
0
  6
CONTINUOUS
 62
       110
100
AcDbMText
 10
770.6262409762
 20
-191.9183991717
 30
0.0
 40
3.2000000477
 41
0.0
 71
         5
 72
         1
  1
\A1;\U+220510
  7
MX_DIMTXSTY_2
 11
0.0
 21
1.0
 31
0.0
  0
POINT
  5
1C1
100
AcDbEntity
  8
DEFPOINTS
  6
CONTINUOUS
 62
         0
100
AcDbPoint
 10
752.139887698
 20
-187.223399
 30
0.0
  0
POINT
  5
1C2
100
AcDbEntity
  8
DEFPOINTS
  6
CONTINUOUS
 62
         0
100
AcDbPoint
 10
752.139887698
 20
-197.213399
 30
0.0
  0
POINT
  5
1C3
100
AcDbEntity
  8
DEFPOINTS
  6
CONTINUOUS
 62
         0
100
AcDbPoint
 10
773.226241
 20
-197.213399
 30
0.0
  0
ENDBLK
  5
1C4
100
AcDbEntity
  8
0
  6
ByBlock
 62
         0
100
AcDbBlockEnd
  0
BLOCK
  5
1C7
100
AcDbEntity
  8
0
  6
ByBlock
 62
         0
100
AcDbBlockBegin
  2
*D5
 70
         1
 10
0.0
 20
0.0
 30
0.0
  3
*D5
  1

  0
LINE
  5
1C8
100
AcDbEntity
  8
0
  6
CONTINUOUS
 62
       110
100
AcDbLine
 10
130.071887
 20
-72.6408031
 30
0.0
 11
304.896887
 21
-72.6408031
 31
0.0
  0
LINE
  5
1C9
100
AcDbEntity
  8
0
  6
CONTINUOUS
 62
       110
100
AcDbLine
 10
130.071887
 20
-125.2228991999
 30
0.0
 11
130.071887
 21
-70.1408031
 31
0.0
  0
LINE
  5
1CA
100
AcDbEntity
  8
0
  6
CONTINUOUS
 62
       110
100
AcDbLine
 10
304.896887
 20
-192.1559016718
 30
0.0
 11
304.896887
 21
-70.1408031
 31
0.0
  0
LINE
  5
1CB
100
AcDbEntity
  8
0
  6
CONTINUOUS
 62
       110
100
AcDbLine
 10
130.071887
 20
-72.6408031
 30
0.0
 11
126.071887
 21
-72.6408031
 31
0.0
  0
LINE
  5
1CC
100
AcDbEntity
  8
0
  6
CONTINUOUS
 62
       110
100
AcDbLine
 10
304.896887
 20
-72.6408031
 30
0.0
 11
308.896887
 21
-72.6408031
 31
0.0
  0
SOLID
  5
1CD
100
AcDbEntity
  8
0
  6
CONTINUOUS
 62
       110
100
AcDbTrace
 10
129.0718869702
 20
-72.474136095
 30
0.0
 11
129.0718869702
 21
-72.807470105
 31
0.0
 12
130.071887
 22
-72.6408031
 32
0.0
 13
130.071887
 23
-72.6408031
 33
0.0
  0
SOLID
  5
1CE
100
AcDbEntity
  8
0
  6
CONTINUOUS
 62
       110
100
AcDbTrace
 10
305.8968870298
 20
-72.807470105
 30
0.0
 11
305.8968870298
 21
-72.474136095
 31
0.0
 12
304.896887
 22
-72.6408031
 32
0.0
 13
304.896887
 23
-72.6408031
 33
0.0
  0
MTEXT
  5
1CF
100
AcDbEntity
  8
0
  6
CONTINUOUS
 62
       110
100
AcDbMText
 10
217.7843885259
 20
-70.0408030762
 30
0.0
 40
3.2000000477
 41
0.0
 71
         5
 72
         1
  1
\A1;175
  7
MX_DIMTXSTY_2
  0
POINT
  5
1D0
100
AcDbEntity
  8
DEFPOINTS
  6
CONTINUOUS
 62
         0
100
AcDbPoint
 10
130.071887
 20
-125.2853991999
 30
0.0
  0
POINT
  5
1D1
100
AcDbEntity
  8
DEFPOINTS
  6
CONTINUOUS
 62
         0
100
AcDbPoint
 10
304.896887
 20
-192.2184016718
 30
0.0
  0
POINT
  5
1D2
100
AcDbEntity
  8
DEFPOINTS
  6
CONTINUOUS
 62
         0
100
AcDbPoint
 10
304.896887
 20
-72.6408031
 30
0.0
  0
ENDBLK
  5
1D3
100
AcDbEntity
  8
0
  6
ByBlock
 62
         0
100
AcDbBlockEnd
  0
BLOCK
  5
1D6
100
AcDbEntity
  8
0
  6
ByBlock
 62
         0
100
AcDbBlockBegin
  2
*D6
 70
         1
 10
0.0
 20
0.0
 30
0.0
  3
*D6
  1

  0
LINE
  5
1D7
100
AcDbEntity
  8
0
  6
CONTINUOUS
 62
       110
100
AcDbLine
 10
-232.565113
 20
-72.6408031
 30
0.0
 11
130.071887
 21
-72.6408031
 31
0.0
  0
LINE
  5
1D8
100
AcDbEntity
  8
0
  6
CONTINUOUS
 62
       110
100
AcDbLine
 10
-232.565113
 20
-125.2228991999
 30
0.0
 11
-232.565113
 21
-70.1408031
 31
0.0
  0
LINE
  5
1D9
100
AcDbEntity
  8
0
  6
CONTINUOUS
 62
       110
100
AcDbLine
 10
130.071887
 20
-125.2228991999
 30
0.0
 11
130.071887
 21
-70.1408031
 31
0.0
  0
LINE
  5
1DA
100
AcDbEntity
  8
0
  6
CONTINUOUS
 62
       110
100
AcDbLine
 10
-232.565113
 20
-72.6408031
 30
0.0
 11
-236.565113
 21
-72.6408031
 31
0.0
  0
LINE
  5
1DB
100
AcDbEntity
  8
0
  6
CONTINUOUS
 62
       110
100
AcDbLine
 10
130.071887
 20
-72.6408031
 30
0.0
 11
134.071887
 21
-72.6408031
 31
0.0
  0
SOLID
  5
1DC
100
AcDbEntity
  8
0
  6
CONTINUOUS
 62
       110
100
AcDbTrace
 10
-233.5651130298
 20
-72.474136095
 30
0.0
 11
-233.5651130298
 21
-72.807470105
 31
0.0
 12
-232.565113
 22
-72.6408031
 32
0.0
 13
-232.565113
 23
-72.6408031
 33
0.0
  0
SOLID
  5
1DD
100
AcDbEntity
  8
0
  6
CONTINUOUS
 62
       110
100
AcDbTrace
 10
131.0718870298
 20
-72.807470105
 30
0.0
 11
131.0718870298
 21
-72.474136095
 31
0.0
 12
130.071887
 22
-72.6408031
 32
0.0
 13
130.071887
 23
-72.6408031
 33
0.0
  0
MTEXT
  5
1DE
100
AcDbEntity
  8
0
  6
CONTINUOUS
 62
       110
100
AcDbMText
 10
-50.9466132441
 20
-70.0408030762
 30
0.0
 40
3.2000000477
 41
0.0
 71
         5
 72
         1
  1
\A1;363
  0
POINT
  5
1DF
100
AcDbEntity
  8
DEFPOINTS
  6
CONTINUOUS
 62
         0
100
AcDbPoint
 10
-232.565113
 20
-125.2853991999
 30
0.0
  0
POINT
  5
1E0
100
AcDbEntity
  8
DEFPOINTS
  6
CONTINUOUS
 62
         0
100
AcDbPoint
 10
130.071887
 20
-125.2853991999
 30
0.0
  0
POINT
  5
1E1
100
AcDbEntity
  8
DEFPOINTS
  6
CONTINUOUS
 62
         0
100
AcDbPoint
 10
130.071887
 20
-72.6408031
 30
0.0
  0
ENDBLK
  5
1E2
100
AcDbEntity
  8
0
  6
ByBlock
 62
         0
100
AcDbBlockEnd
  0
BLOCK
  5
1E5
100
AcDbEntity
  8
0
  6
ByBlock
 62
         0
100
AcDbBlockBegin
  2
*D7
 70
         1
 10
0.0
 20
0.0
 30
0.0
  3
*D7
  1

  0
LINE
  5
1E6
100
AcDbEntity
  8
0
  6
CONTINUOUS
 62
       110
100
AcDbLine
 10
330.93674
 20
-164.246399
 30
0.0
 11
330.93674
 21
-220.190399
 31
0.0
  0
LINE
  5
1E7
100
AcDbEntity
  8
0
  6
CONTINUOUS
 62
       110
100
AcDbLine
 10
299.9044466803
 20
-164.246399
 30
0.0
 11
333.43674
 21
-164.246399
 31
0.0
  0
LINE
  5
1E8
100
AcDbEntity
  8
0
  6
CONTINUOUS
 62
       110
100
AcDbLine
 10
299.9044466803
 20
-220.190399
 30
0.0
 11
333.43674
 21
-220.190399
 31
0.0
  0
LINE
  5
1E9
100
AcDbEntity
  8
0
  6
CONTINUOUS
 62
       110
100
AcDbLine
 10
330.93674
 20
-164.246399
 30
0.0
 11
330.93674
 21
-160.246399
 31
0.0
  0
LINE
  5
1EA
100
AcDbEntity
  8
0
  6
CONTINUOUS
 62
       110
100
AcDbLine
 10
330.93674
 20
-220.190399
 30
0.0
 11
330.93674
 21
-224.190399
 31
0.0
  0
SOLID
  5
1EB
100
AcDbEntity
  8
0
  6
CONTINUOUS
 62
       110
100
AcDbTrace
 10
331.103407005
 20
-163.2463989702
 30
0.0
 11
330.770072995
 21
-163.2463989702
 31
0.0
 12
330.93674
 22
-164.246399
 32
0.0
 13
330.93674
 23
-164.246399
 33
0.0
  0
SOLID
  5
1EC
100
AcDbEntity
  8
0
  6
CONTINUOUS
 62
       110
100
AcDbTrace
 10
330.770072995
 20
-221.1903990298
 30
0.0
 11
331.103407005
 21
-221.1903990298
 31
0.0
 12
330.93674
 22
-220.190399
 32
0.0
 13
330.93674
 23
-220.190399
 33
0.0
  0
MTEXT
  5
1ED
100
AcDbEntity
  8
0
  6
CONTINUOUS
 62
       110
100
AcDbMText
 10
328.3367399762
 20
-191.918399885
 30
0.0
 40
3.2000000477
 41
0.0
 71
         5
 72
         1
  1
\A1;56
 11
0.0
 21
1.0
 31
0.0
  0
POINT
  5
1EE
100
AcDbEntity
  8
DEFPOINTS
  6
CONTINUOUS
 62
         0
100
AcDbPoint
 10
299.8419466803
 20
-164.246399
 30
0.0
  0
POINT
  5
1EF
100
AcDbEntity
  8
DEFPOINTS
  6
CONTINUOUS
 62
         0
100
AcDbPoint
 10
299.8419466803
 20
-220.190399
 30
0.0
  0
POINT
  5
1F0
100
AcDbEntity
  8
DEFPOINTS
  6
CONTINUOUS
 62
         0
100
AcDbPoint
 10
330.93674
 20
-220.190399
 30
0.0
  0
ENDBLK
  5
1F1
100
AcDbEntity
  8
0
  6
ByBlock
 62
         0
100
AcDbBlockEnd
  0
BLOCK
  5
1F4
100
AcDbEntity
  8
0
  6
ByBlock
 62
         0
100
AcDbBlockBegin
  2
*D8
 70
         1
 10
0.0
 20
0.0
 30
0.0
  3
*D8
  1

  0
LINE
  5
1F5
100
AcDbEntity
  8
0
  6
CONTINUOUS
 62
       110
100
AcDbLine
 10
-264.289692
 20
-259.151399
 30
0.0
 11
-264.289692
 21
-125.285399
 31
0.0
  0
LINE
  5
1F6
100
AcDbEntity
  8
0
  6
CONTINUOUS
 62
       110
100
AcDbLine
 10
-232.6276131426
 20
-259.151399
 30
0.0
 11
-266.789692
 21
-259.151399
 31
0.0
  0
LINE
  5
1F7
100
AcDbEntity
  8
0
  6
CONTINUOUS
 62
       110
100
AcDbLine
 10
-232.6276131426
 20
-125.285399
 30
0.0
 11
-266.789692
 21
-125.285399
 31
0.0
  0
LINE
  5
1F8
100
AcDbEntity
  8
0
  6
CONTINUOUS
 62
       110
100
AcDbLine
 10
-264.289692
 20
-259.151399
 30
0.0
 11
-264.289692
 21
-263.151399
 31
0.0
  0
LINE
  5
1F9
100
AcDbEntity
  8
0
  6
CONTINUOUS
 62
       110
100
AcDbLine
 10
-264.289692
 20
-125.285399
 30
0.0
 11
-264.289692
 21
-121.285399
 31
0.0
  0
SOLID
  5
1FA
100
AcDbEntity
  8
0
  6
CONTINUOUS
 62
       110
100
AcDbTrace
 10
-264.456359005
 20
-260.1513990298
 30
0.0
 11
-264.123024995
 21
-260.1513990298
 31
0.0
 12
-264.289692
 22
-259.151399
 32
0.0
 13
-264.289692
 23
-259.151399
 33
0.0
  0
SOLID
  5
1FB
100
AcDbEntity
  8
0
  6
CONTINUOUS
 62
       110
100
AcDbTrace
 10
-264.123024995
 20
-124.2853989702
 30
0.0
 11
-264.456359005
 21
-124.2853989702
 31
0.0
 12
-264.289692
 22
-125.285399
 32
0.0
 13
-264.289692
 23
-125.285399
 33
0.0
  0
MTEXT
  5
1FC
100
AcDbEntity
  8
0
  6
CONTINUOUS
 62
       110
100
AcDbMText
 10
-266.8896920238
 20
-191.918397291
 30
0.0
 40
3.2000000477
 41
0.0
 71
         5
 72
         1
  1
\A1;\U+2205134
 11
0.0
 21
1.0
 31
0.0
  0
POINT
  5
1FD
100
AcDbEntity
  8
DEFPOINTS
  6
CONTINUOUS
 62
         0
100
AcDbPoint
 10
-232.5651131426
 20
-259.151399
 30
0.0
  0
POINT
  5
1FE
100
AcDbEntity
  8
DEFPOINTS
  6
CONTINUOUS
 62
         0
100
AcDbPoint
 10
-232.5651131426
 20
-125.285399
 30
0.0
  0
POINT
  5
1FF
100
AcDbEntity
  8
DEFPOINTS
  6
CONTINUOUS
 62
         0
100
AcDbPoint
 10
-264.289692
 20
-125.285399
 30
0.0
  0
ENDBLK
  5
200
100
AcDbEntity
  8
0
  6
ByBlock
 62
         0
100
AcDbBlockEnd
  0
BLOCK
  5
203
100
AcDbEntity
  8
0
  6
ByBlock
 62
         0
100
AcDbBlockBegin
  2
*D9
 70
         1
 10
0.0
 20
0.0
 30
0.0
  3
*D9
  1

  0
LINE
  5
204
100
AcDbEntity
  8
0
  6
CONTINUOUS
 62
       110
100
AcDbLine
 10
350.484135
 20
-124.785899
 30
0.0
 11
350.484135
 21
-259.650899
 31
0.0
  0
LINE
  5
205
100
AcDbEntity
  8
0
  6
CONTINUOUS
 62
       110
100
AcDbLine
 10
265.6847041528
 20
-124.785899
 30
0.0
 11
352.984135
 21
-124.785899
 31
0.0
  0
LINE
  5
206
100
AcDbEntity
  8
0
  6
CONTINUOUS
 62
       110
100
AcDbLine
 10
265.6847041528
 20
-259.650899
 30
0.0
 11
352.984135
 21
-259.650899
 31
0.0
  0
LINE
  5
207
100
AcDbEntity
  8
0
  6
CONTINUOUS
 62
       110
100
AcDbLine
 10
350.484135
 20
-124.785899
 30
0.0
 11
350.484135
 21
-120.785899
 31
0.0
  0
LINE
  5
208
100
AcDbEntity
  8
0
  6
CONTINUOUS
 62
       110
100
AcDbLine
 10
350.484135
 20
-259.650899
 30
0.0
 11
350.484135
 21
-263.650899
 31
0.0
  0
SOLID
  5
209
100
AcDbEntity
  8
0
  6
CONTINUOUS
 62
       110
100
AcDbTrace
 10
350.650802005
 20
-123.7858989702
 30
0.0
 11
350.317467995
 21
-123.7858989702
 31
0.0
 12
350.484135
 22
-124.785899
 32
0.0
 13
350.484135
 23
-124.785899
 33
0.0
  0
SOLID
  5
20A
100
AcDbEntity
  8
0
  6
CONTINUOUS
 62
       110
100
AcDbTrace
 10
350.317467995
 20
-260.6508990298
 30
0.0
 11
350.650802005
 21
-260.6508990298
 31
0.0
 12
350.484135
 22
-259.650899
 32
0.0
 13
350.484135
 23
-259.650899
 33
0.0
  0
MTEXT
  5
20B
100
AcDbEntity
  8
0
  6
CONTINUOUS
 62
       110
100
AcDbMText
 10
347.8841349762
 20
-191.9183986948
 30
0.0
 40
3.2000000477
 41
0.0
 71
         5
 72
         1
  1
\A1;\U+2205135
 11
0.0
 21
1.0
 31
0.0
  0
POINT
  5
20C
100
AcDbEntity
  8
DEFPOINTS
  6
CONTINUOUS
 62
         0
100
AcDbPoint
 10
265.6222041528
 20
-124.785899
 30
0.0
  0
POINT
  5
20D
100
AcDbEntity
  8
DEFPOINTS
  6
CONTINUOUS
 62
         0
100
AcDbPoint
 10
265.6222041528
 20
-259.650899
 30
0.0
  0
POINT
  5
20E
100
AcDbEntity
  8
DEFPOINTS
  6
CONTINUOUS
 62
         0
100
AcDbPoint
 10
350.484135
 20
-259.650899
 30
0.0
  0
ENDBLK
  5
20F
100
AcDbEntity
  8
0
  6
ByBlock
 62
         0
100
AcDbBlockEnd
  0
ENDSEC
  0
SECTION
  2
ENTITIES
  0
LINE
  5
29
100
AcDbEntity
  8
PV
  6
CONTINUOUS
 62
         3
100
AcDbLine
 10
457.434887
 20
-275.107427
 30
0.0
 11
457.434887
 21
-279.928601
 31
0.0
  0
ARC
  5
2A
100
AcDbEntity
  8
PV
  6
CONTINUOUS
 62
         3
100
AcDbCircle
 10
450.120209
 20
-162.026621
 30
0.0
 40
1.5984
100
AcDbArc
 50
195.494
 51
265.0
  0
ARC
  5
2B
100
AcDbEntity
  8
PV
  6
CONTINUOUS
 62
         3
100
AcDbCircle
 10
450.120209
 20
-156.476177
 30
0.0
 40
1.5984
100
AcDbArc
 50
95.0009998
 51
164.506
  0
ARC
  5
2C
100
AcDbEntity
  8
PV
  6
CONTINUOUS
 62
         3
100
AcDbCircle
 10
460.132187
 20
-159.251399
 30
0.0
 40
11.988
100
AcDbArc
 50
164.506
 51
195.494
  0
LINE
  5
2D
100
AcDbEntity
  8
PV
  6
CONTINUOUS
 62
         3
100
AcDbLine
 10
451.440887
 20
-163.746899
 30
0.0
 11
449.980349
 21
-163.619027
 31
0.0
  0
LINE
  5
2E
100
AcDbEntity
  8
PV
  6
CONTINUOUS
 62
         3
100
AcDbLine
 10
451.440887
 20
-154.755899
 30
0.0
 11
449.980349
 21
-154.883771
 31
0.0
  0
LINE
  5
2F
100
AcDbEntity
  8
PV
  6
CONTINUOUS
 62
         3
100
AcDbLine
 10
451.440887
 20
-154.755899
 30
0.0
 11
451.440887
 21
-163.746899
 31
0.0
  0
ARC
  5
30
100
AcDbEntity
  8
PV
  6
CONTINUOUS
 62
         3
100
AcDbCircle
 10
450.120209
 20
-123.065621
 30
0.0
 40
1.5984
100
AcDbArc
 50
195.494
 51
265.0
  0
ARC
  5
31
100
AcDbEntity
  8
PV
  6
CONTINUOUS
 62
         3
100
AcDbCircle
 10
450.120209
 20
-117.515177
 30
0.0
 40
1.5984
100
AcDbArc
 50
95.0009998
 51
164.506
  0
ARC
  5
32
100
AcDbEntity
  8
PV
  6
CONTINUOUS
 62
         3
100
AcDbCircle
 10
460.132187
 20
-120.290399
 30
0.0
 40
11.988
100
AcDbArc
 50
164.506
 51
195.494
  0
LINE
  5
33
100
AcDbEntity
  8
PV
  6
CONTINUOUS
 62
         3
100
AcDbLine
 10
451.440887
 20
-124.785899
 30
0.0
 11
449.980349
 21
-124.658027
 31
0.0
  0
LINE
  5
34
100
AcDbEntity
  8
PV
  6
CONTINUOUS
 62
         3
100
AcDbLine
 10
451.440887
 20
-115.794899
 30
0.0
 11
449.980349
 21
-115.922771
 31
0.0
  0
LINE
  5
35
100
AcDbEntity
  8
PV
  6
CONTINUOUS
 62
         3
100
AcDbLine
 10
451.440887
 20
-115.794899
 30
0.0
 11
451.440887
 21
-124.785899
 31
0.0
  0
MTEXT
  5
36
100
AcDbEntity
  8
PV
  6
CONTINUOUS
 62
       110
100
AcDbMText
 10
593.0413571325
 20
-181.2873408629
 30
0.0
 40
3.1968002319
 41
0.0
 71
         1
 72
         1
  1
\T1.024;\W1.064;\A1;ADJUSTING HANDLE
  0
CIRCLE
  5
37
100
AcDbEntity
  8
PV
  6
CONTINUOUS
 62
         3
100
AcDbCircle
 10
457.434887
 20
-192.218399
 30
0.0
 40
67.4325
  0
ARC
  5
38
100
AcDbEntity
  8
PV
  6
CONTINUOUS
 62
         3
100
AcDbCircle
 10
457.434887
 20
-164.912732
 30
0.0
 40
5.661333
100
AcDbArc
 50
28.073
 51
151.928
  0
ARC
  5
39
100
AcDbEntity
  8
PV
  6
CONTINUOUS
 62
         3
100
AcDbCircle
 10
457.434887
 20
-179.231399
 30
0.0
 40
14.985
100
AcDbArc
 50
78.4629999
 51
101.537
  0
CIRCLE
  5
3A
100
AcDbEntity
  8
PV
  6
CONTINUOUS
 62
         3
100
AcDbCircle
 10
457.434887
 20
-192.218399
 30
0.0
 40
27.972
  0
ARC
  5
3B
100
AcDbEntity
  8
PV
  6
CONTINUOUS
 62
         3
100
AcDbCircle
 10
457.434887
 20
-125.951732
 30
0.0
 40
5.661333
100
AcDbArc
 50
28.073
 51
151.928
  0
LINE
  5
3C
100
AcDbEntity
  8
PV
  6
CONTINUOUS
 62
         3
100
AcDbLine
 10
452.439887
 20
-162.248399
 30
0.0
 11
451.440887
 21
-162.248399
 31
0.0
  0
LINE
  5
3D
100
AcDbEntity
  8
PV
  6
CONTINUOUS
 62
         3
100
AcDbLine
 10
465.426887
 20
-162.248399
 30
0.0
 11
462.429887
 21
-162.248399
 31
0.0
  0
LINE
  5
3E
100
AcDbEntity
  8
PV
  6
CONTINUOUS
 62
         3
100
AcDbLine
 10
460.431887
 20
-164.549096
 30
0.0
 11
462.429887
 21
-162.248399
 31
0.0
  0
LINE
  5
3F
100
AcDbEntity
  8
PV
  6
CONTINUOUS
 62
         3
100
AcDbLine
 10
452.439887
 20
-162.248399
 30
0.0
 11
454.437887
 21
-164.549096
 31
0.0
  0
LINE
  5
41
100
AcDbEntity
  8
PV
  6
CENTER
 62
         3
100
AcDbLine
 10
446.97236
 20
-159.251399
 30
0.0
 11
469.054256
 21
-159.251399
 31
0.0
  0
LINE
  5
42
100
AcDbEntity
  8
PV
  6
CONTINUOUS
 62
         3
100
AcDbLine
 10
465.426887
 20
-155.255399
 30
0.0
 11
451.440887
 21
-155.255399
 31
0.0
  0
LINE
  5
43
100
AcDbEntity
  8
PV
  6
CONTINUOUS
 62
         3
100
AcDbLine
 10
465.426887
 20
-155.255399
 30
0.0
 11
465.426887
 21
-162.248399
 31
0.0
  0
LINE
  5
44
100
AcDbEntity
  8
PV
  6
CONTINUOUS
 62
         3
100
AcDbLine
 10
451.440887
 20
-157.253399
 30
0.0
 11
451.440887
 21
-164.246399
 31
0.0
  0
LINE
  5
45
100
AcDbEntity
  8
PV
  6
CONTINUOUS
 62
         3
100
AcDbLine
 10
452.439887
 20
-123.287399
 30
0.0
 11
451.440887
 21
-123.287399
 31
0.0
  0
LINE
  5
46
100
AcDbEntity
  8
PV
  6
CONTINUOUS
 62
         3
100
AcDbLine
 10
465.426887
 20
-123.287399
 30
0.0
 11
462.429887
 21
-123.287399
 31
0.0
  0
LINE
  5
47
100
AcDbEntity
  8
PV
  6
CONTINUOUS
 62
         3
100
AcDbLine
 10
461.044274
 20
-124.882802
 30
0.0
 11
462.429887
 21
-123.287399
 31
0.0
  0
LINE
  5
48
100
AcDbEntity
  8
PV
  6
CONTINUOUS
 62
         3
100
AcDbLine
 10
452.439887
 20
-123.287399
 30
0.0
 11
453.8255
 21
-124.882802
 31
0.0
  0
LINE
  5
49
100
AcDbEntity
  8
PV
  6
CENTER
 62
         3
100
AcDbLine
 10
446.97236
 20
-120.290399
 30
0.0
 11
469.054256
 21
-120.290399
 31
0.0
  0
LINE
  5
4A
100
AcDbEntity
  8
PV
  6
CONTINUOUS
 62
         3
100
AcDbLine
 10
465.426887
 20
-116.294399
 30
0.0
 11
451.440887
 21
-116.294399
 31
0.0
  0
LINE
  5
4B
100
AcDbEntity
  8
PV
  6
CONTINUOUS
 62
         3
100
AcDbLine
 10
465.426887
 20
-116.294399
 30
0.0
 11
465.426887
 21
-123.287399
 31
0.0
  0
LINE
  5
4C
100
AcDbEntity
  8
PV
  6
CONTINUOUS
 62
         3
100
AcDbLine
 10
451.440887
 20
-118.292399
 30
0.0
 11
451.440887
 21
-124.637048
 31
0.0
  0
LINE
  5
4D
100
AcDbEntity
  8
PV
  6
CENTER
 62
         3
100
AcDbLine
 10
375.67373
 20
-192.218399
 30
0.0
 11
536.221022
 21
-192.218399
 31
0.0
  0
LINE
  5
4E
100
AcDbEntity
  8
PV
  6
CENTER
 62
         3
100
AcDbLine
 10
457.434887
 20
-114.296399
 30
0.0
 11
457.434887
 21
-271.225313
 31
0.0
  0
LINE
  5
50
100
AcDbEntity
  8
PV
  6
PHANTOM
 62
         3
100
AcDbLine
 10
752.139887
 20
-187.223399
 30
0.0
 11
752.139887
 21
-197.213399
 31
0.0
  0
LINE
  5
51
100
AcDbEntity
  8
PV
  6
PHANTOM
 62
         3
100
AcDbLine
 10
522.369887
 20
-187.223399
 30
0.0
 11
522.369887
 21
-197.213399
 31
0.0
  0
LINE
  5
52
100
AcDbEntity
  8
PV
  6
PHANTOM
 62
         3
100
AcDbLine
 10
522.369887
 20
-197.213399
 30
0.0
 11
752.139887
 21
-197.213399
 31
0.0
  0
LINE
  5
53
100
AcDbEntity
  8
PV
  6
PHANTOM
 62
         3
100
AcDbLine
 10
522.369887
 20
-187.223399
 30
0.0
 11
752.139887
 21
-187.223399
 31
0.0
  0
ARC
  5
54
100
AcDbEntity
  8
PV
  6
CONTINUOUS
 62
         3
100
AcDbCircle
 10
-386.561113
 20
-122.787899
 30
0.0
 40
5.994
100
AcDbArc
 50
90.0000002
 51
123.557
  0
ARC
  5
55
100
AcDbEntity
  8
PV
  6
CONTINUOUS
 62
         3
100
AcDbCircle
 10
-378.569113
 20
-122.787899
 30
0.0
 40
5.994
100
AcDbArc
 50
56.443
 51
90.0000002
  0
CIRCLE
  5
56
100
AcDbEntity
  8
PV
  6
CONTINUOUS
 62
         3
100
AcDbCircle
 10
-345.12559
 20
-229.657922
 30
0.0
 40
6.911082
  0
ARC
  5
57
100
AcDbEntity
  8
PV
  6
CENTER
 62
         3
100
AcDbCircle
 10
-382.565113
 20
-192.218399
 30
0.0
 40
52.947
100
AcDbArc
 50
298.73
 51
331.27
  0
CIRCLE
  5
58
100
AcDbEntity
  8
PV
  6
CONTINUOUS
 62
         3
100
AcDbCircle
 10
-345.12559
 20
-229.657922
 30
0.0
 40
7.992
  0
CIRCLE
  5
59
100
AcDbEntity
  8
PV
  6
CONTINUOUS
 62
         3
100
AcDbCircle
 10
-420.004636
 20
-229.657922
 30
0.0
 40
6.911082
  0
ARC
  5
5A
100
AcDbEntity
  8
PV
  6
CENTER
 62
         3
100
AcDbCircle
 10
-382.565113
 20
-192.218399
 30
0.0
 40
52.947
100
AcDbArc
 50
205.04
 51
241.27
  0
CIRCLE
  5
5B
100
AcDbEntity
  8
PV
  6
CONTINUOUS
 62
         3
100
AcDbCircle
 10
-420.004636
 20
-229.657922
 30
0.0
 40
7.992
  0
CIRCLE
  5
5C
100
AcDbEntity
  8
PV
  6
CONTINUOUS
 62
         3
100
AcDbCircle
 10
-345.12559
 20
-154.778876
 30
0.0
 40
6.911082
  0
ARC
  5
5D
100
AcDbEntity
  8
PV
  6
CENTER
 62
         3
100
AcDbCircle
 10
-382.565113
 20
-192.218399
 30
0.0
 40
52.947
100
AcDbArc
 50
25.173
 51
61.2699998
  0
CIRCLE
  5
5E
100
AcDbEntity
  8
PV
  6
CONTINUOUS
 62
         3
100
AcDbCircle
 10
-345.12559
 20
-154.778876
 30
0.0
 40
7.992
  0
CIRCLE
  5
5F
100
AcDbEntity
  8
PV
  6
CONTINUOUS
 62
         3
100
AcDbCircle
 10
-420.004636
 20
-154.778876
 30
0.0
 40
6.911082
  0
ARC
  5
60
100
AcDbEntity
  8
PV
  6
CONTINUOUS
 62
         3
100
AcDbCircle
 10
-382.565113
 20
-192.218399
 30
0.0
 40
72.927
100
AcDbArc
 50
97.0819997
 51
82.918
  0
ARC
  5
61
100
AcDbEntity
  8
PV
  6
CENTER
 62
         3
100
AcDbCircle
 10
-382.565113
 20
-192.218399
 30
0.0
 40
52.947
100
AcDbArc
 50
118.73
 51
151.27
  0
CIRCLE
  5
62
100
AcDbEntity
  8
PV
  6
CONTINUOUS
 62
         3
100
AcDbCircle
 10
-420.004636
 20
-154.778876
 30
0.0
 40
7.992
  0
CIRCLE
  5
63
100
AcDbEntity
  8
PV
  6
CONTINUOUS
 62
         3
100
AcDbCircle
 10
-382.565113
 20
-192.218399
 30
0.0
 40
66.933
  0
LINE
  5
64
100
AcDbEntity
  8
PV
  6
CONTINUOUS
 62
         3
100
AcDbLine
 10
-386.561113
 20
-116.793899
 30
0.0
 11
-378.569113
 21
-116.793899
 31
0.0
  0
LINE
  5
65
100
AcDbEntity
  8
PV
  6
CONTINUOUS
 62
         3
100
AcDbLine
 10
-373.574113
 20
-117.792899
 30
0.0
 11
-373.574113
 21
-125.891792
 31
0.0
  0
LINE
  5
66
100
AcDbEntity
  8
PV
  6
CONTINUOUS
 62
         3
100
AcDbLine
 10
-391.556113
 20
-117.792899
 30
0.0
 11
-391.556113
 21
-125.891792
 31
0.0
  0
LINE
  5
67
100
AcDbEntity
  8
PV
  6
CENTER
 62
         3
100
AcDbLine
 10
-334.530196
 20
-240.253316
 30
0.0
 11
-355.721983
 21
-219.061529
 31
0.0
  0
LINE
  5
68
100
AcDbEntity
  8
PV
  6
CENTER
 62
         3
100
AcDbLine
 10
-430.601029
 20
-240.253316
 30
0.0
 11
-409.408243
 21
-219.061529
 31
0.0
  0
LINE
  5
69
100
AcDbEntity
  8
PV
  6
CENTER
 62
         3
100
AcDbLine
 10
-334.530196
 20
-144.183482
 30
0.0
 11
-355.721983
 21
-165.375269
 31
0.0
  0
LINE
  5
6A
100
AcDbEntity
  8
PV
  6
CENTER
 62
         3
100
AcDbLine
 10
-430.601029
 20
-144.182483
 30
0.0
 11
-409.408243
 21
-165.375269
 31
0.0
  0
LINE
  5
6B
100
AcDbEntity
  8
PV
  6
CENTER
 62
         3
100
AcDbLine
 10
-382.565113
 20
-108.586115
 30
0.0
 11
-382.565113
 21
-275.107427
 31
0.0
  0
LINE
  5
6C
100
AcDbEntity
  8
PV
  6
CENTER
 62
         3
100
AcDbLine
 10
-464.041555
 20
-192.218399
 30
0.0
 11
-301.684075
 21
-192.218399
 31
0.0
  0
LINE
  5
6D
100
AcDbEntity
  8
PV
  6
CONTINUOUS
 62
         3
100
AcDbLine
 10
-391.556113
 20
-117.792899
 30
0.0
 11
-373.574113
 21
-117.792899
 31
0.0
  0
LINE
  5
6E
100
AcDbEntity
  8
PV
  6
CONTINUOUS
 62
         3
100
AcDbLine
 10
128.073887
 20
-192.218399
 30
0.0
 11
103.59539
 21
-192.218399
 31
0.0
  0
LINE
  5
6F
100
AcDbEntity
  8
PV
  6
CONTINUOUS
 62
         3
100
AcDbLine
 10
207.993887
 20
-206.204399
 30
0.0
 11
193.97492
 21
-206.204399
 31
0.0
  0
LINE
  5
70
100
AcDbEntity
  8
PV
  6
CONTINUOUS
 62
         3
100
AcDbLine
 10
130.071887
 20
-259.151399
 30
0.0
 11
89.7942052
 21
-259.151399
 31
0.0
  0
LINE
  5
71
100
AcDbEntity
  8
PV
  6
CONTINUOUS
 62
         3
100
AcDbLine
 10
17.1229492
 20
-192.218399
 30
0.0
 11
7.91616519
 21
-192.218399
 31
0.0
  0
MTEXT
  5
72
100
AcDbEntity
  8
PV
  6
CONTINUOUS
 62
       110
100
AcDbMText
 10
-19.9681639425
 20
-29.8698003878
 30
0.0
 40
3.9960000515
 41
0.0
 71
         1
 72
         1
  1
\W1.102;\A1;DP030A125+(DP030J)
  0
MTEXT
  5
73
100
AcDbEntity
  8
PV
  6
CONTINUOUS
 62
       110
100
AcDbMText
 10
-19.7442006419
 20
-18.2814003629
 30
0.0
 40
3.1968002319
 41
0.0
 71
         1
 72
         1
  1
\T1.017;\W1.071;\A1;SHOCK DAMPER
  0
MTEXT
  5
74
100
AcDbEntity
  8
PV
  6
CONTINUOUS
 62
       110
100
AcDbMText
 10
-19.7261895166
 20
-7.2924003629
 30
0.0
 40
3.1968002319
 41
0.0
 71
         1
 72
         1
  1
\T1.025;\W1.087;\A1;TSUBAKI
  0
ARC
  5
75
100
AcDbEntity
  8
PV
  6
CONTINUOUS
 62
         3
100
AcDbCircle
 10
-19.2204928
 20
-255.345093
 30
0.0
 40
1.44069412
100
AcDbArc
 50
323.336716
 51
358.80342
  0
ARC
  5
76
100
AcDbEntity
  8
PV
  6
CONTINUOUS
 62
         3
100
AcDbCircle
 10
-20.2787914
 20
-254.578911
 30
0.0
 40
2.74716827
100
AcDbArc
 50
297.909692
 51
323.697992
  0
ARC
  5
77
100
AcDbEntity
  8
PV
  6
CONTINUOUS
 62
         3
100
AcDbCircle
 10
-21.3842467
 20
-253.301229
 30
0.0
 40
4.40997956
100
AcDbArc
 50
277.049202
 51
302.837502
  0
ARC
  5
78
100
AcDbEntity
  8
PV
  6
CONTINUOUS
 62
         3
100
AcDbCircle
 10
-22.5915644
 20
-250.014635
 30
0.0
 40
7.86018756
100
AcDbArc
 50
268.661927
 51
282.853115
  0
ARC
  5
79
100
AcDbEntity
  8
PV
  6
CONTINUOUS
 62
         3
100
AcDbCircle
 10
-22.7695559
 20
-248.139097
 30
0.0
 40
9.73358326
100
AcDbArc
 50
258.517669
 51
269.96729
  0
ARC
  5
7A
100
AcDbEntity
  8
PV
  6
CONTINUOUS
 62
         3
100
AcDbCircle
 10
-22.9356907
 20
-249.910613
 30
0.0
 40
7.96671276
100
AcDbArc
 50
242.961054
 51
257.152242
  0
ARC
  5
7B
100
AcDbEntity
  8
PV
  6
CONTINUOUS
 62
         3
100
AcDbCircle
 10
-24.1739619
 20
-253.307649
 30
0.0
 40
4.40025771
100
AcDbArc
 50
221.187812
 51
237.204504
  0
ARC
  5
7C
100
AcDbEntity
  8
PV
  6
CONTINUOUS
 62
         3
100
AcDbCircle
 10
-26.3297329
 20
-255.345093
 30
0.0
 40
1.44069412
100
AcDbArc
 50
181.19658
 51
216.663284
  0
ARC
  5
7D
100
AcDbEntity
  8
PV
  6
CONTINUOUS
 62
         3
100
AcDbCircle
 10
-26.3281709
 20
-255.404765
 30
0.0
 40
1.44224544
100
AcDbArc
 50
143.357851
 51
178.824555
  0
ARC
  5
7E
100
AcDbEntity
  8
PV
  6
CONTINUOUS
 62
         3
100
AcDbCircle
 10
-25.2736162
 20
-256.170948
 30
0.0
 40
2.74570607
100
AcDbArc
 50
117.874335
 51
143.662635
  0
ARC
  5
7F
100
AcDbEntity
  8
PV
  6
CONTINUOUS
 62
         3
100
AcDbCircle
 10
-24.1637969
 20
-257.44863
 30
0.0
 40
4.41074356
100
AcDbArc
 50
97.0765354
 51
122.864835
  0
ARC
  5
80
100
AcDbEntity
  8
PV
  6
CONTINUOUS
 62
         3
100
AcDbCircle
 10
-22.962674
 20
-260.735224
 30
0.0
 40
7.85978293
100
AcDbArc
 50
88.632598
 51
102.823786
  0
ARC
  5
81
100
AcDbEntity
  8
PV
  6
CONTINUOUS
 62
         3
100
AcDbCircle
 10
-22.7756872
 20
-262.610761
 30
0.0
 40
9.73308219
100
AcDbArc
 50
78.5469978
 51
89.9966186
  0
ARC
  5
82
100
AcDbEntity
  8
PV
  6
CONTINUOUS
 62
         3
100
AcDbCircle
 10
-22.6185477
 20
-260.839246
 30
0.0
 40
7.96809294
100
AcDbArc
 50
62.9337203
 51
77.1249086
  0
ARC
  5
83
100
AcDbEntity
  8
PV
  6
CONTINUOUS
 62
         3
100
AcDbCircle
 10
-21.3727134
 20
-257.44221
 30
0.0
 40
4.39791563
100
AcDbArc
 50
41.2231692
 51
57.2398609
  0
ARC
  5
84
100
AcDbEntity
  8
PV
  6
CONTINUOUS
 62
         3
100
AcDbCircle
 10
-19.7886314
 20
-255.598845
 30
0.0
 40
2.02093375
100
AcDbArc
 50
6.35420044
 51
31.4633944
  0
ARC
  5
85
100
AcDbEntity
  8
PV
  6
CONTINUOUS
 62
         3
100
AcDbCircle
 10
-19.2220548
 20
-129.032033
 30
0.0
 40
1.44224544
100
AcDbArc
 50
323.35785
 51
358.824555
  0
ARC
  5
86
100
AcDbEntity
  8
PV
  6
CONTINUOUS
 62
         3
100
AcDbCircle
 10
-20.2766095
 20
-128.26585
 30
0.0
 40
2.74570607
100
AcDbArc
 50
297.874335
 51
323.662635
  0
ARC
  5
87
100
AcDbEntity
  8
PV
  6
CONTINUOUS
 62
         3
100
AcDbCircle
 10
-21.3864287
 20
-126.988169
 30
0.0
 40
4.41074356
100
AcDbArc
 50
277.076535
 51
302.864836
  0
ARC
  5
88
100
AcDbEntity
  8
PV
  6
CONTINUOUS
 62
         3
100
AcDbCircle
 10
-22.5875516
 20
-123.701574
 30
0.0
 40
7.85978293
100
AcDbArc
 50
268.632598
 51
282.823786
  0
ARC
  5
89
100
AcDbEntity
  8
PV
  6
CONTINUOUS
 62
         3
100
AcDbCircle
 10
-22.7745384
 20
-121.826037
 30
0.0
 40
9.73308219
100
AcDbArc
 50
258.546998
 51
269.996618
  0
ARC
  5
8A
100
AcDbEntity
  8
PV
  6
CONTINUOUS
 62
         3
100
AcDbCircle
 10
-22.9316779
 20
-123.597553
 30
0.0
 40
7.96809294
100
AcDbArc
 50
242.93372
 51
257.124908
  0
ARC
  5
8B
100
AcDbEntity
  8
PV
  6
CONTINUOUS
 62
         3
100
AcDbCircle
 10
-24.1775122
 20
-126.994589
 30
0.0
 40
4.39791563
100
AcDbArc
 50
221.223169
 51
237.239861
  0
ARC
  5
8C
100
AcDbEntity
  8
PV
  6
CONTINUOUS
 62
         3
100
AcDbCircle
 10
-26.3281709
 20
-129.032033
 30
0.0
 40
1.44224544
100
AcDbArc
 50
181.175445
 51
216.64215
  0
ARC
  5
8D
100
AcDbEntity
  8
PV
  6
CONTINUOUS
 62
         3
100
AcDbCircle
 10
-26.3297329
 20
-129.091705
 30
0.0
 40
1.44069412
100
AcDbArc
 50
143.336715
 51
178.80342
  0
ARC
  5
8E
100
AcDbEntity
  8
PV
  6
CONTINUOUS
 62
         3
100
AcDbCircle
 10
-25.2714342
 20
-129.857888
 30
0.0
 40
2.74716827
100
AcDbArc
 50
117.909692
 51
143.697992
  0
ARC
  5
8F
100
AcDbEntity
  8
PV
  6
CONTINUOUS
 62
         3
100
AcDbCircle
 10
-24.1659789
 20
-131.135569
 30
0.0
 40
4.40997956
100
AcDbArc
 50
97.0492025
 51
122.837502
  0
ARC
  5
90
100
AcDbEntity
  8
PV
  6
CONTINUOUS
 62
         3
100
AcDbCircle
 10
-22.9586613
 20
-134.422163
 30
0.0
 40
7.86018756
100
AcDbArc
 50
88.6619266
 51
102.853115
  0
ARC
  5
91
100
AcDbEntity
  8
PV
  6
CONTINUOUS
 62
         3
100
AcDbCircle
 10
-22.7806698
 20
-136.297701
 30
0.0
 40
9.73358326
100
AcDbArc
 50
78.5176687
 51
89.9672895
  0
ARC
  5
92
100
AcDbEntity
  8
PV
  6
CONTINUOUS
 62
         3
100
AcDbCircle
 10
-22.614535
 20
-134.526185
 30
0.0
 40
7.96671276
100
AcDbArc
 50
62.9610538
 51
77.1522421
  0
ARC
  5
93
100
AcDbEntity
  8
PV
  6
CONTINUOUS
 62
         3
100
AcDbCircle
 10
-21.3762638
 20
-131.129149
 30
0.0
 40
4.40025771
100
AcDbArc
 50
41.1878123
 51
57.204504
  0
ARC
  5
94
100
AcDbEntity
  8
PV
  6
CONTINUOUS
 62
         3
100
AcDbCircle
 10
-19.7863884
 20
-129.285785
 30
0.0
 40
2.01875997
100
AcDbArc
 50
6.37533548
 51
31.4845294
  0
CIRCLE
  5
95
100
AcDbEntity
  8
PV
  6
CONTINUOUS
 62
         3
100
AcDbCircle
 10
124.327637
 20
-119.790899
 30
0.0
 40
4.4955
  0
CIRCLE
  5
96
100
AcDbEntity
  8
PV
  6
CONTINUOUS
 62
         3
100
AcDbCircle
 10
284.357447
 20
-158.751899
 30
0.0
 40
4.4955
  0
ARC
  5
97
100
AcDbEntity
  8
PV
  6
CONTINUOUS
 62
         3
100
AcDbCircle
 10
145.742201
 20
-248.802758
 30
0.0
 40
1.857141
100
AcDbArc
 50
26.68
 51
153.32
  0
ARC
  5
98
100
AcDbEntity
  8
PV
  6
CONTINUOUS
 62
         3
100
AcDbCircle
 10
161.726201
 20
-248.802758
 30
0.0
 40
1.857141
100
AcDbArc
 50
26.68
 51
153.32
  0
ARC
  5
99
100
AcDbEntity
  8
PV
  6
CONTINUOUS
 62
         3
100
AcDbCircle
 10
177.710201
 20
-248.802758
 30
0.0
 40
1.857141
100
AcDbArc
 50
26.68
 51
153.32
  0
ARC
  5
9A
100
AcDbEntity
  8
PV
  6
CONTINUOUS
 62
         3
100
AcDbCircle
 10
193.694201
 20
-248.802758
 30
0.0
 40
1.857141
100
AcDbArc
 50
26.68
 51
153.32
  0
ARC
  5
9B
100
AcDbEntity
  8
PV
  6
CONTINUOUS
 62
         3
100
AcDbCircle
 10
209.678201
 20
-248.802758
 30
0.0
 40
1.857141
100
AcDbArc
 50
26.68
 51
153.32
  0
ARC
  5
9C
100
AcDbEntity
  8
PV
  6
CONTINUOUS
 62
         3
100
AcDbCircle
 10
225.662201
 20
-248.802758
 30
0.0
 40
1.857141
100
AcDbArc
 50
26.68
 51
153.32
  0
ARC
  5
9D
100
AcDbEntity
  8
PV
  6
CONTINUOUS
 62
         3
100
AcDbCircle
 10
241.646201
 20
-248.802758
 30
0.0
 40
1.857141
100
AcDbArc
 50
26.68
 51
153.32
  0
ARC
  5
9E
100
AcDbEntity
  8
PV
  6
CONTINUOUS
 62
         3
100
AcDbCircle
 10
257.630201
 20
-248.802758
 30
0.0
 40
1.857141
100
AcDbArc
 50
26.68
 51
153.32
  0
ARC
  5
9F
100
AcDbEntity
  8
PV
  6
CONTINUOUS
 62
         3
100
AcDbCircle
 10
265.622201
 20
-258.901649
 30
0.0
 40
0.74925
100
AcDbArc
 50
206.68
 51
342.167
  0
ARC
  5
A0
100
AcDbEntity
  8
PV
  6
CONTINUOUS
 62
         3
100
AcDbCircle
 10
249.638201
 20
-258.901649
 30
0.0
 40
0.74925
100
AcDbArc
 50
206.68
 51
333.32
  0
ARC
  5
A1
100
AcDbEntity
  8
PV
  6
CONTINUOUS
 62
         3
100
AcDbCircle
 10
233.654201
 20
-258.901649
 30
0.0
 40
0.74925
100
AcDbArc
 50
206.68
 51
333.32
  0
ARC
  5
A2
100
AcDbEntity
  8
PV
  6
CONTINUOUS
 62
         3
100
AcDbCircle
 10
217.670201
 20
-258.901649
 30
0.0
 40
0.74925
100
AcDbArc
 50
206.68
 51
333.32
  0
ARC
  5
A3
100
AcDbEntity
  8
PV
  6
CONTINUOUS
 62
         3
100
AcDbCircle
 10
201.686201
 20
-258.901649
 30
0.0
 40
0.74925
100
AcDbArc
 50
206.68
 51
333.32
  0
ARC
  5
A4
100
AcDbEntity
  8
PV
  6
CONTINUOUS
 62
         3
100
AcDbCircle
 10
185.702201
 20
-258.901649
 30
0.0
 40
0.74925
100
AcDbArc
 50
206.68
 51
333.32
  0
ARC
  5
A5
100
AcDbEntity
  8
PV
  6
CONTINUOUS
 62
         3
100
AcDbCircle
 10
169.718201
 20
-258.901649
 30
0.0
 40
0.74925
100
AcDbArc
 50
206.68
 51
333.32
  0
ARC
  5
A6
100
AcDbEntity
  8
PV
  6
CONTINUOUS
 62
         3
100
AcDbCircle
 10
153.734201
 20
-258.901649
 30
0.0
 40
0.74925
100
AcDbArc
 50
206.68
 51
333.32
  0
ARC
  5
A7
100
AcDbEntity
  8
PV
  6
CONTINUOUS
 62
         3
100
AcDbCircle
 10
137.750201
 20
-258.901649
 30
0.0
 40
0.74925
100
AcDbArc
 50
266.267
 51
333.32
  0
ARC
  5
A8
100
AcDbEntity
  8
PV
  6
CONTINUOUS
 62
         3
100
AcDbCircle
 10
145.742201
 20
-135.63404
 30
0.0
 40
1.857141
100
AcDbArc
 50
206.68
 51
333.32
  0
ARC
  5
A9
100
AcDbEntity
  8
PV
  6
CONTINUOUS
 62
         3
100
AcDbCircle
 10
161.726201
 20
-135.63404
 30
0.0
 40
1.857141
100
AcDbArc
 50
206.68
 51
333.32
  0
ARC
  5
AA
100
AcDbEntity
  8
PV
  6
CONTINUOUS
 62
         3
100
AcDbCircle
 10
177.710201
 20
-135.63404
 30
0.0
 40
1.857141
100
AcDbArc
 50
206.68
 51
333.32
  0
ARC
  5
AB
100
AcDbEntity
  8
PV
  6
CONTINUOUS
 62
         3
100
AcDbCircle
 10
193.694201
 20
-135.63404
 30
0.0
 40
1.857141
100
AcDbArc
 50
206.68
 51
333.32
  0
ARC
  5
AC
100
AcDbEntity
  8
PV
  6
CONTINUOUS
 62
         3
100
AcDbCircle
 10
209.678201
 20
-135.63404
 30
0.0
 40
1.857141
100
AcDbArc
 50
206.68
 51
333.32
  0
ARC
  5
AD
100
AcDbEntity
  8
PV
  6
CONTINUOUS
 62
         3
100
AcDbCircle
 10
225.662201
 20
-135.63404
 30
0.0
 40
1.857141
100
AcDbArc
 50
206.68
 51
333.32
  0
ARC
  5
AE
100
AcDbEntity
  8
PV
  6
CONTINUOUS
 62
         3
100
AcDbCircle
 10
241.646201
 20
-135.63404
 30
0.0
 40
1.857141
100
AcDbArc
 50
206.68
 51
333.32
  0
ARC
  5
AF
100
AcDbEntity
  8
PV
  6
CONTINUOUS
 62
         3
100
AcDbCircle
 10
257.630201
 20
-135.63404
 30
0.0
 40
1.857141
100
AcDbArc
 50
206.68
 51
333.32
  0
ARC
  5
B0
100
AcDbEntity
  8
PV
  6
CONTINUOUS
 62
         3
100
AcDbCircle
 10
265.622201
 20
-125.535149
 30
0.0
 40
0.74925
100
AcDbArc
 50
17.833
 51
153.32
  0
ARC
  5
B1
100
AcDbEntity
  8
PV
  6
CONTINUOUS
 62
         3
100
AcDbCircle
 10
249.638201
 20
-125.535149
 30
0.0
 40
0.74925
100
AcDbArc
 50
26.68
 51
153.32
  0
ARC
  5
B2
100
AcDbEntity
  8
PV
  6
CONTINUOUS
 62
         3
100
AcDbCircle
 10
233.654201
 20
-125.535149
 30
0.0
 40
0.74925
100
AcDbArc
 50
26.68
 51
153.32
  0
ARC
  5
B3
100
AcDbEntity
  8
PV
  6
CONTINUOUS
 62
         3
100
AcDbCircle
 10
217.670201
 20
-125.535149
 30
0.0
 40
0.74925
100
AcDbArc
 50
26.68
 51
153.32
  0
ARC
  5
B4
100
AcDbEntity
  8
PV
  6
CONTINUOUS
 62
         3
100
AcDbCircle
 10
201.686201
 20
-125.535149
 30
0.0
 40
0.74925
100
AcDbArc
 50
26.68
 51
153.32
  0
ARC
  5
B5
100
AcDbEntity
  8
PV
  6
CONTINUOUS
 62
         3
100
AcDbCircle
 10
185.702201
 20
-125.535149
 30
0.0
 40
0.74925
100
AcDbArc
 50
26.68
 51
153.32
  0
ARC
  5
B6
100
AcDbEntity
  8
PV
  6
CONTINUOUS
 62
         3
100
AcDbCircle
 10
169.718201
 20
-125.535149
 30
0.0
 40
0.74925
100
AcDbArc
 50
26.68
 51
153.32
  0
ARC
  5
B7
100
AcDbEntity
  8
PV
  6
CONTINUOUS
 62
         3
100
AcDbCircle
 10
153.734201
 20
-125.535149
 30
0.0
 40
0.74925
100
AcDbArc
 50
26.68
 51
153.32
  0
ARC
  5
B8
100
AcDbEntity
  8
PV
  6
CONTINUOUS
 62
         3
100
AcDbCircle
 10
137.750201
 20
-125.535149
 30
0.0
 40
0.74925
100
AcDbArc
 50
26.68
 51
93.7330001
  0
ARC
  5
B9
100
AcDbEntity
  8
PV
  6
CONTINUOUS
 62
         3
100
AcDbCircle
 10
224.976887
 20
-192.218399
 30
0.0
 40
79.92
100
AcDbArc
 50
339.513
 51
20.487
  0
ARC
  5
BA
100
AcDbEntity
  8
PV
  6
CONTINUOUS
 62
         3
100
AcDbCircle
 10
69.9320872
 20
-127.283399
 30
0.0
 40
2.4975
100
AcDbArc
 50
11.537
 51
168.463
  0
ARC
  5
BB
100
AcDbEntity
  8
PV
  6
CONTINUOUS
 62
         3
100
AcDbCircle
 10
94.1078872
 20
-125.285399
 30
0.0
 40
2.997
100
AcDbArc
 50
9.59399997
 51
170.406
  0
ARC
  5
BC
100
AcDbEntity
  8
PV
  6
CONTINUOUS
 62
         3
100
AcDbCircle
 10
-26.7711128
 20
-122.787899
 30
0.0
 40
5.994
100
AcDbArc
 50
90.0000002
 51
144.315
  0
ARC
  5
BD
100
AcDbEntity
  8
PV
  6
CONTINUOUS
 62
         3
100
AcDbCircle
 10
-18.7791128
 20
-122.787899
 30
0.0
 40
5.994
100
AcDbArc
 50
35.685
 51
90.0000002
  0
CIRCLE
  5
BE
100
AcDbEntity
  8
PV
  6
CONTINUOUS
 62
         3
100
AcDbCircle
 10
-22.7751128
 20
-192.218399
 30
0.0
 40
4.995
  0
LINE
  5
BF
100
AcDbEntity
  8
PV
  6
CONTINUOUS
 62
         3
100
AcDbLine
 10
118.833137
 20
-125.285399
 30
0.0
 11
130.071887
 21
-125.285399
 31
0.0
  0
LINE
  5
C0
100
AcDbEntity
  8
PV
  6
CONTINUOUS
 62
         3
100
AcDbLine
 10
128.823137
 20
-124.286399
 30
0.0
 11
128.823137
 21
-124.785899
 31
0.0
  0
LINE
  5
C1
100
AcDbEntity
  8
PV
  6
CONTINUOUS
 62
         3
100
AcDbLine
 10
119.832137
 20
-124.286399
 30
0.0
 11
119.832137
 21
-124.785899
 31
0.0
  0
LINE
  5
C2
100
AcDbEntity
  8
PV
  6
CONTINUOUS
 62
         3
100
AcDbLine
 10
119.332637
 20
-124.493192
 30
0.0
 11
119.332637
 21
-124.785899
 31
0.0
  0
LINE
  5
C3
100
AcDbEntity
  8
PV
  6
CONTINUOUS
 62
         3
100
AcDbLine
 10
129.322637
 20
-124.493192
 30
0.0
 11
129.322637
 21
-124.785899
 31
0.0
  0
LINE
  5
C4
100
AcDbEntity
  8
PV
  6
CONTINUOUS
 62
         3
100
AcDbLine
 10
129.322637
 20
-124.493192
 30
0.0
 11
127.613348
 21
-122.783903
 31
0.0
  0
LINE
  5
C5
100
AcDbEntity
  8
PV
  6
CONTINUOUS
 62
         3
100
AcDbLine
 10
119.332637
 20
-124.493192
 30
0.0
 11
121.041926
 21
-122.783903
 31
0.0
  0
LINE
  5
C6
100
AcDbEntity
  8
PV
  6
CONTINUOUS
 62
         3
100
AcDbLine
 10
119.832137
 20
-124.286399
 30
0.0
 11
128.823137
 21
-124.286399
 31
0.0
  0
LINE
  5
C7
100
AcDbEntity
  8
PV
  6
CONTINUOUS
 62
         3
100
AcDbLine
 10
119.332637
 20
-124.785899
 30
0.0
 11
129.322637
 21
-124.785899
 31
0.0
  0
LINE
  5
C8
100
AcDbEntity
  8
PV
  6
CENTER
 62
         3
100
AcDbLine
 10
118.333637
 20
-119.790899
 30
0.0
 11
130.321637
 21
-119.790899
 31
0.0
  0
LINE
  5
C9
100
AcDbEntity
  8
PV
  6
CENTER
 62
         3
100
AcDbLine
 10
124.327637
 20
-126.284399
 30
0.0
 11
124.327637
 21
-113.289407
 31
0.0
  0
LINE
  5
CA
100
AcDbEntity
  8
PV
  6
CONTINUOUS
 62
         3
100
AcDbLine
 10
129.822137
 20
-124.286399
 30
0.0
 11
129.822137
 21
-125.285399
 31
0.0
  0
LINE
  5
CB
100
AcDbEntity
  8
PV
  6
CONTINUOUS
 62
         3
100
AcDbLine
 10
129.822137
 20
-124.286399
 30
0.0
 11
127.965995
 21
-122.430257
 31
0.0
  0
LINE
  5
CC
100
AcDbEntity
  8
PV
  6
CONTINUOUS
 62
         3
100
AcDbLine
 10
118.833137
 20
-124.286399
 30
0.0
 11
120.689279
 21
-122.430257
 31
0.0
  0
LINE
  5
CD
100
AcDbEntity
  8
PV
  6
CONTINUOUS
 62
         3
100
AcDbLine
 10
124.327637
 20
-118.66103
 30
0.0
 11
126.891071
 21
-116.097596
 31
0.0
  0
LINE
  5
CE
100
AcDbEntity
  8
PV
  6
CONTINUOUS
 62
         3
100
AcDbLine
 10
125.457506
 20
-119.790899
 30
0.0
 11
128.02094
 21
-117.227465
 31
0.0
  0
LINE
  5
CF
100
AcDbEntity
  8
PV
  6
CONTINUOUS
 62
         3
100
AcDbLine
 10
124.327637
 20
-118.66103
 30
0.0
 11
123.479486
 21
-117.812879
 31
0.0
  0
LINE
  5
D0
100
AcDbEntity
  8
PV
  6
CONTINUOUS
 62
         3
100
AcDbLine
 10
123.197768
 20
-119.790899
 30
0.0
 11
122.349617
 21
-118.942748
 31
0.0
  0
LINE
  5
D1
100
AcDbEntity
  8
PV
  6
CONTINUOUS
 62
         3
100
AcDbLine
 10
125.175788
 20
-121.768919
 30
0.0
 11
126.305657
 21
-120.63905
 31
0.0
  0
LINE
  5
D2
100
AcDbEntity
  8
PV
  6
CONTINUOUS
 62
         3
100
AcDbLine
 10
122.349617
 20
-118.942748
 30
0.0
 11
123.479486
 21
-117.812879
 31
0.0
  0
LINE
  5
D3
100
AcDbEntity
  8
PV
  6
CONTINUOUS
 62
         3
100
AcDbLine
 10
121.764203
 20
-123.484202
 30
0.0
 11
124.327637
 21
-120.920768
 31
0.0
  0
LINE
  5
D4
100
AcDbEntity
  8
PV
  6
CONTINUOUS
 62
         3
100
AcDbLine
 10
120.634334
 20
-122.354333
 30
0.0
 11
123.197768
 21
-119.790899
 31
0.0
  0
LINE
  5
D5
100
AcDbEntity
  8
PV
  6
CONTINUOUS
 62
         3
100
AcDbLine
 10
126.305657
 20
-120.63905
 30
0.0
 11
125.457506
 21
-119.790899
 31
0.0
  0
LINE
  5
D6
100
AcDbEntity
  8
PV
  6
CONTINUOUS
 62
         3
100
AcDbLine
 10
125.175788
 20
-121.768919
 30
0.0
 11
124.327637
 21
-120.920768
 31
0.0
  0
LINE
  5
D7
100
AcDbEntity
  8
PV
  6
CONTINUOUS
 62
         3
100
AcDbLine
 10
118.833137
 20
-124.286399
 30
0.0
 11
118.833137
 21
-125.285399
 31
0.0
  0
LINE
  5
D8
100
AcDbEntity
  8
PV
  6
CONTINUOUS
 62
         3
100
AcDbLine
 10
130.071887
 20
-125.285399
 30
0.0
 11
130.071887
 21
-124.785899
 31
0.0
  0
LINE
  5
D9
100
AcDbEntity
  8
PV
  6
CONTINUOUS
 62
         3
100
AcDbLine
 10
122.079887
 20
-125.285399
 30
0.0
 11
130.071887
 21
-125.285399
 31
0.0
  0
LINE
  5
DA
100
AcDbEntity
  8
PV
  6
CONTINUOUS
 62
         3
100
AcDbLine
 10
288.852947
 20
-163.247399
 30
0.0
 11
288.852947
 21
-163.746899
 31
0.0
  0
LINE
  5
DB
100
AcDbEntity
  8
PV
  6
CONTINUOUS
 62
         3
100
AcDbLine
 10
279.861947
 20
-163.247399
 30
0.0
 11
279.861947
 21
-163.746899
 31
0.0
  0
LINE
  5
DC
100
AcDbEntity
  8
PV
  6
CONTINUOUS
 62
         3
100
AcDbLine
 10
279.362447
 20
-163.454192
 30
0.0
 11
279.362447
 21
-163.746899
 31
0.0
  0
LINE
  5
DD
100
AcDbEntity
  8
PV
  6
CONTINUOUS
 62
         3
100
AcDbLine
 10
289.352447
 20
-163.454192
 30
0.0
 11
289.352447
 21
-163.746899
 31
0.0
  0
LINE
  5
DE
100
AcDbEntity
  8
PV
  6
CONTINUOUS
 62
         3
100
AcDbLine
 10
289.352447
 20
-163.454192
 30
0.0
 11
287.643158
 21
-161.744903
 31
0.0
  0
LINE
  5
DF
100
AcDbEntity
  8
PV
  6
CONTINUOUS
 62
         3
100
AcDbLine
 10
279.362447
 20
-163.454192
 30
0.0
 11
281.071736
 21
-161.744903
 31
0.0
  0
LINE
  5
E0
100
AcDbEntity
  8
PV
  6
CONTINUOUS
 62
         3
100
AcDbLine
 10
279.861947
 20
-163.247399
 30
0.0
 11
288.852947
 21
-163.247399
 31
0.0
  0
LINE
  5
E1
100
AcDbEntity
  8
PV
  6
CONTINUOUS
 62
         3
100
AcDbLine
 10
279.362447
 20
-163.746899
 30
0.0
 11
289.352447
 21
-163.746899
 31
0.0
  0
LINE
  5
E2
100
AcDbEntity
  8
PV
  6
CENTER
 62
         3
100
AcDbLine
 10
278.363447
 20
-158.751899
 30
0.0
 11
290.351447
 21
-158.751899
 31
0.0
  0
LINE
  5
E3
100
AcDbEntity
  8
PV
  6
CENTER
 62
         3
100
AcDbLine
 10
284.357447
 20
-165.245399
 30
0.0
 11
284.357447
 21
-152.250407
 31
0.0
  0
LINE
  5
E4
100
AcDbEntity
  8
PV
  6
CONTINUOUS
 62
         3
100
AcDbLine
 10
289.851947
 20
-163.247399
 30
0.0
 11
289.851947
 21
-164.246399
 31
0.0
  0
LINE
  5
E5
100
AcDbEntity
  8
PV
  6
CONTINUOUS
 62
         3
100
AcDbLine
 10
289.851947
 20
-163.247399
 30
0.0
 11
287.995805
 21
-161.391257
 31
0.0
  0
LINE
  5
E6
100
AcDbEntity
  8
PV
  6
CONTINUOUS
 62
         3
100
AcDbLine
 10
278.862947
 20
-163.247399
 30
0.0
 11
280.71809
 21
-161.391257
 31
0.0
  0
LINE
  5
E7
100
AcDbEntity
  8
PV
  6
CONTINUOUS
 62
         3
100
AcDbLine
 10
284.357447
 20
-157.62203
 30
0.0
 11
286.920881
 21
-155.058596
 31
0.0
  0
LINE
  5
E8
100
AcDbEntity
  8
PV
  6
CONTINUOUS
 62
         3
100
AcDbLine
 10
285.487316
 20
-158.751899
 30
0.0
 11
288.05075
 21
-156.188465
 31
0.0
  0
LINE
  5
E9
100
AcDbEntity
  8
PV
  6
CONTINUOUS
 62
         3
100
AcDbLine
 10
284.357447
 20
-157.62203
 30
0.0
 11
283.509296
 21
-156.773879
 31
0.0
  0
LINE
  5
EA
100
AcDbEntity
  8
PV
  6
CONTINUOUS
 62
         3
100
AcDbLine
 10
283.227578
 20
-158.751899
 30
0.0
 11
282.379427
 21
-157.904747
 31
0.0
  0
LINE
  5
EB
100
AcDbEntity
  8
PV
  6
CONTINUOUS
 62
         3
100
AcDbLine
 10
285.204599
 20
-160.729919
 30
0.0
 11
286.335467
 21
-159.60005
 31
0.0
  0
LINE
  5
EC
100
AcDbEntity
  8
PV
  6
CONTINUOUS
 62
         3
100
AcDbLine
 10
282.379427
 20
-157.904747
 30
0.0
 11
283.509296
 21
-156.773879
 31
0.0
  0
LINE
  5
ED
100
AcDbEntity
  8
PV
  6
CONTINUOUS
 62
         3
100
AcDbLine
 10
281.794013
 20
-162.445202
 30
0.0
 11
284.357447
 21
-159.881768
 31
0.0
  0
LINE
  5
EE
100
AcDbEntity
  8
PV
  6
CONTINUOUS
 62
         3
100
AcDbLine
 10
280.664144
 20
-161.315333
 30
0.0
 11
283.227578
 21
-158.751899
 31
0.0
  0
LINE
  5
EF
100
AcDbEntity
  8
PV
  6
CONTINUOUS
 62
         3
100
AcDbLine
 10
286.335467
 20
-159.60005
 30
0.0
 11
285.487316
 21
-158.751899
 31
0.0
  0
LINE
  5
F0
100
AcDbEntity
  8
PV
  6
CONTINUOUS
 62
         3
100
AcDbLine
 10
285.204599
 20
-160.729919
 30
0.0
 11
284.357447
 21
-159.881768
 31
0.0
  0
LINE
  5
F1
100
AcDbEntity
  8
PV
  6
CONTINUOUS
 62
         3
100
AcDbLine
 10
278.862947
 20
-163.247399
 30
0.0
 11
278.862947
 21
-164.246399
 31
0.0
  0
LINE
  5
F2
100
AcDbEntity
  8
PV
  6
CONTINUOUS
 62
         3
100
AcDbLine
 10
128.073887
 20
-260.150399
 30
0.0
 11
120.081887
 21
-260.150399
 31
0.0
  0
LINE
  5
F3
100
AcDbEntity
  8
PV
  6
CONTINUOUS
 62
         3
100
AcDbLine
 10
278.862947
 20
-220.190399
 30
0.0
 11
278.862947
 21
-221.189399
 31
0.0
  0
LINE
  5
F4
100
AcDbEntity
  8
PV
  6
CONTINUOUS
 62
         3
100
AcDbLine
 10
286.854947
 20
-220.190399
 30
0.0
 11
286.854947
 21
-221.189399
 31
0.0
  0
LINE
  5
F5
100
AcDbEntity
  8
PV
  6
CONTINUOUS
 62
         3
100
AcDbLine
 10
286.854947
 20
-221.189399
 30
0.0
 11
278.862947
 21
-221.189399
 31
0.0
  0
LINE
  5
F6
100
AcDbEntity
  8
PV
  6
CONTINUOUS
 62
         3
100
AcDbLine
 10
128.073887
 20
-125.285399
 30
0.0
 11
130.071887
 21
-125.285399
 31
0.0
  0
LINE
  5
F7
100
AcDbEntity
  8
PV
  6
CONTINUOUS
 62
         3
100
AcDbLine
 10
120.081887
 20
-259.151399
 30
0.0
 11
130.071887
 21
-259.151399
 31
0.0
  0
LINE
  5
F8
100
AcDbEntity
  8
PV
  6
CONTINUOUS
 62
         3
100
AcDbLine
 10
130.071887
 20
-259.151399
 30
0.0
 11
137.702249
 21
-259.648901
 31
0.0
  0
LINE
  5
F9
100
AcDbEntity
  8
PV
  6
CONTINUOUS
 62
         3
100
AcDbLine
 10
278.862947
 20
-220.190399
 30
0.0
 11
266.335487
 21
-259.131419
 31
0.0
  0
LINE
  5
FA
100
AcDbEntity
  8
PV
  6
CONTINUOUS
 62
         3
100
AcDbLine
 10
255.970862
 20
-247.968593
 30
0.0
 11
250.30853
 21
-259.238312
 31
0.0
  0
LINE
  5
FB
100
AcDbEntity
  8
PV
  6
CONTINUOUS
 62
         3
100
AcDbLine
 10
259.290539
 20
-247.968593
 30
0.0
 11
264.952871
 21
-259.238312
 31
0.0
  0
LINE
  5
FC
100
AcDbEntity
  8
PV
  6
CONTINUOUS
 62
         3
100
AcDbLine
 10
239.986862
 20
-247.968593
 30
0.0
 11
234.32453
 21
-259.238312
 31
0.0
  0
LINE
  5
FD
100
AcDbEntity
  8
PV
  6
CONTINUOUS
 62
         3
100
AcDbLine
 10
243.306539
 20
-247.968593
 30
0.0
 11
248.968871
 21
-259.238312
 31
0.0
  0
LINE
  5
FE
100
AcDbEntity
  8
PV
  6
CONTINUOUS
 62
         3
100
AcDbLine
 10
227.322539
 20
-247.968593
 30
0.0
 11
232.984871
 21
-259.238312
 31
0.0
  0
LINE
  5
FF
100
AcDbEntity
  8
PV
  6
CONTINUOUS
 62
         3
100
AcDbLine
 10
224.002862
 20
-247.968593
 30
0.0
 11
218.34053
 21
-259.238312
 31
0.0
  0
LINE
  5
100
100
AcDbEntity
  8
PV
  6
CONTINUOUS
 62
         3
100
AcDbLine
 10
160.066862
 20
-247.968593
 30
0.0
 11
154.40453
 21
-259.238312
 31
0.0
  0
LINE
  5
101
100
AcDbEntity
  8
PV
  6
CONTINUOUS
 62
         3
100
AcDbLine
 10
208.018862
 20
-247.968593
 30
0.0
 11
202.35653
 21
-259.238312
 31
0.0
  0
LINE
  5
102
100
AcDbEntity
  8
PV
  6
CONTINUOUS
 62
         3
100
AcDbLine
 10
211.338539
 20
-247.968593
 30
0.0
 11
217.000871
 21
-259.238312
 31
0.0
  0
LINE
  5
103
100
AcDbEntity
  8
PV
  6
CONTINUOUS
 62
         3
100
AcDbLine
 10
192.034862
 20
-247.968593
 30
0.0
 11
186.37253
 21
-259.238312
 31
0.0
  0
LINE
  5
104
100
AcDbEntity
  8
PV
  6
CONTINUOUS
 62
         3
100
AcDbLine
 10
195.354539
 20
-247.968593
 30
0.0
 11
201.016871
 21
-259.238312
 31
0.0
  0
LINE
  5
105
100
AcDbEntity
  8
PV
  6
CONTINUOUS
 62
         3
100
AcDbLine
 10
179.370539
 20
-247.968593
 30
0.0
 11
185.032871
 21
-259.238312
 31
0.0
  0
LINE
  5
106
100
AcDbEntity
  8
PV
  6
CONTINUOUS
 62
         3
100
AcDbLine
 10
176.050862
 20
-247.968593
 30
0.0
 11
170.38853
 21
-259.238312
 31
0.0
  0
LINE
  5
107
100
AcDbEntity
  8
PV
  6
CONTINUOUS
 62
         3
100
AcDbLine
 10
163.386539
 20
-247.968593
 30
0.0
 11
169.048871
 21
-259.238312
 31
0.0
  0
LINE
  5
108
100
AcDbEntity
  8
PV
  6
CONTINUOUS
 62
         3
100
AcDbLine
 10
144.082862
 20
-247.968593
 30
0.0
 11
138.42053
 21
-259.238312
 31
0.0
  0
LINE
  5
109
100
AcDbEntity
  8
PV
  6
CONTINUOUS
 62
         3
100
AcDbLine
 10
147.402539
 20
-247.968593
 30
0.0
 11
153.064871
 21
-259.238312
 31
0.0
  0
LINE
  5
10A
100
AcDbEntity
  8
PV
  6
CONTINUOUS
 62
         3
100
AcDbLine
 10
137.702249
 20
-124.787897
 30
0.0
 11
130.071887
 21
-125.285399
 31
0.0
  0
LINE
  5
10B
100
AcDbEntity
  8
PV
  6
CONTINUOUS
 62
         3
100
AcDbLine
 10
266.335487
 20
-125.305379
 30
0.0
 11
278.862947
 21
-164.246399
 31
0.0
  0
LINE
  5
10C
100
AcDbEntity
  8
PV
  6
CONTINUOUS
 62
         3
100
AcDbLine
 10
250.30853
 20
-125.198486
 30
0.0
 11
255.970862
 21
-136.468205
 31
0.0
  0
LINE
  5
10D
100
AcDbEntity
  8
PV
  6
CONTINUOUS
 62
         3
100
AcDbLine
 10
264.952871
 20
-125.198486
 30
0.0
 11
259.290539
 21
-136.468205
 31
0.0
  0
LINE
  5
10E
100
AcDbEntity
  8
PV
  6
CONTINUOUS
 62
         3
100
AcDbLine
 10
234.32453
 20
-125.198486
 30
0.0
 11
239.986862
 21
-136.468205
 31
0.0
  0
LINE
  5
10F
100
AcDbEntity
  8
PV
  6
CONTINUOUS
 62
         3
100
AcDbLine
 10
248.968871
 20
-125.198486
 30
0.0
 11
243.306539
 21
-136.468205
 31
0.0
  0
LINE
  5
110
100
AcDbEntity
  8
PV
  6
CONTINUOUS
 62
         3
100
AcDbLine
 10
232.984871
 20
-125.198486
 30
0.0
 11
227.322539
 21
-136.468205
 31
0.0
  0
LINE
  5
111
100
AcDbEntity
  8
PV
  6
CONTINUOUS
 62
         3
100
AcDbLine
 10
218.34053
 20
-125.198486
 30
0.0
 11
224.002862
 21
-136.468205
 31
0.0
  0
LINE
  5
112
100
AcDbEntity
  8
PV
  6
CONTINUOUS
 62
         3
100
AcDbLine
 10
154.40453
 20
-125.198486
 30
0.0
 11
160.066862
 21
-136.468205
 31
0.0
  0
LINE
  5
113
100
AcDbEntity
  8
PV
  6
CONTINUOUS
 62
         3
100
AcDbLine
 10
202.35653
 20
-125.198486
 30
0.0
 11
208.018862
 21
-136.468205
 31
0.0
  0
LINE
  5
114
100
AcDbEntity
  8
PV
  6
CONTINUOUS
 62
         3
100
AcDbLine
 10
217.000871
 20
-125.198486
 30
0.0
 11
211.338539
 21
-136.468205
 31
0.0
  0
LINE
  5
115
100
AcDbEntity
  8
PV
  6
CONTINUOUS
 62
         3
100
AcDbLine
 10
186.37253
 20
-125.198486
 30
0.0
 11
192.034862
 21
-136.468205
 31
0.0
  0
LINE
  5
116
100
AcDbEntity
  8
PV
  6
CONTINUOUS
 62
         3
100
AcDbLine
 10
201.016871
 20
-125.198486
 30
0.0
 11
195.354539
 21
-136.468205
 31
0.0
  0
LINE
  5
117
100
AcDbEntity
  8
PV
  6
CONTINUOUS
 62
         3
100
AcDbLine
 10
185.032871
 20
-125.198486
 30
0.0
 11
179.370539
 21
-136.468205
 31
0.0
  0
LINE
  5
118
100
AcDbEntity
  8
PV
  6
CONTINUOUS
 62
         3
100
AcDbLine
 10
170.38853
 20
-125.198486
 30
0.0
 11
176.050862
 21
-136.468205
 31
0.0
  0
LINE
  5
119
100
AcDbEntity
  8
PV
  6
CONTINUOUS
 62
         3
100
AcDbLine
 10
169.048871
 20
-125.198486
 30
0.0
 11
163.386539
 21
-136.468205
 31
0.0
  0
LINE
  5
11A
100
AcDbEntity
  8
PV
  6
CONTINUOUS
 62
         3
100
AcDbLine
 10
138.42053
 20
-125.198486
 30
0.0
 11
144.082862
 21
-136.468205
 31
0.0
  0
LINE
  5
11B
100
AcDbEntity
  8
PV
  6
CONTINUOUS
 62
         3
100
AcDbLine
 10
153.064871
 20
-125.198486
 30
0.0
 11
147.402539
 21
-136.468205
 31
0.0
  0
LINE
  5
11C
100
AcDbEntity
  8
PV
  6
CONTINUOUS
 62
         3
100
AcDbLine
 10
128.073887
 20
-259.151399
 30
0.0
 11
128.073887
 21
-260.150399
 31
0.0
  0
LINE
  5
11D
100
AcDbEntity
  8
PV
  6
CONTINUOUS
 62
         3
100
AcDbLine
 10
120.081887
 20
-259.151399
 30
0.0
 11
120.081887
 21
-260.150399
 31
0.0
  0
LINE
  5
11E
100
AcDbEntity
  8
PV
  6
CONTINUOUS
 62
         3
100
AcDbLine
 10
130.071887
 20
-257.153399
 30
0.0
 11
128.073887
 21
-259.151399
 31
0.0
  0
LINE
  5
11F
100
AcDbEntity
  8
PV
  6
CENTER
 62
         3
100
AcDbLine
 10
-22.7751128
 20
-249.131429
 30
0.0
 11
-22.7751128
 21
-261.618929
 31
0.0
  0
LINE
  5
120
100
AcDbEntity
  8
PV
  6
CENTER
 62
         3
100
AcDbLine
 10
-22.7751128
 20
-182.228399
 30
0.0
 11
-22.7751128
 21
-202.208399
 31
0.0
  0
LINE
  5
121
100
AcDbEntity
  8
PV
  6
CONTINUOUS
 62
         3
100
AcDbLine
 10
134.067887
 20
-157.984667
 30
0.0
 11
145.056887
 21
-177.004628
 31
0.0
  0
LINE
  5
122
100
AcDbEntity
  8
PV
  6
CONTINUOUS
 62
         3
100
AcDbLine
 10
134.067887
 20
-177.004628
 30
0.0
 11
145.056887
 21
-157.983668
 31
0.0
  0
LINE
  5
123
100
AcDbEntity
  8
PV
  6
CONTINUOUS
 62
         3
100
AcDbLine
 10
134.067887
 20
-177.004628
 30
0.0
 11
134.067887
 21
-157.984667
 31
0.0
  0
LINE
  5
124
100
AcDbEntity
  8
PV
  6
CONTINUOUS
 62
         3
100
AcDbLine
 10
134.067887
 20
-177.004628
 30
0.0
 11
145.056887
 21
-177.004628
 31
0.0
  0
LINE
  5
125
100
AcDbEntity
  8
PV
  6
CONTINUOUS
 62
         3
100
AcDbLine
 10
134.067887
 20
-157.984667
 30
0.0
 11
145.056887
 21
-157.984667
 31
0.0
  0
LINE
  5
126
100
AcDbEntity
  8
PV
  6
CONTINUOUS
 62
         3
100
AcDbLine
 10
134.067887
 20
-226.452131
 30
0.0
 11
145.056887
 21
-207.43217
 31
0.0
  0
LINE
  5
127
100
AcDbEntity
  8
PV
  6
CONTINUOUS
 62
         3
100
AcDbLine
 10
134.067887
 20
-207.43217
 30
0.0
 11
145.056887
 21
-226.45313
 31
0.0
  0
LINE
  5
128
100
AcDbEntity
  8
PV
  6
CONTINUOUS
 62
         3
100
AcDbLine
 10
134.067887
 20
-207.43217
 30
0.0
 11
134.067887
 21
-226.452131
 31
0.0
  0
LINE
  5
129
100
AcDbEntity
  8
PV
  6
CONTINUOUS
 62
         3
100
AcDbLine
 10
134.067887
 20
-207.43217
 30
0.0
 11
145.056887
 21
-207.43217
 31
0.0
  0
LINE
  5
12A
100
AcDbEntity
  8
PV
  6
CONTINUOUS
 62
         3
100
AcDbLine
 10
134.067887
 20
-226.452131
 30
0.0
 11
145.056887
 21
-226.452131
 31
0.0
  0
LINE
  5
12B
100
AcDbEntity
  8
PV
  6
CONTINUOUS
 62
         3
100
AcDbLine
 10
299.841947
 20
-164.246399
 30
0.0
 11
299.841947
 21
-220.190399
 31
0.0
  0
LINE
  5
12C
100
AcDbEntity
  8
PV
  6
CONTINUOUS
 62
         3
100
AcDbLine
 10
130.071887
 20
-229.680899
 30
0.0
 11
145.056887
 21
-229.680899
 31
0.0
  0
LINE
  5
12D
100
AcDbEntity
  8
PV
  6
CONTINUOUS
 62
         3
100
AcDbLine
 10
130.071887
 20
-154.755899
 30
0.0
 11
145.056887
 21
-154.755899
 31
0.0
  0
LINE
  5
12E
100
AcDbEntity
  8
PV
  6
CONTINUOUS
 62
         3
100
AcDbLine
 10
80.1218872
 20
-257.652899
 30
0.0
 11
59.9420872
 21
-257.652899
 31
0.0
  0
LINE
  5
12F
100
AcDbEntity
  8
PV
  6
CONTINUOUS
 62
         3
100
AcDbLine
 10
59.9420872
 20
-126.783899
 30
0.0
 11
59.9420872
 21
-257.652899
 31
0.0
  0
LINE
  5
130
100
AcDbEntity
  8
PV
  6
CENTER
 62
         3
100
AcDbLine
 10
69.9320872
 20
-123.94574
 30
0.0
 11
69.9320872
 21
-129.894785
 31
0.0
  0
LINE
  5
131
100
AcDbEntity
  8
PV
  6
CONTINUOUS
 62
         3
100
AcDbLine
 10
-26.7711128
 20
-116.793899
 30
0.0
 11
-18.7791128
 21
-116.793899
 31
0.0
  0
LINE
  5
132
100
AcDbEntity
  8
PV
  6
CONTINUOUS
 62
         3
100
AcDbLine
 10
-214.583113
 20
-117.792899
 30
0.0
 11
-196.601113
 21
-117.792899
 31
0.0
  0
LINE
  5
133
100
AcDbEntity
  8
PV
  6
CONTINUOUS
 62
         3
100
AcDbLine
 10
-214.583113
 20
-117.792899
 30
0.0
 11
-214.583113
 21
-125.285399
 31
0.0
  0
LINE
  5
134
100
AcDbEntity
  8
PV
  6
CONTINUOUS
 62
         3
100
AcDbLine
 10
-196.601113
 20
-117.792899
 30
0.0
 11
-196.601113
 21
-125.285399
 31
0.0
  0
LINE
  5
135
100
AcDbEntity
  8
PV
  6
CENTER
 62
         3
100
AcDbLine
 10
-205.592113
 20
-115.209485
 30
0.0
 11
-205.592113
 21
-130.04963
 31
0.0
  0
LINE
  5
136
100
AcDbEntity
  8
PV
  6
CONTINUOUS
 62
         3
100
AcDbLine
 10
99.1028872
 20
-125.285399
 30
0.0
 11
99.1028872
 21
-124.785899
 31
0.0
  0
LINE
  5
137
100
AcDbEntity
  8
PV
  6
CENTER
 62
         3
100
AcDbLine
 10
94.1078872
 20
-120.480209
 30
0.0
 11
94.1078872
 21
-129.126554
 31
0.0
  0
LINE
  5
138
100
AcDbEntity
  8
PV
  6
CONTINUOUS
 62
         3
100
AcDbLine
 10
80.1218872
 20
-124.785899
 30
0.0
 11
99.1028872
 21
-124.785899
 31
0.0
  0
LINE
  5
139
100
AcDbEntity
  8
PV
  6
CONTINUOUS
 62
         3
100
AcDbLine
 10
80.1218872
 20
-126.783899
 30
0.0
 11
59.9420872
 21
-126.783899
 31
0.0
  0
LINE
  5
13A
100
AcDbEntity
  8
PV
  6
CONTINUOUS
 62
         3
100
AcDbLine
 10
-8.28961281
 20
-119.291399
 30
0.0
 11
-8.28961281
 21
-265.145399
 31
0.0
  0
LINE
  5
13B
100
AcDbEntity
  8
PV
  6
CONTINUOUS
 62
         3
100
AcDbLine
 10
-37.2606128
 20
-119.291399
 30
0.0
 11
-37.2606128
 21
-265.145399
 31
0.0
  0
LINE
  5
13C
100
AcDbEntity
  8
PV
  6
CENTER
 62
         3
100
AcDbLine
 10
-14.7701258
 20
-255.375179
 30
0.0
 11
-31.4214578
 21
-255.375179
 31
0.0
  0
LINE
  5
13D
100
AcDbEntity
  8
PV
  6
CONTINUOUS
 62
         3
100
AcDbLine
 10
59.9420872
 20
-257.153399
 30
0.0
 11
-6.79111281
 21
-257.153399
 31
0.0
  0
LINE
  5
13E
100
AcDbEntity
  8
PV
  6
CONTINUOUS
 62
         3
100
AcDbLine
 10
-6.79111281
 20
-262.549997
 30
0.0
 11
-8.28961281
 21
-265.145399
 31
0.0
  0
LINE
  5
13F
100
AcDbEntity
  8
PV
  6
CONTINUOUS
 62
         3
100
AcDbLine
 10
-38.7581138
 20
-262.548998
 30
0.0
 11
-37.2596138
 21
-265.145399
 31
0.0
  0
LINE
  5
140
100
AcDbEntity
  8
PV
  6
CONTINUOUS
 62
         3
100
AcDbLine
 10
-8.28961281
 20
-265.145399
 30
0.0
 11
-37.2606128
 21
-265.145399
 31
0.0
  0
LINE
  5
141
100
AcDbEntity
  8
PV
  6
CONTINUOUS
 62
         3
100
AcDbLine
 10
-38.7591128
 20
-257.153399
 30
0.0
 11
-182.615113
 21
-257.153399
 31
0.0
  0
LINE
  5
142
100
AcDbEntity
  8
PV
  6
CONTINUOUS
 62
         3
100
AcDbLine
 10
130.071887
 20
-259.151399
 30
0.0
 11
80.1218872
 21
-259.151399
 31
0.0
  0
LINE
  5
143
100
AcDbEntity
  8
PV
  6
CONTINUOUS
 62
         3
100
AcDbLine
 10
299.841947
 20
-220.190399
 30
0.0
 11
269.931887
 21
-220.190399
 31
0.0
  0
LINE
  5
144
100
AcDbEntity
  8
PV
  6
CONTINUOUS
 62
         3
100
AcDbLine
 10
269.931887
 20
-206.204399
 30
0.0
 11
145.056887
 21
-206.204399
 31
0.0
  0
LINE
  5
145
100
AcDbEntity
  8
PV
  6
CONTINUOUS
 62
         3
100
AcDbLine
 10
145.056887
 20
-154.755899
 30
0.0
 11
145.056887
 21
-229.680899
 31
0.0
  0
LINE
  5
146
100
AcDbEntity
  8
PV
  6
CONTINUOUS
 62
         3
100
AcDbLine
 10
-182.615113
 20
-259.151399
 30
0.0
 11
-232.565113
 21
-259.151399
 31
0.0
  0
LINE
  5
147
100
AcDbEntity
  8
PV
  6
CENTER
 62
         3
100
AcDbLine
 10
-31.4214578
 20
-129.061619
 30
0.0
 11
-14.7701258
 21
-129.061619
 31
0.0
  0
LINE
  5
148
100
AcDbEntity
  8
PV
  6
CENTER
 62
         3
100
AcDbLine
 10
-239.055616
 20
-192.218399
 30
0.0
 11
316.223549
 21
-192.218399
 31
0.0
  0
LINE
  5
149
100
AcDbEntity
  8
PV
  6
CONTINUOUS
 62
         3
100
AcDbLine
 10
-6.79111281
 20
-127.283399
 30
0.0
 11
59.9420872
 21
-127.283399
 31
0.0
  0
LINE
  5
14A
100
AcDbEntity
  8
PV
  6
CONTINUOUS
 62
         3
100
AcDbLine
 10
-8.28961281
 20
-119.291399
 30
0.0
 11
-6.79111281
 21
-121.886801
 31
0.0
  0
LINE
  5
14B
100
AcDbEntity
  8
PV
  6
CONTINUOUS
 62
         3
100
AcDbLine
 10
-37.2606128
 20
-119.292398
 30
0.0
 11
-38.7591128
 21
-121.8878
 31
0.0
  0
LINE
  5
14C
100
AcDbEntity
  8
PV
  6
CONTINUOUS
 62
         3
100
AcDbLine
 10
-37.2606128
 20
-119.291399
 30
0.0
 11
-8.28961281
 21
-119.291399
 31
0.0
  0
LINE
  5
14D
100
AcDbEntity
  8
PV
  6
CONTINUOUS
 62
         3
100
AcDbLine
 10
-38.7591128
 20
-121.886801
 30
0.0
 11
-38.7591128
 21
-262.547999
 31
0.0
  0
LINE
  5
14E
100
AcDbEntity
  8
PV
  6
CONTINUOUS
 62
         3
100
AcDbLine
 10
-6.79111281
 20
-121.886801
 30
0.0
 11
-6.79111281
 21
-262.549997
 31
0.0
  0
LINE
  5
14F
100
AcDbEntity
  8
PV
  6
CENTER
 62
         3
100
AcDbLine
 10
-22.7751128
 20
-111.617081
 30
0.0
 11
-22.7751128
 21
-141.236432
 31
0.0
  0
LINE
  5
150
100
AcDbEntity
  8
PV
  6
CONTINUOUS
 62
         3
100
AcDbLine
 10
-182.615113
 20
-127.283399
 30
0.0
 11
-38.7591128
 21
-127.283399
 31
0.0
  0
LINE
  5
151
100
AcDbEntity
  8
PV
  6
CONTINUOUS
 62
         3
100
AcDbLine
 10
80.1218872
 20
-125.285399
 30
0.0
 11
130.071887
 21
-125.285399
 31
0.0
  0
LINE
  5
152
100
AcDbEntity
  8
PV
  6
CONTINUOUS
 62
         3
100
AcDbLine
 10
269.931887
 20
-164.246399
 30
0.0
 11
299.841947
 21
-164.246399
 31
0.0
  0
LINE
  5
153
100
AcDbEntity
  8
PV
  6
CONTINUOUS
 62
         3
100
AcDbLine
 10
80.1218872
 20
-124.785899
 30
0.0
 11
80.1218872
 21
-259.151399
 31
0.0
  0
LINE
  5
154
100
AcDbEntity
  8
PV
  6
CONTINUOUS
 62
         3
100
AcDbLine
 10
269.931887
 20
-164.246399
 30
0.0
 11
269.931887
 21
-220.190399
 31
0.0
  0
LINE
  5
155
100
AcDbEntity
  8
PV
  6
CONTINUOUS
 62
         3
100
AcDbLine
 10
145.056887
 20
-178.232399
 30
0.0
 11
269.931887
 21
-178.232399
 31
0.0
  0
LINE
  5
156
100
AcDbEntity
  8
PV
  6
CONTINUOUS
 62
         3
100
AcDbLine
 10
130.071887
 20
-125.285399
 30
0.0
 11
130.071887
 21
-259.151399
 31
0.0
  0
LINE
  5
157
100
AcDbEntity
  8
PV
  6
CONTINUOUS
 62
         3
100
AcDbLine
 10
-182.615113
 20
-125.285399
 30
0.0
 11
-182.615113
 21
-259.151399
 31
0.0
  0
LINE
  5
158
100
AcDbEntity
  8
PV
  6
CONTINUOUS
 62
         3
100
AcDbLine
 10
-232.565113
 20
-125.285399
 30
0.0
 11
-182.615113
 21
-125.285399
 31
0.0
  0
LINE
  5
159
100
AcDbEntity
  8
PV
  6
CONTINUOUS
 62
         3
100
AcDbLine
 10
-232.565113
 20
-125.285399
 30
0.0
 11
-232.565113
 21
-259.151399
 31
0.0
  0
MTEXT
  5
15A
100
AcDbEntity
  8
PV
  6
CONTINUOUS
 62
       110
100
AcDbMText
 10
75.3816663758
 20
7.0
 30
0.0
 40
4.0
 41
0.0
 71
         1
 72
         1
  1
\W1.200;\A1;28.3
  0
MTEXT
  5
15B
100
AcDbEntity
  8
PV
  6
CONTINUOUS
 62
       110
100
AcDbMText
 10
69.3384231506
 20
17.0
 30
0.0
 40
4.0
 41
0.0
 71
         1
 72
         1
  1
\W1.135;\A1;360\{37\}
  0
MTEXT
  5
15C
100
AcDbEntity
  8
PV
  6
CONTINUOUS
 62
       110
100
AcDbMText
 10
69.4051957686
 20
27.0
 30
0.0
 40
4.0
 41
0.0
 71
         1
 72
         1
  1
\W1.235;\A1;137\{14\}
  0
MTEXT
  5
15D
100
AcDbEntity
  8
PV
  6
CONTINUOUS
 62
       110
100
AcDbMText
 10
61.3535962193
 20
37.0
 30
0.0
 40
4.0
 41
0.0
 71
         1
 72
         1
  1
\W1.158;\A1;39200\{4000\}
  0
MTEXT
  5
15E
100
AcDbEntity
  8
PV
  6
CONTINUOUS
 62
       110
100
AcDbMText
 10
81.2483333787
 20
47.0
 30
0.0
 40
4.0
 41
0.0
 71
         1
 72
         1
  1
\A1;5
  0
MTEXT
  5
15F
100
AcDbEntity
  8
PV
  6
CONTINUOUS
 62
       110
100
AcDbMText
 10
61.4278202032
 20
57.0
 30
0.0
 40
4.0
 41
0.0
 71
         1
 72
         1
  1
\W1.269;\A1;11800\{1200\}
  0
MTEXT
  5
160
100
AcDbEntity
  8
PV
  6
CONTINUOUS
 62
       110
100
AcDbMText
 10
77.3316663935
 20
67.0
 30
0.0
 40
4.0
 41
0.0
 71
         1
 72
         1
  1
\W1.125;\A1;125
  0
MTEXT
  5
161
100
AcDbEntity
  8
PV
  6
CONTINUOUS
 62
       110
100
AcDbMText
 10
73.2483330784
 20
77.0
 30
0.0
 40
4.0
 41
0.0
 71
         1
 72
         1
  1
\W0.833;\A1;０～０．５
  0
MTEXT
  5
162
100
AcDbEntity
  8
PV
  6
CONTINUOUS
 62
       110
100
AcDbMText
 10
65.3642750852
 20
87.0
 30
0.0
 40
4.0
 41
0.0
 71
         1
 72
         1
  1
\W1.174;\A1;4900\{500\}
  0
MTEXT
  5
163
100
AcDbEntity
  8
PV
  6
CONTINUOUS
 62
       110
100
AcDbMText
 10
65.2483330784
 20
97.0
 30
0.0
 40
4.0
 41
0.0
 71
         1
 72
         1
  1
\W0.833;\A1;９００～９００００
  0
MTEXT
  5
164
100
AcDbEntity
  8
PV
  6
CONTINUOUS
 62
       110
100
AcDbMText
 10
57.2843691226
 20
107.0
 30
0.0
 40
4.0
 41
0.0
 71
         1
 72
         1
  1
\W1.054;\A1;DP030A125J-TE
  0
MTEXT
  5
165
100
AcDbEntity
  8
PV
  6
CONTINUOUS
 62
       110
100
AcDbMText
 10
0.3816663798
 20
7.0
 30
0.0
 40
4.0
 41
0.0
 71
         1
 72
         1
  1
\W1.200;\A1;28.3
  0
MTEXT
  5
166
100
AcDbEntity
  8
PV
  6
CONTINUOUS
 62
       110
100
AcDbMText
 10
-5.6615768394
 20
17.0
 30
0.0
 40
4.0
 41
0.0
 71
         1
 72
         1
  1
\W1.135;\A1;360\{37\}
  0
MTEXT
  5
167
100
AcDbEntity
  8
PV
  6
CONTINUOUS
 62
       110
100
AcDbMText
 10
-5.5948042214
 20
27.0
 30
0.0
 40
4.0
 41
0.0
 71
         1
 72
         1
  1
\W1.235;\A1;137\{14\}
  0
MTEXT
  5
168
100
AcDbEntity
  8
PV
  6
CONTINUOUS
 62
       110
100
AcDbMText
 10
-13.6464037807
 20
37.0
 30
0.0
 40
4.0
 41
0.0
 71
         1
 72
         1
  1
\W1.158;\A1;39200\{4000\}
  0
MTEXT
  5
169
100
AcDbEntity
  8
PV
  6
CONTINUOUS
 62
       110
100
AcDbMText
 10
6.2483333887
 20
47.0
 30
0.0
 40
4.0
 41
0.0
 71
         1
 72
         1
  1
\A1;5
  0
MTEXT
  5
16A
100
AcDbEntity
  8
PV
  6
CONTINUOUS
 62
       110
100
AcDbMText
 10
-13.5721797968
 20
57.0
 30
0.0
 40
4.0
 41
0.0
 71
         1
 72
         1
  1
\W1.269;\A1;11800\{1200\}
  0
MTEXT
  5
16B
100
AcDbEntity
  8
PV
  6
CONTINUOUS
 62
       110
100
AcDbMText
 10
2.3316663935
 20
67.0
 30
0.0
 40
4.0
 41
0.0
 71
         1
 72
         1
  1
\W1.125;\A1;125
  0
MTEXT
  5
16C
100
AcDbEntity
  8
PV
  6
CONTINUOUS
 62
       110
100
AcDbMText
 10
-5.7516669116
 20
77.0
 30
0.0
 40
4.0
 41
0.0
 71
         1
 72
         1
  1
\W0.833;\A1;０．１～２．５
  0
MTEXT
  5
16D
100
AcDbEntity
  8
PV
  6
CONTINUOUS
 62
       110
100
AcDbMText
 10
-9.6357248848
 20
87.0
 30
0.0
 40
4.0
 41
0.0
 71
         1
 72
         1
  1
\W1.174;\A1;4900\{500\}
  0
MTEXT
  5
16E
100
AcDbEntity
  8
PV
  6
CONTINUOUS
 62
       110
100
AcDbMText
 10
-9.7516668916
 20
97.0
 30
0.0
 40
4.0
 41
0.0
 71
         1
 72
         1
  1
\W0.833;\A1;３００～３００００
  0
MTEXT
  5
16F
100
AcDbEntity
  8
PV
  6
CONTINUOUS
 62
       110
100
AcDbMText
 10
-11.7040478702
 20
107.0
 30
0.0
 40
4.0
 41
0.0
 71
         1
 72
         1
  1
\W1.071;\A1;DP030A125J
  0
MTEXT
  5
170
100
AcDbEntity
  8
PV
  6
CONTINUOUS
 62
       110
100
AcDbMText
 10
-84.2666669216
 20
17.0
 30
0.0
 40
4.0
 41
0.0
 71
         1
 72
         1
  1
\W0.833;\A1;ロッド収縮時
  0
MTEXT
  5
171
100
AcDbEntity
  8
PV
  6
CONTINUOUS
 62
       110
100
AcDbMText
 10
-84.2666669216
 20
27.0
 30
0.0
 40
4.0
 41
0.0
 71
         1
 72
         1
  1
\W0.833;\A1;ロッド伸張時
  0
MTEXT
  5
172
100
AcDbEntity
  8
PV
  6
CONTINUOUS
 62
       110
100
AcDbMText
 10
-55.1833336065
 20
17.0
 30
0.0
 40
4.0
 41
0.0
 71
         1
 72
         1
  1
\W1.125;\A1;N\{kgf\}
  0
MTEXT
  5
173
100
AcDbEntity
  8
PV
  6
CONTINUOUS
 62
       110
100
AcDbMText
 10
-59.2666666213
 20
7.0
 30
0.0
 40
4.0
 41
0.0
 71
         1
 72
         1
  1
\A1;kg
  0
MTEXT
  5
174
100
AcDbEntity
  8
PV
  6
CONTINUOUS
 62
       110
100
AcDbMText
 10
-117.2666670216
 20
7.0
 30
0.0
 40
4.0
 41
0.0
 71
         1
 72
         1
  1
\W0.833;\A1;製品質量
  0
MTEXT
  5
175
100
AcDbEntity
  8
PV
  6
CONTINUOUS
 62
       110
100
AcDbMText
 10
-55.1833336065
 20
27.0
 30
0.0
 40
4.0
 41
0.0
 71
         1
 72
         1
  1
\W1.125;\A1;N\{kgf\}
  0
MTEXT
  5
176
100
AcDbEntity
  8
PV
  6
CONTINUOUS
 62
       110
100
AcDbMText
 10
-55.1833336065
 20
37.0
 30
0.0
 40
4.0
 41
0.0
 71
         1
 72
         1
  1
\W1.125;\A1;N\{kgf\}
  0
MTEXT
  5
177
100
AcDbEntity
  8
PV
  6
CONTINUOUS
 62
       110
100
AcDbMText
 10
-35.5666667667
 20
47.5
 30
0.0
 40
2.0
 41
0.0
 71
         1
 72
         1
  1
\W1.200;\A1;-1
  0
MTEXT
  5
178
100
AcDbEntity
  8
PV
  6
CONTINUOUS
 62
       110
100
AcDbMText
 10
-46.8044272242
 20
47.0
 30
0.0
 40
4.0
 41
0.0
 71
         1
 72
         1
  1
\T1.134;\W1.334;\A1;min
  0
MTEXT
  5
179
100
AcDbEntity
  8
PV
  6
CONTINUOUS
 62
       110
100
AcDbMText
 10
-67.1022222501
 20
54.2000001502
 30
0.0
 40
3.2000000477
 41
0.0
 71
         1
 72
         1
  1
\W0.787;\A1;｛ｋｇｆ・ｍ／　ｍｉｎ｝
  0
MTEXT
  5
17A
100
AcDbEntity
  8
PV
  6
CONTINUOUS
 62
       110
100
AcDbMText
 10
-66.445825428
 20
59.0000001502
 30
0.0
 40
3.2000000477
 41
0.0
 71
         1
 72
         1
  1
\T1.186;\W1.723;\A1;      J/ min
  0
MTEXT
  5
17B
100
AcDbEntity
  8
PV
  6
CONTINUOUS
 62
       110
100
AcDbMText
 10
-39.2666666213
 20
67.0
 30
0.0
 40
4.0
 41
0.0
 71
         1
 72
         1
  1
\A1;mm
  0
MTEXT
  5
17C
100
AcDbEntity
  8
PV
  6
CONTINUOUS
 62
       110
100
AcDbMText
 10
-43.5273783729
 20
77.0
 30
0.0
 40
4.0
 41
0.0
 71
         1
 72
         1
  1
\W1.089;\A1;m/ s
  0
MTEXT
  5
17D
100
AcDbEntity
  8
PV
  6
CONTINUOUS
 62
       110
100
AcDbMText
 10
-63.2666669216
 20
87.0
 30
0.0
 40
4.0
 41
0.0
 71
         1
 72
         1
  1
\W0.833;\A1;Ｊ｛ｋｇｆ・ｍ｝
  0
MTEXT
  5
17E
100
AcDbEntity
  8
PV
  6
CONTINUOUS
 62
       110
100
AcDbMText
 10
-59.1964914948
 20
97.0
 30
0.0
 40
4.0
 41
0.0
 71
         1
 72
         1
  1
\W1.105;\A1;kg\{kgf\}
  0
MTEXT
  5
17F
100
AcDbEntity
  8
PV
  6
CONTINUOUS
 62
       110
100
AcDbMText
 10
-117.2666670216
 20
22.0
 30
0.0
 40
4.0
 41
0.0
 71
         1
 72
         1
  1
\W0.833;\A1;復帰バネ設定力
  0
MTEXT
  5
180
100
AcDbEntity
  8
PV
  6
CONTINUOUS
 62
       110
100
AcDbMText
 10
-117.2666670216
 20
37.0
 30
0.0
 40
4.0
 41
0.0
 71
         1
 72
         1
  1
\W0.833;\A1;許容抵抗力
  0
MTEXT
  5
181
100
AcDbEntity
  8
PV
  6
CONTINUOUS
 62
       110
100
AcDbMText
 10
-117.2666670216
 20
47.0
 30
0.0
 40
4.0
 41
0.0
 71
         1
 72
         1
  1
\W0.833;\A1;毎分当りの最高使用頻度
  0
MTEXT
  5
182
100
AcDbEntity
  8
PV
  6
CONTINUOUS
 62
       110
100
AcDbMText
 10
-117.0133330512
 20
54.2000001502
 30
0.0
 40
3.2000000477
 41
0.0
 71
         1
 72
         1
  1
\W0.833;\A1;吸収エネルギ－の最大値
  0
MTEXT
  5
183
100
AcDbEntity
  8
PV
  6
CONTINUOUS
 62
       110
100
AcDbMText
 10
-117.0133330512
 20
59.0000001502
 30
0.0
 40
3.2000000477
 41
0.0
 71
         1
 72
         1
  1
\W0.833;\A1;毎分当りの
  0
MTEXT
  5
184
100
AcDbEntity
  8
PV
  6
CONTINUOUS
 62
       110
100
AcDbMText
 10
-117.2666670216
 20
67.0
 30
0.0
 40
4.0
 41
0.0
 71
         1
 72
         1
  1
\W0.833;\A1;吸収ストロ－ク
  0
MTEXT
  5
185
100
AcDbEntity
  8
PV
  6
CONTINUOUS
 62
       110
100
AcDbMText
 10
-117.2666670216
 20
77.0
 30
0.0
 40
4.0
 41
0.0
 71
         1
 72
         1
  1
\W0.833;\A1;許容衝突速度
  0
MTEXT
  5
186
100
AcDbEntity
  8
PV
  6
CONTINUOUS
 62
       110
100
AcDbMText
 10
-117.2666670216
 20
87.0
 30
0.0
 40
4.0
 41
0.0
 71
         1
 72
         1
  1
\W0.833;\A1;吸収エネルギ－の最大値
  0
MTEXT
  5
187
100
AcDbEntity
  8
PV
  6
CONTINUOUS
 62
       110
100
AcDbMText
 10
-117.2666670216
 20
97.0
 30
0.0
 40
4.0
 41
0.0
 71
         1
 72
         1
  1
\W0.833;\A1;衝突物の許容相当質量｛重量｝
  0
MTEXT
  5
188
100
AcDbEntity
  8
PV
  6
CONTINUOUS
 62
       110
100
AcDbMText
 10
-117.2666670216
 20
107.0
 30
0.0
 40
4.0
 41
0.0
 71
         1
 72
         1
  1
\W0.833;\A1;形番
  0
LINE
  5
189
100
AcDbEntity
  8
PV
  6
CONTINUOUS
 62
         3
100
AcDbLine
 10
45.0
 20
110.0
 30
0.0
 11
45.0
 21
0.0
 31
0.0
  0
LINE
  5
18A
100
AcDbEntity
  8
PV
  6
CONTINUOUS
 62
         3
100
AcDbLine
 10
120.0
 20
110.0
 30
0.0
 11
120.0
 21
0.0
 31
0.0
  0
LINE
  5
18B
100
AcDbEntity
  8
PV
  6
CONTINUOUS
 62
         3
100
AcDbLine
 10
-87.0
 20
30.0
 30
0.0
 11
-87.0
 21
10.0
 31
0.0
  0
LINE
  5
18C
100
AcDbEntity
  8
PV
  6
CONTINUOUS
 62
         3
100
AcDbLine
 10
-120.0
 20
110.0
 30
0.0
 11
120.0
 21
110.0
 31
0.0
  0
LINE
  5
18D
100
AcDbEntity
  8
PV
  6
CONTINUOUS
 62
         3
100
AcDbLine
 10
-120.0
 20
100.0
 30
0.0
 11
120.0
 21
100.0
 31
0.0
  0
LINE
  5
18E
100
AcDbEntity
  8
PV
  6
CONTINUOUS
 62
         3
100
AcDbLine
 10
-120.0
 20
90.0
 30
0.0
 11
120.0
 21
90.0
 31
0.0
  0
LINE
  5
18F
100
AcDbEntity
  8
PV
  6
CONTINUOUS
 62
         3
100
AcDbLine
 10
-120.0
 20
80.0
 30
0.0
 11
120.0
 21
80.0
 31
0.0
  0
LINE
  5
190
100
AcDbEntity
  8
PV
  6
CONTINUOUS
 62
         3
100
AcDbLine
 10
-120.0
 20
70.0
 30
0.0
 11
120.0
 21
70.0
 31
0.0
  0
LINE
  5
191
100
AcDbEntity
  8
PV
  6
CONTINUOUS
 62
         3
100
AcDbLine
 10
-120.0
 20
60.0
 30
0.0
 11
120.0
 21
60.0
 31
0.0
  0
LINE
  5
192
100
AcDbEntity
  8
PV
  6
CONTINUOUS
 62
         3
100
AcDbLine
 10
-120.0
 20
50.0
 30
0.0
 11
120.0
 21
50.0
 31
0.0
  0
LINE
  5
193
100
AcDbEntity
  8
PV
  6
CONTINUOUS
 62
         3
100
AcDbLine
 10
-120.0
 20
40.0
 30
0.0
 11
120.0
 21
40.0
 31
0.0
  0
LINE
  5
194
100
AcDbEntity
  8
PV
  6
CONTINUOUS
 62
         3
100
AcDbLine
 10
-120.0
 20
30.0
 30
0.0
 11
120.0
 21
30.0
 31
0.0
  0
LINE
  5
195
100
AcDbEntity
  8
PV
  6
CONTINUOUS
 62
         3
100
AcDbLine
 10
-87.0
 20
20.0
 30
0.0
 11
120.0
 21
20.0
 31
0.0
  0
LINE
  5
196
100
AcDbEntity
  8
PV
  6
CONTINUOUS
 62
         3
100
AcDbLine
 10
-120.0
 20
10.0
 30
0.0
 11
120.0
 21
10.0
 31
0.0
  0
LINE
  5
197
100
AcDbEntity
  8
PV
  6
CONTINUOUS
 62
         3
100
AcDbLine
 10
-30.0
 20
110.0
 30
0.0
 11
-30.0
 21
0.0
 31
0.0
  0
LINE
  5
198
100
AcDbEntity
  8
PV
  6
CONTINUOUS
 62
         3
100
AcDbLine
 10
-120.0
 20
110.0
 30
0.0
 11
-120.0
 21
0.0
 31
0.0
  0
LINE
  5
199
100
AcDbEntity
  8
PV
  6
CONTINUOUS
 62
         3
100
AcDbLine
 10
-120.0
 20
0.0
 30
0.0
 11
120.0
 21
0.0
 31
0.0
  0
DIMENSION
  5
1A8
100
AcDbEntity
  8
PV
  6
CONTINUOUS
 62
       110
100
AcDbDimension
  2
*D2
 10
457.434887
 20
-272.671867
 30
0.0
 11
605.0873967656
 21
-272.671867
 31
0.0
 70
       128
  1
\A1;<>
  3
MXDIMSTYLE
100
AcDbAlignedDimension
 13
752.139887
 23
-197.2134014238
 33
0.0
 14
457.434887
 24
-271.2253130545
 34
0.0
100
AcDbRotatedDimension
1001
ACAD
1000
DSTYLE
1002
{
1070
         6
1000
SOLID
1070
         7
1000
SOLID
1070
        41
1040
1.0000000298
1070
        42
1040
0.0625
1070
       271
1070
         4
1070
       284
1070
         8
1070
       343
1005
0
1070
       344
1005
0
1002
}
  0
DIMENSION
  5
1B7
100
AcDbEntity
  8
PV
  6
CONTINUOUS
 62
       110
100
AcDbDimension
  2
*D3
 10
522.369887
 20
-246.513773
 30
0.0
 11
637.5548879155
 21
-246.513773
 31
0.0
 70
       128
  1
\A1;<>
  3
MXDIMSTYLE
100
AcDbAlignedDimension
 13
752.139887
 23
-197.2133999226
 33
0.0
 14
522.369887
 24
-197.2133999226
 34
0.0
100
AcDbRotatedDimension
1001
ACAD
1000
DSTYLE
1002
{
1070
         6
1000
SOLID
1070
         7
1000
SOLID
1070
        41
1040
1.0000000298
1070
        42
1040
0.0625
1070
       271
1070
         4
1070
       284
1070
         8
1070
       343
1005
0
1070
       344
1005
0
1002
}
  0
DIMENSION
  5
1C5
100
AcDbEntity
  8
PV
  6
CONTINUOUS
 62
       110
100
AcDbDimension
  2
*D4
 10
773.226241
 20
-197.213399
 30
0.0
 11
773.226241
 21
-191.9183991717
 31
0.0
 70
       128
  1
\A1;\U+2205<>
  3
MXDIMSTYLE
100
AcDbAlignedDimension
 13
752.139887698
 23
-187.223399
 33
0.0
 14
752.139887698
 24
-197.213399
 34
0.0
 50
90.0
100
AcDbRotatedDimension
1001
ACAD
1000
DSTYLE
1002
{
1070
         6
1000
SOLID
1070
         7
1000
SOLID
1070
        41
1040
1.0000000298
1070
        42
1040
0.0625
1070
       271
1070
         4
1070
       284
1070
         8
1070
       340
1005
1BF
1070
       343
1005
0
1070
       344
1005
0
1002
}
  0
DIMENSION
  5
1D4
100
AcDbEntity
  8
PV
  6
CONTINUOUS
 62
       110
100
AcDbDimension
  2
*D5
 10
304.896887
 20
-72.6408031
 30
0.0
 11
217.7843885259
 21
-72.6408031
 31
0.0
 70
       128
  1
\A1;<>
  3
MXDIMSTYLE
100
AcDbAlignedDimension
 13
130.071887
 23
-125.2853991999
 33
0.0
 14
304.896887
 24
-192.2184016718
 34
0.0
100
AcDbRotatedDimension
1001
ACAD
1000
DSTYLE
1002
{
1070
         6
1000
SOLID
1070
         7
1000
SOLID
1070
        41
1040
1.0000000298
1070
        42
1040
0.0625
1070
       271
1070
         4
1070
       284
1070
         8
1070
       340
1005
1BF
1070
       343
1005
0
1070
       344
1005
0
1002
}
  0
DIMENSION
  5
1E3
100
AcDbEntity
  8
PV
  6
CONTINUOUS
 62
       110
100
AcDbDimension
  2
*D6
 10
130.071887
 20
-72.6408031
 30
0.0
 11
-50.9466132441
 21
-72.6408031
 31
0.0
 70
       128
  1
\A1;<>
  3
MXDIMSTYLE
100
AcDbAlignedDimension
 13
-232.565113
 23
-125.2853991999
 33
0.0
 14
130.071887
 24
-125.2853991999
 34
0.0
100
AcDbRotatedDimension
1001
ACAD
1000
DSTYLE
1002
{
1070
         6
1000
SOLID
1070
         7
1000
SOLID
1070
        41
1040
1.0000000298
1070
        42
1040
0.0625
1070
       271
1070
         4
1070
       284
1070
         8
1070
       343
1005
0
1070
       344
1005
0
1002
}
  0
DIMENSION
  5
1F2
100
AcDbEntity
  8
PV
  6
CONTINUOUS
 62
       110
100
AcDbDimension
  2
*D7
 10
330.93674
 20
-220.190399
 30
0.0
 11
330.93674
 21
-191.918399885
 31
0.0
 70
       128
  1
\A1;<>
  3
MXDIMSTYLE
100
AcDbAlignedDimension
 13
299.8419466803
 23
-164.246399
 33
0.0
 14
299.8419466803
 24
-220.190399
 34
0.0
 50
90.0
100
AcDbRotatedDimension
1001
ACAD
1000
DSTYLE
1002
{
1070
         6
1000
SOLID
1070
         7
1000
SOLID
1070
        41
1040
1.0000000298
1070
        42
1040
0.0625
1070
       271
1070
         4
1070
       284
1070
         8
1070
       343
1005
0
1070
       344
1005
0
1002
}
  0
DIMENSION
  5
201
100
AcDbEntity
  8
PV
  6
CONTINUOUS
 62
       110
100
AcDbDimension
  2
*D8
 10
-264.289692
 20
-125.285399
 30
0.0
 11
-264.289692
 21
-191.918397291
 31
0.0
 70
       128
  1
\A1;\U+2205<>
  3
MXDIMSTYLE
100
AcDbAlignedDimension
 13
-232.5651131426
 23
-259.151399
 33
0.0
 14
-232.5651131426
 24
-125.285399
 34
0.0
 50
90.0
100
AcDbRotatedDimension
1001
ACAD
1000
DSTYLE
1002
{
1070
         6
1000
SOLID
1070
         7
1000
SOLID
1070
        41
1040
1.0000000298
1070
        42
1040
0.0625
1070
       271
1070
         4
1070
       284
1070
         8
1070
       343
1005
0
1070
       344
1005
0
1002
}
  0
DIMENSION
  5
210
100
AcDbEntity
  8
PV
  6
CONTINUOUS
 62
       110
100
AcDbDimension
  2
*D9
 10
350.484135
 20
-259.650899
 30
0.0
 11
350.484135
 21
-191.9183986948
 31
0.0
 70
       128
  1
\A1;\U+2205<>
  3
MXDIMSTYLE
100
AcDbAlignedDimension
 13
265.6222041528
 23
-124.785899
 33
0.0
 14
265.6222041528
 24
-259.650899
 34
0.0
 50
90.0
100
AcDbRotatedDimension
1001
ACAD
1000
DSTYLE
1002
{
1070
         6
1000
SOLID
1070
         7
1000
SOLID
1070
        41
1040
1.0000000298
1070
        42
1040
0.0625
1070
       271
1070
         4
1070
       284
1070
         8
1070
       343
1005
0
1070
       344
1005
0
1002
}
  0
ENDSEC
  0
SECTION
  2
OBJECTS
  0
DICTIONARY
  5
19
100
AcDbDictionary
  3
ACAD_GROUP
350
1A
  3
ACAD_MLINESTYLE
350
1B
  0
DICTIONARY
  5
1A
102
{ACAD_REACTORS
330
19
102
}
100
AcDbDictionary
  0
DICTIONARY
  5
1B
102
{ACAD_REACTORS
330
19
102
}
100
AcDbDictionary
  3
STANDARD
350
1C
  0
MLINESTYLE
  5
1C
102
{ACAD_REACTORS
330
1B
102
}
100
AcDbMlineStyle
  2
Standard
 70
         0
  3

 62
         0
 51
90.0
 52
90.0
 71
         2
 49
0.5
 62
       256
  6
ByLayer
 49
-0.5
 62
       256
  6
ByLayer
  0
ENDSEC
  0
EOF
