  0
SECTION
  2
HEADER
  9
$ACADVER
  1
AC1014
  9
$ACADMAINTVER
 70
         0
  9
$DWGCODEPAGE
  3
ANSI_932
  9
$INSBASE
 10
0.0
 20
0.0
 30
0.0
  9
$EXTMIN
 10
-404.4902182004
 20
-291.004108
 30
0.0
  9
$EXTMAX
 10
801.945539
 20
110.0
 30
0.0
  9
$LIMMIN
 10
-404.4902182004
 20
-291.004108
  9
$LIMMAX
 10
801.945539
 20
110.0
  9
$ORTHOMODE
 70
         0
  9
$REGENMODE
 70
         1
  9
$FILLMODE
 70
         1
  9
$QTEXTMODE
 70
         0
  9
$MIRRTEXT
 70
         1
  9
$DRAGMODE
 70
         2
  9
$LTSCALE
 40
1.0
  9
$OSMODE
 70
         0
  9
$ATTMODE
 70
         1
  9
$TEXTSIZE
 40
3.2000000477
  9
$TRACEWID
 40
0.05
  9
$TEXTSTYLE
  7
MX_NOTE_STANDARD
  9
$CLAYER
  8
0
  9
$CELTYPE
  6
CONTINUOUS
  9
$CECOLOR
 62
       256
  9
$CELTSCALE
 40
1.0
  9
$DELOBJ
 70
         1
  9
$DISPSILH
 70
         0
  9
$DIMSCALE
 40
1.0
  9
$DIMASZ
 40
2.5
  9
$DIMEXO
 40
0.0
  9
$DIMDLI
 40
3.75
  9
$DIMRND
 40
0.0
  9
$DIMDLE
 40
0.0
  9
$DIMEXE
 40
2.5
  9
$DIMTP
 40
0.0
  9
$DIMTM
 40
0.0
  9
$DIMTXT
 40
3.2000000477
  9
$DIMCEN
 40
2.5
  9
$DIMTSZ
 40
0.0
  9
$DIMTOL
 70
         0
  9
$DIMLIM
 70
         0
  9
$DIMTIH
 70
         0
  9
$DIMTOH
 70
         0
  9
$DIMSE1
 70
         0
  9
$DIMSE2
 70
         0
  9
$DIMTAD
 70
         1
  9
$DIMZIN
 70
         8
  9
$DIMBLK
  1

  9
$DIMASO
 70
         1
  9
$DIMSHO
 70
         1
  9
$DIMPOST
  1

  9
$DIMAPOST
  1

  9
$DIMALT
 70
         0
  9
$DIMALTD
 70
         4
  9
$DIMALTF
 40
0.0393700787
  9
$DIMLFAC
 40
1.0
  9
$DIMTOFL
 70
         1
  9
$DIMTVP
 40
0.0
  9
$DIMTIX
 70
         0
  9
$DIMSOXD
 70
         0
  9
$DIMSAH
 70
         1
  9
$DIMBLK1
  1
_OPEN30
  9
$DIMBLK2
  1
_OPEN30
  9
$DIMSTYLE
  2
MXDIMSTYLE
  9
$DIMCLRD
 70
         0
  9
$DIMCLRE
 70
         0
  9
$DIMCLRT
 70
         0
  9
$DIMTFAC
 40
1.0
  9
$DIMGAP
 40
1.0
  9
$DIMJUST
 70
         0
  9
$DIMSD1
 70
         0
  9
$DIMSD2
 70
         0
  9
$DIMTOLJ
 70
         0
  9
$DIMTZIN
 70
         0
  9
$DIMALTZ
 70
         0
  9
$DIMALTTZ
 70
         0
  9
$DIMFIT
 70
         3
  9
$DIMUPT
 70
         0
  9
$DIMUNIT
 70
         2
  9
$DIMDEC
 70
         2
  9
$DIMTDEC
 70
         2
  9
$DIMALTU
 70
         2
  9
$DIMALTTD
 70
         4
  9
$DIMTXSTY
  7
MX_NOTE_STANDARD
  9
$DIMAUNIT
 70
         0
  9
$LUNITS
 70
         2
  9
$LUPREC
 70
         4
  9
$SKETCHINC
 40
0.1
  9
$FILLETRAD
 40
0.0
  9
$AUNITS
 70
         0
  9
$AUPREC
 70
         0
  9
$MENU
  1
acad
  9
$ELEVATION
 40
0.0
  9
$PELEVATION
 40
0.0
  9
$THICKNESS
 40
0.0
  9
$LIMCHECK
 70
         0
  9
$BLIPMODE
 70
         1
  9
$CHAMFERA
 40
0.0
  9
$CHAMFERB
 40
0.0
  9
$CHAMFERC
 40
0.0
  9
$CHAMFERD
 40
0.0
  9
$SKPOLY
 70
         0
  9
$TDCREATE
 40
2456603.443437500
  9
$TDUPDATE
 40
2456603.443437500
  9
$TDINDWG
 40
0.0000000000
  9
$TDUSRTIMER
 40
0.0000000000
  9
$USRTIMER
 70
         1
  9
$ANGBASE
 50
0.0
  9
$ANGDIR
 70
         0
  9
$PDMODE
 70
         0
  9
$PDSIZE
 40
0.0
  9
$PLINEWID
 40
0.0
  9
$COORDS
 70
         1
  9
$SPLFRAME
 70
         0
  9
$SPLINETYPE
 70
         6
  9
$SPLINESEGS
 70
         8
  9
$ATTDIA
 70
         0
  9
$ATTREQ
 70
         1
  9
$HANDLING
 70
         1
  9
$HANDSEED
  5
269
  9
$SURFTAB1
 70
         6
  9
$SURFTAB2
 70
         6
  9
$SURFTYPE
 70
         6
  9
$SURFU
 70
         6
  9
$SURFV
 70
         6
  9
$UCSNAME
  2

  9
$UCSORG
 10
0.0
 20
0.0
 30
0.0
  9
$UCSXDIR
 10
1.0
 20
0.0
 30
0.0
  9
$UCSYDIR
 10
0.0
 20
1.0
 30
0.0
  9
$PUCSNAME
  2

  9
$PUCSORG
 10
0.0
 20
0.0
 30
0.0
  9
$PUCSXDIR
 10
1.0
 20
0.0
 30
0.0
  9
$PUCSYDIR
 10
0.0
 20
1.0
 30
0.0
  9
$USERI1
 70
         0
  9
$USERI2
 70
         0
  9
$USERI3
 70
         0
  9
$USERI4
 70
         0
  9
$USERI5
 70
         0
  9
$USERR1
 40
0.0
  9
$USERR2
 40
0.0
  9
$USERR3
 40
0.0
  9
$USERR4
 40
0.0
  9
$USERR5
 40
0.0
  9
$WORLDVIEW
 70
         1
  9
$SHADEDGE
 70
         3
  9
$SHADEDIF
 70
        70
  9
$TILEMODE
 70
         1
  9
$MAXACTVP
 70
        16
  9
$PINSBASE
 10
0.0
 20
0.0
 30
0.0
  9
$PLIMCHECK
 70
         0
  9
$PEXTMIN
 10
1.0000000000E+20
 20
1.0000000000E+20
 30
1.0000000000E+20
  9
$PEXTMAX
 10
-1.0000000000E+20
 20
-1.0000000000E+20
 30
-1.0000000000E+20
  9
$PLIMMIN
 10
0.0
 20
0.0
  9
$PLIMMAX
 10
12.0
 20
9.0
  9
$UNITMODE
 70
         0
  9
$VISRETAIN
 70
         0
  9
$PLINEGEN
 70
         1
  9
$PSLTSCALE
 70
         0
  9
$TREEDEPTH
 70
      3020
  9
$PICKSTYLE
 70
         1
  9
$CMLSTYLE
  2
Standard
  9
$CMLJUST
 70
         0
  9
$CMLSCALE
 40
1.0
  9
$PROXYGRAPHICS
 70
         0
  9
$MEASUREMENT
 70
         1
  0
ENDSEC
  0
SECTION
  2
CLASSES
  0
CLASS
  1
LWPOLYLINE
  2
AcDbPolyline
  3
"AutoCAD"
 90
        0
280
         0
281
         1
  0
CLASS
  1
IMAGE
  2
AcDbRasterImage
  3
ISM
 90
      127
280
         0
281
         1
  0
CLASS
  1
OLE2FRAME
  2
AcDbOle2Frame
  3
""
 90
        0
280
         0
281
         1
  0
CLASS
  1
HATCH
  2
AcDbHatch
  3
"ACAD_SEDONA"
 90
        0
280
         0
281
         1
  0
CLASS
  1
DICTIONARYVAR
  2
AcDbDictionaryVar
  3
"AutoCAD"
 90
        0
280
         0
281
         0
  0
CLASS
  1
RASTERVARIABLES
  2
AcDbRasterVariables
  3
ISM
 90
        0
280
         0
281
         0
  0
CLASS
  1
IMAGEDEF
  2
AcDbRasterImageDef
  3
ISM
 90
        0
280
         0
281
         0
  0
CLASS
  1
IMAGEDEF_REACTOR
  2
AcDbRasterImageDefReactor
  3
ISM
 90
        1
280
         0
281
         0
  0
CLASS
  1
IDBUFFER
  2
AcDbIdBuffer
  3
"Acad"
 90
        0
280
         0
281
         0
  0
CLASS
  1
SPATIAL_FILTER
  2
AcDbSpatialFilter
  3
"Acad"
 90
        0
280
         0
281
         0
  0
CLASS
  1
XRECORD
  2
AcDbXrecord
  3
"<Built In>"
 90
        0
280
         0
281
         0
  0
CLASS
  1
SORTENTSTABLE
  2
AcDbSortentsTable
  3
"AutoCAD"
 90
        0
280
         0
281
         0
  0
CLASS
  1
LAYER_INDEX
  2
AcDbLayerIndex
  3
"Acad"
 90
        0
280
         0
281
         0
  0
CLASS
  1
SPATIAL_INDEX
  2
AcDbSpatialIndex
  3
"Acad"
 90
        0
280
         0
281
         0
  0
CLASS
  1
OBJECT_PTR
  2
CAseDLPNTableRecord
  3
"ASE-LPNTableRecord"
 90
        1
280
         0
281
         0
  0
CLASS
  1
LAYOUT
  2
AcDbLayout
  3
"AutoCAD 2000"
 90
        0
280
         0
281
         0
  0
CLASS
  1
PLOTSETTINGS
  2
AcDbPlotSettings
  3
"AutoCAD 2000"
 90
        0
280
         0
281
         0
  0
CLASS
  1
ACDBDICTIONARYWDFLT
  2
AcDbDictionaryWithDefault
  3
"AutoCAD 2000"
 90
        0
280
         0
281
         0
  0
CLASS
  1
ACDBPLACEHOLDER
  2
AcDbPlaceHolder
  3
"AutoCAD 2000"
 90
        0
280
         0
281
         0
  0
ENDSEC
  0
SECTION
  2
TABLES
  0
TABLE
  2
VPORT
  5
7
100
AcDbSymbolTable
 70
         1
  0
VPORT
  5
15
100
AcDbSymbolTableRecord
100
AcDbViewportTableRecord
  2
*ACTIVE
 70
         0
 10
0.0
 20
0.0
 11
1.0
 21
1.0
 12
198.7276603998
 22
-90.502054
 13
0.0
 23
0.0
 14
1.0
 24
1.0
 15
0.0
 25
0.0
 16
0.0
 26
0.0
 36
1.0
 17
0.0
 27
0.0
 37
0.0
 40
405.01414908
 41
1.7320508076
 42
50.0
 43
0.0
 44
0.0
 50
0.0
 51
0.0
 71
         0
 72
       100
 73
         1
 74
         1
 75
         0
 76
         0
 77
         0
 78
         0
  0
ENDTAB
  0
TABLE
  2
LTYPE
  5
4
100
AcDbSymbolTable
 70
         5
  0
LTYPE
  5
11
100
AcDbSymbolTableRecord
100
AcDbLinetypeTableRecord
  2
BYBLOCK
 70
        64
  3

 72
        65
 73
         0
 40
0.0
  0
LTYPE
  5
12
100
AcDbSymbolTableRecord
100
AcDbLinetypeTableRecord
  2
BYLAYER
 70
        64
  3

 72
        65
 73
         0
 40
0.0
  0
LTYPE
  5
13
100
AcDbSymbolTableRecord
100
AcDbLinetypeTableRecord
  2
CONTINUOUS
 70
        64
  3
Solid line
 72
        65
 73
         0
 40
0.0
  0
LTYPE
  5
3B
100
AcDbSymbolTableRecord
100
AcDbLinetypeTableRecord
  2
CENTER
 70
        64
  3
Center ____ _ ____ _ ____ _ ____ _ ____ _ ____
 72
        65
 73
         4
 40
50.8
 49
31.75
 74
         0
 49
-6.35
 74
         0
 49
6.35
 74
         0
 49
-6.35
 74
         0
  0
LTYPE
  5
9E
100
AcDbSymbolTableRecord
100
AcDbLinetypeTableRecord
  2
PHANTOM
 70
        64
  3
Phantom ______  __  __  ______  __  __  ______
 72
        65
 73
         6
 40
63.5
 49
31.75
 74
         0
 49
-6.35
 74
         0
 49
6.35
 74
         0
 49
-6.35
 74
         0
 49
6.35
 74
         0
 49
-6.35
 74
         0
  0
ENDTAB
  0
TABLE
  2
LAYER
  5
2
100
AcDbSymbolTable
 70
         3
  0
LAYER
  5
14
100
AcDbSymbolTableRecord
100
AcDbLayerTableRecord
  2
0
 70
         0
 62
         7
  6
CONTINUOUS
  0
LAYER
  5
1D
100
AcDbSymbolTableRecord
100
AcDbLayerTableRecord
  2
PV
 70
         0
 62
         3
  6
CONTINUOUS
  0
LAYER
  5
1E
100
AcDbSymbolTableRecord
100
AcDbLayerTableRecord
  2
DEFPOINTS
 70
         0
 62
         7
  6
CONTINUOUS
  0
ENDTAB
  0
TABLE
  2
STYLE
  5
3
100
AcDbSymbolTable
 70
         4
  0
STYLE
  5
17
100
AcDbSymbolTableRecord
100
AcDbTextStyleTableRecord
  2
MX_NOTE_STANDARD
 70
         0
 40
0.0
 41
1.0
 50
0.0
 71
         0
 42
3.2000000477
  3
txt.shx
  4
extfont.shx
  0
STYLE
  5
1BD
100
AcDbSymbolTableRecord
100
AcDbTextStyleTableRecord
  2
MX_DIMTXSTY_2
 70
         0
 40
0.0
 41
1.05
 50
0.0
 71
         0
 42
3.2000000477
  3
txt.shx
  4
extfont.shx
  0
STYLE
  5
1FA
100
AcDbSymbolTableRecord
100
AcDbTextStyleTableRecord
  2
MX_DIMTXSTY_3
 70
         0
 40
0.0
 41
0.9
 50
0.0
 71
         0
 42
3.2000000477
  3
txt.shx
  4
extfont.shx
  0
STYLE
  5
219
100
AcDbSymbolTableRecord
100
AcDbTextStyleTableRecord
  2
MX_DIMTXSTY_4
 70
         0
 40
0.0
 41
1.2
 50
0.0
 71
         0
 42
3.2000000477
  3
txt.shx
  4
extfont.shx
  0
ENDTAB
  0
TABLE
  2
VIEW
  5
5
100
AcDbSymbolTable
 70
         0
  0
ENDTAB
  0
TABLE
  2
UCS
  5
6
100
AcDbSymbolTable
 70
         0
  0
ENDTAB
  0
TABLE
  2
APPID
  5
8
100
AcDbSymbolTable
 70
         1
  0
APPID
  5
16
100
AcDbSymbolTableRecord
100
AcDbRegAppTableRecord
  2
ACAD
 70
         0
  0
ENDTAB
  0
TABLE
  2
DIMSTYLE
  5
9
100
AcDbSymbolTable
 70
         1
  0
DIMSTYLE
105
18
100
AcDbSymbolTableRecord
100
AcDbDimStyleTableRecord
  2
MXDIMSTYLE
 70
         0
  3

  4

  5

  6
_OPEN30
  7
_OPEN30
 40
1.0
 41
2.5
 42
0.0
 43
3.75
 44
2.5
 45
0.0
 46
0.0
 47
0.0
 48
0.0
 71
         0
 72
         0
 73
         0
 74
         0
 75
         0
 76
         0
 77
         1
 78
         8
140
3.2000000477
141
2.5
142
0.0
143
0.0393700787
144
1.0
145
0.0
146
1.0
147
1.0
170
         0
171
         4
172
         1
173
         1
174
         0
175
         0
176
         0
177
         0
178
         0
270
         2
271
         2
272
         2
273
         2
274
         4
275
         0
280
         0
281
         0
282
         0
283
         0
284
         0
285
         0
286
         0
287
         3
288
         0
340
17
  0
ENDTAB
  0
TABLE
  2
BLOCK_RECORD
  5
1
100
AcDbSymbolTable
 70
        14
  0
BLOCK_RECORD
  5
A
100
AcDbSymbolTableRecord
100
AcDbBlockTableRecord
  2
*MODEL_SPACE
  0
BLOCK_RECORD
  5
B
100
AcDbSymbolTableRecord
100
AcDbBlockTableRecord
  2
*PAPER_SPACE
  0
BLOCK_RECORD
  5
1F
100
AcDbSymbolTableRecord
100
AcDbBlockTableRecord
  2
ARROW
  0
BLOCK_RECORD
  5
20
100
AcDbSymbolTableRecord
100
AcDbBlockTableRecord
  2
_OPEN30
  0
BLOCK_RECORD
  5
1B4
100
AcDbSymbolTableRecord
100
AcDbBlockTableRecord
  2
*D2
  0
BLOCK_RECORD
  5
1C4
100
AcDbSymbolTableRecord
100
AcDbBlockTableRecord
  2
*D3
  0
BLOCK_RECORD
  5
1D3
100
AcDbSymbolTableRecord
100
AcDbBlockTableRecord
  2
*D4
  0
BLOCK_RECORD
  5
1E2
100
AcDbSymbolTableRecord
100
AcDbBlockTableRecord
  2
*D5
  0
BLOCK_RECORD
  5
1F1
100
AcDbSymbolTableRecord
100
AcDbBlockTableRecord
  2
*D6
  0
BLOCK_RECORD
  5
201
100
AcDbSymbolTableRecord
100
AcDbBlockTableRecord
  2
*D7
  0
BLOCK_RECORD
  5
210
100
AcDbSymbolTableRecord
100
AcDbBlockTableRecord
  2
*D8
  0
BLOCK_RECORD
  5
220
100
AcDbSymbolTableRecord
100
AcDbBlockTableRecord
  2
*D9
  0
BLOCK_RECORD
  5
22F
100
AcDbSymbolTableRecord
100
AcDbBlockTableRecord
  2
*D10
  0
BLOCK_RECORD
  5
23E
100
AcDbSymbolTableRecord
100
AcDbBlockTableRecord
  2
*D11
  0
BLOCK_RECORD
  5
24B
100
AcDbSymbolTableRecord
100
AcDbBlockTableRecord
  2
*D12
  0
BLOCK_RECORD
  5
25A
100
AcDbSymbolTableRecord
100
AcDbBlockTableRecord
  2
*D13
  0
ENDTAB
  0
ENDSEC
  0
SECTION
  2
BLOCKS
  0
BLOCK
  5
D
100
AcDbEntity
  8
0
100
AcDbBlockBegin
  2
*MODEL_SPACE
 70
         0
 10
0.0
 20
0.0
 30
0.0
  3
*MODEL_SPACE
  1

  0
ENDBLK
  5
E
100
AcDbEntity
  8
0
100
AcDbBlockEnd
  0
BLOCK
  5
F
100
AcDbEntity
 67
         1
  8
0
100
AcDbBlockBegin
  2
*PAPER_SPACE
 70
         0
 10
0.0
 20
0.0
 30
0.0
  3
*PAPER_SPACE
  1

  0
ENDBLK
  5
10
100
AcDbEntity
 67
         1
  8
0
100
AcDbBlockEnd
  0
BLOCK
  5
26
100
AcDbEntity
  8
0
100
AcDbBlockBegin
  2
ARROW
 70
         0
 10
0.0
 20
0.0
 30
0.0
  3
ARROW
  1

  0
LWPOLYLINE
  5
27
100
AcDbEntity
  8
0
  6
CONTINUOUS
 62
       254
100
AcDbPolyline
 90
        3
 70
         0
 10
2.67148063
 20
0.715821077
 10
0.0
 20
0.0
 10
2.67148063
 20
-0.715821077
  0
ENDBLK
  5
28
100
AcDbEntity
  8
0
100
AcDbBlockEnd
  0
BLOCK
  5
21
100
AcDbEntity
  8
0
  6
ByBlock
 62
         0
100
AcDbBlockBegin
  2
_OPEN30
 70
         2
 10
0.0
 20
0.0
 30
0.0
  3
_OPEN30
  1

  0
LINE
  5
22
100
AcDbEntity
  8
0
  6
ByBlock
 62
         0
100
AcDbLine
 10
-1.0
 20
0.267949
 30
0.0
 11
0.0
 21
0.0
 31
0.0
  0
LINE
  5
23
100
AcDbEntity
  8
0
  6
ByBlock
 62
         0
100
AcDbLine
 10
0.0
 20
0.0
 30
0.0
 11
-1.0
 21
-0.267949
 31
0.0
  0
LINE
  5
24
100
AcDbEntity
  8
0
  6
ByBlock
 62
         0
100
AcDbLine
 10
0.0
 20
0.0
 30
0.0
 11
-1.0
 21
0.0
 31
0.0
  0
ENDBLK
  5
25
100
AcDbEntity
  8
0
  6
ByBlock
 62
         0
100
AcDbBlockEnd
  0
BLOCK
  5
1B5
100
AcDbEntity
  8
0
  6
ByBlock
 62
         0
100
AcDbBlockBegin
  2
*D2
 70
         1
 10
0.0
 20
0.0
 30
0.0
  3
*D2
  1

  0
LINE
  5
1B6
100
AcDbEntity
  8
0
  6
CONTINUOUS
 62
       110
100
AcDbLine
 10
-345.27352
 20
-77.7316734
 30
0.0
 11
-221.39752
 21
-77.7316734
 31
0.0
  0
LINE
  5
1B7
100
AcDbEntity
  8
0
  6
CONTINUOUS
 62
       110
100
AcDbLine
 10
-345.27352
 20
-101.5232154532
 30
0.0
 11
-345.27352
 21
-75.2316734
 31
0.0
  0
LINE
  5
1B8
100
AcDbEntity
  8
0
  6
CONTINUOUS
 62
       110
100
AcDbLine
 10
-221.39752
 20
-101.5232154532
 30
0.0
 11
-221.39752
 21
-75.2316734
 31
0.0
  0
LINE
  5
1B9
100
AcDbEntity
  8
0
  6
CONTINUOUS
 62
       110
100
AcDbLine
 10
-345.27352
 20
-77.7316734
 30
0.0
 11
-349.27352
 21
-77.7316734
 31
0.0
  0
LINE
  5
1BA
100
AcDbEntity
  8
0
  6
CONTINUOUS
 62
       110
100
AcDbLine
 10
-221.39752
 20
-77.7316734
 30
0.0
 11
-217.39752
 21
-77.7316734
 31
0.0
  0
SOLID
  5
1BB
100
AcDbEntity
  8
0
  6
CONTINUOUS
 62
       110
100
AcDbTrace
 10
-346.2735200298
 20
-77.565006395
 30
0.0
 11
-346.2735200298
 21
-77.898340405
 31
0.0
 12
-345.27352
 22
-77.7316734
 32
0.0
 13
-345.27352
 23
-77.7316734
 33
0.0
  0
SOLID
  5
1BC
100
AcDbEntity
  8
0
  6
CONTINUOUS
 62
       110
100
AcDbTrace
 10
-220.3975199702
 20
-77.898340405
 30
0.0
 11
-220.3975199702
 21
-77.565006395
 31
0.0
 12
-221.39752
 22
-77.7316734
 32
0.0
 13
-221.39752
 23
-77.7316734
 33
0.0
  0
MTEXT
  5
1BE
100
AcDbEntity
  8
0
  6
CONTINUOUS
 62
       110
100
AcDbMText
 10
-283.0355210376
 20
-75.1316733762
 30
0.0
 40
3.2000000477
 41
0.0
 71
         5
 72
         1
  1
\A1;124
  7
MX_DIMTXSTY_2
  0
POINT
  5
1BF
100
AcDbEntity
  8
DEFPOINTS
  6
CONTINUOUS
 62
         0
100
AcDbPoint
 10
-345.27352
 20
-101.5857154532
 30
0.0
  0
POINT
  5
1C0
100
AcDbEntity
  8
DEFPOINTS
  6
CONTINUOUS
 62
         0
100
AcDbPoint
 10
-221.39752
 20
-101.5857154532
 30
0.0
  0
POINT
  5
1C1
100
AcDbEntity
  8
DEFPOINTS
  6
CONTINUOUS
 62
         0
100
AcDbPoint
 10
-221.39752
 20
-77.7316734
 30
0.0
  0
ENDBLK
  5
1C2
100
AcDbEntity
  8
0
  6
ByBlock
 62
         0
100
AcDbBlockEnd
  0
BLOCK
  5
1C5
100
AcDbEntity
  8
0
  6
ByBlock
 62
         0
100
AcDbBlockBegin
  2
*D3
 70
         1
 10
0.0
 20
0.0
 30
0.0
  3
*D3
  1

  0
LINE
  5
1C6
100
AcDbEntity
  8
0
  6
CONTINUOUS
 62
       110
100
AcDbLine
 10
-367.25152
 20
-63.4165786
 30
0.0
 11
-199.41952
 21
-63.4165786
 31
0.0
  0
LINE
  5
1C7
100
AcDbEntity
  8
0
  6
CONTINUOUS
 62
       110
100
AcDbLine
 10
-367.25152
 20
-101.2395003529
 30
0.0
 11
-367.25152
 21
-60.9165786
 31
0.0
  0
LINE
  5
1C8
100
AcDbEntity
  8
0
  6
CONTINUOUS
 62
       110
100
AcDbLine
 10
-199.41952
 20
-101.2395003529
 30
0.0
 11
-199.41952
 21
-60.9165786
 31
0.0
  0
LINE
  5
1C9
100
AcDbEntity
  8
0
  6
CONTINUOUS
 62
       110
100
AcDbLine
 10
-367.25152
 20
-63.4165786
 30
0.0
 11
-371.25152
 21
-63.4165786
 31
0.0
  0
LINE
  5
1CA
100
AcDbEntity
  8
0
  6
CONTINUOUS
 62
       110
100
AcDbLine
 10
-199.41952
 20
-63.4165786
 30
0.0
 11
-195.41952
 21
-63.4165786
 31
0.0
  0
SOLID
  5
1CB
100
AcDbEntity
  8
0
  6
CONTINUOUS
 62
       110
100
AcDbTrace
 10
-368.2515200298
 20
-63.249911595
 30
0.0
 11
-368.2515200298
 21
-63.583245605
 31
0.0
 12
-367.25152
 22
-63.4165786
 32
0.0
 13
-367.25152
 23
-63.4165786
 33
0.0
  0
SOLID
  5
1CC
100
AcDbEntity
  8
0
  6
CONTINUOUS
 62
       110
100
AcDbTrace
 10
-198.4195199702
 20
-63.583245605
 30
0.0
 11
-198.4195199702
 21
-63.249911595
 31
0.0
 12
-199.41952
 22
-63.4165786
 32
0.0
 13
-199.41952
 23
-63.4165786
 33
0.0
  0
MTEXT
  5
1CD
100
AcDbEntity
  8
0
  6
CONTINUOUS
 62
       110
100
AcDbMText
 10
-283.035516582
 20
-60.8165785762
 30
0.0
 40
3.2000000477
 41
0.0
 71
         5
 72
         1
  1
\A1;168
  7
MX_DIMTXSTY_2
  0
POINT
  5
1CE
100
AcDbEntity
  8
DEFPOINTS
  6
CONTINUOUS
 62
         0
100
AcDbPoint
 10
-367.25152
 20
-101.3020003529
 30
0.0
  0
POINT
  5
1CF
100
AcDbEntity
  8
DEFPOINTS
  6
CONTINUOUS
 62
         0
100
AcDbPoint
 10
-199.41952
 20
-101.3020003529
 30
0.0
  0
POINT
  5
1D0
100
AcDbEntity
  8
DEFPOINTS
  6
CONTINUOUS
 62
         0
100
AcDbPoint
 10
-199.41952
 20
-63.4165786
 30
0.0
  0
ENDBLK
  5
1D1
100
AcDbEntity
  8
0
  6
ByBlock
 62
         0
100
AcDbBlockEnd
  0
BLOCK
  5
1D4
100
AcDbEntity
  8
0
  6
ByBlock
 62
         0
100
AcDbBlockBegin
  2
*D4
 70
         1
 10
0.0
 20
0.0
 30
0.0
  3
*D4
  1

  0
LINE
  5
1D5
100
AcDbEntity
  8
0
  6
CONTINUOUS
 62
       110
100
AcDbLine
 10
-177.582332
 20
-123.28
 30
0.0
 11
-177.582332
 21
-247.156
 31
0.0
  0
LINE
  5
1D6
100
AcDbEntity
  8
0
  6
CONTINUOUS
 62
       110
100
AcDbLine
 10
-202.3909829705
 20
-123.28
 30
0.0
 11
-175.082332
 21
-123.28
 31
0.0
  0
LINE
  5
1D7
100
AcDbEntity
  8
0
  6
CONTINUOUS
 62
       110
100
AcDbLine
 10
-202.3909829705
 20
-247.156
 30
0.0
 11
-175.082332
 21
-247.156
 31
0.0
  0
LINE
  5
1D8
100
AcDbEntity
  8
0
  6
CONTINUOUS
 62
       110
100
AcDbLine
 10
-177.582332
 20
-123.28
 30
0.0
 11
-177.582332
 21
-119.28
 31
0.0
  0
LINE
  5
1D9
100
AcDbEntity
  8
0
  6
CONTINUOUS
 62
       110
100
AcDbLine
 10
-177.582332
 20
-247.156
 30
0.0
 11
-177.582332
 21
-251.156
 31
0.0
  0
SOLID
  5
1DA
100
AcDbEntity
  8
0
  6
CONTINUOUS
 62
       110
100
AcDbTrace
 10
-177.415664995
 20
-122.2799999702
 30
0.0
 11
-177.748999005
 21
-122.2799999702
 31
0.0
 12
-177.582332
 22
-123.28
 32
0.0
 13
-177.582332
 23
-123.28
 33
0.0
  0
SOLID
  5
1DB
100
AcDbEntity
  8
0
  6
CONTINUOUS
 62
       110
100
AcDbTrace
 10
-177.748999005
 20
-248.1560000298
 30
0.0
 11
-177.415664995
 21
-248.1560000298
 31
0.0
 12
-177.582332
 22
-247.156
 32
0.0
 13
-177.582332
 23
-247.156
 33
0.0
  0
MTEXT
  5
1DC
100
AcDbEntity
  8
0
  6
CONTINUOUS
 62
       110
100
AcDbMText
 10
-180.1823320238
 20
-184.9180004883
 30
0.0
 40
3.2000000477
 41
0.0
 71
         5
 72
         1
  1
\A1;124
  7
MX_DIMTXSTY_2
 11
0.0
 21
1.0
 31
0.0
  0
POINT
  5
1DD
100
AcDbEntity
  8
DEFPOINTS
  6
CONTINUOUS
 62
         0
100
AcDbPoint
 10
-202.4534829705
 20
-123.28
 30
0.0
  0
POINT
  5
1DE
100
AcDbEntity
  8
DEFPOINTS
  6
CONTINUOUS
 62
         0
100
AcDbPoint
 10
-202.4534829705
 20
-247.156
 30
0.0
  0
POINT
  5
1DF
100
AcDbEntity
  8
DEFPOINTS
  6
CONTINUOUS
 62
         0
100
AcDbPoint
 10
-177.582332
 20
-247.156
 30
0.0
  0
ENDBLK
  5
1E0
100
AcDbEntity
  8
0
  6
ByBlock
 62
         0
100
AcDbBlockEnd
  0
BLOCK
  5
1E3
100
AcDbEntity
  8
0
  6
ByBlock
 62
         0
100
AcDbBlockBegin
  2
*D5
 70
         1
 10
0.0
 20
0.0
 30
0.0
  3
*D5
  1

  0
LINE
  5
1E4
100
AcDbEntity
  8
0
  6
CONTINUOUS
 62
       110
100
AcDbLine
 10
-159.898979
 20
-101.302
 30
0.0
 11
-159.898979
 21
-269.134
 31
0.0
  0
LINE
  5
1E5
100
AcDbEntity
  8
0
  6
CONTINUOUS
 62
       110
100
AcDbLine
 10
-199.3570211448
 20
-101.302
 30
0.0
 11
-157.398979
 21
-101.302
 31
0.0
  0
LINE
  5
1E6
100
AcDbEntity
  8
0
  6
CONTINUOUS
 62
       110
100
AcDbLine
 10
-199.3570211448
 20
-269.134
 30
0.0
 11
-157.398979
 21
-269.134
 31
0.0
  0
LINE
  5
1E7
100
AcDbEntity
  8
0
  6
CONTINUOUS
 62
       110
100
AcDbLine
 10
-159.898979
 20
-101.302
 30
0.0
 11
-159.898979
 21
-97.302
 31
0.0
  0
LINE
  5
1E8
100
AcDbEntity
  8
0
  6
CONTINUOUS
 62
       110
100
AcDbLine
 10
-159.898979
 20
-269.134
 30
0.0
 11
-159.898979
 21
-273.134
 31
0.0
  0
SOLID
  5
1E9
100
AcDbEntity
  8
0
  6
CONTINUOUS
 62
       110
100
AcDbTrace
 10
-159.732311995
 20
-100.3019999702
 30
0.0
 11
-160.065646005
 21
-100.3019999702
 31
0.0
 12
-159.898979
 22
-101.302
 32
0.0
 13
-159.898979
 23
-101.302
 33
0.0
  0
SOLID
  5
1EA
100
AcDbEntity
  8
0
  6
CONTINUOUS
 62
       110
100
AcDbTrace
 10
-160.065646005
 20
-270.1340000298
 30
0.0
 11
-159.732311995
 21
-270.1340000298
 31
0.0
 12
-159.898979
 22
-269.134
 32
0.0
 13
-159.898979
 23
-269.134
 33
0.0
  0
MTEXT
  5
1EB
100
AcDbEntity
  8
0
  6
CONTINUOUS
 62
       110
100
AcDbMText
 10
-162.4989790238
 20
-184.9179973145
 30
0.0
 40
3.2000000477
 41
0.0
 71
         5
 72
         1
  1
\A1;168
  7
MX_DIMTXSTY_2
 11
0.0
 21
1.0
 31
0.0
  0
POINT
  5
1EC
100
AcDbEntity
  8
DEFPOINTS
  6
CONTINUOUS
 62
         0
100
AcDbPoint
 10
-199.4195211448
 20
-101.302
 30
0.0
  0
POINT
  5
1ED
100
AcDbEntity
  8
DEFPOINTS
  6
CONTINUOUS
 62
         0
100
AcDbPoint
 10
-199.4195211448
 20
-269.134
 30
0.0
  0
POINT
  5
1EE
100
AcDbEntity
  8
DEFPOINTS
  6
CONTINUOUS
 62
         0
100
AcDbPoint
 10
-159.898979
 20
-269.134
 30
0.0
  0
ENDBLK
  5
1EF
100
AcDbEntity
  8
0
  6
ByBlock
 62
         0
100
AcDbBlockEnd
  0
BLOCK
  5
1F2
100
AcDbEntity
  8
0
  6
ByBlock
 62
         0
100
AcDbBlockBegin
  2
*D6
 70
         1
 10
0.0
 20
0.0
 30
0.0
  3
*D6
  1

  0
LINE
  5
1F3
100
AcDbEntity
  8
0
  6
CONTINUOUS
 62
       110
100
AcDbLine
 10
327.340071
 20
-157.246
 30
0.0
 11
327.340071
 21
-213.19
 31
0.0
  0
LINE
  5
1F4
100
AcDbEntity
  8
0
  6
CONTINUOUS
 62
       110
100
AcDbLine
 10
300.2630408181
 20
-157.246
 30
0.0
 11
329.840071
 21
-157.246
 31
0.0
  0
LINE
  5
1F5
100
AcDbEntity
  8
0
  6
CONTINUOUS
 62
       110
100
AcDbLine
 10
300.2630408181
 20
-213.19
 30
0.0
 11
329.840071
 21
-213.19
 31
0.0
  0
LINE
  5
1F6
100
AcDbEntity
  8
0
  6
CONTINUOUS
 62
       110
100
AcDbLine
 10
327.340071
 20
-157.246
 30
0.0
 11
327.340071
 21
-153.246
 31
0.0
  0
LINE
  5
1F7
100
AcDbEntity
  8
0
  6
CONTINUOUS
 62
       110
100
AcDbLine
 10
327.340071
 20
-213.19
 30
0.0
 11
327.340071
 21
-217.19
 31
0.0
  0
SOLID
  5
1F8
100
AcDbEntity
  8
0
  6
CONTINUOUS
 62
       110
100
AcDbTrace
 10
327.506738005
 20
-156.2459999702
 30
0.0
 11
327.173403995
 21
-156.2459999702
 31
0.0
 12
327.340071
 22
-157.246
 32
0.0
 13
327.340071
 23
-157.246
 33
0.0
  0
SOLID
  5
1F9
100
AcDbEntity
  8
0
  6
CONTINUOUS
 62
       110
100
AcDbTrace
 10
327.173403995
 20
-214.1900000298
 30
0.0
 11
327.506738005
 21
-214.1900000298
 31
0.0
 12
327.340071
 22
-213.19
 32
0.0
 13
327.340071
 23
-213.19
 33
0.0
  0
MTEXT
  5
1FB
100
AcDbEntity
  8
0
  6
CONTINUOUS
 62
       110
100
AcDbMText
 10
324.7400709762
 20
-184.918000885
 30
0.0
 40
3.2000000477
 41
0.0
 71
         5
 72
         1
  1
\A1;\U+220556
  7
MX_DIMTXSTY_3
 11
0.0
 21
1.0
 31
0.0
  0
POINT
  5
1FC
100
AcDbEntity
  8
DEFPOINTS
  6
CONTINUOUS
 62
         0
100
AcDbPoint
 10
300.2005408181
 20
-157.246
 30
0.0
  0
POINT
  5
1FD
100
AcDbEntity
  8
DEFPOINTS
  6
CONTINUOUS
 62
         0
100
AcDbPoint
 10
300.2005408181
 20
-213.19
 30
0.0
  0
POINT
  5
1FE
100
AcDbEntity
  8
DEFPOINTS
  6
CONTINUOUS
 62
         0
100
AcDbPoint
 10
327.340071
 20
-213.19
 30
0.0
  0
ENDBLK
  5
1FF
100
AcDbEntity
  8
0
  6
ByBlock
 62
         0
100
AcDbBlockEnd
  0
BLOCK
  5
202
100
AcDbEntity
  8
0
  6
ByBlock
 62
         0
100
AcDbBlockBegin
  2
*D7
 70
         1
 10
0.0
 20
0.0
 30
0.0
  3
*D7
  1

  0
LINE
  5
203
100
AcDbEntity
  8
0
  6
CONTINUOUS
 62
       110
100
AcDbLine
 10
343.763455
 20
-117.7855
 30
0.0
 11
343.763455
 21
-252.6505
 31
0.0
  0
LINE
  5
204
100
AcDbEntity
  8
0
  6
CONTINUOUS
 62
       110
100
AcDbLine
 10
266.0412946606
 20
-117.7855
 30
0.0
 11
346.263455
 21
-117.7855
 31
0.0
  0
LINE
  5
205
100
AcDbEntity
  8
0
  6
CONTINUOUS
 62
       110
100
AcDbLine
 10
266.0412946606
 20
-252.6505
 30
0.0
 11
346.263455
 21
-252.6505
 31
0.0
  0
LINE
  5
206
100
AcDbEntity
  8
0
  6
CONTINUOUS
 62
       110
100
AcDbLine
 10
343.763455
 20
-117.7855
 30
0.0
 11
343.763455
 21
-113.7855
 31
0.0
  0
LINE
  5
207
100
AcDbEntity
  8
0
  6
CONTINUOUS
 62
       110
100
AcDbLine
 10
343.763455
 20
-252.6505
 30
0.0
 11
343.763455
 21
-256.6505
 31
0.0
  0
SOLID
  5
208
100
AcDbEntity
  8
0
  6
CONTINUOUS
 62
       110
100
AcDbTrace
 10
343.930122005
 20
-116.7854999702
 30
0.0
 11
343.596787995
 21
-116.7854999702
 31
0.0
 12
343.763455
 22
-117.7855
 32
0.0
 13
343.763455
 23
-117.7855
 33
0.0
  0
SOLID
  5
209
100
AcDbEntity
  8
0
  6
CONTINUOUS
 62
       110
100
AcDbTrace
 10
343.596787995
 20
-253.6505000298
 30
0.0
 11
343.930122005
 21
-253.6505000298
 31
0.0
 12
343.763455
 22
-252.6505
 32
0.0
 13
343.763455
 23
-252.6505
 33
0.0
  0
MTEXT
  5
20A
100
AcDbEntity
  8
0
  6
CONTINUOUS
 62
       110
100
AcDbMText
 10
341.1634549762
 20
-184.9179996948
 30
0.0
 40
3.2000000477
 41
0.0
 71
         5
 72
         1
  1
\A1;\U+2205135
 11
0.0
 21
1.0
 31
0.0
  0
POINT
  5
20B
100
AcDbEntity
  8
DEFPOINTS
  6
CONTINUOUS
 62
         0
100
AcDbPoint
 10
265.9787946606
 20
-117.7855
 30
0.0
  0
POINT
  5
20C
100
AcDbEntity
  8
DEFPOINTS
  6
CONTINUOUS
 62
         0
100
AcDbPoint
 10
265.9787946606
 20
-252.6505
 30
0.0
  0
POINT
  5
20D
100
AcDbEntity
  8
DEFPOINTS
  6
CONTINUOUS
 62
         0
100
AcDbPoint
 10
343.763455
 20
-252.6505
 30
0.0
  0
ENDBLK
  5
20E
100
AcDbEntity
  8
0
  6
ByBlock
 62
         0
100
AcDbBlockEnd
  0
BLOCK
  5
211
100
AcDbEntity
  8
0
  6
ByBlock
 62
         0
100
AcDbBlockBegin
  2
*D8
 70
         1
 10
0.0
 20
0.0
 30
0.0
  3
*D8
  1

  0
LINE
  5
212
100
AcDbEntity
  8
0
  6
CONTINUOUS
 62
       110
100
AcDbLine
 10
192.36848
 20
-69.4824938
 30
0.0
 11
305.25548
 21
-69.4824938
 31
0.0
  0
LINE
  5
213
100
AcDbEntity
  8
0
  6
CONTINUOUS
 62
       110
100
AcDbLine
 10
192.36848
 20
-118.2224992932
 30
0.0
 11
192.36848
 21
-66.9824938
 31
0.0
  0
LINE
  5
214
100
AcDbEntity
  8
0
  6
CONTINUOUS
 62
       110
100
AcDbLine
 10
305.25548
 20
-185.1554979504
 30
0.0
 11
305.25548
 21
-66.9824938
 31
0.0
  0
LINE
  5
215
100
AcDbEntity
  8
0
  6
CONTINUOUS
 62
       110
100
AcDbLine
 10
192.36848
 20
-69.4824938
 30
0.0
 11
188.36848
 21
-69.4824938
 31
0.0
  0
LINE
  5
216
100
AcDbEntity
  8
0
  6
CONTINUOUS
 62
       110
100
AcDbLine
 10
305.25548
 20
-69.4824938
 30
0.0
 11
309.25548
 21
-69.4824938
 31
0.0
  0
SOLID
  5
217
100
AcDbEntity
  8
0
  6
CONTINUOUS
 62
       110
100
AcDbTrace
 10
191.3684799702
 20
-69.315826795
 30
0.0
 11
191.3684799702
 21
-69.649160805
 31
0.0
 12
192.36848
 22
-69.4824938
 32
0.0
 13
192.36848
 23
-69.4824938
 33
0.0
  0
SOLID
  5
218
100
AcDbEntity
  8
0
  6
CONTINUOUS
 62
       110
100
AcDbTrace
 10
306.2554800298
 20
-69.649160805
 30
0.0
 11
306.2554800298
 21
-69.315826795
 31
0.0
 12
305.25548
 22
-69.4824938
 32
0.0
 13
305.25548
 23
-69.4824938
 33
0.0
  0
MTEXT
  5
21A
100
AcDbEntity
  8
0
  6
CONTINUOUS
 62
       110
100
AcDbMText
 10
249.1119797559
 20
-66.8824937762
 30
0.0
 40
3.2000000477
 41
0.0
 71
         5
 72
         1
  1
\A1;113
  7
MX_DIMTXSTY_4
  0
POINT
  5
21B
100
AcDbEntity
  8
DEFPOINTS
  6
CONTINUOUS
 62
         0
100
AcDbPoint
 10
192.36848
 20
-118.2849992932
 30
0.0
  0
POINT
  5
21C
100
AcDbEntity
  8
DEFPOINTS
  6
CONTINUOUS
 62
         0
100
AcDbPoint
 10
305.25548
 20
-185.2179979504
 30
0.0
  0
POINT
  5
21D
100
AcDbEntity
  8
DEFPOINTS
  6
CONTINUOUS
 62
         0
100
AcDbPoint
 10
305.25548
 20
-69.4824938
 30
0.0
  0
ENDBLK
  5
21E
100
AcDbEntity
  8
0
  6
ByBlock
 62
         0
100
AcDbBlockEnd
  0
BLOCK
  5
221
100
AcDbEntity
  8
0
  6
ByBlock
 62
         0
100
AcDbBlockBegin
  2
*D9
 70
         1
 10
0.0
 20
0.0
 30
0.0
  3
*D9
  1

  0
LINE
  5
222
100
AcDbEntity
  8
0
  6
CONTINUOUS
 62
       110
100
AcDbLine
 10
-133.30552
 20
-69.4824938
 30
0.0
 11
192.36848
 21
-69.4824938
 31
0.0
  0
LINE
  5
223
100
AcDbEntity
  8
0
  6
CONTINUOUS
 62
       110
100
AcDbLine
 10
-133.30552
 20
-101.2394994915
 30
0.0
 11
-133.30552
 21
-66.9824938
 31
0.0
  0
LINE
  5
224
100
AcDbEntity
  8
0
  6
CONTINUOUS
 62
       110
100
AcDbLine
 10
192.36848
 20
-118.2224992932
 30
0.0
 11
192.36848
 21
-66.9824938
 31
0.0
  0
LINE
  5
225
100
AcDbEntity
  8
0
  6
CONTINUOUS
 62
       110
100
AcDbLine
 10
-133.30552
 20
-69.4824938
 30
0.0
 11
-137.30552
 21
-69.4824938
 31
0.0
  0
LINE
  5
226
100
AcDbEntity
  8
0
  6
CONTINUOUS
 62
       110
100
AcDbLine
 10
192.36848
 20
-69.4824938
 30
0.0
 11
196.36848
 21
-69.4824938
 31
0.0
  0
SOLID
  5
227
100
AcDbEntity
  8
0
  6
CONTINUOUS
 62
       110
100
AcDbTrace
 10
-134.3055200298
 20
-69.315826795
 30
0.0
 11
-134.3055200298
 21
-69.649160805
 31
0.0
 12
-133.30552
 22
-69.4824938
 32
0.0
 13
-133.30552
 23
-69.4824938
 33
0.0
  0
SOLID
  5
228
100
AcDbEntity
  8
0
  6
CONTINUOUS
 62
       110
100
AcDbTrace
 10
193.3684800298
 20
-69.649160805
 30
0.0
 11
193.3684800298
 21
-69.315826795
 31
0.0
 12
192.36848
 22
-69.4824938
 32
0.0
 13
192.36848
 23
-69.4824938
 33
0.0
  0
MTEXT
  5
229
100
AcDbEntity
  8
0
  6
CONTINUOUS
 62
       110
100
AcDbMText
 10
29.831488667
 20
-66.8824937762
 30
0.0
 40
3.2000000477
 41
0.0
 71
         5
 72
         1
  1
\A1;326
  0
POINT
  5
22A
100
AcDbEntity
  8
DEFPOINTS
  6
CONTINUOUS
 62
         0
100
AcDbPoint
 10
-133.30552
 20
-101.3019994915
 30
0.0
  0
POINT
  5
22B
100
AcDbEntity
  8
DEFPOINTS
  6
CONTINUOUS
 62
         0
100
AcDbPoint
 10
192.36848
 20
-118.2849992932
 30
0.0
  0
POINT
  5
22C
100
AcDbEntity
  8
DEFPOINTS
  6
CONTINUOUS
 62
         0
100
AcDbPoint
 10
192.36848
 20
-69.4824938
 30
0.0
  0
ENDBLK
  5
22D
100
AcDbEntity
  8
0
  6
ByBlock
 62
         0
100
AcDbBlockEnd
  0
BLOCK
  5
230
100
AcDbEntity
  8
0
  6
ByBlock
 62
         0
100
AcDbBlockBegin
  2
*D10
 70
         1
 10
0.0
 20
0.0
 30
0.0
  3
*D10
  1

  0
LINE
  5
231
100
AcDbEntity
  8
0
  6
CONTINUOUS
 62
       110
100
AcDbLine
 10
-133.30552
 20
-85.5758852
 30
0.0
 11
-103.33552
 21
-85.5758852
 31
0.0
  0
LINE
  5
232
100
AcDbEntity
  8
0
  6
CONTINUOUS
 62
       110
100
AcDbLine
 10
-133.30552
 20
-101.2395004267
 30
0.0
 11
-133.30552
 21
-83.0758852
 31
0.0
  0
LINE
  5
233
100
AcDbEntity
  8
0
  6
CONTINUOUS
 62
       110
100
AcDbLine
 10
-103.33552
 20
-101.2395004267
 30
0.0
 11
-103.33552
 21
-83.0758852
 31
0.0
  0
LINE
  5
234
100
AcDbEntity
  8
0
  6
CONTINUOUS
 62
       110
100
AcDbLine
 10
-133.30552
 20
-85.5758852
 30
0.0
 11
-137.30552
 21
-85.5758852
 31
0.0
  0
LINE
  5
235
100
AcDbEntity
  8
0
  6
CONTINUOUS
 62
       110
100
AcDbLine
 10
-103.33552
 20
-85.5758852
 30
0.0
 11
-99.33552
 21
-85.5758852
 31
0.0
  0
SOLID
  5
236
100
AcDbEntity
  8
0
  6
CONTINUOUS
 62
       110
100
AcDbTrace
 10
-134.3055200298
 20
-85.409218195
 30
0.0
 11
-134.3055200298
 21
-85.742552205
 31
0.0
 12
-133.30552
 22
-85.5758852
 32
0.0
 13
-133.30552
 23
-85.5758852
 33
0.0
  0
SOLID
  5
237
100
AcDbEntity
  8
0
  6
CONTINUOUS
 62
       110
100
AcDbTrace
 10
-102.3355199702
 20
-85.742552205
 30
0.0
 11
-102.3355199702
 21
-85.409218195
 31
0.0
 12
-103.33552
 22
-85.5758852
 32
0.0
 13
-103.33552
 23
-85.5758852
 33
0.0
  0
MTEXT
  5
238
100
AcDbEntity
  8
0
  6
CONTINUOUS
 62
       110
100
AcDbMText
 10
-118.0205201526
 20
-82.9758851762
 30
0.0
 40
3.2000000477
 41
0.0
 71
         5
 72
         1
  1
\A1;30
  0
POINT
  5
239
100
AcDbEntity
  8
DEFPOINTS
  6
CONTINUOUS
 62
         0
100
AcDbPoint
 10
-133.30552
 20
-101.3020004267
 30
0.0
  0
POINT
  5
23A
100
AcDbEntity
  8
DEFPOINTS
  6
CONTINUOUS
 62
         0
100
AcDbPoint
 10
-103.33552
 20
-101.3020004267
 30
0.0
  0
POINT
  5
23B
100
AcDbEntity
  8
DEFPOINTS
  6
CONTINUOUS
 62
         0
100
AcDbPoint
 10
-103.33552
 20
-85.5758852
 30
0.0
  0
ENDBLK
  5
23C
100
AcDbEntity
  8
0
  6
ByBlock
 62
         0
100
AcDbBlockEnd
  0
BLOCK
  5
23F
100
AcDbEntity
  8
0
  6
ByBlock
 62
         0
100
AcDbBlockBegin
  2
*D11
 70
         1
 10
0.0
 20
0.0
 30
0.0
  3
*D11
  1

  0
LINE
  5
240
100
AcDbEntity
  8
0
  6
CONTINUOUS
 62
       110
100
AcDbLine
 10
799.445539
 20
-180.223
 30
0.0
 11
799.445539
 21
-190.213
 31
0.0
  0
LINE
  5
241
100
AcDbEntity
  8
0
  6
CONTINUOUS
 62
       110
100
AcDbLine
 10
761.4319815659
 20
-180.223
 30
0.0
 11
801.945539
 21
-180.223
 31
0.0
  0
LINE
  5
242
100
AcDbEntity
  8
0
  6
CONTINUOUS
 62
       110
100
AcDbLine
 10
761.4319815659
 20
-190.213
 30
0.0
 11
801.945539
 21
-190.213
 31
0.0
  0
SOLID
  5
243
100
AcDbEntity
  8
0
  6
CONTINUOUS
 62
       110
100
AcDbTrace
 10
799.278871995
 20
-181.2230000298
 30
0.0
 11
799.612206005
 21
-181.2230000298
 31
0.0
 12
799.445539
 22
-180.223
 32
0.0
 13
799.445539
 23
-180.223
 33
0.0
  0
SOLID
  5
244
100
AcDbEntity
  8
0
  6
CONTINUOUS
 62
       110
100
AcDbTrace
 10
799.612206005
 20
-189.2129999702
 30
0.0
 11
799.278871995
 21
-189.2129999702
 31
0.0
 12
799.445539
 22
-190.213
 32
0.0
 13
799.445539
 23
-190.213
 33
0.0
  0
MTEXT
  5
245
100
AcDbEntity
  8
0
  6
CONTINUOUS
 62
       110
100
AcDbMText
 10
796.8455389762
 20
-184.9180001717
 30
0.0
 40
3.2000000477
 41
0.0
 71
         5
 72
         1
  1
\A1;\U+220510
  7
MX_DIMTXSTY_2
 11
0.0
 21
1.0
 31
0.0
  0
POINT
  5
246
100
AcDbEntity
  8
DEFPOINTS
  6
CONTINUOUS
 62
         0
100
AcDbPoint
 10
761.3694815659
 20
-180.223
 30
0.0
  0
POINT
  5
247
100
AcDbEntity
  8
DEFPOINTS
  6
CONTINUOUS
 62
         0
100
AcDbPoint
 10
761.3694815659
 20
-190.213
 30
0.0
  0
POINT
  5
248
100
AcDbEntity
  8
DEFPOINTS
  6
CONTINUOUS
 62
         0
100
AcDbPoint
 10
799.445539
 20
-190.213
 30
0.0
  0
ENDBLK
  5
249
100
AcDbEntity
  8
0
  6
ByBlock
 62
         0
100
AcDbBlockEnd
  0
BLOCK
  5
24C
100
AcDbEntity
  8
0
  6
ByBlock
 62
         0
100
AcDbBlockBegin
  2
*D12
 70
         1
 10
0.0
 20
0.0
 30
0.0
  3
*D12
  1

  0
LINE
  5
24D
100
AcDbEntity
  8
0
  6
CONTINUOUS
 62
       110
100
AcDbLine
 10
761.36948
 20
-205.515089
 30
0.0
 11
531.59948
 21
-205.515089
 31
0.0
  0
LINE
  5
24E
100
AcDbEntity
  8
0
  6
CONTINUOUS
 62
       110
100
AcDbLine
 10
761.36948
 20
-190.2755002625
 30
0.0
 11
761.36948
 21
-208.015089
 31
0.0
  0
LINE
  5
24F
100
AcDbEntity
  8
0
  6
CONTINUOUS
 62
       110
100
AcDbLine
 10
531.59948
 20
-190.2755002625
 30
0.0
 11
531.59948
 21
-208.015089
 31
0.0
  0
LINE
  5
250
100
AcDbEntity
  8
0
  6
CONTINUOUS
 62
       110
100
AcDbLine
 10
761.36948
 20
-205.515089
 30
0.0
 11
765.36948
 21
-205.515089
 31
0.0
  0
LINE
  5
251
100
AcDbEntity
  8
0
  6
CONTINUOUS
 62
       110
100
AcDbLine
 10
531.59948
 20
-205.515089
 30
0.0
 11
527.59948
 21
-205.515089
 31
0.0
  0
SOLID
  5
252
100
AcDbEntity
  8
0
  6
CONTINUOUS
 62
       110
100
AcDbTrace
 10
762.3694800298
 20
-205.681756005
 30
0.0
 11
762.3694800298
 21
-205.348421995
 31
0.0
 12
761.36948
 22
-205.515089
 32
0.0
 13
761.36948
 23
-205.515089
 33
0.0
  0
SOLID
  5
253
100
AcDbEntity
  8
0
  6
CONTINUOUS
 62
       110
100
AcDbTrace
 10
530.5994799702
 20
-205.348421995
 30
0.0
 11
530.5994799702
 21
-205.681756005
 31
0.0
 12
531.59948
 22
-205.515089
 32
0.0
 13
531.59948
 23
-205.515089
 33
0.0
  0
MTEXT
  5
254
100
AcDbEntity
  8
0
  6
CONTINUOUS
 62
       110
100
AcDbMText
 10
646.7844809155
 20
-202.9150889762
 30
0.0
 40
3.2000000477
 41
0.0
 71
         5
 72
         1
  1
\A1;230
 11
1.0
 21
0.0
 31
0.0
  0
POINT
  5
255
100
AcDbEntity
  8
DEFPOINTS
  6
CONTINUOUS
 62
         0
100
AcDbPoint
 10
761.36948
 20
-190.2130002625
 30
0.0
  0
POINT
  5
256
100
AcDbEntity
  8
DEFPOINTS
  6
CONTINUOUS
 62
         0
100
AcDbPoint
 10
531.59948
 20
-190.2130002625
 30
0.0
  0
POINT
  5
257
100
AcDbEntity
  8
DEFPOINTS
  6
CONTINUOUS
 62
         0
100
AcDbPoint
 10
531.59948
 20
-205.515089
 30
0.0
  0
ENDBLK
  5
258
100
AcDbEntity
  8
0
  6
ByBlock
 62
         0
100
AcDbBlockEnd
  0
BLOCK
  5
25B
100
AcDbEntity
  8
0
  6
ByBlock
 62
         0
100
AcDbBlockBegin
  2
*D13
 70
         1
 10
0.0
 20
0.0
 30
0.0
  3
*D13
  1

  0
LINE
  5
25C
100
AcDbEntity
  8
0
  6
CONTINUOUS
 62
       110
100
AcDbLine
 10
761.36948
 20
-280.15946
 30
0.0
 11
466.66448
 21
-280.15946
 31
0.0
  0
LINE
  5
25D
100
AcDbEntity
  8
0
  6
CONTINUOUS
 62
       110
100
AcDbLine
 10
761.36948
 20
-190.2755030908
 30
0.0
 11
761.36948
 21
-282.65946
 31
0.0
  0
LINE
  5
25E
100
AcDbEntity
  8
0
  6
CONTINUOUS
 62
       110
100
AcDbLine
 10
466.66448
 20
-280.09696
 30
0.0
 11
466.66448
 21
-279.97946
 31
0.0
  0
LINE
  5
25F
100
AcDbEntity
  8
0
  6
CONTINUOUS
 62
       110
100
AcDbLine
 10
761.36948
 20
-280.15946
 30
0.0
 11
765.36948
 21
-280.15946
 31
0.0
  0
LINE
  5
260
100
AcDbEntity
  8
0
  6
CONTINUOUS
 62
       110
100
AcDbLine
 10
466.66448
 20
-280.15946
 30
0.0
 11
462.66448
 21
-280.15946
 31
0.0
  0
SOLID
  5
261
100
AcDbEntity
  8
0
  6
CONTINUOUS
 62
       110
100
AcDbTrace
 10
762.3694800298
 20
-280.326127005
 30
0.0
 11
762.3694800298
 21
-279.992792995
 31
0.0
 12
761.36948
 22
-280.15946
 32
0.0
 13
761.36948
 23
-280.15946
 33
0.0
  0
SOLID
  5
262
100
AcDbEntity
  8
0
  6
CONTINUOUS
 62
       110
100
AcDbTrace
 10
465.6644799702
 20
-279.992792995
 30
0.0
 11
465.6644799702
 21
-280.326127005
 31
0.0
 12
466.66448
 22
-280.15946
 32
0.0
 13
466.66448
 23
-280.15946
 33
0.0
  0
MTEXT
  5
263
100
AcDbEntity
  8
0
  6
CONTINUOUS
 62
       110
100
AcDbMText
 10
614.3169745068
 20
-277.5594599762
 30
0.0
 40
3.2000000477
 41
0.0
 71
         5
 72
         1
  1
\A1;295
 11
1.0
 21
0.0
 31
0.0
  0
POINT
  5
264
100
AcDbEntity
  8
DEFPOINTS
  6
CONTINUOUS
 62
         0
100
AcDbPoint
 10
761.36948
 20
-190.2130030908
 30
0.0
  0
POINT
  5
265
100
AcDbEntity
  8
DEFPOINTS
  6
CONTINUOUS
 62
         0
100
AcDbPoint
 10
466.66448
 20
-280.15946
 30
0.0
  0
POINT
  5
266
100
AcDbEntity
  8
DEFPOINTS
  6
CONTINUOUS
 62
         0
100
AcDbPoint
 10
466.66448
 20
-280.15946
 30
0.0
  0
ENDBLK
  5
267
100
AcDbEntity
  8
0
  6
ByBlock
 62
         0
100
AcDbBlockEnd
  0
ENDSEC
  0
SECTION
  2
ENTITIES
  0
MTEXT
  5
29
100
AcDbEntity
  8
0
  6
CONTINUOUS
 62
       110
100
AcDbMText
 10
-54.3424868395
 20
-10.7925999629
 30
0.0
 40
3.1968002319
 41
0.0
 71
         1
 72
         1
  1
\T1.025;\W1.058;\A1;TSUBAKI
  0
INSERT
  5
2A
100
AcDbEntity
  8
PV
  6
ByBlock
100
AcDbBlockReference
  2
ARROW
 10
-334.670571
 20
-244.268857
 30
0.0
 50
195.232134
  0
INSERT
  5
2B
100
AcDbEntity
  8
PV
  6
ByBlock
100
AcDbBlockReference
  2
ARROW
 10
-355.876469
 20
-250.043143
 30
0.0
 50
15.2321034
  0
MTEXT
  5
2C
100
AcDbEntity
  8
PV
  6
CONTINUOUS
 62
       110
100
AcDbMText
 10
-297.6068976109
 20
-188.0182954109
 30
0.0
 40
3.1968002319
 41
0.0
 71
         1
 72
         1
  1
\W1.117;\A1;\U+220575.5
 11
0.8910065242
 21
0.4539904997
 31
0.0
  0
LINE
  5
2D
100
AcDbEntity
  8
PV
  6
CONTINUOUS
 62
         3
100
AcDbLine
 10
-249.765124
 20
-168.0352
 30
0.0
 11
-316.905916
 21
-202.4008
 31
0.0
  0
CIRCLE
  5
2E
100
AcDbEntity
  8
PV
  6
CONTINUOUS
 62
         3
100
AcDbCircle
 10
-320.775043
 20
-222.657523
 30
0.0
 40
10.2897
  0
CIRCLE
  5
2F
100
AcDbEntity
  8
PV
  6
CONTINUOUS
 62
         3
100
AcDbCircle
 10
-320.775043
 20
-222.657523
 30
0.0
 40
11.988
  0
CIRCLE
  5
30
100
AcDbEntity
  8
PV
  6
CONTINUOUS
 62
         3
100
AcDbCircle
 10
-245.895997
 20
-222.657523
 30
0.0
 40
10.2897
  0
CIRCLE
  5
31
100
AcDbEntity
  8
PV
  6
CONTINUOUS
 62
         3
100
AcDbCircle
 10
-245.895997
 20
-222.657523
 30
0.0
 40
11.988
  0
CIRCLE
  5
32
100
AcDbEntity
  8
PV
  6
CONTINUOUS
 62
         3
100
AcDbCircle
 10
-245.895997
 20
-147.778477
 30
0.0
 40
10.2897
  0
CIRCLE
  5
33
100
AcDbEntity
  8
PV
  6
CONTINUOUS
 62
         3
100
AcDbCircle
 10
-245.895997
 20
-147.778477
 30
0.0
 40
11.988
  0
CIRCLE
  5
34
100
AcDbEntity
  8
PV
  6
CONTINUOUS
 62
         3
100
AcDbCircle
 10
-320.775043
 20
-147.778477
 30
0.0
 40
10.2897
  0
CIRCLE
  5
35
100
AcDbEntity
  8
PV
  6
CONTINUOUS
 62
         3
100
AcDbCircle
 10
-320.775043
 20
-147.778477
 30
0.0
 40
11.988
  0
CIRCLE
  5
36
100
AcDbEntity
  8
PV
  6
CONTINUOUS
 62
         3
100
AcDbCircle
 10
-283.33552
 20
-185.218
 30
0.0
 40
37.71225
  0
CIRCLE
  5
37
100
AcDbEntity
  8
PV
  6
CONTINUOUS
 62
         3
100
AcDbCircle
 10
-345.27352
 20
-247.156
 30
0.0
 40
10.989
  0
CIRCLE
  5
38
100
AcDbEntity
  8
PV
  6
CONTINUOUS
 62
         3
100
AcDbCircle
 10
-345.27352
 20
-123.28
 30
0.0
 40
10.989
  0
CIRCLE
  5
39
100
AcDbEntity
  8
PV
  6
CONTINUOUS
 62
         3
100
AcDbCircle
 10
-221.39752
 20
-247.156
 30
0.0
 40
10.989
  0
CIRCLE
  5
3A
100
AcDbEntity
  8
PV
  6
CONTINUOUS
 62
         3
100
AcDbCircle
 10
-221.39752
 20
-123.28
 30
0.0
 40
10.989
  0
ARC
  5
3C
100
AcDbEntity
  8
PV
  6
CENTER
 62
         3
100
AcDbCircle
 10
-283.33552
 20
-185.218
 30
0.0
 40
52.947
100
AcDbArc
 50
199.933
 51
244.799
  0
ARC
  5
3D
100
AcDbEntity
  8
PV
  6
CENTER
 62
         3
100
AcDbCircle
 10
-283.33552
 20
-185.218
 30
0.0
 40
52.947
100
AcDbArc
 50
295.582
 51
333.794
  0
ARC
  5
3E
100
AcDbEntity
  8
PV
  6
CENTER
 62
         3
100
AcDbCircle
 10
-283.33552
 20
-185.218
 30
0.0
 40
52.947
100
AcDbArc
 50
115.814
 51
153.364
  0
ARC
  5
3F
100
AcDbEntity
  8
PV
  6
CENTER
 62
         3
100
AcDbCircle
 10
-283.33552
 20
-185.218
 30
0.0
 40
52.947
100
AcDbArc
 50
25.03
 51
64.765
  0
LINE
  5
40
100
AcDbEntity
  8
PV
  6
CONTINUOUS
 62
         3
100
AcDbLine
 10
-320.775043
 20
-230.73244
 30
0.0
 11
-327.768043
 21
-226.694482
 31
0.0
  0
LINE
  5
41
100
AcDbEntity
  8
PV
  6
CONTINUOUS
 62
         3
100
AcDbLine
 10
-327.768043
 20
-226.694482
 30
0.0
 11
-327.768043
 21
-218.619565
 31
0.0
  0
LINE
  5
42
100
AcDbEntity
  8
PV
  6
CONTINUOUS
 62
         3
100
AcDbLine
 10
-327.768043
 20
-218.619565
 30
0.0
 11
-320.775043
 21
-214.582606
 31
0.0
  0
LINE
  5
43
100
AcDbEntity
  8
PV
  6
CONTINUOUS
 62
         3
100
AcDbLine
 10
-320.775043
 20
-214.582606
 30
0.0
 11
-313.782043
 21
-218.619565
 31
0.0
  0
LINE
  5
44
100
AcDbEntity
  8
PV
  6
CONTINUOUS
 62
         3
100
AcDbLine
 10
-313.782043
 20
-218.619565
 30
0.0
 11
-313.782043
 21
-226.694482
 31
0.0
  0
LINE
  5
45
100
AcDbEntity
  8
PV
  6
CONTINUOUS
 62
         3
100
AcDbLine
 10
-313.782043
 20
-226.694482
 30
0.0
 11
-320.775043
 21
-230.73244
 31
0.0
  0
LINE
  5
46
100
AcDbEntity
  8
PV
  6
CONTINUOUS
 62
         3
100
AcDbLine
 10
-245.895997
 20
-230.73244
 30
0.0
 11
-252.888997
 21
-226.694482
 31
0.0
  0
LINE
  5
47
100
AcDbEntity
  8
PV
  6
CONTINUOUS
 62
         3
100
AcDbLine
 10
-252.888997
 20
-226.694482
 30
0.0
 11
-252.888997
 21
-218.619565
 31
0.0
  0
LINE
  5
48
100
AcDbEntity
  8
PV
  6
CONTINUOUS
 62
         3
100
AcDbLine
 10
-252.888997
 20
-218.619565
 30
0.0
 11
-245.895997
 21
-214.582606
 31
0.0
  0
LINE
  5
49
100
AcDbEntity
  8
PV
  6
CONTINUOUS
 62
         3
100
AcDbLine
 10
-245.895997
 20
-214.582606
 30
0.0
 11
-238.902997
 21
-218.619565
 31
0.0
  0
LINE
  5
4A
100
AcDbEntity
  8
PV
  6
CONTINUOUS
 62
         3
100
AcDbLine
 10
-238.902997
 20
-218.619565
 30
0.0
 11
-238.902997
 21
-226.694482
 31
0.0
  0
LINE
  5
4B
100
AcDbEntity
  8
PV
  6
CONTINUOUS
 62
         3
100
AcDbLine
 10
-238.902997
 20
-226.694482
 30
0.0
 11
-245.895997
 21
-230.73244
 31
0.0
  0
LINE
  5
4C
100
AcDbEntity
  8
PV
  6
CONTINUOUS
 62
         3
100
AcDbLine
 10
-245.895997
 20
-155.853394
 30
0.0
 11
-252.888997
 21
-151.816435
 31
0.0
  0
LINE
  5
4D
100
AcDbEntity
  8
PV
  6
CONTINUOUS
 62
         3
100
AcDbLine
 10
-252.888997
 20
-151.816435
 30
0.0
 11
-252.888997
 21
-143.741518
 31
0.0
  0
LINE
  5
4E
100
AcDbEntity
  8
PV
  6
CONTINUOUS
 62
         3
100
AcDbLine
 10
-252.888997
 20
-143.741518
 30
0.0
 11
-245.895997
 21
-139.70356
 31
0.0
  0
LINE
  5
4F
100
AcDbEntity
  8
PV
  6
CONTINUOUS
 62
         3
100
AcDbLine
 10
-245.895997
 20
-139.70356
 30
0.0
 11
-238.902997
 21
-143.741518
 31
0.0
  0
LINE
  5
50
100
AcDbEntity
  8
PV
  6
CONTINUOUS
 62
         3
100
AcDbLine
 10
-238.902997
 20
-143.741518
 30
0.0
 11
-238.902997
 21
-151.816435
 31
0.0
  0
LINE
  5
51
100
AcDbEntity
  8
PV
  6
CONTINUOUS
 62
         3
100
AcDbLine
 10
-238.902997
 20
-151.816435
 30
0.0
 11
-245.895997
 21
-155.853394
 31
0.0
  0
LINE
  5
52
100
AcDbEntity
  8
PV
  6
CONTINUOUS
 62
         3
100
AcDbLine
 10
-320.775043
 20
-155.853394
 30
0.0
 11
-327.768043
 21
-151.816435
 31
0.0
  0
LINE
  5
53
100
AcDbEntity
  8
PV
  6
CONTINUOUS
 62
         3
100
AcDbLine
 10
-327.768043
 20
-151.816435
 30
0.0
 11
-327.768043
 21
-143.741518
 31
0.0
  0
LINE
  5
54
100
AcDbEntity
  8
PV
  6
CONTINUOUS
 62
         3
100
AcDbLine
 10
-327.768043
 20
-143.741518
 30
0.0
 11
-320.775043
 21
-139.70356
 31
0.0
  0
LINE
  5
55
100
AcDbEntity
  8
PV
  6
CONTINUOUS
 62
         3
100
AcDbLine
 10
-320.775043
 20
-139.70356
 30
0.0
 11
-313.782043
 21
-143.741518
 31
0.0
  0
LINE
  5
56
100
AcDbEntity
  8
PV
  6
CONTINUOUS
 62
         3
100
AcDbLine
 10
-313.782043
 20
-143.741518
 30
0.0
 11
-313.782043
 21
-151.816435
 31
0.0
  0
LINE
  5
57
100
AcDbEntity
  8
PV
  6
CONTINUOUS
 62
         3
100
AcDbLine
 10
-313.782043
 20
-151.816435
 30
0.0
 11
-320.775043
 21
-155.853394
 31
0.0
  0
LINE
  5
58
100
AcDbEntity
  8
PV
  6
CENTER
 62
         3
100
AcDbLine
 10
-330.912895
 20
-247.156
 30
0.0
 11
-364.217557
 21
-247.156
 31
0.0
  0
LINE
  5
59
100
AcDbEntity
  8
PV
  6
CENTER
 62
         3
100
AcDbLine
 10
-345.27352
 20
-268.850284
 30
0.0
 11
-345.27352
 21
-227.219956
 31
0.0
  0
LINE
  5
5A
100
AcDbEntity
  8
PV
  6
CENTER
 62
         3
100
AcDbLine
 10
-364.217557
 20
-123.28
 30
0.0
 11
-330.912895
 21
-123.28
 31
0.0
  0
LINE
  5
5B
100
AcDbEntity
  8
PV
  6
CENTER
 62
         3
100
AcDbLine
 10
-345.27352
 20
-143.216044
 30
0.0
 11
-345.27352
 21
-101.585716
 31
0.0
  0
LINE
  5
5C
100
AcDbEntity
  8
PV
  6
CENTER
 62
         3
100
AcDbLine
 10
-202.453483
 20
-247.156
 30
0.0
 11
-235.758145
 21
-247.156
 31
0.0
  0
LINE
  5
5D
100
AcDbEntity
  8
PV
  6
CENTER
 62
         3
100
AcDbLine
 10
-221.39752
 20
-227.219956
 30
0.0
 11
-221.39752
 21
-268.850284
 31
0.0
  0
LINE
  5
5E
100
AcDbEntity
  8
PV
  6
CENTER
 62
         3
100
AcDbLine
 10
-235.758145
 20
-123.28
 30
0.0
 11
-202.453483
 21
-123.28
 31
0.0
  0
LINE
  5
5F
100
AcDbEntity
  8
PV
  6
CENTER
 62
         3
100
AcDbLine
 10
-221.39752
 20
-101.585716
 30
0.0
 11
-221.39752
 21
-143.216044
 31
0.0
  0
LINE
  5
60
100
AcDbEntity
  8
PV
  6
CONTINUOUS
 62
         3
100
AcDbLine
 10
-367.25152
 20
-269.134
 30
0.0
 11
-199.41952
 21
-269.134
 31
0.0
  0
LINE
  5
61
100
AcDbEntity
  8
PV
  6
CONTINUOUS
 62
         3
100
AcDbLine
 10
-367.25152
 20
-101.302
 30
0.0
 11
-199.41952
 21
-101.302
 31
0.0
  0
LINE
  5
62
100
AcDbEntity
  8
PV
  6
CONTINUOUS
 62
         3
100
AcDbLine
 10
-367.25152
 20
-101.302
 30
0.0
 11
-367.25152
 21
-269.134
 31
0.0
  0
LINE
  5
63
100
AcDbEntity
  8
PV
  6
CONTINUOUS
 62
         3
100
AcDbLine
 10
-199.41952
 20
-101.302
 30
0.0
 11
-199.41952
 21
-269.134
 31
0.0
  0
LINE
  5
64
100
AcDbEntity
  8
PV
  6
CENTER
 62
         3
100
AcDbLine
 10
-309.68914
 20
-211.57162
 30
0.0
 11
-330.664144
 21
-232.546624
 31
0.0
  0
LINE
  5
65
100
AcDbEntity
  8
PV
  6
CENTER
 62
         3
100
AcDbLine
 10
-236.006896
 20
-232.546624
 30
0.0
 11
-256.9819
 21
-211.57162
 31
0.0
  0
LINE
  5
66
100
AcDbEntity
  8
PV
  6
CENTER
 62
         3
100
AcDbLine
 10
-330.664144
 20
-137.889376
 30
0.0
 11
-309.68914
 21
-158.86438
 31
0.0
  0
LINE
  5
67
100
AcDbEntity
  8
PV
  6
CENTER
 62
         3
100
AcDbLine
 10
-283.33552
 20
-85.323994
 30
0.0
 11
-283.33552
 21
-291.004108
 31
0.0
  0
LINE
  5
68
100
AcDbEntity
  8
PV
  6
CENTER
 62
         3
100
AcDbLine
 10
-256.9819
 20
-158.86438
 30
0.0
 11
-236.006896
 21
-137.889376
 31
0.0
  0
LINE
  5
69
100
AcDbEntity
  8
PV
  6
CENTER
 62
         3
100
AcDbLine
 10
-390.625123
 20
-185.218
 30
0.0
 11
-184.427527
 21
-185.218
 31
0.0
  0
ARC
  5
6A
100
AcDbEntity
  8
PV
  6
CONTINUOUS
 62
         3
100
AcDbCircle
 10
459.349802
 20
-155.026222
 30
0.0
 40
1.5984
100
AcDbArc
 50
195.494
 51
265.0
  0
ARC
  5
6B
100
AcDbEntity
  8
PV
  6
CONTINUOUS
 62
         3
100
AcDbCircle
 10
459.349802
 20
-149.475778
 30
0.0
 40
1.5984
100
AcDbArc
 50
95.0009998
 51
164.506
  0
ARC
  5
6C
100
AcDbEntity
  8
PV
  6
CONTINUOUS
 62
         3
100
AcDbCircle
 10
469.36178
 20
-152.251
 30
0.0
 40
11.988
100
AcDbArc
 50
164.506
 51
195.494
  0
LINE
  5
6D
100
AcDbEntity
  8
PV
  6
CONTINUOUS
 62
         3
100
AcDbLine
 10
460.67048
 20
-156.7465
 30
0.0
 11
459.209942
 21
-156.618628
 31
0.0
  0
LINE
  5
6E
100
AcDbEntity
  8
PV
  6
CONTINUOUS
 62
         3
100
AcDbLine
 10
460.67048
 20
-147.7555
 30
0.0
 11
459.209942
 21
-147.883372
 31
0.0
  0
LINE
  5
6F
100
AcDbEntity
  8
PV
  6
CONTINUOUS
 62
         3
100
AcDbLine
 10
460.67048
 20
-147.7555
 30
0.0
 11
460.67048
 21
-156.7465
 31
0.0
  0
ARC
  5
70
100
AcDbEntity
  8
PV
  6
CONTINUOUS
 62
         3
100
AcDbCircle
 10
459.349802
 20
-116.065222
 30
0.0
 40
1.5984
100
AcDbArc
 50
195.494
 51
265.0
  0
ARC
  5
71
100
AcDbEntity
  8
PV
  6
CONTINUOUS
 62
         3
100
AcDbCircle
 10
459.349802
 20
-110.514778
 30
0.0
 40
1.5984
100
AcDbArc
 50
95.0009998
 51
164.506
  0
ARC
  5
72
100
AcDbEntity
  8
PV
  6
CONTINUOUS
 62
         3
100
AcDbCircle
 10
469.36178
 20
-113.29
 30
0.0
 40
11.988
100
AcDbArc
 50
164.506
 51
195.494
  0
LINE
  5
73
100
AcDbEntity
  8
PV
  6
CONTINUOUS
 62
         3
100
AcDbLine
 10
460.67048
 20
-117.7855
 30
0.0
 11
459.209942
 21
-117.657628
 31
0.0
  0
LINE
  5
74
100
AcDbEntity
  8
PV
  6
CONTINUOUS
 62
         3
100
AcDbLine
 10
460.67048
 20
-108.7945
 30
0.0
 11
459.209942
 21
-108.922372
 31
0.0
  0
LINE
  5
75
100
AcDbEntity
  8
PV
  6
CONTINUOUS
 62
         3
100
AcDbLine
 10
460.67048
 20
-108.7945
 30
0.0
 11
460.67048
 21
-117.7855
 31
0.0
  0
MTEXT
  5
76
100
AcDbEntity
  8
PV
  6
CONTINUOUS
 62
       110
100
AcDbMText
 10
602.2709501325
 20
-174.2869418629
 30
0.0
 40
3.1968002319
 41
0.0
 71
         1
 72
         1
  1
\T1.024;\W1.064;\A1;ADJUSTING HANDLE
  0
CIRCLE
  5
77
100
AcDbEntity
  8
PV
  6
CONTINUOUS
 62
         3
100
AcDbCircle
 10
404.72648
 20
-247.156
 30
0.0
 40
10.989
  0
CIRCLE
  5
78
100
AcDbEntity
  8
PV
  6
CONTINUOUS
 62
         3
100
AcDbCircle
 10
404.72648
 20
-123.28
 30
0.0
 40
10.989
  0
CIRCLE
  5
79
100
AcDbEntity
  8
PV
  6
CONTINUOUS
 62
         3
100
AcDbCircle
 10
528.60248
 20
-247.156
 30
0.0
 40
10.989
  0
CIRCLE
  5
7A
100
AcDbEntity
  8
PV
  6
CONTINUOUS
 62
         3
100
AcDbCircle
 10
528.60248
 20
-123.28
 30
0.0
 40
10.989
  0
CIRCLE
  5
7B
100
AcDbEntity
  8
PV
  6
CONTINUOUS
 62
         3
100
AcDbCircle
 10
466.66448
 20
-185.218
 30
0.0
 40
67.4325
  0
ARC
  5
7C
100
AcDbEntity
  8
PV
  6
CONTINUOUS
 62
         3
100
AcDbCircle
 10
466.66448
 20
-157.912333
 30
0.0
 40
5.661333
100
AcDbArc
 50
28.073
 51
151.928
  0
ARC
  5
7D
100
AcDbEntity
  8
PV
  6
CONTINUOUS
 62
         3
100
AcDbCircle
 10
466.66448
 20
-172.231
 30
0.0
 40
14.985
100
AcDbArc
 50
78.4629999
 51
101.537
  0
CIRCLE
  5
7E
100
AcDbEntity
  8
PV
  6
CONTINUOUS
 62
         3
100
AcDbCircle
 10
466.66448
 20
-185.218
 30
0.0
 40
27.972
  0
ARC
  5
7F
100
AcDbEntity
  8
PV
  6
CONTINUOUS
 62
         3
100
AcDbCircle
 10
466.66448
 20
-118.951333
 30
0.0
 40
5.661333
100
AcDbArc
 50
28.073
 51
151.928
  0
LINE
  5
80
100
AcDbEntity
  8
PV
  6
CENTER
 62
         3
100
AcDbLine
 10
419.087105
 20
-247.156
 30
0.0
 11
385.782443
 21
-247.156
 31
0.0
  0
LINE
  5
81
100
AcDbEntity
  8
PV
  6
CENTER
 62
         3
100
AcDbLine
 10
404.72648
 20
-268.850284
 30
0.0
 11
404.72648
 21
-227.219956
 31
0.0
  0
LINE
  5
82
100
AcDbEntity
  8
PV
  6
CENTER
 62
         3
100
AcDbLine
 10
385.782443
 20
-123.28
 30
0.0
 11
419.087105
 21
-123.28
 31
0.0
  0
LINE
  5
83
100
AcDbEntity
  8
PV
  6
CENTER
 62
         3
100
AcDbLine
 10
404.72648
 20
-143.216044
 30
0.0
 11
404.72648
 21
-101.585716
 31
0.0
  0
LINE
  5
84
100
AcDbEntity
  8
PV
  6
CENTER
 62
         3
100
AcDbLine
 10
547.546517
 20
-247.156
 30
0.0
 11
514.241855
 21
-247.156
 31
0.0
  0
LINE
  5
85
100
AcDbEntity
  8
PV
  6
CENTER
 62
         3
100
AcDbLine
 10
528.60248
 20
-227.219956
 30
0.0
 11
528.60248
 21
-268.850284
 31
0.0
  0
LINE
  5
86
100
AcDbEntity
  8
PV
  6
CENTER
 62
         3
100
AcDbLine
 10
514.241855
 20
-123.28
 30
0.0
 11
547.546517
 21
-123.28
 31
0.0
  0
LINE
  5
87
100
AcDbEntity
  8
PV
  6
CENTER
 62
         3
100
AcDbLine
 10
528.60248
 20
-101.585716
 30
0.0
 11
528.60248
 21
-143.216044
 31
0.0
  0
LINE
  5
88
100
AcDbEntity
  8
PV
  6
CONTINUOUS
 62
         3
100
AcDbLine
 10
382.74848
 20
-269.134
 30
0.0
 11
550.58048
 21
-269.134
 31
0.0
  0
LINE
  5
89
100
AcDbEntity
  8
PV
  6
CONTINUOUS
 62
         3
100
AcDbLine
 10
382.74848
 20
-101.302
 30
0.0
 11
550.58048
 21
-101.302
 31
0.0
  0
LINE
  5
8A
100
AcDbEntity
  8
PV
  6
CONTINUOUS
 62
         3
100
AcDbLine
 10
382.74848
 20
-101.302
 30
0.0
 11
382.74848
 21
-269.134
 31
0.0
  0
LINE
  5
8B
100
AcDbEntity
  8
PV
  6
CONTINUOUS
 62
         3
100
AcDbLine
 10
550.58048
 20
-101.302
 30
0.0
 11
550.58048
 21
-269.134
 31
0.0
  0
LINE
  5
8C
100
AcDbEntity
  8
PV
  6
CENTER
 62
         3
100
AcDbLine
 10
466.66448
 20
-85.323994
 30
0.0
 11
466.66448
 21
-283.115673
 31
0.0
  0
LINE
  5
8D
100
AcDbEntity
  8
PV
  6
CENTER
 62
         3
100
AcDbLine
 10
359.374877
 20
-185.218
 30
0.0
 11
565.572473
 21
-185.218
 31
0.0
  0
LINE
  5
8E
100
AcDbEntity
  8
PV
  6
CONTINUOUS
 62
         3
100
AcDbLine
 10
461.66948
 20
-155.248
 30
0.0
 11
460.67048
 21
-155.248
 31
0.0
  0
LINE
  5
8F
100
AcDbEntity
  8
PV
  6
CONTINUOUS
 62
         3
100
AcDbLine
 10
474.65648
 20
-155.248
 30
0.0
 11
471.65948
 21
-155.248
 31
0.0
  0
LINE
  5
90
100
AcDbEntity
  8
PV
  6
CONTINUOUS
 62
         3
100
AcDbLine
 10
469.66148
 20
-157.548697
 30
0.0
 11
471.65948
 21
-155.248
 31
0.0
  0
LINE
  5
91
100
AcDbEntity
  8
PV
  6
CONTINUOUS
 62
         3
100
AcDbLine
 10
461.66948
 20
-155.248
 30
0.0
 11
463.66748
 21
-157.548697
 31
0.0
  0
LINE
  5
92
100
AcDbEntity
  8
PV
  6
CENTER
 62
         3
100
AcDbLine
 10
456.201953
 20
-152.251
 30
0.0
 11
478.283849
 21
-152.251
 31
0.0
  0
LINE
  5
93
100
AcDbEntity
  8
PV
  6
CONTINUOUS
 62
         3
100
AcDbLine
 10
474.65648
 20
-148.255
 30
0.0
 11
460.67048
 21
-148.255
 31
0.0
  0
LINE
  5
94
100
AcDbEntity
  8
PV
  6
CONTINUOUS
 62
         3
100
AcDbLine
 10
474.65648
 20
-148.255
 30
0.0
 11
474.65648
 21
-155.248
 31
0.0
  0
LINE
  5
95
100
AcDbEntity
  8
PV
  6
CONTINUOUS
 62
         3
100
AcDbLine
 10
460.67048
 20
-150.253
 30
0.0
 11
460.67048
 21
-157.246
 31
0.0
  0
LINE
  5
96
100
AcDbEntity
  8
PV
  6
CONTINUOUS
 62
         3
100
AcDbLine
 10
461.66948
 20
-116.287
 30
0.0
 11
460.67048
 21
-116.287
 31
0.0
  0
LINE
  5
97
100
AcDbEntity
  8
PV
  6
CONTINUOUS
 62
         3
100
AcDbLine
 10
474.65648
 20
-116.287
 30
0.0
 11
471.65948
 21
-116.287
 31
0.0
  0
LINE
  5
98
100
AcDbEntity
  8
PV
  6
CONTINUOUS
 62
         3
100
AcDbLine
 10
470.273867
 20
-117.882403
 30
0.0
 11
471.65948
 21
-116.287
 31
0.0
  0
LINE
  5
99
100
AcDbEntity
  8
PV
  6
CONTINUOUS
 62
         3
100
AcDbLine
 10
461.66948
 20
-116.287
 30
0.0
 11
463.055093
 21
-117.882403
 31
0.0
  0
LINE
  5
9A
100
AcDbEntity
  8
PV
  6
CENTER
 62
         3
100
AcDbLine
 10
456.201953
 20
-113.29
 30
0.0
 11
478.283849
 21
-113.29
 31
0.0
  0
LINE
  5
9B
100
AcDbEntity
  8
PV
  6
CONTINUOUS
 62
         3
100
AcDbLine
 10
474.65648
 20
-109.294
 30
0.0
 11
460.67048
 21
-109.294
 31
0.0
  0
LINE
  5
9C
100
AcDbEntity
  8
PV
  6
CONTINUOUS
 62
         3
100
AcDbLine
 10
474.65648
 20
-109.294
 30
0.0
 11
474.65648
 21
-116.287
 31
0.0
  0
LINE
  5
9D
100
AcDbEntity
  8
PV
  6
CONTINUOUS
 62
         3
100
AcDbLine
 10
460.67048
 20
-111.292
 30
0.0
 11
460.67048
 21
-117.636649
 31
0.0
  0
LINE
  5
9F
100
AcDbEntity
  8
PV
  6
PHANTOM
 62
         3
100
AcDbLine
 10
761.36948
 20
-180.223
 30
0.0
 11
761.36948
 21
-190.213
 31
0.0
  0
LINE
  5
A0
100
AcDbEntity
  8
PV
  6
PHANTOM
 62
         3
100
AcDbLine
 10
531.59948
 20
-180.223
 30
0.0
 11
531.59948
 21
-190.213
 31
0.0
  0
LINE
  5
A1
100
AcDbEntity
  8
PV
  6
PHANTOM
 62
         3
100
AcDbLine
 10
531.59948
 20
-190.213
 30
0.0
 11
761.36948
 21
-190.213
 31
0.0
  0
LINE
  5
A2
100
AcDbEntity
  8
PV
  6
PHANTOM
 62
         3
100
AcDbLine
 10
531.59948
 20
-180.223
 30
0.0
 11
761.36948
 21
-180.223
 31
0.0
  0
LINE
  5
A3
100
AcDbEntity
  8
PV
  6
CONTINUOUS
 62
         3
100
AcDbLine
 10
192.36848
 20
-185.218
 30
0.0
 11
167.889983
 21
-185.218
 31
0.0
  0
LINE
  5
A4
100
AcDbEntity
  8
PV
  6
CONTINUOUS
 62
         3
100
AcDbLine
 10
270.29048
 20
-199.204
 30
0.0
 11
247.526267
 21
-199.204
 31
0.0
  0
LINE
  5
A5
100
AcDbEntity
  8
PV
  6
CONTINUOUS
 62
         3
100
AcDbLine
 10
192.36848
 20
-252.151
 30
0.0
 11
160.774106
 21
-252.151
 31
0.0
  0
LINE
  5
A6
100
AcDbEntity
  8
PV
  6
CONTINUOUS
 62
         3
100
AcDbLine
 10
93.4055424
 20
-185.218
 30
0.0
 11
84.1987584
 21
-185.218
 31
0.0
  0
MTEXT
  5
A7
100
AcDbEntity
  8
PV
  6
CONTINUOUS
 62
       110
100
AcDbMText
 10
-54.5829605416
 20
-33.3699999878
 30
0.0
 40
3.9960000515
 41
0.0
 71
         1
 72
         1
  1
\W1.102;\A1;DP030A063+(DP030F)+(DP030J)
  0
MTEXT
  5
A8
100
AcDbEntity
  8
PV
  6
CONTINUOUS
 62
       110
100
AcDbMText
 10
-54.3589972419
 20
-21.7815999629
 30
0.0
 40
3.1968002319
 41
0.0
 71
         1
 72
         1
  1
\T1.017;\W1.071;\A1;SHOCK DAMPER
  0
LWPOLYLINE
  5
A9
100
AcDbEntity
  8
PV
  6
CONTINUOUS
 62
         3
100
AcDbPolyline
 90
       26
 70
         0
 10
194.36648
 20
-252.151
 10
194.65619
 20
-252.165985
 10
194.944901
 20
-252.178972
 10
195.234611
 20
-252.189961
 10
195.524321
 20
-252.197953
 10
195.814031
 20
-252.203947
 10
196.171673
 20
-252.207943
 10
196.529315
 20
-252.208942
 10
196.886957
 20
-252.207943
 10
197.244599
 20
-252.205945
 10
197.602241
 20
-252.203947
 10
197.841002
 20
-252.203947
 10
198.078764
 20
-252.203947
 10
198.317525
 20
-252.203947
 10
198.555287
 20
-252.204946
 10
198.794048
 20
-252.203947
 10
199.032809
 20
-252.202948
 10
199.270571
 20
-252.201949
 10
199.509332
 20
-252.201949
 10
199.747094
 20
-252.201949
 10
199.985855
 20
-252.203947
 10
200.364476
 20
-252.211939
 10
200.743097
 20
-252.223927
 10
201.121718
 20
-252.239911
 10
201.500339
 20
-252.26089
 10
201.877961
 20
-252.284866
  0
LWPOLYLINE
  5
AA
100
AcDbEntity
  8
PV
  6
CONTINUOUS
 62
         3
100
AcDbPolyline
 90
       26
 70
         0
 10
194.36648
 20
-118.285
 10
194.65619
 20
-118.270015
 10
194.944901
 20
-118.258027
 10
195.234611
 20
-118.247038
 10
195.524321
 20
-118.238047
 10
195.814031
 20
-118.232053
 10
196.171673
 20
-118.228057
 10
196.529315
 20
-118.227058
 10
196.886957
 20
-118.228057
 10
197.244599
 20
-118.230055
 10
197.602241
 20
-118.232053
 10
197.841002
 20
-118.232053
 10
198.078764
 20
-118.232053
 10
198.317525
 20
-118.232053
 10
198.555287
 20
-118.232053
 10
198.794048
 20
-118.232053
 10
199.032809
 20
-118.233052
 10
199.270571
 20
-118.234051
 10
199.509332
 20
-118.234051
 10
199.747094
 20
-118.234051
 10
199.985855
 20
-118.232053
 10
200.364476
 20
-118.22506
 10
200.743097
 20
-118.212073
 10
201.121718
 20
-118.196089
 10
201.500339
 20
-118.17511
 10
201.877961
 20
-118.151134
  0
ARC
  5
AB
100
AcDbEntity
  8
PV
  6
CONTINUOUS
 62
         3
100
AcDbCircle
 10
57.0621004
 20
-248.344694
 30
0.0
 40
1.44069412
100
AcDbArc
 50
323.336716
 51
358.80342
  0
ARC
  5
AC
100
AcDbEntity
  8
PV
  6
CONTINUOUS
 62
         3
100
AcDbCircle
 10
56.0038018
 20
-247.578512
 30
0.0
 40
2.74716827
100
AcDbArc
 50
297.909692
 51
323.697992
  0
ARC
  5
AD
100
AcDbEntity
  8
PV
  6
CONTINUOUS
 62
         3
100
AcDbCircle
 10
54.8983464
 20
-246.30083
 30
0.0
 40
4.40997956
100
AcDbArc
 50
277.049202
 51
302.837502
  0
ARC
  5
AE
100
AcDbEntity
  8
PV
  6
CONTINUOUS
 62
         3
100
AcDbCircle
 10
53.6910288
 20
-243.014236
 30
0.0
 40
7.86018756
100
AcDbArc
 50
268.661927
 51
282.853115
  0
ARC
  5
AF
100
AcDbEntity
  8
PV
  6
CONTINUOUS
 62
         3
100
AcDbCircle
 10
53.5130373
 20
-241.138698
 30
0.0
 40
9.73358326
100
AcDbArc
 50
258.517669
 51
269.96729
  0
ARC
  5
B0
100
AcDbEntity
  8
PV
  6
CONTINUOUS
 62
         3
100
AcDbCircle
 10
53.3469025
 20
-242.910214
 30
0.0
 40
7.96671276
100
AcDbArc
 50
242.961054
 51
257.152242
  0
ARC
  5
B1
100
AcDbEntity
  8
PV
  6
CONTINUOUS
 62
         3
100
AcDbCircle
 10
52.1086313
 20
-246.30725
 30
0.0
 40
4.40025771
100
AcDbArc
 50
221.187812
 51
237.204504
  0
ARC
  5
B2
100
AcDbEntity
  8
PV
  6
CONTINUOUS
 62
         3
100
AcDbCircle
 10
49.9528603
 20
-248.344694
 30
0.0
 40
1.44069412
100
AcDbArc
 50
181.19658
 51
216.663284
  0
ARC
  5
B3
100
AcDbEntity
  8
PV
  6
CONTINUOUS
 62
         3
100
AcDbCircle
 10
49.9544223
 20
-248.404366
 30
0.0
 40
1.44224544
100
AcDbArc
 50
143.357851
 51
178.824555
  0
ARC
  5
B4
100
AcDbEntity
  8
PV
  6
CONTINUOUS
 62
         3
100
AcDbCircle
 10
51.008977
 20
-249.170549
 30
0.0
 40
2.74570607
100
AcDbArc
 50
117.874335
 51
143.662635
  0
ARC
  5
B5
100
AcDbEntity
  8
PV
  6
CONTINUOUS
 62
         3
100
AcDbCircle
 10
52.1187962
 20
-250.448231
 30
0.0
 40
4.41074356
100
AcDbArc
 50
97.0765354
 51
122.864835
  0
ARC
  5
B6
100
AcDbEntity
  8
PV
  6
CONTINUOUS
 62
         3
100
AcDbCircle
 10
53.3199192
 20
-253.734825
 30
0.0
 40
7.85978293
100
AcDbArc
 50
88.632598
 51
102.823786
  0
ARC
  5
B7
100
AcDbEntity
  8
PV
  6
CONTINUOUS
 62
         3
100
AcDbCircle
 10
53.5069059
 20
-255.610362
 30
0.0
 40
9.73308219
100
AcDbArc
 50
78.5469978
 51
89.9966186
  0
ARC
  5
B8
100
AcDbEntity
  8
PV
  6
CONTINUOUS
 62
         3
100
AcDbCircle
 10
53.6640455
 20
-253.838846
 30
0.0
 40
7.96809294
100
AcDbArc
 50
62.9337203
 51
77.1249086
  0
ARC
  5
B9
100
AcDbEntity
  8
PV
  6
CONTINUOUS
 62
         3
100
AcDbCircle
 10
54.9098798
 20
-250.441811
 30
0.0
 40
4.39791563
100
AcDbArc
 50
41.2231692
 51
57.2398609
  0
ARC
  5
BA
100
AcDbEntity
  8
PV
  6
CONTINUOUS
 62
         3
100
AcDbCircle
 10
56.4939618
 20
-248.598446
 30
0.0
 40
2.02093375
100
AcDbArc
 50
6.35420044
 51
31.4633944
  0
ARC
  5
BB
100
AcDbEntity
  8
PV
  6
CONTINUOUS
 62
         3
100
AcDbCircle
 10
57.0605384
 20
-122.031634
 30
0.0
 40
1.44224544
100
AcDbArc
 50
323.35785
 51
358.824555
  0
ARC
  5
BC
100
AcDbEntity
  8
PV
  6
CONTINUOUS
 62
         3
100
AcDbCircle
 10
56.0059837
 20
-121.265451
 30
0.0
 40
2.74570607
100
AcDbArc
 50
297.874335
 51
323.662635
  0
ARC
  5
BD
100
AcDbEntity
  8
PV
  6
CONTINUOUS
 62
         3
100
AcDbCircle
 10
54.8961645
 20
-119.987769
 30
0.0
 40
4.41074356
100
AcDbArc
 50
277.076535
 51
302.864836
  0
ARC
  5
BE
100
AcDbEntity
  8
PV
  6
CONTINUOUS
 62
         3
100
AcDbCircle
 10
53.6950415
 20
-116.701175
 30
0.0
 40
7.85978293
100
AcDbArc
 50
268.632598
 51
282.823786
  0
ARC
  5
BF
100
AcDbEntity
  8
PV
  6
CONTINUOUS
 62
         3
100
AcDbCircle
 10
53.5080548
 20
-114.825638
 30
0.0
 40
9.73308219
100
AcDbArc
 50
258.546998
 51
269.996618
  0
ARC
  5
C0
100
AcDbEntity
  8
PV
  6
CONTINUOUS
 62
         3
100
AcDbCircle
 10
53.3509153
 20
-116.597154
 30
0.0
 40
7.96809294
100
AcDbArc
 50
242.93372
 51
257.124908
  0
ARC
  5
C1
100
AcDbEntity
  8
PV
  6
CONTINUOUS
 62
         3
100
AcDbCircle
 10
52.1050809
 20
-119.994189
 30
0.0
 40
4.39791563
100
AcDbArc
 50
221.223169
 51
237.239861
  0
ARC
  5
C2
100
AcDbEntity
  8
PV
  6
CONTINUOUS
 62
         3
100
AcDbCircle
 10
49.9544223
 20
-122.031634
 30
0.0
 40
1.44224544
100
AcDbArc
 50
181.175445
 51
216.64215
  0
ARC
  5
C3
100
AcDbEntity
  8
PV
  6
CONTINUOUS
 62
         3
100
AcDbCircle
 10
49.9528603
 20
-122.091306
 30
0.0
 40
1.44069412
100
AcDbArc
 50
143.336715
 51
178.80342
  0
ARC
  5
C4
100
AcDbEntity
  8
PV
  6
CONTINUOUS
 62
         3
100
AcDbCircle
 10
51.011159
 20
-122.857488
 30
0.0
 40
2.74716827
100
AcDbArc
 50
117.909692
 51
143.697992
  0
ARC
  5
C5
100
AcDbEntity
  8
PV
  6
CONTINUOUS
 62
         3
100
AcDbCircle
 10
52.1166143
 20
-124.13517
 30
0.0
 40
4.40997956
100
AcDbArc
 50
97.0492025
 51
122.837502
  0
ARC
  5
C6
100
AcDbEntity
  8
PV
  6
CONTINUOUS
 62
         3
100
AcDbCircle
 10
53.3239319
 20
-127.421764
 30
0.0
 40
7.86018756
100
AcDbArc
 50
88.6619266
 51
102.853115
  0
ARC
  5
C7
100
AcDbEntity
  8
PV
  6
CONTINUOUS
 62
         3
100
AcDbCircle
 10
53.5019234
 20
-129.297302
 30
0.0
 40
9.73358326
100
AcDbArc
 50
78.5176687
 51
89.9672895
  0
ARC
  5
C8
100
AcDbEntity
  8
PV
  6
CONTINUOUS
 62
         3
100
AcDbCircle
 10
53.6680582
 20
-127.525786
 30
0.0
 40
7.96671276
100
AcDbArc
 50
62.9610538
 51
77.1522421
  0
ARC
  5
C9
100
AcDbEntity
  8
PV
  6
CONTINUOUS
 62
         3
100
AcDbCircle
 10
54.9063294
 20
-124.12875
 30
0.0
 40
4.40025771
100
AcDbArc
 50
41.1878123
 51
57.204504
  0
ARC
  5
CA
100
AcDbEntity
  8
PV
  6
CONTINUOUS
 62
         3
100
AcDbCircle
 10
56.4962048
 20
-122.285385
 30
0.0
 40
2.01875997
100
AcDbArc
 50
6.37533548
 51
31.4845294
  0
CIRCLE
  5
CB
100
AcDbEntity
  8
PV
  6
CONTINUOUS
 62
         3
100
AcDbCircle
 10
282.057701
 20
-151.833418
 30
0.0
 40
4.4955
  0
CIRCLE
  5
CC
100
AcDbEntity
  8
PV
  6
CONTINUOUS
 62
         3
100
AcDbCircle
 10
188.62223
 20
-112.7905
 30
0.0
 40
4.4955
  0
ARC
  5
CD
100
AcDbEntity
  8
PV
  6
CONTINUOUS
 62
         3
100
AcDbCircle
 10
258.026756
 20
-240.6625
 30
0.0
 40
2.997
100
AcDbArc
 50
20.2
 51
159.8
  0
ARC
  5
CE
100
AcDbEntity
  8
PV
  6
CONTINUOUS
 62
         3
100
AcDbCircle
 10
242.120678
 20
-240.6625
 30
0.0
 40
2.997
100
AcDbArc
 50
20.2
 51
159.8
  0
ARC
  5
CF
100
AcDbEntity
  8
PV
  6
CONTINUOUS
 62
         3
100
AcDbCircle
 10
226.216598
 20
-240.6625
 30
0.0
 40
2.997
100
AcDbArc
 50
20.2
 51
159.8
  0
ARC
  5
D0
100
AcDbEntity
  8
PV
  6
CONTINUOUS
 62
         3
100
AcDbCircle
 10
210.311519
 20
-240.6625
 30
0.0
 40
2.997
100
AcDbArc
 50
20.2
 51
159.8
  0
ARC
  5
D1
100
AcDbEntity
  8
PV
  6
CONTINUOUS
 62
         3
100
AcDbCircle
 10
265.978796
 20
-252.151
 30
0.0
 40
0.4995
100
AcDbArc
 50
200.2
 51
345.54
  0
ARC
  5
D2
100
AcDbEntity
  8
PV
  6
CONTINUOUS
 62
         3
100
AcDbCircle
 10
250.073717
 20
-252.151
 30
0.0
 40
0.4995
100
AcDbArc
 50
200.2
 51
339.8
  0
ARC
  5
D3
100
AcDbEntity
  8
PV
  6
CONTINUOUS
 62
         3
100
AcDbCircle
 10
234.168638
 20
-252.151
 30
0.0
 40
0.4995
100
AcDbArc
 50
200.2
 51
339.8
  0
ARC
  5
D4
100
AcDbEntity
  8
PV
  6
CONTINUOUS
 62
         3
100
AcDbCircle
 10
218.263559
 20
-252.151
 30
0.0
 40
0.4995
100
AcDbArc
 50
200.2
 51
339.8
  0
ARC
  5
D5
100
AcDbEntity
  8
PV
  6
CONTINUOUS
 62
         3
100
AcDbCircle
 10
202.35848
 20
-252.151
 30
0.0
 40
0.4995
100
AcDbArc
 50
195.603
 51
339.8
  0
ARC
  5
D6
100
AcDbEntity
  8
PV
  6
CONTINUOUS
 62
         3
100
AcDbCircle
 10
258.026756
 20
-129.7735
 30
0.0
 40
2.997
100
AcDbArc
 50
200.2
 51
339.8
  0
ARC
  5
D7
100
AcDbEntity
  8
PV
  6
CONTINUOUS
 62
         3
100
AcDbCircle
 10
242.120678
 20
-129.7735
 30
0.0
 40
2.997
100
AcDbArc
 50
200.2
 51
339.8
  0
ARC
  5
D8
100
AcDbEntity
  8
PV
  6
CONTINUOUS
 62
         3
100
AcDbCircle
 10
226.216598
 20
-129.7735
 30
0.0
 40
2.997
100
AcDbArc
 50
200.2
 51
339.8
  0
ARC
  5
D9
100
AcDbEntity
  8
PV
  6
CONTINUOUS
 62
         3
100
AcDbCircle
 10
210.311519
 20
-129.7735
 30
0.0
 40
2.997
100
AcDbArc
 50
200.2
 51
339.8
  0
ARC
  5
DA
100
AcDbEntity
  8
PV
  6
CONTINUOUS
 62
         3
100
AcDbCircle
 10
265.978796
 20
-118.285
 30
0.0
 40
0.4995
100
AcDbArc
 50
14.46
 51
159.8
  0
ARC
  5
DB
100
AcDbEntity
  8
PV
  6
CONTINUOUS
 62
         3
100
AcDbCircle
 10
250.073717
 20
-118.285
 30
0.0
 40
0.4995
100
AcDbArc
 50
20.2
 51
159.8
  0
ARC
  5
DC
100
AcDbEntity
  8
PV
  6
CONTINUOUS
 62
         3
100
AcDbCircle
 10
234.168638
 20
-118.285
 30
0.0
 40
0.4995
100
AcDbArc
 50
20.2
 51
159.8
  0
ARC
  5
DD
100
AcDbEntity
  8
PV
  6
CONTINUOUS
 62
         3
100
AcDbCircle
 10
218.263559
 20
-118.285
 30
0.0
 40
0.4995
100
AcDbArc
 50
20.2
 51
159.8
  0
ARC
  5
DE
100
AcDbEntity
  8
PV
  6
CONTINUOUS
 62
         3
100
AcDbCircle
 10
202.35848
 20
-118.285
 30
0.0
 40
0.4995
100
AcDbArc
 50
20.2
 51
164.397
  0
ARC
  5
DF
100
AcDbEntity
  8
PV
  6
CONTINUOUS
 62
         3
100
AcDbCircle
 10
225.33548
 20
-185.218
 30
0.0
 40
79.92
100
AcDbArc
 50
339.513
 51
20.487
  0
ARC
  5
E0
100
AcDbEntity
  8
PV
  6
CONTINUOUS
 62
         3
100
AcDbCircle
 10
132.22868
 20
-120.283
 30
0.0
 40
2.4975
100
AcDbArc
 50
11.537
 51
168.463
  0
ARC
  5
E1
100
AcDbEntity
  8
PV
  6
CONTINUOUS
 62
         3
100
AcDbCircle
 10
156.40448
 20
-118.285
 30
0.0
 40
2.997
100
AcDbArc
 50
9.59399997
 51
170.406
  0
ARC
  5
E2
100
AcDbEntity
  8
PV
  6
CONTINUOUS
 62
         3
100
AcDbCircle
 10
49.5114804
 20
-115.7875
 30
0.0
 40
5.994
100
AcDbArc
 50
90.0000002
 51
144.315
  0
ARC
  5
E3
100
AcDbEntity
  8
PV
  6
CONTINUOUS
 62
         3
100
AcDbCircle
 10
57.5034804
 20
-115.7875
 30
0.0
 40
5.994
100
AcDbArc
 50
35.685
 51
90.0000002
  0
CIRCLE
  5
E4
100
AcDbEntity
  8
PV
  6
CONTINUOUS
 62
         3
100
AcDbCircle
 10
53.5074804
 20
-185.218
 30
0.0
 40
4.995
  0
LINE
  5
E5
100
AcDbEntity
  8
PV
  6
CONTINUOUS
 62
         3
100
AcDbLine
 10
-133.30552
 20
-101.302
 30
0.0
 11
-103.33552
 21
-101.302
 31
0.0
  0
LINE
  5
E6
100
AcDbEntity
  8
PV
  6
CONTINUOUS
 62
         3
100
AcDbLine
 10
-133.30552
 20
-269.134
 30
0.0
 11
-103.33552
 21
-269.134
 31
0.0
  0
LINE
  5
E7
100
AcDbEntity
  8
PV
  6
CONTINUOUS
 62
         3
100
AcDbLine
 10
-133.30552
 20
-101.302
 30
0.0
 11
-133.30552
 21
-269.134
 31
0.0
  0
LINE
  5
E8
100
AcDbEntity
  8
PV
  6
CONTINUOUS
 62
         3
100
AcDbLine
 10
-103.33552
 20
-101.302
 30
0.0
 11
-103.33552
 21
-269.134
 31
0.0
  0
LINE
  5
E9
100
AcDbEntity
  8
PV
  6
CONTINUOUS
 62
         3
100
AcDbLine
 10
286.553201
 20
-156.328918
 30
0.0
 11
286.553201
 21
-156.828418
 31
0.0
  0
LINE
  5
EA
100
AcDbEntity
  8
PV
  6
CONTINUOUS
 62
         3
100
AcDbLine
 10
277.562201
 20
-156.328918
 30
0.0
 11
277.562201
 21
-156.828418
 31
0.0
  0
LINE
  5
EB
100
AcDbEntity
  8
PV
  6
CONTINUOUS
 62
         3
100
AcDbLine
 10
277.062701
 20
-156.535711
 30
0.0
 11
277.062701
 21
-156.828418
 31
0.0
  0
LINE
  5
EC
100
AcDbEntity
  8
PV
  6
CONTINUOUS
 62
         3
100
AcDbLine
 10
287.052701
 20
-156.535711
 30
0.0
 11
287.052701
 21
-156.828418
 31
0.0
  0
LINE
  5
ED
100
AcDbEntity
  8
PV
  6
CONTINUOUS
 62
         3
100
AcDbLine
 10
287.052701
 20
-156.535711
 30
0.0
 11
285.343412
 21
-154.826422
 31
0.0
  0
LINE
  5
EE
100
AcDbEntity
  8
PV
  6
CONTINUOUS
 62
         3
100
AcDbLine
 10
277.062701
 20
-156.535711
 30
0.0
 11
278.77199
 21
-154.826422
 31
0.0
  0
LINE
  5
EF
100
AcDbEntity
  8
PV
  6
CONTINUOUS
 62
         3
100
AcDbLine
 10
277.562201
 20
-156.328918
 30
0.0
 11
286.553201
 21
-156.328918
 31
0.0
  0
LINE
  5
F0
100
AcDbEntity
  8
PV
  6
CONTINUOUS
 62
         3
100
AcDbLine
 10
277.062701
 20
-156.828418
 30
0.0
 11
287.052701
 21
-156.828418
 31
0.0
  0
LINE
  5
F1
100
AcDbEntity
  8
PV
  6
CENTER
 62
         3
100
AcDbLine
 10
276.063701
 20
-151.833418
 30
0.0
 11
288.051701
 21
-151.833418
 31
0.0
  0
LINE
  5
F2
100
AcDbEntity
  8
PV
  6
CENTER
 62
         3
100
AcDbLine
 10
282.057701
 20
-158.326918
 30
0.0
 11
282.057701
 21
-145.331926
 31
0.0
  0
LINE
  5
F3
100
AcDbEntity
  8
PV
  6
CONTINUOUS
 62
         3
100
AcDbLine
 10
287.552201
 20
-156.328918
 30
0.0
 11
287.552201
 21
-157.246
 31
0.0
  0
LINE
  5
F4
100
AcDbEntity
  8
PV
  6
CONTINUOUS
 62
         3
100
AcDbLine
 10
287.552201
 20
-156.328918
 30
0.0
 11
285.697058
 21
-154.473775
 31
0.0
  0
LINE
  5
F5
100
AcDbEntity
  8
PV
  6
CONTINUOUS
 62
         3
100
AcDbLine
 10
276.563201
 20
-156.328918
 30
0.0
 11
278.419343
 21
-154.473775
 31
0.0
  0
LINE
  5
F6
100
AcDbEntity
  8
PV
  6
CONTINUOUS
 62
         3
100
AcDbLine
 10
282.057701
 20
-150.703549
 30
0.0
 11
284.621135
 21
-148.140115
 31
0.0
  0
LINE
  5
F7
100
AcDbEntity
  8
PV
  6
CONTINUOUS
 62
         3
100
AcDbLine
 10
283.188569
 20
-151.833418
 30
0.0
 11
285.751004
 21
-149.270983
 31
0.0
  0
LINE
  5
F8
100
AcDbEntity
  8
PV
  6
CONTINUOUS
 62
         3
100
AcDbLine
 10
282.057701
 20
-150.703549
 30
0.0
 11
281.210549
 21
-149.855398
 31
0.0
  0
LINE
  5
F9
100
AcDbEntity
  8
PV
  6
CONTINUOUS
 62
         3
100
AcDbLine
 10
280.927832
 20
-151.833418
 30
0.0
 11
280.079681
 21
-150.986266
 31
0.0
  0
LINE
  5
FA
100
AcDbEntity
  8
PV
  6
CONTINUOUS
 62
         3
100
AcDbLine
 10
282.905852
 20
-153.811438
 30
0.0
 11
284.035721
 21
-152.681569
 31
0.0
  0
LINE
  5
FB
100
AcDbEntity
  8
PV
  6
CONTINUOUS
 62
         3
100
AcDbLine
 10
280.079681
 20
-150.986266
 30
0.0
 11
281.210549
 21
-149.855398
 31
0.0
  0
LINE
  5
FC
100
AcDbEntity
  8
PV
  6
CONTINUOUS
 62
         3
100
AcDbLine
 10
279.495266
 20
-155.526721
 30
0.0
 11
282.057701
 21
-152.964286
 31
0.0
  0
LINE
  5
FD
100
AcDbEntity
  8
PV
  6
CONTINUOUS
 62
         3
100
AcDbLine
 10
278.364398
 20
-154.396852
 30
0.0
 11
280.927832
 21
-151.833418
 31
0.0
  0
LINE
  5
FE
100
AcDbEntity
  8
PV
  6
CONTINUOUS
 62
         3
100
AcDbLine
 10
284.035721
 20
-152.681569
 30
0.0
 11
283.188569
 21
-151.833418
 31
0.0
  0
LINE
  5
FF
100
AcDbEntity
  8
PV
  6
CONTINUOUS
 62
         3
100
AcDbLine
 10
282.905852
 20
-153.811438
 30
0.0
 11
282.057701
 21
-152.964286
 31
0.0
  0
LINE
  5
100
100
AcDbEntity
  8
PV
  6
CONTINUOUS
 62
         3
100
AcDbLine
 10
276.563201
 20
-156.328918
 30
0.0
 11
276.563201
 21
-157.246
 31
0.0
  0
LINE
  5
101
100
AcDbEntity
  8
PV
  6
CONTINUOUS
 62
         3
100
AcDbLine
 10
183.12773
 20
-118.285
 30
0.0
 11
194.36648
 21
-118.285
 31
0.0
  0
LINE
  5
102
100
AcDbEntity
  8
PV
  6
CONTINUOUS
 62
         3
100
AcDbLine
 10
193.11773
 20
-117.286
 30
0.0
 11
193.11773
 21
-117.7855
 31
0.0
  0
LINE
  5
103
100
AcDbEntity
  8
PV
  6
CONTINUOUS
 62
         3
100
AcDbLine
 10
184.12673
 20
-117.286
 30
0.0
 11
184.12673
 21
-117.7855
 31
0.0
  0
LINE
  5
104
100
AcDbEntity
  8
PV
  6
CONTINUOUS
 62
         3
100
AcDbLine
 10
183.62723
 20
-117.492793
 30
0.0
 11
183.62723
 21
-117.7855
 31
0.0
  0
LINE
  5
105
100
AcDbEntity
  8
PV
  6
CONTINUOUS
 62
         3
100
AcDbLine
 10
193.61723
 20
-117.492793
 30
0.0
 11
193.61723
 21
-117.7855
 31
0.0
  0
LINE
  5
106
100
AcDbEntity
  8
PV
  6
CONTINUOUS
 62
         3
100
AcDbLine
 10
193.61723
 20
-117.492793
 30
0.0
 11
191.907941
 21
-115.783504
 31
0.0
  0
LINE
  5
107
100
AcDbEntity
  8
PV
  6
CONTINUOUS
 62
         3
100
AcDbLine
 10
183.62723
 20
-117.492793
 30
0.0
 11
185.336519
 21
-115.783504
 31
0.0
  0
LINE
  5
108
100
AcDbEntity
  8
PV
  6
CONTINUOUS
 62
         3
100
AcDbLine
 10
184.12673
 20
-117.286
 30
0.0
 11
193.11773
 21
-117.286
 31
0.0
  0
LINE
  5
109
100
AcDbEntity
  8
PV
  6
CONTINUOUS
 62
         3
100
AcDbLine
 10
183.62723
 20
-117.7855
 30
0.0
 11
193.61723
 21
-117.7855
 31
0.0
  0
LINE
  5
10A
100
AcDbEntity
  8
PV
  6
CENTER
 62
         3
100
AcDbLine
 10
182.62823
 20
-112.7905
 30
0.0
 11
194.61623
 21
-112.7905
 31
0.0
  0
LINE
  5
10B
100
AcDbEntity
  8
PV
  6
CENTER
 62
         3
100
AcDbLine
 10
188.62223
 20
-119.284
 30
0.0
 11
188.62223
 21
-106.289008
 31
0.0
  0
LINE
  5
10C
100
AcDbEntity
  8
PV
  6
CONTINUOUS
 62
         3
100
AcDbLine
 10
194.11673
 20
-117.286
 30
0.0
 11
194.11673
 21
-118.285
 31
0.0
  0
LINE
  5
10D
100
AcDbEntity
  8
PV
  6
CONTINUOUS
 62
         3
100
AcDbLine
 10
194.11673
 20
-117.286
 30
0.0
 11
192.260588
 21
-115.430857
 31
0.0
  0
LINE
  5
10E
100
AcDbEntity
  8
PV
  6
CONTINUOUS
 62
         3
100
AcDbLine
 10
183.12773
 20
-117.286
 30
0.0
 11
184.983872
 21
-115.430857
 31
0.0
  0
LINE
  5
10F
100
AcDbEntity
  8
PV
  6
CONTINUOUS
 62
         3
100
AcDbLine
 10
188.62223
 20
-111.660631
 30
0.0
 11
191.185664
 21
-109.097197
 31
0.0
  0
LINE
  5
110
100
AcDbEntity
  8
PV
  6
CONTINUOUS
 62
         3
100
AcDbLine
 10
189.752099
 20
-112.7905
 30
0.0
 11
192.315533
 21
-110.228065
 31
0.0
  0
LINE
  5
111
100
AcDbEntity
  8
PV
  6
CONTINUOUS
 62
         3
100
AcDbLine
 10
188.62223
 20
-111.660631
 30
0.0
 11
187.774079
 21
-110.81248
 31
0.0
  0
LINE
  5
112
100
AcDbEntity
  8
PV
  6
CONTINUOUS
 62
         3
100
AcDbLine
 10
187.492361
 20
-112.7905
 30
0.0
 11
186.64421
 21
-111.942349
 31
0.0
  0
LINE
  5
113
100
AcDbEntity
  8
PV
  6
CONTINUOUS
 62
         3
100
AcDbLine
 10
189.470381
 20
-114.76852
 30
0.0
 11
190.60025
 21
-113.638651
 31
0.0
  0
LINE
  5
114
100
AcDbEntity
  8
PV
  6
CONTINUOUS
 62
         3
100
AcDbLine
 10
186.64421
 20
-111.942349
 30
0.0
 11
187.774079
 21
-110.81248
 31
0.0
  0
LINE
  5
115
100
AcDbEntity
  8
PV
  6
CONTINUOUS
 62
         3
100
AcDbLine
 10
186.058796
 20
-116.483803
 30
0.0
 11
188.62223
 21
-113.920369
 31
0.0
  0
LINE
  5
116
100
AcDbEntity
  8
PV
  6
CONTINUOUS
 62
         3
100
AcDbLine
 10
184.928927
 20
-115.353934
 30
0.0
 11
187.492361
 21
-112.7905
 31
0.0
  0
LINE
  5
117
100
AcDbEntity
  8
PV
  6
CONTINUOUS
 62
         3
100
AcDbLine
 10
190.60025
 20
-113.638651
 30
0.0
 11
189.752099
 21
-112.7905
 31
0.0
  0
LINE
  5
118
100
AcDbEntity
  8
PV
  6
CONTINUOUS
 62
         3
100
AcDbLine
 10
189.470381
 20
-114.76852
 30
0.0
 11
188.62223
 21
-113.920369
 31
0.0
  0
LINE
  5
119
100
AcDbEntity
  8
PV
  6
CONTINUOUS
 62
         3
100
AcDbLine
 10
183.12773
 20
-117.286
 30
0.0
 11
183.12773
 21
-118.285
 31
0.0
  0
LINE
  5
11A
100
AcDbEntity
  8
PV
  6
CONTINUOUS
 62
         3
100
AcDbLine
 10
194.36648
 20
-118.285
 30
0.0
 11
194.36648
 21
-117.7855
 31
0.0
  0
LINE
  5
11B
100
AcDbEntity
  8
PV
  6
CONTINUOUS
 62
         3
100
AcDbLine
 10
194.36648
 20
-252.151
 30
0.0
 11
194.36648
 21
-252.6505
 31
0.0
  0
LINE
  5
11C
100
AcDbEntity
  8
PV
  6
CONTINUOUS
 62
         3
100
AcDbLine
 10
186.37448
 20
-252.151
 30
0.0
 11
186.37448
 21
-252.6505
 31
0.0
  0
LINE
  5
11D
100
AcDbEntity
  8
PV
  6
CONTINUOUS
 62
         3
100
AcDbLine
 10
276.28448
 20
-214.189
 30
0.0
 11
276.28448
 21
-213.19
 31
0.0
  0
LINE
  5
11E
100
AcDbEntity
  8
PV
  6
CONTINUOUS
 62
         3
100
AcDbLine
 10
284.27648
 20
-214.189
 30
0.0
 11
284.27648
 21
-213.19
 31
0.0
  0
LINE
  5
11F
100
AcDbEntity
  8
PV
  6
CONTINUOUS
 62
         3
100
AcDbLine
 10
284.27648
 20
-214.189
 30
0.0
 11
276.28448
 21
-214.189
 31
0.0
  0
LINE
  5
120
100
AcDbEntity
  8
PV
  6
CONTINUOUS
 62
         3
100
AcDbLine
 10
194.36648
 20
-252.151
 30
0.0
 11
186.37448
 21
-252.151
 31
0.0
  0
LINE
  5
121
100
AcDbEntity
  8
PV
  6
CONTINUOUS
 62
         3
100
AcDbLine
 10
194.36648
 20
-252.6505
 30
0.0
 11
186.37448
 21
-252.6505
 31
0.0
  0
LINE
  5
122
100
AcDbEntity
  8
PV
  6
CONTINUOUS
 62
         3
100
AcDbLine
 10
276.28448
 20
-214.189
 30
0.0
 11
266.462312
 21
-252.275875
 31
0.0
  0
LINE
  5
123
100
AcDbEntity
  8
PV
  6
CONTINUOUS
 62
         3
100
AcDbLine
 10
260.838941
 20
-239.627536
 30
0.0
 11
265.510265
 21
-252.323827
 31
0.0
  0
LINE
  5
124
100
AcDbEntity
  8
PV
  6
CONTINUOUS
 62
         3
100
AcDbLine
 10
244.933862
 20
-239.627536
 30
0.0
 11
249.605186
 21
-252.323827
 31
0.0
  0
LINE
  5
125
100
AcDbEntity
  8
PV
  6
CONTINUOUS
 62
         3
100
AcDbLine
 10
255.213572
 20
-239.627536
 30
0.0
 11
250.542248
 21
-252.323827
 31
0.0
  0
LINE
  5
126
100
AcDbEntity
  8
PV
  6
CONTINUOUS
 62
         3
100
AcDbLine
 10
234.637169
 20
-252.323827
 30
0.0
 11
239.308493
 21
-239.627536
 31
0.0
  0
LINE
  5
127
100
AcDbEntity
  8
PV
  6
CONTINUOUS
 62
         3
100
AcDbLine
 10
233.700107
 20
-252.323827
 30
0.0
 11
229.028783
 21
-239.627536
 31
0.0
  0
LINE
  5
128
100
AcDbEntity
  8
PV
  6
CONTINUOUS
 62
         3
100
AcDbLine
 10
223.403414
 20
-239.627536
 30
0.0
 11
218.73209
 21
-252.323827
 31
0.0
  0
LINE
  5
129
100
AcDbEntity
  8
PV
  6
CONTINUOUS
 62
         3
100
AcDbLine
 10
213.123704
 20
-239.627536
 30
0.0
 11
217.795028
 21
-252.323827
 31
0.0
  0
LINE
  5
12A
100
AcDbEntity
  8
PV
  6
CONTINUOUS
 62
         3
100
AcDbLine
 10
207.498335
 20
-239.627536
 30
0.0
 11
202.827011
 21
-252.323827
 31
0.0
  0
LINE
  5
12B
100
AcDbEntity
  8
PV
  6
CONTINUOUS
 62
         3
100
AcDbLine
 10
186.37448
 20
-118.285
 30
0.0
 11
194.36648
 21
-118.285
 31
0.0
  0
LINE
  5
12C
100
AcDbEntity
  8
PV
  6
CONTINUOUS
 62
         3
100
AcDbLine
 10
194.36648
 20
-117.7855
 30
0.0
 11
194.36648
 21
-108.7945
 31
0.0
  0
LINE
  5
12D
100
AcDbEntity
  8
PV
  6
CONTINUOUS
 62
         3
100
AcDbLine
 10
266.462312
 20
-118.160125
 30
0.0
 11
276.542222
 21
-157.246
 31
0.0
  0
LINE
  5
12E
100
AcDbEntity
  8
PV
  6
CONTINUOUS
 62
         3
100
AcDbLine
 10
265.510265
 20
-118.112173
 30
0.0
 11
260.838941
 21
-130.808464
 31
0.0
  0
LINE
  5
12F
100
AcDbEntity
  8
PV
  6
CONTINUOUS
 62
         3
100
AcDbLine
 10
249.605186
 20
-118.112173
 30
0.0
 11
244.933862
 21
-130.808464
 31
0.0
  0
LINE
  5
130
100
AcDbEntity
  8
PV
  6
CONTINUOUS
 62
         3
100
AcDbLine
 10
250.542248
 20
-118.112173
 30
0.0
 11
255.213572
 21
-130.808464
 31
0.0
  0
LINE
  5
131
100
AcDbEntity
  8
PV
  6
CONTINUOUS
 62
         3
100
AcDbLine
 10
239.308493
 20
-130.808464
 30
0.0
 11
234.637169
 21
-118.112173
 31
0.0
  0
LINE
  5
132
100
AcDbEntity
  8
PV
  6
CONTINUOUS
 62
         3
100
AcDbLine
 10
229.028783
 20
-130.808464
 30
0.0
 11
233.700107
 21
-118.112173
 31
0.0
  0
LINE
  5
133
100
AcDbEntity
  8
PV
  6
CONTINUOUS
 62
         3
100
AcDbLine
 10
218.73209
 20
-118.112173
 30
0.0
 11
223.403414
 21
-130.808464
 31
0.0
  0
LINE
  5
134
100
AcDbEntity
  8
PV
  6
CONTINUOUS
 62
         3
100
AcDbLine
 10
217.795028
 20
-118.112173
 30
0.0
 11
213.123704
 21
-130.808464
 31
0.0
  0
LINE
  5
135
100
AcDbEntity
  8
PV
  6
CONTINUOUS
 62
         3
100
AcDbLine
 10
202.827011
 20
-118.112173
 30
0.0
 11
207.498335
 21
-130.808464
 31
0.0
  0
LINE
  5
136
100
AcDbEntity
  8
PV
  6
CENTER
 62
         3
100
AcDbLine
 10
53.5074804
 20
-242.13103
 30
0.0
 11
53.5074804
 21
-254.61853
 31
0.0
  0
LINE
  5
137
100
AcDbEntity
  8
PV
  6
CENTER
 62
         3
100
AcDbLine
 10
53.5074804
 20
-175.228
 30
0.0
 11
53.5074804
 21
-195.208
 31
0.0
  0
LINE
  5
138
100
AcDbEntity
  8
PV
  6
CONTINUOUS
 62
         3
100
AcDbLine
 10
196.36448
 20
-150.984268
 30
0.0
 11
207.35348
 21
-170.004229
 31
0.0
  0
LINE
  5
139
100
AcDbEntity
  8
PV
  6
CONTINUOUS
 62
         3
100
AcDbLine
 10
196.36448
 20
-170.004229
 30
0.0
 11
207.35348
 21
-150.983269
 31
0.0
  0
LINE
  5
13A
100
AcDbEntity
  8
PV
  6
CONTINUOUS
 62
         3
100
AcDbLine
 10
196.36448
 20
-170.004229
 30
0.0
 11
196.36448
 21
-150.984268
 31
0.0
  0
LINE
  5
13B
100
AcDbEntity
  8
PV
  6
CONTINUOUS
 62
         3
100
AcDbLine
 10
196.36448
 20
-170.004229
 30
0.0
 11
207.35348
 21
-170.004229
 31
0.0
  0
LINE
  5
13C
100
AcDbEntity
  8
PV
  6
CONTINUOUS
 62
         3
100
AcDbLine
 10
196.36448
 20
-150.984268
 30
0.0
 11
207.35348
 21
-150.984268
 31
0.0
  0
LINE
  5
13D
100
AcDbEntity
  8
PV
  6
CONTINUOUS
 62
         3
100
AcDbLine
 10
196.36448
 20
-219.451732
 30
0.0
 11
207.35348
 21
-200.431771
 31
0.0
  0
LINE
  5
13E
100
AcDbEntity
  8
PV
  6
CONTINUOUS
 62
         3
100
AcDbLine
 10
196.36448
 20
-200.431771
 30
0.0
 11
207.35348
 21
-219.452731
 31
0.0
  0
LINE
  5
13F
100
AcDbEntity
  8
PV
  6
CONTINUOUS
 62
         3
100
AcDbLine
 10
196.36448
 20
-200.431771
 30
0.0
 11
196.36448
 21
-219.451732
 31
0.0
  0
LINE
  5
140
100
AcDbEntity
  8
PV
  6
CONTINUOUS
 62
         3
100
AcDbLine
 10
196.36448
 20
-200.431771
 30
0.0
 11
207.35348
 21
-200.431771
 31
0.0
  0
LINE
  5
141
100
AcDbEntity
  8
PV
  6
CONTINUOUS
 62
         3
100
AcDbLine
 10
196.36448
 20
-219.451732
 30
0.0
 11
207.35348
 21
-219.451732
 31
0.0
  0
LINE
  5
142
100
AcDbEntity
  8
PV
  6
CONTINUOUS
 62
         3
100
AcDbLine
 10
300.20054
 20
-157.246
 30
0.0
 11
300.20054
 21
-213.19
 31
0.0
  0
LINE
  5
143
100
AcDbEntity
  8
PV
  6
CONTINUOUS
 62
         3
100
AcDbLine
 10
192.36848
 20
-222.6805
 30
0.0
 11
207.35348
 21
-222.6805
 31
0.0
  0
LINE
  5
144
100
AcDbEntity
  8
PV
  6
CONTINUOUS
 62
         3
100
AcDbLine
 10
192.36848
 20
-147.7555
 30
0.0
 11
207.35348
 21
-147.7555
 31
0.0
  0
LINE
  5
145
100
AcDbEntity
  8
PV
  6
CONTINUOUS
 62
         3
100
AcDbLine
 10
142.41848
 20
-250.6525
 30
0.0
 11
122.23868
 21
-250.6525
 31
0.0
  0
LINE
  5
146
100
AcDbEntity
  8
PV
  6
CONTINUOUS
 62
         3
100
AcDbLine
 10
122.23868
 20
-119.7835
 30
0.0
 11
122.23868
 21
-250.6525
 31
0.0
  0
LINE
  5
147
100
AcDbEntity
  8
PV
  6
CENTER
 62
         3
100
AcDbLine
 10
132.22868
 20
-116.945341
 30
0.0
 11
132.22868
 21
-122.894386
 31
0.0
  0
LINE
  5
148
100
AcDbEntity
  8
PV
  6
CONTINUOUS
 62
         3
100
AcDbLine
 10
49.5114804
 20
-109.7935
 30
0.0
 11
57.5034804
 21
-109.7935
 31
0.0
  0
LINE
  5
149
100
AcDbEntity
  8
PV
  6
CONTINUOUS
 62
         3
100
AcDbLine
 10
-85.3535196
 20
-110.7925
 30
0.0
 11
-67.3715196
 21
-110.7925
 31
0.0
  0
LINE
  5
14A
100
AcDbEntity
  8
PV
  6
CONTINUOUS
 62
         3
100
AcDbLine
 10
-85.3535196
 20
-110.7925
 30
0.0
 11
-85.3535196
 21
-118.285
 31
0.0
  0
LINE
  5
14B
100
AcDbEntity
  8
PV
  6
CONTINUOUS
 62
         3
100
AcDbLine
 10
-67.3715196
 20
-110.7925
 30
0.0
 11
-67.3715196
 21
-118.285
 31
0.0
  0
LINE
  5
14C
100
AcDbEntity
  8
PV
  6
CENTER
 62
         3
100
AcDbLine
 10
-76.3625196
 20
-108.209086
 30
0.0
 11
-76.3625196
 21
-123.049231
 31
0.0
  0
LINE
  5
14D
100
AcDbEntity
  8
PV
  6
CONTINUOUS
 62
         3
100
AcDbLine
 10
161.39948
 20
-118.285
 30
0.0
 11
161.39948
 21
-117.7855
 31
0.0
  0
LINE
  5
14E
100
AcDbEntity
  8
PV
  6
CENTER
 62
         3
100
AcDbLine
 10
156.40448
 20
-113.47981
 30
0.0
 11
156.40448
 21
-122.126155
 31
0.0
  0
LINE
  5
14F
100
AcDbEntity
  8
PV
  6
CONTINUOUS
 62
         3
100
AcDbLine
 10
142.41848
 20
-117.7855
 30
0.0
 11
161.39948
 21
-117.7855
 31
0.0
  0
LINE
  5
150
100
AcDbEntity
  8
PV
  6
CONTINUOUS
 62
         3
100
AcDbLine
 10
142.41848
 20
-119.7835
 30
0.0
 11
122.23868
 21
-119.7835
 31
0.0
  0
LINE
  5
151
100
AcDbEntity
  8
PV
  6
CONTINUOUS
 62
         3
100
AcDbLine
 10
67.9929804
 20
-112.291
 30
0.0
 11
67.9929804
 21
-258.145
 31
0.0
  0
LINE
  5
152
100
AcDbEntity
  8
PV
  6
CONTINUOUS
 62
         3
100
AcDbLine
 10
39.0219804
 20
-112.291
 30
0.0
 11
39.0219804
 21
-258.145
 31
0.0
  0
LINE
  5
153
100
AcDbEntity
  8
PV
  6
CENTER
 62
         3
100
AcDbLine
 10
61.5124674
 20
-248.37478
 30
0.0
 11
44.8611354
 21
-248.37478
 31
0.0
  0
LINE
  5
154
100
AcDbEntity
  8
PV
  6
CONTINUOUS
 62
         3
100
AcDbLine
 10
122.23868
 20
-250.153
 30
0.0
 11
69.4914804
 21
-250.153
 31
0.0
  0
LINE
  5
155
100
AcDbEntity
  8
PV
  6
CONTINUOUS
 62
         3
100
AcDbLine
 10
69.4914804
 20
-255.549598
 30
0.0
 11
67.9929804
 21
-258.145
 31
0.0
  0
LINE
  5
156
100
AcDbEntity
  8
PV
  6
CONTINUOUS
 62
         3
100
AcDbLine
 10
37.5244794
 20
-255.548599
 30
0.0
 11
39.0229794
 21
-258.145
 31
0.0
  0
LINE
  5
157
100
AcDbEntity
  8
PV
  6
CONTINUOUS
 62
         3
100
AcDbLine
 10
67.9929804
 20
-258.145
 30
0.0
 11
39.0219804
 21
-258.145
 31
0.0
  0
LINE
  5
158
100
AcDbEntity
  8
PV
  6
CONTINUOUS
 62
         3
100
AcDbLine
 10
37.5234804
 20
-250.153
 30
0.0
 11
-53.3855196
 21
-250.153
 31
0.0
  0
LINE
  5
159
100
AcDbEntity
  8
PV
  6
CONTINUOUS
 62
         3
100
AcDbLine
 10
192.36848
 20
-252.151
 30
0.0
 11
142.41848
 21
-252.151
 31
0.0
  0
LINE
  5
15A
100
AcDbEntity
  8
PV
  6
CONTINUOUS
 62
         3
100
AcDbLine
 10
300.20054
 20
-213.19
 30
0.0
 11
270.29048
 21
-213.19
 31
0.0
  0
LINE
  5
15B
100
AcDbEntity
  8
PV
  6
CONTINUOUS
 62
         3
100
AcDbLine
 10
270.29048
 20
-199.204
 30
0.0
 11
207.35348
 21
-199.204
 31
0.0
  0
LINE
  5
15C
100
AcDbEntity
  8
PV
  6
CONTINUOUS
 62
         3
100
AcDbLine
 10
207.35348
 20
-147.7555
 30
0.0
 11
207.35348
 21
-222.6805
 31
0.0
  0
LINE
  5
15D
100
AcDbEntity
  8
PV
  6
CONTINUOUS
 62
         3
100
AcDbLine
 10
-53.3855196
 20
-252.151
 30
0.0
 11
-103.33552
 21
-252.151
 31
0.0
  0
LINE
  5
15E
100
AcDbEntity
  8
PV
  6
CENTER
 62
         3
100
AcDbLine
 10
44.8611354
 20
-122.06122
 30
0.0
 11
61.5124674
 21
-122.06122
 31
0.0
  0
LINE
  5
15F
100
AcDbEntity
  8
PV
  6
CENTER
 62
         3
100
AcDbLine
 10
-151.412395
 20
-185.218
 30
0.0
 11
316.582142
 21
-185.218
 31
0.0
  0
LINE
  5
160
100
AcDbEntity
  8
PV
  6
CONTINUOUS
 62
         3
100
AcDbLine
 10
69.4914804
 20
-120.283
 30
0.0
 11
122.23868
 21
-120.283
 31
0.0
  0
LINE
  5
161
100
AcDbEntity
  8
PV
  6
CONTINUOUS
 62
         3
100
AcDbLine
 10
67.9929804
 20
-112.291
 30
0.0
 11
69.4914804
 21
-114.886402
 31
0.0
  0
LINE
  5
162
100
AcDbEntity
  8
PV
  6
CONTINUOUS
 62
         3
100
AcDbLine
 10
39.0219804
 20
-112.291999
 30
0.0
 11
37.5234804
 21
-114.887401
 31
0.0
  0
LINE
  5
163
100
AcDbEntity
  8
PV
  6
CONTINUOUS
 62
         3
100
AcDbLine
 10
39.0219804
 20
-112.291
 30
0.0
 11
67.9929804
 21
-112.291
 31
0.0
  0
LINE
  5
164
100
AcDbEntity
  8
PV
  6
CONTINUOUS
 62
         3
100
AcDbLine
 10
37.5234804
 20
-114.886402
 30
0.0
 11
37.5234804
 21
-255.5476
 31
0.0
  0
LINE
  5
165
100
AcDbEntity
  8
PV
  6
CONTINUOUS
 62
         3
100
AcDbLine
 10
69.4914804
 20
-114.886402
 30
0.0
 11
69.4914804
 21
-255.549598
 31
0.0
  0
LINE
  5
166
100
AcDbEntity
  8
PV
  6
CENTER
 62
         3
100
AcDbLine
 10
53.5074804
 20
-104.616682
 30
0.0
 11
53.5074804
 21
-134.236033
 31
0.0
  0
LINE
  5
167
100
AcDbEntity
  8
PV
  6
CONTINUOUS
 62
         3
100
AcDbLine
 10
-53.3855196
 20
-120.283
 30
0.0
 11
37.5234804
 21
-120.283
 31
0.0
  0
LINE
  5
168
100
AcDbEntity
  8
PV
  6
CONTINUOUS
 62
         3
100
AcDbLine
 10
142.41848
 20
-118.285
 30
0.0
 11
192.36848
 21
-118.285
 31
0.0
  0
LINE
  5
169
100
AcDbEntity
  8
PV
  6
CONTINUOUS
 62
         3
100
AcDbLine
 10
270.29048
 20
-157.246
 30
0.0
 11
300.20054
 21
-157.246
 31
0.0
  0
LINE
  5
16A
100
AcDbEntity
  8
PV
  6
CONTINUOUS
 62
         3
100
AcDbLine
 10
142.41848
 20
-117.7855
 30
0.0
 11
142.41848
 21
-252.151
 31
0.0
  0
LINE
  5
16B
100
AcDbEntity
  8
PV
  6
CONTINUOUS
 62
         3
100
AcDbLine
 10
270.29048
 20
-157.246
 30
0.0
 11
270.29048
 21
-213.19
 31
0.0
  0
LINE
  5
16C
100
AcDbEntity
  8
PV
  6
CONTINUOUS
 62
         3
100
AcDbLine
 10
207.35348
 20
-171.232
 30
0.0
 11
270.29048
 21
-171.232
 31
0.0
  0
LINE
  5
16D
100
AcDbEntity
  8
PV
  6
CONTINUOUS
 62
         3
100
AcDbLine
 10
192.36848
 20
-118.285
 30
0.0
 11
192.36848
 21
-252.151
 31
0.0
  0
LINE
  5
16E
100
AcDbEntity
  8
PV
  6
CONTINUOUS
 62
         3
100
AcDbLine
 10
-53.3855196
 20
-118.285
 30
0.0
 11
-53.3855196
 21
-252.151
 31
0.0
  0
LINE
  5
16F
100
AcDbEntity
  8
PV
  6
CONTINUOUS
 62
         3
100
AcDbLine
 10
-103.33552
 20
-118.285
 30
0.0
 11
-53.3855196
 21
-118.285
 31
0.0
  0
MTEXT
  5
170
100
AcDbEntity
  8
PV
  6
CONTINUOUS
 62
       110
100
AcDbMText
 10
75.4237716264
 20
7.0
 30
0.0
 40
4.0
 41
0.0
 71
         1
 72
         1
  1
\W1.263;\A1;26.0
  0
MTEXT
  5
171
100
AcDbEntity
  8
PV
  6
CONTINUOUS
 62
       110
100
AcDbMText
 10
69.3594441575
 20
17.0
 30
0.0
 40
4.0
 41
0.0
 71
         1
 72
         1
  1
\W1.167;\A1;412\{42\}
  0
MTEXT
  5
172
100
AcDbEntity
  8
PV
  6
CONTINUOUS
 62
       110
100
AcDbMText
 10
69.4051957686
 20
27.0
 30
0.0
 40
4.0
 41
0.0
 71
         1
 72
         1
  1
\W1.235;\A1;137\{14\}
  0
MTEXT
  5
173
100
AcDbEntity
  8
PV
  6
CONTINUOUS
 62
       110
100
AcDbMText
 10
61.3535962193
 20
37.0
 30
0.0
 40
4.0
 41
0.0
 71
         1
 72
         1
  1
\W1.158;\A1;39200\{4000\}
  0
MTEXT
  5
174
100
AcDbEntity
  8
PV
  6
CONTINUOUS
 62
       110
100
AcDbMText
 10
81.2483333787
 20
47.0
 30
0.0
 40
4.0
 41
0.0
 71
         1
 72
         1
  1
\A1;7
  0
MTEXT
  5
175
100
AcDbEntity
  8
PV
  6
CONTINUOUS
 62
       110
100
AcDbMText
 10
65.3316663991
 20
57.0
 30
0.0
 40
4.0
 41
0.0
 71
         1
 72
         1
  1
\W1.125;\A1;8340\{850\}
  0
MTEXT
  5
176
100
AcDbEntity
  8
PV
  6
CONTINUOUS
 62
       110
100
AcDbMText
 10
79.2483333787
 20
67.0
 30
0.0
 40
4.0
 41
0.0
 71
         1
 72
         1
  1
\A1;63
  0
MTEXT
  5
177
100
AcDbEntity
  8
PV
  6
CONTINUOUS
 62
       110
100
AcDbMText
 10
73.2483330784
 20
77.0
 30
0.0
 40
4.0
 41
0.0
 71
         1
 72
         1
  1
\W0.833;\A1;０～０．５
  0
MTEXT
  5
178
100
AcDbEntity
  8
PV
  6
CONTINUOUS
 62
       110
100
AcDbMText
 10
65.3316663991
 20
87.0
 30
0.0
 40
4.0
 41
0.0
 71
         1
 72
         1
  1
\W1.125;\A1;2450\{250\}
  0
MTEXT
  5
179
100
AcDbEntity
  8
PV
  6
CONTINUOUS
 62
       110
100
AcDbMText
 10
65.2483330784
 20
97.0
 30
0.0
 40
4.0
 41
0.0
 71
         1
 72
         1
  1
\W0.833;\A1;９００～９００００
  0
MTEXT
  5
17A
100
AcDbEntity
  8
PV
  6
CONTINUOUS
 62
       110
100
AcDbMText
 10
55.2730244513
 20
107.0
 30
0.0
 40
4.0
 41
0.0
 71
         1
 72
         1
  1
\W1.037;\A1;DP030A063FJ-TE
  0
MTEXT
  5
17B
100
AcDbEntity
  8
PV
  6
CONTINUOUS
 62
       110
100
AcDbMText
 10
0.4237716304
 20
7.0
 30
0.0
 40
4.0
 41
0.0
 71
         1
 72
         1
  1
\W1.263;\A1;26.0
  0
MTEXT
  5
17C
100
AcDbEntity
  8
PV
  6
CONTINUOUS
 62
       110
100
AcDbMText
 10
-5.6405558325
 20
17.0
 30
0.0
 40
4.0
 41
0.0
 71
         1
 72
         1
  1
\W1.167;\A1;412\{42\}
  0
MTEXT
  5
17D
100
AcDbEntity
  8
PV
  6
CONTINUOUS
 62
       110
100
AcDbMText
 10
-5.5948042214
 20
27.0
 30
0.0
 40
4.0
 41
0.0
 71
         1
 72
         1
  1
\W1.235;\A1;137\{14\}
  0
MTEXT
  5
17E
100
AcDbEntity
  8
PV
  6
CONTINUOUS
 62
       110
100
AcDbMText
 10
-13.6464037807
 20
37.0
 30
0.0
 40
4.0
 41
0.0
 71
         1
 72
         1
  1
\W1.158;\A1;39200\{4000\}
  0
MTEXT
  5
17F
100
AcDbEntity
  8
PV
  6
CONTINUOUS
 62
       110
100
AcDbMText
 10
6.2483333887
 20
47.0
 30
0.0
 40
4.0
 41
0.0
 71
         1
 72
         1
  1
\A1;7
  0
MTEXT
  5
180
100
AcDbEntity
  8
PV
  6
CONTINUOUS
 62
       110
100
AcDbMText
 10
-9.6683335709
 20
57.0
 30
0.0
 40
4.0
 41
0.0
 71
         1
 72
         1
  1
\W1.125;\A1;8340\{850\}
  0
MTEXT
  5
181
100
AcDbEntity
  8
PV
  6
CONTINUOUS
 62
       110
100
AcDbMText
 10
4.2483333887
 20
67.0
 30
0.0
 40
4.0
 41
0.0
 71
         1
 72
         1
  1
\A1;63
  0
MTEXT
  5
182
100
AcDbEntity
  8
PV
  6
CONTINUOUS
 62
       110
100
AcDbMText
 10
-5.7516669116
 20
77.0
 30
0.0
 40
4.0
 41
0.0
 71
         1
 72
         1
  1
\W0.833;\A1;０．１～２．５
  0
MTEXT
  5
183
100
AcDbEntity
  8
PV
  6
CONTINUOUS
 62
       110
100
AcDbMText
 10
-9.6683335709
 20
87.0
 30
0.0
 40
4.0
 41
0.0
 71
         1
 72
         1
  1
\W1.125;\A1;2450\{250\}
  0
MTEXT
  5
184
100
AcDbEntity
  8
PV
  6
CONTINUOUS
 62
       110
100
AcDbMText
 10
-9.7516668916
 20
97.0
 30
0.0
 40
4.0
 41
0.0
 71
         1
 72
         1
  1
\W0.833;\A1;３００～３００００
  0
MTEXT
  5
185
100
AcDbEntity
  8
PV
  6
CONTINUOUS
 62
       110
100
AcDbMText
 10
-13.719920877
 20
107.0
 30
0.0
 40
4.0
 41
0.0
 71
         1
 72
         1
  1
\W1.048;\A1;DP030A063FJ
  0
MTEXT
  5
186
100
AcDbEntity
  8
PV
  6
CONTINUOUS
 62
       110
100
AcDbMText
 10
-84.2666669216
 20
17.0
 30
0.0
 40
4.0
 41
0.0
 71
         1
 72
         1
  1
\W0.833;\A1;ロッド収縮時
  0
MTEXT
  5
187
100
AcDbEntity
  8
PV
  6
CONTINUOUS
 62
       110
100
AcDbMText
 10
-84.2666669216
 20
27.0
 30
0.0
 40
4.0
 41
0.0
 71
         1
 72
         1
  1
\W0.833;\A1;ロッド伸張時
  0
MTEXT
  5
188
100
AcDbEntity
  8
PV
  6
CONTINUOUS
 62
       110
100
AcDbMText
 10
-55.1833336065
 20
17.0
 30
0.0
 40
4.0
 41
0.0
 71
         1
 72
         1
  1
\W1.125;\A1;N\{kgf\}
  0
MTEXT
  5
189
100
AcDbEntity
  8
PV
  6
CONTINUOUS
 62
       110
100
AcDbMText
 10
-59.2666666213
 20
7.0
 30
0.0
 40
4.0
 41
0.0
 71
         1
 72
         1
  1
\A1;kg
  0
MTEXT
  5
18A
100
AcDbEntity
  8
PV
  6
CONTINUOUS
 62
       110
100
AcDbMText
 10
-117.2666670216
 20
7.0
 30
0.0
 40
4.0
 41
0.0
 71
         1
 72
         1
  1
\W0.833;\A1;製品質量
  0
MTEXT
  5
18B
100
AcDbEntity
  8
PV
  6
CONTINUOUS
 62
       110
100
AcDbMText
 10
-55.1833336065
 20
27.0
 30
0.0
 40
4.0
 41
0.0
 71
         1
 72
         1
  1
\W1.125;\A1;N\{kgf\}
  0
MTEXT
  5
18C
100
AcDbEntity
  8
PV
  6
CONTINUOUS
 62
       110
100
AcDbMText
 10
-55.1833336065
 20
37.0
 30
0.0
 40
4.0
 41
0.0
 71
         1
 72
         1
  1
\W1.125;\A1;N\{kgf\}
  0
MTEXT
  5
18D
100
AcDbEntity
  8
PV
  6
CONTINUOUS
 62
       110
100
AcDbMText
 10
-35.5666667667
 20
47.5
 30
0.0
 40
2.0
 41
0.0
 71
         1
 72
         1
  1
\W1.200;\A1;-1
  0
MTEXT
  5
18E
100
AcDbEntity
  8
PV
  6
CONTINUOUS
 62
       110
100
AcDbMText
 10
-46.8044272242
 20
47.0
 30
0.0
 40
4.0
 41
0.0
 71
         1
 72
         1
  1
\T1.134;\W1.334;\A1;min
  0
MTEXT
  5
18F
100
AcDbEntity
  8
PV
  6
CONTINUOUS
 62
       110
100
AcDbMText
 10
-67.1022222501
 20
54.2000001502
 30
0.0
 40
3.2000000477
 41
0.0
 71
         1
 72
         1
  1
\W0.787;\A1;｛ｋｇｆ・ｍ／　ｍｉｎ｝
  0
MTEXT
  5
190
100
AcDbEntity
  8
PV
  6
CONTINUOUS
 62
       110
100
AcDbMText
 10
-66.445825428
 20
59.0000001502
 30
0.0
 40
3.2000000477
 41
0.0
 71
         1
 72
         1
  1
\T1.186;\W1.723;\A1;      J/ min
  0
MTEXT
  5
191
100
AcDbEntity
  8
PV
  6
CONTINUOUS
 62
       110
100
AcDbMText
 10
-39.2666666213
 20
67.0
 30
0.0
 40
4.0
 41
0.0
 71
         1
 72
         1
  1
\A1;mm
  0
MTEXT
  5
192
100
AcDbEntity
  8
PV
  6
CONTINUOUS
 62
       110
100
AcDbMText
 10
-43.5273783729
 20
77.0
 30
0.0
 40
4.0
 41
0.0
 71
         1
 72
         1
  1
\W1.089;\A1;m/ s
  0
MTEXT
  5
193
100
AcDbEntity
  8
PV
  6
CONTINUOUS
 62
       110
100
AcDbMText
 10
-63.2666669216
 20
87.0
 30
0.0
 40
4.0
 41
0.0
 71
         1
 72
         1
  1
\W0.833;\A1;Ｊ｛ｋｇｆ・ｍ｝
  0
MTEXT
  5
194
100
AcDbEntity
  8
PV
  6
CONTINUOUS
 62
       110
100
AcDbMText
 10
-59.1964914948
 20
97.0
 30
0.0
 40
4.0
 41
0.0
 71
         1
 72
         1
  1
\W1.105;\A1;kg\{kgf\}
  0
MTEXT
  5
195
100
AcDbEntity
  8
PV
  6
CONTINUOUS
 62
       110
100
AcDbMText
 10
-117.2666670216
 20
22.0
 30
0.0
 40
4.0
 41
0.0
 71
         1
 72
         1
  1
\W0.833;\A1;復帰バネ設定力
  0
MTEXT
  5
196
100
AcDbEntity
  8
PV
  6
CONTINUOUS
 62
       110
100
AcDbMText
 10
-117.2666670216
 20
37.0
 30
0.0
 40
4.0
 41
0.0
 71
         1
 72
         1
  1
\W0.833;\A1;許容抵抗力
  0
MTEXT
  5
197
100
AcDbEntity
  8
PV
  6
CONTINUOUS
 62
       110
100
AcDbMText
 10
-117.2666670216
 20
47.0
 30
0.0
 40
4.0
 41
0.0
 71
         1
 72
         1
  1
\W0.833;\A1;毎分当りの最高使用頻度
  0
MTEXT
  5
198
100
AcDbEntity
  8
PV
  6
CONTINUOUS
 62
       110
100
AcDbMText
 10
-117.0133330512
 20
54.2000001502
 30
0.0
 40
3.2000000477
 41
0.0
 71
         1
 72
         1
  1
\W0.833;\A1;吸収エネルギ－の最大値
  0
MTEXT
  5
199
100
AcDbEntity
  8
PV
  6
CONTINUOUS
 62
       110
100
AcDbMText
 10
-117.0133330512
 20
59.0000001502
 30
0.0
 40
3.2000000477
 41
0.0
 71
         1
 72
         1
  1
\W0.833;\A1;毎分当りの
  0
MTEXT
  5
19A
100
AcDbEntity
  8
PV
  6
CONTINUOUS
 62
       110
100
AcDbMText
 10
-117.2666670216
 20
67.0
 30
0.0
 40
4.0
 41
0.0
 71
         1
 72
         1
  1
\W0.833;\A1;吸収ストロ－ク
  0
MTEXT
  5
19B
100
AcDbEntity
  8
PV
  6
CONTINUOUS
 62
       110
100
AcDbMText
 10
-117.2666670216
 20
77.0
 30
0.0
 40
4.0
 41
0.0
 71
         1
 72
         1
  1
\W0.833;\A1;許容衝突速度
  0
MTEXT
  5
19C
100
AcDbEntity
  8
PV
  6
CONTINUOUS
 62
       110
100
AcDbMText
 10
-117.2666670216
 20
87.0
 30
0.0
 40
4.0
 41
0.0
 71
         1
 72
         1
  1
\W0.833;\A1;吸収エネルギ－の最大値
  0
MTEXT
  5
19D
100
AcDbEntity
  8
PV
  6
CONTINUOUS
 62
       110
100
AcDbMText
 10
-117.2666670216
 20
97.0
 30
0.0
 40
4.0
 41
0.0
 71
         1
 72
         1
  1
\W0.833;\A1;衝突物の許容相当質量｛重量｝
  0
MTEXT
  5
19E
100
AcDbEntity
  8
PV
  6
CONTINUOUS
 62
       110
100
AcDbMText
 10
-117.2666670216
 20
107.0
 30
0.0
 40
4.0
 41
0.0
 71
         1
 72
         1
  1
\W0.833;\A1;形番
  0
LINE
  5
19F
100
AcDbEntity
  8
PV
  6
CONTINUOUS
 62
         3
100
AcDbLine
 10
45.0
 20
110.0
 30
0.0
 11
45.0
 21
0.0
 31
0.0
  0
LINE
  5
1A0
100
AcDbEntity
  8
PV
  6
CONTINUOUS
 62
         3
100
AcDbLine
 10
120.0
 20
110.0
 30
0.0
 11
120.0
 21
0.0
 31
0.0
  0
LINE
  5
1A1
100
AcDbEntity
  8
PV
  6
CONTINUOUS
 62
         3
100
AcDbLine
 10
-87.0
 20
30.0
 30
0.0
 11
-87.0
 21
10.0
 31
0.0
  0
LINE
  5
1A2
100
AcDbEntity
  8
PV
  6
CONTINUOUS
 62
         3
100
AcDbLine
 10
-120.0
 20
110.0
 30
0.0
 11
120.0
 21
110.0
 31
0.0
  0
LINE
  5
1A3
100
AcDbEntity
  8
PV
  6
CONTINUOUS
 62
         3
100
AcDbLine
 10
-120.0
 20
100.0
 30
0.0
 11
120.0
 21
100.0
 31
0.0
  0
LINE
  5
1A4
100
AcDbEntity
  8
PV
  6
CONTINUOUS
 62
         3
100
AcDbLine
 10
-120.0
 20
90.0
 30
0.0
 11
120.0
 21
90.0
 31
0.0
  0
LINE
  5
1A5
100
AcDbEntity
  8
PV
  6
CONTINUOUS
 62
         3
100
AcDbLine
 10
-120.0
 20
80.0
 30
0.0
 11
120.0
 21
80.0
 31
0.0
  0
LINE
  5
1A6
100
AcDbEntity
  8
PV
  6
CONTINUOUS
 62
         3
100
AcDbLine
 10
-120.0
 20
70.0
 30
0.0
 11
120.0
 21
70.0
 31
0.0
  0
LINE
  5
1A7
100
AcDbEntity
  8
PV
  6
CONTINUOUS
 62
         3
100
AcDbLine
 10
-120.0
 20
60.0
 30
0.0
 11
120.0
 21
60.0
 31
0.0
  0
LINE
  5
1A8
100
AcDbEntity
  8
PV
  6
CONTINUOUS
 62
         3
100
AcDbLine
 10
-120.0
 20
50.0
 30
0.0
 11
120.0
 21
50.0
 31
0.0
  0
LINE
  5
1A9
100
AcDbEntity
  8
PV
  6
CONTINUOUS
 62
         3
100
AcDbLine
 10
-120.0
 20
40.0
 30
0.0
 11
120.0
 21
40.0
 31
0.0
  0
LINE
  5
1AA
100
AcDbEntity
  8
PV
  6
CONTINUOUS
 62
         3
100
AcDbLine
 10
-120.0
 20
30.0
 30
0.0
 11
120.0
 21
30.0
 31
0.0
  0
LINE
  5
1AB
100
AcDbEntity
  8
PV
  6
CONTINUOUS
 62
         3
100
AcDbLine
 10
-87.0
 20
20.0
 30
0.0
 11
120.0
 21
20.0
 31
0.0
  0
LINE
  5
1AC
100
AcDbEntity
  8
PV
  6
CONTINUOUS
 62
         3
100
AcDbLine
 10
-120.0
 20
10.0
 30
0.0
 11
120.0
 21
10.0
 31
0.0
  0
LINE
  5
1AD
100
AcDbEntity
  8
PV
  6
CONTINUOUS
 62
         3
100
AcDbLine
 10
-30.0
 20
110.0
 30
0.0
 11
-30.0
 21
0.0
 31
0.0
  0
LINE
  5
1AE
100
AcDbEntity
  8
PV
  6
CONTINUOUS
 62
         3
100
AcDbLine
 10
-120.0
 20
110.0
 30
0.0
 11
-120.0
 21
0.0
 31
0.0
  0
LINE
  5
1AF
100
AcDbEntity
  8
PV
  6
CONTINUOUS
 62
         3
100
AcDbLine
 10
-120.0
 20
0.0
 30
0.0
 11
120.0
 21
0.0
 31
0.0
  0
MTEXT
  5
1B0
100
AcDbEntity
  8
PV
  6
CONTINUOUS
 62
       110
100
AcDbMText
 10
-403.7409388715
 20
-258.7235360631
 30
0.0
 40
3.2000000477
 41
0.0
 71
         1
 72
         1
  1
\W0.911;\A1;4-\U+220522
 11
0.9648693202
 21
0.2627302702
 31
0.0
  0
LINE
  5
1B1
100
AcDbEntity
  8
PV
  6
CONTINUOUS
 62
         7
100
AcDbLine
 10
-402.913531
 20
-262.851157
 30
0.0
 11
-334.670571
 21
-244.268857
 31
0.0
  0
LINE
  5
1B2
100
AcDbEntity
  8
PV
  6
CONTINUOUS
 62
         7
100
AcDbLine
 10
-334.670571
 20
-244.268857
 30
0.0
 11
-335.153005
 21
-244.400222
 31
0.0
  0
LINE
  5
1B3
100
AcDbEntity
  8
PV
  6
CONTINUOUS
 62
         7
100
AcDbLine
 10
-355.876469
 20
-250.043143
 30
0.0
 11
-355.394034
 21
-249.911778
 31
0.0
  0
DIMENSION
  5
1C3
100
AcDbEntity
  8
PV
  6
CONTINUOUS
 62
       110
100
AcDbDimension
  2
*D2
 10
-221.39752
 20
-77.7316734
 30
0.0
 11
-283.0355210376
 21
-77.7316734
 31
0.0
 70
       128
  1
\A1;<>
  3
MXDIMSTYLE
100
AcDbAlignedDimension
 13
-345.27352
 23
-101.5857154532
 33
0.0
 14
-221.39752
 24
-101.5857154532
 34
0.0
100
AcDbRotatedDimension
1001
ACAD
1000
DSTYLE
1002
{
1070
         6
1000
SOLID
1070
         7
1000
SOLID
1070
        41
1040
1.0000000298
1070
        42
1040
0.0625
1070
       271
1070
         4
1070
       284
1070
         8
1070
       340
1005
1BD
1070
       343
1005
0
1070
       344
1005
0
1002
}
  0
DIMENSION
  5
1D2
100
AcDbEntity
  8
PV
  6
CONTINUOUS
 62
       110
100
AcDbDimension
  2
*D3
 10
-199.41952
 20
-63.4165786
 30
0.0
 11
-283.035516582
 21
-63.4165786
 31
0.0
 70
       128
  1
\A1;<>
  3
MXDIMSTYLE
100
AcDbAlignedDimension
 13
-367.25152
 23
-101.3020003529
 33
0.0
 14
-199.41952
 24
-101.3020003529
 34
0.0
100
AcDbRotatedDimension
1001
ACAD
1000
DSTYLE
1002
{
1070
         6
1000
SOLID
1070
         7
1000
SOLID
1070
        41
1040
1.0000000298
1070
        42
1040
0.0625
1070
       271
1070
         4
1070
       284
1070
         8
1070
       340
1005
1BD
1070
       343
1005
0
1070
       344
1005
0
1002
}
  0
DIMENSION
  5
1E1
100
AcDbEntity
  8
PV
  6
CONTINUOUS
 62
       110
100
AcDbDimension
  2
*D4
 10
-177.582332
 20
-247.156
 30
0.0
 11
-177.582332
 21
-184.9180004883
 31
0.0
 70
       128
  1
\A1;<>
  3
MXDIMSTYLE
100
AcDbAlignedDimension
 13
-202.4534829705
 23
-123.28
 33
0.0
 14
-202.4534829705
 24
-247.156
 34
0.0
 50
90.0
100
AcDbRotatedDimension
1001
ACAD
1000
DSTYLE
1002
{
1070
         6
1000
SOLID
1070
         7
1000
SOLID
1070
        41
1040
1.0000000298
1070
        42
1040
0.0625
1070
       271
1070
         4
1070
       284
1070
         8
1070
       340
1005
1BD
1070
       343
1005
0
1070
       344
1005
0
1002
}
  0
DIMENSION
  5
1F0
100
AcDbEntity
  8
PV
  6
CONTINUOUS
 62
       110
100
AcDbDimension
  2
*D5
 10
-159.898979
 20
-269.134
 30
0.0
 11
-159.898979
 21
-184.9179973145
 31
0.0
 70
       128
  1
\A1;<>
  3
MXDIMSTYLE
100
AcDbAlignedDimension
 13
-199.4195211448
 23
-101.302
 33
0.0
 14
-199.4195211448
 24
-269.134
 34
0.0
 50
90.0
100
AcDbRotatedDimension
1001
ACAD
1000
DSTYLE
1002
{
1070
         6
1000
SOLID
1070
         7
1000
SOLID
1070
        41
1040
1.0000000298
1070
        42
1040
0.0625
1070
       271
1070
         4
1070
       284
1070
         8
1070
       340
1005
1BD
1070
       343
1005
0
1070
       344
1005
0
1002
}
  0
DIMENSION
  5
200
100
AcDbEntity
  8
PV
  6
CONTINUOUS
 62
       110
100
AcDbDimension
  2
*D6
 10
327.340071
 20
-213.19
 30
0.0
 11
327.340071
 21
-184.918000885
 31
0.0
 70
       128
  1
\A1;\U+2205<>
  3
MXDIMSTYLE
100
AcDbAlignedDimension
 13
300.2005408181
 23
-157.246
 33
0.0
 14
300.2005408181
 24
-213.19
 34
0.0
 50
90.0
100
AcDbRotatedDimension
1001
ACAD
1000
DSTYLE
1002
{
1070
         6
1000
SOLID
1070
         7
1000
SOLID
1070
        41
1040
1.0000000298
1070
        42
1040
0.0625
1070
       271
1070
         4
1070
       284
1070
         8
1070
       340
1005
1FA
1070
       343
1005
0
1070
       344
1005
0
1002
}
  0
DIMENSION
  5
20F
100
AcDbEntity
  8
PV
  6
CONTINUOUS
 62
       110
100
AcDbDimension
  2
*D7
 10
343.763455
 20
-252.6505
 30
0.0
 11
343.763455
 21
-184.9179996948
 31
0.0
 70
       128
  1
\A1;\U+2205<>
  3
MXDIMSTYLE
100
AcDbAlignedDimension
 13
265.9787946606
 23
-117.7855
 33
0.0
 14
265.9787946606
 24
-252.6505
 34
0.0
 50
90.0
100
AcDbRotatedDimension
1001
ACAD
1000
DSTYLE
1002
{
1070
         6
1000
SOLID
1070
         7
1000
SOLID
1070
        41
1040
1.0000000298
1070
        42
1040
0.0625
1070
       271
1070
         4
1070
       284
1070
         8
1070
       343
1005
0
1070
       344
1005
0
1002
}
  0
DIMENSION
  5
21F
100
AcDbEntity
  8
PV
  6
CONTINUOUS
 62
       110
100
AcDbDimension
  2
*D8
 10
305.25548
 20
-69.4824938
 30
0.0
 11
249.1119797559
 21
-69.4824938
 31
0.0
 70
       128
  1
\A1;<>
  3
MXDIMSTYLE
100
AcDbAlignedDimension
 13
192.36848
 23
-118.2849992932
 33
0.0
 14
305.25548
 24
-185.2179979504
 34
0.0
100
AcDbRotatedDimension
1001
ACAD
1000
DSTYLE
1002
{
1070
         6
1000
SOLID
1070
         7
1000
SOLID
1070
        41
1040
1.0000000298
1070
        42
1040
0.0625
1070
       271
1070
         4
1070
       284
1070
         8
1070
       340
1005
219
1070
       343
1005
0
1070
       344
1005
0
1002
}
  0
DIMENSION
  5
22E
100
AcDbEntity
  8
PV
  6
CONTINUOUS
 62
       110
100
AcDbDimension
  2
*D9
 10
192.36848
 20
-69.4824938
 30
0.0
 11
29.831488667
 21
-69.4824938
 31
0.0
 70
       128
  1
\A1;<>
  3
MXDIMSTYLE
100
AcDbAlignedDimension
 13
-133.30552
 23
-101.3019994915
 33
0.0
 14
192.36848
 24
-118.2849992932
 34
0.0
100
AcDbRotatedDimension
1001
ACAD
1000
DSTYLE
1002
{
1070
         6
1000
SOLID
1070
         7
1000
SOLID
1070
        41
1040
1.0000000298
1070
        42
1040
0.0625
1070
       271
1070
         4
1070
       284
1070
         8
1070
       343
1005
0
1070
       344
1005
0
1002
}
  0
DIMENSION
  5
23D
100
AcDbEntity
  8
PV
  6
CONTINUOUS
 62
       110
100
AcDbDimension
  2
*D10
 10
-103.33552
 20
-85.5758852
 30
0.0
 11
-118.0205201526
 21
-85.5758852
 31
0.0
 70
       128
  1
\A1;<>
  3
MXDIMSTYLE
100
AcDbAlignedDimension
 13
-133.30552
 23
-101.3020004267
 33
0.0
 14
-103.33552
 24
-101.3020004267
 34
0.0
100
AcDbRotatedDimension
1001
ACAD
1000
DSTYLE
1002
{
1070
         6
1000
SOLID
1070
         7
1000
SOLID
1070
        41
1040
1.0000000298
1070
        42
1040
0.0625
1070
       271
1070
         4
1070
       284
1070
         8
1070
       343
1005
0
1070
       344
1005
0
1002
}
  0
DIMENSION
  5
24A
100
AcDbEntity
  8
PV
  6
CONTINUOUS
 62
       110
100
AcDbDimension
  2
*D11
 10
799.445539
 20
-190.213
 30
0.0
 11
799.445539
 21
-184.9180001717
 31
0.0
 70
       128
  1
\A1;\U+2205<>
  3
MXDIMSTYLE
100
AcDbAlignedDimension
 13
761.3694815659
 23
-180.223
 33
0.0
 14
761.3694815659
 24
-190.213
 34
0.0
 50
90.0
100
AcDbRotatedDimension
1001
ACAD
1000
DSTYLE
1002
{
1070
         6
1000
SOLID
1070
         7
1000
SOLID
1070
        41
1040
1.0000000298
1070
        42
1040
0.0625
1070
       271
1070
         4
1070
       284
1070
         8
1070
       340
1005
1BD
1070
       343
1005
0
1070
       344
1005
0
1002
}
  0
DIMENSION
  5
259
100
AcDbEntity
  8
PV
  6
CONTINUOUS
 62
       110
100
AcDbDimension
  2
*D12
 10
531.59948
 20
-205.515089
 30
0.0
 11
646.7844809155
 21
-205.515089
 31
0.0
 70
       128
  1
\A1;<>
  3
MXDIMSTYLE
100
AcDbAlignedDimension
 13
761.36948
 23
-190.2130002625
 33
0.0
 14
531.59948
 24
-190.2130002625
 34
0.0
100
AcDbRotatedDimension
1001
ACAD
1000
DSTYLE
1002
{
1070
         6
1000
SOLID
1070
         7
1000
SOLID
1070
        41
1040
1.0000000298
1070
        42
1040
0.0625
1070
       271
1070
         4
1070
       284
1070
         8
1070
       343
1005
0
1070
       344
1005
0
1002
}
  0
DIMENSION
  5
268
100
AcDbEntity
  8
PV
  6
CONTINUOUS
 62
       110
100
AcDbDimension
  2
*D13
 10
466.66448
 20
-280.15946
 30
0.0
 11
614.3169745068
 21
-280.15946
 31
0.0
 70
       128
  1
\A1;<>
  3
MXDIMSTYLE
100
AcDbAlignedDimension
 13
761.36948
 23
-190.2130030908
 33
0.0
 14
466.66448
 24
-280.15946
 34
0.0
100
AcDbRotatedDimension
1001
ACAD
1000
DSTYLE
1002
{
1070
         6
1000
SOLID
1070
         7
1000
SOLID
1070
        41
1040
1.0000000298
1070
        42
1040
0.0625
1070
        44
1040
1.34
1070
       271
1070
         4
1070
       284
1070
         8
1070
       343
1005
0
1070
       344
1005
0
1002
}
  0
ENDSEC
  0
SECTION
  2
OBJECTS
  0
DICTIONARY
  5
19
100
AcDbDictionary
  3
ACAD_GROUP
350
1A
  3
ACAD_MLINESTYLE
350
1B
  0
DICTIONARY
  5
1A
102
{ACAD_REACTORS
330
19
102
}
100
AcDbDictionary
  0
DICTIONARY
  5
1B
102
{ACAD_REACTORS
330
19
102
}
100
AcDbDictionary
  3
STANDARD
350
1C
  0
MLINESTYLE
  5
1C
102
{ACAD_REACTORS
330
1B
102
}
100
AcDbMlineStyle
  2
Standard
 70
         0
  3

 62
         0
 51
90.0
 52
90.0
 71
         2
 49
0.5
 62
       256
  6
ByLayer
 49
-0.5
 62
       256
  6
ByLayer
  0
ENDSEC
  0
EOF
