  0
SECTION
  2
HEADER
  9
$ACADVER
  1
AC1014
  9
$ACADMAINTVER
 70
         0
  9
$DWGCODEPAGE
  3
ANSI_932
  9
$INSBASE
 10
0.0
 20
0.0
 30
0.0
  9
$EXTMIN
 10
-255.026666
 20
-191.7976666198
 30
0.0
  9
$EXTMAX
 10
591.290632
 20
110.0
 30
0.0
  9
$LIMMIN
 10
-255.026666
 20
-191.7976666198
  9
$LIMMAX
 10
591.290632
 20
110.0
  9
$ORTHOMODE
 70
         0
  9
$REGENMODE
 70
         1
  9
$FILLMODE
 70
         1
  9
$QTEXTMODE
 70
         0
  9
$MIRRTEXT
 70
         1
  9
$DRAGMODE
 70
         2
  9
$LTSCALE
 40
1.0
  9
$OSMODE
 70
         0
  9
$ATTMODE
 70
         1
  9
$TEXTSIZE
 40
3.2000000477
  9
$TRACEWID
 40
0.05
  9
$TEXTSTYLE
  7
MX_NOTE_STANDARD
  9
$CLAYER
  8
0
  9
$CELTYPE
  6
CONTINUOUS
  9
$CECOLOR
 62
       256
  9
$CELTSCALE
 40
1.0
  9
$DELOBJ
 70
         1
  9
$DISPSILH
 70
         0
  9
$DIMSCALE
 40
1.0
  9
$DIMASZ
 40
2.5
  9
$DIMEXO
 40
0.0
  9
$DIMDLI
 40
3.75
  9
$DIMRND
 40
0.0
  9
$DIMDLE
 40
0.0
  9
$DIMEXE
 40
2.5
  9
$DIMTP
 40
0.0
  9
$DIMTM
 40
0.0
  9
$DIMTXT
 40
3.2000000477
  9
$DIMCEN
 40
2.5
  9
$DIMTSZ
 40
0.0
  9
$DIMTOL
 70
         0
  9
$DIMLIM
 70
         0
  9
$DIMTIH
 70
         0
  9
$DIMTOH
 70
         0
  9
$DIMSE1
 70
         0
  9
$DIMSE2
 70
         0
  9
$DIMTAD
 70
         1
  9
$DIMZIN
 70
         8
  9
$DIMBLK
  1

  9
$DIMASO
 70
         1
  9
$DIMSHO
 70
         1
  9
$DIMPOST
  1

  9
$DIMAPOST
  1

  9
$DIMALT
 70
         0
  9
$DIMALTD
 70
         4
  9
$DIMALTF
 40
0.0393700787
  9
$DIMLFAC
 40
1.0
  9
$DIMTOFL
 70
         1
  9
$DIMTVP
 40
0.0
  9
$DIMTIX
 70
         0
  9
$DIMSOXD
 70
         0
  9
$DIMSAH
 70
         1
  9
$DIMBLK1
  1
_OPEN30
  9
$DIMBLK2
  1
_OPEN30
  9
$DIMSTYLE
  2
MXDIMSTYLE
  9
$DIMCLRD
 70
         0
  9
$DIMCLRE
 70
         0
  9
$DIMCLRT
 70
         0
  9
$DIMTFAC
 40
1.0
  9
$DIMGAP
 40
1.0
  9
$DIMJUST
 70
         0
  9
$DIMSD1
 70
         0
  9
$DIMSD2
 70
         0
  9
$DIMTOLJ
 70
         0
  9
$DIMTZIN
 70
         0
  9
$DIMALTZ
 70
         0
  9
$DIMALTTZ
 70
         0
  9
$DIMFIT
 70
         3
  9
$DIMUPT
 70
         0
  9
$DIMUNIT
 70
         2
  9
$DIMDEC
 70
         2
  9
$DIMTDEC
 70
         2
  9
$DIMALTU
 70
         2
  9
$DIMALTTD
 70
         4
  9
$DIMTXSTY
  7
MX_NOTE_STANDARD
  9
$DIMAUNIT
 70
         0
  9
$LUNITS
 70
         2
  9
$LUPREC
 70
         4
  9
$SKETCHINC
 40
0.1
  9
$FILLETRAD
 40
0.0
  9
$AUNITS
 70
         0
  9
$AUPREC
 70
         0
  9
$MENU
  1
acad
  9
$ELEVATION
 40
0.0
  9
$PELEVATION
 40
0.0
  9
$THICKNESS
 40
0.0
  9
$LIMCHECK
 70
         0
  9
$BLIPMODE
 70
         1
  9
$CHAMFERA
 40
0.0
  9
$CHAMFERB
 40
0.0
  9
$CHAMFERC
 40
0.0
  9
$CHAMFERD
 40
0.0
  9
$SKPOLY
 70
         0
  9
$TDCREATE
 40
2456603.443425926
  9
$TDUPDATE
 40
2456603.443425926
  9
$TDINDWG
 40
0.0000000000
  9
$TDUSRTIMER
 40
0.0000000000
  9
$USRTIMER
 70
         1
  9
$ANGBASE
 50
0.0
  9
$ANGDIR
 70
         0
  9
$PDMODE
 70
         0
  9
$PDSIZE
 40
0.0
  9
$PLINEWID
 40
0.0
  9
$COORDS
 70
         1
  9
$SPLFRAME
 70
         0
  9
$SPLINETYPE
 70
         6
  9
$SPLINESEGS
 70
         8
  9
$ATTDIA
 70
         0
  9
$ATTREQ
 70
         1
  9
$HANDLING
 70
         1
  9
$HANDSEED
  5
208
  9
$SURFTAB1
 70
         6
  9
$SURFTAB2
 70
         6
  9
$SURFTYPE
 70
         6
  9
$SURFU
 70
         6
  9
$SURFV
 70
         6
  9
$UCSNAME
  2

  9
$UCSORG
 10
0.0
 20
0.0
 30
0.0
  9
$UCSXDIR
 10
1.0
 20
0.0
 30
0.0
  9
$UCSYDIR
 10
0.0
 20
1.0
 30
0.0
  9
$PUCSNAME
  2

  9
$PUCSORG
 10
0.0
 20
0.0
 30
0.0
  9
$PUCSXDIR
 10
1.0
 20
0.0
 30
0.0
  9
$PUCSYDIR
 10
0.0
 20
1.0
 30
0.0
  9
$USERI1
 70
         0
  9
$USERI2
 70
         0
  9
$USERI3
 70
         0
  9
$USERI4
 70
         0
  9
$USERI5
 70
         0
  9
$USERR1
 40
0.0
  9
$USERR2
 40
0.0
  9
$USERR3
 40
0.0
  9
$USERR4
 40
0.0
  9
$USERR5
 40
0.0
  9
$WORLDVIEW
 70
         1
  9
$SHADEDGE
 70
         3
  9
$SHADEDIF
 70
        70
  9
$TILEMODE
 70
         1
  9
$MAXACTVP
 70
        16
  9
$PINSBASE
 10
0.0
 20
0.0
 30
0.0
  9
$PLIMCHECK
 70
         0
  9
$PEXTMIN
 10
1.0000000000E+20
 20
1.0000000000E+20
 30
1.0000000000E+20
  9
$PEXTMAX
 10
-1.0000000000E+20
 20
-1.0000000000E+20
 30
-1.0000000000E+20
  9
$PLIMMIN
 10
0.0
 20
0.0
  9
$PLIMMAX
 10
12.0
 20
9.0
  9
$UNITMODE
 70
         0
  9
$VISRETAIN
 70
         0
  9
$PLINEGEN
 70
         1
  9
$PSLTSCALE
 70
         0
  9
$TREEDEPTH
 70
      3020
  9
$PICKSTYLE
 70
         1
  9
$CMLSTYLE
  2
Standard
  9
$CMLJUST
 70
         0
  9
$CMLSCALE
 40
1.0
  9
$PROXYGRAPHICS
 70
         0
  9
$MEASUREMENT
 70
         1
  0
ENDSEC
  0
SECTION
  2
CLASSES
  0
CLASS
  1
LWPOLYLINE
  2
AcDbPolyline
  3
"AutoCAD"
 90
        0
280
         0
281
         1
  0
CLASS
  1
IMAGE
  2
AcDbRasterImage
  3
ISM
 90
      127
280
         0
281
         1
  0
CLASS
  1
OLE2FRAME
  2
AcDbOle2Frame
  3
""
 90
        0
280
         0
281
         1
  0
CLASS
  1
HATCH
  2
AcDbHatch
  3
"ACAD_SEDONA"
 90
        0
280
         0
281
         1
  0
CLASS
  1
DICTIONARYVAR
  2
AcDbDictionaryVar
  3
"AutoCAD"
 90
        0
280
         0
281
         0
  0
CLASS
  1
RASTERVARIABLES
  2
AcDbRasterVariables
  3
ISM
 90
        0
280
         0
281
         0
  0
CLASS
  1
IMAGEDEF
  2
AcDbRasterImageDef
  3
ISM
 90
        0
280
         0
281
         0
  0
CLASS
  1
IMAGEDEF_REACTOR
  2
AcDbRasterImageDefReactor
  3
ISM
 90
        1
280
         0
281
         0
  0
CLASS
  1
IDBUFFER
  2
AcDbIdBuffer
  3
"Acad"
 90
        0
280
         0
281
         0
  0
CLASS
  1
SPATIAL_FILTER
  2
AcDbSpatialFilter
  3
"Acad"
 90
        0
280
         0
281
         0
  0
CLASS
  1
XRECORD
  2
AcDbXrecord
  3
"<Built In>"
 90
        0
280
         0
281
         0
  0
CLASS
  1
SORTENTSTABLE
  2
AcDbSortentsTable
  3
"AutoCAD"
 90
        0
280
         0
281
         0
  0
CLASS
  1
LAYER_INDEX
  2
AcDbLayerIndex
  3
"Acad"
 90
        0
280
         0
281
         0
  0
CLASS
  1
SPATIAL_INDEX
  2
AcDbSpatialIndex
  3
"Acad"
 90
        0
280
         0
281
         0
  0
CLASS
  1
OBJECT_PTR
  2
CAseDLPNTableRecord
  3
"ASE-LPNTableRecord"
 90
        1
280
         0
281
         0
  0
CLASS
  1
LAYOUT
  2
AcDbLayout
  3
"AutoCAD 2000"
 90
        0
280
         0
281
         0
  0
CLASS
  1
PLOTSETTINGS
  2
AcDbPlotSettings
  3
"AutoCAD 2000"
 90
        0
280
         0
281
         0
  0
CLASS
  1
ACDBDICTIONARYWDFLT
  2
AcDbDictionaryWithDefault
  3
"AutoCAD 2000"
 90
        0
280
         0
281
         0
  0
CLASS
  1
ACDBPLACEHOLDER
  2
AcDbPlaceHolder
  3
"AutoCAD 2000"
 90
        0
280
         0
281
         0
  0
ENDSEC
  0
SECTION
  2
TABLES
  0
TABLE
  2
VPORT
  5
7
100
AcDbSymbolTable
 70
         1
  0
VPORT
  5
15
100
AcDbSymbolTableRecord
100
AcDbViewportTableRecord
  2
*ACTIVE
 70
         0
 10
0.0
 20
0.0
 11
1.0
 21
1.0
 12
168.131983
 22
-40.8988333099
 13
0.0
 23
0.0
 14
1.0
 24
1.0
 15
0.0
 25
0.0
 16
0.0
 26
0.0
 36
1.0
 17
0.0
 27
0.0
 37
0.0
 40
304.815643286
 41
1.7320508076
 42
50.0
 43
0.0
 44
0.0
 50
0.0
 51
0.0
 71
         0
 72
       100
 73
         1
 74
         1
 75
         0
 76
         0
 77
         0
 78
         0
  0
ENDTAB
  0
TABLE
  2
LTYPE
  5
4
100
AcDbSymbolTable
 70
         5
  0
LTYPE
  5
11
100
AcDbSymbolTableRecord
100
AcDbLinetypeTableRecord
  2
BYBLOCK
 70
        64
  3

 72
        65
 73
         0
 40
0.0
  0
LTYPE
  5
12
100
AcDbSymbolTableRecord
100
AcDbLinetypeTableRecord
  2
BYLAYER
 70
        64
  3

 72
        65
 73
         0
 40
0.0
  0
LTYPE
  5
13
100
AcDbSymbolTableRecord
100
AcDbLinetypeTableRecord
  2
CONTINUOUS
 70
        64
  3
Solid line
 72
        65
 73
         0
 40
0.0
  0
LTYPE
  5
41
100
AcDbSymbolTableRecord
100
AcDbLinetypeTableRecord
  2
CENTER
 70
        64
  3
Center ____ _ ____ _ ____ _ ____ _ ____ _ ____
 72
        65
 73
         4
 40
50.8
 49
31.75
 74
         0
 49
-6.35
 74
         0
 49
6.35
 74
         0
 49
-6.35
 74
         0
  0
LTYPE
  5
50
100
AcDbSymbolTableRecord
100
AcDbLinetypeTableRecord
  2
PHANTOM
 70
        64
  3
Phantom ______  __  __  ______  __  __  ______
 72
        65
 73
         6
 40
63.5
 49
31.75
 74
         0
 49
-6.35
 74
         0
 49
6.35
 74
         0
 49
-6.35
 74
         0
 49
6.35
 74
         0
 49
-6.35
 74
         0
  0
ENDTAB
  0
TABLE
  2
LAYER
  5
2
100
AcDbSymbolTable
 70
         3
  0
LAYER
  5
14
100
AcDbSymbolTableRecord
100
AcDbLayerTableRecord
  2
0
 70
         0
 62
         7
  6
CONTINUOUS
  0
LAYER
  5
1D
100
AcDbSymbolTableRecord
100
AcDbLayerTableRecord
  2
PV
 70
         0
 62
         3
  6
CONTINUOUS
  0
LAYER
  5
1E
100
AcDbSymbolTableRecord
100
AcDbLayerTableRecord
  2
DEFPOINTS
 70
         0
 62
         7
  6
CONTINUOUS
  0
ENDTAB
  0
TABLE
  2
STYLE
  5
3
100
AcDbSymbolTable
 70
         5
  0
STYLE
  5
17
100
AcDbSymbolTableRecord
100
AcDbTextStyleTableRecord
  2
MX_NOTE_STANDARD
 70
         0
 40
0.0
 41
1.0
 50
0.0
 71
         0
 42
3.2000000477
  3
txt.shx
  4
extfont.shx
  0
STYLE
  5
195
100
AcDbSymbolTableRecord
100
AcDbTextStyleTableRecord
  2
MX_DIMTXSTY_2
 70
         0
 40
0.0
 41
0.85
 50
0.0
 71
         0
 42
3.2000000477
  3
txt.shx
  4
extfont.shx
  0
STYLE
  5
1A5
100
AcDbSymbolTableRecord
100
AcDbTextStyleTableRecord
  2
MX_DIMTXSTY_3
 70
         0
 40
0.0
 41
1.1
 50
0.0
 71
         0
 42
3.2000000477
  3
txt.shx
  4
extfont.shx
  0
STYLE
  5
1B5
100
AcDbSymbolTableRecord
100
AcDbTextStyleTableRecord
  2
MX_DIMTXSTY_4
 70
         0
 40
0.0
 41
1.25
 50
0.0
 71
         0
 42
3.2000000477
  3
txt.shx
  4
extfont.shx
  0
STYLE
  5
1D4
100
AcDbSymbolTableRecord
100
AcDbTextStyleTableRecord
  2
MX_DIMTXSTY_5
 70
         0
 40
0.0
 41
1.05
 50
0.0
 71
         0
 42
3.2000000477
  3
txt.shx
  4
extfont.shx
  0
ENDTAB
  0
TABLE
  2
VIEW
  5
5
100
AcDbSymbolTable
 70
         0
  0
ENDTAB
  0
TABLE
  2
UCS
  5
6
100
AcDbSymbolTable
 70
         0
  0
ENDTAB
  0
TABLE
  2
APPID
  5
8
100
AcDbSymbolTable
 70
         1
  0
APPID
  5
16
100
AcDbSymbolTableRecord
100
AcDbRegAppTableRecord
  2
ACAD
 70
         0
  0
ENDTAB
  0
TABLE
  2
DIMSTYLE
  5
9
100
AcDbSymbolTable
 70
         1
  0
DIMSTYLE
105
18
100
AcDbSymbolTableRecord
100
AcDbDimStyleTableRecord
  2
MXDIMSTYLE
 70
         0
  3

  4

  5

  6
_OPEN30
  7
_OPEN30
 40
1.0
 41
2.5
 42
0.0
 43
3.75
 44
2.5
 45
0.0
 46
0.0
 47
0.0
 48
0.0
 71
         0
 72
         0
 73
         0
 74
         0
 75
         0
 76
         0
 77
         1
 78
         8
140
3.2000000477
141
2.5
142
0.0
143
0.0393700787
144
1.0
145
0.0
146
1.0
147
1.0
170
         0
171
         4
172
         1
173
         1
174
         0
175
         0
176
         0
177
         0
178
         0
270
         2
271
         2
272
         2
273
         2
274
         4
275
         0
280
         0
281
         0
282
         0
283
         0
284
         0
285
         0
286
         0
287
         3
288
         0
340
17
  0
ENDTAB
  0
TABLE
  2
BLOCK_RECORD
  5
1
100
AcDbSymbolTable
 70
        10
  0
BLOCK_RECORD
  5
A
100
AcDbSymbolTableRecord
100
AcDbBlockTableRecord
  2
*MODEL_SPACE
  0
BLOCK_RECORD
  5
B
100
AcDbSymbolTableRecord
100
AcDbBlockTableRecord
  2
*PAPER_SPACE
  0
BLOCK_RECORD
  5
1F
100
AcDbSymbolTableRecord
100
AcDbBlockTableRecord
  2
ARROW
  0
BLOCK_RECORD
  5
20
100
AcDbSymbolTableRecord
100
AcDbBlockTableRecord
  2
_OPEN30
  0
BLOCK_RECORD
  5
18E
100
AcDbSymbolTableRecord
100
AcDbBlockTableRecord
  2
*D2
  0
BLOCK_RECORD
  5
19C
100
AcDbSymbolTableRecord
100
AcDbBlockTableRecord
  2
*D3
  0
BLOCK_RECORD
  5
1AC
100
AcDbSymbolTableRecord
100
AcDbBlockTableRecord
  2
*D4
  0
BLOCK_RECORD
  5
1BC
100
AcDbSymbolTableRecord
100
AcDbBlockTableRecord
  2
*D5
  0
BLOCK_RECORD
  5
1CB
100
AcDbSymbolTableRecord
100
AcDbBlockTableRecord
  2
*D6
  0
BLOCK_RECORD
  5
1DB
100
AcDbSymbolTableRecord
100
AcDbBlockTableRecord
  2
*D7
  0
BLOCK_RECORD
  5
1EA
100
AcDbSymbolTableRecord
100
AcDbBlockTableRecord
  2
*D8
  0
BLOCK_RECORD
  5
1F9
100
AcDbSymbolTableRecord
100
AcDbBlockTableRecord
  2
*D9
  0
ENDTAB
  0
ENDSEC
  0
SECTION
  2
BLOCKS
  0
BLOCK
  5
D
100
AcDbEntity
  8
0
100
AcDbBlockBegin
  2
*MODEL_SPACE
 70
         0
 10
0.0
 20
0.0
 30
0.0
  3
*MODEL_SPACE
  1

  0
ENDBLK
  5
E
100
AcDbEntity
  8
0
100
AcDbBlockEnd
  0
BLOCK
  5
F
100
AcDbEntity
 67
         1
  8
0
100
AcDbBlockBegin
  2
*PAPER_SPACE
 70
         0
 10
0.0
 20
0.0
 30
0.0
  3
*PAPER_SPACE
  1

  0
ENDBLK
  5
10
100
AcDbEntity
 67
         1
  8
0
100
AcDbBlockEnd
  0
BLOCK
  5
26
100
AcDbEntity
  8
0
100
AcDbBlockBegin
  2
ARROW
 70
         0
 10
0.0
 20
0.0
 30
0.0
  3
ARROW
  1

  0
LWPOLYLINE
  5
27
100
AcDbEntity
  8
0
  6
CONTINUOUS
 62
       193
100
AcDbPolyline
 90
        3
 70
         0
 10
2.61853674
 20
0.701634805
 10
0.0
 20
0.0
 10
2.61853674
 20
-0.701634805
  0
ENDBLK
  5
28
100
AcDbEntity
  8
0
100
AcDbBlockEnd
  0
BLOCK
  5
21
100
AcDbEntity
  8
0
  6
ByBlock
 62
         0
100
AcDbBlockBegin
  2
_OPEN30
 70
         2
 10
0.0
 20
0.0
 30
0.0
  3
_OPEN30
  1

  0
LINE
  5
22
100
AcDbEntity
  8
0
  6
ByBlock
 62
         0
100
AcDbLine
 10
-1.0
 20
0.267949
 30
0.0
 11
0.0
 21
0.0
 31
0.0
  0
LINE
  5
23
100
AcDbEntity
  8
0
  6
ByBlock
 62
         0
100
AcDbLine
 10
0.0
 20
0.0
 30
0.0
 11
-1.0
 21
-0.267949
 31
0.0
  0
LINE
  5
24
100
AcDbEntity
  8
0
  6
ByBlock
 62
         0
100
AcDbLine
 10
0.0
 20
0.0
 30
0.0
 11
-1.0
 21
0.0
 31
0.0
  0
ENDBLK
  5
25
100
AcDbEntity
  8
0
  6
ByBlock
 62
         0
100
AcDbBlockEnd
  0
BLOCK
  5
18F
100
AcDbEntity
  8
0
  6
ByBlock
 62
         0
100
AcDbBlockBegin
  2
*D2
 70
         1
 10
0.0
 20
0.0
 30
0.0
  3
*D2
  1

  0
LINE
  5
190
100
AcDbEntity
  8
0
  6
CONTINUOUS
 62
       110
100
AcDbLine
 10
588.790632
 20
-128.5
 30
0.0
 11
588.790632
 21
-136.5
 31
0.0
  0
LINE
  5
191
100
AcDbEntity
  8
0
  6
CONTINUOUS
 62
       110
100
AcDbLine
 10
571.3358342552
 20
-128.5
 30
0.0
 11
591.290632
 21
-128.5
 31
0.0
  0
LINE
  5
192
100
AcDbEntity
  8
0
  6
CONTINUOUS
 62
       110
100
AcDbLine
 10
571.3358342552
 20
-136.5
 30
0.0
 11
591.290632
 21
-136.5
 31
0.0
  0
SOLID
  5
193
100
AcDbEntity
  8
0
  6
CONTINUOUS
 62
       110
100
AcDbTrace
 10
588.623964995
 20
-129.5000000298
 30
0.0
 11
588.957299005
 21
-129.5000000298
 31
0.0
 12
588.790632
 22
-128.5
 32
0.0
 13
588.790632
 23
-128.5
 33
0.0
  0
SOLID
  5
194
100
AcDbEntity
  8
0
  6
CONTINUOUS
 62
       110
100
AcDbTrace
 10
588.957299005
 20
-135.4999999702
 30
0.0
 11
588.623964995
 21
-135.4999999702
 31
0.0
 12
588.790632
 22
-136.5
 32
0.0
 13
588.790632
 23
-136.5
 33
0.0
  0
MTEXT
  5
196
100
AcDbEntity
  8
0
  6
CONTINUOUS
 62
       110
100
AcDbMText
 10
586.1906319762
 20
-132.2000000477
 30
0.0
 40
3.2000000477
 41
0.0
 71
         5
 72
         1
  1
\A1;\U+22058
  7
MX_DIMTXSTY_2
 11
0.0
 21
1.0
 31
0.0
  0
POINT
  5
197
100
AcDbEntity
  8
DEFPOINTS
  6
CONTINUOUS
 62
         0
100
AcDbPoint
 10
571.2733342552
 20
-128.5
 30
0.0
  0
POINT
  5
198
100
AcDbEntity
  8
DEFPOINTS
  6
CONTINUOUS
 62
         0
100
AcDbPoint
 10
571.2733342552
 20
-136.5
 30
0.0
  0
POINT
  5
199
100
AcDbEntity
  8
DEFPOINTS
  6
CONTINUOUS
 62
         0
100
AcDbPoint
 10
588.790632
 20
-136.5
 30
0.0
  0
ENDBLK
  5
19A
100
AcDbEntity
  8
0
  6
ByBlock
 62
         0
100
AcDbBlockEnd
  0
BLOCK
  5
19D
100
AcDbEntity
  8
0
  6
ByBlock
 62
         0
100
AcDbBlockBegin
  2
*D3
 70
         1
 10
0.0
 20
0.0
 30
0.0
  3
*D3
  1

  0
LINE
  5
19E
100
AcDbEntity
  8
0
  6
CONTINUOUS
 62
       110
100
AcDbLine
 10
571.273334
 20
-152.799908
 30
0.0
 11
421.273334
 21
-152.799908
 31
0.0
  0
LINE
  5
19F
100
AcDbEntity
  8
0
  6
CONTINUOUS
 62
       110
100
AcDbLine
 10
571.273334
 20
-136.5625003157
 30
0.0
 11
571.273334
 21
-155.299908
 31
0.0
  0
LINE
  5
1A0
100
AcDbEntity
  8
0
  6
CONTINUOUS
 62
       110
100
AcDbLine
 10
421.273334
 20
-136.5625003157
 30
0.0
 11
421.273334
 21
-155.299908
 31
0.0
  0
LINE
  5
1A1
100
AcDbEntity
  8
0
  6
CONTINUOUS
 62
       110
100
AcDbLine
 10
571.273334
 20
-152.799908
 30
0.0
 11
575.273334
 21
-152.799908
 31
0.0
  0
LINE
  5
1A2
100
AcDbEntity
  8
0
  6
CONTINUOUS
 62
       110
100
AcDbLine
 10
421.273334
 20
-152.799908
 30
0.0
 11
417.273334
 21
-152.799908
 31
0.0
  0
SOLID
  5
1A3
100
AcDbEntity
  8
0
  6
CONTINUOUS
 62
       110
100
AcDbTrace
 10
572.2733340298
 20
-152.966575005
 30
0.0
 11
572.2733340298
 21
-152.633240995
 31
0.0
 12
571.273334
 22
-152.799908
 32
0.0
 13
571.273334
 23
-152.799908
 33
0.0
  0
SOLID
  5
1A4
100
AcDbEntity
  8
0
  6
CONTINUOUS
 62
       110
100
AcDbTrace
 10
420.2733339702
 20
-152.633240995
 30
0.0
 11
420.2733339702
 21
-152.966575005
 31
0.0
 12
421.273334
 22
-152.799908
 32
0.0
 13
421.273334
 23
-152.799908
 33
0.0
  0
MTEXT
  5
1A6
100
AcDbEntity
  8
0
  6
CONTINUOUS
 62
       110
100
AcDbMText
 10
496.5733370518
 20
-150.1999079762
 30
0.0
 40
3.2000000477
 41
0.0
 71
         5
 72
         1
  1
\A1;150
  7
MX_DIMTXSTY_3
 11
1.0
 21
0.0
 31
0.0
  0
POINT
  5
1A7
100
AcDbEntity
  8
DEFPOINTS
  6
CONTINUOUS
 62
         0
100
AcDbPoint
 10
571.273334
 20
-136.5000003157
 30
0.0
  0
POINT
  5
1A8
100
AcDbEntity
  8
DEFPOINTS
  6
CONTINUOUS
 62
         0
100
AcDbPoint
 10
421.273334
 20
-136.5000003157
 30
0.0
  0
POINT
  5
1A9
100
AcDbEntity
  8
DEFPOINTS
  6
CONTINUOUS
 62
         0
100
AcDbPoint
 10
421.273334
 20
-152.799908
 30
0.0
  0
ENDBLK
  5
1AA
100
AcDbEntity
  8
0
  6
ByBlock
 62
         0
100
AcDbBlockEnd
  0
BLOCK
  5
1AD
100
AcDbEntity
  8
0
  6
ByBlock
 62
         0
100
AcDbBlockBegin
  2
*D4
 70
         1
 10
0.0
 20
0.0
 30
0.0
  3
*D4
  1

  0
LINE
  5
1AE
100
AcDbEntity
  8
0
  6
CONTINUOUS
 62
       110
100
AcDbLine
 10
571.273334
 20
-183.915024
 30
0.0
 11
379.973334
 21
-183.915024
 31
0.0
  0
LINE
  5
1AF
100
AcDbEntity
  8
0
  6
CONTINUOUS
 62
       110
100
AcDbLine
 10
571.273334
 20
-136.5625001963
 30
0.0
 11
571.273334
 21
-186.415024
 31
0.0
  0
LINE
  5
1B0
100
AcDbEntity
  8
0
  6
CONTINUOUS
 62
       110
100
AcDbLine
 10
379.973334
 20
-183.852524
 30
0.0
 11
379.973334
 21
-183.735024
 31
0.0
  0
LINE
  5
1B1
100
AcDbEntity
  8
0
  6
CONTINUOUS
 62
       110
100
AcDbLine
 10
571.273334
 20
-183.915024
 30
0.0
 11
575.273334
 21
-183.915024
 31
0.0
  0
LINE
  5
1B2
100
AcDbEntity
  8
0
  6
CONTINUOUS
 62
       110
100
AcDbLine
 10
379.973334
 20
-183.915024
 30
0.0
 11
375.973334
 21
-183.915024
 31
0.0
  0
SOLID
  5
1B3
100
AcDbEntity
  8
0
  6
CONTINUOUS
 62
       110
100
AcDbTrace
 10
572.2733340298
 20
-184.081691005
 30
0.0
 11
572.2733340298
 21
-183.748356995
 31
0.0
 12
571.273334
 22
-183.915024
 32
0.0
 13
571.273334
 23
-183.915024
 33
0.0
  0
SOLID
  5
1B4
100
AcDbEntity
  8
0
  6
CONTINUOUS
 62
       110
100
AcDbTrace
 10
378.9733339702
 20
-183.748356995
 30
0.0
 11
378.9733339702
 21
-184.081691005
 31
0.0
 12
379.973334
 22
-183.915024
 32
0.0
 13
379.973334
 23
-183.915024
 33
0.0
  0
MTEXT
  5
1B6
100
AcDbEntity
  8
0
  6
CONTINUOUS
 62
       110
100
AcDbMText
 10
475.9233355259
 20
-181.3150239762
 30
0.0
 40
3.2000000477
 41
0.0
 71
         5
 72
         1
  1
\A1;191.3
  7
MX_DIMTXSTY_4
 11
1.0
 21
0.0
 31
0.0
  0
POINT
  5
1B7
100
AcDbEntity
  8
DEFPOINTS
  6
CONTINUOUS
 62
         0
100
AcDbPoint
 10
571.273334
 20
-136.5000001963
 30
0.0
  0
POINT
  5
1B8
100
AcDbEntity
  8
DEFPOINTS
  6
CONTINUOUS
 62
         0
100
AcDbPoint
 10
379.973334
 20
-183.915024
 30
0.0
  0
POINT
  5
1B9
100
AcDbEntity
  8
DEFPOINTS
  6
CONTINUOUS
 62
         0
100
AcDbPoint
 10
379.973334
 20
-183.915024
 30
0.0
  0
ENDBLK
  5
1BA
100
AcDbEntity
  8
0
  6
ByBlock
 62
         0
100
AcDbBlockEnd
  0
BLOCK
  5
1BD
100
AcDbEntity
  8
0
  6
ByBlock
 62
         0
100
AcDbBlockBegin
  2
*D5
 70
         1
 10
0.0
 20
0.0
 30
0.0
  3
*D5
  1

  0
LINE
  5
1BE
100
AcDbEntity
  8
0
  6
CONTINUOUS
 62
       110
100
AcDbLine
 10
140.973334
 20
-62.4258993
 30
0.0
 11
259.973334
 21
-62.4258993
 31
0.0
  0
LINE
  5
1BF
100
AcDbEntity
  8
0
  6
CONTINUOUS
 62
       110
100
AcDbLine
 10
140.973334
 20
-89.4374997944
 30
0.0
 11
140.973334
 21
-59.9258993
 31
0.0
  0
LINE
  5
1C0
100
AcDbEntity
  8
0
  6
CONTINUOUS
 62
       110
100
AcDbLine
 10
259.973334
 20
-132.4375036091
 30
0.0
 11
259.973334
 21
-59.9258993
 31
0.0
  0
LINE
  5
1C1
100
AcDbEntity
  8
0
  6
CONTINUOUS
 62
       110
100
AcDbLine
 10
140.973334
 20
-62.4258993
 30
0.0
 11
136.973334
 21
-62.4258993
 31
0.0
  0
LINE
  5
1C2
100
AcDbEntity
  8
0
  6
CONTINUOUS
 62
       110
100
AcDbLine
 10
259.973334
 20
-62.4258993
 30
0.0
 11
263.973334
 21
-62.4258993
 31
0.0
  0
SOLID
  5
1C3
100
AcDbEntity
  8
0
  6
CONTINUOUS
 62
       110
100
AcDbTrace
 10
139.9733339702
 20
-62.259232295
 30
0.0
 11
139.9733339702
 21
-62.592566305
 31
0.0
 12
140.973334
 22
-62.4258993
 32
0.0
 13
140.973334
 23
-62.4258993
 33
0.0
  0
SOLID
  5
1C4
100
AcDbEntity
  8
0
  6
CONTINUOUS
 62
       110
100
AcDbTrace
 10
260.9733340298
 20
-62.592566305
 30
0.0
 11
260.9733340298
 21
-62.259232295
 31
0.0
 12
259.973334
 22
-62.4258993
 32
0.0
 13
259.973334
 23
-62.4258993
 33
0.0
  0
MTEXT
  5
1C5
100
AcDbEntity
  8
0
  6
CONTINUOUS
 62
       110
100
AcDbMText
 10
200.7733332371
 20
-59.8258992762
 30
0.0
 40
3.2000000477
 41
0.0
 71
         5
 72
         1
  1
\A1;119
  7
MX_DIMTXSTY_4
  0
POINT
  5
1C6
100
AcDbEntity
  8
DEFPOINTS
  6
CONTINUOUS
 62
         0
100
AcDbPoint
 10
140.973334
 20
-89.4999997944
 30
0.0
  0
POINT
  5
1C7
100
AcDbEntity
  8
DEFPOINTS
  6
CONTINUOUS
 62
         0
100
AcDbPoint
 10
259.973334
 20
-132.5000036091
 30
0.0
  0
POINT
  5
1C8
100
AcDbEntity
  8
DEFPOINTS
  6
CONTINUOUS
 62
         0
100
AcDbPoint
 10
259.973334
 20
-62.4258993
 30
0.0
  0
ENDBLK
  5
1C9
100
AcDbEntity
  8
0
  6
ByBlock
 62
         0
100
AcDbBlockEnd
  0
BLOCK
  5
1CC
100
AcDbEntity
  8
0
  6
ByBlock
 62
         0
100
AcDbBlockBegin
  2
*D6
 70
         1
 10
0.0
 20
0.0
 30
0.0
  3
*D6
  1

  0
LINE
  5
1CD
100
AcDbEntity
  8
0
  6
CONTINUOUS
 62
       110
100
AcDbLine
 10
-80.0266664
 20
-62.4258993
 30
0.0
 11
140.973334
 21
-62.4258993
 31
0.0
  0
LINE
  5
1CE
100
AcDbEntity
  8
0
  6
CONTINUOUS
 62
       110
100
AcDbLine
 10
-80.0266664
 20
-89.4374997944
 30
0.0
 11
-80.0266664
 21
-59.9258993
 31
0.0
  0
LINE
  5
1CF
100
AcDbEntity
  8
0
  6
CONTINUOUS
 62
       110
100
AcDbLine
 10
140.973334
 20
-89.4374997944
 30
0.0
 11
140.973334
 21
-59.9258993
 31
0.0
  0
LINE
  5
1D0
100
AcDbEntity
  8
0
  6
CONTINUOUS
 62
       110
100
AcDbLine
 10
-80.0266664
 20
-62.4258993
 30
0.0
 11
-84.0266664
 21
-62.4258993
 31
0.0
  0
LINE
  5
1D1
100
AcDbEntity
  8
0
  6
CONTINUOUS
 62
       110
100
AcDbLine
 10
140.973334
 20
-62.4258993
 30
0.0
 11
144.973334
 21
-62.4258993
 31
0.0
  0
SOLID
  5
1D2
100
AcDbEntity
  8
0
  6
CONTINUOUS
 62
       110
100
AcDbTrace
 10
-81.0266664298
 20
-62.259232295
 30
0.0
 11
-81.0266664298
 21
-62.592566305
 31
0.0
 12
-80.0266664
 22
-62.4258993
 32
0.0
 13
-80.0266664
 23
-62.4258993
 33
0.0
  0
SOLID
  5
1D3
100
AcDbEntity
  8
0
  6
CONTINUOUS
 62
       110
100
AcDbTrace
 10
141.9733340298
 20
-62.592566305
 30
0.0
 11
141.9733340298
 21
-62.259232295
 31
0.0
 12
140.973334
 22
-62.4258993
 32
0.0
 13
140.973334
 23
-62.4258993
 33
0.0
  0
MTEXT
  5
1D5
100
AcDbEntity
  8
0
  6
CONTINUOUS
 62
       110
100
AcDbMText
 10
30.7733366518
 20
-59.8258992762
 30
0.0
 40
3.2000000477
 41
0.0
 71
         5
 72
         1
  1
\A1;221
  7
MX_DIMTXSTY_5
  0
POINT
  5
1D6
100
AcDbEntity
  8
DEFPOINTS
  6
CONTINUOUS
 62
         0
100
AcDbPoint
 10
-80.0266664
 20
-89.4999997944
 30
0.0
  0
POINT
  5
1D7
100
AcDbEntity
  8
DEFPOINTS
  6
CONTINUOUS
 62
         0
100
AcDbPoint
 10
140.973334
 20
-89.4999997944
 30
0.0
  0
POINT
  5
1D8
100
AcDbEntity
  8
DEFPOINTS
  6
CONTINUOUS
 62
         0
100
AcDbPoint
 10
140.973334
 20
-62.4258993
 30
0.0
  0
ENDBLK
  5
1D9
100
AcDbEntity
  8
0
  6
ByBlock
 62
         0
100
AcDbBlockEnd
  0
BLOCK
  5
1DC
100
AcDbEntity
  8
0
  6
ByBlock
 62
         0
100
AcDbBlockBegin
  2
*D7
 70
         1
 10
0.0
 20
0.0
 30
0.0
  3
*D7
  1

  0
LINE
  5
1DD
100
AcDbEntity
  8
0
  6
CONTINUOUS
 62
       110
100
AcDbLine
 10
282.863294
 20
-115.5
 30
0.0
 11
282.863294
 21
-149.5
 31
0.0
  0
LINE
  5
1DE
100
AcDbEntity
  8
0
  6
CONTINUOUS
 62
       110
100
AcDbLine
 10
257.0568326658
 20
-115.5
 30
0.0
 11
285.363294
 21
-115.5
 31
0.0
  0
LINE
  5
1DF
100
AcDbEntity
  8
0
  6
CONTINUOUS
 62
       110
100
AcDbLine
 10
257.0568326658
 20
-149.5
 30
0.0
 11
285.363294
 21
-149.5
 31
0.0
  0
LINE
  5
1E0
100
AcDbEntity
  8
0
  6
CONTINUOUS
 62
       110
100
AcDbLine
 10
282.863294
 20
-115.5
 30
0.0
 11
282.863294
 21
-111.5
 31
0.0
  0
LINE
  5
1E1
100
AcDbEntity
  8
0
  6
CONTINUOUS
 62
       110
100
AcDbLine
 10
282.863294
 20
-149.5
 30
0.0
 11
282.863294
 21
-153.5
 31
0.0
  0
SOLID
  5
1E2
100
AcDbEntity
  8
0
  6
CONTINUOUS
 62
       110
100
AcDbTrace
 10
283.029961005
 20
-114.4999999702
 30
0.0
 11
282.696626995
 21
-114.4999999702
 31
0.0
 12
282.863294
 22
-115.5
 32
0.0
 13
282.863294
 23
-115.5
 33
0.0
  0
SOLID
  5
1E3
100
AcDbEntity
  8
0
  6
CONTINUOUS
 62
       110
100
AcDbTrace
 10
282.696626995
 20
-150.5000000298
 30
0.0
 11
283.029961005
 21
-150.5000000298
 31
0.0
 12
282.863294
 22
-149.5
 32
0.0
 13
282.863294
 23
-149.5
 33
0.0
  0
MTEXT
  5
1E4
100
AcDbEntity
  8
0
  6
CONTINUOUS
 62
       110
100
AcDbMText
 10
280.2632939762
 20
-132.2000007629
 30
0.0
 40
3.2000000477
 41
0.0
 71
         5
 72
         1
  1
\A1;\U+220534
  7
MX_DIMTXSTY_2
 11
0.0
 21
1.0
 31
0.0
  0
POINT
  5
1E5
100
AcDbEntity
  8
DEFPOINTS
  6
CONTINUOUS
 62
         0
100
AcDbPoint
 10
256.9943326658
 20
-115.5
 30
0.0
  0
POINT
  5
1E6
100
AcDbEntity
  8
DEFPOINTS
  6
CONTINUOUS
 62
         0
100
AcDbPoint
 10
256.9943326658
 20
-149.5
 30
0.0
  0
POINT
  5
1E7
100
AcDbEntity
  8
DEFPOINTS
  6
CONTINUOUS
 62
         0
100
AcDbPoint
 10
282.863294
 20
-149.5
 30
0.0
  0
ENDBLK
  5
1E8
100
AcDbEntity
  8
0
  6
ByBlock
 62
         0
100
AcDbBlockEnd
  0
BLOCK
  5
1EB
100
AcDbEntity
  8
0
  6
ByBlock
 62
         0
100
AcDbBlockBegin
  2
*D8
 70
         1
 10
0.0
 20
0.0
 30
0.0
  3
*D8
  1

  0
LINE
  5
1EC
100
AcDbEntity
  8
0
  6
CONTINUOUS
 62
       110
100
AcDbLine
 10
299.425556
 20
-87.5
 30
0.0
 11
299.425556
 21
-177.5
 31
0.0
  0
LINE
  5
1ED
100
AcDbEntity
  8
0
  6
CONTINUOUS
 62
       110
100
AcDbLine
 10
238.6428335269
 20
-87.5
 30
0.0
 11
301.925556
 21
-87.5
 31
0.0
  0
LINE
  5
1EE
100
AcDbEntity
  8
0
  6
CONTINUOUS
 62
       110
100
AcDbLine
 10
238.6428335269
 20
-177.5
 30
0.0
 11
301.925556
 21
-177.5
 31
0.0
  0
LINE
  5
1EF
100
AcDbEntity
  8
0
  6
CONTINUOUS
 62
       110
100
AcDbLine
 10
299.425556
 20
-87.5
 30
0.0
 11
299.425556
 21
-83.5
 31
0.0
  0
LINE
  5
1F0
100
AcDbEntity
  8
0
  6
CONTINUOUS
 62
       110
100
AcDbLine
 10
299.425556
 20
-177.5
 30
0.0
 11
299.425556
 21
-181.5
 31
0.0
  0
SOLID
  5
1F1
100
AcDbEntity
  8
0
  6
CONTINUOUS
 62
       110
100
AcDbTrace
 10
299.592223005
 20
-86.4999999702
 30
0.0
 11
299.258888995
 21
-86.4999999702
 31
0.0
 12
299.425556
 22
-87.5
 32
0.0
 13
299.425556
 23
-87.5
 33
0.0
  0
SOLID
  5
1F2
100
AcDbEntity
  8
0
  6
CONTINUOUS
 62
       110
100
AcDbTrace
 10
299.258888995
 20
-178.5000000298
 30
0.0
 11
299.592223005
 21
-178.5000000298
 31
0.0
 12
299.425556
 22
-177.5
 32
0.0
 13
299.425556
 23
-177.5
 33
0.0
  0
MTEXT
  5
1F3
100
AcDbEntity
  8
0
  6
CONTINUOUS
 62
       110
100
AcDbMText
 10
296.8255559762
 20
-132.2000007629
 30
0.0
 40
3.2000000477
 41
0.0
 71
         5
 72
         1
  1
\A1;\U+220590
 11
0.0
 21
1.0
 31
0.0
  0
POINT
  5
1F4
100
AcDbEntity
  8
DEFPOINTS
  6
CONTINUOUS
 62
         0
100
AcDbPoint
 10
238.5803335269
 20
-87.5
 30
0.0
  0
POINT
  5
1F5
100
AcDbEntity
  8
DEFPOINTS
  6
CONTINUOUS
 62
         0
100
AcDbPoint
 10
238.5803335269
 20
-177.5
 30
0.0
  0
POINT
  5
1F6
100
AcDbEntity
  8
DEFPOINTS
  6
CONTINUOUS
 62
         0
100
AcDbPoint
 10
299.425556
 20
-177.5
 30
0.0
  0
ENDBLK
  5
1F7
100
AcDbEntity
  8
0
  6
ByBlock
 62
         0
100
AcDbBlockEnd
  0
BLOCK
  5
1FA
100
AcDbEntity
  8
0
  6
ByBlock
 62
         0
100
AcDbBlockBegin
  2
*D9
 70
         1
 10
0.0
 20
0.0
 30
0.0
  3
*D9
  1

  0
LINE
  5
1FB
100
AcDbEntity
  8
0
  6
CONTINUOUS
 62
       110
100
AcDbLine
 10
-102.029271
 20
-175.5
 30
0.0
 11
-102.029271
 21
-89.5
 31
0.0
  0
LINE
  5
1FC
100
AcDbEntity
  8
0
  6
CONTINUOUS
 62
       110
100
AcDbLine
 10
-80.0891655618
 20
-175.5
 30
0.0
 11
-104.529271
 21
-175.5
 31
0.0
  0
LINE
  5
1FD
100
AcDbEntity
  8
0
  6
CONTINUOUS
 62
       110
100
AcDbLine
 10
-80.0891655618
 20
-89.5
 30
0.0
 11
-104.529271
 21
-89.5
 31
0.0
  0
LINE
  5
1FE
100
AcDbEntity
  8
0
  6
CONTINUOUS
 62
       110
100
AcDbLine
 10
-102.029271
 20
-175.5
 30
0.0
 11
-102.029271
 21
-179.5
 31
0.0
  0
LINE
  5
1FF
100
AcDbEntity
  8
0
  6
CONTINUOUS
 62
       110
100
AcDbLine
 10
-102.029271
 20
-89.5
 30
0.0
 11
-102.029271
 21
-85.5
 31
0.0
  0
SOLID
  5
200
100
AcDbEntity
  8
0
  6
CONTINUOUS
 62
       110
100
AcDbTrace
 10
-102.195938005
 20
-176.5000000298
 30
0.0
 11
-101.862603995
 21
-176.5000000298
 31
0.0
 12
-102.029271
 22
-175.5
 32
0.0
 13
-102.029271
 23
-175.5
 33
0.0
  0
SOLID
  5
201
100
AcDbEntity
  8
0
  6
CONTINUOUS
 62
       110
100
AcDbTrace
 10
-101.862603995
 20
-88.4999999702
 30
0.0
 11
-102.195938005
 21
-88.4999999702
 31
0.0
 12
-102.029271
 22
-89.5
 32
0.0
 13
-102.029271
 23
-89.5
 33
0.0
  0
MTEXT
  5
202
100
AcDbEntity
  8
0
  6
CONTINUOUS
 62
       110
100
AcDbMText
 10
-104.6292710238
 20
-132.2000007629
 30
0.0
 40
3.2000000477
 41
0.0
 71
         5
 72
         1
  1
\A1;\U+220586
  7
MX_DIMTXSTY_2
 11
0.0
 21
1.0
 31
0.0
  0
POINT
  5
203
100
AcDbEntity
  8
DEFPOINTS
  6
CONTINUOUS
 62
         0
100
AcDbPoint
 10
-80.0266655618
 20
-175.5
 30
0.0
  0
POINT
  5
204
100
AcDbEntity
  8
DEFPOINTS
  6
CONTINUOUS
 62
         0
100
AcDbPoint
 10
-80.0266655618
 20
-89.5
 30
0.0
  0
POINT
  5
205
100
AcDbEntity
  8
DEFPOINTS
  6
CONTINUOUS
 62
         0
100
AcDbPoint
 10
-102.029271
 20
-89.5
 30
0.0
  0
ENDBLK
  5
206
100
AcDbEntity
  8
0
  6
ByBlock
 62
         0
100
AcDbBlockEnd
  0
ENDSEC
  0
SECTION
  2
ENTITIES
  0
MTEXT
  5
29
100
AcDbEntity
  8
0
  6
CONTINUOUS
 62
       110
100
AcDbMText
 10
-80.9845916171
 20
-5.8999998698
 30
0.0
 40
3.2000000477
 41
0.0
 71
         1
 72
         1
  1
\T1.025;\W1.058;\A1;TSUBAKI
  0
MTEXT
  5
2A
100
AcDbEntity
  8
PV
  6
CONTINUOUS
 62
       110
100
AcDbMText
 10
468.403940625
 20
-187.5310000882
 30
0.0
 40
3.2000000477
 41
0.0
 71
         1
 72
         1
  1
\W1.364;\A1;191.3
  0
MTEXT
  5
2B
100
AcDbEntity
  8
PV
  6
CONTINUOUS
 62
       110
100
AcDbMText
 10
492.1666679063
 20
-156.8330000882
 30
0.0
 40
3.2000000477
 41
0.0
 71
         1
 72
         1
  1
\W1.200;\A1;150
  0
ARC
  5
2C
100
AcDbEntity
  8
PV
  6
CONTINUOUS
 62
         3
100
AcDbCircle
 10
372.651334
 20
-113.278
 30
0.0
 40
1.6
100
AcDbArc
 50
195.494
 51
265.0
  0
ARC
  5
2D
100
AcDbEntity
  8
PV
  6
CONTINUOUS
 62
         3
100
AcDbCircle
 10
372.651334
 20
-107.722
 30
0.0
 40
1.6
100
AcDbArc
 50
95.0009998
 51
164.506
  0
ARC
  5
2E
100
AcDbEntity
  8
PV
  6
CONTINUOUS
 62
         3
100
AcDbCircle
 10
382.673334
 20
-110.5
 30
0.0
 40
12.0
100
AcDbArc
 50
164.506
 51
195.494
  0
LINE
  5
2F
100
AcDbEntity
  8
PV
  6
CONTINUOUS
 62
         3
100
AcDbLine
 10
373.973334
 20
-115.0
 30
0.0
 11
372.511334
 21
-114.872
 31
0.0
  0
LINE
  5
30
100
AcDbEntity
  8
PV
  6
CONTINUOUS
 62
         3
100
AcDbLine
 10
373.973334
 20
-106.0
 30
0.0
 11
372.511334
 21
-106.128
 31
0.0
  0
LINE
  5
31
100
AcDbEntity
  8
PV
  6
CONTINUOUS
 62
         3
100
AcDbLine
 10
373.973334
 20
-106.0
 30
0.0
 11
373.973334
 21
-115.0
 31
0.0
  0
MTEXT
  5
32
100
AcDbEntity
  8
PV
  6
CONTINUOUS
 62
       110
100
AcDbMText
 10
463.0595466792
 20
-122.9549998498
 30
0.0
 40
3.2000000477
 41
0.0
 71
         1
 72
         1
  1
\T1.024;\W1.064;\A1;ADJUSTING HANDLE
  0
ARC
  5
33
100
AcDbEntity
  8
PV
  6
CONTINUOUS
 62
         3
100
AcDbCircle
 10
372.651334
 20
-87.278
 30
0.0
 40
1.6
100
AcDbArc
 50
195.494
 51
220.507
  0
ARC
  5
34
100
AcDbEntity
  8
PV
  6
CONTINUOUS
 62
         3
100
AcDbCircle
 10
372.651334
 20
-81.722
 30
0.0
 40
1.6
100
AcDbArc
 50
95.0009998
 51
164.506
  0
ARC
  5
35
100
AcDbEntity
  8
PV
  6
CONTINUOUS
 62
         3
100
AcDbCircle
 10
382.673334
 20
-84.5
 30
0.0
 40
12.0
100
AcDbArc
 50
164.506
 51
195.494
  0
ARC
  5
36
100
AcDbEntity
  8
PV
  6
CONTINUOUS
 62
         3
100
AcDbCircle
 10
379.973334
 20
-116.167
 30
0.0
 40
5.667
100
AcDbArc
 50
28.073
 51
151.928
  0
ARC
  5
37
100
AcDbEntity
  8
PV
  6
CONTINUOUS
 62
         3
100
AcDbCircle
 10
379.973334
 20
-130.5
 30
0.0
 40
15.0
100
AcDbArc
 50
78.4629999
 51
101.537
  0
CIRCLE
  5
38
100
AcDbEntity
  8
PV
  6
CONTINUOUS
 62
         3
100
AcDbCircle
 10
379.973334
 20
-132.5
 30
0.0
 40
45.0
  0
CIRCLE
  5
39
100
AcDbEntity
  8
PV
  6
CONTINUOUS
 62
         3
100
AcDbCircle
 10
379.973334
 20
-132.5
 30
0.0
 40
17.0
  0
ARC
  5
3A
100
AcDbEntity
  8
PV
  6
CONTINUOUS
 62
         3
100
AcDbCircle
 10
379.973334
 20
-90.167
 30
0.0
 40
5.667
100
AcDbArc
 50
28.073
 51
151.928
  0
LINE
  5
3B
100
AcDbEntity
  8
PV
  6
CONTINUOUS
 62
         3
100
AcDbLine
 10
373.973334
 20
-80.0
 30
0.0
 11
372.511334
 21
-80.128
 31
0.0
  0
LINE
  5
3C
100
AcDbEntity
  8
PV
  6
CONTINUOUS
 62
         3
100
AcDbLine
 10
373.973334
 20
-80.0
 30
0.0
 11
373.973334
 21
-89.0
 31
0.0
  0
LINE
  5
3D
100
AcDbEntity
  8
PV
  6
CONTINUOUS
 62
         3
100
AcDbLine
 10
374.973334
 20
-113.5
 30
0.0
 11
373.973334
 21
-113.5
 31
0.0
  0
LINE
  5
3E
100
AcDbEntity
  8
PV
  6
CONTINUOUS
 62
         3
100
AcDbLine
 10
387.973334
 20
-113.5
 30
0.0
 11
384.973334
 21
-113.5
 31
0.0
  0
LINE
  5
3F
100
AcDbEntity
  8
PV
  6
CONTINUOUS
 62
         3
100
AcDbLine
 10
382.973334
 20
-115.803
 30
0.0
 11
384.973334
 21
-113.5
 31
0.0
  0
LINE
  5
40
100
AcDbEntity
  8
PV
  6
CONTINUOUS
 62
         3
100
AcDbLine
 10
374.973334
 20
-113.5
 30
0.0
 11
376.973334
 21
-115.803
 31
0.0
  0
LINE
  5
42
100
AcDbEntity
  8
PV
  6
CENTER
 62
         3
100
AcDbLine
 10
369.500334
 20
-110.5
 30
0.0
 11
391.604334
 21
-110.5
 31
0.0
  0
LINE
  5
43
100
AcDbEntity
  8
PV
  6
CONTINUOUS
 62
         3
100
AcDbLine
 10
387.973334
 20
-106.5
 30
0.0
 11
373.973334
 21
-106.5
 31
0.0
  0
LINE
  5
44
100
AcDbEntity
  8
PV
  6
CONTINUOUS
 62
         3
100
AcDbLine
 10
387.973334
 20
-106.5
 30
0.0
 11
387.973334
 21
-113.5
 31
0.0
  0
LINE
  5
45
100
AcDbEntity
  8
PV
  6
CONTINUOUS
 62
         3
100
AcDbLine
 10
373.973334
 20
-108.5
 30
0.0
 11
373.973334
 21
-115.5
 31
0.0
  0
LINE
  5
46
100
AcDbEntity
  8
PV
  6
CONTINUOUS
 62
         3
100
AcDbLine
 10
374.973334
 20
-87.5
 30
0.0
 11
373.973334
 21
-87.5
 31
0.0
  0
LINE
  5
47
100
AcDbEntity
  8
PV
  6
CONTINUOUS
 62
         3
100
AcDbLine
 10
387.973334
 20
-87.5
 30
0.0
 11
384.973334
 21
-87.5
 31
0.0
  0
LINE
  5
48
100
AcDbEntity
  8
PV
  6
CONTINUOUS
 62
         3
100
AcDbLine
 10
384.752334
 20
-87.755
 30
0.0
 11
384.973334
 21
-87.5
 31
0.0
  0
LINE
  5
49
100
AcDbEntity
  8
PV
  6
CONTINUOUS
 62
         3
100
AcDbLine
 10
374.973334
 20
-87.5
 30
0.0
 11
375.194334
 21
-87.755
 31
0.0
  0
LINE
  5
4A
100
AcDbEntity
  8
PV
  6
CENTER
 62
         3
100
AcDbLine
 10
369.500334
 20
-84.5
 30
0.0
 11
391.604334
 21
-84.5
 31
0.0
  0
LINE
  5
4B
100
AcDbEntity
  8
PV
  6
CONTINUOUS
 62
         3
100
AcDbLine
 10
387.973334
 20
-80.5
 30
0.0
 11
373.973334
 21
-80.5
 31
0.0
  0
LINE
  5
4C
100
AcDbEntity
  8
PV
  6
CONTINUOUS
 62
         3
100
AcDbLine
 10
387.973334
 20
-80.5
 30
0.0
 11
387.973334
 21
-87.5
 31
0.0
  0
LINE
  5
4D
100
AcDbEntity
  8
PV
  6
CONTINUOUS
 62
         3
100
AcDbLine
 10
373.973334
 20
-82.5
 30
0.0
 11
373.973334
 21
-87.902
 31
0.0
  0
LINE
  5
4E
100
AcDbEntity
  8
PV
  6
CENTER
 62
         3
100
AcDbLine
 10
325.642334
 20
-132.5
 30
0.0
 11
435.181334
 21
-132.5
 31
0.0
  0
LINE
  5
4F
100
AcDbEntity
  8
PV
  6
CENTER
 62
         3
100
AcDbLine
 10
379.973334
 20
-78.168
 30
0.0
 11
379.973334
 21
-185.327
 31
0.0
  0
LINE
  5
51
100
AcDbEntity
  8
PV
  6
PHANTOM
 62
         3
100
AcDbLine
 10
571.273334
 20
-128.5
 30
0.0
 11
571.273334
 21
-136.5
 31
0.0
  0
LINE
  5
52
100
AcDbEntity
  8
PV
  6
PHANTOM
 62
         3
100
AcDbLine
 10
421.273334
 20
-128.5
 30
0.0
 11
421.273334
 21
-136.5
 31
0.0
  0
LINE
  5
53
100
AcDbEntity
  8
PV
  6
PHANTOM
 62
         3
100
AcDbLine
 10
421.273334
 20
-136.5
 30
0.0
 11
571.273334
 21
-136.5
 31
0.0
  0
LINE
  5
54
100
AcDbEntity
  8
PV
  6
PHANTOM
 62
         3
100
AcDbLine
 10
421.273334
 20
-128.5
 30
0.0
 11
571.273334
 21
-128.5
 31
0.0
  0
ARC
  5
55
100
AcDbEntity
  8
PV
  6
CENTER
 62
         3
100
AcDbCircle
 10
-200.026666
 20
-132.5
 30
0.0
 40
32.0
100
AcDbArc
 50
195.494
 51
242.979
  0
ARC
  5
56
100
AcDbEntity
  8
PV
  6
CENTER
 62
         3
100
AcDbCircle
 10
-200.026666
 20
-132.5
 30
0.0
 40
32.0
100
AcDbArc
 50
15.42
 51
62.979
  0
CIRCLE
  5
57
100
AcDbEntity
  8
PV
  6
CONTINUOUS
 62
         3
100
AcDbCircle
 10
-200.026666
 20
-132.5
 30
0.0
 40
43.0
  0
CIRCLE
  5
58
100
AcDbEntity
  8
PV
  6
CONTINUOUS
 62
         3
100
AcDbCircle
 10
-222.653666
 20
-155.127
 30
0.0
 40
5.053
  0
CIRCLE
  5
59
100
AcDbEntity
  8
PV
  6
CONTINUOUS
 62
         3
100
AcDbCircle
 10
-222.653666
 20
-155.127
 30
0.0
 40
6.0
  0
CIRCLE
  5
5A
100
AcDbEntity
  8
PV
  6
CONTINUOUS
 62
         3
100
AcDbCircle
 10
-222.653666
 20
-109.873
 30
0.0
 40
5.053
  0
CIRCLE
  5
5B
100
AcDbEntity
  8
PV
  6
CONTINUOUS
 62
         3
100
AcDbCircle
 10
-222.653666
 20
-109.873
 30
0.0
 40
6.0
  0
ARC
  5
5C
100
AcDbEntity
  8
PV
  6
CENTER
 62
         3
100
AcDbCircle
 10
-200.026666
 20
-132.5
 30
0.0
 40
32.0
100
AcDbArc
 50
117.021
 51
152.979
  0
CIRCLE
  5
5D
100
AcDbEntity
  8
PV
  6
CONTINUOUS
 62
         3
100
AcDbCircle
 10
-177.399666
 20
-155.127
 30
0.0
 40
5.053
  0
CIRCLE
  5
5E
100
AcDbEntity
  8
PV
  6
CONTINUOUS
 62
         3
100
AcDbCircle
 10
-177.399666
 20
-155.127
 30
0.0
 40
6.0
  0
ARC
  5
5F
100
AcDbEntity
  8
PV
  6
CENTER
 62
         3
100
AcDbCircle
 10
-200.026666
 20
-132.5
 30
0.0
 40
32.0
100
AcDbArc
 50
297.021
 51
332.979
  0
CIRCLE
  5
60
100
AcDbEntity
  8
PV
  6
CONTINUOUS
 62
         3
100
AcDbCircle
 10
-177.399666
 20
-109.873
 30
0.0
 40
5.053
  0
CIRCLE
  5
61
100
AcDbEntity
  8
PV
  6
CONTINUOUS
 62
         3
100
AcDbCircle
 10
-177.399666
 20
-109.873
 30
0.0
 40
6.0
  0
ARC
  5
62
100
AcDbEntity
  8
PV
  6
CONTINUOUS
 62
         3
100
AcDbCircle
 10
-197.026666
 20
-84.5
 30
0.0
 40
3.0
100
AcDbArc
 50
12.313
 51
90.0000002
  0
ARC
  5
63
100
AcDbEntity
  8
PV
  6
CONTINUOUS
 62
         3
100
AcDbCircle
 10
-203.026666
 20
-84.5
 30
0.0
 40
3.0
100
AcDbArc
 50
90.0000002
 51
167.687
  0
CIRCLE
  5
64
100
AcDbEntity
  8
PV
  6
CONTINUOUS
 62
         3
100
AcDbCircle
 10
-200.026666
 20
-132.5
 30
0.0
 40
49.0
  0
LINE
  5
65
100
AcDbEntity
  8
PV
  6
CONTINUOUS
 62
         3
100
AcDbLine
 10
-206.526666
 20
-85.0
 30
0.0
 11
-206.526666
 21
-89.994
 31
0.0
  0
LINE
  5
66
100
AcDbEntity
  8
PV
  6
CONTINUOUS
 62
         3
100
AcDbLine
 10
-193.526666
 20
-85.0
 30
0.0
 11
-193.526666
 21
-89.994
 31
0.0
  0
LINE
  5
67
100
AcDbEntity
  8
PV
  6
CONTINUOUS
 62
         3
100
AcDbLine
 10
-206.526666
 20
-85.0
 30
0.0
 11
-193.526666
 21
-85.0
 31
0.0
  0
LINE
  5
68
100
AcDbEntity
  8
PV
  6
CENTER
 62
         3
100
AcDbLine
 10
-255.026666
 20
-132.5
 30
0.0
 11
-145.026666
 21
-132.5
 31
0.0
  0
LINE
  5
69
100
AcDbEntity
  8
PV
  6
CENTER
 62
         3
100
AcDbLine
 10
-200.026666
 20
-77.5
 30
0.0
 11
-200.026666
 21
-187.5
 31
0.0
  0
LINE
  5
6A
100
AcDbEntity
  8
PV
  6
CENTER
 62
         3
100
AcDbLine
 10
-215.582666
 20
-148.056
 30
0.0
 11
-229.724666
 21
-162.198
 31
0.0
  0
LINE
  5
6B
100
AcDbEntity
  8
PV
  6
CENTER
 62
         3
100
AcDbLine
 10
-215.582666
 20
-116.944
 30
0.0
 11
-229.724666
 21
-102.802
 31
0.0
  0
LINE
  5
6C
100
AcDbEntity
  8
PV
  6
CENTER
 62
         3
100
AcDbLine
 10
-184.470666
 20
-148.056
 30
0.0
 11
-170.328666
 21
-162.198
 31
0.0
  0
LINE
  5
6D
100
AcDbEntity
  8
PV
  6
CENTER
 62
         3
100
AcDbLine
 10
-184.470666
 20
-116.944
 30
0.0
 11
-170.328666
 21
-102.802
 31
0.0
  0
LINE
  5
6E
100
AcDbEntity
  8
PV
  6
CONTINUOUS
 62
         3
100
AcDbLine
 10
-203.026666
 20
-81.5
 30
0.0
 11
-197.026666
 21
-81.5
 31
0.0
  0
LINE
  5
6F
100
AcDbEntity
  8
PV
  6
CONTINUOUS
 62
         3
100
AcDbLine
 10
55.4073336
 20
-132.5
 30
0.0
 11
60.5013336
 21
-132.5
 31
0.0
  0
LINE
  5
70
100
AcDbEntity
  8
PV
  6
CONTINUOUS
 62
         3
100
AcDbLine
 10
140.973334
 20
-175.5
 30
0.0
 11
130.375334
 21
-175.5
 31
0.0
  0
LINE
  5
71
100
AcDbEntity
  8
PV
  6
CONTINUOUS
 62
         3
100
AcDbLine
 10
232.973334
 20
-141.5
 30
0.0
 11
196.067334
 21
-141.5
 31
0.0
  0
LINE
  5
72
100
AcDbEntity
  8
PV
  6
CONTINUOUS
 62
         3
100
AcDbLine
 10
41.8763336
 20
-127.22
 30
0.0
 11
24.0703336
 21
-137.777
 31
0.0
  0
MTEXT
  5
73
100
AcDbEntity
  8
PV
  6
CONTINUOUS
 62
       110
100
AcDbMText
 10
-81.1940425588
 20
-28.5
 30
0.0
 40
4.0
 41
0.0
 71
         1
 72
         1
  1
\W1.149;\A1;DP010A080+(DP010J)
  0
MTEXT
  5
74
100
AcDbEntity
  8
PV
  6
CONTINUOUS
 62
       110
100
AcDbMText
 10
-81.0011183285
 20
-17.8999998498
 30
0.0
 40
3.2000000477
 41
0.0
 71
         1
 72
         1
  1
\T1.017;\W1.071;\A1;SHOCK DAMPER
  0
ARC
  5
75
100
AcDbEntity
  8
PV
  6
CONTINUOUS
 62
         3
100
AcDbCircle
 10
35.821127
 20
-90.0455074
 30
0.0
 40
1.15246686
100
AcDbArc
 50
323.315535
 51
358.782239
  0
ARC
  5
76
100
AcDbEntity
  8
PV
  6
CONTINUOUS
 62
         3
100
AcDbCircle
 10
34.9728003
 20
-89.4273162
 30
0.0
 40
2.20211196
100
AcDbArc
 50
297.814641
 51
323.602941
  0
ARC
  5
77
100
AcDbEntity
  8
PV
  6
CONTINUOUS
 62
         3
100
AcDbCircle
 10
34.0886349
 20
-88.4061054
 30
0.0
 40
3.53113677
100
AcDbArc
 50
276.98956
 51
302.77786
  0
ARC
  5
78
100
AcDbEntity
  8
PV
  6
CONTINUOUS
 62
         3
100
AcDbCircle
 10
33.1262529
 20
-85.7740753
 30
0.0
 40
6.29283194
100
AcDbArc
 50
268.589329
 51
282.780517
  0
ARC
  5
79
100
AcDbEntity
  8
PV
  6
CONTINUOUS
 62
         3
100
AcDbCircle
 10
32.9853586
 20
-84.26535
 30
0.0
 40
7.79966261
100
AcDbArc
 50
258.447352
 51
269.896973
  0
ARC
  5
7A
100
AcDbEntity
  8
PV
  6
CONTINUOUS
 62
         3
100
AcDbCircle
 10
32.8483662
 20
-85.6926981
 30
0.0
 40
6.3755993
100
AcDbArc
 50
242.893329
 51
257.084517
  0
ARC
  5
7B
100
AcDbEntity
  8
PV
  6
CONTINUOUS
 62
         3
100
AcDbCircle
 10
31.8570097
 20
-88.4059311
 30
0.0
 40
3.52647252
100
AcDbArc
 50
221.118398
 51
237.13509
  0
ARC
  5
7C
100
AcDbEntity
  8
PV
  6
CONTINUOUS
 62
         3
100
AcDbCircle
 10
30.1266037
 20
-90.0375709
 30
0.0
 40
1.15348821
100
AcDbArc
 50
181.11416
 51
216.580864
  0
ARC
  5
7D
100
AcDbEntity
  8
PV
  6
CONTINUOUS
 62
         3
100
AcDbCircle
 10
30.1271037
 20
-90.0839926
 30
0.0
 40
1.15401956
100
AcDbArc
 50
143.342004
 51
178.808708
  0
ARC
  5
7E
100
AcDbEntity
  8
PV
  6
CONTINUOUS
 62
         3
100
AcDbCircle
 10
30.9716828
 20
-90.7021838
 30
0.0
 40
2.20065124
100
AcDbArc
 50
117.77042
 51
143.55872
  0
ARC
  5
7F
100
AcDbEntity
  8
PV
  6
CONTINUOUS
 62
         3
100
AcDbCircle
 10
31.8580323
 20
-91.7238946
 30
0.0
 40
3.53113677
100
AcDbArc
 50
96.9895605
 51
122.77786
  0
ARC
  5
80
100
AcDbEntity
  8
PV
  6
CONTINUOUS
 62
         3
100
AcDbCircle
 10
32.8204143
 20
-94.3559247
 30
0.0
 40
6.29283194
100
AcDbArc
 50
88.5893288
 51
102.780517
  0
ARC
  5
81
100
AcDbEntity
  8
PV
  6
CONTINUOUS
 62
         3
100
AcDbCircle
 10
32.9662961
 20
-95.86415
 30
0.0
 40
7.79915524
100
AcDbArc
 50
78.4839857
 51
89.933607
  0
ARC
  5
82
100
AcDbEntity
  8
PV
  6
CONTINUOUS
 62
         3
100
AcDbCircle
 10
33.0942842
 20
-94.4368019
 30
0.0
 40
6.37698559
100
AcDbArc
 50
62.8591562
 51
77.050345
  0
ARC
  5
83
100
AcDbEntity
  8
PV
  6
CONTINUOUS
 62
         3
100
AcDbCircle
 10
34.0932115
 20
-91.7235689
 30
0.0
 40
3.52412501
100
AcDbArc
 50
41.1625193
 51
57.1792111
  0
ARC
  5
84
100
AcDbEntity
  8
PV
  6
CONTINUOUS
 62
         3
100
AcDbCircle
 10
35.3645122
 20
-90.2466666
 30
0.0
 40
1.61849228
100
AcDbArc
 50
6.26660969
 51
31.3758036
  0
ARC
  5
85
100
AcDbEntity
  8
PV
  6
CONTINUOUS
 62
         3
100
AcDbCircle
 10
35.8184999
 20
-174.908071
 30
0.0
 40
1.15504188
100
AcDbArc
 50
323.445441
 51
358.912145
  0
ARC
  5
86
100
AcDbEntity
  8
PV
  6
CONTINUOUS
 62
         3
100
AcDbCircle
 10
34.9726161
 20
-174.294184
 30
0.0
 40
2.20018123
100
AcDbArc
 50
297.934985
 51
323.723285
  0
ARC
  5
87
100
AcDbEntity
  8
PV
  6
CONTINUOUS
 62
         3
100
AcDbCircle
 10
34.0838983
 20
-173.275474
 30
0.0
 40
3.52998495
100
AcDbArc
 50
277.151099
 51
302.939399
  0
ARC
  5
88
100
AcDbEntity
  8
PV
  6
CONTINUOUS
 62
         3
100
AcDbCircle
 10
33.1187026
 20
-170.638559
 30
0.0
 40
6.29807352
100
AcDbArc
 50
268.695609
 51
282.886798
  0
ARC
  5
89
100
AcDbEntity
  8
PV
  6
CONTINUOUS
 62
         3
100
AcDbCircle
 10
32.9699086
 20
-169.142338
 30
0.0
 40
7.79266439
100
AcDbArc
 50
258.590267
 51
270.039888
  0
ARC
  5
8A
100
AcDbEntity
  8
PV
  6
CONTINUOUS
 62
         3
100
AcDbCircle
 10
32.8403159
 20
-170.560165
 30
0.0
 40
6.37906637
100
AcDbArc
 50
243.020696
 51
257.211884
  0
ARC
  5
8B
100
AcDbEntity
  8
PV
  6
CONTINUOUS
 62
         3
100
AcDbCircle
 10
31.8483479
 20
-173.277323
 30
0.0
 40
3.52487785
100
AcDbArc
 50
221.327084
 51
237.343776
  0
ARC
  5
8C
100
AcDbEntity
  8
PV
  6
CONTINUOUS
 62
         3
100
AcDbCircle
 10
30.1271037
 20
-174.916007
 30
0.0
 40
1.15401956
100
AcDbArc
 50
181.191292
 51
216.657997
  0
ARC
  5
8D
100
AcDbEntity
  8
PV
  6
CONTINUOUS
 62
         3
100
AcDbCircle
 10
30.1266037
 20
-174.962429
 30
0.0
 40
1.15348821
100
AcDbArc
 50
143.419135
 51
178.885839
  0
ARC
  5
8E
100
AcDbEntity
  8
PV
  6
CONTINUOUS
 62
         3
100
AcDbCircle
 10
30.9762352
 20
-175.576316
 30
0.0
 40
2.20164683
100
AcDbArc
 50
117.979106
 51
143.767406
  0
ARC
  5
8F
100
AcDbEntity
  8
PV
  6
CONTINUOUS
 62
         3
100
AcDbCircle
 10
31.8605847
 20
-176.595026
 30
0.0
 40
3.52921757
100
AcDbArc
 50
97.1169267
 51
122.905227
  0
ARC
  5
90
100
AcDbEntity
  8
PV
  6
CONTINUOUS
 62
         3
100
AcDbCircle
 10
32.8319814
 20
-179.231941
 30
0.0
 40
6.29848324
100
AcDbArc
 50
88.7322428
 51
102.923431
  0
ARC
  5
91
100
AcDbEntity
  8
PV
  6
CONTINUOUS
 62
         3
100
AcDbCircle
 10
32.9767586
 20
-180.727662
 30
0.0
 40
7.79266439
100
AcDbArc
 50
78.5902665
 51
90.0398872
  0
ARC
  5
92
100
AcDbEntity
  8
PV
  6
CONTINUOUS
 62
         3
100
AcDbCircle
 10
33.1063513
 20
-179.309835
 30
0.0
 40
6.37906637
100
AcDbArc
 50
63.0206953
 51
77.2118841
  0
ARC
  5
93
100
AcDbEntity
  8
PV
  6
CONTINUOUS
 62
         3
100
AcDbCircle
 10
34.0947654
 20
-176.593177
 30
0.0
 40
3.52721755
100
AcDbArc
 50
41.2828628
 51
57.2995547
  0
ARC
  5
94
100
AcDbEntity
  8
PV
  6
CONTINUOUS
 62
         3
100
AcDbCircle
 10
35.3685027
 20
-175.109912
 30
0.0
 40
1.61488405
100
AcDbArc
 50
6.39651607
 51
31.50571
  0
ARC
  5
95
100
AcDbEntity
  8
PV
  6
CONTINUOUS
 62
         3
100
AcDbCircle
 10
204.508334
 20
-98.0
 30
0.0
 40
2.0
100
AcDbArc
 50
200.79
 51
339.219
  0
ARC
  5
96
100
AcDbEntity
  8
PV
  6
CONTINUOUS
 62
         3
100
AcDbCircle
 10
197.692334
 20
-88.5
 30
0.0
 40
1.0
100
AcDbArc
 50
20.79
 51
159.217
  0
ARC
  5
97
100
AcDbEntity
  8
PV
  6
CONTINUOUS
 62
         3
100
AcDbCircle
 10
204.508334
 20
-167.0
 30
0.0
 40
2.0
100
AcDbArc
 50
20.781
 51
159.21
  0
ARC
  5
98
100
AcDbEntity
  8
PV
  6
CONTINUOUS
 62
         3
100
AcDbCircle
 10
197.692334
 20
-176.5
 30
0.0
 40
1.0
100
AcDbArc
 50
200.783
 51
339.21
  0
ARC
  5
99
100
AcDbEntity
  8
PV
  6
CONTINUOUS
 62
         3
100
AcDbCircle
 10
190.878334
 20
-98.0
 30
0.0
 40
2.0
100
AcDbArc
 50
200.79
 51
339.219
  0
ARC
  5
9A
100
AcDbEntity
  8
PV
  6
CONTINUOUS
 62
         3
100
AcDbCircle
 10
184.062334
 20
-88.5
 30
0.0
 40
1.0
100
AcDbArc
 50
20.79
 51
159.217
  0
ARC
  5
9B
100
AcDbEntity
  8
PV
  6
CONTINUOUS
 62
         3
100
AcDbCircle
 10
190.878334
 20
-167.0
 30
0.0
 40
2.0
100
AcDbArc
 50
20.781
 51
159.21
  0
ARC
  5
9C
100
AcDbEntity
  8
PV
  6
CONTINUOUS
 62
         3
100
AcDbCircle
 10
184.062334
 20
-176.5
 30
0.0
 40
1.0
100
AcDbArc
 50
200.783
 51
339.21
  0
ARC
  5
9D
100
AcDbEntity
  8
PV
  6
CONTINUOUS
 62
         3
100
AcDbCircle
 10
231.767334
 20
-98.0
 30
0.0
 40
2.0
100
AcDbArc
 50
200.79
 51
339.219
  0
ARC
  5
9E
100
AcDbEntity
  8
PV
  6
CONTINUOUS
 62
         3
100
AcDbCircle
 10
177.248334
 20
-98.0
 30
0.0
 40
2.0
100
AcDbArc
 50
200.789
 51
339.217
  0
ARC
  5
9F
100
AcDbEntity
  8
PV
  6
CONTINUOUS
 62
         3
100
AcDbCircle
 10
163.618334
 20
-98.0
 30
0.0
 40
2.0
100
AcDbArc
 50
200.787
 51
339.216
  0
ARC
  5
A0
100
AcDbEntity
  8
PV
  6
CONTINUOUS
 62
         3
100
AcDbCircle
 10
149.988334
 20
-98.0
 30
0.0
 40
2.0
100
AcDbArc
 50
200.786
 51
339.214
  0
ARC
  5
A1
100
AcDbEntity
  8
PV
  6
CONTINUOUS
 62
         3
100
AcDbCircle
 10
238.580334
 20
-88.5
 30
0.0
 40
1.0
100
AcDbArc
 50
13.484
 51
159.219
  0
ARC
  5
A2
100
AcDbEntity
  8
PV
  6
CONTINUOUS
 62
         3
100
AcDbCircle
 10
224.951334
 20
-88.5
 30
0.0
 40
1.0
100
AcDbArc
 50
20.79
 51
159.217
  0
ARC
  5
A3
100
AcDbEntity
  8
PV
  6
CONTINUOUS
 62
         3
100
AcDbCircle
 10
170.433334
 20
-88.5
 30
0.0
 40
1.0
100
AcDbArc
 50
20.789
 51
159.216
  0
ARC
  5
A4
100
AcDbEntity
  8
PV
  6
CONTINUOUS
 62
         3
100
AcDbCircle
 10
156.803334
 20
-88.5
 30
0.0
 40
1.0
100
AcDbArc
 50
20.787
 51
159.214
  0
ARC
  5
A5
100
AcDbEntity
  8
PV
  6
CONTINUOUS
 62
         3
100
AcDbCircle
 10
143.173334
 20
-88.5
 30
0.0
 40
1.0
100
AcDbArc
 50
20.786
 51
116.785
  0
ARC
  5
A6
100
AcDbEntity
  8
PV
  6
CONTINUOUS
 62
         3
100
AcDbCircle
 10
231.767334
 20
-167.0
 30
0.0
 40
2.0
100
AcDbArc
 50
20.781
 51
159.21
  0
ARC
  5
A7
100
AcDbEntity
  8
PV
  6
CONTINUOUS
 62
         3
100
AcDbCircle
 10
177.248334
 20
-167.0
 30
0.0
 40
2.0
100
AcDbArc
 50
20.783
 51
159.211
  0
ARC
  5
A8
100
AcDbEntity
  8
PV
  6
CONTINUOUS
 62
         3
100
AcDbCircle
 10
163.618334
 20
-167.0
 30
0.0
 40
2.0
100
AcDbArc
 50
20.784
 51
159.213
  0
ARC
  5
A9
100
AcDbEntity
  8
PV
  6
CONTINUOUS
 62
         3
100
AcDbCircle
 10
149.988334
 20
-167.0
 30
0.0
 40
2.0
100
AcDbArc
 50
20.786
 51
159.214
  0
ARC
  5
AA
100
AcDbEntity
  8
PV
  6
CONTINUOUS
 62
         3
100
AcDbCircle
 10
238.580334
 20
-176.5
 30
0.0
 40
1.0
100
AcDbArc
 50
200.781
 51
346.516
  0
ARC
  5
AB
100
AcDbEntity
  8
PV
  6
CONTINUOUS
 62
         3
100
AcDbCircle
 10
224.951334
 20
-176.5
 30
0.0
 40
1.0
100
AcDbArc
 50
200.783
 51
339.21
  0
ARC
  5
AC
100
AcDbEntity
  8
PV
  6
CONTINUOUS
 62
         3
100
AcDbCircle
 10
170.433334
 20
-176.5
 30
0.0
 40
1.0
100
AcDbArc
 50
200.784
 51
339.211
  0
ARC
  5
AD
100
AcDbEntity
  8
PV
  6
CONTINUOUS
 62
         3
100
AcDbCircle
 10
156.803334
 20
-176.5
 30
0.0
 40
1.0
100
AcDbArc
 50
200.786
 51
339.213
  0
ARC
  5
AE
100
AcDbEntity
  8
PV
  6
CONTINUOUS
 62
         3
100
AcDbCircle
 10
143.173334
 20
-176.5
 30
0.0
 40
1.0
100
AcDbArc
 50
243.212
 51
339.214
  0
CIRCLE
  5
AF
100
AcDbEntity
  8
PV
  6
CONTINUOUS
 62
         3
100
AcDbCircle
 10
251.583334
 20
-110.0
 30
0.0
 40
4.5
  0
CIRCLE
  5
B0
100
AcDbEntity
  8
PV
  6
CONTINUOUS
 62
         3
100
AcDbCircle
 10
135.223334
 20
-84.0
 30
0.0
 40
4.5
  0
ARC
  5
B1
100
AcDbEntity
  8
PV
  6
CONTINUOUS
 62
         3
100
AcDbCircle
 10
218.137334
 20
-98.0
 30
0.0
 40
2.0
100
AcDbArc
 50
200.79
 51
339.219
  0
ARC
  5
B2
100
AcDbEntity
  8
PV
  6
CONTINUOUS
 62
         3
100
AcDbCircle
 10
218.137334
 20
-167.0
 30
0.0
 40
2.0
100
AcDbArc
 50
20.781
 51
159.21
  0
ARC
  5
B3
100
AcDbEntity
  8
PV
  6
CONTINUOUS
 62
         3
100
AcDbCircle
 10
211.321334
 20
-88.5
 30
0.0
 40
1.0
100
AcDbArc
 50
20.79
 51
159.217
  0
ARC
  5
B4
100
AcDbEntity
  8
PV
  6
CONTINUOUS
 62
         3
100
AcDbCircle
 10
211.321334
 20
-176.5
 30
0.0
 40
1.0
100
AcDbArc
 50
200.783
 51
339.21
  0
ARC
  5
B5
100
AcDbEntity
  8
PV
  6
CONTINUOUS
 62
         3
100
AcDbCircle
 10
35.9733336
 20
-84.5
 30
0.0
 40
3.0
100
AcDbArc
 50
19.471
 51
90.0000002
  0
ARC
  5
B6
100
AcDbEntity
  8
PV
  6
CONTINUOUS
 62
         3
100
AcDbCircle
 10
29.9733336
 20
-84.5
 30
0.0
 40
3.0
100
AcDbArc
 50
90.0000002
 51
160.529
  0
ARC
  5
B7
100
AcDbEntity
  8
PV
  6
CONTINUOUS
 62
         3
100
AcDbCircle
 10
103.273334
 20
-91.2
 30
0.0
 40
2.5
100
AcDbArc
 50
11.537
 51
168.463
  0
ARC
  5
B8
100
AcDbEntity
  8
PV
  6
CONTINUOUS
 62
         3
100
AcDbCircle
 10
120.973334
 20
-89.5
 30
0.0
 40
3.0
100
AcDbArc
 50
9.59399997
 51
170.406
  0
ARC
  5
B9
100
AcDbEntity
  8
PV
  6
CONTINUOUS
 62
         3
100
AcDbCircle
 10
26.0673336
 20
-83.267
 30
0.0
 40
3.0
100
AcDbArc
 50
355.54
 51
357.985
  0
ARC
  5
BA
100
AcDbEntity
  8
PV
  6
CONTINUOUS
 62
         3
100
AcDbCircle
 10
39.8793336
 20
-83.267
 30
0.0
 40
3.0
100
AcDbArc
 50
182.015
 51
184.46
  0
ARC
  5
BB
100
AcDbEntity
  8
PV
  6
CONTINUOUS
 62
         3
100
AcDbCircle
 10
209.973334
 20
-132.5
 30
0.0
 40
50.0
100
AcDbArc
 50
340.123
 51
19.877
  0
CIRCLE
  5
BC
100
AcDbEntity
  8
PV
  6
CONTINUOUS
 62
         3
100
AcDbCircle
 10
32.9733336
 20
-132.5
 30
0.0
 40
4.0
  0
LINE
  5
BD
100
AcDbEntity
  8
PV
  6
CONTINUOUS
 62
         3
100
AcDbLine
 10
141.973334
 20
-175.5
 30
0.0
 11
142.722334
 21
-177.393
 31
0.0
  0
LINE
  5
BE
100
AcDbEntity
  8
PV
  6
CONTINUOUS
 62
         3
100
AcDbLine
 10
141.973334
 20
-89.5
 30
0.0
 11
142.722334
 21
-87.607
 31
0.0
  0
LINE
  5
BF
100
AcDbEntity
  8
PV
  6
CONTINUOUS
 62
         3
100
AcDbLine
 10
129.723334
 20
-89.5
 30
0.0
 11
140.973334
 21
-89.5
 31
0.0
  0
LINE
  5
C0
100
AcDbEntity
  8
PV
  6
CONTINUOUS
 62
         3
100
AcDbLine
 10
139.723334
 20
-88.5
 30
0.0
 11
139.723334
 21
-89.0
 31
0.0
  0
LINE
  5
C1
100
AcDbEntity
  8
PV
  6
CONTINUOUS
 62
         3
100
AcDbLine
 10
130.723334
 20
-88.5
 30
0.0
 11
130.723334
 21
-89.0
 31
0.0
  0
LINE
  5
C2
100
AcDbEntity
  8
PV
  6
CONTINUOUS
 62
         3
100
AcDbLine
 10
130.223334
 20
-88.707
 30
0.0
 11
130.223334
 21
-89.0
 31
0.0
  0
LINE
  5
C3
100
AcDbEntity
  8
PV
  6
CONTINUOUS
 62
         3
100
AcDbLine
 10
140.223334
 20
-88.707
 30
0.0
 11
140.223334
 21
-89.0
 31
0.0
  0
LINE
  5
C4
100
AcDbEntity
  8
PV
  6
CONTINUOUS
 62
         3
100
AcDbLine
 10
140.223334
 20
-88.707
 30
0.0
 11
138.512334
 21
-86.996
 31
0.0
  0
LINE
  5
C5
100
AcDbEntity
  8
PV
  6
CONTINUOUS
 62
         3
100
AcDbLine
 10
130.223334
 20
-88.707
 30
0.0
 11
131.934334
 21
-86.996
 31
0.0
  0
LINE
  5
C6
100
AcDbEntity
  8
PV
  6
CONTINUOUS
 62
         3
100
AcDbLine
 10
130.723334
 20
-88.5
 30
0.0
 11
139.723334
 21
-88.5
 31
0.0
  0
LINE
  5
C7
100
AcDbEntity
  8
PV
  6
CONTINUOUS
 62
         3
100
AcDbLine
 10
130.223334
 20
-89.0
 30
0.0
 11
140.223334
 21
-89.0
 31
0.0
  0
LINE
  5
C8
100
AcDbEntity
  8
PV
  6
CENTER
 62
         3
100
AcDbLine
 10
129.223334
 20
-84.0
 30
0.0
 11
141.223334
 21
-84.0
 31
0.0
  0
LINE
  5
C9
100
AcDbEntity
  8
PV
  6
CENTER
 62
         3
100
AcDbLine
 10
135.223334
 20
-90.5
 30
0.0
 11
135.223334
 21
-77.492
 31
0.0
  0
LINE
  5
CA
100
AcDbEntity
  8
PV
  6
CONTINUOUS
 62
         3
100
AcDbLine
 10
140.723334
 20
-88.5
 30
0.0
 11
140.723334
 21
-89.5
 31
0.0
  0
LINE
  5
CB
100
AcDbEntity
  8
PV
  6
CONTINUOUS
 62
         3
100
AcDbLine
 10
140.723334
 20
-88.5
 30
0.0
 11
138.865334
 21
-86.642
 31
0.0
  0
LINE
  5
CC
100
AcDbEntity
  8
PV
  6
CONTINUOUS
 62
         3
100
AcDbLine
 10
129.723334
 20
-88.5
 30
0.0
 11
131.581334
 21
-86.643
 31
0.0
  0
LINE
  5
CD
100
AcDbEntity
  8
PV
  6
CONTINUOUS
 62
         3
100
AcDbLine
 10
135.223334
 20
-82.869
 30
0.0
 11
137.789334
 21
-80.303
 31
0.0
  0
LINE
  5
CE
100
AcDbEntity
  8
PV
  6
CONTINUOUS
 62
         3
100
AcDbLine
 10
136.354334
 20
-84.0
 30
0.0
 11
138.920334
 21
-81.434
 31
0.0
  0
LINE
  5
CF
100
AcDbEntity
  8
PV
  6
CONTINUOUS
 62
         3
100
AcDbLine
 10
135.223334
 20
-82.869
 30
0.0
 11
134.374334
 21
-82.02
 31
0.0
  0
LINE
  5
D0
100
AcDbEntity
  8
PV
  6
CONTINUOUS
 62
         3
100
AcDbLine
 10
134.092334
 20
-84.0
 30
0.0
 11
133.243334
 21
-83.152
 31
0.0
  0
LINE
  5
D1
100
AcDbEntity
  8
PV
  6
CONTINUOUS
 62
         3
100
AcDbLine
 10
136.072334
 20
-85.98
 30
0.0
 11
137.203334
 21
-84.848
 31
0.0
  0
LINE
  5
D2
100
AcDbEntity
  8
PV
  6
CONTINUOUS
 62
         3
100
AcDbLine
 10
133.243334
 20
-83.152
 30
0.0
 11
134.374334
 21
-82.02
 31
0.0
  0
LINE
  5
D3
100
AcDbEntity
  8
PV
  6
CONTINUOUS
 62
         3
100
AcDbLine
 10
132.657334
 20
-87.697
 30
0.0
 11
135.223334
 21
-85.131
 31
0.0
  0
LINE
  5
D4
100
AcDbEntity
  8
PV
  6
CONTINUOUS
 62
         3
100
AcDbLine
 10
131.526334
 20
-86.566
 30
0.0
 11
134.092334
 21
-84.0
 31
0.0
  0
LINE
  5
D5
100
AcDbEntity
  8
PV
  6
CONTINUOUS
 62
         3
100
AcDbLine
 10
137.203334
 20
-84.848
 30
0.0
 11
136.354334
 21
-84.0
 31
0.0
  0
LINE
  5
D6
100
AcDbEntity
  8
PV
  6
CONTINUOUS
 62
         3
100
AcDbLine
 10
136.072334
 20
-85.98
 30
0.0
 11
135.223334
 21
-85.131
 31
0.0
  0
LINE
  5
D7
100
AcDbEntity
  8
PV
  6
CONTINUOUS
 62
         3
100
AcDbLine
 10
129.723334
 20
-88.5
 30
0.0
 11
129.723334
 21
-89.5
 31
0.0
  0
LINE
  5
D8
100
AcDbEntity
  8
PV
  6
CONTINUOUS
 62
         3
100
AcDbLine
 10
256.083334
 20
-114.5
 30
0.0
 11
256.083334
 21
-115.0
 31
0.0
  0
LINE
  5
D9
100
AcDbEntity
  8
PV
  6
CONTINUOUS
 62
         3
100
AcDbLine
 10
247.083334
 20
-114.5
 30
0.0
 11
247.083334
 21
-115.0
 31
0.0
  0
LINE
  5
DA
100
AcDbEntity
  8
PV
  6
CONTINUOUS
 62
         3
100
AcDbLine
 10
246.583334
 20
-114.707
 30
0.0
 11
246.583334
 21
-115.0
 31
0.0
  0
LINE
  5
DB
100
AcDbEntity
  8
PV
  6
CONTINUOUS
 62
         3
100
AcDbLine
 10
256.583334
 20
-114.707
 30
0.0
 11
256.583334
 21
-115.0
 31
0.0
  0
LINE
  5
DC
100
AcDbEntity
  8
PV
  6
CONTINUOUS
 62
         3
100
AcDbLine
 10
256.583334
 20
-114.707
 30
0.0
 11
254.872334
 21
-112.996
 31
0.0
  0
LINE
  5
DD
100
AcDbEntity
  8
PV
  6
CONTINUOUS
 62
         3
100
AcDbLine
 10
246.583334
 20
-114.707
 30
0.0
 11
248.294334
 21
-112.996
 31
0.0
  0
LINE
  5
DE
100
AcDbEntity
  8
PV
  6
CONTINUOUS
 62
         3
100
AcDbLine
 10
247.083334
 20
-114.5
 30
0.0
 11
256.083334
 21
-114.5
 31
0.0
  0
LINE
  5
DF
100
AcDbEntity
  8
PV
  6
CONTINUOUS
 62
         3
100
AcDbLine
 10
246.583334
 20
-115.0
 30
0.0
 11
256.583334
 21
-115.0
 31
0.0
  0
LINE
  5
E0
100
AcDbEntity
  8
PV
  6
CENTER
 62
         3
100
AcDbLine
 10
245.583334
 20
-110.0
 30
0.0
 11
257.583334
 21
-110.0
 31
0.0
  0
LINE
  5
E1
100
AcDbEntity
  8
PV
  6
CENTER
 62
         3
100
AcDbLine
 10
251.583334
 20
-116.5
 30
0.0
 11
251.583334
 21
-103.492
 31
0.0
  0
LINE
  5
E2
100
AcDbEntity
  8
PV
  6
CONTINUOUS
 62
         3
100
AcDbLine
 10
257.083334
 20
-114.5
 30
0.0
 11
257.083334
 21
-115.5
 31
0.0
  0
LINE
  5
E3
100
AcDbEntity
  8
PV
  6
CONTINUOUS
 62
         3
100
AcDbLine
 10
257.083334
 20
-114.5
 30
0.0
 11
255.225334
 21
-112.642
 31
0.0
  0
LINE
  5
E4
100
AcDbEntity
  8
PV
  6
CONTINUOUS
 62
         3
100
AcDbLine
 10
246.083334
 20
-114.5
 30
0.0
 11
247.940334
 21
-112.642
 31
0.0
  0
LINE
  5
E5
100
AcDbEntity
  8
PV
  6
CONTINUOUS
 62
         3
100
AcDbLine
 10
251.583334
 20
-108.869
 30
0.0
 11
254.148334
 21
-106.303
 31
0.0
  0
LINE
  5
E6
100
AcDbEntity
  8
PV
  6
CONTINUOUS
 62
         3
100
AcDbLine
 10
252.714334
 20
-110.0
 30
0.0
 11
255.280334
 21
-107.434
 31
0.0
  0
LINE
  5
E7
100
AcDbEntity
  8
PV
  6
CONTINUOUS
 62
         3
100
AcDbLine
 10
251.583334
 20
-108.869
 30
0.0
 11
250.734334
 21
-108.02
 31
0.0
  0
LINE
  5
E8
100
AcDbEntity
  8
PV
  6
CONTINUOUS
 62
         3
100
AcDbLine
 10
250.451334
 20
-110.0
 30
0.0
 11
249.603334
 21
-109.152
 31
0.0
  0
LINE
  5
E9
100
AcDbEntity
  8
PV
  6
CONTINUOUS
 62
         3
100
AcDbLine
 10
252.431334
 20
-111.98
 30
0.0
 11
253.563334
 21
-110.848
 31
0.0
  0
LINE
  5
EA
100
AcDbEntity
  8
PV
  6
CONTINUOUS
 62
         3
100
AcDbLine
 10
249.603334
 20
-109.152
 30
0.0
 11
250.734334
 21
-108.02
 31
0.0
  0
LINE
  5
EB
100
AcDbEntity
  8
PV
  6
CONTINUOUS
 62
         3
100
AcDbLine
 10
249.017334
 20
-113.697
 30
0.0
 11
251.583334
 21
-111.131
 31
0.0
  0
LINE
  5
EC
100
AcDbEntity
  8
PV
  6
CONTINUOUS
 62
         3
100
AcDbLine
 10
247.886334
 20
-112.566
 30
0.0
 11
250.451334
 21
-110.0
 31
0.0
  0
LINE
  5
ED
100
AcDbEntity
  8
PV
  6
CONTINUOUS
 62
         3
100
AcDbLine
 10
253.563334
 20
-110.848
 30
0.0
 11
252.714334
 21
-110.0
 31
0.0
  0
LINE
  5
EE
100
AcDbEntity
  8
PV
  6
CONTINUOUS
 62
         3
100
AcDbLine
 10
252.431334
 20
-111.98
 30
0.0
 11
251.583334
 21
-111.131
 31
0.0
  0
LINE
  5
EF
100
AcDbEntity
  8
PV
  6
CONTINUOUS
 62
         3
100
AcDbLine
 10
246.083334
 20
-114.5
 30
0.0
 11
246.083334
 21
-115.5
 31
0.0
  0
LINE
  5
F0
100
AcDbEntity
  8
PV
  6
CONTINUOUS
 62
         3
100
AcDbLine
 10
224.016334
 20
-88.145
 30
0.0
 11
220.007334
 21
-98.709
 31
0.0
  0
LINE
  5
F1
100
AcDbEntity
  8
PV
  6
CONTINUOUS
 62
         3
100
AcDbLine
 10
212.256334
 20
-88.145
 30
0.0
 11
216.267334
 21
-98.71
 31
0.0
  0
LINE
  5
F2
100
AcDbEntity
  8
PV
  6
CONTINUOUS
 62
         3
100
AcDbLine
 10
220.007334
 20
-166.29
 30
0.0
 11
224.016334
 21
-176.855
 31
0.0
  0
LINE
  5
F3
100
AcDbEntity
  8
PV
  6
CONTINUOUS
 62
         3
100
AcDbLine
 10
216.267334
 20
-166.29
 30
0.0
 11
212.256334
 21
-176.855
 31
0.0
  0
LINE
  5
F4
100
AcDbEntity
  8
PV
  6
CONTINUOUS
 62
         3
100
AcDbLine
 10
210.386334
 20
-88.145
 30
0.0
 11
206.377334
 21
-98.709
 31
0.0
  0
LINE
  5
F5
100
AcDbEntity
  8
PV
  6
CONTINUOUS
 62
         3
100
AcDbLine
 10
198.626334
 20
-88.145
 30
0.0
 11
202.637334
 21
-98.71
 31
0.0
  0
LINE
  5
F6
100
AcDbEntity
  8
PV
  6
CONTINUOUS
 62
         3
100
AcDbLine
 10
206.377334
 20
-166.29
 30
0.0
 11
210.386334
 21
-176.855
 31
0.0
  0
LINE
  5
F7
100
AcDbEntity
  8
PV
  6
CONTINUOUS
 62
         3
100
AcDbLine
 10
202.637334
 20
-166.29
 30
0.0
 11
198.626334
 21
-176.855
 31
0.0
  0
LINE
  5
F8
100
AcDbEntity
  8
PV
  6
CONTINUOUS
 62
         3
100
AcDbLine
 10
196.757334
 20
-88.145
 30
0.0
 11
192.748334
 21
-98.709
 31
0.0
  0
LINE
  5
F9
100
AcDbEntity
  8
PV
  6
CONTINUOUS
 62
         3
100
AcDbLine
 10
184.997334
 20
-88.145
 30
0.0
 11
189.008334
 21
-98.71
 31
0.0
  0
LINE
  5
FA
100
AcDbEntity
  8
PV
  6
CONTINUOUS
 62
         3
100
AcDbLine
 10
192.748334
 20
-166.29
 30
0.0
 11
196.757334
 21
-176.855
 31
0.0
  0
LINE
  5
FB
100
AcDbEntity
  8
PV
  6
CONTINUOUS
 62
         3
100
AcDbLine
 10
189.008334
 20
-166.29
 30
0.0
 11
184.997334
 21
-176.855
 31
0.0
  0
LINE
  5
FC
100
AcDbEntity
  8
PV
  6
CONTINUOUS
 62
         3
100
AcDbLine
 10
141.973334
 20
-89.5
 30
0.0
 11
139.973334
 21
-89.5
 31
0.0
  0
LINE
  5
FD
100
AcDbEntity
  8
PV
  6
CONTINUOUS
 62
         3
100
AcDbLine
 10
246.083334
 20
-115.5
 30
0.0
 11
239.553334
 21
-88.267
 31
0.0
  0
LINE
  5
FE
100
AcDbEntity
  8
PV
  6
CONTINUOUS
 62
         3
100
AcDbLine
 10
237.646334
 20
-88.145
 30
0.0
 11
233.637334
 21
-98.709
 31
0.0
  0
LINE
  5
FF
100
AcDbEntity
  8
PV
  6
CONTINUOUS
 62
         3
100
AcDbLine
 10
225.885334
 20
-88.145
 30
0.0
 11
229.896334
 21
-98.71
 31
0.0
  0
LINE
  5
100
100
AcDbEntity
  8
PV
  6
CONTINUOUS
 62
         3
100
AcDbLine
 10
183.127334
 20
-88.145
 30
0.0
 11
179.118334
 21
-98.709
 31
0.0
  0
LINE
  5
101
100
AcDbEntity
  8
PV
  6
CONTINUOUS
 62
         3
100
AcDbLine
 10
171.367334
 20
-88.145
 30
0.0
 11
175.378334
 21
-98.71
 31
0.0
  0
LINE
  5
102
100
AcDbEntity
  8
PV
  6
CONTINUOUS
 62
         3
100
AcDbLine
 10
169.498334
 20
-88.145
 30
0.0
 11
165.488334
 21
-98.71
 31
0.0
  0
LINE
  5
103
100
AcDbEntity
  8
PV
  6
CONTINUOUS
 62
         3
100
AcDbLine
 10
161.748334
 20
-98.71
 30
0.0
 11
157.738334
 21
-88.145
 31
0.0
  0
LINE
  5
104
100
AcDbEntity
  8
PV
  6
CONTINUOUS
 62
         3
100
AcDbLine
 10
155.868334
 20
-88.145
 30
0.0
 11
151.858334
 21
-98.71
 31
0.0
  0
LINE
  5
105
100
AcDbEntity
  8
PV
  6
CONTINUOUS
 62
         3
100
AcDbLine
 10
144.108334
 20
-88.145
 30
0.0
 11
148.118334
 21
-98.71
 31
0.0
  0
LINE
  5
106
100
AcDbEntity
  8
PV
  6
CONTINUOUS
 62
         3
100
AcDbLine
 10
131.973334
 20
-175.5
 30
0.0
 11
131.973334
 21
-176.5
 31
0.0
  0
LINE
  5
107
100
AcDbEntity
  8
PV
  6
CONTINUOUS
 62
         3
100
AcDbLine
 10
139.973334
 20
-175.5
 30
0.0
 11
139.973334
 21
-176.5
 31
0.0
  0
LINE
  5
108
100
AcDbEntity
  8
PV
  6
CONTINUOUS
 62
         3
100
AcDbLine
 10
139.973334
 20
-175.5
 30
0.0
 11
141.973334
 21
-175.5
 31
0.0
  0
LINE
  5
109
100
AcDbEntity
  8
PV
  6
CONTINUOUS
 62
         3
100
AcDbLine
 10
239.553334
 20
-176.733
 30
0.0
 11
246.083334
 21
-149.5
 31
0.0
  0
LINE
  5
10A
100
AcDbEntity
  8
PV
  6
CONTINUOUS
 62
         3
100
AcDbLine
 10
233.636334
 20
-166.29
 30
0.0
 11
237.645334
 21
-176.855
 31
0.0
  0
LINE
  5
10B
100
AcDbEntity
  8
PV
  6
CONTINUOUS
 62
         3
100
AcDbLine
 10
229.896334
 20
-166.29
 30
0.0
 11
225.885334
 21
-176.854
 31
0.0
  0
LINE
  5
10C
100
AcDbEntity
  8
PV
  6
CONTINUOUS
 62
         3
100
AcDbLine
 10
179.118334
 20
-166.29
 30
0.0
 11
183.127334
 21
-176.855
 31
0.0
  0
LINE
  5
10D
100
AcDbEntity
  8
PV
  6
CONTINUOUS
 62
         3
100
AcDbLine
 10
175.378334
 20
-166.29
 30
0.0
 11
171.367334
 21
-176.855
 31
0.0
  0
LINE
  5
10E
100
AcDbEntity
  8
PV
  6
CONTINUOUS
 62
         3
100
AcDbLine
 10
165.488334
 20
-166.29
 30
0.0
 11
169.497334
 21
-176.855
 31
0.0
  0
LINE
  5
10F
100
AcDbEntity
  8
PV
  6
CONTINUOUS
 62
         3
100
AcDbLine
 10
157.738334
 20
-176.855
 30
0.0
 11
161.748334
 21
-166.29
 31
0.0
  0
LINE
  5
110
100
AcDbEntity
  8
PV
  6
CONTINUOUS
 62
         3
100
AcDbLine
 10
151.858334
 20
-166.29
 30
0.0
 11
155.868334
 21
-176.855
 31
0.0
  0
LINE
  5
111
100
AcDbEntity
  8
PV
  6
CONTINUOUS
 62
         3
100
AcDbLine
 10
148.118334
 20
-166.29
 30
0.0
 11
144.108334
 21
-176.855
 31
0.0
  0
LINE
  5
112
100
AcDbEntity
  8
PV
  6
CONTINUOUS
 62
         3
100
AcDbLine
 10
139.973334
 20
-176.5
 30
0.0
 11
131.973334
 21
-176.5
 31
0.0
  0
LINE
  5
113
100
AcDbEntity
  8
PV
  6
CONTINUOUS
 62
         3
100
AcDbLine
 10
-71.5266664
 20
-85.0
 30
0.0
 11
-71.5266664
 21
-89.5
 31
0.0
  0
LINE
  5
114
100
AcDbEntity
  8
PV
  6
CONTINUOUS
 62
         3
100
AcDbLine
 10
-58.5266664
 20
-85.0
 30
0.0
 11
-58.5266664
 21
-89.5
 31
0.0
  0
LINE
  5
115
100
AcDbEntity
  8
PV
  6
CONTINUOUS
 62
         3
100
AcDbLine
 10
-71.5266664
 20
-85.0
 30
0.0
 11
-58.5266664
 21
-85.0
 31
0.0
  0
LINE
  5
116
100
AcDbEntity
  8
PV
  6
CONTINUOUS
 62
         3
100
AcDbLine
 10
141.973334
 20
-123.105
 30
0.0
 11
152.973334
 21
-117.146
 31
0.0
  0
LINE
  5
117
100
AcDbEntity
  8
PV
  6
CONTINUOUS
 62
         3
100
AcDbLine
 10
152.973334
 20
-123.105
 30
0.0
 11
141.973334
 21
-117.146
 31
0.0
  0
LINE
  5
118
100
AcDbEntity
  8
PV
  6
CONTINUOUS
 62
         3
100
AcDbLine
 10
141.973334
 20
-123.105
 30
0.0
 11
152.973334
 21
-123.105
 31
0.0
  0
LINE
  5
119
100
AcDbEntity
  8
PV
  6
CONTINUOUS
 62
         3
100
AcDbLine
 10
141.973334
 20
-117.146
 30
0.0
 11
152.973334
 21
-117.146
 31
0.0
  0
LINE
  5
11A
100
AcDbEntity
  8
PV
  6
CONTINUOUS
 62
         3
100
AcDbLine
 10
141.973334
 20
-117.146
 30
0.0
 11
141.973334
 21
-123.105
 31
0.0
  0
LINE
  5
11B
100
AcDbEntity
  8
PV
  6
CONTINUOUS
 62
         3
100
AcDbLine
 10
29.9733336
 20
-81.5
 30
0.0
 11
35.9733336
 21
-81.5
 31
0.0
  0
LINE
  5
11C
100
AcDbEntity
  8
PV
  6
CONTINUOUS
 62
         3
100
AcDbLine
 10
141.973334
 20
-141.895
 30
0.0
 11
152.973334
 21
-147.854
 31
0.0
  0
LINE
  5
11D
100
AcDbEntity
  8
PV
  6
CONTINUOUS
 62
         3
100
AcDbLine
 10
152.973334
 20
-141.895
 30
0.0
 11
141.973334
 21
-147.854
 31
0.0
  0
LINE
  5
11E
100
AcDbEntity
  8
PV
  6
CONTINUOUS
 62
         3
100
AcDbLine
 10
141.973334
 20
-141.895
 30
0.0
 11
152.973334
 21
-141.895
 31
0.0
  0
LINE
  5
11F
100
AcDbEntity
  8
PV
  6
CONTINUOUS
 62
         3
100
AcDbLine
 10
141.973334
 20
-147.854
 30
0.0
 11
152.973334
 21
-147.854
 31
0.0
  0
LINE
  5
120
100
AcDbEntity
  8
PV
  6
CONTINUOUS
 62
         3
100
AcDbLine
 10
141.973334
 20
-147.854
 30
0.0
 11
141.973334
 21
-141.895
 31
0.0
  0
LINE
  5
121
100
AcDbEntity
  8
PV
  6
CONTINUOUS
 62
         3
100
AcDbLine
 10
140.973334
 20
-150.5
 30
0.0
 11
152.973334
 21
-150.5
 31
0.0
  0
LINE
  5
122
100
AcDbEntity
  8
PV
  6
CENTER
 62
         3
100
AcDbLine
 10
32.9733336
 20
-94.065
 30
0.0
 11
32.9733336
 21
-80.037
 31
0.0
  0
LINE
  5
123
100
AcDbEntity
  8
PV
  6
CONTINUOUS
 62
         3
100
AcDbLine
 10
40.9733336
 20
-90.065
 30
0.0
 11
24.9733336
 21
-90.065
 31
0.0
  0
LINE
  5
124
100
AcDbEntity
  8
PV
  6
CENTER
 62
         3
100
AcDbLine
 10
32.9733336
 20
-170.935
 30
0.0
 11
32.9733336
 21
-178.935
 31
0.0
  0
LINE
  5
125
100
AcDbEntity
  8
PV
  6
CONTINUOUS
 62
         3
100
AcDbLine
 10
40.9733336
 20
-174.935
 30
0.0
 11
24.9733336
 21
-174.935
 31
0.0
  0
LINE
  5
126
100
AcDbEntity
  8
PV
  6
CONTINUOUS
 62
         3
100
AcDbLine
 10
124.473334
 20
-89.0
 30
0.0
 11
124.473334
 21
-89.5
 31
0.0
  0
LINE
  5
127
100
AcDbEntity
  8
PV
  6
CONTINUOUS
 62
         3
100
AcDbLine
 10
110.973334
 20
-89.0
 30
0.0
 11
124.473334
 21
-89.0
 31
0.0
  0
LINE
  5
128
100
AcDbEntity
  8
PV
  6
CONTINUOUS
 62
         3
100
AcDbLine
 10
95.7733336
 20
-174.3
 30
0.0
 11
110.973334
 21
-174.3
 31
0.0
  0
LINE
  5
129
100
AcDbEntity
  8
PV
  6
CONTINUOUS
 62
         3
100
AcDbLine
 10
95.7733336
 20
-90.7
 30
0.0
 11
95.7733336
 21
-174.3
 31
0.0
  0
LINE
  5
12A
100
AcDbEntity
  8
PV
  6
CONTINUOUS
 62
         3
100
AcDbLine
 10
95.7733336
 20
-90.7
 30
0.0
 11
110.973334
 21
-90.7
 31
0.0
  0
LINE
  5
12B
100
AcDbEntity
  8
PV
  6
CENTER
 62
         3
100
AcDbLine
 10
103.273334
 20
-86.94
 30
0.0
 11
103.273334
 21
-93.167
 31
0.0
  0
LINE
  5
12C
100
AcDbEntity
  8
PV
  6
CONTINUOUS
 62
         3
100
AcDbLine
 10
45.4733336
 20
-173.8
 30
0.0
 11
95.7733336
 21
-173.8
 31
0.0
  0
LINE
  5
12D
100
AcDbEntity
  8
PV
  6
CONTINUOUS
 62
         3
100
AcDbLine
 10
45.4733336
 20
-91.2
 30
0.0
 11
95.7733336
 21
-91.2
 31
0.0
  0
LINE
  5
12E
100
AcDbEntity
  8
PV
  6
CONTINUOUS
 62
         3
100
AcDbLine
 10
-50.0266664
 20
-173.8
 30
0.0
 11
20.4733336
 21
-173.8
 31
0.0
  0
LINE
  5
12F
100
AcDbEntity
  8
PV
  6
CONTINUOUS
 62
         3
100
AcDbLine
 10
-50.0266664
 20
-91.2
 30
0.0
 11
20.4733336
 21
-91.2
 31
0.0
  0
LINE
  5
130
100
AcDbEntity
  8
PV
  6
CONTINUOUS
 62
         3
100
AcDbLine
 10
44.4733336
 20
-181.5
 30
0.0
 11
45.4733336
 21
-179.768
 31
0.0
  0
LINE
  5
131
100
AcDbEntity
  8
PV
  6
CONTINUOUS
 62
         3
100
AcDbLine
 10
21.4733336
 20
-181.5
 30
0.0
 11
20.4733336
 21
-179.768
 31
0.0
  0
LINE
  5
132
100
AcDbEntity
  8
PV
  6
CONTINUOUS
 62
         3
100
AcDbLine
 10
44.4733336
 20
-83.5
 30
0.0
 11
45.4733336
 21
-85.232
 31
0.0
  0
LINE
  5
133
100
AcDbEntity
  8
PV
  6
CONTINUOUS
 62
         3
100
AcDbLine
 10
21.4733336
 20
-83.5
 30
0.0
 11
20.4733336
 21
-85.232
 31
0.0
  0
LINE
  5
134
100
AcDbEntity
  8
PV
  6
CONTINUOUS
 62
         3
100
AcDbLine
 10
21.4733336
 20
-181.5
 30
0.0
 11
44.4733336
 21
-181.5
 31
0.0
  0
LINE
  5
135
100
AcDbEntity
  8
PV
  6
CONTINUOUS
 62
         3
100
AcDbLine
 10
21.4733336
 20
-83.5
 30
0.0
 11
44.4733336
 21
-83.5
 31
0.0
  0
LINE
  5
136
100
AcDbEntity
  8
PV
  6
CONTINUOUS
 62
         3
100
AcDbLine
 10
256.994334
 20
-115.5
 30
0.0
 11
256.994334
 21
-149.5
 31
0.0
  0
LINE
  5
137
100
AcDbEntity
  8
PV
  6
CONTINUOUS
 62
         3
100
AcDbLine
 10
152.973334
 20
-141.5
 30
0.0
 11
232.973334
 21
-141.5
 31
0.0
  0
LINE
  5
138
100
AcDbEntity
  8
PV
  6
CONTINUOUS
 62
         3
100
AcDbLine
 10
152.973334
 20
-123.5
 30
0.0
 11
232.973334
 21
-123.5
 31
0.0
  0
LINE
  5
139
100
AcDbEntity
  8
PV
  6
CONTINUOUS
 62
         3
100
AcDbLine
 10
232.973334
 20
-149.5
 30
0.0
 11
256.994334
 21
-149.5
 31
0.0
  0
LINE
  5
13A
100
AcDbEntity
  8
PV
  6
CONTINUOUS
 62
         3
100
AcDbLine
 10
232.973334
 20
-115.5
 30
0.0
 11
256.994334
 21
-115.5
 31
0.0
  0
LINE
  5
13B
100
AcDbEntity
  8
PV
  6
CONTINUOUS
 62
         3
100
AcDbLine
 10
140.973334
 20
-114.5
 30
0.0
 11
152.973334
 21
-114.5
 31
0.0
  0
LINE
  5
13C
100
AcDbEntity
  8
PV
  6
CONTINUOUS
 62
         3
100
AcDbLine
 10
110.973334
 20
-175.5
 30
0.0
 11
140.973334
 21
-175.5
 31
0.0
  0
LINE
  5
13D
100
AcDbEntity
  8
PV
  6
CONTINUOUS
 62
         3
100
AcDbLine
 10
110.973334
 20
-89.5
 30
0.0
 11
140.973334
 21
-89.5
 31
0.0
  0
LINE
  5
13E
100
AcDbEntity
  8
PV
  6
CONTINUOUS
 62
         3
100
AcDbLine
 10
-80.0266664
 20
-175.5
 30
0.0
 11
-50.0266664
 21
-175.5
 31
0.0
  0
LINE
  5
13F
100
AcDbEntity
  8
PV
  6
CONTINUOUS
 62
         3
100
AcDbLine
 10
-80.0266664
 20
-89.5
 30
0.0
 11
-50.0266664
 21
-89.5
 31
0.0
  0
LINE
  5
140
100
AcDbEntity
  8
PV
  6
CENTER
 62
         3
100
AcDbLine
 10
120.973334
 20
-84.226
 30
0.0
 11
120.973334
 21
-91.986
 31
0.0
  0
LINE
  5
141
100
AcDbEntity
  8
PV
  6
CENTER
 62
         3
100
AcDbLine
 10
-65.0266664
 20
-83.484
 30
0.0
 11
-65.0266664
 21
-95.179
 31
0.0
  0
LINE
  5
142
100
AcDbEntity
  8
PV
  6
CENTER
 62
         3
100
AcDbLine
 10
32.9733336
 20
-124.5
 30
0.0
 11
32.9733336
 21
-140.5
 31
0.0
  0
LINE
  5
143
100
AcDbEntity
  8
PV
  6
CONTINUOUS
 62
         3
100
AcDbLine
 10
-50.0266664
 20
-89.5
 30
0.0
 11
-50.0266664
 21
-175.5
 31
0.0
  0
LINE
  5
144
100
AcDbEntity
  8
PV
  6
CONTINUOUS
 62
         3
100
AcDbLine
 10
232.973334
 20
-115.5
 30
0.0
 11
232.973334
 21
-149.5
 31
0.0
  0
LINE
  5
145
100
AcDbEntity
  8
PV
  6
CONTINUOUS
 62
         3
100
AcDbLine
 10
152.973334
 20
-114.5
 30
0.0
 11
152.973334
 21
-150.5
 31
0.0
  0
LINE
  5
146
100
AcDbEntity
  8
PV
  6
CONTINUOUS
 62
         3
100
AcDbLine
 10
44.4733336
 20
-83.5
 30
0.0
 11
44.4733336
 21
-181.5
 31
0.0
  0
LINE
  5
147
100
AcDbEntity
  8
PV
  6
CONTINUOUS
 62
         3
100
AcDbLine
 10
21.4733336
 20
-83.5
 30
0.0
 11
21.4733336
 21
-181.5
 31
0.0
  0
LINE
  5
148
100
AcDbEntity
  8
PV
  6
CONTINUOUS
 62
         3
100
AcDbLine
 10
45.4733336
 20
-85.232
 30
0.0
 11
45.4733336
 21
-179.768
 31
0.0
  0
LINE
  5
149
100
AcDbEntity
  8
PV
  6
CONTINUOUS
 62
         3
100
AcDbLine
 10
20.4733336
 20
-85.232
 30
0.0
 11
20.4733336
 21
-179.768
 31
0.0
  0
LINE
  5
14A
100
AcDbEntity
  8
PV
  6
CONTINUOUS
 62
         3
100
AcDbLine
 10
110.973334
 20
-89.0
 30
0.0
 11
110.973334
 21
-175.5
 31
0.0
  0
LINE
  5
14B
100
AcDbEntity
  8
PV
  6
CONTINUOUS
 62
         3
100
AcDbLine
 10
140.973334
 20
-89.5
 30
0.0
 11
140.973334
 21
-175.5
 31
0.0
  0
LINE
  5
14C
100
AcDbEntity
  8
PV
  6
CONTINUOUS
 62
         3
100
AcDbLine
 10
-80.0266664
 20
-89.5
 30
0.0
 11
-80.0266664
 21
-175.5
 31
0.0
  0
LINE
  5
14D
100
AcDbEntity
  8
PV
  6
CENTER
 62
         3
100
AcDbLine
 10
-89.2366664
 20
-132.5
 30
0.0
 11
265.272334
 21
-132.5
 31
0.0
  0
MTEXT
  5
14E
100
AcDbEntity
  8
PV
  6
CONTINUOUS
 62
       110
100
AcDbMText
 10
77.5816662799
 20
7.0
 30
0.0
 40
4.0
 41
0.0
 71
         1
 72
         1
  1
\W1.500;\A1;7.1
  0
MTEXT
  5
14F
100
AcDbEntity
  8
PV
  6
CONTINUOUS
 62
       110
100
AcDbMText
 10
69.4051957686
 20
17.0
 30
0.0
 40
4.0
 41
0.0
 71
         1
 72
         1
  1
\W1.235;\A1;186\{19\}
  0
MTEXT
  5
150
100
AcDbEntity
  8
PV
  6
CONTINUOUS
 62
       110
100
AcDbMText
 10
69.4051957729
 20
27.0
 30
0.0
 40
4.0
 41
0.0
 71
         1
 72
         1
  1
\W1.235;\A1;78.5\{8\}
  0
MTEXT
  5
151
100
AcDbEntity
  8
PV
  6
CONTINUOUS
 62
       110
100
AcDbMText
 10
61.3964811868
 20
37.0
 30
0.0
 40
4.0
 41
0.0
 71
         1
 72
         1
  1
\W1.222;\A1;15700\{1600\}
  0
MTEXT
  5
152
100
AcDbEntity
  8
PV
  6
CONTINUOUS
 62
       110
100
AcDbMText
 10
79.47055523
 20
47.0
 30
0.0
 40
4.0
 41
0.0
 71
         1
 72
         1
  1
\W1.333;\A1;10
  0
MTEXT
  5
153
100
AcDbEntity
  8
PV
  6
CONTINUOUS
 62
       110
100
AcDbMText
 10
65.3476238412
 20
57.0
 30
0.0
 40
4.0
 41
0.0
 71
         1
 72
         1
  1
\W1.149;\A1;5880\{600\}
  0
MTEXT
  5
154
100
AcDbEntity
  8
PV
  6
CONTINUOUS
 62
       110
100
AcDbMText
 10
79.3089391437
 20
67.0
 30
0.0
 40
4.0
 41
0.0
 71
         1
 72
         1
  1
\W1.091;\A1;80
  0
MTEXT
  5
155
100
AcDbEntity
  8
PV
  6
CONTINUOUS
 62
       110
100
AcDbMText
 10
73.2483330784
 20
77.0
 30
0.0
 40
4.0
 41
0.0
 71
         1
 72
         1
  1
\W0.833;\A1;０～０．５
  0
MTEXT
  5
156
100
AcDbEntity
  8
PV
  6
CONTINUOUS
 62
       110
100
AcDbMText
 10
65.364275073
 20
87.0
 30
0.0
 40
4.0
 41
0.0
 71
         1
 72
         1
  1
\W1.174;\A1;1226\{125\}
  0
MTEXT
  5
157
100
AcDbEntity
  8
PV
  6
CONTINUOUS
 62
       110
100
AcDbMText
 10
65.2483330784
 20
97.0
 30
0.0
 40
4.0
 41
0.0
 71
         1
 72
         1
  1
\W0.833;\A1;３００～３００００
  0
MTEXT
  5
158
100
AcDbEntity
  8
PV
  6
CONTINUOUS
 62
       110
100
AcDbMText
 10
57.3038886365
 20
107.0
 30
0.0
 40
4.0
 41
0.0
 71
         1
 72
         1
  1
\W1.083;\A1;DP010A080J-TE
  0
MTEXT
  5
159
100
AcDbEntity
  8
PV
  6
CONTINUOUS
 62
       110
100
AcDbMText
 10
2.5816662799
 20
7.0
 30
0.0
 40
4.0
 41
0.0
 71
         1
 72
         1
  1
\W1.500;\A1;7.1
  0
MTEXT
  5
15A
100
AcDbEntity
  8
PV
  6
CONTINUOUS
 62
       110
100
AcDbMText
 10
-5.5948042214
 20
17.0
 30
0.0
 40
4.0
 41
0.0
 71
         1
 72
         1
  1
\W1.235;\A1;186\{19\}
  0
MTEXT
  5
15B
100
AcDbEntity
  8
PV
  6
CONTINUOUS
 62
       110
100
AcDbMText
 10
-5.5948042171
 20
27.0
 30
0.0
 40
4.0
 41
0.0
 71
         1
 72
         1
  1
\W1.235;\A1;78.5\{8\}
  0
MTEXT
  5
15C
100
AcDbEntity
  8
PV
  6
CONTINUOUS
 62
       110
100
AcDbMText
 10
-13.6035188132
 20
37.0
 30
0.0
 40
4.0
 41
0.0
 71
         1
 72
         1
  1
\W1.222;\A1;15700\{1600\}
  0
MTEXT
  5
15D
100
AcDbEntity
  8
PV
  6
CONTINUOUS
 62
       110
100
AcDbMText
 10
4.47055524
 20
47.0
 30
0.0
 40
4.0
 41
0.0
 71
         1
 72
         1
  1
\W1.333;\A1;10
  0
MTEXT
  5
15E
100
AcDbEntity
  8
PV
  6
CONTINUOUS
 62
       110
100
AcDbMText
 10
-9.6523761288
 20
57.0
 30
0.0
 40
4.0
 41
0.0
 71
         1
 72
         1
  1
\W1.149;\A1;5880\{600\}
  0
MTEXT
  5
15F
100
AcDbEntity
  8
PV
  6
CONTINUOUS
 62
       110
100
AcDbMText
 10
4.3089391537
 20
67.0
 30
0.0
 40
4.0
 41
0.0
 71
         1
 72
         1
  1
\W1.091;\A1;80
  0
MTEXT
  5
160
100
AcDbEntity
  8
PV
  6
CONTINUOUS
 62
       110
100
AcDbMText
 10
-5.7516669116
 20
77.0
 30
0.0
 40
4.0
 41
0.0
 71
         1
 72
         1
  1
\W0.833;\A1;０．１～２．５
  0
MTEXT
  5
161
100
AcDbEntity
  8
PV
  6
CONTINUOUS
 62
       110
100
AcDbMText
 10
-9.635724897
 20
87.0
 30
0.0
 40
4.0
 41
0.0
 71
         1
 72
         1
  1
\W1.174;\A1;1226\{125\}
  0
MTEXT
  5
162
100
AcDbEntity
  8
PV
  6
CONTINUOUS
 62
       110
100
AcDbMText
 10
-9.7516668916
 20
97.0
 30
0.0
 40
4.0
 41
0.0
 71
         1
 72
         1
  1
\W0.833;\A1;１００～１００００
  0
MTEXT
  5
163
100
AcDbEntity
  8
PV
  6
CONTINUOUS
 62
       110
100
AcDbMText
 10
-11.6775928514
 20
107.0
 30
0.0
 40
4.0
 41
0.0
 71
         1
 72
         1
  1
\W1.111;\A1;DP010A080J
  0
MTEXT
  5
164
100
AcDbEntity
  8
PV
  6
CONTINUOUS
 62
       110
100
AcDbMText
 10
-84.2666669216
 20
17.0
 30
0.0
 40
4.0
 41
0.0
 71
         1
 72
         1
  1
\W0.833;\A1;ロッド収縮時
  0
MTEXT
  5
165
100
AcDbEntity
  8
PV
  6
CONTINUOUS
 62
       110
100
AcDbMText
 10
-84.2666669216
 20
27.0
 30
0.0
 40
4.0
 41
0.0
 71
         1
 72
         1
  1
\W0.833;\A1;ロッド伸張時
  0
MTEXT
  5
166
100
AcDbEntity
  8
PV
  6
CONTINUOUS
 62
       110
100
AcDbMText
 10
-55.1833336065
 20
17.0
 30
0.0
 40
4.0
 41
0.0
 71
         1
 72
         1
  1
\W1.125;\A1;N\{kgf\}
  0
MTEXT
  5
167
100
AcDbEntity
  8
PV
  6
CONTINUOUS
 62
       110
100
AcDbMText
 10
-59.2666666213
 20
7.0
 30
0.0
 40
4.0
 41
0.0
 71
         1
 72
         1
  1
\A1;kg
  0
MTEXT
  5
168
100
AcDbEntity
  8
PV
  6
CONTINUOUS
 62
       110
100
AcDbMText
 10
-117.2666670216
 20
7.0
 30
0.0
 40
4.0
 41
0.0
 71
         1
 72
         1
  1
\W0.833;\A1;製品質量
  0
MTEXT
  5
169
100
AcDbEntity
  8
PV
  6
CONTINUOUS
 62
       110
100
AcDbMText
 10
-55.1833336065
 20
27.0
 30
0.0
 40
4.0
 41
0.0
 71
         1
 72
         1
  1
\W1.125;\A1;N\{kgf\}
  0
MTEXT
  5
16A
100
AcDbEntity
  8
PV
  6
CONTINUOUS
 62
       110
100
AcDbMText
 10
-55.1833336065
 20
37.0
 30
0.0
 40
4.0
 41
0.0
 71
         1
 72
         1
  1
\W1.125;\A1;N\{kgf\}
  0
MTEXT
  5
16B
100
AcDbEntity
  8
PV
  6
CONTINUOUS
 62
       110
100
AcDbMText
 10
-35.5666667667
 20
47.5
 30
0.0
 40
2.0
 41
0.0
 71
         1
 72
         1
  1
\W1.200;\A1;-1
  0
MTEXT
  5
16C
100
AcDbEntity
  8
PV
  6
CONTINUOUS
 62
       110
100
AcDbMText
 10
-46.8044272242
 20
47.0
 30
0.0
 40
4.0
 41
0.0
 71
         1
 72
         1
  1
\T1.134;\W1.334;\A1;min
  0
MTEXT
  5
16D
100
AcDbEntity
  8
PV
  6
CONTINUOUS
 62
       110
100
AcDbMText
 10
-67.1022222501
 20
54.2000001502
 30
0.0
 40
3.2000000477
 41
0.0
 71
         1
 72
         1
  1
\W0.787;\A1;｛ｋｇｆ・ｍ／　ｍｉｎ｝
  0
MTEXT
  5
16E
100
AcDbEntity
  8
PV
  6
CONTINUOUS
 62
       110
100
AcDbMText
 10
-66.445825428
 20
59.0000001502
 30
0.0
 40
3.2000000477
 41
0.0
 71
         1
 72
         1
  1
\T1.186;\W1.723;\A1;      J/ min
  0
MTEXT
  5
16F
100
AcDbEntity
  8
PV
  6
CONTINUOUS
 62
       110
100
AcDbMText
 10
-39.2666666213
 20
67.0
 30
0.0
 40
4.0
 41
0.0
 71
         1
 72
         1
  1
\A1;mm
  0
MTEXT
  5
170
100
AcDbEntity
  8
PV
  6
CONTINUOUS
 62
       110
100
AcDbMText
 10
-43.5273783729
 20
77.0
 30
0.0
 40
4.0
 41
0.0
 71
         1
 72
         1
  1
\W1.089;\A1;m/ s
  0
MTEXT
  5
171
100
AcDbEntity
  8
PV
  6
CONTINUOUS
 62
       110
100
AcDbMText
 10
-63.2666669216
 20
87.0
 30
0.0
 40
4.0
 41
0.0
 71
         1
 72
         1
  1
\W0.833;\A1;Ｊ｛ｋｇｆ・ｍ｝
  0
MTEXT
  5
172
100
AcDbEntity
  8
PV
  6
CONTINUOUS
 62
       110
100
AcDbMText
 10
-59.1964914948
 20
97.0
 30
0.0
 40
4.0
 41
0.0
 71
         1
 72
         1
  1
\W1.105;\A1;kg\{kgf\}
  0
MTEXT
  5
173
100
AcDbEntity
  8
PV
  6
CONTINUOUS
 62
       110
100
AcDbMText
 10
-117.2666670216
 20
22.0
 30
0.0
 40
4.0
 41
0.0
 71
         1
 72
         1
  1
\W0.833;\A1;復帰バネ設定力
  0
MTEXT
  5
174
100
AcDbEntity
  8
PV
  6
CONTINUOUS
 62
       110
100
AcDbMText
 10
-117.2666670216
 20
37.0
 30
0.0
 40
4.0
 41
0.0
 71
         1
 72
         1
  1
\W0.833;\A1;許容抵抗力
  0
MTEXT
  5
175
100
AcDbEntity
  8
PV
  6
CONTINUOUS
 62
       110
100
AcDbMText
 10
-117.2666670216
 20
47.0
 30
0.0
 40
4.0
 41
0.0
 71
         1
 72
         1
  1
\W0.833;\A1;毎分当りの最高使用頻度
  0
MTEXT
  5
176
100
AcDbEntity
  8
PV
  6
CONTINUOUS
 62
       110
100
AcDbMText
 10
-117.0133330512
 20
54.2000001502
 30
0.0
 40
3.2000000477
 41
0.0
 71
         1
 72
         1
  1
\W0.833;\A1;吸収エネルギ－の最大値
  0
MTEXT
  5
177
100
AcDbEntity
  8
PV
  6
CONTINUOUS
 62
       110
100
AcDbMText
 10
-117.0133330512
 20
59.0000001502
 30
0.0
 40
3.2000000477
 41
0.0
 71
         1
 72
         1
  1
\W0.833;\A1;毎分当りの
  0
MTEXT
  5
178
100
AcDbEntity
  8
PV
  6
CONTINUOUS
 62
       110
100
AcDbMText
 10
-117.2666670216
 20
67.0
 30
0.0
 40
4.0
 41
0.0
 71
         1
 72
         1
  1
\W0.833;\A1;吸収ストロ－ク
  0
MTEXT
  5
179
100
AcDbEntity
  8
PV
  6
CONTINUOUS
 62
       110
100
AcDbMText
 10
-117.2666670216
 20
77.0
 30
0.0
 40
4.0
 41
0.0
 71
         1
 72
         1
  1
\W0.833;\A1;許容衝突速度
  0
MTEXT
  5
17A
100
AcDbEntity
  8
PV
  6
CONTINUOUS
 62
       110
100
AcDbMText
 10
-117.2666670216
 20
87.0
 30
0.0
 40
4.0
 41
0.0
 71
         1
 72
         1
  1
\W0.833;\A1;吸収エネルギ－の最大値
  0
MTEXT
  5
17B
100
AcDbEntity
  8
PV
  6
CONTINUOUS
 62
       110
100
AcDbMText
 10
-117.2666670216
 20
97.0
 30
0.0
 40
4.0
 41
0.0
 71
         1
 72
         1
  1
\W0.833;\A1;衝突物の許容相当質量｛重量｝
  0
MTEXT
  5
17C
100
AcDbEntity
  8
PV
  6
CONTINUOUS
 62
       110
100
AcDbMText
 10
-117.2666670216
 20
107.0
 30
0.0
 40
4.0
 41
0.0
 71
         1
 72
         1
  1
\W0.833;\A1;形番
  0
LINE
  5
17D
100
AcDbEntity
  8
PV
  6
CONTINUOUS
 62
         3
100
AcDbLine
 10
45.0
 20
110.0
 30
0.0
 11
45.0
 21
0.0
 31
0.0
  0
LINE
  5
17E
100
AcDbEntity
  8
PV
  6
CONTINUOUS
 62
         3
100
AcDbLine
 10
120.0
 20
110.0
 30
0.0
 11
120.0
 21
0.0
 31
0.0
  0
LINE
  5
17F
100
AcDbEntity
  8
PV
  6
CONTINUOUS
 62
         3
100
AcDbLine
 10
-87.0
 20
30.0
 30
0.0
 11
-87.0
 21
10.0
 31
0.0
  0
LINE
  5
180
100
AcDbEntity
  8
PV
  6
CONTINUOUS
 62
         3
100
AcDbLine
 10
-120.0
 20
110.0
 30
0.0
 11
120.0
 21
110.0
 31
0.0
  0
LINE
  5
181
100
AcDbEntity
  8
PV
  6
CONTINUOUS
 62
         3
100
AcDbLine
 10
-120.0
 20
100.0
 30
0.0
 11
120.0
 21
100.0
 31
0.0
  0
LINE
  5
182
100
AcDbEntity
  8
PV
  6
CONTINUOUS
 62
         3
100
AcDbLine
 10
-120.0
 20
90.0
 30
0.0
 11
120.0
 21
90.0
 31
0.0
  0
LINE
  5
183
100
AcDbEntity
  8
PV
  6
CONTINUOUS
 62
         3
100
AcDbLine
 10
-120.0
 20
80.0
 30
0.0
 11
120.0
 21
80.0
 31
0.0
  0
LINE
  5
184
100
AcDbEntity
  8
PV
  6
CONTINUOUS
 62
         3
100
AcDbLine
 10
-120.0
 20
70.0
 30
0.0
 11
120.0
 21
70.0
 31
0.0
  0
LINE
  5
185
100
AcDbEntity
  8
PV
  6
CONTINUOUS
 62
         3
100
AcDbLine
 10
-120.0
 20
60.0
 30
0.0
 11
120.0
 21
60.0
 31
0.0
  0
LINE
  5
186
100
AcDbEntity
  8
PV
  6
CONTINUOUS
 62
         3
100
AcDbLine
 10
-120.0
 20
50.0
 30
0.0
 11
120.0
 21
50.0
 31
0.0
  0
LINE
  5
187
100
AcDbEntity
  8
PV
  6
CONTINUOUS
 62
         3
100
AcDbLine
 10
-120.0
 20
40.0
 30
0.0
 11
120.0
 21
40.0
 31
0.0
  0
LINE
  5
188
100
AcDbEntity
  8
PV
  6
CONTINUOUS
 62
         3
100
AcDbLine
 10
-120.0
 20
30.0
 30
0.0
 11
120.0
 21
30.0
 31
0.0
  0
LINE
  5
189
100
AcDbEntity
  8
PV
  6
CONTINUOUS
 62
         3
100
AcDbLine
 10
-87.0
 20
20.0
 30
0.0
 11
120.0
 21
20.0
 31
0.0
  0
LINE
  5
18A
100
AcDbEntity
  8
PV
  6
CONTINUOUS
 62
         3
100
AcDbLine
 10
-120.0
 20
10.0
 30
0.0
 11
120.0
 21
10.0
 31
0.0
  0
LINE
  5
18B
100
AcDbEntity
  8
PV
  6
CONTINUOUS
 62
         3
100
AcDbLine
 10
-30.0
 20
110.0
 30
0.0
 11
-30.0
 21
0.0
 31
0.0
  0
LINE
  5
18C
100
AcDbEntity
  8
PV
  6
CONTINUOUS
 62
         3
100
AcDbLine
 10
-120.0
 20
110.0
 30
0.0
 11
-120.0
 21
0.0
 31
0.0
  0
LINE
  5
18D
100
AcDbEntity
  8
PV
  6
CONTINUOUS
 62
         3
100
AcDbLine
 10
-120.0
 20
0.0
 30
0.0
 11
120.0
 21
0.0
 31
0.0
  0
DIMENSION
  5
19B
100
AcDbEntity
  8
PV
  6
CONTINUOUS
 62
       110
100
AcDbDimension
  2
*D2
 10
588.790632
 20
-136.5
 30
0.0
 11
588.790632
 21
-132.2000000477
 31
0.0
 70
       128
  1
\A1;\U+2205<>
  3
MXDIMSTYLE
100
AcDbAlignedDimension
 13
571.2733342552
 23
-128.5
 33
0.0
 14
571.2733342552
 24
-136.5
 34
0.0
 50
90.0
100
AcDbRotatedDimension
1001
ACAD
1000
DSTYLE
1002
{
1070
         6
1000
SOLID
1070
         7
1000
SOLID
1070
        41
1040
1.0000000298
1070
        42
1040
0.0625
1070
       271
1070
         4
1070
       284
1070
         8
1070
       340
1005
195
1070
       343
1005
0
1070
       344
1005
0
1002
}
  0
DIMENSION
  5
1AB
100
AcDbEntity
  8
PV
  6
CONTINUOUS
 62
       110
100
AcDbDimension
  2
*D3
 10
421.273334
 20
-152.799908
 30
0.0
 11
496.5733370518
 21
-152.799908
 31
0.0
 70
       128
  1
\A1;<>
  3
MXDIMSTYLE
100
AcDbAlignedDimension
 13
571.273334
 23
-136.5000003157
 33
0.0
 14
421.273334
 24
-136.5000003157
 34
0.0
100
AcDbRotatedDimension
1001
ACAD
1000
DSTYLE
1002
{
1070
         6
1000
SOLID
1070
         7
1000
SOLID
1070
        41
1040
1.0000000298
1070
        42
1040
0.0625
1070
       271
1070
         4
1070
       284
1070
         8
1070
       340
1005
1A5
1070
       343
1005
0
1070
       344
1005
0
1002
}
  0
DIMENSION
  5
1BB
100
AcDbEntity
  8
PV
  6
CONTINUOUS
 62
       110
100
AcDbDimension
  2
*D4
 10
379.973334
 20
-183.915024
 30
0.0
 11
475.9233355259
 21
-183.915024
 31
0.0
 70
       128
  1
\A1;<>
  3
MXDIMSTYLE
100
AcDbAlignedDimension
 13
571.273334
 23
-136.5000001963
 33
0.0
 14
379.973334
 24
-183.915024
 34
0.0
100
AcDbRotatedDimension
1001
ACAD
1000
DSTYLE
1002
{
1070
         6
1000
SOLID
1070
         7
1000
SOLID
1070
        41
1040
1.0000000298
1070
        42
1040
0.0625
1070
        44
1040
1.34
1070
       271
1070
         4
1070
       284
1070
         8
1070
       340
1005
1B5
1070
       343
1005
0
1070
       344
1005
0
1002
}
  0
DIMENSION
  5
1CA
100
AcDbEntity
  8
PV
  6
CONTINUOUS
 62
       110
100
AcDbDimension
  2
*D5
 10
259.973334
 20
-62.4258993
 30
0.0
 11
200.7733332371
 21
-62.4258993
 31
0.0
 70
       128
  1
\A1;<>
  3
MXDIMSTYLE
100
AcDbAlignedDimension
 13
140.973334
 23
-89.4999997944
 33
0.0
 14
259.973334
 24
-132.5000036091
 34
0.0
100
AcDbRotatedDimension
1001
ACAD
1000
DSTYLE
1002
{
1070
         6
1000
SOLID
1070
         7
1000
SOLID
1070
        41
1040
1.0000000298
1070
        42
1040
0.0625
1070
       271
1070
         4
1070
       284
1070
         8
1070
       340
1005
1B5
1070
       343
1005
0
1070
       344
1005
0
1002
}
  0
DIMENSION
  5
1DA
100
AcDbEntity
  8
PV
  6
CONTINUOUS
 62
       110
100
AcDbDimension
  2
*D6
 10
140.973334
 20
-62.4258993
 30
0.0
 11
30.7733366518
 21
-62.4258993
 31
0.0
 70
       128
  1
\A1;<>
  3
MXDIMSTYLE
100
AcDbAlignedDimension
 13
-80.0266664
 23
-89.4999997944
 33
0.0
 14
140.973334
 24
-89.4999997944
 34
0.0
100
AcDbRotatedDimension
1001
ACAD
1000
DSTYLE
1002
{
1070
         6
1000
SOLID
1070
         7
1000
SOLID
1070
        41
1040
1.0000000298
1070
        42
1040
0.0625
1070
       271
1070
         4
1070
       284
1070
         8
1070
       340
1005
1D4
1070
       343
1005
0
1070
       344
1005
0
1002
}
  0
DIMENSION
  5
1E9
100
AcDbEntity
  8
PV
  6
CONTINUOUS
 62
       110
100
AcDbDimension
  2
*D7
 10
282.863294
 20
-149.5
 30
0.0
 11
282.863294
 21
-132.2000007629
 31
0.0
 70
       128
  1
\A1;\U+2205<>
  3
MXDIMSTYLE
100
AcDbAlignedDimension
 13
256.9943326658
 23
-115.5
 33
0.0
 14
256.9943326658
 24
-149.5
 34
0.0
 50
90.0
100
AcDbRotatedDimension
1001
ACAD
1000
DSTYLE
1002
{
1070
         6
1000
SOLID
1070
         7
1000
SOLID
1070
        41
1040
1.0000000298
1070
        42
1040
0.0625
1070
       271
1070
         4
1070
       284
1070
         8
1070
       340
1005
195
1070
       343
1005
0
1070
       344
1005
0
1002
}
  0
DIMENSION
  5
1F8
100
AcDbEntity
  8
PV
  6
CONTINUOUS
 62
       110
100
AcDbDimension
  2
*D8
 10
299.425556
 20
-177.5
 30
0.0
 11
299.425556
 21
-132.2000007629
 31
0.0
 70
       128
  1
\A1;\U+2205<>
  3
MXDIMSTYLE
100
AcDbAlignedDimension
 13
238.5803335269
 23
-87.5
 33
0.0
 14
238.5803335269
 24
-177.5
 34
0.0
 50
90.0
100
AcDbRotatedDimension
1001
ACAD
1000
DSTYLE
1002
{
1070
         6
1000
SOLID
1070
         7
1000
SOLID
1070
        41
1040
1.0000000298
1070
        42
1040
0.0625
1070
       271
1070
         4
1070
       284
1070
         8
1070
       343
1005
0
1070
       344
1005
0
1002
}
  0
DIMENSION
  5
207
100
AcDbEntity
  8
PV
  6
CONTINUOUS
 62
       110
100
AcDbDimension
  2
*D9
 10
-102.029271
 20
-89.5
 30
0.0
 11
-102.029271
 21
-132.2000007629
 31
0.0
 70
       128
  1
\A1;\U+2205<>
  3
MXDIMSTYLE
100
AcDbAlignedDimension
 13
-80.0266655618
 23
-175.5
 33
0.0
 14
-80.0266655618
 24
-89.5
 34
0.0
 50
90.0
100
AcDbRotatedDimension
1001
ACAD
1000
DSTYLE
1002
{
1070
         6
1000
SOLID
1070
         7
1000
SOLID
1070
        41
1040
1.0000000298
1070
        42
1040
0.0625
1070
       271
1070
         4
1070
       284
1070
         8
1070
       340
1005
195
1070
       343
1005
0
1070
       344
1005
0
1002
}
  0
ENDSEC
  0
SECTION
  2
OBJECTS
  0
DICTIONARY
  5
19
100
AcDbDictionary
  3
ACAD_GROUP
350
1A
  3
ACAD_MLINESTYLE
350
1B
  0
DICTIONARY
  5
1A
102
{ACAD_REACTORS
330
19
102
}
100
AcDbDictionary
  0
DICTIONARY
  5
1B
102
{ACAD_REACTORS
330
19
102
}
100
AcDbDictionary
  3
STANDARD
350
1C
  0
MLINESTYLE
  5
1C
102
{ACAD_REACTORS
330
1B
102
}
100
AcDbMlineStyle
  2
Standard
 70
         0
  3

 62
         0
 51
90.0
 52
90.0
 71
         2
 49
0.5
 62
       256
  6
ByLayer
 49
-0.5
 62
       256
  6
ByLayer
  0
ENDSEC
  0
EOF
