  0
SECTION
  2
HEADER
  9
$ACADVER
  1
AC1014
  9
$ACADMAINTVER
 70
         0
  9
$DWGCODEPAGE
  3
ANSI_932
  9
$INSBASE
 10
0.0
 20
0.0
 30
0.0
  9
$EXTMIN
 10
-354.86764477
 20
-335.72642
 30
0.0
  9
$EXTMAX
 10
286.675504
 20
110.0
 30
0.0
  9
$LIMMIN
 10
-354.86764477
 20
-335.72642
  9
$LIMMAX
 10
286.675504
 20
110.0
  9
$ORTHOMODE
 70
         0
  9
$REGENMODE
 70
         1
  9
$FILLMODE
 70
         1
  9
$QTEXTMODE
 70
         0
  9
$MIRRTEXT
 70
         1
  9
$DRAGMODE
 70
         2
  9
$LTSCALE
 40
1.0
  9
$OSMODE
 70
         0
  9
$ATTMODE
 70
         1
  9
$TEXTSIZE
 40
3.2000000477
  9
$TRACEWID
 40
0.05
  9
$TEXTSTYLE
  7
MX_NOTE_STANDARD
  9
$CLAYER
  8
0
  9
$CELTYPE
  6
CONTINUOUS
  9
$CECOLOR
 62
       256
  9
$CELTSCALE
 40
1.0
  9
$DELOBJ
 70
         1
  9
$DISPSILH
 70
         0
  9
$DIMSCALE
 40
1.0
  9
$DIMASZ
 40
2.5
  9
$DIMEXO
 40
0.0
  9
$DIMDLI
 40
3.75
  9
$DIMRND
 40
0.0
  9
$DIMDLE
 40
0.0
  9
$DIMEXE
 40
2.5
  9
$DIMTP
 40
0.0
  9
$DIMTM
 40
0.0
  9
$DIMTXT
 40
3.2000000477
  9
$DIMCEN
 40
2.5
  9
$DIMTSZ
 40
0.0
  9
$DIMTOL
 70
         0
  9
$DIMLIM
 70
         0
  9
$DIMTIH
 70
         0
  9
$DIMTOH
 70
         0
  9
$DIMSE1
 70
         0
  9
$DIMSE2
 70
         0
  9
$DIMTAD
 70
         1
  9
$DIMZIN
 70
         8
  9
$DIMBLK
  1

  9
$DIMASO
 70
         1
  9
$DIMSHO
 70
         1
  9
$DIMPOST
  1

  9
$DIMAPOST
  1

  9
$DIMALT
 70
         0
  9
$DIMALTD
 70
         4
  9
$DIMALTF
 40
0.0393700787
  9
$DIMLFAC
 40
1.0
  9
$DIMTOFL
 70
         1
  9
$DIMTVP
 40
0.0
  9
$DIMTIX
 70
         0
  9
$DIMSOXD
 70
         0
  9
$DIMSAH
 70
         1
  9
$DIMBLK1
  1
_OPEN30
  9
$DIMBLK2
  1
_OPEN30
  9
$DIMSTYLE
  2
MXDIMSTYLE
  9
$DIMCLRD
 70
         0
  9
$DIMCLRE
 70
         0
  9
$DIMCLRT
 70
         0
  9
$DIMTFAC
 40
1.0
  9
$DIMGAP
 40
1.0
  9
$DIMJUST
 70
         0
  9
$DIMSD1
 70
         0
  9
$DIMSD2
 70
         0
  9
$DIMTOLJ
 70
         0
  9
$DIMTZIN
 70
         0
  9
$DIMALTZ
 70
         0
  9
$DIMALTTZ
 70
         0
  9
$DIMFIT
 70
         3
  9
$DIMUPT
 70
         0
  9
$DIMUNIT
 70
         2
  9
$DIMDEC
 70
         2
  9
$DIMTDEC
 70
         2
  9
$DIMALTU
 70
         2
  9
$DIMALTTD
 70
         4
  9
$DIMTXSTY
  7
MX_NOTE_STANDARD
  9
$DIMAUNIT
 70
         0
  9
$LUNITS
 70
         2
  9
$LUPREC
 70
         4
  9
$SKETCHINC
 40
0.1
  9
$FILLETRAD
 40
0.0
  9
$AUNITS
 70
         0
  9
$AUPREC
 70
         0
  9
$MENU
  1
acad
  9
$ELEVATION
 40
0.0
  9
$PELEVATION
 40
0.0
  9
$THICKNESS
 40
0.0
  9
$LIMCHECK
 70
         0
  9
$BLIPMODE
 70
         1
  9
$CHAMFERA
 40
0.0
  9
$CHAMFERB
 40
0.0
  9
$CHAMFERC
 40
0.0
  9
$CHAMFERD
 40
0.0
  9
$SKPOLY
 70
         0
  9
$TDCREATE
 40
2456603.443425926
  9
$TDUPDATE
 40
2456603.443425926
  9
$TDINDWG
 40
0.0000000000
  9
$TDUSRTIMER
 40
0.0000000000
  9
$USRTIMER
 70
         1
  9
$ANGBASE
 50
0.0
  9
$ANGDIR
 70
         0
  9
$PDMODE
 70
         0
  9
$PDSIZE
 40
0.0
  9
$PLINEWID
 40
0.0
  9
$COORDS
 70
         1
  9
$SPLFRAME
 70
         0
  9
$SPLINETYPE
 70
         6
  9
$SPLINESEGS
 70
         8
  9
$ATTDIA
 70
         0
  9
$ATTREQ
 70
         1
  9
$HANDLING
 70
         1
  9
$HANDSEED
  5
267
  9
$SURFTAB1
 70
         6
  9
$SURFTAB2
 70
         6
  9
$SURFTYPE
 70
         6
  9
$SURFU
 70
         6
  9
$SURFV
 70
         6
  9
$UCSNAME
  2

  9
$UCSORG
 10
0.0
 20
0.0
 30
0.0
  9
$UCSXDIR
 10
1.0
 20
0.0
 30
0.0
  9
$UCSYDIR
 10
0.0
 20
1.0
 30
0.0
  9
$PUCSNAME
  2

  9
$PUCSORG
 10
0.0
 20
0.0
 30
0.0
  9
$PUCSXDIR
 10
1.0
 20
0.0
 30
0.0
  9
$PUCSYDIR
 10
0.0
 20
1.0
 30
0.0
  9
$USERI1
 70
         0
  9
$USERI2
 70
         0
  9
$USERI3
 70
         0
  9
$USERI4
 70
         0
  9
$USERI5
 70
         0
  9
$USERR1
 40
0.0
  9
$USERR2
 40
0.0
  9
$USERR3
 40
0.0
  9
$USERR4
 40
0.0
  9
$USERR5
 40
0.0
  9
$WORLDVIEW
 70
         1
  9
$SHADEDGE
 70
         3
  9
$SHADEDIF
 70
        70
  9
$TILEMODE
 70
         1
  9
$MAXACTVP
 70
        16
  9
$PINSBASE
 10
0.0
 20
0.0
 30
0.0
  9
$PLIMCHECK
 70
         0
  9
$PEXTMIN
 10
1.0000000000E+20
 20
1.0000000000E+20
 30
1.0000000000E+20
  9
$PEXTMAX
 10
-1.0000000000E+20
 20
-1.0000000000E+20
 30
-1.0000000000E+20
  9
$PLIMMIN
 10
0.0
 20
0.0
  9
$PLIMMAX
 10
12.0
 20
9.0
  9
$UNITMODE
 70
         0
  9
$VISRETAIN
 70
         0
  9
$PLINEGEN
 70
         1
  9
$PSLTSCALE
 70
         0
  9
$TREEDEPTH
 70
      3020
  9
$PICKSTYLE
 70
         1
  9
$CMLSTYLE
  2
Standard
  9
$CMLJUST
 70
         0
  9
$CMLSCALE
 40
1.0
  9
$PROXYGRAPHICS
 70
         0
  9
$MEASUREMENT
 70
         1
  0
ENDSEC
  0
SECTION
  2
CLASSES
  0
CLASS
  1
LWPOLYLINE
  2
AcDbPolyline
  3
"AutoCAD"
 90
        0
280
         0
281
         1
  0
CLASS
  1
IMAGE
  2
AcDbRasterImage
  3
ISM
 90
      127
280
         0
281
         1
  0
CLASS
  1
OLE2FRAME
  2
AcDbOle2Frame
  3
""
 90
        0
280
         0
281
         1
  0
CLASS
  1
HATCH
  2
AcDbHatch
  3
"ACAD_SEDONA"
 90
        0
280
         0
281
         1
  0
CLASS
  1
DICTIONARYVAR
  2
AcDbDictionaryVar
  3
"AutoCAD"
 90
        0
280
         0
281
         0
  0
CLASS
  1
RASTERVARIABLES
  2
AcDbRasterVariables
  3
ISM
 90
        0
280
         0
281
         0
  0
CLASS
  1
IMAGEDEF
  2
AcDbRasterImageDef
  3
ISM
 90
        0
280
         0
281
         0
  0
CLASS
  1
IMAGEDEF_REACTOR
  2
AcDbRasterImageDefReactor
  3
ISM
 90
        1
280
         0
281
         0
  0
CLASS
  1
IDBUFFER
  2
AcDbIdBuffer
  3
"Acad"
 90
        0
280
         0
281
         0
  0
CLASS
  1
SPATIAL_FILTER
  2
AcDbSpatialFilter
  3
"Acad"
 90
        0
280
         0
281
         0
  0
CLASS
  1
XRECORD
  2
AcDbXrecord
  3
"<Built In>"
 90
        0
280
         0
281
         0
  0
CLASS
  1
SORTENTSTABLE
  2
AcDbSortentsTable
  3
"AutoCAD"
 90
        0
280
         0
281
         0
  0
CLASS
  1
LAYER_INDEX
  2
AcDbLayerIndex
  3
"Acad"
 90
        0
280
         0
281
         0
  0
CLASS
  1
SPATIAL_INDEX
  2
AcDbSpatialIndex
  3
"Acad"
 90
        0
280
         0
281
         0
  0
CLASS
  1
OBJECT_PTR
  2
CAseDLPNTableRecord
  3
"ASE-LPNTableRecord"
 90
        1
280
         0
281
         0
  0
CLASS
  1
LAYOUT
  2
AcDbLayout
  3
"AutoCAD 2000"
 90
        0
280
         0
281
         0
  0
CLASS
  1
PLOTSETTINGS
  2
AcDbPlotSettings
  3
"AutoCAD 2000"
 90
        0
280
         0
281
         0
  0
CLASS
  1
ACDBDICTIONARYWDFLT
  2
AcDbDictionaryWithDefault
  3
"AutoCAD 2000"
 90
        0
280
         0
281
         0
  0
CLASS
  1
ACDBPLACEHOLDER
  2
AcDbPlaceHolder
  3
"AutoCAD 2000"
 90
        0
280
         0
281
         0
  0
ENDSEC
  0
SECTION
  2
TABLES
  0
TABLE
  2
VPORT
  5
7
100
AcDbSymbolTable
 70
         1
  0
VPORT
  5
15
100
AcDbSymbolTableRecord
100
AcDbViewportTableRecord
  2
*ACTIVE
 70
         0
 10
0.0
 20
0.0
 11
1.0
 21
1.0
 12
-34.096070385
 22
-112.86321
 13
0.0
 23
0.0
 14
1.0
 24
1.0
 15
0.0
 25
0.0
 16
0.0
 26
0.0
 36
1.0
 17
0.0
 27
0.0
 37
0.0
 40
450.1836842
 41
1.7320508076
 42
50.0
 43
0.0
 44
0.0
 50
0.0
 51
0.0
 71
         0
 72
       100
 73
         1
 74
         1
 75
         0
 76
         0
 77
         0
 78
         0
  0
ENDTAB
  0
TABLE
  2
LTYPE
  5
4
100
AcDbSymbolTable
 70
         6
  0
LTYPE
  5
11
100
AcDbSymbolTableRecord
100
AcDbLinetypeTableRecord
  2
BYBLOCK
 70
        64
  3

 72
        65
 73
         0
 40
0.0
  0
LTYPE
  5
12
100
AcDbSymbolTableRecord
100
AcDbLinetypeTableRecord
  2
BYLAYER
 70
        64
  3

 72
        65
 73
         0
 40
0.0
  0
LTYPE
  5
13
100
AcDbSymbolTableRecord
100
AcDbLinetypeTableRecord
  2
CONTINUOUS
 70
        64
  3
Solid line
 72
        65
 73
         0
 40
0.0
  0
LTYPE
  5
75
100
AcDbSymbolTableRecord
100
AcDbLinetypeTableRecord
  2
CENTER
 70
        64
  3
Center ____ _ ____ _ ____ _ ____ _ ____ _ ____
 72
        65
 73
         4
 40
50.8
 49
31.75
 74
         0
 49
-6.35
 74
         0
 49
6.35
 74
         0
 49
-6.35
 74
         0
  0
LTYPE
  5
CA
100
AcDbSymbolTableRecord
100
AcDbLinetypeTableRecord
  2
DASHED
 70
        64
  3
Dashed __ __ __ __ __ __ __ __ __ __ __ __ __ _
 72
        65
 73
         2
 40
19.05
 49
12.7
 74
         0
 49
-6.35
 74
         0
  0
LTYPE
  5
10A
100
AcDbSymbolTableRecord
100
AcDbLinetypeTableRecord
  2
PHANTOM
 70
        64
  3
Phantom ______  __  __  ______  __  __  ______
 72
        65
 73
         6
 40
63.5
 49
31.75
 74
         0
 49
-6.35
 74
         0
 49
6.35
 74
         0
 49
-6.35
 74
         0
 49
6.35
 74
         0
 49
-6.35
 74
         0
  0
ENDTAB
  0
TABLE
  2
LAYER
  5
2
100
AcDbSymbolTable
 70
         3
  0
LAYER
  5
14
100
AcDbSymbolTableRecord
100
AcDbLayerTableRecord
  2
0
 70
         0
 62
         7
  6
CONTINUOUS
  0
LAYER
  5
1D
100
AcDbSymbolTableRecord
100
AcDbLayerTableRecord
  2
PV
 70
         0
 62
         3
  6
CONTINUOUS
  0
LAYER
  5
1E
100
AcDbSymbolTableRecord
100
AcDbLayerTableRecord
  2
DEFPOINTS
 70
         0
 62
         7
  6
CONTINUOUS
  0
ENDTAB
  0
TABLE
  2
STYLE
  5
3
100
AcDbSymbolTable
 70
         8
  0
STYLE
  5
17
100
AcDbSymbolTableRecord
100
AcDbTextStyleTableRecord
  2
MX_NOTE_STANDARD
 70
         0
 40
0.0
 41
1.0
 50
0.0
 71
         0
 42
3.2000000477
  3
txt.shx
  4
extfont.shx
  0
STYLE
  5
167
100
AcDbSymbolTableRecord
100
AcDbTextStyleTableRecord
  2
MX_DIMTXSTY_2
 70
         0
 40
0.0
 41
1.2
 50
0.0
 71
         0
 42
3.2000000477
  3
txt.shx
  4
extfont.shx
  0
STYLE
  5
186
100
AcDbSymbolTableRecord
100
AcDbTextStyleTableRecord
  2
MX_DIMTXSTY_3
 70
         0
 40
0.0
 41
1.05
 50
0.0
 71
         0
 42
3.2000000477
  3
txt.shx
  4
extfont.shx
  0
STYLE
  5
1F4
100
AcDbSymbolTableRecord
100
AcDbTextStyleTableRecord
  2
MX_DIMTXSTY_4
 70
         0
 40
0.0
 41
1.4
 50
0.0
 71
         0
 42
3.2000000477
  3
txt.shx
  4
extfont.shx
  0
STYLE
  5
213
100
AcDbSymbolTableRecord
100
AcDbTextStyleTableRecord
  2
MX_DIMTXSTY_5
 70
         0
 40
0.0
 41
1.1
 50
0.0
 71
         0
 42
3.2000000477
  3
txt.shx
  4
extfont.shx
  0
STYLE
  5
232
100
AcDbSymbolTableRecord
100
AcDbTextStyleTableRecord
  2
MX_DIMTXSTY_6
 70
         0
 40
0.0
 41
1.3
 50
0.0
 71
         0
 42
3.2000000477
  3
txt.shx
  4
extfont.shx
  0
STYLE
  5
242
100
AcDbSymbolTableRecord
100
AcDbTextStyleTableRecord
  2
MX_DIMTXSTY_7
 70
         0
 40
0.0
 41
1.15
 50
0.0
 71
         0
 42
3.2000000477
  3
txt.shx
  4
extfont.shx
  0
STYLE
  5
251
100
AcDbSymbolTableRecord
100
AcDbTextStyleTableRecord
  2
MX_DIMTXSTY_8
 70
         0
 40
0.0
 41
0.85
 50
0.0
 71
         0
 42
3.2000000477
  3
txt.shx
  4
extfont.shx
  0
ENDTAB
  0
TABLE
  2
VIEW
  5
5
100
AcDbSymbolTable
 70
         0
  0
ENDTAB
  0
TABLE
  2
UCS
  5
6
100
AcDbSymbolTable
 70
         0
  0
ENDTAB
  0
TABLE
  2
APPID
  5
8
100
AcDbSymbolTable
 70
         1
  0
APPID
  5
16
100
AcDbSymbolTableRecord
100
AcDbRegAppTableRecord
  2
ACAD
 70
         0
  0
ENDTAB
  0
TABLE
  2
DIMSTYLE
  5
9
100
AcDbSymbolTable
 70
         1
  0
DIMSTYLE
105
18
100
AcDbSymbolTableRecord
100
AcDbDimStyleTableRecord
  2
MXDIMSTYLE
 70
         0
  3

  4

  5

  6
_OPEN30
  7
_OPEN30
 40
1.0
 41
2.5
 42
0.0
 43
3.75
 44
2.5
 45
0.0
 46
0.0
 47
0.0
 48
0.0
 71
         0
 72
         0
 73
         0
 74
         0
 75
         0
 76
         0
 77
         1
 78
         8
140
3.2000000477
141
2.5
142
0.0
143
0.0393700787
144
1.0
145
0.0
146
1.0
147
1.0
170
         0
171
         4
172
         1
173
         1
174
         0
175
         0
176
         0
177
         0
178
         0
270
         2
271
         2
272
         2
273
         2
274
         4
275
         0
280
         0
281
         0
282
         0
283
         0
284
         0
285
         0
286
         0
287
         3
288
         0
340
17
  0
ENDTAB
  0
TABLE
  2
BLOCK_RECORD
  5
1
100
AcDbSymbolTable
 70
        20
  0
BLOCK_RECORD
  5
A
100
AcDbSymbolTableRecord
100
AcDbBlockTableRecord
  2
*MODEL_SPACE
  0
BLOCK_RECORD
  5
B
100
AcDbSymbolTableRecord
100
AcDbBlockTableRecord
  2
*PAPER_SPACE
  0
BLOCK_RECORD
  5
1F
100
AcDbSymbolTableRecord
100
AcDbBlockTableRecord
  2
ARROW
  0
BLOCK_RECORD
  5
20
100
AcDbSymbolTableRecord
100
AcDbBlockTableRecord
  2
_OPEN30
  0
BLOCK_RECORD
  5
14F
100
AcDbSymbolTableRecord
100
AcDbBlockTableRecord
  2
*D2
  0
BLOCK_RECORD
  5
15E
100
AcDbSymbolTableRecord
100
AcDbBlockTableRecord
  2
*D3
  0
BLOCK_RECORD
  5
16E
100
AcDbSymbolTableRecord
100
AcDbBlockTableRecord
  2
*D4
  0
BLOCK_RECORD
  5
17D
100
AcDbSymbolTableRecord
100
AcDbBlockTableRecord
  2
*D5
  0
BLOCK_RECORD
  5
18D
100
AcDbSymbolTableRecord
100
AcDbBlockTableRecord
  2
*D6
  0
BLOCK_RECORD
  5
1A0
100
AcDbSymbolTableRecord
100
AcDbBlockTableRecord
  2
*D7
  0
BLOCK_RECORD
  5
1AF
100
AcDbSymbolTableRecord
100
AcDbBlockTableRecord
  2
*D8
  0
BLOCK_RECORD
  5
1BE
100
AcDbSymbolTableRecord
100
AcDbBlockTableRecord
  2
*D9
  0
BLOCK_RECORD
  5
1CD
100
AcDbSymbolTableRecord
100
AcDbBlockTableRecord
  2
*D10
  0
BLOCK_RECORD
  5
1DC
100
AcDbSymbolTableRecord
100
AcDbBlockTableRecord
  2
*D11
  0
BLOCK_RECORD
  5
1EB
100
AcDbSymbolTableRecord
100
AcDbBlockTableRecord
  2
*D12
  0
BLOCK_RECORD
  5
1FB
100
AcDbSymbolTableRecord
100
AcDbBlockTableRecord
  2
*D13
  0
BLOCK_RECORD
  5
20A
100
AcDbSymbolTableRecord
100
AcDbBlockTableRecord
  2
*D14
  0
BLOCK_RECORD
  5
21A
100
AcDbSymbolTableRecord
100
AcDbBlockTableRecord
  2
*D15
  0
BLOCK_RECORD
  5
229
100
AcDbSymbolTableRecord
100
AcDbBlockTableRecord
  2
*D16
  0
BLOCK_RECORD
  5
239
100
AcDbSymbolTableRecord
100
AcDbBlockTableRecord
  2
*D17
  0
BLOCK_RECORD
  5
249
100
AcDbSymbolTableRecord
100
AcDbBlockTableRecord
  2
*D18
  0
BLOCK_RECORD
  5
258
100
AcDbSymbolTableRecord
100
AcDbBlockTableRecord
  2
*D19
  0
ENDTAB
  0
ENDSEC
  0
SECTION
  2
BLOCKS
  0
BLOCK
  5
D
100
AcDbEntity
  8
0
100
AcDbBlockBegin
  2
*MODEL_SPACE
 70
         0
 10
0.0
 20
0.0
 30
0.0
  3
*MODEL_SPACE
  1

  0
ENDBLK
  5
E
100
AcDbEntity
  8
0
100
AcDbBlockEnd
  0
BLOCK
  5
F
100
AcDbEntity
 67
         1
  8
0
100
AcDbBlockBegin
  2
*PAPER_SPACE
 70
         0
 10
0.0
 20
0.0
 30
0.0
  3
*PAPER_SPACE
  1

  0
ENDBLK
  5
10
100
AcDbEntity
 67
         1
  8
0
100
AcDbBlockEnd
  0
BLOCK
  5
26
100
AcDbEntity
  8
0
100
AcDbBlockBegin
  2
ARROW
 70
         0
 10
0.0
 20
0.0
 30
0.0
  3
ARROW
  1

  0
LWPOLYLINE
  5
27
100
AcDbEntity
  8
0
  6
CONTINUOUS
 62
       254
100
AcDbPolyline
 90
        3
 70
         0
 10
2.99927979
 20
0.803654597
 10
0.0
 20
0.0
 10
2.99927979
 20
-0.803654597
  0
ENDBLK
  5
28
100
AcDbEntity
  8
0
100
AcDbBlockEnd
  0
BLOCK
  5
21
100
AcDbEntity
  8
0
  6
ByBlock
 62
         0
100
AcDbBlockBegin
  2
_OPEN30
 70
         2
 10
0.0
 20
0.0
 30
0.0
  3
_OPEN30
  1

  0
LINE
  5
22
100
AcDbEntity
  8
0
  6
ByBlock
 62
         0
100
AcDbLine
 10
-1.0
 20
0.267949
 30
0.0
 11
0.0
 21
0.0
 31
0.0
  0
LINE
  5
23
100
AcDbEntity
  8
0
  6
ByBlock
 62
         0
100
AcDbLine
 10
0.0
 20
0.0
 30
0.0
 11
-1.0
 21
-0.267949
 31
0.0
  0
LINE
  5
24
100
AcDbEntity
  8
0
  6
ByBlock
 62
         0
100
AcDbLine
 10
0.0
 20
0.0
 30
0.0
 11
-1.0
 21
0.0
 31
0.0
  0
ENDBLK
  5
25
100
AcDbEntity
  8
0
  6
ByBlock
 62
         0
100
AcDbBlockEnd
  0
BLOCK
  5
150
100
AcDbEntity
  8
0
  6
ByBlock
 62
         0
100
AcDbBlockBegin
  2
*D2
 70
         1
 10
0.0
 20
0.0
 30
0.0
  3
*D2
  1

  0
LINE
  5
151
100
AcDbEntity
  8
0
  6
CONTINUOUS
 62
       110
100
AcDbLine
 10
-248.982
 20
-314.57423
 30
0.0
 11
-321.018
 21
-314.57423
 31
0.0
  0
LINE
  5
152
100
AcDbEntity
  8
0
  6
CONTINUOUS
 62
       110
100
AcDbLine
 10
-248.982
 20
-297.4516847577
 30
0.0
 11
-248.982
 21
-317.07423
 31
0.0
  0
LINE
  5
153
100
AcDbEntity
  8
0
  6
CONTINUOUS
 62
       110
100
AcDbLine
 10
-321.018
 20
-297.4516847577
 30
0.0
 11
-321.018
 21
-317.07423
 31
0.0
  0
LINE
  5
154
100
AcDbEntity
  8
0
  6
CONTINUOUS
 62
       110
100
AcDbLine
 10
-248.982
 20
-314.57423
 30
0.0
 11
-244.982
 21
-314.57423
 31
0.0
  0
LINE
  5
155
100
AcDbEntity
  8
0
  6
CONTINUOUS
 62
       110
100
AcDbLine
 10
-321.018
 20
-314.57423
 30
0.0
 11
-325.018
 21
-314.57423
 31
0.0
  0
SOLID
  5
156
100
AcDbEntity
  8
0
  6
CONTINUOUS
 62
       110
100
AcDbTrace
 10
-247.9819999702
 20
-314.740897005
 30
0.0
 11
-247.9819999702
 21
-314.407562995
 31
0.0
 12
-248.982
 22
-314.57423
 32
0.0
 13
-248.982
 23
-314.57423
 33
0.0
  0
SOLID
  5
157
100
AcDbEntity
  8
0
  6
CONTINUOUS
 62
       110
100
AcDbTrace
 10
-322.0180000298
 20
-314.407562995
 30
0.0
 11
-322.0180000298
 21
-314.740897005
 31
0.0
 12
-321.018
 22
-314.57423
 32
0.0
 13
-321.018
 23
-314.57423
 33
0.0
  0
MTEXT
  5
158
100
AcDbEntity
  8
0
  6
CONTINUOUS
 62
       110
100
AcDbMText
 10
-284.7000023193
 20
-311.9742299762
 30
0.0
 40
3.2000000477
 41
0.0
 71
         5
 72
         1
  1
\A1;72
 11
1.0
 21
0.0
 31
0.0
  0
POINT
  5
159
100
AcDbEntity
  8
DEFPOINTS
  6
CONTINUOUS
 62
         0
100
AcDbPoint
 10
-248.982
 20
-297.3891847577
 30
0.0
  0
POINT
  5
15A
100
AcDbEntity
  8
DEFPOINTS
  6
CONTINUOUS
 62
         0
100
AcDbPoint
 10
-321.018
 20
-297.3891847577
 30
0.0
  0
POINT
  5
15B
100
AcDbEntity
  8
DEFPOINTS
  6
CONTINUOUS
 62
         0
100
AcDbPoint
 10
-321.018
 20
-314.57423
 30
0.0
  0
ENDBLK
  5
15C
100
AcDbEntity
  8
0
  6
ByBlock
 62
         0
100
AcDbBlockEnd
  0
BLOCK
  5
15F
100
AcDbEntity
  8
0
  6
ByBlock
 62
         0
100
AcDbBlockBegin
  2
*D3
 70
         1
 10
0.0
 20
0.0
 30
0.0
  3
*D3
  1

  0
LINE
  5
160
100
AcDbEntity
  8
0
  6
CONTINUOUS
 62
       110
100
AcDbLine
 10
-234.975
 20
-330.545146
 30
0.0
 11
-335.025
 21
-330.545146
 31
0.0
  0
LINE
  5
161
100
AcDbEntity
  8
0
  6
CONTINUOUS
 62
       110
100
AcDbLine
 10
-234.975
 20
-295.0824995156
 30
0.0
 11
-234.975
 21
-333.045146
 31
0.0
  0
LINE
  5
162
100
AcDbEntity
  8
0
  6
CONTINUOUS
 62
       110
100
AcDbLine
 10
-335.025
 20
-295.0824995156
 30
0.0
 11
-335.025
 21
-333.045146
 31
0.0
  0
LINE
  5
163
100
AcDbEntity
  8
0
  6
CONTINUOUS
 62
       110
100
AcDbLine
 10
-234.975
 20
-330.545146
 30
0.0
 11
-230.975
 21
-330.545146
 31
0.0
  0
LINE
  5
164
100
AcDbEntity
  8
0
  6
CONTINUOUS
 62
       110
100
AcDbLine
 10
-335.025
 20
-330.545146
 30
0.0
 11
-339.025
 21
-330.545146
 31
0.0
  0
SOLID
  5
165
100
AcDbEntity
  8
0
  6
CONTINUOUS
 62
       110
100
AcDbTrace
 10
-233.9749999702
 20
-330.711813005
 30
0.0
 11
-233.9749999702
 21
-330.378478995
 31
0.0
 12
-234.975
 22
-330.545146
 32
0.0
 13
-234.975
 23
-330.545146
 33
0.0
  0
SOLID
  5
166
100
AcDbEntity
  8
0
  6
CONTINUOUS
 62
       110
100
AcDbTrace
 10
-336.0250000298
 20
-330.378478995
 30
0.0
 11
-336.0250000298
 21
-330.711813005
 31
0.0
 12
-335.025
 22
-330.545146
 32
0.0
 13
-335.025
 23
-330.545146
 33
0.0
  0
MTEXT
  5
168
100
AcDbEntity
  8
0
  6
CONTINUOUS
 62
       110
100
AcDbMText
 10
-284.7000022888
 20
-327.9451459762
 30
0.0
 40
3.2000000477
 41
0.0
 71
         5
 72
         1
  1
\A1;100
  7
MX_DIMTXSTY_2
 11
1.0
 21
0.0
 31
0.0
  0
POINT
  5
169
100
AcDbEntity
  8
DEFPOINTS
  6
CONTINUOUS
 62
         0
100
AcDbPoint
 10
-234.975
 20
-295.0199995156
 30
0.0
  0
POINT
  5
16A
100
AcDbEntity
  8
DEFPOINTS
  6
CONTINUOUS
 62
         0
100
AcDbPoint
 10
-335.025
 20
-295.0199995156
 30
0.0
  0
POINT
  5
16B
100
AcDbEntity
  8
DEFPOINTS
  6
CONTINUOUS
 62
         0
100
AcDbPoint
 10
-335.025
 20
-330.545146
 30
0.0
  0
ENDBLK
  5
16C
100
AcDbEntity
  8
0
  6
ByBlock
 62
         0
100
AcDbBlockEnd
  0
BLOCK
  5
16F
100
AcDbEntity
  8
0
  6
ByBlock
 62
         0
100
AcDbBlockBegin
  2
*D4
 70
         1
 10
0.0
 20
0.0
 30
0.0
  3
*D4
  1

  0
LINE
  5
170
100
AcDbEntity
  8
0
  6
CONTINUOUS
 62
       110
100
AcDbLine
 10
-349.600978
 20
-295.02
 30
0.0
 11
-349.600978
 21
-260.0025
 31
0.0
  0
LINE
  5
171
100
AcDbEntity
  8
0
  6
CONTINUOUS
 62
       110
100
AcDbLine
 10
-335.0874997209
 20
-295.02
 30
0.0
 11
-352.100978
 21
-295.02
 31
0.0
  0
LINE
  5
172
100
AcDbEntity
  8
0
  6
CONTINUOUS
 62
       110
100
AcDbLine
 10
-335.0874997209
 20
-260.0025
 30
0.0
 11
-352.100978
 21
-260.0025
 31
0.0
  0
LINE
  5
173
100
AcDbEntity
  8
0
  6
CONTINUOUS
 62
       110
100
AcDbLine
 10
-349.600978
 20
-295.02
 30
0.0
 11
-349.600978
 21
-299.02
 31
0.0
  0
LINE
  5
174
100
AcDbEntity
  8
0
  6
CONTINUOUS
 62
       110
100
AcDbLine
 10
-349.600978
 20
-260.0025
 30
0.0
 11
-349.600978
 21
-256.0025
 31
0.0
  0
SOLID
  5
175
100
AcDbEntity
  8
0
  6
CONTINUOUS
 62
       110
100
AcDbTrace
 10
-349.767645005
 20
-296.0200000298
 30
0.0
 11
-349.434310995
 21
-296.0200000298
 31
0.0
 12
-349.600978
 22
-295.02
 32
0.0
 13
-349.600978
 23
-295.02
 33
0.0
  0
SOLID
  5
176
100
AcDbEntity
  8
0
  6
CONTINUOUS
 62
       110
100
AcDbTrace
 10
-349.434310995
 20
-259.0024999702
 30
0.0
 11
-349.767645005
 21
-259.0024999702
 31
0.0
 12
-349.600978
 22
-260.0025
 32
0.0
 13
-349.600978
 23
-260.0025
 33
0.0
  0
MTEXT
  5
177
100
AcDbEntity
  8
0
  6
CONTINUOUS
 62
       110
100
AcDbMText
 10
-352.2009780238
 20
-277.2112498474
 30
0.0
 40
3.2000000477
 41
0.0
 71
         5
 72
         1
  1
\A1;35
 11
0.0
 21
1.0
 31
0.0
  0
POINT
  5
178
100
AcDbEntity
  8
DEFPOINTS
  6
CONTINUOUS
 62
         0
100
AcDbPoint
 10
-335.0249997209
 20
-295.02
 30
0.0
  0
POINT
  5
179
100
AcDbEntity
  8
DEFPOINTS
  6
CONTINUOUS
 62
         0
100
AcDbPoint
 10
-335.0249997209
 20
-260.0025
 30
0.0
  0
POINT
  5
17A
100
AcDbEntity
  8
DEFPOINTS
  6
CONTINUOUS
 62
         0
100
AcDbPoint
 10
-349.600978
 20
-260.0025
 30
0.0
  0
ENDBLK
  5
17B
100
AcDbEntity
  8
0
  6
ByBlock
 62
         0
100
AcDbBlockEnd
  0
BLOCK
  5
17E
100
AcDbEntity
  8
0
  6
ByBlock
 62
         0
100
AcDbBlockBegin
  2
*D5
 70
         1
 10
0.0
 20
0.0
 30
0.0
  3
*D5
  1

  0
LINE
  5
17F
100
AcDbEntity
  8
0
  6
CONTINUOUS
 62
       110
100
AcDbLine
 10
-7.425
 20
-158.864559
 30
0.0
 11
-170.00625
 21
-158.864559
 31
0.0
  0
LINE
  5
180
100
AcDbEntity
  8
0
  6
CONTINUOUS
 62
       110
100
AcDbLine
 10
-7.425
 20
-142.4596861057
 30
0.0
 11
-7.425
 21
-161.364559
 31
0.0
  0
LINE
  5
181
100
AcDbEntity
  8
0
  6
CONTINUOUS
 62
       110
100
AcDbLine
 10
-170.00625
 20
-143.9894502811
 30
0.0
 11
-170.00625
 21
-161.364559
 31
0.0
  0
LINE
  5
182
100
AcDbEntity
  8
0
  6
CONTINUOUS
 62
       110
100
AcDbLine
 10
-7.425
 20
-158.864559
 30
0.0
 11
-3.425
 21
-158.864559
 31
0.0
  0
LINE
  5
183
100
AcDbEntity
  8
0
  6
CONTINUOUS
 62
       110
100
AcDbLine
 10
-170.00625
 20
-158.864559
 30
0.0
 11
-174.00625
 21
-158.864559
 31
0.0
  0
SOLID
  5
184
100
AcDbEntity
  8
0
  6
CONTINUOUS
 62
       110
100
AcDbTrace
 10
-6.4249999702
 20
-159.031226005
 30
0.0
 11
-6.4249999702
 21
-158.697891995
 31
0.0
 12
-7.425
 22
-158.864559
 32
0.0
 13
-7.425
 23
-158.864559
 33
0.0
  0
SOLID
  5
185
100
AcDbEntity
  8
0
  6
CONTINUOUS
 62
       110
100
AcDbTrace
 10
-171.0062500298
 20
-158.697891995
 30
0.0
 11
-171.0062500298
 21
-159.031226005
 31
0.0
 12
-170.00625
 22
-158.864559
 32
0.0
 13
-170.00625
 23
-158.864559
 33
0.0
  0
MTEXT
  5
187
100
AcDbEntity
  8
0
  6
CONTINUOUS
 62
       110
100
AcDbMText
 10
-88.4156234741
 20
-156.2645589762
 30
0.0
 40
3.2000000477
 41
0.0
 71
         5
 72
         1
  1
\A1;163
  7
MX_DIMTXSTY_3
 11
1.0
 21
0.0
 31
0.0
  0
POINT
  5
188
100
AcDbEntity
  8
DEFPOINTS
  6
CONTINUOUS
 62
         0
100
AcDbPoint
 10
-7.425
 20
-142.3971861057
 30
0.0
  0
POINT
  5
189
100
AcDbEntity
  8
DEFPOINTS
  6
CONTINUOUS
 62
         0
100
AcDbPoint
 10
-170.00625
 20
-143.9269502811
 30
0.0
  0
POINT
  5
18A
100
AcDbEntity
  8
DEFPOINTS
  6
CONTINUOUS
 62
         0
100
AcDbPoint
 10
-170.00625
 20
-158.864559
 30
0.0
  0
ENDBLK
  5
18B
100
AcDbEntity
  8
0
  6
ByBlock
 62
         0
100
AcDbBlockEnd
  0
BLOCK
  5
18E
100
AcDbEntity
  8
0
  6
ByBlock
 62
         0
100
AcDbBlockBegin
  2
*D6
 70
         1
 10
0.0
 20
0.0
 30
0.0
  3
*D6
  1

  0
LINE
  5
18F
100
AcDbEntity
  8
0
  6
CONTINUOUS
 62
       110
100
AcDbLine
 10
-208.175283
 20
-126.018
 30
0.0
 11
-208.175283
 21
-53.982
 31
0.0
  0
LINE
  5
190
100
AcDbEntity
  8
0
  6
CONTINUOUS
 62
       110
100
AcDbLine
 10
-184.7981105299
 20
-126.018
 30
0.0
 11
-210.675283
 21
-126.018
 31
0.0
  0
LINE
  5
191
100
AcDbEntity
  8
0
  6
CONTINUOUS
 62
       110
100
AcDbLine
 10
-187.2443328352
 20
-53.982
 30
0.0
 11
-210.675283
 21
-53.982
 31
0.0
  0
LINE
  5
192
100
AcDbEntity
  8
0
  6
CONTINUOUS
 62
       110
100
AcDbLine
 10
-208.175283
 20
-126.018
 30
0.0
 11
-208.175283
 21
-130.018
 31
0.0
  0
LINE
  5
193
100
AcDbEntity
  8
0
  6
CONTINUOUS
 62
       110
100
AcDbLine
 10
-208.175283
 20
-53.982
 30
0.0
 11
-208.175283
 21
-49.982
 31
0.0
  0
SOLID
  5
194
100
AcDbEntity
  8
0
  6
CONTINUOUS
 62
       110
100
AcDbTrace
 10
-208.341950005
 20
-127.0180000298
 30
0.0
 11
-208.008615995
 21
-127.0180000298
 31
0.0
 12
-208.175283
 22
-126.018
 32
0.0
 13
-208.175283
 23
-126.018
 33
0.0
  0
SOLID
  5
195
100
AcDbEntity
  8
0
  6
CONTINUOUS
 62
       110
100
AcDbTrace
 10
-208.008615995
 20
-52.9819999702
 30
0.0
 11
-208.341950005
 21
-52.9819999702
 31
0.0
 12
-208.175283
 22
-53.982
 32
0.0
 13
-208.175283
 23
-53.982
 33
0.0
  0
MTEXT
  5
196
100
AcDbEntity
  8
0
  6
CONTINUOUS
 62
       110
100
AcDbMText
 10
-210.7752830238
 20
-89.6999992065
 30
0.0
 40
3.2000000477
 41
0.0
 71
         5
 72
         1
  1
\A1;72
 11
0.0
 21
1.0
 31
0.0
  0
POINT
  5
197
100
AcDbEntity
  8
DEFPOINTS
  6
CONTINUOUS
 62
         0
100
AcDbPoint
 10
-184.7356105299
 20
-126.018
 30
0.0
  0
POINT
  5
198
100
AcDbEntity
  8
DEFPOINTS
  6
CONTINUOUS
 62
         0
100
AcDbPoint
 10
-187.1818328352
 20
-53.982
 30
0.0
  0
POINT
  5
199
100
AcDbEntity
  8
DEFPOINTS
  6
CONTINUOUS
 62
         0
100
AcDbPoint
 10
-208.175283
 20
-53.982
 30
0.0
  0
ENDBLK
  5
19A
100
AcDbEntity
  8
0
  6
ByBlock
 62
         0
100
AcDbBlockEnd
  0
BLOCK
  5
1A1
100
AcDbEntity
  8
0
  6
ByBlock
 62
         0
100
AcDbBlockBegin
  2
*D7
 70
         1
 10
0.0
 20
0.0
 30
0.0
  3
*D7
  1

  0
LINE
  5
1A2
100
AcDbEntity
  8
0
  6
CONTINUOUS
 62
       110
100
AcDbLine
 10
-157.5
 20
-315.015571
 30
0.0
 11
-182.5125
 21
-315.015571
 31
0.0
  0
LINE
  5
1A3
100
AcDbEntity
  8
0
  6
CONTINUOUS
 62
       110
100
AcDbLine
 10
-157.5
 20
-295.0824998635
 30
0.0
 11
-157.5
 21
-317.515571
 31
0.0
  0
LINE
  5
1A4
100
AcDbEntity
  8
0
  6
CONTINUOUS
 62
       110
100
AcDbLine
 10
-182.5125
 20
-295.0824998635
 30
0.0
 11
-182.5125
 21
-317.515571
 31
0.0
  0
LINE
  5
1A5
100
AcDbEntity
  8
0
  6
CONTINUOUS
 62
       110
100
AcDbLine
 10
-157.5
 20
-315.015571
 30
0.0
 11
-153.5
 21
-315.015571
 31
0.0
  0
LINE
  5
1A6
100
AcDbEntity
  8
0
  6
CONTINUOUS
 62
       110
100
AcDbLine
 10
-182.5125
 20
-315.015571
 30
0.0
 11
-186.5125
 21
-315.015571
 31
0.0
  0
SOLID
  5
1A7
100
AcDbEntity
  8
0
  6
CONTINUOUS
 62
       110
100
AcDbTrace
 10
-156.4999999702
 20
-315.182238005
 30
0.0
 11
-156.4999999702
 21
-314.848903995
 31
0.0
 12
-157.5
 22
-315.015571
 32
0.0
 13
-157.5
 23
-315.015571
 33
0.0
  0
SOLID
  5
1A8
100
AcDbEntity
  8
0
  6
CONTINUOUS
 62
       110
100
AcDbTrace
 10
-183.5125000298
 20
-314.848903995
 30
0.0
 11
-183.5125000298
 21
-315.182238005
 31
0.0
 12
-182.5125
 22
-315.015571
 32
0.0
 13
-182.5125
 23
-315.015571
 33
0.0
  0
MTEXT
  5
1A9
100
AcDbEntity
  8
0
  6
CONTINUOUS
 62
       110
100
AcDbMText
 10
-169.7062501907
 20
-312.4155709762
 30
0.0
 40
3.2000000477
 41
0.0
 71
         5
 72
         1
  1
\A1;25
 11
1.0
 21
0.0
 31
0.0
  0
POINT
  5
1AA
100
AcDbEntity
  8
DEFPOINTS
  6
CONTINUOUS
 62
         0
100
AcDbPoint
 10
-157.5
 20
-295.0199998635
 30
0.0
  0
POINT
  5
1AB
100
AcDbEntity
  8
DEFPOINTS
  6
CONTINUOUS
 62
         0
100
AcDbPoint
 10
-182.5125
 20
-295.0199998635
 30
0.0
  0
POINT
  5
1AC
100
AcDbEntity
  8
DEFPOINTS
  6
CONTINUOUS
 62
         0
100
AcDbPoint
 10
-182.5125
 20
-315.015571
 30
0.0
  0
ENDBLK
  5
1AD
100
AcDbEntity
  8
0
  6
ByBlock
 62
         0
100
AcDbBlockEnd
  0
BLOCK
  5
1B0
100
AcDbEntity
  8
0
  6
ByBlock
 62
         0
100
AcDbBlockBegin
  2
*D8
 70
         1
 10
0.0
 20
0.0
 30
0.0
  3
*D8
  1

  0
LINE
  5
1B1
100
AcDbEntity
  8
0
  6
CONTINUOUS
 62
       110
100
AcDbLine
 10
5.08125
 20
-315.015571
 30
0.0
 11
-19.93125
 21
-315.015571
 31
0.0
  0
LINE
  5
1B2
100
AcDbEntity
  8
0
  6
CONTINUOUS
 62
       110
100
AcDbLine
 10
5.08125
 20
-295.0824998635
 30
0.0
 11
5.08125
 21
-317.515571
 31
0.0
  0
LINE
  5
1B3
100
AcDbEntity
  8
0
  6
CONTINUOUS
 62
       110
100
AcDbLine
 10
-19.93125
 20
-295.0824998635
 30
0.0
 11
-19.93125
 21
-317.515571
 31
0.0
  0
LINE
  5
1B4
100
AcDbEntity
  8
0
  6
CONTINUOUS
 62
       110
100
AcDbLine
 10
5.08125
 20
-315.015571
 30
0.0
 11
9.08125
 21
-315.015571
 31
0.0
  0
LINE
  5
1B5
100
AcDbEntity
  8
0
  6
CONTINUOUS
 62
       110
100
AcDbLine
 10
-19.93125
 20
-315.015571
 30
0.0
 11
-23.93125
 21
-315.015571
 31
0.0
  0
SOLID
  5
1B6
100
AcDbEntity
  8
0
  6
CONTINUOUS
 62
       110
100
AcDbTrace
 10
6.0812500298
 20
-315.182238005
 30
0.0
 11
6.0812500298
 21
-314.848903995
 31
0.0
 12
5.08125
 22
-315.015571
 32
0.0
 13
5.08125
 23
-315.015571
 33
0.0
  0
SOLID
  5
1B7
100
AcDbEntity
  8
0
  6
CONTINUOUS
 62
       110
100
AcDbTrace
 10
-20.9312500298
 20
-314.848903995
 30
0.0
 11
-20.9312500298
 21
-315.182238005
 31
0.0
 12
-19.93125
 22
-315.015571
 32
0.0
 13
-19.93125
 23
-315.015571
 33
0.0
  0
MTEXT
  5
1B8
100
AcDbEntity
  8
0
  6
CONTINUOUS
 62
       110
100
AcDbMText
 10
-7.1250001907
 20
-312.4155709762
 30
0.0
 40
3.2000000477
 41
0.0
 71
         5
 72
         1
  1
\A1;25
 11
1.0
 21
0.0
 31
0.0
  0
POINT
  5
1B9
100
AcDbEntity
  8
DEFPOINTS
  6
CONTINUOUS
 62
         0
100
AcDbPoint
 10
5.08125
 20
-295.0199998635
 30
0.0
  0
POINT
  5
1BA
100
AcDbEntity
  8
DEFPOINTS
  6
CONTINUOUS
 62
         0
100
AcDbPoint
 10
-19.93125
 20
-295.0199998635
 30
0.0
  0
POINT
  5
1BB
100
AcDbEntity
  8
DEFPOINTS
  6
CONTINUOUS
 62
         0
100
AcDbPoint
 10
-19.93125
 20
-315.015571
 30
0.0
  0
ENDBLK
  5
1BC
100
AcDbEntity
  8
0
  6
ByBlock
 62
         0
100
AcDbBlockEnd
  0
BLOCK
  5
1BF
100
AcDbEntity
  8
0
  6
ByBlock
 62
         0
100
AcDbBlockBegin
  2
*D9
 70
         1
 10
0.0
 20
0.0
 30
0.0
  3
*D9
  1

  0
LINE
  5
1C0
100
AcDbEntity
  8
0
  6
CONTINUOUS
 62
       110
100
AcDbLine
 10
-7.425
 20
-333.22642
 30
0.0
 11
-170.00625
 21
-333.22642
 31
0.0
  0
LINE
  5
1C1
100
AcDbEntity
  8
0
  6
CONTINUOUS
 62
       110
100
AcDbLine
 10
-7.425
 20
-300.5092111377
 30
0.0
 11
-7.425
 21
-335.72642
 31
0.0
  0
LINE
  5
1C2
100
AcDbEntity
  8
0
  6
CONTINUOUS
 62
       110
100
AcDbLine
 10
-170.00625
 20
-300.5092111377
 30
0.0
 11
-170.00625
 21
-335.72642
 31
0.0
  0
LINE
  5
1C3
100
AcDbEntity
  8
0
  6
CONTINUOUS
 62
       110
100
AcDbLine
 10
-7.425
 20
-333.22642
 30
0.0
 11
-3.425
 21
-333.22642
 31
0.0
  0
LINE
  5
1C4
100
AcDbEntity
  8
0
  6
CONTINUOUS
 62
       110
100
AcDbLine
 10
-170.00625
 20
-333.22642
 30
0.0
 11
-174.00625
 21
-333.22642
 31
0.0
  0
SOLID
  5
1C5
100
AcDbEntity
  8
0
  6
CONTINUOUS
 62
       110
100
AcDbTrace
 10
-6.4249999702
 20
-333.393087005
 30
0.0
 11
-6.4249999702
 21
-333.059752995
 31
0.0
 12
-7.425
 22
-333.22642
 32
0.0
 13
-7.425
 23
-333.22642
 33
0.0
  0
SOLID
  5
1C6
100
AcDbEntity
  8
0
  6
CONTINUOUS
 62
       110
100
AcDbTrace
 10
-171.0062500298
 20
-333.059752995
 30
0.0
 11
-171.0062500298
 21
-333.393087005
 31
0.0
 12
-170.00625
 22
-333.22642
 32
0.0
 13
-170.00625
 23
-333.22642
 33
0.0
  0
MTEXT
  5
1C7
100
AcDbEntity
  8
0
  6
CONTINUOUS
 62
       110
100
AcDbMText
 10
-88.4156234741
 20
-330.6264199762
 30
0.0
 40
3.2000000477
 41
0.0
 71
         5
 72
         1
  1
\A1;163
  7
MX_DIMTXSTY_3
 11
1.0
 21
0.0
 31
0.0
  0
POINT
  5
1C8
100
AcDbEntity
  8
DEFPOINTS
  6
CONTINUOUS
 62
         0
100
AcDbPoint
 10
-7.425
 20
-300.4467111377
 30
0.0
  0
POINT
  5
1C9
100
AcDbEntity
  8
DEFPOINTS
  6
CONTINUOUS
 62
         0
100
AcDbPoint
 10
-170.00625
 20
-300.4467111377
 30
0.0
  0
POINT
  5
1CA
100
AcDbEntity
  8
DEFPOINTS
  6
CONTINUOUS
 62
         0
100
AcDbPoint
 10
-170.00625
 20
-333.22642
 30
0.0
  0
ENDBLK
  5
1CB
100
AcDbEntity
  8
0
  6
ByBlock
 62
         0
100
AcDbBlockEnd
  0
BLOCK
  5
1CE
100
AcDbEntity
  8
0
  6
ByBlock
 62
         0
100
AcDbBlockBegin
  2
*D10
 70
         1
 10
0.0
 20
0.0
 30
0.0
  3
*D10
  1

  0
LINE
  5
1CF
100
AcDbEntity
  8
0
  6
CONTINUOUS
 62
       110
100
AcDbLine
 10
-88.96575
 20
-207.545909
 30
0.0
 11
-19.93125
 21
-207.545909
 31
0.0
  0
LINE
  5
1D0
100
AcDbEntity
  8
0
  6
CONTINUOUS
 62
       110
100
AcDbLine
 10
-88.96575
 20
-248.9345007664
 30
0.0
 11
-88.96575
 21
-205.045909
 31
0.0
  0
LINE
  5
1D1
100
AcDbEntity
  8
0
  6
CONTINUOUS
 62
       110
100
AcDbLine
 10
-19.93125
 20
-222.4212504154
 30
0.0
 11
-19.93125
 21
-205.045909
 31
0.0
  0
LINE
  5
1D2
100
AcDbEntity
  8
0
  6
CONTINUOUS
 62
       110
100
AcDbLine
 10
-88.96575
 20
-207.545909
 30
0.0
 11
-92.96575
 21
-207.545909
 31
0.0
  0
LINE
  5
1D3
100
AcDbEntity
  8
0
  6
CONTINUOUS
 62
       110
100
AcDbLine
 10
-19.93125
 20
-207.545909
 30
0.0
 11
-15.93125
 21
-207.545909
 31
0.0
  0
SOLID
  5
1D4
100
AcDbEntity
  8
0
  6
CONTINUOUS
 62
       110
100
AcDbTrace
 10
-89.9657500298
 20
-207.379241995
 30
0.0
 11
-89.9657500298
 21
-207.712576005
 31
0.0
 12
-88.96575
 22
-207.545909
 32
0.0
 13
-88.96575
 23
-207.545909
 33
0.0
  0
SOLID
  5
1D5
100
AcDbEntity
  8
0
  6
CONTINUOUS
 62
       110
100
AcDbTrace
 10
-18.9312499702
 20
-207.712576005
 30
0.0
 11
-18.9312499702
 21
-207.379241995
 31
0.0
 12
-19.93125
 22
-207.545909
 32
0.0
 13
-19.93125
 23
-207.545909
 33
0.0
  0
MTEXT
  5
1D6
100
AcDbEntity
  8
0
  6
CONTINUOUS
 62
       110
100
AcDbMText
 10
-54.1485007019
 20
-204.9459089762
 30
0.0
 40
3.2000000477
 41
0.0
 71
         5
 72
         1
  1
\A1;69
  0
POINT
  5
1D7
100
AcDbEntity
  8
DEFPOINTS
  6
CONTINUOUS
 62
         0
100
AcDbPoint
 10
-88.96575
 20
-248.9970007664
 30
0.0
  0
POINT
  5
1D8
100
AcDbEntity
  8
DEFPOINTS
  6
CONTINUOUS
 62
         0
100
AcDbPoint
 10
-19.93125
 20
-222.4837504154
 30
0.0
  0
POINT
  5
1D9
100
AcDbEntity
  8
DEFPOINTS
  6
CONTINUOUS
 62
         0
100
AcDbPoint
 10
-19.93125
 20
-207.545909
 30
0.0
  0
ENDBLK
  5
1DA
100
AcDbEntity
  8
0
  6
ByBlock
 62
         0
100
AcDbBlockEnd
  0
BLOCK
  5
1DD
100
AcDbEntity
  8
0
  6
ByBlock
 62
         0
100
AcDbBlockBegin
  2
*D11
 70
         1
 10
0.0
 20
0.0
 30
0.0
  3
*D11
  1

  0
LINE
  5
1DE
100
AcDbEntity
  8
0
  6
CONTINUOUS
 62
       110
100
AcDbLine
 10
-157.5
 20
-194.464877
 30
0.0
 11
-19.93125
 21
-194.464877
 31
0.0
  0
LINE
  5
1DF
100
AcDbEntity
  8
0
  6
CONTINUOUS
 62
       110
100
AcDbLine
 10
-157.5
 20
-222.4212502147
 30
0.0
 11
-157.5
 21
-191.964877
 31
0.0
  0
LINE
  5
1E0
100
AcDbEntity
  8
0
  6
CONTINUOUS
 62
       110
100
AcDbLine
 10
-19.93125
 20
-222.4212502147
 30
0.0
 11
-19.93125
 21
-191.964877
 31
0.0
  0
LINE
  5
1E1
100
AcDbEntity
  8
0
  6
CONTINUOUS
 62
       110
100
AcDbLine
 10
-157.5
 20
-194.464877
 30
0.0
 11
-161.5
 21
-194.464877
 31
0.0
  0
LINE
  5
1E2
100
AcDbEntity
  8
0
  6
CONTINUOUS
 62
       110
100
AcDbLine
 10
-19.93125
 20
-194.464877
 30
0.0
 11
-15.93125
 21
-194.464877
 31
0.0
  0
SOLID
  5
1E3
100
AcDbEntity
  8
0
  6
CONTINUOUS
 62
       110
100
AcDbTrace
 10
-158.5000000298
 20
-194.298209995
 30
0.0
 11
-158.5000000298
 21
-194.631544005
 31
0.0
 12
-157.5
 22
-194.464877
 32
0.0
 13
-157.5
 23
-194.464877
 33
0.0
  0
SOLID
  5
1E4
100
AcDbEntity
  8
0
  6
CONTINUOUS
 62
       110
100
AcDbTrace
 10
-18.9312499702
 20
-194.631544005
 30
0.0
 11
-18.9312499702
 21
-194.298209995
 31
0.0
 12
-19.93125
 22
-194.464877
 32
0.0
 13
-19.93125
 23
-194.464877
 33
0.0
  0
MTEXT
  5
1E5
100
AcDbEntity
  8
0
  6
CONTINUOUS
 62
       110
100
AcDbMText
 10
-88.4156188965
 20
-191.8648769762
 30
0.0
 40
3.2000000477
 41
0.0
 71
         5
 72
         1
  1
\A1;138
  7
MX_DIMTXSTY_3
  0
POINT
  5
1E6
100
AcDbEntity
  8
DEFPOINTS
  6
CONTINUOUS
 62
         0
100
AcDbPoint
 10
-157.5
 20
-222.4837502147
 30
0.0
  0
POINT
  5
1E7
100
AcDbEntity
  8
DEFPOINTS
  6
CONTINUOUS
 62
         0
100
AcDbPoint
 10
-19.93125
 20
-222.4837502147
 30
0.0
  0
POINT
  5
1E8
100
AcDbEntity
  8
DEFPOINTS
  6
CONTINUOUS
 62
         0
100
AcDbPoint
 10
-19.93125
 20
-194.464877
 30
0.0
  0
ENDBLK
  5
1E9
100
AcDbEntity
  8
0
  6
ByBlock
 62
         0
100
AcDbBlockEnd
  0
BLOCK
  5
1EC
100
AcDbEntity
  8
0
  6
ByBlock
 62
         0
100
AcDbBlockBegin
  2
*D12
 70
         1
 10
0.0
 20
0.0
 30
0.0
  3
*D12
  1

  0
LINE
  5
1ED
100
AcDbEntity
  8
0
  6
CONTINUOUS
 62
       110
100
AcDbLine
 10
-19.93125
 20
-194.464877
 30
0.0
 11
-8.92575
 21
-194.464877
 31
0.0
  0
LINE
  5
1EE
100
AcDbEntity
  8
0
  6
CONTINUOUS
 62
       110
100
AcDbLine
 10
-19.93125
 20
-222.4212502147
 30
0.0
 11
-19.93125
 21
-191.964877
 31
0.0
  0
LINE
  5
1EF
100
AcDbEntity
  8
0
  6
CONTINUOUS
 62
       110
100
AcDbLine
 10
-8.92575
 20
-238.9294994976
 30
0.0
 11
-8.92575
 21
-191.964877
 31
0.0
  0
LINE
  5
1F0
100
AcDbEntity
  8
0
  6
CONTINUOUS
 62
       110
100
AcDbLine
 10
-19.93125
 20
-194.464877
 30
0.0
 11
-23.93125
 21
-194.464877
 31
0.0
  0
LINE
  5
1F1
100
AcDbEntity
  8
0
  6
CONTINUOUS
 62
       110
100
AcDbLine
 10
-8.92575
 20
-194.464877
 30
0.0
 11
-4.92575
 21
-194.464877
 31
0.0
  0
SOLID
  5
1F2
100
AcDbEntity
  8
0
  6
CONTINUOUS
 62
       110
100
AcDbTrace
 10
-20.9312500298
 20
-194.298209995
 30
0.0
 11
-20.9312500298
 21
-194.631544005
 31
0.0
 12
-19.93125
 22
-194.464877
 32
0.0
 13
-19.93125
 23
-194.464877
 33
0.0
  0
SOLID
  5
1F3
100
AcDbEntity
  8
0
  6
CONTINUOUS
 62
       110
100
AcDbTrace
 10
-7.9257499702
 20
-194.631544005
 30
0.0
 11
-7.9257499702
 21
-194.298209995
 31
0.0
 12
-8.92575
 22
-194.464877
 32
0.0
 13
-8.92575
 23
-194.464877
 33
0.0
  0
MTEXT
  5
1F5
100
AcDbEntity
  8
0
  6
CONTINUOUS
 62
       110
100
AcDbMText
 10
-14.1285003662
 20
-191.8648769762
 30
0.0
 40
3.2000000477
 41
0.0
 71
         5
 72
         1
  1
\A1;11
  7
MX_DIMTXSTY_4
  0
POINT
  5
1F6
100
AcDbEntity
  8
DEFPOINTS
  6
CONTINUOUS
 62
         0
100
AcDbPoint
 10
-19.93125
 20
-222.4837502147
 30
0.0
  0
POINT
  5
1F7
100
AcDbEntity
  8
DEFPOINTS
  6
CONTINUOUS
 62
         0
100
AcDbPoint
 10
-8.92575
 20
-238.9919994976
 30
0.0
  0
POINT
  5
1F8
100
AcDbEntity
  8
DEFPOINTS
  6
CONTINUOUS
 62
         0
100
AcDbPoint
 10
-8.92575
 20
-194.464877
 30
0.0
  0
ENDBLK
  5
1F9
100
AcDbEntity
  8
0
  6
ByBlock
 62
         0
100
AcDbBlockEnd
  0
BLOCK
  5
1FC
100
AcDbEntity
  8
0
  6
ByBlock
 62
         0
100
AcDbBlockBegin
  2
*D13
 70
         1
 10
0.0
 20
0.0
 30
0.0
  3
*D13
  1

  0
LINE
  5
1FD
100
AcDbEntity
  8
0
  6
CONTINUOUS
 62
       110
100
AcDbLine
 10
-8.92575
 20
-194.464877
 30
0.0
 11
22.59
 21
-194.464877
 31
0.0
  0
LINE
  5
1FE
100
AcDbEntity
  8
0
  6
CONTINUOUS
 62
       110
100
AcDbLine
 10
-8.92575
 20
-238.9294994976
 30
0.0
 11
-8.92575
 21
-191.964877
 31
0.0
  0
LINE
  5
1FF
100
AcDbEntity
  8
0
  6
CONTINUOUS
 62
       110
100
AcDbLine
 10
22.59
 20
-239.9299992229
 30
0.0
 11
22.59
 21
-191.964877
 31
0.0
  0
LINE
  5
200
100
AcDbEntity
  8
0
  6
CONTINUOUS
 62
       110
100
AcDbLine
 10
-8.92575
 20
-194.464877
 30
0.0
 11
-12.92575
 21
-194.464877
 31
0.0
  0
LINE
  5
201
100
AcDbEntity
  8
0
  6
CONTINUOUS
 62
       110
100
AcDbLine
 10
22.59
 20
-194.464877
 30
0.0
 11
26.59
 21
-194.464877
 31
0.0
  0
SOLID
  5
202
100
AcDbEntity
  8
0
  6
CONTINUOUS
 62
       110
100
AcDbTrace
 10
-9.9257500298
 20
-194.298209995
 30
0.0
 11
-9.9257500298
 21
-194.631544005
 31
0.0
 12
-8.92575
 22
-194.464877
 32
0.0
 13
-8.92575
 23
-194.464877
 33
0.0
  0
SOLID
  5
203
100
AcDbEntity
  8
0
  6
CONTINUOUS
 62
       110
100
AcDbTrace
 10
23.5900000298
 20
-194.631544005
 30
0.0
 11
23.5900000298
 21
-194.298209995
 31
0.0
 12
22.59
 22
-194.464877
 32
0.0
 13
22.59
 23
-194.464877
 33
0.0
  0
MTEXT
  5
204
100
AcDbEntity
  8
0
  6
CONTINUOUS
 62
       110
100
AcDbMText
 10
7.1321246796
 20
-191.8648769762
 30
0.0
 40
3.2000000477
 41
0.0
 71
         5
 72
         1
  1
\A1;32
  0
POINT
  5
205
100
AcDbEntity
  8
DEFPOINTS
  6
CONTINUOUS
 62
         0
100
AcDbPoint
 10
-8.92575
 20
-238.9919994976
 30
0.0
  0
POINT
  5
206
100
AcDbEntity
  8
DEFPOINTS
  6
CONTINUOUS
 62
         0
100
AcDbPoint
 10
22.59
 20
-239.9924992229
 30
0.0
  0
POINT
  5
207
100
AcDbEntity
  8
DEFPOINTS
  6
CONTINUOUS
 62
         0
100
AcDbPoint
 10
22.59
 20
-194.464877
 30
0.0
  0
ENDBLK
  5
208
100
AcDbEntity
  8
0
  6
ByBlock
 62
         0
100
AcDbBlockEnd
  0
BLOCK
  5
20B
100
AcDbEntity
  8
0
  6
ByBlock
 62
         0
100
AcDbBlockBegin
  2
*D14
 70
         1
 10
0.0
 20
0.0
 30
0.0
  3
*D14
  1

  0
LINE
  5
20C
100
AcDbEntity
  8
0
  6
CONTINUOUS
 62
       110
100
AcDbLine
 10
22.59
 20
-194.464877
 30
0.0
 11
39.5985
 21
-194.464877
 31
0.0
  0
LINE
  5
20D
100
AcDbEntity
  8
0
  6
CONTINUOUS
 62
       110
100
AcDbLine
 10
22.59
 20
-239.9299992229
 30
0.0
 11
22.59
 21
-191.964877
 31
0.0
  0
LINE
  5
20E
100
AcDbEntity
  8
0
  6
CONTINUOUS
 62
       110
100
AcDbLine
 10
39.5985
 20
-254.9374989177
 30
0.0
 11
39.5985
 21
-191.964877
 31
0.0
  0
LINE
  5
20F
100
AcDbEntity
  8
0
  6
CONTINUOUS
 62
       110
100
AcDbLine
 10
22.59
 20
-194.464877
 30
0.0
 11
18.59
 21
-194.464877
 31
0.0
  0
LINE
  5
210
100
AcDbEntity
  8
0
  6
CONTINUOUS
 62
       110
100
AcDbLine
 10
39.5985
 20
-194.464877
 30
0.0
 11
43.5985
 21
-194.464877
 31
0.0
  0
SOLID
  5
211
100
AcDbEntity
  8
0
  6
CONTINUOUS
 62
       110
100
AcDbTrace
 10
21.5899999702
 20
-194.298209995
 30
0.0
 11
21.5899999702
 21
-194.631544005
 31
0.0
 12
22.59
 22
-194.464877
 32
0.0
 13
22.59
 23
-194.464877
 33
0.0
  0
SOLID
  5
212
100
AcDbEntity
  8
0
  6
CONTINUOUS
 62
       110
100
AcDbTrace
 10
40.5985000298
 20
-194.631544005
 30
0.0
 11
40.5985000298
 21
-194.298209995
 31
0.0
 12
39.5985
 22
-194.464877
 32
0.0
 13
39.5985
 23
-194.464877
 33
0.0
  0
MTEXT
  5
214
100
AcDbEntity
  8
0
  6
CONTINUOUS
 62
       110
100
AcDbMText
 10
31.3942497635
 20
-191.8648769762
 30
0.0
 40
3.2000000477
 41
0.0
 71
         5
 72
         1
  1
\A1;17
  7
MX_DIMTXSTY_5
  0
POINT
  5
215
100
AcDbEntity
  8
DEFPOINTS
  6
CONTINUOUS
 62
         0
100
AcDbPoint
 10
22.59
 20
-239.9924992229
 30
0.0
  0
POINT
  5
216
100
AcDbEntity
  8
DEFPOINTS
  6
CONTINUOUS
 62
         0
100
AcDbPoint
 10
39.5985
 20
-254.9999989177
 30
0.0
  0
POINT
  5
217
100
AcDbEntity
  8
DEFPOINTS
  6
CONTINUOUS
 62
         0
100
AcDbPoint
 10
39.5985
 20
-194.464877
 30
0.0
  0
ENDBLK
  5
218
100
AcDbEntity
  8
0
  6
ByBlock
 62
         0
100
AcDbBlockEnd
  0
BLOCK
  5
21B
100
AcDbEntity
  8
0
  6
ByBlock
 62
         0
100
AcDbBlockBegin
  2
*D15
 70
         1
 10
0.0
 20
0.0
 30
0.0
  3
*D15
  1

  0
LINE
  5
21C
100
AcDbEntity
  8
0
  6
CONTINUOUS
 62
       110
100
AcDbLine
 10
-200.952435
 20
-295.02
 30
0.0
 11
-200.952435
 21
-222.48375
 31
0.0
  0
LINE
  5
21D
100
AcDbEntity
  8
0
  6
CONTINUOUS
 62
       110
100
AcDbLine
 10
-182.5749993158
 20
-295.02
 30
0.0
 11
-203.452435
 21
-295.02
 31
0.0
  0
LINE
  5
21E
100
AcDbEntity
  8
0
  6
CONTINUOUS
 62
       110
100
AcDbLine
 10
-157.5625004602
 20
-222.48375
 30
0.0
 11
-203.452435
 21
-222.48375
 31
0.0
  0
LINE
  5
21F
100
AcDbEntity
  8
0
  6
CONTINUOUS
 62
       110
100
AcDbLine
 10
-200.952435
 20
-295.02
 30
0.0
 11
-200.952435
 21
-299.02
 31
0.0
  0
LINE
  5
220
100
AcDbEntity
  8
0
  6
CONTINUOUS
 62
       110
100
AcDbLine
 10
-200.952435
 20
-222.48375
 30
0.0
 11
-200.952435
 21
-218.48375
 31
0.0
  0
SOLID
  5
221
100
AcDbEntity
  8
0
  6
CONTINUOUS
 62
       110
100
AcDbTrace
 10
-201.119102005
 20
-296.0200000298
 30
0.0
 11
-200.785767995
 21
-296.0200000298
 31
0.0
 12
-200.952435
 22
-295.02
 32
0.0
 13
-200.952435
 23
-295.02
 33
0.0
  0
SOLID
  5
222
100
AcDbEntity
  8
0
  6
CONTINUOUS
 62
       110
100
AcDbTrace
 10
-200.785767995
 20
-221.4837499702
 30
0.0
 11
-201.119102005
 21
-221.4837499702
 31
0.0
 12
-200.952435
 22
-222.48375
 32
0.0
 13
-200.952435
 23
-222.48375
 33
0.0
  0
MTEXT
  5
223
100
AcDbEntity
  8
0
  6
CONTINUOUS
 62
       110
100
AcDbMText
 10
-203.5524350238
 20
-258.4518771362
 30
0.0
 40
3.2000000477
 41
0.0
 71
         5
 72
         1
  1
\A1;72.5
  7
MX_DIMTXSTY_5
 11
0.0
 21
1.0
 31
0.0
  0
POINT
  5
224
100
AcDbEntity
  8
DEFPOINTS
  6
CONTINUOUS
 62
         0
100
AcDbPoint
 10
-182.5124993158
 20
-295.02
 30
0.0
  0
POINT
  5
225
100
AcDbEntity
  8
DEFPOINTS
  6
CONTINUOUS
 62
         0
100
AcDbPoint
 10
-157.5000004602
 20
-222.48375
 30
0.0
  0
POINT
  5
226
100
AcDbEntity
  8
DEFPOINTS
  6
CONTINUOUS
 62
         0
100
AcDbPoint
 10
-200.952435
 20
-222.48375
 30
0.0
  0
ENDBLK
  5
227
100
AcDbEntity
  8
0
  6
ByBlock
 62
         0
100
AcDbBlockEnd
  0
BLOCK
  5
22A
100
AcDbEntity
  8
0
  6
ByBlock
 62
         0
100
AcDbBlockBegin
  2
*D16
 70
         1
 10
0.0
 20
0.0
 30
0.0
  3
*D16
  1

  0
LINE
  5
22B
100
AcDbEntity
  8
0
  6
CONTINUOUS
 62
       110
100
AcDbLine
 10
265.06875
 20
-273.986524
 30
0.0
 11
155.01375
 21
-273.986524
 31
0.0
  0
LINE
  5
22C
100
AcDbEntity
  8
0
  6
CONTINUOUS
 62
       110
100
AcDbLine
 10
265.06875
 20
-258.0639995478
 30
0.0
 11
265.06875
 21
-276.486524
 31
0.0
  0
LINE
  5
22D
100
AcDbEntity
  8
0
  6
CONTINUOUS
 62
       110
100
AcDbLine
 10
155.01375
 20
-258.0639995478
 30
0.0
 11
155.01375
 21
-276.486524
 31
0.0
  0
LINE
  5
22E
100
AcDbEntity
  8
0
  6
CONTINUOUS
 62
       110
100
AcDbLine
 10
265.06875
 20
-273.986524
 30
0.0
 11
269.06875
 21
-273.986524
 31
0.0
  0
LINE
  5
22F
100
AcDbEntity
  8
0
  6
CONTINUOUS
 62
       110
100
AcDbLine
 10
155.01375
 20
-273.986524
 30
0.0
 11
151.01375
 21
-273.986524
 31
0.0
  0
SOLID
  5
230
100
AcDbEntity
  8
0
  6
CONTINUOUS
 62
       110
100
AcDbTrace
 10
266.0687500298
 20
-274.153191005
 30
0.0
 11
266.0687500298
 21
-273.819856995
 31
0.0
 12
265.06875
 22
-273.986524
 32
0.0
 13
265.06875
 23
-273.986524
 33
0.0
  0
SOLID
  5
231
100
AcDbEntity
  8
0
  6
CONTINUOUS
 62
       110
100
AcDbTrace
 10
154.0137499702
 20
-273.819856995
 30
0.0
 11
154.0137499702
 21
-274.153191005
 31
0.0
 12
155.01375
 22
-273.986524
 32
0.0
 13
155.01375
 23
-273.986524
 33
0.0
  0
MTEXT
  5
233
100
AcDbEntity
  8
0
  6
CONTINUOUS
 62
       110
100
AcDbMText
 10
210.3412490845
 20
-271.3865239762
 30
0.0
 40
3.2000000477
 41
0.0
 71
         5
 72
         1
  1
\A1;110
  7
MX_DIMTXSTY_6
 11
1.0
 21
0.0
 31
0.0
  0
POINT
  5
234
100
AcDbEntity
  8
DEFPOINTS
  6
CONTINUOUS
 62
         0
100
AcDbPoint
 10
265.06875
 20
-258.0014995478
 30
0.0
  0
POINT
  5
235
100
AcDbEntity
  8
DEFPOINTS
  6
CONTINUOUS
 62
         0
100
AcDbPoint
 10
155.01375
 20
-258.0014995478
 30
0.0
  0
POINT
  5
236
100
AcDbEntity
  8
DEFPOINTS
  6
CONTINUOUS
 62
         0
100
AcDbPoint
 10
155.01375
 20
-273.986524
 30
0.0
  0
ENDBLK
  5
237
100
AcDbEntity
  8
0
  6
ByBlock
 62
         0
100
AcDbBlockEnd
  0
BLOCK
  5
23A
100
AcDbEntity
  8
0
  6
ByBlock
 62
         0
100
AcDbBlockBegin
  2
*D17
 70
         1
 10
0.0
 20
0.0
 30
0.0
  3
*D17
  1

  0
LINE
  5
23B
100
AcDbEntity
  8
0
  6
CONTINUOUS
 62
       110
100
AcDbLine
 10
265.06875
 20
-303.798651
 30
0.0
 11
127.5
 21
-303.798651
 31
0.0
  0
LINE
  5
23C
100
AcDbEntity
  8
0
  6
CONTINUOUS
 62
       110
100
AcDbLine
 10
265.06875
 20
-258.0640013418
 30
0.0
 11
265.06875
 21
-306.298651
 31
0.0
  0
LINE
  5
23D
100
AcDbEntity
  8
0
  6
CONTINUOUS
 62
       110
100
AcDbLine
 10
127.5
 20
-303.736151
 30
0.0
 11
127.5
 21
-303.618651
 31
0.0
  0
LINE
  5
23E
100
AcDbEntity
  8
0
  6
CONTINUOUS
 62
       110
100
AcDbLine
 10
265.06875
 20
-303.798651
 30
0.0
 11
269.06875
 21
-303.798651
 31
0.0
  0
LINE
  5
23F
100
AcDbEntity
  8
0
  6
CONTINUOUS
 62
       110
100
AcDbLine
 10
127.5
 20
-303.798651
 30
0.0
 11
123.5
 21
-303.798651
 31
0.0
  0
SOLID
  5
240
100
AcDbEntity
  8
0
  6
CONTINUOUS
 62
       110
100
AcDbTrace
 10
266.0687500298
 20
-303.965318005
 30
0.0
 11
266.0687500298
 21
-303.631983995
 31
0.0
 12
265.06875
 22
-303.798651
 32
0.0
 13
265.06875
 23
-303.798651
 33
0.0
  0
SOLID
  5
241
100
AcDbEntity
  8
0
  6
CONTINUOUS
 62
       110
100
AcDbTrace
 10
126.4999999702
 20
-303.631983995
 30
0.0
 11
126.4999999702
 21
-303.965318005
 31
0.0
 12
127.5
 22
-303.798651
 32
0.0
 13
127.5
 23
-303.798651
 33
0.0
  0
MTEXT
  5
243
100
AcDbEntity
  8
0
  6
CONTINUOUS
 62
       110
100
AcDbMText
 10
196.584375
 20
-301.1986509762
 30
0.0
 40
3.2000000477
 41
0.0
 71
         5
 72
         1
  1
\A1;137.5
  7
MX_DIMTXSTY_7
 11
1.0
 21
0.0
 31
0.0
  0
POINT
  5
244
100
AcDbEntity
  8
DEFPOINTS
  6
CONTINUOUS
 62
         0
100
AcDbPoint
 10
265.06875
 20
-258.0015013418
 30
0.0
  0
POINT
  5
245
100
AcDbEntity
  8
DEFPOINTS
  6
CONTINUOUS
 62
         0
100
AcDbPoint
 10
127.5
 20
-303.798651
 30
0.0
  0
POINT
  5
246
100
AcDbEntity
  8
DEFPOINTS
  6
CONTINUOUS
 62
         0
100
AcDbPoint
 10
127.5
 20
-303.798651
 30
0.0
  0
ENDBLK
  5
247
100
AcDbEntity
  8
0
  6
ByBlock
 62
         0
100
AcDbBlockEnd
  0
BLOCK
  5
24A
100
AcDbEntity
  8
0
  6
ByBlock
 62
         0
100
AcDbBlockBegin
  2
*D18
 70
         1
 10
0.0
 20
0.0
 30
0.0
  3
*D18
  1

  0
LINE
  5
24B
100
AcDbEntity
  8
0
  6
CONTINUOUS
 62
       110
100
AcDbLine
 10
284.175504
 20
-251.9985
 30
0.0
 11
284.175504
 21
-258.0015
 31
0.0
  0
LINE
  5
24C
100
AcDbEntity
  8
0
  6
CONTINUOUS
 62
       110
100
AcDbLine
 10
284.175504
 20
-236.8752194748
 30
0.0
 11
284.175504
 21
-251.9985
 31
0.0
  0
LINE
  5
24D
100
AcDbEntity
  8
0
  6
CONTINUOUS
 62
       110
100
AcDbLine
 10
265.131249697
 20
-251.9985
 30
0.0
 11
286.675504
 21
-251.9985
 31
0.0
  0
LINE
  5
24E
100
AcDbEntity
  8
0
  6
CONTINUOUS
 62
       110
100
AcDbLine
 10
265.131249697
 20
-258.0015
 30
0.0
 11
286.675504
 21
-258.0015
 31
0.0
  0
SOLID
  5
24F
100
AcDbEntity
  8
0
  6
CONTINUOUS
 62
       110
100
AcDbTrace
 10
284.008836995
 20
-252.9985000298
 30
0.0
 11
284.342171005
 21
-252.9985000298
 31
0.0
 12
284.175504
 22
-251.9985
 32
0.0
 13
284.175504
 23
-251.9985
 33
0.0
  0
SOLID
  5
250
100
AcDbEntity
  8
0
  6
CONTINUOUS
 62
       110
100
AcDbTrace
 10
284.342171005
 20
-257.0014999702
 30
0.0
 11
284.008836995
 21
-257.0014999702
 31
0.0
 12
284.175504
 22
-258.0015
 32
0.0
 13
284.175504
 23
-258.0015
 33
0.0
  0
MTEXT
  5
252
100
AcDbEntity
  8
0
  6
CONTINUOUS
 62
       110
100
AcDbMText
 10
281.5755039762
 20
-239.8752194748
 30
0.0
 40
3.2000000477
 41
0.0
 71
         5
 72
         1
  1
\A1;\U+22056
  7
MX_DIMTXSTY_8
 11
0.0
 21
1.0
 31
0.0
  0
POINT
  5
253
100
AcDbEntity
  8
DEFPOINTS
  6
CONTINUOUS
 62
         0
100
AcDbPoint
 10
265.068749697
 20
-251.9985
 30
0.0
  0
POINT
  5
254
100
AcDbEntity
  8
DEFPOINTS
  6
CONTINUOUS
 62
         0
100
AcDbPoint
 10
265.068749697
 20
-258.0015
 30
0.0
  0
POINT
  5
255
100
AcDbEntity
  8
DEFPOINTS
  6
CONTINUOUS
 62
         0
100
AcDbPoint
 10
284.175504
 20
-258.0015
 30
0.0
  0
ENDBLK
  5
256
100
AcDbEntity
  8
0
  6
ByBlock
 62
         0
100
AcDbBlockEnd
  0
BLOCK
  5
259
100
AcDbEntity
  8
0
  6
ByBlock
 62
         0
100
AcDbBlockBegin
  2
*D19
 70
         1
 10
0.0
 20
0.0
 30
0.0
  3
*D19
  1

  0
LINE
  5
25A
100
AcDbEntity
  8
0
  6
CONTINUOUS
 62
       110
100
AcDbLine
 10
54.0738307
 20
-239.9925
 30
0.0
 11
54.0738307
 21
-270.0075
 31
0.0
  0
LINE
  5
25B
100
AcDbEntity
  8
0
  6
CONTINUOUS
 62
       110
100
AcDbLine
 10
36.7405405999
 20
-239.9925
 30
0.0
 11
56.5738307
 21
-239.9925
 31
0.0
  0
LINE
  5
25C
100
AcDbEntity
  8
0
  6
CONTINUOUS
 62
       110
100
AcDbLine
 10
36.7405405999
 20
-270.0075
 30
0.0
 11
56.5738307
 21
-270.0075
 31
0.0
  0
LINE
  5
25D
100
AcDbEntity
  8
0
  6
CONTINUOUS
 62
       110
100
AcDbLine
 10
54.0738307
 20
-239.9925
 30
0.0
 11
54.0738307
 21
-235.9925
 31
0.0
  0
LINE
  5
25E
100
AcDbEntity
  8
0
  6
CONTINUOUS
 62
       110
100
AcDbLine
 10
54.0738307
 20
-270.0075
 30
0.0
 11
54.0738307
 21
-274.0075
 31
0.0
  0
SOLID
  5
25F
100
AcDbEntity
  8
0
  6
CONTINUOUS
 62
       110
100
AcDbTrace
 10
54.240497705
 20
-238.9924999702
 30
0.0
 11
53.907163695
 21
-238.9924999702
 31
0.0
 12
54.0738307
 22
-239.9925
 32
0.0
 13
54.0738307
 23
-239.9925
 33
0.0
  0
SOLID
  5
260
100
AcDbEntity
  8
0
  6
CONTINUOUS
 62
       110
100
AcDbTrace
 10
53.907163695
 20
-271.0075000298
 30
0.0
 11
54.240497705
 21
-271.0075000298
 31
0.0
 12
54.0738307
 22
-270.0075
 32
0.0
 13
54.0738307
 23
-270.0075
 33
0.0
  0
MTEXT
  5
261
100
AcDbEntity
  8
0
  6
CONTINUOUS
 62
       110
100
AcDbMText
 10
51.4738306762
 20
-254.7000004578
 30
0.0
 40
3.2000000477
 41
0.0
 71
         5
 72
         1
  1
\A1;\U+220530
 11
0.0
 21
1.0
 31
0.0
  0
POINT
  5
262
100
AcDbEntity
  8
DEFPOINTS
  6
CONTINUOUS
 62
         0
100
AcDbPoint
 10
36.6780405999
 20
-239.9925
 30
0.0
  0
POINT
  5
263
100
AcDbEntity
  8
DEFPOINTS
  6
CONTINUOUS
 62
         0
100
AcDbPoint
 10
36.6780405999
 20
-270.0075
 30
0.0
  0
POINT
  5
264
100
AcDbEntity
  8
DEFPOINTS
  6
CONTINUOUS
 62
         0
100
AcDbPoint
 10
54.0738307
 20
-270.0075
 30
0.0
  0
ENDBLK
  5
265
100
AcDbEntity
  8
0
  6
ByBlock
 62
         0
100
AcDbBlockEnd
  0
ENDSEC
  0
SECTION
  2
ENTITIES
  0
MTEXT
  5
29
100
AcDbEntity
  8
0
  6
CONTINUOUS
 62
       110
100
AcDbMText
 10
-131.6700160583
 20
-30.8204249395
 30
0.0
 40
3.2016000748
 41
0.0
 71
         1
 72
         1
  1
\T1.025;\W1.058;\A1;TSUBAKI
  0
INSERT
  5
2A
100
AcDbEntity
  8
PV
  6
ByBlock
100
AcDbBlockReference
  2
ARROW
 10
-164.170654
 20
-123.147795
 30
0.0
 50
206.190075
  0
INSERT
  5
2B
100
AcDbEntity
  8
PV
  6
ByBlock
100
AcDbBlockReference
  2
ARROW
 10
-175.841846
 20
-128.888205
 30
0.0
 50
26.1900746
  0
MTEXT
  5
2C
100
AcDbEntity
  8
PV
  6
CONTINUOUS
 62
       110
100
AcDbMText
 10
77.4388092079
 20
7.0
 30
0.0
 40
4.0
 41
0.0
 71
         1
 72
         1
  1
\W1.286;\A1;3.4
  0
MTEXT
  5
2D
100
AcDbEntity
  8
PV
  6
CONTINUOUS
 62
       110
100
AcDbMText
 10
65.4816663258
 20
17.0
 30
0.0
 40
4.0
 41
0.0
 71
         1
 72
         1
  1
\W1.350;\A1;94.1\{9.6\}
  0
MTEXT
  5
2E
100
AcDbEntity
  8
PV
  6
CONTINUOUS
 62
       110
100
AcDbMText
 10
65.4388092042
 20
27.0
 30
0.0
 40
4.0
 41
0.0
 71
         1
 72
         1
  1
\W1.286;\A1;53.9\{5.5\}
  0
MTEXT
  5
2F
100
AcDbEntity
  8
PV
  6
CONTINUOUS
 62
       110
100
AcDbMText
 10
63.397992906
 20
37.0
 30
0.0
 40
4.0
 41
0.0
 71
         1
 72
         1
  1
\W1.224;\A1;9800\{1000\}
  0
MTEXT
  5
30
100
AcDbEntity
  8
PV
  6
CONTINUOUS
 62
       110
100
AcDbMText
 10
79.3816663687
 20
47.0
 30
0.0
 40
4.0
 41
0.0
 71
         1
 72
         1
  1
\W1.200;\A1;18
  0
MTEXT
  5
31
100
AcDbEntity
  8
PV
  6
CONTINUOUS
 62
       110
100
AcDbMText
 10
65.3316663991
 20
57.0
 30
0.0
 40
4.0
 41
0.0
 71
         1
 72
         1
  1
\W1.125;\A1;2750\{280\}
  0
MTEXT
  5
32
100
AcDbEntity
  8
PV
  6
CONTINUOUS
 62
       110
100
AcDbMText
 10
75.4705552212
 20
67.0
 30
0.0
 40
4.0
 41
0.0
 71
         1
 72
         1
  1
\W1.333;\A1;31.5
  0
MTEXT
  5
33
100
AcDbEntity
  8
PV
  6
CONTINUOUS
 62
       110
100
AcDbMText
 10
73.2483330784
 20
77.0
 30
0.0
 40
4.0
 41
0.0
 71
         1
 72
         1
  1
\W0.833;\A1;０～０．５
  0
MTEXT
  5
34
100
AcDbEntity
  8
PV
  6
CONTINUOUS
 62
       110
100
AcDbMText
 10
65.4188756592
 20
87.0
 30
0.0
 40
4.0
 41
0.0
 71
         1
 72
         1
  1
\W1.256;\A1;309\{31.5\}
  0
MTEXT
  5
35
100
AcDbEntity
  8
PV
  6
CONTINUOUS
 62
       110
100
AcDbMText
 10
65.2483330784
 20
97.0
 30
0.0
 40
4.0
 41
0.0
 71
         1
 72
         1
  1
\W0.833;\A1;１５０～１５０００
  0
MTEXT
  5
36
100
AcDbEntity
  8
PV
  6
CONTINUOUS
 62
       110
100
AcDbMText
 10
57.2749997594
 20
107.0
 30
0.0
 40
4.0
 41
0.0
 71
         1
 72
         1
  1
\W1.040;\A1;DP005A032L-TE
  0
MTEXT
  5
37
100
AcDbEntity
  8
PV
  6
CONTINUOUS
 62
       110
100
AcDbMText
 10
2.4388092079
 20
7.0
 30
0.0
 40
4.0
 41
0.0
 71
         1
 72
         1
  1
\W1.286;\A1;3.4
  0
MTEXT
  5
38
100
AcDbEntity
  8
PV
  6
CONTINUOUS
 62
       110
100
AcDbMText
 10
-9.5183336442
 20
17.0
 30
0.0
 40
4.0
 41
0.0
 71
         1
 72
         1
  1
\W1.350;\A1;94.1\{9.6\}
  0
MTEXT
  5
39
100
AcDbEntity
  8
PV
  6
CONTINUOUS
 62
       110
100
AcDbMText
 10
-9.5611907658
 20
27.0
 30
0.0
 40
4.0
 41
0.0
 71
         1
 72
         1
  1
\W1.286;\A1;53.9\{5.5\}
  0
MTEXT
  5
3A
100
AcDbEntity
  8
PV
  6
CONTINUOUS
 62
       110
100
AcDbMText
 10
-11.602007094
 20
37.0
 30
0.0
 40
4.0
 41
0.0
 71
         1
 72
         1
  1
\W1.224;\A1;9800\{1000\}
  0
MTEXT
  5
3B
100
AcDbEntity
  8
PV
  6
CONTINUOUS
 62
       110
100
AcDbMText
 10
4.3816663787
 20
47.0
 30
0.0
 40
4.0
 41
0.0
 71
         1
 72
         1
  1
\W1.200;\A1;18
  0
MTEXT
  5
3C
100
AcDbEntity
  8
PV
  6
CONTINUOUS
 62
       110
100
AcDbMText
 10
-9.6683335709
 20
57.0
 30
0.0
 40
4.0
 41
0.0
 71
         1
 72
         1
  1
\W1.125;\A1;2750\{280\}
  0
MTEXT
  5
3D
100
AcDbEntity
  8
PV
  6
CONTINUOUS
 62
       110
100
AcDbMText
 10
0.4705552252
 20
67.0
 30
0.0
 40
4.0
 41
0.0
 71
         1
 72
         1
  1
\W1.333;\A1;31.5
  0
MTEXT
  5
3E
100
AcDbEntity
  8
PV
  6
CONTINUOUS
 62
       110
100
AcDbMText
 10
-5.7516669116
 20
77.0
 30
0.0
 40
4.0
 41
0.0
 71
         1
 72
         1
  1
\W0.833;\A1;０．１～２．５
  0
MTEXT
  5
3F
100
AcDbEntity
  8
PV
  6
CONTINUOUS
 62
       110
100
AcDbMText
 10
-9.5811243108
 20
87.0
 30
0.0
 40
4.0
 41
0.0
 71
         1
 72
         1
  1
\W1.256;\A1;309\{31.5\}
  0
MTEXT
  5
40
100
AcDbEntity
  8
PV
  6
CONTINUOUS
 62
       110
100
AcDbMText
 10
-5.7516669116
 20
97.0
 30
0.0
 40
4.0
 41
0.0
 71
         1
 72
         1
  1
\W0.833;\A1;５０～５０００
  0
MTEXT
  5
41
100
AcDbEntity
  8
PV
  6
CONTINUOUS
 62
       110
100
AcDbMText
 10
-11.7165791904
 20
107.0
 30
0.0
 40
4.0
 41
0.0
 71
         1
 72
         1
  1
\W1.053;\A1;DP005A032L
  0
MTEXT
  5
42
100
AcDbEntity
  8
PV
  6
CONTINUOUS
 62
       110
100
AcDbMText
 10
-84.2666669216
 20
17.0
 30
0.0
 40
4.0
 41
0.0
 71
         1
 72
         1
  1
\W0.833;\A1;ロッド収縮時
  0
MTEXT
  5
43
100
AcDbEntity
  8
PV
  6
CONTINUOUS
 62
       110
100
AcDbMText
 10
-84.2666669216
 20
27.0
 30
0.0
 40
4.0
 41
0.0
 71
         1
 72
         1
  1
\W0.833;\A1;ロッド伸張時
  0
MTEXT
  5
44
100
AcDbEntity
  8
PV
  6
CONTINUOUS
 62
       110
100
AcDbMText
 10
-55.1833336065
 20
17.0
 30
0.0
 40
4.0
 41
0.0
 71
         1
 72
         1
  1
\W1.125;\A1;N\{kgf\}
  0
MTEXT
  5
45
100
AcDbEntity
  8
PV
  6
CONTINUOUS
 62
       110
100
AcDbMText
 10
-59.2666666213
 20
7.0
 30
0.0
 40
4.0
 41
0.0
 71
         1
 72
         1
  1
\A1;kg
  0
MTEXT
  5
46
100
AcDbEntity
  8
PV
  6
CONTINUOUS
 62
       110
100
AcDbMText
 10
-117.2666670216
 20
7.0
 30
0.0
 40
4.0
 41
0.0
 71
         1
 72
         1
  1
\W0.833;\A1;製品質量
  0
MTEXT
  5
47
100
AcDbEntity
  8
PV
  6
CONTINUOUS
 62
       110
100
AcDbMText
 10
-55.1833336065
 20
27.0
 30
0.0
 40
4.0
 41
0.0
 71
         1
 72
         1
  1
\W1.125;\A1;N\{kgf\}
  0
MTEXT
  5
48
100
AcDbEntity
  8
PV
  6
CONTINUOUS
 62
       110
100
AcDbMText
 10
-55.1833336065
 20
37.0
 30
0.0
 40
4.0
 41
0.0
 71
         1
 72
         1
  1
\W1.125;\A1;N\{kgf\}
  0
MTEXT
  5
49
100
AcDbEntity
  8
PV
  6
CONTINUOUS
 62
       110
100
AcDbMText
 10
-35.5666667667
 20
47.5
 30
0.0
 40
2.0
 41
0.0
 71
         1
 72
         1
  1
\W1.200;\A1;-1
  0
MTEXT
  5
4A
100
AcDbEntity
  8
PV
  6
CONTINUOUS
 62
       110
100
AcDbMText
 10
-46.8044272242
 20
47.0
 30
0.0
 40
4.0
 41
0.0
 71
         1
 72
         1
  1
\T1.134;\W1.334;\A1;min
  0
MTEXT
  5
4B
100
AcDbEntity
  8
PV
  6
CONTINUOUS
 62
       110
100
AcDbMText
 10
-67.1022222501
 20
54.2000001502
 30
0.0
 40
3.2000000477
 41
0.0
 71
         1
 72
         1
  1
\W0.787;\A1;｛ｋｇｆ・ｍ／　ｍｉｎ｝
  0
MTEXT
  5
4C
100
AcDbEntity
  8
PV
  6
CONTINUOUS
 62
       110
100
AcDbMText
 10
-66.445825428
 20
59.0000001502
 30
0.0
 40
3.2000000477
 41
0.0
 71
         1
 72
         1
  1
\T1.186;\W1.723;\A1;      J/ min
  0
MTEXT
  5
4D
100
AcDbEntity
  8
PV
  6
CONTINUOUS
 62
       110
100
AcDbMText
 10
-39.2666666213
 20
67.0
 30
0.0
 40
4.0
 41
0.0
 71
         1
 72
         1
  1
\A1;mm
  0
MTEXT
  5
4E
100
AcDbEntity
  8
PV
  6
CONTINUOUS
 62
       110
100
AcDbMText
 10
-43.5273783729
 20
77.0
 30
0.0
 40
4.0
 41
0.0
 71
         1
 72
         1
  1
\W1.089;\A1;m/ s
  0
MTEXT
  5
4F
100
AcDbEntity
  8
PV
  6
CONTINUOUS
 62
       110
100
AcDbMText
 10
-63.2666669216
 20
87.0
 30
0.0
 40
4.0
 41
0.0
 71
         1
 72
         1
  1
\W0.833;\A1;Ｊ｛ｋｇｆ・ｍ｝
  0
MTEXT
  5
50
100
AcDbEntity
  8
PV
  6
CONTINUOUS
 62
       110
100
AcDbMText
 10
-59.1964914948
 20
97.0
 30
0.0
 40
4.0
 41
0.0
 71
         1
 72
         1
  1
\W1.105;\A1;kg\{kgf\}
  0
MTEXT
  5
51
100
AcDbEntity
  8
PV
  6
CONTINUOUS
 62
       110
100
AcDbMText
 10
-117.2666670216
 20
22.0
 30
0.0
 40
4.0
 41
0.0
 71
         1
 72
         1
  1
\W0.833;\A1;復帰バネ設定力
  0
MTEXT
  5
52
100
AcDbEntity
  8
PV
  6
CONTINUOUS
 62
       110
100
AcDbMText
 10
-117.2666670216
 20
37.0
 30
0.0
 40
4.0
 41
0.0
 71
         1
 72
         1
  1
\W0.833;\A1;許容抵抗力
  0
MTEXT
  5
53
100
AcDbEntity
  8
PV
  6
CONTINUOUS
 62
       110
100
AcDbMText
 10
-117.2666670216
 20
47.0
 30
0.0
 40
4.0
 41
0.0
 71
         1
 72
         1
  1
\W0.833;\A1;毎分当りの最高使用頻度
  0
MTEXT
  5
54
100
AcDbEntity
  8
PV
  6
CONTINUOUS
 62
       110
100
AcDbMText
 10
-117.0133330512
 20
54.2000001502
 30
0.0
 40
3.2000000477
 41
0.0
 71
         1
 72
         1
  1
\W0.833;\A1;吸収エネルギ－の最大値
  0
MTEXT
  5
55
100
AcDbEntity
  8
PV
  6
CONTINUOUS
 62
       110
100
AcDbMText
 10
-117.0133330512
 20
59.0000001502
 30
0.0
 40
3.2000000477
 41
0.0
 71
         1
 72
         1
  1
\W0.833;\A1;毎分当りの
  0
MTEXT
  5
56
100
AcDbEntity
  8
PV
  6
CONTINUOUS
 62
       110
100
AcDbMText
 10
-117.2666670216
 20
67.0
 30
0.0
 40
4.0
 41
0.0
 71
         1
 72
         1
  1
\W0.833;\A1;吸収ストロ－ク
  0
MTEXT
  5
57
100
AcDbEntity
  8
PV
  6
CONTINUOUS
 62
       110
100
AcDbMText
 10
-117.2666670216
 20
77.0
 30
0.0
 40
4.0
 41
0.0
 71
         1
 72
         1
  1
\W0.833;\A1;許容衝突速度
  0
MTEXT
  5
58
100
AcDbEntity
  8
PV
  6
CONTINUOUS
 62
       110
100
AcDbMText
 10
-117.2666670216
 20
87.0
 30
0.0
 40
4.0
 41
0.0
 71
         1
 72
         1
  1
\W0.833;\A1;吸収エネルギ－の最大値
  0
MTEXT
  5
59
100
AcDbEntity
  8
PV
  6
CONTINUOUS
 62
       110
100
AcDbMText
 10
-117.2666670216
 20
97.0
 30
0.0
 40
4.0
 41
0.0
 71
         1
 72
         1
  1
\W0.833;\A1;衝突物の許容相当質量｛重量｝
  0
MTEXT
  5
5A
100
AcDbEntity
  8
PV
  6
CONTINUOUS
 62
       110
100
AcDbMText
 10
-117.2666670216
 20
107.0
 30
0.0
 40
4.0
 41
0.0
 71
         1
 72
         1
  1
\W0.833;\A1;形番
  0
LINE
  5
5B
100
AcDbEntity
  8
PV
  6
CONTINUOUS
 62
         3
100
AcDbLine
 10
45.0
 20
110.0
 30
0.0
 11
45.0
 21
0.0
 31
0.0
  0
LINE
  5
5C
100
AcDbEntity
  8
PV
  6
CONTINUOUS
 62
         3
100
AcDbLine
 10
120.0
 20
110.0
 30
0.0
 11
120.0
 21
0.0
 31
0.0
  0
LINE
  5
5D
100
AcDbEntity
  8
PV
  6
CONTINUOUS
 62
         3
100
AcDbLine
 10
-87.0
 20
30.0
 30
0.0
 11
-87.0
 21
10.0
 31
0.0
  0
LINE
  5
5E
100
AcDbEntity
  8
PV
  6
CONTINUOUS
 62
         3
100
AcDbLine
 10
-120.0
 20
110.0
 30
0.0
 11
120.0
 21
110.0
 31
0.0
  0
LINE
  5
5F
100
AcDbEntity
  8
PV
  6
CONTINUOUS
 62
         3
100
AcDbLine
 10
-120.0
 20
100.0
 30
0.0
 11
120.0
 21
100.0
 31
0.0
  0
LINE
  5
60
100
AcDbEntity
  8
PV
  6
CONTINUOUS
 62
         3
100
AcDbLine
 10
-120.0
 20
90.0
 30
0.0
 11
120.0
 21
90.0
 31
0.0
  0
LINE
  5
61
100
AcDbEntity
  8
PV
  6
CONTINUOUS
 62
         3
100
AcDbLine
 10
-120.0
 20
80.0
 30
0.0
 11
120.0
 21
80.0
 31
0.0
  0
LINE
  5
62
100
AcDbEntity
  8
PV
  6
CONTINUOUS
 62
         3
100
AcDbLine
 10
-120.0
 20
70.0
 30
0.0
 11
120.0
 21
70.0
 31
0.0
  0
LINE
  5
63
100
AcDbEntity
  8
PV
  6
CONTINUOUS
 62
         3
100
AcDbLine
 10
-120.0
 20
60.0
 30
0.0
 11
120.0
 21
60.0
 31
0.0
  0
LINE
  5
64
100
AcDbEntity
  8
PV
  6
CONTINUOUS
 62
         3
100
AcDbLine
 10
-120.0
 20
50.0
 30
0.0
 11
120.0
 21
50.0
 31
0.0
  0
LINE
  5
65
100
AcDbEntity
  8
PV
  6
CONTINUOUS
 62
         3
100
AcDbLine
 10
-120.0
 20
40.0
 30
0.0
 11
120.0
 21
40.0
 31
0.0
  0
LINE
  5
66
100
AcDbEntity
  8
PV
  6
CONTINUOUS
 62
         3
100
AcDbLine
 10
-120.0
 20
30.0
 30
0.0
 11
120.0
 21
30.0
 31
0.0
  0
LINE
  5
67
100
AcDbEntity
  8
PV
  6
CONTINUOUS
 62
         3
100
AcDbLine
 10
-87.0
 20
20.0
 30
0.0
 11
120.0
 21
20.0
 31
0.0
  0
LINE
  5
68
100
AcDbEntity
  8
PV
  6
CONTINUOUS
 62
         3
100
AcDbLine
 10
-120.0
 20
10.0
 30
0.0
 11
120.0
 21
10.0
 31
0.0
  0
LINE
  5
69
100
AcDbEntity
  8
PV
  6
CONTINUOUS
 62
         3
100
AcDbLine
 10
-30.0
 20
110.0
 30
0.0
 11
-30.0
 21
0.0
 31
0.0
  0
LINE
  5
6A
100
AcDbEntity
  8
PV
  6
CONTINUOUS
 62
         3
100
AcDbLine
 10
-120.0
 20
110.0
 30
0.0
 11
-120.0
 21
0.0
 31
0.0
  0
LINE
  5
6B
100
AcDbEntity
  8
PV
  6
CONTINUOUS
 62
         3
100
AcDbLine
 10
-120.0
 20
0.0
 30
0.0
 11
120.0
 21
0.0
 31
0.0
  0
MTEXT
  5
6C
100
AcDbEntity
  8
PV
  6
CONTINUOUS
 62
       110
100
AcDbMText
 10
-131.9182756654
 20
-41.4257250466
 30
0.0
 40
4.001999855
 41
0.0
 71
         1
 72
         1
  1
\W1.091;\A1;DP005A032+(DP005L)
  0
MTEXT
  5
6D
100
AcDbEntity
  8
PV
  6
CONTINUOUS
 62
       110
100
AcDbMText
 10
-131.6865509949
 20
-35.8229249395
 30
0.0
 40
3.2016000748
 41
0.0
 71
         1
 72
         1
  1
\T1.017;\W1.071;\A1;SHOCK DAMPER
  0
CIRCLE
  5
6E
100
AcDbEntity
  8
PV
  6
CONTINUOUS
 62
         3
100
AcDbCircle
 10
-40.94175
 20
-90.0
 30
0.0
 40
1.50075
  0
CIRCLE
  5
6F
100
AcDbEntity
  8
PV
  6
CONTINUOUS
 62
         3
100
AcDbCircle
 10
-7.425
 20
-126.018
 30
0.0
 40
6.50325
  0
CIRCLE
  5
70
100
AcDbEntity
  8
PV
  6
CONTINUOUS
 62
         3
100
AcDbCircle
 10
-7.425
 20
-53.982
 30
0.0
 40
6.50325
  0
CIRCLE
  5
71
100
AcDbEntity
  8
PV
  6
CONTINUOUS
 62
         3
100
AcDbCircle
 10
-170.00625
 20
-126.018
 30
0.0
 40
6.50325
  0
CIRCLE
  5
72
100
AcDbEntity
  8
PV
  6
CONTINUOUS
 62
         3
100
AcDbCircle
 10
-170.00625
 20
-53.982
 30
0.0
 40
6.50325
  0
ARC
  5
73
100
AcDbEntity
  8
PV
  6
CONTINUOUS
 62
         3
100
AcDbCircle
 10
-0.4215
 20
-90.0
 30
0.0
 40
40.02
100
AcDbArc
 50
337.976
 51
22.024
  0
CIRCLE
  5
74
100
AcDbEntity
  8
PV
  6
CONTINUOUS
 62
         3
100
AcDbCircle
 10
-88.96575
 20
-90.0
 30
0.0
 40
3.0015
  0
LINE
  5
76
100
AcDbEntity
  8
PV
  6
CENTER
 62
         3
100
AcDbLine
 10
-170.00625
 20
-65.7909015
 30
0.0
 11
-170.00625
 21
-34.7724
 31
0.0
  0
LINE
  5
77
100
AcDbEntity
  8
PV
  6
CONTINUOUS
 62
         3
100
AcDbLine
 10
-8.92575
 20
-105.731862
 30
0.0
 11
5.08125
 21
-105.731862
 31
0.0
  0
LINE
  5
78
100
AcDbEntity
  8
PV
  6
CONTINUOUS
 62
         3
100
AcDbLine
 10
-8.92575
 20
-74.268138
 30
0.0
 11
5.08125
 21
-74.268138
 31
0.0
  0
LINE
  5
79
100
AcDbEntity
  8
PV
  6
CONTINUOUS
 62
         3
100
AcDbLine
 10
-182.5125
 20
-105.731862
 30
0.0
 11
-157.5
 21
-105.731862
 31
0.0
  0
LINE
  5
7A
100
AcDbEntity
  8
PV
  6
CONTINUOUS
 62
         3
100
AcDbLine
 10
-182.5125
 20
-74.268138
 30
0.0
 11
-157.5
 21
-74.268138
 31
0.0
  0
LINE
  5
7B
100
AcDbEntity
  8
PV
  6
CONTINUOUS
 62
         3
100
AcDbLine
 10
-8.92575
 20
-106.008
 30
0.0
 11
-19.93125
 21
-106.008
 31
0.0
  0
LINE
  5
7C
100
AcDbEntity
  8
PV
  6
CONTINUOUS
 62
         3
100
AcDbLine
 10
5.08125
 20
-97.0035
 30
0.0
 11
5.08125
 21
-140.025
 31
0.0
  0
LINE
  5
7D
100
AcDbEntity
  8
PV
  6
CENTER
 62
         3
100
AcDbLine
 10
-7.425
 20
-65.9749935
 30
0.0
 11
-7.425
 21
-36.9344805
 31
0.0
  0
LINE
  5
7E
100
AcDbEntity
  8
PV
  6
CONTINUOUS
 62
         3
100
AcDbLine
 10
-19.93125
 20
-39.975
 30
0.0
 11
5.08125
 21
-39.975
 31
0.0
  0
LINE
  5
7F
100
AcDbEntity
  8
PV
  6
CONTINUOUS
 62
         3
100
AcDbLine
 10
-19.93125
 20
-140.025
 30
0.0
 11
5.08125
 21
-140.025
 31
0.0
  0
LINE
  5
80
100
AcDbEntity
  8
PV
  6
CENTER
 62
         3
100
AcDbLine
 10
-25.269918
 20
-126.018
 30
0.0
 11
13.8146145
 21
-126.018
 31
0.0
  0
LINE
  5
81
100
AcDbEntity
  8
PV
  6
CENTER
 62
         3
100
AcDbLine
 10
-25.488027
 20
-53.982
 30
0.0
 11
11.630523
 21
-53.982
 31
0.0
  0
LINE
  5
82
100
AcDbEntity
  8
PV
  6
CENTER
 62
         3
100
AcDbLine
 10
-184.735611
 20
-126.018
 30
0.0
 11
-152.93672
 21
-126.018
 31
0.0
  0
LINE
  5
83
100
AcDbEntity
  8
PV
  6
CENTER
 62
         3
100
AcDbLine
 10
-187.181834
 20
-53.982
 30
0.0
 11
-150.79665
 21
-53.982
 31
0.0
  0
LINE
  5
84
100
AcDbEntity
  8
PV
  6
CONTINUOUS
 62
         3
100
AcDbLine
 10
-182.5125
 20
-140.025
 30
0.0
 11
-157.5
 21
-140.025
 31
0.0
  0
LINE
  5
85
100
AcDbEntity
  8
PV
  6
CONTINUOUS
 62
         3
100
AcDbLine
 10
-182.5125
 20
-39.975
 30
0.0
 11
-157.5
 21
-39.975
 31
0.0
  0
LINE
  5
86
100
AcDbEntity
  8
PV
  6
CENTER
 62
         3
100
AcDbLine
 10
-7.425
 20
-142.397185
 30
0.0
 11
-7.425
 21
-113.792891
 31
0.0
  0
LINE
  5
87
100
AcDbEntity
  8
PV
  6
CONTINUOUS
 62
         3
100
AcDbLine
 10
-19.93125
 20
-39.975
 30
0.0
 11
-19.93125
 21
-140.025
 31
0.0
  0
LINE
  5
88
100
AcDbEntity
  8
PV
  6
CONTINUOUS
 62
         3
100
AcDbLine
 10
5.08125
 20
-39.975
 30
0.0
 11
5.08125
 21
-82.9965
 31
0.0
  0
LINE
  5
89
100
AcDbEntity
  8
PV
  6
CENTER
 62
         3
100
AcDbLine
 10
-170.00625
 20
-143.92695
 30
0.0
 11
-170.00625
 21
-113.4117
 31
0.0
  0
LINE
  5
8A
100
AcDbEntity
  8
PV
  6
CONTINUOUS
 62
         3
100
AcDbLine
 10
-182.5125
 20
-39.975
 30
0.0
 11
-182.5125
 21
-140.025
 31
0.0
  0
LINE
  5
8B
100
AcDbEntity
  8
PV
  6
CONTINUOUS
 62
         3
100
AcDbLine
 10
-157.5
 20
-39.975
 30
0.0
 11
-157.5
 21
-140.025
 31
0.0
  0
LINE
  5
8C
100
AcDbEntity
  8
PV
  6
CONTINUOUS
 62
         3
100
AcDbLine
 10
36.6780405
 20
-105.0075
 30
0.0
 11
36.6780405
 21
-74.9925
 31
0.0
  0
LINE
  5
8D
100
AcDbEntity
  8
PV
  6
CENTER
 62
         3
100
AcDbLine
 10
-88.96575
 20
-83.997
 30
0.0
 11
-88.96575
 21
-96.003
 31
0.0
  0
LINE
  5
8E
100
AcDbEntity
  8
PV
  6
CONTINUOUS
 62
         3
100
AcDbLine
 10
-44.077317
 20
-122.016
 30
0.0
 11
-42.94275
 21
-122.016
 31
0.0
  0
LINE
  5
8F
100
AcDbEntity
  8
PV
  6
CONTINUOUS
 62
         3
100
AcDbLine
 10
-56.815683
 20
-122.016
 30
0.0
 11
-55.94925
 21
-121.51575
 31
0.0
  0
LINE
  5
90
100
AcDbEntity
  8
PV
  6
CONTINUOUS
 62
         3
100
AcDbLine
 10
-44.94375
 20
-121.51575
 30
0.0
 11
-44.077317
 21
-122.016
 31
0.0
  0
LINE
  5
91
100
AcDbEntity
  8
PV
  6
CONTINUOUS
 62
         3
100
AcDbLine
 10
-55.94925
 20
-121.51575
 30
0.0
 11
-44.94375
 21
-121.51575
 31
0.0
  0
LINE
  5
92
100
AcDbEntity
  8
PV
  6
CONTINUOUS
 62
         3
100
AcDbLine
 10
-81.96225
 20
-122.016
 30
0.0
 11
-56.815683
 21
-122.016
 31
0.0
  0
LINE
  5
93
100
AcDbEntity
  8
PV
  6
CONTINUOUS
 62
         3
100
AcDbLine
 10
-44.077317
 20
-57.984
 30
0.0
 11
-42.94275
 21
-57.984
 31
0.0
  0
LINE
  5
94
100
AcDbEntity
  8
PV
  6
CONTINUOUS
 62
         3
100
AcDbLine
 10
-56.815683
 20
-57.984
 30
0.0
 11
-55.94925
 21
-58.48425
 31
0.0
  0
LINE
  5
95
100
AcDbEntity
  8
PV
  6
CONTINUOUS
 62
         3
100
AcDbLine
 10
-44.94375
 20
-58.48425
 30
0.0
 11
-44.077317
 21
-57.984
 31
0.0
  0
LINE
  5
96
100
AcDbEntity
  8
PV
  6
CONTINUOUS
 62
         3
100
AcDbLine
 10
-55.94925
 20
-58.48425
 30
0.0
 11
-44.94375
 21
-58.48425
 31
0.0
  0
LINE
  5
97
100
AcDbEntity
  8
PV
  6
CONTINUOUS
 62
         3
100
AcDbLine
 10
-81.96225
 20
-57.984
 30
0.0
 11
-56.815683
 21
-57.984
 31
0.0
  0
LINE
  5
98
100
AcDbEntity
  8
PV
  6
CONTINUOUS
 62
         3
100
AcDbLine
 10
-137.49
 20
-122.016
 30
0.0
 11
-95.96925
 21
-122.016
 31
0.0
  0
LINE
  5
99
100
AcDbEntity
  8
PV
  6
CONTINUOUS
 62
         3
100
AcDbLine
 10
-137.49
 20
-57.984
 30
0.0
 11
-95.96925
 21
-57.984
 31
0.0
  0
LINE
  5
9A
100
AcDbEntity
  8
PV
  6
CONTINUOUS
 62
         3
100
AcDbLine
 10
-95.96925
 20
-122.266125
 30
0.0
 11
-81.96225
 21
-122.266125
 31
0.0
  0
LINE
  5
9B
100
AcDbEntity
  8
PV
  6
CONTINUOUS
 62
         3
100
AcDbLine
 10
-95.96925
 20
-57.733875
 30
0.0
 11
-81.96225
 21
-57.733875
 31
0.0
  0
LINE
  5
9C
100
AcDbEntity
  8
PV
  6
CONTINUOUS
 62
         3
100
AcDbLine
 10
-95.96925
 20
-57.733875
 30
0.0
 11
-95.96925
 21
-122.266125
 31
0.0
  0
LINE
  5
9D
100
AcDbEntity
  8
PV
  6
CONTINUOUS
 62
         3
100
AcDbLine
 10
-81.96225
 20
-57.733875
 30
0.0
 11
-81.96225
 21
-122.266125
 31
0.0
  0
LINE
  5
9E
100
AcDbEntity
  8
PV
  6
CONTINUOUS
 62
         3
100
AcDbLine
 10
-42.94275
 20
-122.51625
 30
0.0
 11
-19.93125
 21
-122.51625
 31
0.0
  0
LINE
  5
9F
100
AcDbEntity
  8
PV
  6
CONTINUOUS
 62
         3
100
AcDbLine
 10
-42.94275
 20
-57.48375
 30
0.0
 11
-19.93125
 21
-57.48375
 31
0.0
  0
LINE
  5
A0
100
AcDbEntity
  8
PV
  6
CONTINUOUS
 62
         3
100
AcDbLine
 10
-157.5
 20
-122.51625
 30
0.0
 11
-137.49
 21
-122.51625
 31
0.0
  0
LINE
  5
A1
100
AcDbEntity
  8
PV
  6
CONTINUOUS
 62
         3
100
AcDbLine
 10
-157.5
 20
-57.48375
 30
0.0
 11
-137.49
 21
-57.48375
 31
0.0
  0
LINE
  5
A2
100
AcDbEntity
  8
PV
  6
CENTER
 62
         3
100
AcDbLine
 10
-40.94175
 20
-85.259631
 30
0.0
 11
-40.94175
 21
-95.184591
 31
0.0
  0
LINE
  5
A3
100
AcDbEntity
  8
PV
  6
CONTINUOUS
 62
         3
100
AcDbLine
 10
-42.94275
 20
-122.016
 30
0.0
 11
-44.077317
 21
-122.016
 31
0.0
  0
LINE
  5
A4
100
AcDbEntity
  8
PV
  6
CONTINUOUS
 62
         3
100
AcDbLine
 10
-137.49
 20
-57.48375
 30
0.0
 11
-137.49
 21
-122.51625
 31
0.0
  0
LINE
  5
A5
100
AcDbEntity
  8
PV
  6
CONTINUOUS
 62
         3
100
AcDbLine
 10
36.6780405
 20
-105.0075
 30
0.0
 11
22.59
 21
-105.0075
 31
0.0
  0
LINE
  5
A6
100
AcDbEntity
  8
PV
  6
CONTINUOUS
 62
         3
100
AcDbLine
 10
22.59
 20
-97.0035
 30
0.0
 11
-8.92575
 21
-97.0035
 31
0.0
  0
LINE
  5
A7
100
AcDbEntity
  8
PV
  6
CONTINUOUS
 62
         3
100
AcDbLine
 10
-55.94925
 20
-58.48425
 30
0.0
 11
-55.94925
 21
-121.51575
 31
0.0
  0
LINE
  5
A8
100
AcDbEntity
  8
PV
  6
CONTINUOUS
 62
         3
100
AcDbLine
 10
-44.94375
 20
-58.48425
 30
0.0
 11
-44.94375
 21
-121.51575
 31
0.0
  0
LINE
  5
A9
100
AcDbEntity
  8
PV
  6
CONTINUOUS
 62
         3
100
AcDbLine
 10
-42.94275
 20
-57.48375
 30
0.0
 11
-42.94275
 21
-122.51625
 31
0.0
  0
LINE
  5
AA
100
AcDbEntity
  8
PV
  6
CONTINUOUS
 62
         3
100
AcDbLine
 10
-8.92575
 20
-73.992
 30
0.0
 11
-19.93125
 21
-73.992
 31
0.0
  0
LINE
  5
AB
100
AcDbEntity
  8
PV
  6
CONTINUOUS
 62
         3
100
AcDbLine
 10
22.59
 20
-74.9925
 30
0.0
 11
36.6780405
 21
-74.9925
 31
0.0
  0
LINE
  5
AC
100
AcDbEntity
  8
PV
  6
CONTINUOUS
 62
         3
100
AcDbLine
 10
-8.92575
 20
-82.9965
 30
0.0
 11
22.59
 21
-82.9965
 31
0.0
  0
LINE
  5
AD
100
AcDbEntity
  8
PV
  6
CONTINUOUS
 62
         3
100
AcDbLine
 10
22.59
 20
-74.9925
 30
0.0
 11
22.59
 21
-105.0075
 31
0.0
  0
LINE
  5
AE
100
AcDbEntity
  8
PV
  6
CONTINUOUS
 62
         3
100
AcDbLine
 10
-8.92575
 20
-73.992
 30
0.0
 11
-8.92575
 21
-106.008
 31
0.0
  0
LINE
  5
AF
100
AcDbEntity
  8
PV
  6
CENTER
 62
         3
100
AcDbLine
 10
-194.973728
 20
-90.0
 30
0.0
 11
56.4859395
 21
-90.0
 31
0.0
  0
CIRCLE
  5
B0
100
AcDbEntity
  8
PV
  6
CONTINUOUS
 62
         3
100
AcDbCircle
 10
-267.313161
 20
-272.686839
 30
0.0
 40
5.652825
  0
CIRCLE
  5
B1
100
AcDbEntity
  8
PV
  6
CONTINUOUS
 62
         3
100
AcDbCircle
 10
-267.313161
 20
-272.686839
 30
0.0
 40
6.50325
  0
LINE
  5
B2
100
AcDbEntity
  8
PV
  6
CONTINUOUS
 62
         3
100
AcDbLine
 10
-267.313161
 20
-276.152571
 30
0.0
 11
-270.314661
 21
-274.419705
 31
0.0
  0
LINE
  5
B3
100
AcDbEntity
  8
PV
  6
CONTINUOUS
 62
         3
100
AcDbLine
 10
-270.314661
 20
-274.419705
 30
0.0
 11
-270.314661
 21
-270.953973
 31
0.0
  0
LINE
  5
B4
100
AcDbEntity
  8
PV
  6
CONTINUOUS
 62
         3
100
AcDbLine
 10
-270.314661
 20
-270.953973
 30
0.0
 11
-267.313161
 21
-269.221107
 31
0.0
  0
LINE
  5
B5
100
AcDbEntity
  8
PV
  6
CONTINUOUS
 62
         3
100
AcDbLine
 10
-267.313161
 20
-269.221107
 30
0.0
 11
-264.311661
 21
-270.953973
 31
0.0
  0
LINE
  5
B6
100
AcDbEntity
  8
PV
  6
CONTINUOUS
 62
         3
100
AcDbLine
 10
-264.311661
 20
-270.953973
 30
0.0
 11
-264.311661
 21
-274.419705
 31
0.0
  0
LINE
  5
B7
100
AcDbEntity
  8
PV
  6
CONTINUOUS
 62
         3
100
AcDbLine
 10
-264.311661
 20
-274.419705
 30
0.0
 11
-267.313161
 21
-276.152571
 31
0.0
  0
CIRCLE
  5
B8
100
AcDbEntity
  8
PV
  6
CONTINUOUS
 62
         3
100
AcDbCircle
 10
-302.685838
 20
-272.686839
 30
0.0
 40
5.652825
  0
CIRCLE
  5
B9
100
AcDbEntity
  8
PV
  6
CONTINUOUS
 62
         3
100
AcDbCircle
 10
-302.685838
 20
-272.686839
 30
0.0
 40
6.50325
  0
LINE
  5
BA
100
AcDbEntity
  8
PV
  6
CONTINUOUS
 62
         3
100
AcDbLine
 10
-302.685838
 20
-276.152571
 30
0.0
 11
-305.687339
 21
-274.419705
 31
0.0
  0
LINE
  5
BB
100
AcDbEntity
  8
PV
  6
CONTINUOUS
 62
         3
100
AcDbLine
 10
-305.687339
 20
-274.419705
 30
0.0
 11
-305.687339
 21
-270.953973
 31
0.0
  0
LINE
  5
BC
100
AcDbEntity
  8
PV
  6
CONTINUOUS
 62
         3
100
AcDbLine
 10
-305.687339
 20
-270.953973
 30
0.0
 11
-302.685838
 21
-269.221107
 31
0.0
  0
LINE
  5
BD
100
AcDbEntity
  8
PV
  6
CONTINUOUS
 62
         3
100
AcDbLine
 10
-302.685838
 20
-269.221107
 30
0.0
 11
-299.684338
 21
-270.953973
 31
0.0
  0
LINE
  5
BE
100
AcDbEntity
  8
PV
  6
CONTINUOUS
 62
         3
100
AcDbLine
 10
-299.684338
 20
-270.953973
 30
0.0
 11
-299.684338
 21
-274.419705
 31
0.0
  0
LINE
  5
BF
100
AcDbEntity
  8
PV
  6
CONTINUOUS
 62
         3
100
AcDbLine
 10
-299.684338
 20
-274.419705
 30
0.0
 11
-302.685838
 21
-276.152571
 31
0.0
  0
ARC
  5
C0
100
AcDbEntity
  8
PV
  6
CONTINUOUS
 62
         3
100
AcDbCircle
 10
-285.0
 20
-255.0
 30
0.0
 40
16.50825
100
AcDbArc
 50
197.64
 51
342.36
  0
ARC
  5
C1
100
AcDbEntity
  8
PV
  6
CENTER
 62
         3
100
AcDbCircle
 10
-285.0
 20
-255.0
 30
0.0
 40
25.0125
100
AcDbArc
 50
200.614
 51
244.765
  0
ARC
  5
C2
100
AcDbEntity
  8
PV
  6
CENTER
 62
         3
100
AcDbCircle
 10
-285.0
 20
-255.0
 30
0.0
 40
25.0125
100
AcDbArc
 50
295.235
 51
339.386
  0
CIRCLE
  5
C3
100
AcDbEntity
  8
PV
  6
CONTINUOUS
 62
         3
100
AcDbCircle
 10
-302.685838
 20
-237.313161
 30
0.0
 40
3.50175
  0
CIRCLE
  5
C4
100
AcDbEntity
  8
PV
  6
CONTINUOUS
 62
         3
100
AcDbCircle
 10
-302.685838
 20
-237.313161
 30
0.0
 40
4.002
  0
ARC
  5
C5
100
AcDbEntity
  8
PV
  6
CENTER
 62
         3
100
AcDbCircle
 10
-285.0
 20
-255.0
 30
0.0
 40
25.0125
100
AcDbArc
 50
115.235
 51
159.386
  0
CIRCLE
  5
C6
100
AcDbEntity
  8
PV
  6
CONTINUOUS
 62
         3
100
AcDbCircle
 10
-267.313161
 20
-237.313161
 30
0.0
 40
3.50175
  0
CIRCLE
  5
C7
100
AcDbEntity
  8
PV
  6
CONTINUOUS
 62
         3
100
AcDbCircle
 10
-267.313161
 20
-237.313161
 30
0.0
 40
4.002
  0
ARC
  5
C8
100
AcDbEntity
  8
PV
  6
CENTER
 62
         3
100
AcDbCircle
 10
-285.0
 20
-255.0
 30
0.0
 40
25.0125
100
AcDbArc
 50
20.614
 51
64.765
  0
ARC
  5
C9
100
AcDbEntity
  8
PV
  6
CONTINUOUS
 62
         3
100
AcDbCircle
 10
-285.0
 20
-255.0
 30
0.0
 40
32.51625
100
AcDbArc
 50
351.15
 51
188.85
  0
LINE
  5
CB
100
AcDbEntity
  8
PV
  6
DASHED
 62
         3
100
AcDbLine
 10
-314.51475
 20
-260.0025
 30
0.0
 11
-314.51475
 21
-295.02
 31
0.0
  0
LINE
  5
CC
100
AcDbEntity
  8
PV
  6
DASHED
 62
         3
100
AcDbLine
 10
-327.52125
 20
-260.0025
 30
0.0
 11
-327.52125
 21
-295.02
 31
0.0
  0
LINE
  5
CD
100
AcDbEntity
  8
PV
  6
DASHED
 62
         3
100
AcDbLine
 10
-255.48525
 20
-260.0025
 30
0.0
 11
-255.48525
 21
-295.02
 31
0.0
  0
LINE
  5
CE
100
AcDbEntity
  8
PV
  6
DASHED
 62
         3
100
AcDbLine
 10
-242.47875
 20
-260.0025
 30
0.0
 11
-242.47875
 21
-295.02
 31
0.0
  0
LINE
  5
CF
100
AcDbEntity
  8
PV
  6
CENTER
 62
         3
100
AcDbLine
 10
-321.018
 20
-259.152075
 30
0.0
 11
-321.018
 21
-297.389184
 31
0.0
  0
LINE
  5
D0
100
AcDbEntity
  8
PV
  6
CENTER
 62
         3
100
AcDbLine
 10
-248.982
 20
-259.152075
 30
0.0
 11
-248.982
 21
-297.389184
 31
0.0
  0
LINE
  5
D1
100
AcDbEntity
  8
PV
  6
CONTINUOUS
 62
         3
100
AcDbLine
 10
-269.267137
 20
-260.0025
 30
0.0
 11
-234.975
 21
-260.0025
 31
0.0
  0
LINE
  5
D2
100
AcDbEntity
  8
PV
  6
CONTINUOUS
 62
         3
100
AcDbLine
 10
-335.025
 20
-260.0025
 30
0.0
 11
-300.731862
 21
-260.0025
 31
0.0
  0
LINE
  5
D3
100
AcDbEntity
  8
PV
  6
CONTINUOUS
 62
         3
100
AcDbLine
 10
-335.025
 20
-260.0025
 30
0.0
 11
-335.025
 21
-295.02
 31
0.0
  0
LINE
  5
D4
100
AcDbEntity
  8
PV
  6
CONTINUOUS
 62
         3
100
AcDbLine
 10
-234.975
 20
-260.0025
 30
0.0
 11
-234.975
 21
-295.02
 31
0.0
  0
LINE
  5
D5
100
AcDbEntity
  8
PV
  6
CONTINUOUS
 62
         3
100
AcDbLine
 10
-335.025
 20
-295.02
 30
0.0
 11
-234.975
 21
-295.02
 31
0.0
  0
LINE
  5
D6
100
AcDbEntity
  8
PV
  6
CENTER
 62
         3
100
AcDbLine
 10
-293.226111
 20
-263.227112
 30
0.0
 11
-307.521255
 21
-277.521255
 31
0.0
  0
LINE
  5
D7
100
AcDbEntity
  8
PV
  6
CENTER
 62
         3
100
AcDbLine
 10
-262.478745
 20
-277.521255
 30
0.0
 11
-276.772888
 21
-263.227112
 31
0.0
  0
LINE
  5
D8
100
AcDbEntity
  8
PV
  6
CENTER
 62
         3
100
AcDbLine
 10
-307.521255
 20
-232.478745
 30
0.0
 11
-293.227112
 21
-246.772888
 31
0.0
  0
LINE
  5
D9
100
AcDbEntity
  8
PV
  6
CENTER
 62
         3
100
AcDbLine
 10
-276.772888
 20
-246.773889
 30
0.0
 11
-262.477744
 21
-232.478745
 31
0.0
  0
LINE
  5
DA
100
AcDbEntity
  8
PV
  6
CENTER
 62
         3
100
AcDbLine
 10
-320.736859
 20
-255.0
 30
0.0
 11
-249.858438
 21
-255.0
 31
0.0
  0
LINE
  5
DB
100
AcDbEntity
  8
PV
  6
CENTER
 62
         3
100
AcDbLine
 10
-285.0
 20
-218.890954
 30
0.0
 11
-285.0
 21
-304.374675
 31
0.0
  0
CIRCLE
  5
DC
100
AcDbEntity
  8
PV
  6
CONTINUOUS
 62
         3
100
AcDbCircle
 10
145.186839
 20
-272.686839
 30
0.0
 40
5.652825
  0
CIRCLE
  5
DD
100
AcDbEntity
  8
PV
  6
CONTINUOUS
 62
         3
100
AcDbCircle
 10
145.186839
 20
-272.686839
 30
0.0
 40
6.50325
  0
LINE
  5
DE
100
AcDbEntity
  8
PV
  6
CONTINUOUS
 62
         3
100
AcDbLine
 10
145.186839
 20
-276.152571
 30
0.0
 11
142.185339
 21
-274.419705
 31
0.0
  0
LINE
  5
DF
100
AcDbEntity
  8
PV
  6
CONTINUOUS
 62
         3
100
AcDbLine
 10
142.185339
 20
-274.419705
 30
0.0
 11
142.185339
 21
-270.953973
 31
0.0
  0
LINE
  5
E0
100
AcDbEntity
  8
PV
  6
CONTINUOUS
 62
         3
100
AcDbLine
 10
142.185339
 20
-270.953973
 30
0.0
 11
145.186839
 21
-269.221107
 31
0.0
  0
LINE
  5
E1
100
AcDbEntity
  8
PV
  6
CONTINUOUS
 62
         3
100
AcDbLine
 10
145.186839
 20
-269.221107
 30
0.0
 11
148.188339
 21
-270.953973
 31
0.0
  0
LINE
  5
E2
100
AcDbEntity
  8
PV
  6
CONTINUOUS
 62
         3
100
AcDbLine
 10
148.188339
 20
-270.953973
 30
0.0
 11
148.188339
 21
-274.419705
 31
0.0
  0
LINE
  5
E3
100
AcDbEntity
  8
PV
  6
CONTINUOUS
 62
         3
100
AcDbLine
 10
148.188339
 20
-274.419705
 30
0.0
 11
145.186839
 21
-276.152571
 31
0.0
  0
CIRCLE
  5
E4
100
AcDbEntity
  8
PV
  6
CONTINUOUS
 62
         3
100
AcDbCircle
 10
109.814162
 20
-272.686839
 30
0.0
 40
5.652825
  0
CIRCLE
  5
E5
100
AcDbEntity
  8
PV
  6
CONTINUOUS
 62
         3
100
AcDbCircle
 10
109.814162
 20
-272.686839
 30
0.0
 40
6.50325
  0
LINE
  5
E6
100
AcDbEntity
  8
PV
  6
CONTINUOUS
 62
         3
100
AcDbLine
 10
109.814162
 20
-276.152571
 30
0.0
 11
106.812661
 21
-274.419705
 31
0.0
  0
LINE
  5
E7
100
AcDbEntity
  8
PV
  6
CONTINUOUS
 62
         3
100
AcDbLine
 10
106.812661
 20
-274.419705
 30
0.0
 11
106.812661
 21
-270.953973
 31
0.0
  0
LINE
  5
E8
100
AcDbEntity
  8
PV
  6
CONTINUOUS
 62
         3
100
AcDbLine
 10
106.812661
 20
-270.953973
 30
0.0
 11
109.814162
 21
-269.221107
 31
0.0
  0
LINE
  5
E9
100
AcDbEntity
  8
PV
  6
CONTINUOUS
 62
         3
100
AcDbLine
 10
109.814162
 20
-269.221107
 30
0.0
 11
112.815662
 21
-270.953973
 31
0.0
  0
LINE
  5
EA
100
AcDbEntity
  8
PV
  6
CONTINUOUS
 62
         3
100
AcDbLine
 10
112.815662
 20
-270.953973
 30
0.0
 11
112.815662
 21
-274.419705
 31
0.0
  0
LINE
  5
EB
100
AcDbEntity
  8
PV
  6
CONTINUOUS
 62
         3
100
AcDbLine
 10
112.815662
 20
-274.419705
 30
0.0
 11
109.814162
 21
-276.152571
 31
0.0
  0
MTEXT
  5
EC
100
AcDbEntity
  8
PV
  6
CONTINUOUS
 62
       110
100
AcDbMText
 10
187.8273614335
 20
-246.1775909395
 30
0.0
 40
3.2016000748
 41
0.0
 71
         1
 72
         1
  1
\T1.024;\W1.064;\A1;ADJUSTING HANDLE
  0
ARC
  5
ED
100
AcDbEntity
  8
PV
  6
CONTINUOUS
 62
         3
100
AcDbCircle
 10
127.5
 20
-255.0
 30
0.0
 40
16.50825
100
AcDbArc
 50
197.64
 51
342.36
  0
ARC
  5
EE
100
AcDbEntity
  8
PV
  6
CENTER
 62
         3
100
AcDbCircle
 10
127.5
 20
-255.0
 30
0.0
 40
25.0125
100
AcDbArc
 50
200.614
 51
244.765
  0
ARC
  5
EF
100
AcDbEntity
  8
PV
  6
CENTER
 62
         3
100
AcDbCircle
 10
127.5
 20
-255.0
 30
0.0
 40
25.0125
100
AcDbArc
 50
295.235
 51
339.386
  0
CIRCLE
  5
F0
100
AcDbEntity
  8
PV
  6
CONTINUOUS
 62
         3
100
AcDbCircle
 10
109.814162
 20
-237.313161
 30
0.0
 40
3.50175
  0
CIRCLE
  5
F1
100
AcDbEntity
  8
PV
  6
CONTINUOUS
 62
         3
100
AcDbCircle
 10
109.814162
 20
-237.313161
 30
0.0
 40
4.002
  0
ARC
  5
F2
100
AcDbEntity
  8
PV
  6
CENTER
 62
         3
100
AcDbCircle
 10
127.5
 20
-255.0
 30
0.0
 40
25.0125
100
AcDbArc
 50
115.235
 51
159.386
  0
CIRCLE
  5
F3
100
AcDbEntity
  8
PV
  6
CONTINUOUS
 62
         3
100
AcDbCircle
 10
145.186839
 20
-237.313161
 30
0.0
 40
3.50175
  0
CIRCLE
  5
F4
100
AcDbEntity
  8
PV
  6
CONTINUOUS
 62
         3
100
AcDbCircle
 10
145.186839
 20
-237.313161
 30
0.0
 40
4.002
  0
ARC
  5
F5
100
AcDbEntity
  8
PV
  6
CENTER
 62
         3
100
AcDbCircle
 10
127.5
 20
-255.0
 30
0.0
 40
25.0125
100
AcDbArc
 50
20.614
 51
64.765
  0
ARC
  5
F6
100
AcDbEntity
  8
PV
  6
CONTINUOUS
 62
         3
100
AcDbCircle
 10
127.5
 20
-255.0
 30
0.0
 40
32.51625
100
AcDbArc
 50
351.15
 51
188.85
  0
CIRCLE
  5
F7
100
AcDbEntity
  8
PV
  6
CONTINUOUS
 62
         3
100
AcDbCircle
 10
127.5
 20
-255.0
 30
0.0
 40
16.008
  0
CIRCLE
  5
F8
100
AcDbEntity
  8
PV
  6
CONTINUOUS
 62
         3
100
AcDbCircle
 10
127.5
 20
-255.0
 30
0.0
 40
15.0075
  0
LINE
  5
F9
100
AcDbEntity
  8
PV
  6
DASHED
 62
         3
100
AcDbLine
 10
97.98525
 20
-260.0025
 30
0.0
 11
97.98525
 21
-295.02
 31
0.0
  0
LINE
  5
FA
100
AcDbEntity
  8
PV
  6
DASHED
 62
         3
100
AcDbLine
 10
84.97875
 20
-260.0025
 30
0.0
 11
84.97875
 21
-295.02
 31
0.0
  0
LINE
  5
FB
100
AcDbEntity
  8
PV
  6
DASHED
 62
         3
100
AcDbLine
 10
157.01475
 20
-260.0025
 30
0.0
 11
157.01475
 21
-295.02
 31
0.0
  0
LINE
  5
FC
100
AcDbEntity
  8
PV
  6
DASHED
 62
         3
100
AcDbLine
 10
170.02125
 20
-260.0025
 30
0.0
 11
170.02125
 21
-295.02
 31
0.0
  0
LINE
  5
FD
100
AcDbEntity
  8
PV
  6
CENTER
 62
         3
100
AcDbLine
 10
91.482
 20
-259.152075
 30
0.0
 11
91.482
 21
-297.389184
 31
0.0
  0
LINE
  5
FE
100
AcDbEntity
  8
PV
  6
CENTER
 62
         3
100
AcDbLine
 10
163.518
 20
-259.152075
 30
0.0
 11
163.518
 21
-297.389184
 31
0.0
  0
LINE
  5
FF
100
AcDbEntity
  8
PV
  6
CONTINUOUS
 62
         3
100
AcDbLine
 10
143.232863
 20
-260.0025
 30
0.0
 11
177.525
 21
-260.0025
 31
0.0
  0
LINE
  5
100
100
AcDbEntity
  8
PV
  6
CONTINUOUS
 62
         3
100
AcDbLine
 10
77.475
 20
-260.0025
 30
0.0
 11
111.768138
 21
-260.0025
 31
0.0
  0
LINE
  5
101
100
AcDbEntity
  8
PV
  6
CONTINUOUS
 62
         3
100
AcDbLine
 10
77.475
 20
-260.0025
 30
0.0
 11
77.475
 21
-295.02
 31
0.0
  0
LINE
  5
102
100
AcDbEntity
  8
PV
  6
CONTINUOUS
 62
         3
100
AcDbLine
 10
177.525
 20
-260.0025
 30
0.0
 11
177.525
 21
-295.02
 31
0.0
  0
LINE
  5
103
100
AcDbEntity
  8
PV
  6
CONTINUOUS
 62
         3
100
AcDbLine
 10
77.475
 20
-295.02
 30
0.0
 11
177.525
 21
-295.02
 31
0.0
  0
LINE
  5
104
100
AcDbEntity
  8
PV
  6
CENTER
 62
         3
100
AcDbLine
 10
119.273889
 20
-263.227112
 30
0.0
 11
104.978745
 21
-277.521255
 31
0.0
  0
LINE
  5
105
100
AcDbEntity
  8
PV
  6
CENTER
 62
         3
100
AcDbLine
 10
150.021255
 20
-277.521255
 30
0.0
 11
135.727112
 21
-263.227112
 31
0.0
  0
LINE
  5
106
100
AcDbEntity
  8
PV
  6
CENTER
 62
         3
100
AcDbLine
 10
104.978745
 20
-232.478745
 30
0.0
 11
119.272888
 21
-246.772888
 31
0.0
  0
LINE
  5
107
100
AcDbEntity
  8
PV
  6
CENTER
 62
         3
100
AcDbLine
 10
135.727112
 20
-246.773889
 30
0.0
 11
150.022256
 21
-232.478745
 31
0.0
  0
LINE
  5
108
100
AcDbEntity
  8
PV
  6
CENTER
 62
         3
100
AcDbLine
 10
91.7631405
 20
-255.0
 30
0.0
 11
162.641562
 21
-255.0
 31
0.0
  0
LINE
  5
109
100
AcDbEntity
  8
PV
  6
CENTER
 62
         3
100
AcDbLine
 10
127.5
 20
-218.890954
 30
0.0
 11
127.5
 21
-304.374675
 31
0.0
  0
LINE
  5
10B
100
AcDbEntity
  8
PV
  6
PHANTOM
 62
         3
100
AcDbLine
 10
265.06875
 20
-251.9985
 30
0.0
 11
265.06875
 21
-258.0015
 31
0.0
  0
LINE
  5
10C
100
AcDbEntity
  8
PV
  6
PHANTOM
 62
         3
100
AcDbLine
 10
155.01375
 20
-251.9985
 30
0.0
 11
155.01375
 21
-258.0015
 31
0.0
  0
LINE
  5
10D
100
AcDbEntity
  8
PV
  6
PHANTOM
 62
         3
100
AcDbLine
 10
155.01375
 20
-258.0015
 30
0.0
 11
265.06875
 21
-258.0015
 31
0.0
  0
LINE
  5
10E
100
AcDbEntity
  8
PV
  6
PHANTOM
 62
         3
100
AcDbLine
 10
155.01375
 20
-251.9985
 30
0.0
 11
265.06875
 21
-251.9985
 31
0.0
  0
LINE
  5
10F
100
AcDbEntity
  8
PV
  6
CONTINUOUS
 62
         3
100
AcDbLine
 10
-65.139843
 20
-255.0
 30
0.0
 11
-68.3204325
 21
-255.0
 31
0.0
  0
LINE
  5
110
100
AcDbEntity
  8
PV
  6
CONTINUOUS
 62
         3
100
AcDbLine
 10
22.59
 20
-247.9965
 30
0.0
 11
14.5129635
 21
-247.9965
 31
0.0
  0
ARC
  5
111
100
AcDbEntity
  8
PV
  6
CONTINUOUS
 62
         3
100
AcDbCircle
 10
-0.4215
 20
-255.0
 30
0.0
 40
40.02
100
AcDbArc
 50
337.976
 51
22.024
  0
CIRCLE
  5
112
100
AcDbEntity
  8
PV
  6
CONTINUOUS
 62
         3
100
AcDbCircle
 10
-88.96575
 20
-255.0
 30
0.0
 40
3.0015
  0
ARC
  5
113
100
AcDbEntity
  8
PV
  6
CONTINUOUS
 62
         3
100
AcDbCircle
 10
-29.93625
 20
-284.483734
 30
0.0
 40
4.5332655
100
AcDbArc
 50
186.733
 51
353.267
  0
ARC
  5
114
100
AcDbEntity
  8
PV
  6
CONTINUOUS
 62
         3
100
AcDbCircle
 10
-40.94175
 20
-222.48375
 30
0.0
 40
2.001
100
AcDbArc
 50
0.0
 51
180.0
  0
LINE
  5
115
100
AcDbEntity
  8
PV
  6
DASHED
 62
         3
100
AcDbLine
 10
-13.92825
 20
-295.02
 30
0.0
 11
-13.92825
 21
-260.0025
 31
0.0
  0
LINE
  5
116
100
AcDbEntity
  8
PV
  6
DASHED
 62
         3
100
AcDbLine
 10
-0.92175
 20
-295.02
 30
0.0
 11
-0.92175
 21
-260.0025
 31
0.0
  0
LINE
  5
117
100
AcDbEntity
  8
PV
  6
CENTER
 62
         3
100
AcDbLine
 10
-7.425
 20
-300.446712
 30
0.0
 11
-7.425
 21
-252.874938
 31
0.0
  0
LINE
  5
118
100
AcDbEntity
  8
PV
  6
CONTINUOUS
 62
         3
100
AcDbLine
 10
-19.93125
 20
-260.0025
 30
0.0
 11
5.08125
 21
-260.0025
 31
0.0
  0
LINE
  5
119
100
AcDbEntity
  8
PV
  6
CONTINUOUS
 62
         3
100
AcDbLine
 10
-19.93125
 20
-222.48375
 30
0.0
 11
-19.93125
 21
-295.02
 31
0.0
  0
LINE
  5
11A
100
AcDbEntity
  8
PV
  6
CONTINUOUS
 62
         3
100
AcDbLine
 10
-19.93125
 20
-295.02
 30
0.0
 11
5.08125
 21
-295.02
 31
0.0
  0
LINE
  5
11B
100
AcDbEntity
  8
PV
  6
CONTINUOUS
 62
         3
100
AcDbLine
 10
5.08125
 20
-260.0025
 30
0.0
 11
5.08125
 21
-295.02
 31
0.0
  0
LINE
  5
11C
100
AcDbEntity
  8
PV
  6
DASHED
 62
         3
100
AcDbLine
 10
-176.5095
 20
-295.02
 30
0.0
 11
-176.5095
 21
-260.0025
 31
0.0
  0
LINE
  5
11D
100
AcDbEntity
  8
PV
  6
DASHED
 62
         3
100
AcDbLine
 10
-163.503
 20
-295.02
 30
0.0
 11
-163.503
 21
-260.0025
 31
0.0
  0
LINE
  5
11E
100
AcDbEntity
  8
PV
  6
CENTER
 62
         3
100
AcDbLine
 10
-170.00625
 20
-300.446712
 30
0.0
 11
-170.00625
 21
-252.874938
 31
0.0
  0
LINE
  5
11F
100
AcDbEntity
  8
PV
  6
CONTINUOUS
 62
         3
100
AcDbLine
 10
-182.5125
 20
-260.0025
 30
0.0
 11
-157.5
 21
-260.0025
 31
0.0
  0
LINE
  5
120
100
AcDbEntity
  8
PV
  6
CONTINUOUS
 62
         3
100
AcDbLine
 10
-182.5125
 20
-260.0025
 30
0.0
 11
-182.5125
 21
-295.02
 31
0.0
  0
LINE
  5
121
100
AcDbEntity
  8
PV
  6
CONTINUOUS
 62
         3
100
AcDbLine
 10
-182.5125
 20
-295.02
 30
0.0
 11
-157.5
 21
-295.02
 31
0.0
  0
LINE
  5
122
100
AcDbEntity
  8
PV
  6
CONTINUOUS
 62
         3
100
AcDbLine
 10
-157.5
 20
-222.48375
 30
0.0
 11
-157.5
 21
-295.02
 31
0.0
  0
LINE
  5
123
100
AcDbEntity
  8
PV
  6
CONTINUOUS
 62
         3
100
AcDbLine
 10
36.6780405
 20
-270.0075
 30
0.0
 11
36.6780405
 21
-239.9925
 31
0.0
  0
LINE
  5
124
100
AcDbEntity
  8
PV
  6
CENTER
 62
         3
100
AcDbLine
 10
-88.96575
 20
-248.997
 30
0.0
 11
-88.96575
 21
-261.003
 31
0.0
  0
LINE
  5
125
100
AcDbEntity
  8
PV
  6
CONTINUOUS
 62
         3
100
AcDbLine
 10
-44.077317
 20
-287.016
 30
0.0
 11
-42.94275
 21
-287.016
 31
0.0
  0
LINE
  5
126
100
AcDbEntity
  8
PV
  6
CONTINUOUS
 62
         3
100
AcDbLine
 10
-56.815683
 20
-287.016
 30
0.0
 11
-55.94925
 21
-286.51575
 31
0.0
  0
LINE
  5
127
100
AcDbEntity
  8
PV
  6
CONTINUOUS
 62
         3
100
AcDbLine
 10
-44.94375
 20
-286.51575
 30
0.0
 11
-44.077317
 21
-287.016
 31
0.0
  0
LINE
  5
128
100
AcDbEntity
  8
PV
  6
CONTINUOUS
 62
         3
100
AcDbLine
 10
-55.94925
 20
-286.51575
 30
0.0
 11
-44.94375
 21
-286.51575
 31
0.0
  0
LINE
  5
129
100
AcDbEntity
  8
PV
  6
CONTINUOUS
 62
         3
100
AcDbLine
 10
-81.96225
 20
-287.016
 30
0.0
 11
-56.815683
 21
-287.016
 31
0.0
  0
LINE
  5
12A
100
AcDbEntity
  8
PV
  6
CONTINUOUS
 62
         3
100
AcDbLine
 10
-44.077317
 20
-222.984
 30
0.0
 11
-42.94275
 21
-222.984
 31
0.0
  0
LINE
  5
12B
100
AcDbEntity
  8
PV
  6
CONTINUOUS
 62
         3
100
AcDbLine
 10
-56.815683
 20
-222.984
 30
0.0
 11
-55.94925
 21
-223.48425
 31
0.0
  0
LINE
  5
12C
100
AcDbEntity
  8
PV
  6
CONTINUOUS
 62
         3
100
AcDbLine
 10
-44.94375
 20
-223.48425
 30
0.0
 11
-44.077317
 21
-222.984
 31
0.0
  0
LINE
  5
12D
100
AcDbEntity
  8
PV
  6
CONTINUOUS
 62
         3
100
AcDbLine
 10
-55.94925
 20
-223.48425
 30
0.0
 11
-44.94375
 21
-223.48425
 31
0.0
  0
LINE
  5
12E
100
AcDbEntity
  8
PV
  6
CONTINUOUS
 62
         3
100
AcDbLine
 10
-81.96225
 20
-222.984
 30
0.0
 11
-56.815683
 21
-222.984
 31
0.0
  0
LINE
  5
12F
100
AcDbEntity
  8
PV
  6
CONTINUOUS
 62
         3
100
AcDbLine
 10
-137.49
 20
-287.016
 30
0.0
 11
-95.96925
 21
-287.016
 31
0.0
  0
LINE
  5
130
100
AcDbEntity
  8
PV
  6
CONTINUOUS
 62
         3
100
AcDbLine
 10
-137.49
 20
-222.984
 30
0.0
 11
-95.96925
 21
-222.984
 31
0.0
  0
LINE
  5
131
100
AcDbEntity
  8
PV
  6
CONTINUOUS
 62
         3
100
AcDbLine
 10
-95.96925
 20
-287.266125
 30
0.0
 11
-81.96225
 21
-287.266125
 31
0.0
  0
LINE
  5
132
100
AcDbEntity
  8
PV
  6
CONTINUOUS
 62
         3
100
AcDbLine
 10
-95.96925
 20
-222.733875
 30
0.0
 11
-81.96225
 21
-222.733875
 31
0.0
  0
LINE
  5
133
100
AcDbEntity
  8
PV
  6
CONTINUOUS
 62
         3
100
AcDbLine
 10
-95.96925
 20
-222.733875
 30
0.0
 11
-95.96925
 21
-287.266125
 31
0.0
  0
LINE
  5
134
100
AcDbEntity
  8
PV
  6
CONTINUOUS
 62
         3
100
AcDbLine
 10
-81.96225
 20
-222.733875
 30
0.0
 11
-81.96225
 21
-287.266125
 31
0.0
  0
LINE
  5
135
100
AcDbEntity
  8
PV
  6
CONTINUOUS
 62
         3
100
AcDbLine
 10
-22.93275
 20
-287.51625
 30
0.0
 11
-19.93125
 21
-287.51625
 31
0.0
  0
LINE
  5
136
100
AcDbEntity
  8
PV
  6
CONTINUOUS
 62
         3
100
AcDbLine
 10
-42.94275
 20
-287.51625
 30
0.0
 11
-36.93975
 21
-287.51625
 31
0.0
  0
LINE
  5
137
100
AcDbEntity
  8
PV
  6
CONTINUOUS
 62
         3
100
AcDbLine
 10
-42.94275
 20
-222.48375
 30
0.0
 11
-19.93125
 21
-222.48375
 31
0.0
  0
LINE
  5
138
100
AcDbEntity
  8
PV
  6
CONTINUOUS
 62
         3
100
AcDbLine
 10
-157.5
 20
-287.51625
 30
0.0
 11
-137.49
 21
-287.51625
 31
0.0
  0
LINE
  5
139
100
AcDbEntity
  8
PV
  6
CONTINUOUS
 62
         3
100
AcDbLine
 10
-157.5
 20
-222.48375
 30
0.0
 11
-137.49
 21
-222.48375
 31
0.0
  0
LINE
  5
13A
100
AcDbEntity
  8
PV
  6
CONTINUOUS
 62
         3
100
AcDbLine
 10
-24.4335
 20
-285.015
 30
0.0
 11
-35.439
 21
-285.015
 31
0.0
  0
LINE
  5
13B
100
AcDbEntity
  8
PV
  6
CONTINUOUS
 62
         3
100
AcDbLine
 10
-35.439
 20
-284.0145
 30
0.0
 11
-35.439
 21
-285.015
 31
0.0
  0
LINE
  5
13C
100
AcDbEntity
  8
PV
  6
CONTINUOUS
 62
         3
100
AcDbLine
 10
-24.4335
 20
-284.0145
 30
0.0
 11
-24.4335
 21
-285.015
 31
0.0
  0
LINE
  5
13D
100
AcDbEntity
  8
PV
  6
CENTER
 62
         3
100
AcDbLine
 10
-29.93625
 20
-277.17008
 30
0.0
 11
-29.93625
 21
-293.070026
 31
0.0
  0
LINE
  5
13E
100
AcDbEntity
  8
PV
  6
CONTINUOUS
 62
         3
100
AcDbLine
 10
-22.93275
 20
-284.0145
 30
0.0
 11
-36.93975
 21
-284.0145
 31
0.0
  0
LINE
  5
13F
100
AcDbEntity
  8
PV
  6
CONTINUOUS
 62
         3
100
AcDbLine
 10
-36.93975
 20
-284.0145
 30
0.0
 11
-36.93975
 21
-287.51625
 31
0.0
  0
LINE
  5
140
100
AcDbEntity
  8
PV
  6
CONTINUOUS
 62
         3
100
AcDbLine
 10
-22.93275
 20
-284.0145
 30
0.0
 11
-22.93275
 21
-287.51625
 31
0.0
  0
LINE
  5
141
100
AcDbEntity
  8
PV
  6
CENTER
 62
         3
100
AcDbLine
 10
-40.94175
 20
-219.680349
 30
0.0
 11
-40.94175
 21
-223.817417
 31
0.0
  0
LINE
  5
142
100
AcDbEntity
  8
PV
  6
CONTINUOUS
 62
         3
100
AcDbLine
 10
-42.94275
 20
-287.016
 30
0.0
 11
-44.077317
 21
-287.016
 31
0.0
  0
LINE
  5
143
100
AcDbEntity
  8
PV
  6
CONTINUOUS
 62
         3
100
AcDbLine
 10
-137.49
 20
-222.48375
 30
0.0
 11
-137.49
 21
-287.51625
 31
0.0
  0
LINE
  5
144
100
AcDbEntity
  8
PV
  6
CONTINUOUS
 62
         3
100
AcDbLine
 10
36.6780405
 20
-270.0075
 30
0.0
 11
22.59
 21
-270.0075
 31
0.0
  0
LINE
  5
145
100
AcDbEntity
  8
PV
  6
CONTINUOUS
 62
         3
100
AcDbLine
 10
22.59
 20
-262.0035
 30
0.0
 11
5.08125
 21
-262.0035
 31
0.0
  0
LINE
  5
146
100
AcDbEntity
  8
PV
  6
CONTINUOUS
 62
         3
100
AcDbLine
 10
-55.94925
 20
-223.48425
 30
0.0
 11
-55.94925
 21
-286.51575
 31
0.0
  0
LINE
  5
147
100
AcDbEntity
  8
PV
  6
CONTINUOUS
 62
         3
100
AcDbLine
 10
-44.94375
 20
-223.48425
 30
0.0
 11
-44.94375
 21
-286.51575
 31
0.0
  0
LINE
  5
148
100
AcDbEntity
  8
PV
  6
CONTINUOUS
 62
         3
100
AcDbLine
 10
-42.94275
 20
-222.48375
 30
0.0
 11
-42.94275
 21
-287.51625
 31
0.0
  0
LINE
  5
149
100
AcDbEntity
  8
PV
  6
CONTINUOUS
 62
         3
100
AcDbLine
 10
-8.92575
 20
-238.992
 30
0.0
 11
-19.93125
 21
-238.992
 31
0.0
  0
LINE
  5
14A
100
AcDbEntity
  8
PV
  6
CONTINUOUS
 62
         3
100
AcDbLine
 10
22.59
 20
-239.9925
 30
0.0
 11
36.6780405
 21
-239.9925
 31
0.0
  0
LINE
  5
14B
100
AcDbEntity
  8
PV
  6
CONTINUOUS
 62
         3
100
AcDbLine
 10
-8.92575
 20
-247.9965
 30
0.0
 11
22.59
 21
-247.9965
 31
0.0
  0
LINE
  5
14C
100
AcDbEntity
  8
PV
  6
CONTINUOUS
 62
         3
100
AcDbLine
 10
22.59
 20
-239.9925
 30
0.0
 11
22.59
 21
-270.0075
 31
0.0
  0
LINE
  5
14D
100
AcDbEntity
  8
PV
  6
CONTINUOUS
 62
         3
100
AcDbLine
 10
-8.92575
 20
-238.992
 30
0.0
 11
-8.92575
 21
-260.0025
 31
0.0
  0
LINE
  5
14E
100
AcDbEntity
  8
PV
  6
CENTER
 62
         3
100
AcDbLine
 10
-162.053275
 20
-255.0
 30
0.0
 11
43.484442
 21
-255.0
 31
0.0
  0
DIMENSION
  5
15D
100
AcDbEntity
  8
PV
  6
CONTINUOUS
 62
       110
100
AcDbDimension
  2
*D2
 10
-321.018
 20
-314.57423
 30
0.0
 11
-284.7000023193
 21
-314.57423
 31
0.0
 70
       128
  1
\A1;<>
  3
MXDIMSTYLE
100
AcDbAlignedDimension
 13
-248.982
 23
-297.3891847577
 33
0.0
 14
-321.018
 24
-297.3891847577
 34
0.0
100
AcDbRotatedDimension
1001
ACAD
1000
DSTYLE
1002
{
1070
         6
1000
SOLID
1070
         7
1000
SOLID
1070
        41
1040
1.0000000298
1070
        42
1040
0.0625
1070
       271
1070
         4
1070
       284
1070
         8
1070
       343
1005
0
1070
       344
1005
0
1002
}
  0
DIMENSION
  5
16D
100
AcDbEntity
  8
PV
  6
CONTINUOUS
 62
       110
100
AcDbDimension
  2
*D3
 10
-335.025
 20
-330.545146
 30
0.0
 11
-284.7000022888
 21
-330.545146
 31
0.0
 70
       128
  1
\A1;<>
  3
MXDIMSTYLE
100
AcDbAlignedDimension
 13
-234.975
 23
-295.0199995156
 33
0.0
 14
-335.025
 24
-295.0199995156
 34
0.0
100
AcDbRotatedDimension
1001
ACAD
1000
DSTYLE
1002
{
1070
         6
1000
SOLID
1070
         7
1000
SOLID
1070
        41
1040
1.0000000298
1070
        42
1040
0.0625
1070
       271
1070
         4
1070
       284
1070
         8
1070
       340
1005
167
1070
       343
1005
0
1070
       344
1005
0
1002
}
  0
DIMENSION
  5
17C
100
AcDbEntity
  8
PV
  6
CONTINUOUS
 62
       110
100
AcDbDimension
  2
*D4
 10
-349.600978
 20
-260.0025
 30
0.0
 11
-349.600978
 21
-277.2112498474
 31
0.0
 70
       128
  1
\A1;<>
  3
MXDIMSTYLE
100
AcDbAlignedDimension
 13
-335.0249997209
 23
-295.02
 33
0.0
 14
-335.0249997209
 24
-260.0025
 34
0.0
 50
90.0
100
AcDbRotatedDimension
1001
ACAD
1000
DSTYLE
1002
{
1070
         6
1000
SOLID
1070
         7
1000
SOLID
1070
        41
1040
1.0000000298
1070
        42
1040
0.0625
1070
       271
1070
         4
1070
       284
1070
         8
1070
       343
1005
0
1070
       344
1005
0
1002
}
  0
DIMENSION
  5
18C
100
AcDbEntity
  8
PV
  6
CONTINUOUS
 62
       110
100
AcDbDimension
  2
*D5
 10
-170.00625
 20
-158.864559
 30
0.0
 11
-88.4156234741
 21
-158.864559
 31
0.0
 70
       128
  1
\A1;<>
  3
MXDIMSTYLE
100
AcDbAlignedDimension
 13
-7.425
 23
-142.3971861057
 33
0.0
 14
-170.00625
 24
-143.9269502811
 34
0.0
100
AcDbRotatedDimension
1001
ACAD
1000
DSTYLE
1002
{
1070
         6
1000
SOLID
1070
         7
1000
SOLID
1070
        41
1040
1.0000000298
1070
        42
1040
0.0625
1070
       271
1070
         4
1070
       284
1070
         8
1070
       340
1005
186
1070
       343
1005
0
1070
       344
1005
0
1002
}
  0
DIMENSION
  5
19B
100
AcDbEntity
  8
PV
  6
CONTINUOUS
 62
       110
100
AcDbDimension
  2
*D6
 10
-208.175283
 20
-53.982
 30
0.0
 11
-208.175283
 21
-89.6999992065
 31
0.0
 70
       128
  1
\A1;<>
  3
MXDIMSTYLE
100
AcDbAlignedDimension
 13
-184.7356105299
 23
-126.018
 33
0.0
 14
-187.1818328352
 24
-53.982
 34
0.0
 50
90.0
100
AcDbRotatedDimension
1001
ACAD
1000
DSTYLE
1002
{
1070
         6
1000
SOLID
1070
         7
1000
SOLID
1070
        41
1040
1.0000000298
1070
        42
1040
0.0625
1070
       271
1070
         4
1070
       284
1070
         8
1070
       343
1005
0
1070
       344
1005
0
1002
}
  0
MTEXT
  5
19C
100
AcDbEntity
  8
PV
  6
CONTINUOUS
 62
       110
100
AcDbMText
 10
-202.3899819755
 20
-137.26523212
 30
0.0
 40
3.2000000477
 41
0.0
 71
         1
 72
         1
  1
\W0.975;\A1;4-\U+220513
 11
0.8973353617
 21
0.4413493499
 31
0.0
  0
LINE
  5
19D
100
AcDbEntity
  8
PV
  6
CONTINUOUS
 62
         7
100
AcDbLine
 10
-200.823285
 20
-141.175185
 30
0.0
 11
-164.170654
 21
-123.147795
 31
0.0
  0
LINE
  5
19E
100
AcDbEntity
  8
PV
  6
CONTINUOUS
 62
         7
100
AcDbLine
 10
-164.170654
 20
-123.147795
 30
0.0
 11
-164.619321
 21
-123.36847
 31
0.0
  0
LINE
  5
19F
100
AcDbEntity
  8
PV
  6
CONTINUOUS
 62
         7
100
AcDbLine
 10
-175.841846
 20
-128.888205
 30
0.0
 11
-175.393179
 21
-128.66753
 31
0.0
  0
DIMENSION
  5
1AE
100
AcDbEntity
  8
PV
  6
CONTINUOUS
 62
       110
100
AcDbDimension
  2
*D7
 10
-182.5125
 20
-315.015571
 30
0.0
 11
-169.7062501907
 21
-315.015571
 31
0.0
 70
       128
  1
\A1;<>
  3
MXDIMSTYLE
100
AcDbAlignedDimension
 13
-157.5
 23
-295.0199998635
 33
0.0
 14
-182.5125
 24
-295.0199998635
 34
0.0
100
AcDbRotatedDimension
1001
ACAD
1000
DSTYLE
1002
{
1070
         6
1000
SOLID
1070
         7
1000
SOLID
1070
        41
1040
1.0000000298
1070
        42
1040
0.0625
1070
       271
1070
         4
1070
       284
1070
         8
1070
       343
1005
0
1070
       344
1005
0
1002
}
  0
DIMENSION
  5
1BD
100
AcDbEntity
  8
PV
  6
CONTINUOUS
 62
       110
100
AcDbDimension
  2
*D8
 10
-19.93125
 20
-315.015571
 30
0.0
 11
-7.1250001907
 21
-315.015571
 31
0.0
 70
       128
  1
\A1;<>
  3
MXDIMSTYLE
100
AcDbAlignedDimension
 13
5.08125
 23
-295.0199998635
 33
0.0
 14
-19.93125
 24
-295.0199998635
 34
0.0
100
AcDbRotatedDimension
1001
ACAD
1000
DSTYLE
1002
{
1070
         6
1000
SOLID
1070
         7
1000
SOLID
1070
        41
1040
1.0000000298
1070
        42
1040
0.0625
1070
       271
1070
         4
1070
       284
1070
         8
1070
       343
1005
0
1070
       344
1005
0
1002
}
  0
DIMENSION
  5
1CC
100
AcDbEntity
  8
PV
  6
CONTINUOUS
 62
       110
100
AcDbDimension
  2
*D9
 10
-170.00625
 20
-333.22642
 30
0.0
 11
-88.4156234741
 21
-333.22642
 31
0.0
 70
       128
  1
\A1;<>
  3
MXDIMSTYLE
100
AcDbAlignedDimension
 13
-7.425
 23
-300.4467111377
 33
0.0
 14
-170.00625
 24
-300.4467111377
 34
0.0
100
AcDbRotatedDimension
1001
ACAD
1000
DSTYLE
1002
{
1070
         6
1000
SOLID
1070
         7
1000
SOLID
1070
        41
1040
1.0000000298
1070
        42
1040
0.0625
1070
       271
1070
         4
1070
       284
1070
         8
1070
       340
1005
186
1070
       343
1005
0
1070
       344
1005
0
1002
}
  0
DIMENSION
  5
1DB
100
AcDbEntity
  8
PV
  6
CONTINUOUS
 62
       110
100
AcDbDimension
  2
*D10
 10
-19.93125
 20
-207.545909
 30
0.0
 11
-54.1485007019
 21
-207.545909
 31
0.0
 70
       128
  1
\A1;<>
  3
MXDIMSTYLE
100
AcDbAlignedDimension
 13
-88.96575
 23
-248.9970007664
 33
0.0
 14
-19.93125
 24
-222.4837504154
 34
0.0
100
AcDbRotatedDimension
1001
ACAD
1000
DSTYLE
1002
{
1070
         6
1000
SOLID
1070
         7
1000
SOLID
1070
        41
1040
1.0000000298
1070
        42
1040
0.0625
1070
       271
1070
         4
1070
       284
1070
         8
1070
       343
1005
0
1070
       344
1005
0
1002
}
  0
DIMENSION
  5
1EA
100
AcDbEntity
  8
PV
  6
CONTINUOUS
 62
       110
100
AcDbDimension
  2
*D11
 10
-19.93125
 20
-194.464877
 30
0.0
 11
-88.4156188965
 21
-194.464877
 31
0.0
 70
       128
  1
\A1;<>
  3
MXDIMSTYLE
100
AcDbAlignedDimension
 13
-157.5
 23
-222.4837502147
 33
0.0
 14
-19.93125
 24
-222.4837502147
 34
0.0
100
AcDbRotatedDimension
1001
ACAD
1000
DSTYLE
1002
{
1070
         6
1000
SOLID
1070
         7
1000
SOLID
1070
        41
1040
1.0000000298
1070
        42
1040
0.0625
1070
       271
1070
         4
1070
       284
1070
         8
1070
       340
1005
186
1070
       343
1005
0
1070
       344
1005
0
1002
}
  0
DIMENSION
  5
1FA
100
AcDbEntity
  8
PV
  6
CONTINUOUS
 62
       110
100
AcDbDimension
  2
*D12
 10
-8.92575
 20
-194.464877
 30
0.0
 11
-14.1285003662
 21
-194.464877
 31
0.0
 70
       128
  1
\A1;<>
  3
MXDIMSTYLE
100
AcDbAlignedDimension
 13
-19.93125
 23
-222.4837502147
 33
0.0
 14
-8.92575
 24
-238.9919994976
 34
0.0
100
AcDbRotatedDimension
1001
ACAD
1000
DSTYLE
1002
{
1070
         6
1000
SOLID
1070
         7
1000
SOLID
1070
        41
1040
1.0000000298
1070
        42
1040
0.0625
1070
       271
1070
         4
1070
       284
1070
         8
1070
       340
1005
1F4
1070
       343
1005
0
1070
       344
1005
0
1002
}
  0
DIMENSION
  5
209
100
AcDbEntity
  8
PV
  6
CONTINUOUS
 62
       110
100
AcDbDimension
  2
*D13
 10
22.59
 20
-194.464877
 30
0.0
 11
7.1321246796
 21
-194.464877
 31
0.0
 70
       128
  1
\A1;<>
  3
MXDIMSTYLE
100
AcDbAlignedDimension
 13
-8.92575
 23
-238.9919994976
 33
0.0
 14
22.59
 24
-239.9924992229
 34
0.0
100
AcDbRotatedDimension
1001
ACAD
1000
DSTYLE
1002
{
1070
         6
1000
SOLID
1070
         7
1000
SOLID
1070
        41
1040
1.0000000298
1070
        42
1040
0.0625
1070
       271
1070
         4
1070
       284
1070
         8
1070
       343
1005
0
1070
       344
1005
0
1002
}
  0
DIMENSION
  5
219
100
AcDbEntity
  8
PV
  6
CONTINUOUS
 62
       110
100
AcDbDimension
  2
*D14
 10
39.5985
 20
-194.464877
 30
0.0
 11
31.3942497635
 21
-194.464877
 31
0.0
 70
       128
  1
\A1;<>
  3
MXDIMSTYLE
100
AcDbAlignedDimension
 13
22.59
 23
-239.9924992229
 33
0.0
 14
39.5985
 24
-254.9999989177
 34
0.0
100
AcDbRotatedDimension
1001
ACAD
1000
DSTYLE
1002
{
1070
         6
1000
SOLID
1070
         7
1000
SOLID
1070
        41
1040
1.0000000298
1070
        42
1040
0.0625
1070
       271
1070
         4
1070
       284
1070
         8
1070
       340
1005
213
1070
       343
1005
0
1070
       344
1005
0
1002
}
  0
DIMENSION
  5
228
100
AcDbEntity
  8
PV
  6
CONTINUOUS
 62
       110
100
AcDbDimension
  2
*D15
 10
-200.952435
 20
-222.48375
 30
0.0
 11
-200.952435
 21
-258.4518771362
 31
0.0
 70
       128
  1
\A1;<>
  3
MXDIMSTYLE
100
AcDbAlignedDimension
 13
-182.5124993158
 23
-295.02
 33
0.0
 14
-157.5000004602
 24
-222.48375
 34
0.0
 50
90.0
100
AcDbRotatedDimension
1001
ACAD
1000
DSTYLE
1002
{
1070
         6
1000
SOLID
1070
         7
1000
SOLID
1070
        41
1040
1.0000000298
1070
        42
1040
0.0625
1070
       271
1070
         4
1070
       284
1070
         8
1070
       340
1005
213
1070
       343
1005
0
1070
       344
1005
0
1002
}
  0
DIMENSION
  5
238
100
AcDbEntity
  8
PV
  6
CONTINUOUS
 62
       110
100
AcDbDimension
  2
*D16
 10
155.01375
 20
-273.986524
 30
0.0
 11
210.3412490845
 21
-273.986524
 31
0.0
 70
       128
  1
\A1;<>
  3
MXDIMSTYLE
100
AcDbAlignedDimension
 13
265.06875
 23
-258.0014995478
 33
0.0
 14
155.01375
 24
-258.0014995478
 34
0.0
100
AcDbRotatedDimension
1001
ACAD
1000
DSTYLE
1002
{
1070
         6
1000
SOLID
1070
         7
1000
SOLID
1070
        41
1040
1.0000000298
1070
        42
1040
0.0625
1070
       271
1070
         4
1070
       284
1070
         8
1070
       340
1005
232
1070
       343
1005
0
1070
       344
1005
0
1002
}
  0
DIMENSION
  5
248
100
AcDbEntity
  8
PV
  6
CONTINUOUS
 62
       110
100
AcDbDimension
  2
*D17
 10
127.5
 20
-303.798651
 30
0.0
 11
196.584375
 21
-303.798651
 31
0.0
 70
       128
  1
\A1;<>
  3
MXDIMSTYLE
100
AcDbAlignedDimension
 13
265.06875
 23
-258.0015013418
 33
0.0
 14
127.5
 24
-303.798651
 34
0.0
100
AcDbRotatedDimension
1001
ACAD
1000
DSTYLE
1002
{
1070
         6
1000
SOLID
1070
         7
1000
SOLID
1070
        41
1040
1.0000000298
1070
        42
1040
0.0625
1070
        44
1040
1.34
1070
       271
1070
         4
1070
       284
1070
         8
1070
       340
1005
242
1070
       343
1005
0
1070
       344
1005
0
1002
}
  0
DIMENSION
  5
257
100
AcDbEntity
  8
PV
  6
CONTINUOUS
 62
       110
100
AcDbDimension
  2
*D18
 10
284.175504
 20
-258.0015
 30
0.0
 11
284.175504
 21
-239.8752194748
 31
0.0
 70
       128
  1
\A1;\U+2205<>
  3
MXDIMSTYLE
100
AcDbAlignedDimension
 13
265.068749697
 23
-251.9985
 33
0.0
 14
265.068749697
 24
-258.0015
 34
0.0
 50
90.0
100
AcDbRotatedDimension
1001
ACAD
1000
DSTYLE
1002
{
1070
         6
1000
SOLID
1070
         7
1000
SOLID
1070
        41
1040
1.0000000298
1070
        42
1040
0.0625
1070
       271
1070
         4
1070
       284
1070
         8
1070
       340
1005
251
1070
       343
1005
0
1070
       344
1005
0
1002
}
  0
DIMENSION
  5
266
100
AcDbEntity
  8
PV
  6
CONTINUOUS
 62
       110
100
AcDbDimension
  2
*D19
 10
54.0738307
 20
-270.0075
 30
0.0
 11
54.0738307
 21
-254.7000004578
 31
0.0
 70
       128
  1
\A1;\U+2205<>
  3
MXDIMSTYLE
100
AcDbAlignedDimension
 13
36.6780405999
 23
-239.9925
 33
0.0
 14
36.6780405999
 24
-270.0075
 34
0.0
 50
90.0
100
AcDbRotatedDimension
1001
ACAD
1000
DSTYLE
1002
{
1070
         6
1000
SOLID
1070
         7
1000
SOLID
1070
        41
1040
1.0000000298
1070
        42
1040
0.0625
1070
       271
1070
         4
1070
       284
1070
         8
1070
       343
1005
0
1070
       344
1005
0
1002
}
  0
ENDSEC
  0
SECTION
  2
OBJECTS
  0
DICTIONARY
  5
19
100
AcDbDictionary
  3
ACAD_GROUP
350
1A
  3
ACAD_MLINESTYLE
350
1B
  0
DICTIONARY
  5
1A
102
{ACAD_REACTORS
330
19
102
}
100
AcDbDictionary
  0
DICTIONARY
  5
1B
102
{ACAD_REACTORS
330
19
102
}
100
AcDbDictionary
  3
STANDARD
350
1C
  0
MLINESTYLE
  5
1C
102
{ACAD_REACTORS
330
1B
102
}
100
AcDbMlineStyle
  2
Standard
 70
         0
  3

 62
         0
 51
90.0
 52
90.0
 71
         2
 49
0.5
 62
       256
  6
ByLayer
 49
-0.5
 62
       256
  6
ByLayer
  0
ENDSEC
  0
EOF
