  0
SECTION
  2
HEADER
  9
$ACADVER
  1
AC1014
  9
$ACADMAINTVER
 70
         0
  9
$DWGCODEPAGE
  3
ANSI_932
  9
$INSBASE
 10
0.0
 20
0.0
 30
0.0
  9
$EXTMIN
 10
-264.16683477
 20
-285.59964
 30
0.0
  9
$EXTMAX
 10
330.398097
 20
110.0
 30
0.0
  9
$LIMMIN
 10
-264.16683477
 20
-285.59964
  9
$LIMMAX
 10
330.398097
 20
110.0
  9
$ORTHOMODE
 70
         0
  9
$REGENMODE
 70
         1
  9
$FILLMODE
 70
         1
  9
$QTEXTMODE
 70
         0
  9
$MIRRTEXT
 70
         1
  9
$DRAGMODE
 70
         2
  9
$LTSCALE
 40
1.0
  9
$OSMODE
 70
         0
  9
$ATTMODE
 70
         1
  9
$TEXTSIZE
 40
3.2000000477
  9
$TRACEWID
 40
0.05
  9
$TEXTSTYLE
  7
MX_NOTE_STANDARD
  9
$CLAYER
  8
0
  9
$CELTYPE
  6
CONTINUOUS
  9
$CECOLOR
 62
       256
  9
$CELTSCALE
 40
1.0
  9
$DELOBJ
 70
         1
  9
$DISPSILH
 70
         0
  9
$DIMSCALE
 40
1.0
  9
$DIMASZ
 40
2.5
  9
$DIMEXO
 40
0.0
  9
$DIMDLI
 40
3.75
  9
$DIMRND
 40
0.0
  9
$DIMDLE
 40
0.0
  9
$DIMEXE
 40
2.5
  9
$DIMTP
 40
0.0
  9
$DIMTM
 40
0.0
  9
$DIMTXT
 40
3.2000000477
  9
$DIMCEN
 40
2.5
  9
$DIMTSZ
 40
0.0
  9
$DIMTOL
 70
         0
  9
$DIMLIM
 70
         0
  9
$DIMTIH
 70
         0
  9
$DIMTOH
 70
         0
  9
$DIMSE1
 70
         0
  9
$DIMSE2
 70
         0
  9
$DIMTAD
 70
         1
  9
$DIMZIN
 70
         8
  9
$DIMBLK
  1

  9
$DIMASO
 70
         1
  9
$DIMSHO
 70
         1
  9
$DIMPOST
  1

  9
$DIMAPOST
  1

  9
$DIMALT
 70
         0
  9
$DIMALTD
 70
         4
  9
$DIMALTF
 40
0.0393700787
  9
$DIMLFAC
 40
1.0
  9
$DIMTOFL
 70
         1
  9
$DIMTVP
 40
0.0
  9
$DIMTIX
 70
         0
  9
$DIMSOXD
 70
         0
  9
$DIMSAH
 70
         1
  9
$DIMBLK1
  1
_OPEN30
  9
$DIMBLK2
  1
_OPEN30
  9
$DIMSTYLE
  2
MXDIMSTYLE
  9
$DIMCLRD
 70
         0
  9
$DIMCLRE
 70
         0
  9
$DIMCLRT
 70
         0
  9
$DIMTFAC
 40
1.0
  9
$DIMGAP
 40
1.0
  9
$DIMJUST
 70
         0
  9
$DIMSD1
 70
         0
  9
$DIMSD2
 70
         0
  9
$DIMTOLJ
 70
         0
  9
$DIMTZIN
 70
         0
  9
$DIMALTZ
 70
         0
  9
$DIMALTTZ
 70
         0
  9
$DIMFIT
 70
         3
  9
$DIMUPT
 70
         0
  9
$DIMUNIT
 70
         2
  9
$DIMDEC
 70
         2
  9
$DIMTDEC
 70
         2
  9
$DIMALTU
 70
         2
  9
$DIMALTTD
 70
         4
  9
$DIMTXSTY
  7
MX_NOTE_STANDARD
  9
$DIMAUNIT
 70
         0
  9
$LUNITS
 70
         2
  9
$LUPREC
 70
         4
  9
$SKETCHINC
 40
0.1
  9
$FILLETRAD
 40
0.0
  9
$AUNITS
 70
         0
  9
$AUPREC
 70
         0
  9
$MENU
  1
acad
  9
$ELEVATION
 40
0.0
  9
$PELEVATION
 40
0.0
  9
$THICKNESS
 40
0.0
  9
$LIMCHECK
 70
         0
  9
$BLIPMODE
 70
         1
  9
$CHAMFERA
 40
0.0
  9
$CHAMFERB
 40
0.0
  9
$CHAMFERC
 40
0.0
  9
$CHAMFERD
 40
0.0
  9
$SKPOLY
 70
         0
  9
$TDCREATE
 40
2456603.443425926
  9
$TDUPDATE
 40
2456603.443425926
  9
$TDINDWG
 40
0.0000000000
  9
$TDUSRTIMER
 40
0.0000000000
  9
$USRTIMER
 70
         1
  9
$ANGBASE
 50
0.0
  9
$ANGDIR
 70
         0
  9
$PDMODE
 70
         0
  9
$PDSIZE
 40
0.0
  9
$PLINEWID
 40
0.0
  9
$COORDS
 70
         1
  9
$SPLFRAME
 70
         0
  9
$SPLINETYPE
 70
         6
  9
$SPLINESEGS
 70
         8
  9
$ATTDIA
 70
         0
  9
$ATTREQ
 70
         1
  9
$HANDLING
 70
         1
  9
$HANDSEED
  5
257
  9
$SURFTAB1
 70
         6
  9
$SURFTAB2
 70
         6
  9
$SURFTYPE
 70
         6
  9
$SURFU
 70
         6
  9
$SURFV
 70
         6
  9
$UCSNAME
  2

  9
$UCSORG
 10
0.0
 20
0.0
 30
0.0
  9
$UCSXDIR
 10
1.0
 20
0.0
 30
0.0
  9
$UCSYDIR
 10
0.0
 20
1.0
 30
0.0
  9
$PUCSNAME
  2

  9
$PUCSORG
 10
0.0
 20
0.0
 30
0.0
  9
$PUCSXDIR
 10
1.0
 20
0.0
 30
0.0
  9
$PUCSYDIR
 10
0.0
 20
1.0
 30
0.0
  9
$USERI1
 70
         0
  9
$USERI2
 70
         0
  9
$USERI3
 70
         0
  9
$USERI4
 70
         0
  9
$USERI5
 70
         0
  9
$USERR1
 40
0.0
  9
$USERR2
 40
0.0
  9
$USERR3
 40
0.0
  9
$USERR4
 40
0.0
  9
$USERR5
 40
0.0
  9
$WORLDVIEW
 70
         1
  9
$SHADEDGE
 70
         3
  9
$SHADEDIF
 70
        70
  9
$TILEMODE
 70
         1
  9
$MAXACTVP
 70
        16
  9
$PINSBASE
 10
0.0
 20
0.0
 30
0.0
  9
$PLIMCHECK
 70
         0
  9
$PEXTMIN
 10
1.0000000000E+20
 20
1.0000000000E+20
 30
1.0000000000E+20
  9
$PEXTMAX
 10
-1.0000000000E+20
 20
-1.0000000000E+20
 30
-1.0000000000E+20
  9
$PLIMMIN
 10
0.0
 20
0.0
  9
$PLIMMAX
 10
12.0
 20
9.0
  9
$UNITMODE
 70
         0
  9
$VISRETAIN
 70
         0
  9
$PLINEGEN
 70
         1
  9
$PSLTSCALE
 70
         0
  9
$TREEDEPTH
 70
      3020
  9
$PICKSTYLE
 70
         1
  9
$CMLSTYLE
  2
Standard
  9
$CMLJUST
 70
         0
  9
$CMLSCALE
 40
1.0
  9
$PROXYGRAPHICS
 70
         0
  9
$MEASUREMENT
 70
         1
  0
ENDSEC
  0
SECTION
  2
CLASSES
  0
CLASS
  1
LWPOLYLINE
  2
AcDbPolyline
  3
"AutoCAD"
 90
        0
280
         0
281
         1
  0
CLASS
  1
IMAGE
  2
AcDbRasterImage
  3
ISM
 90
      127
280
         0
281
         1
  0
CLASS
  1
OLE2FRAME
  2
AcDbOle2Frame
  3
""
 90
        0
280
         0
281
         1
  0
CLASS
  1
HATCH
  2
AcDbHatch
  3
"ACAD_SEDONA"
 90
        0
280
         0
281
         1
  0
CLASS
  1
DICTIONARYVAR
  2
AcDbDictionaryVar
  3
"AutoCAD"
 90
        0
280
         0
281
         0
  0
CLASS
  1
RASTERVARIABLES
  2
AcDbRasterVariables
  3
ISM
 90
        0
280
         0
281
         0
  0
CLASS
  1
IMAGEDEF
  2
AcDbRasterImageDef
  3
ISM
 90
        0
280
         0
281
         0
  0
CLASS
  1
IMAGEDEF_REACTOR
  2
AcDbRasterImageDefReactor
  3
ISM
 90
        1
280
         0
281
         0
  0
CLASS
  1
IDBUFFER
  2
AcDbIdBuffer
  3
"Acad"
 90
        0
280
         0
281
         0
  0
CLASS
  1
SPATIAL_FILTER
  2
AcDbSpatialFilter
  3
"Acad"
 90
        0
280
         0
281
         0
  0
CLASS
  1
XRECORD
  2
AcDbXrecord
  3
"<Built In>"
 90
        0
280
         0
281
         0
  0
CLASS
  1
SORTENTSTABLE
  2
AcDbSortentsTable
  3
"AutoCAD"
 90
        0
280
         0
281
         0
  0
CLASS
  1
LAYER_INDEX
  2
AcDbLayerIndex
  3
"Acad"
 90
        0
280
         0
281
         0
  0
CLASS
  1
SPATIAL_INDEX
  2
AcDbSpatialIndex
  3
"Acad"
 90
        0
280
         0
281
         0
  0
CLASS
  1
OBJECT_PTR
  2
CAseDLPNTableRecord
  3
"ASE-LPNTableRecord"
 90
        1
280
         0
281
         0
  0
CLASS
  1
LAYOUT
  2
AcDbLayout
  3
"AutoCAD 2000"
 90
        0
280
         0
281
         0
  0
CLASS
  1
PLOTSETTINGS
  2
AcDbPlotSettings
  3
"AutoCAD 2000"
 90
        0
280
         0
281
         0
  0
CLASS
  1
ACDBDICTIONARYWDFLT
  2
AcDbDictionaryWithDefault
  3
"AutoCAD 2000"
 90
        0
280
         0
281
         0
  0
CLASS
  1
ACDBPLACEHOLDER
  2
AcDbPlaceHolder
  3
"AutoCAD 2000"
 90
        0
280
         0
281
         0
  0
ENDSEC
  0
SECTION
  2
TABLES
  0
TABLE
  2
VPORT
  5
7
100
AcDbSymbolTable
 70
         1
  0
VPORT
  5
15
100
AcDbSymbolTableRecord
100
AcDbViewportTableRecord
  2
*ACTIVE
 70
         0
 10
0.0
 20
0.0
 11
1.0
 21
1.0
 12
33.115631115
 22
-87.79982
 13
0.0
 23
0.0
 14
1.0
 24
1.0
 15
0.0
 25
0.0
 16
0.0
 26
0.0
 36
1.0
 17
0.0
 27
0.0
 37
0.0
 40
399.5556364
 41
1.7320508076
 42
50.0
 43
0.0
 44
0.0
 50
0.0
 51
0.0
 71
         0
 72
       100
 73
         1
 74
         1
 75
         0
 76
         0
 77
         0
 78
         0
  0
ENDTAB
  0
TABLE
  2
LTYPE
  5
4
100
AcDbSymbolTable
 70
         6
  0
LTYPE
  5
11
100
AcDbSymbolTableRecord
100
AcDbLinetypeTableRecord
  2
BYBLOCK
 70
        64
  3

 72
        65
 73
         0
 40
0.0
  0
LTYPE
  5
12
100
AcDbSymbolTableRecord
100
AcDbLinetypeTableRecord
  2
BYLAYER
 70
        64
  3

 72
        65
 73
         0
 40
0.0
  0
LTYPE
  5
13
100
AcDbSymbolTableRecord
100
AcDbLinetypeTableRecord
  2
CONTINUOUS
 70
        64
  3
Solid line
 72
        65
 73
         0
 40
0.0
  0
LTYPE
  5
39
100
AcDbSymbolTableRecord
100
AcDbLinetypeTableRecord
  2
CENTER
 70
        64
  3
Center ____ _ ____ _ ____ _ ____ _ ____ _ ____
 72
        65
 73
         4
 40
50.8
 49
31.75
 74
         0
 49
-6.35
 74
         0
 49
6.35
 74
         0
 49
-6.35
 74
         0
  0
LTYPE
  5
CE
100
AcDbSymbolTableRecord
100
AcDbLinetypeTableRecord
  2
DASHED
 70
        64
  3
Dashed __ __ __ __ __ __ __ __ __ __ __ __ __ _
 72
        65
 73
         2
 40
19.05
 49
12.7
 74
         0
 49
-6.35
 74
         0
  0
LTYPE
  5
DF
100
AcDbSymbolTableRecord
100
AcDbLinetypeTableRecord
  2
PHANTOM
 70
        64
  3
Phantom ______  __  __  ______  __  __  ______
 72
        65
 73
         6
 40
63.5
 49
31.75
 74
         0
 49
-6.35
 74
         0
 49
6.35
 74
         0
 49
-6.35
 74
         0
 49
6.35
 74
         0
 49
-6.35
 74
         0
  0
ENDTAB
  0
TABLE
  2
LAYER
  5
2
100
AcDbSymbolTable
 70
         3
  0
LAYER
  5
14
100
AcDbSymbolTableRecord
100
AcDbLayerTableRecord
  2
0
 70
         0
 62
         7
  6
CONTINUOUS
  0
LAYER
  5
1D
100
AcDbSymbolTableRecord
100
AcDbLayerTableRecord
  2
PV
 70
         0
 62
         3
  6
CONTINUOUS
  0
LAYER
  5
1E
100
AcDbSymbolTableRecord
100
AcDbLayerTableRecord
  2
DEFPOINTS
 70
         0
 62
         7
  6
CONTINUOUS
  0
ENDTAB
  0
TABLE
  2
STYLE
  5
3
100
AcDbSymbolTable
 70
         7
  0
STYLE
  5
17
100
AcDbSymbolTableRecord
100
AcDbTextStyleTableRecord
  2
MX_NOTE_STANDARD
 70
         0
 40
0.0
 41
1.0
 50
0.0
 71
         0
 42
3.2000000477
  3
txt.shx
  4
extfont.shx
  0
STYLE
  5
15F
100
AcDbSymbolTableRecord
100
AcDbTextStyleTableRecord
  2
MX_DIMTXSTY_2
 70
         0
 40
0.0
 41
1.05
 50
0.0
 71
         0
 42
3.2000000477
  3
txt.shx
  4
extfont.shx
  0
STYLE
  5
19C
100
AcDbSymbolTableRecord
100
AcDbTextStyleTableRecord
  2
MX_DIMTXSTY_3
 70
         0
 40
0.0
 41
1.1
 50
0.0
 71
         0
 42
3.2000000477
  3
txt.shx
  4
extfont.shx
  0
STYLE
  5
1E6
100
AcDbSymbolTableRecord
100
AcDbTextStyleTableRecord
  2
MX_DIMTXSTY_4
 70
         0
 40
0.0
 41
1.4
 50
0.0
 71
         0
 42
3.2000000477
  3
txt.shx
  4
extfont.shx
  0
STYLE
  5
223
100
AcDbSymbolTableRecord
100
AcDbTextStyleTableRecord
  2
MX_DIMTXSTY_5
 70
         0
 40
0.0
 41
1.3
 50
0.0
 71
         0
 42
3.2000000477
  3
txt.shx
  4
extfont.shx
  0
STYLE
  5
233
100
AcDbSymbolTableRecord
100
AcDbTextStyleTableRecord
  2
MX_DIMTXSTY_6
 70
         0
 40
0.0
 41
1.15
 50
0.0
 71
         0
 42
3.2000000477
  3
txt.shx
  4
extfont.shx
  0
STYLE
  5
241
100
AcDbSymbolTableRecord
100
AcDbTextStyleTableRecord
  2
MX_DIMTXSTY_7
 70
         0
 40
0.0
 41
0.85
 50
0.0
 71
         0
 42
3.2000000477
  3
txt.shx
  4
extfont.shx
  0
ENDTAB
  0
TABLE
  2
VIEW
  5
5
100
AcDbSymbolTable
 70
         0
  0
ENDTAB
  0
TABLE
  2
UCS
  5
6
100
AcDbSymbolTable
 70
         0
  0
ENDTAB
  0
TABLE
  2
APPID
  5
8
100
AcDbSymbolTable
 70
         1
  0
APPID
  5
16
100
AcDbSymbolTableRecord
100
AcDbRegAppTableRecord
  2
ACAD
 70
         0
  0
ENDTAB
  0
TABLE
  2
DIMSTYLE
  5
9
100
AcDbSymbolTable
 70
         1
  0
DIMSTYLE
105
18
100
AcDbSymbolTableRecord
100
AcDbDimStyleTableRecord
  2
MXDIMSTYLE
 70
         0
  3

  4

  5

  6
_OPEN30
  7
_OPEN30
 40
1.0
 41
2.5
 42
0.0
 43
3.75
 44
2.5
 45
0.0
 46
0.0
 47
0.0
 48
0.0
 71
         0
 72
         0
 73
         0
 74
         0
 75
         0
 76
         0
 77
         1
 78
         8
140
3.2000000477
141
2.5
142
0.0
143
0.0393700787
144
1.0
145
0.0
146
1.0
147
1.0
170
         0
171
         4
172
         1
173
         1
174
         0
175
         0
176
         0
177
         0
178
         0
270
         2
271
         2
272
         2
273
         2
274
         4
275
         0
280
         0
281
         0
282
         0
283
         0
284
         0
285
         0
286
         0
287
         3
288
         0
340
17
  0
ENDTAB
  0
TABLE
  2
BLOCK_RECORD
  5
1
100
AcDbSymbolTable
 70
        19
  0
BLOCK_RECORD
  5
A
100
AcDbSymbolTableRecord
100
AcDbBlockTableRecord
  2
*MODEL_SPACE
  0
BLOCK_RECORD
  5
B
100
AcDbSymbolTableRecord
100
AcDbBlockTableRecord
  2
*PAPER_SPACE
  0
BLOCK_RECORD
  5
1F
100
AcDbSymbolTableRecord
100
AcDbBlockTableRecord
  2
ARROW
  0
BLOCK_RECORD
  5
20
100
AcDbSymbolTableRecord
100
AcDbBlockTableRecord
  2
_OPEN30
  0
BLOCK_RECORD
  5
156
100
AcDbSymbolTableRecord
100
AcDbBlockTableRecord
  2
*D2
  0
BLOCK_RECORD
  5
166
100
AcDbSymbolTableRecord
100
AcDbBlockTableRecord
  2
*D3
  0
BLOCK_RECORD
  5
175
100
AcDbSymbolTableRecord
100
AcDbBlockTableRecord
  2
*D4
  0
BLOCK_RECORD
  5
184
100
AcDbSymbolTableRecord
100
AcDbBlockTableRecord
  2
*D5
  0
BLOCK_RECORD
  5
193
100
AcDbSymbolTableRecord
100
AcDbBlockTableRecord
  2
*D6
  0
BLOCK_RECORD
  5
1A3
100
AcDbSymbolTableRecord
100
AcDbBlockTableRecord
  2
*D7
  0
BLOCK_RECORD
  5
1B2
100
AcDbSymbolTableRecord
100
AcDbBlockTableRecord
  2
*D8
  0
BLOCK_RECORD
  5
1C1
100
AcDbSymbolTableRecord
100
AcDbBlockTableRecord
  2
*D9
  0
BLOCK_RECORD
  5
1CE
100
AcDbSymbolTableRecord
100
AcDbBlockTableRecord
  2
*D10
  0
BLOCK_RECORD
  5
1DD
100
AcDbSymbolTableRecord
100
AcDbBlockTableRecord
  2
*D11
  0
BLOCK_RECORD
  5
1ED
100
AcDbSymbolTableRecord
100
AcDbBlockTableRecord
  2
*D12
  0
BLOCK_RECORD
  5
1FC
100
AcDbSymbolTableRecord
100
AcDbBlockTableRecord
  2
*D13
  0
BLOCK_RECORD
  5
20B
100
AcDbSymbolTableRecord
100
AcDbBlockTableRecord
  2
*D14
  0
BLOCK_RECORD
  5
21A
100
AcDbSymbolTableRecord
100
AcDbBlockTableRecord
  2
*D15
  0
BLOCK_RECORD
  5
22A
100
AcDbSymbolTableRecord
100
AcDbBlockTableRecord
  2
*D16
  0
BLOCK_RECORD
  5
23A
100
AcDbSymbolTableRecord
100
AcDbBlockTableRecord
  2
*D17
  0
BLOCK_RECORD
  5
248
100
AcDbSymbolTableRecord
100
AcDbBlockTableRecord
  2
*D18
  0
ENDTAB
  0
ENDSEC
  0
SECTION
  2
BLOCKS
  0
BLOCK
  5
D
100
AcDbEntity
  8
0
100
AcDbBlockBegin
  2
*MODEL_SPACE
 70
         0
 10
0.0
 20
0.0
 30
0.0
  3
*MODEL_SPACE
  1

  0
ENDBLK
  5
E
100
AcDbEntity
  8
0
100
AcDbBlockEnd
  0
BLOCK
  5
F
100
AcDbEntity
 67
         1
  8
0
100
AcDbBlockBegin
  2
*PAPER_SPACE
 70
         0
 10
0.0
 20
0.0
 30
0.0
  3
*PAPER_SPACE
  1

  0
ENDBLK
  5
10
100
AcDbEntity
 67
         1
  8
0
100
AcDbBlockEnd
  0
BLOCK
  5
26
100
AcDbEntity
  8
0
100
AcDbBlockBegin
  2
ARROW
 70
         0
 10
0.0
 20
0.0
 30
0.0
  3
ARROW
  1

  0
LWPOLYLINE
  5
27
100
AcDbEntity
  8
0
  6
CONTINUOUS
 62
       254
100
AcDbPolyline
 90
        3
 70
         0
 10
2.82747512
 20
0.757619676
 10
0.0
 20
0.0
 10
2.82747512
 20
-0.757619676
  0
ENDBLK
  5
28
100
AcDbEntity
  8
0
100
AcDbBlockEnd
  0
BLOCK
  5
21
100
AcDbEntity
  8
0
  6
ByBlock
 62
         0
100
AcDbBlockBegin
  2
_OPEN30
 70
         2
 10
0.0
 20
0.0
 30
0.0
  3
_OPEN30
  1

  0
LINE
  5
22
100
AcDbEntity
  8
0
  6
ByBlock
 62
         0
100
AcDbLine
 10
-1.0
 20
0.267949
 30
0.0
 11
0.0
 21
0.0
 31
0.0
  0
LINE
  5
23
100
AcDbEntity
  8
0
  6
ByBlock
 62
         0
100
AcDbLine
 10
0.0
 20
0.0
 30
0.0
 11
-1.0
 21
-0.267949
 31
0.0
  0
LINE
  5
24
100
AcDbEntity
  8
0
  6
ByBlock
 62
         0
100
AcDbLine
 10
0.0
 20
0.0
 30
0.0
 11
-1.0
 21
0.0
 31
0.0
  0
ENDBLK
  5
25
100
AcDbEntity
  8
0
  6
ByBlock
 62
         0
100
AcDbBlockEnd
  0
BLOCK
  5
157
100
AcDbEntity
  8
0
  6
ByBlock
 62
         0
100
AcDbBlockBegin
  2
*D2
 70
         1
 10
0.0
 20
0.0
 30
0.0
  3
*D2
  1

  0
LINE
  5
158
100
AcDbEntity
  8
0
  6
CONTINUOUS
 62
       110
100
AcDbLine
 10
39.1722725
 20
-122.601048
 30
0.0
 11
-124.909727
 21
-122.601048
 31
0.0
  0
LINE
  5
159
100
AcDbEntity
  8
0
  6
CONTINUOUS
 62
       110
100
AcDbLine
 10
39.1722725
 20
-119.0789909436
 30
0.0
 11
39.1722725
 21
-125.101048
 31
0.0
  0
LINE
  5
15A
100
AcDbEntity
  8
0
  6
CONTINUOUS
 62
       110
100
AcDbLine
 10
-124.909727
 20
-119.0789909436
 30
0.0
 11
-124.909727
 21
-125.101048
 31
0.0
  0
LINE
  5
15B
100
AcDbEntity
  8
0
  6
CONTINUOUS
 62
       110
100
AcDbLine
 10
39.1722725
 20
-122.601048
 30
0.0
 11
43.1722725
 21
-122.601048
 31
0.0
  0
LINE
  5
15C
100
AcDbEntity
  8
0
  6
CONTINUOUS
 62
       110
100
AcDbLine
 10
-124.909727
 20
-122.601048
 30
0.0
 11
-128.909727
 21
-122.601048
 31
0.0
  0
SOLID
  5
15D
100
AcDbEntity
  8
0
  6
CONTINUOUS
 62
       110
100
AcDbTrace
 10
40.1722725298
 20
-122.767715005
 30
0.0
 11
40.1722725298
 21
-122.434380995
 31
0.0
 12
39.1722725
 22
-122.601048
 32
0.0
 13
39.1722725
 23
-122.601048
 33
0.0
  0
SOLID
  5
15E
100
AcDbEntity
  8
0
  6
CONTINUOUS
 62
       110
100
AcDbTrace
 10
-125.9097270298
 20
-122.434380995
 30
0.0
 11
-125.9097270298
 21
-122.767715005
 31
0.0
 12
-124.909727
 22
-122.601048
 32
0.0
 13
-124.909727
 23
-122.601048
 33
0.0
  0
MTEXT
  5
160
100
AcDbEntity
  8
0
  6
CONTINUOUS
 62
       110
100
AcDbMText
 10
-42.5687248145
 20
-120.0010479762
 30
0.0
 40
3.2000000477
 41
0.0
 71
         5
 72
         1
  1
\A1;164
  7
MX_DIMTXSTY_2
 11
1.0
 21
0.0
 31
0.0
  0
POINT
  5
161
100
AcDbEntity
  8
DEFPOINTS
  6
CONTINUOUS
 62
         0
100
AcDbPoint
 10
39.1722725
 20
-119.0164909436
 30
0.0
  0
POINT
  5
162
100
AcDbEntity
  8
DEFPOINTS
  6
CONTINUOUS
 62
         0
100
AcDbPoint
 10
-124.909727
 20
-119.0164909436
 30
0.0
  0
POINT
  5
163
100
AcDbEntity
  8
DEFPOINTS
  6
CONTINUOUS
 62
         0
100
AcDbPoint
 10
-124.909727
 20
-122.601048
 30
0.0
  0
ENDBLK
  5
164
100
AcDbEntity
  8
0
  6
ByBlock
 62
         0
100
AcDbBlockEnd
  0
BLOCK
  5
167
100
AcDbEntity
  8
0
  6
ByBlock
 62
         0
100
AcDbBlockBegin
  2
*D3
 70
         1
 10
0.0
 20
0.0
 30
0.0
  3
*D3
  1

  0
LINE
  5
168
100
AcDbEntity
  8
0
  6
CONTINUOUS
 62
       110
100
AcDbLine
 10
-150.162723
 20
-98.9114435
 30
0.0
 11
-150.162723
 21
-34.8794435
 31
0.0
  0
LINE
  5
169
100
AcDbEntity
  8
0
  6
CONTINUOUS
 62
       110
100
AcDbLine
 10
-143.3714231801
 20
-98.9114435
 30
0.0
 11
-152.662723
 21
-98.9114435
 31
0.0
  0
LINE
  5
16A
100
AcDbEntity
  8
0
  6
CONTINUOUS
 62
       110
100
AcDbLine
 10
-147.3674198937
 20
-34.8794435
 30
0.0
 11
-152.662723
 21
-34.8794435
 31
0.0
  0
LINE
  5
16B
100
AcDbEntity
  8
0
  6
CONTINUOUS
 62
       110
100
AcDbLine
 10
-150.162723
 20
-98.9114435
 30
0.0
 11
-150.162723
 21
-102.9114435
 31
0.0
  0
LINE
  5
16C
100
AcDbEntity
  8
0
  6
CONTINUOUS
 62
       110
100
AcDbLine
 10
-150.162723
 20
-34.8794435
 30
0.0
 11
-150.162723
 21
-30.8794435
 31
0.0
  0
SOLID
  5
16D
100
AcDbEntity
  8
0
  6
CONTINUOUS
 62
       110
100
AcDbTrace
 10
-150.329390005
 20
-99.9114435298
 30
0.0
 11
-149.996055995
 21
-99.9114435298
 31
0.0
 12
-150.162723
 22
-98.9114435
 32
0.0
 13
-150.162723
 23
-98.9114435
 33
0.0
  0
SOLID
  5
16E
100
AcDbEntity
  8
0
  6
CONTINUOUS
 62
       110
100
AcDbTrace
 10
-149.996055995
 20
-33.8794434702
 30
0.0
 11
-150.329390005
 21
-33.8794434702
 31
0.0
 12
-150.162723
 22
-34.8794435
 32
0.0
 13
-150.162723
 23
-34.8794435
 33
0.0
  0
MTEXT
  5
16F
100
AcDbEntity
  8
0
  6
CONTINUOUS
 62
       110
100
AcDbMText
 10
-152.7627230238
 20
-66.5954454226
 30
0.0
 40
3.2000000477
 41
0.0
 71
         5
 72
         1
  1
\A1;64
 11
0.0
 21
1.0
 31
0.0
  0
POINT
  5
170
100
AcDbEntity
  8
DEFPOINTS
  6
CONTINUOUS
 62
         0
100
AcDbPoint
 10
-143.3089231801
 20
-98.9114435
 30
0.0
  0
POINT
  5
171
100
AcDbEntity
  8
DEFPOINTS
  6
CONTINUOUS
 62
         0
100
AcDbPoint
 10
-147.3049198937
 20
-34.8794435
 30
0.0
  0
POINT
  5
172
100
AcDbEntity
  8
DEFPOINTS
  6
CONTINUOUS
 62
         0
100
AcDbPoint
 10
-150.162723
 20
-34.8794435
 30
0.0
  0
ENDBLK
  5
173
100
AcDbEntity
  8
0
  6
ByBlock
 62
         0
100
AcDbBlockEnd
  0
BLOCK
  5
176
100
AcDbEntity
  8
0
  6
ByBlock
 62
         0
100
AcDbBlockBegin
  2
*D4
 70
         1
 10
0.0
 20
0.0
 30
0.0
  3
*D4
  1

  0
LINE
  5
177
100
AcDbEntity
  8
0
  6
CONTINUOUS
 62
       110
100
AcDbLine
 10
-171.888227
 20
-273.345357
 30
0.0
 11
-235.920227
 21
-273.345357
 31
0.0
  0
LINE
  5
178
100
AcDbEntity
  8
0
  6
CONTINUOUS
 62
       110
100
AcDbLine
 10
-171.888227
 20
-263.2780943505
 30
0.0
 11
-171.888227
 21
-275.845357
 31
0.0
  0
LINE
  5
179
100
AcDbEntity
  8
0
  6
CONTINUOUS
 62
       110
100
AcDbLine
 10
-235.920227
 20
-263.2780943505
 30
0.0
 11
-235.920227
 21
-275.845357
 31
0.0
  0
LINE
  5
17A
100
AcDbEntity
  8
0
  6
CONTINUOUS
 62
       110
100
AcDbLine
 10
-171.888227
 20
-273.345357
 30
0.0
 11
-167.888227
 21
-273.345357
 31
0.0
  0
LINE
  5
17B
100
AcDbEntity
  8
0
  6
CONTINUOUS
 62
       110
100
AcDbLine
 10
-235.920227
 20
-273.345357
 30
0.0
 11
-239.920227
 21
-273.345357
 31
0.0
  0
SOLID
  5
17C
100
AcDbEntity
  8
0
  6
CONTINUOUS
 62
       110
100
AcDbTrace
 10
-170.8882269702
 20
-273.512024005
 30
0.0
 11
-170.8882269702
 21
-273.178689995
 31
0.0
 12
-171.888227
 22
-273.345357
 32
0.0
 13
-171.888227
 23
-273.345357
 33
0.0
  0
SOLID
  5
17D
100
AcDbEntity
  8
0
  6
CONTINUOUS
 62
       110
100
AcDbTrace
 10
-236.9202270298
 20
-273.178689995
 30
0.0
 11
-236.9202270298
 21
-273.512024005
 31
0.0
 12
-235.920227
 22
-273.345357
 32
0.0
 13
-235.920227
 23
-273.345357
 33
0.0
  0
MTEXT
  5
17E
100
AcDbEntity
  8
0
  6
CONTINUOUS
 62
       110
100
AcDbMText
 10
-203.6042266033
 20
-270.7453569762
 30
0.0
 40
3.2000000477
 41
0.0
 71
         5
 72
         1
  1
\A1;64
 11
1.0
 21
0.0
 31
0.0
  0
POINT
  5
17F
100
AcDbEntity
  8
DEFPOINTS
  6
CONTINUOUS
 62
         0
100
AcDbPoint
 10
-171.888227
 20
-263.2155943505
 30
0.0
  0
POINT
  5
180
100
AcDbEntity
  8
DEFPOINTS
  6
CONTINUOUS
 62
         0
100
AcDbPoint
 10
-235.920227
 20
-263.2155943505
 30
0.0
  0
POINT
  5
181
100
AcDbEntity
  8
DEFPOINTS
  6
CONTINUOUS
 62
         0
100
AcDbPoint
 10
-235.920227
 20
-273.345357
 30
0.0
  0
ENDBLK
  5
182
100
AcDbEntity
  8
0
  6
ByBlock
 62
         0
100
AcDbBlockEnd
  0
BLOCK
  5
185
100
AcDbEntity
  8
0
  6
ByBlock
 62
         0
100
AcDbBlockBegin
  2
*D5
 70
         1
 10
0.0
 20
0.0
 30
0.0
  3
*D5
  1

  0
LINE
  5
186
100
AcDbEntity
  8
0
  6
CONTINUOUS
 62
       110
100
AcDbLine
 10
-158.881727
 20
-283.09964
 30
0.0
 11
-248.926727
 21
-283.09964
 31
0.0
  0
LINE
  5
187
100
AcDbEntity
  8
0
  6
CONTINUOUS
 62
       110
100
AcDbLine
 10
-158.881727
 20
-257.9754429938
 30
0.0
 11
-158.881727
 21
-285.59964
 31
0.0
  0
LINE
  5
188
100
AcDbEntity
  8
0
  6
CONTINUOUS
 62
       110
100
AcDbLine
 10
-248.926727
 20
-257.9754429938
 30
0.0
 11
-248.926727
 21
-285.59964
 31
0.0
  0
LINE
  5
189
100
AcDbEntity
  8
0
  6
CONTINUOUS
 62
       110
100
AcDbLine
 10
-158.881727
 20
-283.09964
 30
0.0
 11
-154.881727
 21
-283.09964
 31
0.0
  0
LINE
  5
18A
100
AcDbEntity
  8
0
  6
CONTINUOUS
 62
       110
100
AcDbLine
 10
-248.926727
 20
-283.09964
 30
0.0
 11
-252.926727
 21
-283.09964
 31
0.0
  0
SOLID
  5
18B
100
AcDbEntity
  8
0
  6
CONTINUOUS
 62
       110
100
AcDbTrace
 10
-157.8817269702
 20
-283.266307005
 30
0.0
 11
-157.8817269702
 21
-282.932972995
 31
0.0
 12
-158.881727
 22
-283.09964
 32
0.0
 13
-158.881727
 23
-283.09964
 33
0.0
  0
SOLID
  5
18C
100
AcDbEntity
  8
0
  6
CONTINUOUS
 62
       110
100
AcDbTrace
 10
-249.9267270298
 20
-282.932972995
 30
0.0
 11
-249.9267270298
 21
-283.266307005
 31
0.0
 12
-248.926727
 22
-283.09964
 32
0.0
 13
-248.926727
 23
-283.09964
 33
0.0
  0
MTEXT
  5
18D
100
AcDbEntity
  8
0
  6
CONTINUOUS
 62
       110
100
AcDbMText
 10
-203.6042268474
 20
-280.4996399762
 30
0.0
 40
3.2000000477
 41
0.0
 71
         5
 72
         1
  1
\A1;90
 11
1.0
 21
0.0
 31
0.0
  0
POINT
  5
18E
100
AcDbEntity
  8
DEFPOINTS
  6
CONTINUOUS
 62
         0
100
AcDbPoint
 10
-158.881727
 20
-257.9129429938
 30
0.0
  0
POINT
  5
18F
100
AcDbEntity
  8
DEFPOINTS
  6
CONTINUOUS
 62
         0
100
AcDbPoint
 10
-248.926727
 20
-257.9129429938
 30
0.0
  0
POINT
  5
190
100
AcDbEntity
  8
DEFPOINTS
  6
CONTINUOUS
 62
         0
100
AcDbPoint
 10
-248.926727
 20
-283.09964
 30
0.0
  0
ENDBLK
  5
191
100
AcDbEntity
  8
0
  6
ByBlock
 62
         0
100
AcDbBlockEnd
  0
BLOCK
  5
194
100
AcDbEntity
  8
0
  6
ByBlock
 62
         0
100
AcDbBlockBegin
  2
*D6
 70
         1
 10
0.0
 20
0.0
 30
0.0
  3
*D6
  1

  0
LINE
  5
195
100
AcDbEntity
  8
0
  6
CONTINUOUS
 62
       110
100
AcDbLine
 10
-258.900168
 20
-257.912943
 30
0.0
 11
-258.900168
 21
-226.897444
 31
0.0
  0
LINE
  5
196
100
AcDbEntity
  8
0
  6
CONTINUOUS
 62
       110
100
AcDbLine
 10
-248.989226876
 20
-257.912943
 30
0.0
 11
-261.400168
 21
-257.912943
 31
0.0
  0
LINE
  5
197
100
AcDbEntity
  8
0
  6
CONTINUOUS
 62
       110
100
AcDbLine
 10
-248.989226876
 20
-226.897444
 30
0.0
 11
-261.400168
 21
-226.897444
 31
0.0
  0
LINE
  5
198
100
AcDbEntity
  8
0
  6
CONTINUOUS
 62
       110
100
AcDbLine
 10
-258.900168
 20
-257.912943
 30
0.0
 11
-258.900168
 21
-261.912943
 31
0.0
  0
LINE
  5
199
100
AcDbEntity
  8
0
  6
CONTINUOUS
 62
       110
100
AcDbLine
 10
-258.900168
 20
-226.897444
 30
0.0
 11
-258.900168
 21
-222.897444
 31
0.0
  0
SOLID
  5
19A
100
AcDbEntity
  8
0
  6
CONTINUOUS
 62
       110
100
AcDbTrace
 10
-259.066835005
 20
-258.9129430298
 30
0.0
 11
-258.733500995
 21
-258.9129430298
 31
0.0
 12
-258.900168
 22
-257.912943
 32
0.0
 13
-258.900168
 23
-257.912943
 33
0.0
  0
SOLID
  5
19B
100
AcDbEntity
  8
0
  6
CONTINUOUS
 62
       110
100
AcDbTrace
 10
-258.733500995
 20
-225.8974439702
 30
0.0
 11
-259.066835005
 21
-225.8974439702
 31
0.0
 12
-258.900168
 22
-226.897444
 32
0.0
 13
-258.900168
 23
-226.897444
 33
0.0
  0
MTEXT
  5
19D
100
AcDbEntity
  8
0
  6
CONTINUOUS
 62
       110
100
AcDbMText
 10
-261.5001680238
 20
-242.1051942054
 30
0.0
 40
3.2000000477
 41
0.0
 71
         5
 72
         1
  1
\A1;31
  7
MX_DIMTXSTY_3
 11
0.0
 21
1.0
 31
0.0
  0
POINT
  5
19E
100
AcDbEntity
  8
DEFPOINTS
  6
CONTINUOUS
 62
         0
100
AcDbPoint
 10
-248.926726876
 20
-257.912943
 30
0.0
  0
POINT
  5
19F
100
AcDbEntity
  8
DEFPOINTS
  6
CONTINUOUS
 62
         0
100
AcDbPoint
 10
-248.926726876
 20
-226.897444
 30
0.0
  0
POINT
  5
1A0
100
AcDbEntity
  8
DEFPOINTS
  6
CONTINUOUS
 62
         0
100
AcDbPoint
 10
-258.900168
 20
-226.897444
 30
0.0
  0
ENDBLK
  5
1A1
100
AcDbEntity
  8
0
  6
ByBlock
 62
         0
100
AcDbBlockEnd
  0
BLOCK
  5
1A4
100
AcDbEntity
  8
0
  6
ByBlock
 62
         0
100
AcDbBlockBegin
  2
*D7
 70
         1
 10
0.0
 20
0.0
 30
0.0
  3
*D7
  1

  0
LINE
  5
1A5
100
AcDbEntity
  8
0
  6
CONTINUOUS
 62
       110
100
AcDbLine
 10
-147.394947
 20
-257.912943
 30
0.0
 11
-147.394947
 21
-194.381193
 31
0.0
  0
LINE
  5
1A6
100
AcDbEntity
  8
0
  6
CONTINUOUS
 62
       110
100
AcDbLine
 10
-135.977727838
 20
-257.912943
 30
0.0
 11
-149.894947
 21
-257.912943
 31
0.0
  0
LINE
  5
1A7
100
AcDbEntity
  8
0
  6
CONTINUOUS
 62
       110
100
AcDbLine
 10
-113.9667281584
 20
-194.381193
 30
0.0
 11
-149.894947
 21
-194.381193
 31
0.0
  0
LINE
  5
1A8
100
AcDbEntity
  8
0
  6
CONTINUOUS
 62
       110
100
AcDbLine
 10
-147.394947
 20
-257.912943
 30
0.0
 11
-147.394947
 21
-261.912943
 31
0.0
  0
LINE
  5
1A9
100
AcDbEntity
  8
0
  6
CONTINUOUS
 62
       110
100
AcDbLine
 10
-147.394947
 20
-194.381193
 30
0.0
 11
-147.394947
 21
-190.381193
 31
0.0
  0
SOLID
  5
1AA
100
AcDbEntity
  8
0
  6
CONTINUOUS
 62
       110
100
AcDbTrace
 10
-147.561614005
 20
-258.9129430298
 30
0.0
 11
-147.228279995
 21
-258.9129430298
 31
0.0
 12
-147.394947
 22
-257.912943
 32
0.0
 13
-147.394947
 23
-257.912943
 33
0.0
  0
SOLID
  5
1AB
100
AcDbEntity
  8
0
  6
CONTINUOUS
 62
       110
100
AcDbTrace
 10
-147.228279995
 20
-193.3811929702
 30
0.0
 11
-147.561614005
 21
-193.3811929702
 31
0.0
 12
-147.394947
 22
-194.381193
 32
0.0
 13
-147.394947
 23
-194.381193
 33
0.0
  0
MTEXT
  5
1AC
100
AcDbEntity
  8
0
  6
CONTINUOUS
 62
       110
100
AcDbMText
 10
-149.9949470238
 20
-225.8470708076
 30
0.0
 40
3.2000000477
 41
0.0
 71
         5
 72
         1
  1
\A1;63.5
  7
MX_DIMTXSTY_3
 11
0.0
 21
1.0
 31
0.0
  0
POINT
  5
1AD
100
AcDbEntity
  8
DEFPOINTS
  6
CONTINUOUS
 62
         0
100
AcDbPoint
 10
-135.915227838
 20
-257.912943
 30
0.0
  0
POINT
  5
1AE
100
AcDbEntity
  8
DEFPOINTS
  6
CONTINUOUS
 62
         0
100
AcDbPoint
 10
-113.9042281584
 20
-194.381193
 30
0.0
  0
POINT
  5
1AF
100
AcDbEntity
  8
DEFPOINTS
  6
CONTINUOUS
 62
         0
100
AcDbPoint
 10
-147.394947
 20
-194.381193
 30
0.0
  0
ENDBLK
  5
1B0
100
AcDbEntity
  8
0
  6
ByBlock
 62
         0
100
AcDbBlockEnd
  0
BLOCK
  5
1B3
100
AcDbEntity
  8
0
  6
ByBlock
 62
         0
100
AcDbBlockBegin
  2
*D8
 70
         1
 10
0.0
 20
0.0
 30
0.0
  3
*D8
  1

  0
LINE
  5
1B4
100
AcDbEntity
  8
0
  6
CONTINUOUS
 62
       110
100
AcDbLine
 10
-52.8737275
 20
-177.654643
 30
0.0
 11
28.1667725
 21
-177.654643
 31
0.0
  0
LINE
  5
1B5
100
AcDbEntity
  8
0
  6
CONTINUOUS
 62
       110
100
AcDbLine
 10
-52.8737275
 20
-216.8299435981
 30
0.0
 11
-52.8737275
 21
-175.154643
 31
0.0
  0
LINE
  5
1B6
100
AcDbEntity
  8
0
  6
CONTINUOUS
 62
       110
100
AcDbLine
 10
28.1667725
 20
-194.3186940559
 30
0.0
 11
28.1667725
 21
-175.154643
 31
0.0
  0
LINE
  5
1B7
100
AcDbEntity
  8
0
  6
CONTINUOUS
 62
       110
100
AcDbLine
 10
-52.8737275
 20
-177.654643
 30
0.0
 11
-56.8737275
 21
-177.654643
 31
0.0
  0
LINE
  5
1B8
100
AcDbEntity
  8
0
  6
CONTINUOUS
 62
       110
100
AcDbLine
 10
28.1667725
 20
-177.654643
 30
0.0
 11
32.1667725
 21
-177.654643
 31
0.0
  0
SOLID
  5
1B9
100
AcDbEntity
  8
0
  6
CONTINUOUS
 62
       110
100
AcDbTrace
 10
-53.8737275298
 20
-177.487975995
 30
0.0
 11
-53.8737275298
 21
-177.821310005
 31
0.0
 12
-52.8737275
 22
-177.654643
 32
0.0
 13
-52.8737275
 23
-177.654643
 33
0.0
  0
SOLID
  5
1BA
100
AcDbEntity
  8
0
  6
CONTINUOUS
 62
       110
100
AcDbTrace
 10
29.1667725298
 20
-177.821310005
 30
0.0
 11
29.1667725298
 21
-177.487975995
 31
0.0
 12
28.1667725
 22
-177.654643
 32
0.0
 13
28.1667725
 23
-177.654643
 33
0.0
  0
MTEXT
  5
1BB
100
AcDbEntity
  8
0
  6
CONTINUOUS
 62
       110
100
AcDbMText
 10
-12.0534798499
 20
-175.0546429762
 30
0.0
 40
3.2000000477
 41
0.0
 71
         5
 72
         1
  1
\A1;81
  7
MX_DIMTXSTY_3
  0
POINT
  5
1BC
100
AcDbEntity
  8
DEFPOINTS
  6
CONTINUOUS
 62
         0
100
AcDbPoint
 10
-52.8737275
 20
-216.8924435981
 30
0.0
  0
POINT
  5
1BD
100
AcDbEntity
  8
DEFPOINTS
  6
CONTINUOUS
 62
         0
100
AcDbPoint
 10
28.1667725
 20
-194.3811940559
 30
0.0
  0
POINT
  5
1BE
100
AcDbEntity
  8
DEFPOINTS
  6
CONTINUOUS
 62
         0
100
AcDbPoint
 10
28.1667725
 20
-177.654643
 30
0.0
  0
ENDBLK
  5
1BF
100
AcDbEntity
  8
0
  6
ByBlock
 62
         0
100
AcDbBlockEnd
  0
BLOCK
  5
1C2
100
AcDbEntity
  8
0
  6
ByBlock
 62
         0
100
AcDbBlockBegin
  2
*D9
 70
         1
 10
0.0
 20
0.0
 30
0.0
  3
*D9
  1

  0
LINE
  5
1C3
100
AcDbEntity
  8
0
  6
CONTINUOUS
 62
       110
100
AcDbLine
 10
28.1667725
 20
-167.100345
 30
0.0
 11
36.1707725
 21
-167.100345
 31
0.0
  0
LINE
  5
1C4
100
AcDbEntity
  8
0
  6
CONTINUOUS
 62
       110
100
AcDbLine
 10
28.1667725
 20
-194.3186925494
 30
0.0
 11
28.1667725
 21
-164.600345
 31
0.0
  0
LINE
  5
1C5
100
AcDbEntity
  8
0
  6
CONTINUOUS
 62
       110
100
AcDbLine
 10
36.1707725
 20
-206.8249429309
 30
0.0
 11
36.1707725
 21
-164.600345
 31
0.0
  0
SOLID
  5
1C6
100
AcDbEntity
  8
0
  6
CONTINUOUS
 62
       110
100
AcDbTrace
 10
29.1667725298
 20
-167.267012005
 30
0.0
 11
29.1667725298
 21
-166.933677995
 31
0.0
 12
28.1667725
 22
-167.100345
 32
0.0
 13
28.1667725
 23
-167.100345
 33
0.0
  0
SOLID
  5
1C7
100
AcDbEntity
  8
0
  6
CONTINUOUS
 62
       110
100
AcDbTrace
 10
35.1707724702
 20
-166.933677995
 30
0.0
 11
35.1707724702
 21
-167.267012005
 31
0.0
 12
36.1707725
 22
-167.100345
 32
0.0
 13
36.1707725
 23
-167.100345
 33
0.0
  0
MTEXT
  5
1C8
100
AcDbEntity
  8
0
  6
CONTINUOUS
 62
       110
100
AcDbMText
 10
32.4687725458
 20
-164.5003449762
 30
0.0
 40
3.2000000477
 41
0.0
 71
         5
 72
         1
  1
\A1;8
  0
POINT
  5
1C9
100
AcDbEntity
  8
DEFPOINTS
  6
CONTINUOUS
 62
         0
100
AcDbPoint
 10
28.1667725
 20
-194.3811925494
 30
0.0
  0
POINT
  5
1CA
100
AcDbEntity
  8
DEFPOINTS
  6
CONTINUOUS
 62
         0
100
AcDbPoint
 10
36.1707725
 20
-206.8874429309
 30
0.0
  0
POINT
  5
1CB
100
AcDbEntity
  8
DEFPOINTS
  6
CONTINUOUS
 62
         0
100
AcDbPoint
 10
36.1707725
 20
-167.100345
 30
0.0
  0
ENDBLK
  5
1CC
100
AcDbEntity
  8
0
  6
ByBlock
 62
         0
100
AcDbBlockEnd
  0
BLOCK
  5
1CF
100
AcDbEntity
  8
0
  6
ByBlock
 62
         0
100
AcDbBlockBegin
  2
*D10
 70
         1
 10
0.0
 20
0.0
 30
0.0
  3
*D10
  1

  0
LINE
  5
1D0
100
AcDbEntity
  8
0
  6
CONTINUOUS
 62
       110
100
AcDbLine
 10
36.1707725
 20
-167.100345
 30
0.0
 11
86.1957725
 21
-167.100345
 31
0.0
  0
LINE
  5
1D1
100
AcDbEntity
  8
0
  6
CONTINUOUS
 62
       110
100
AcDbLine
 10
36.1707725
 20
-206.8249429309
 30
0.0
 11
36.1707725
 21
-164.600345
 31
0.0
  0
LINE
  5
1D2
100
AcDbEntity
  8
0
  6
CONTINUOUS
 62
       110
100
AcDbLine
 10
86.1957725
 20
-209.8264421069
 30
0.0
 11
86.1957725
 21
-164.600345
 31
0.0
  0
LINE
  5
1D3
100
AcDbEntity
  8
0
  6
CONTINUOUS
 62
       110
100
AcDbLine
 10
36.1707725
 20
-167.100345
 30
0.0
 11
32.1707725
 21
-167.100345
 31
0.0
  0
LINE
  5
1D4
100
AcDbEntity
  8
0
  6
CONTINUOUS
 62
       110
100
AcDbLine
 10
86.1957725
 20
-167.100345
 30
0.0
 11
90.1957725
 21
-167.100345
 31
0.0
  0
SOLID
  5
1D5
100
AcDbEntity
  8
0
  6
CONTINUOUS
 62
       110
100
AcDbTrace
 10
35.1707724702
 20
-166.933677995
 30
0.0
 11
35.1707724702
 21
-167.267012005
 31
0.0
 12
36.1707725
 22
-167.100345
 32
0.0
 13
36.1707725
 23
-167.100345
 33
0.0
  0
SOLID
  5
1D6
100
AcDbEntity
  8
0
  6
CONTINUOUS
 62
       110
100
AcDbTrace
 10
87.1957725298
 20
-167.267012005
 30
0.0
 11
87.1957725298
 21
-166.933677995
 31
0.0
 12
86.1957725
 22
-167.100345
 32
0.0
 13
86.1957725
 23
-167.100345
 33
0.0
  0
MTEXT
  5
1D7
100
AcDbEntity
  8
0
  6
CONTINUOUS
 62
       110
100
AcDbMText
 10
61.4832725
 20
-164.5003449762
 30
0.0
 40
3.2000000477
 41
0.0
 71
         5
 72
         1
  1
\A1;50
  0
POINT
  5
1D8
100
AcDbEntity
  8
DEFPOINTS
  6
CONTINUOUS
 62
         0
100
AcDbPoint
 10
36.1707725
 20
-206.8874429309
 30
0.0
  0
POINT
  5
1D9
100
AcDbEntity
  8
DEFPOINTS
  6
CONTINUOUS
 62
         0
100
AcDbPoint
 10
86.1957725
 20
-209.8889421069
 30
0.0
  0
POINT
  5
1DA
100
AcDbEntity
  8
DEFPOINTS
  6
CONTINUOUS
 62
         0
100
AcDbPoint
 10
86.1957725
 20
-167.100345
 30
0.0
  0
ENDBLK
  5
1DB
100
AcDbEntity
  8
0
  6
ByBlock
 62
         0
100
AcDbBlockEnd
  0
BLOCK
  5
1DE
100
AcDbEntity
  8
0
  6
ByBlock
 62
         0
100
AcDbBlockBegin
  2
*D11
 70
         1
 10
0.0
 20
0.0
 30
0.0
  3
*D11
  1

  0
LINE
  5
1DF
100
AcDbEntity
  8
0
  6
CONTINUOUS
 62
       110
100
AcDbLine
 10
86.1957725
 20
-167.100345
 30
0.0
 11
97.2012725
 21
-167.100345
 31
0.0
  0
LINE
  5
1E0
100
AcDbEntity
  8
0
  6
CONTINUOUS
 62
       110
100
AcDbLine
 10
86.1957725
 20
-209.8264421069
 30
0.0
 11
86.1957725
 21
-164.600345
 31
0.0
  0
LINE
  5
1E1
100
AcDbEntity
  8
0
  6
CONTINUOUS
 62
       110
100
AcDbLine
 10
97.2012725
 20
-221.8324426257
 30
0.0
 11
97.2012725
 21
-164.600345
 31
0.0
  0
LINE
  5
1E2
100
AcDbEntity
  8
0
  6
CONTINUOUS
 62
       110
100
AcDbLine
 10
86.1957725
 20
-167.100345
 30
0.0
 11
82.1957725
 21
-167.100345
 31
0.0
  0
LINE
  5
1E3
100
AcDbEntity
  8
0
  6
CONTINUOUS
 62
       110
100
AcDbLine
 10
97.2012725
 20
-167.100345
 30
0.0
 11
101.2012725
 21
-167.100345
 31
0.0
  0
SOLID
  5
1E4
100
AcDbEntity
  8
0
  6
CONTINUOUS
 62
       110
100
AcDbTrace
 10
85.1957724702
 20
-166.933677995
 30
0.0
 11
85.1957724702
 21
-167.267012005
 31
0.0
 12
86.1957725
 22
-167.100345
 32
0.0
 13
86.1957725
 23
-167.100345
 33
0.0
  0
SOLID
  5
1E5
100
AcDbEntity
  8
0
  6
CONTINUOUS
 62
       110
100
AcDbTrace
 10
98.2012725298
 20
-167.267012005
 30
0.0
 11
98.2012725298
 21
-166.933677995
 31
0.0
 12
97.2012725
 22
-167.100345
 32
0.0
 13
97.2012725
 23
-167.100345
 33
0.0
  0
MTEXT
  5
1E7
100
AcDbEntity
  8
0
  6
CONTINUOUS
 62
       110
100
AcDbMText
 10
91.9985226106
 20
-164.5003449762
 30
0.0
 40
3.2000000477
 41
0.0
 71
         5
 72
         1
  1
\A1;11
  7
MX_DIMTXSTY_4
  0
POINT
  5
1E8
100
AcDbEntity
  8
DEFPOINTS
  6
CONTINUOUS
 62
         0
100
AcDbPoint
 10
86.1957725
 20
-209.8889421069
 30
0.0
  0
POINT
  5
1E9
100
AcDbEntity
  8
DEFPOINTS
  6
CONTINUOUS
 62
         0
100
AcDbPoint
 10
97.2012725
 20
-221.8949426257
 30
0.0
  0
POINT
  5
1EA
100
AcDbEntity
  8
DEFPOINTS
  6
CONTINUOUS
 62
         0
100
AcDbPoint
 10
97.2012725
 20
-167.100345
 30
0.0
  0
ENDBLK
  5
1EB
100
AcDbEntity
  8
0
  6
ByBlock
 62
         0
100
AcDbBlockEnd
  0
BLOCK
  5
1EE
100
AcDbEntity
  8
0
  6
ByBlock
 62
         0
100
AcDbBlockBegin
  2
*D12
 70
         1
 10
0.0
 20
0.0
 30
0.0
  3
*D12
  1

  0
LINE
  5
1EF
100
AcDbEntity
  8
0
  6
CONTINUOUS
 62
       110
100
AcDbLine
 10
-113.904227
 20
-167.100345
 30
0.0
 11
28.1667725
 21
-167.100345
 31
0.0
  0
LINE
  5
1F0
100
AcDbEntity
  8
0
  6
CONTINUOUS
 62
       110
100
AcDbLine
 10
-113.904227
 20
-194.3186925494
 30
0.0
 11
-113.904227
 21
-164.600345
 31
0.0
  0
LINE
  5
1F1
100
AcDbEntity
  8
0
  6
CONTINUOUS
 62
       110
100
AcDbLine
 10
28.1667725
 20
-194.3186925494
 30
0.0
 11
28.1667725
 21
-164.600345
 31
0.0
  0
LINE
  5
1F2
100
AcDbEntity
  8
0
  6
CONTINUOUS
 62
       110
100
AcDbLine
 10
-113.904227
 20
-167.100345
 30
0.0
 11
-117.904227
 21
-167.100345
 31
0.0
  0
LINE
  5
1F3
100
AcDbEntity
  8
0
  6
CONTINUOUS
 62
       110
100
AcDbLine
 10
28.1667725
 20
-167.100345
 30
0.0
 11
32.1667725
 21
-167.100345
 31
0.0
  0
SOLID
  5
1F4
100
AcDbEntity
  8
0
  6
CONTINUOUS
 62
       110
100
AcDbTrace
 10
-114.9042270298
 20
-166.933677995
 30
0.0
 11
-114.9042270298
 21
-167.267012005
 31
0.0
 12
-113.904227
 22
-167.100345
 32
0.0
 13
-113.904227
 23
-167.100345
 33
0.0
  0
SOLID
  5
1F5
100
AcDbEntity
  8
0
  6
CONTINUOUS
 62
       110
100
AcDbTrace
 10
29.1667725298
 20
-167.267012005
 30
0.0
 11
29.1667725298
 21
-166.933677995
 31
0.0
 12
28.1667725
 22
-167.100345
 32
0.0
 13
28.1667725
 23
-167.100345
 33
0.0
  0
MTEXT
  5
1F6
100
AcDbEntity
  8
0
  6
CONTINUOUS
 62
       110
100
AcDbMText
 10
-42.5687243755
 20
-164.5003449762
 30
0.0
 40
3.2000000477
 41
0.0
 71
         5
 72
         1
  1
\A1;142
  7
MX_DIMTXSTY_2
  0
POINT
  5
1F7
100
AcDbEntity
  8
DEFPOINTS
  6
CONTINUOUS
 62
         0
100
AcDbPoint
 10
-113.904227
 20
-194.3811925494
 30
0.0
  0
POINT
  5
1F8
100
AcDbEntity
  8
DEFPOINTS
  6
CONTINUOUS
 62
         0
100
AcDbPoint
 10
28.1667725
 20
-194.3811925494
 30
0.0
  0
POINT
  5
1F9
100
AcDbEntity
  8
DEFPOINTS
  6
CONTINUOUS
 62
         0
100
AcDbPoint
 10
28.1667725
 20
-167.100345
 30
0.0
  0
ENDBLK
  5
1FA
100
AcDbEntity
  8
0
  6
ByBlock
 62
         0
100
AcDbBlockEnd
  0
BLOCK
  5
1FD
100
AcDbEntity
  8
0
  6
ByBlock
 62
         0
100
AcDbBlockBegin
  2
*D13
 70
         1
 10
0.0
 20
0.0
 30
0.0
  3
*D13
  1

  0
LINE
  5
1FE
100
AcDbEntity
  8
0
  6
CONTINUOUS
 62
       110
100
AcDbLine
 10
50.1777725
 20
-281.438575
 30
0.0
 11
28.1667725
 21
-281.438575
 31
0.0
  0
LINE
  5
1FF
100
AcDbEntity
  8
0
  6
CONTINUOUS
 62
       110
100
AcDbLine
 10
50.1777725
 20
-257.9754440491
 30
0.0
 11
50.1777725
 21
-283.938575
 31
0.0
  0
LINE
  5
200
100
AcDbEntity
  8
0
  6
CONTINUOUS
 62
       110
100
AcDbLine
 10
28.1667725
 20
-249.4711944763
 30
0.0
 11
28.1667725
 21
-283.938575
 31
0.0
  0
LINE
  5
201
100
AcDbEntity
  8
0
  6
CONTINUOUS
 62
       110
100
AcDbLine
 10
50.1777725
 20
-281.438575
 30
0.0
 11
54.1777725
 21
-281.438575
 31
0.0
  0
LINE
  5
202
100
AcDbEntity
  8
0
  6
CONTINUOUS
 62
       110
100
AcDbLine
 10
28.1667725
 20
-281.438575
 30
0.0
 11
24.1667725
 21
-281.438575
 31
0.0
  0
SOLID
  5
203
100
AcDbEntity
  8
0
  6
CONTINUOUS
 62
       110
100
AcDbTrace
 10
51.1777725298
 20
-281.605242005
 30
0.0
 11
51.1777725298
 21
-281.271907995
 31
0.0
 12
50.1777725
 22
-281.438575
 32
0.0
 13
50.1777725
 23
-281.438575
 33
0.0
  0
SOLID
  5
204
100
AcDbEntity
  8
0
  6
CONTINUOUS
 62
       110
100
AcDbTrace
 10
27.1667724702
 20
-281.271907995
 30
0.0
 11
27.1667724702
 21
-281.605242005
 31
0.0
 12
28.1667725
 22
-281.438575
 32
0.0
 13
28.1667725
 23
-281.438575
 33
0.0
  0
MTEXT
  5
205
100
AcDbEntity
  8
0
  6
CONTINUOUS
 62
       110
100
AcDbMText
 10
39.472272851
 20
-278.8385749762
 30
0.0
 40
3.2000000477
 41
0.0
 71
         5
 72
         1
  1
\A1;22
 11
1.0
 21
0.0
 31
0.0
  0
POINT
  5
206
100
AcDbEntity
  8
DEFPOINTS
  6
CONTINUOUS
 62
         0
100
AcDbPoint
 10
50.1777725
 20
-257.9129440491
 30
0.0
  0
POINT
  5
207
100
AcDbEntity
  8
DEFPOINTS
  6
CONTINUOUS
 62
         0
100
AcDbPoint
 10
28.1667725
 20
-249.4086944763
 30
0.0
  0
POINT
  5
208
100
AcDbEntity
  8
DEFPOINTS
  6
CONTINUOUS
 62
         0
100
AcDbPoint
 10
28.1667725
 20
-281.438575
 30
0.0
  0
ENDBLK
  5
209
100
AcDbEntity
  8
0
  6
ByBlock
 62
         0
100
AcDbBlockEnd
  0
BLOCK
  5
20C
100
AcDbEntity
  8
0
  6
ByBlock
 62
         0
100
AcDbBlockBegin
  2
*D14
 70
         1
 10
0.0
 20
0.0
 30
0.0
  3
*D14
  1

  0
LINE
  5
20D
100
AcDbEntity
  8
0
  6
CONTINUOUS
 62
       110
100
AcDbLine
 10
-113.904227
 20
-281.438575
 30
0.0
 11
-135.915227
 21
-281.438575
 31
0.0
  0
LINE
  5
20E
100
AcDbEntity
  8
0
  6
CONTINUOUS
 62
       110
100
AcDbLine
 10
-113.904227
 20
-249.4711944763
 30
0.0
 11
-113.904227
 21
-283.938575
 31
0.0
  0
LINE
  5
20F
100
AcDbEntity
  8
0
  6
CONTINUOUS
 62
       110
100
AcDbLine
 10
-135.915227
 20
-257.9754440491
 30
0.0
 11
-135.915227
 21
-283.938575
 31
0.0
  0
LINE
  5
210
100
AcDbEntity
  8
0
  6
CONTINUOUS
 62
       110
100
AcDbLine
 10
-113.904227
 20
-281.438575
 30
0.0
 11
-109.904227
 21
-281.438575
 31
0.0
  0
LINE
  5
211
100
AcDbEntity
  8
0
  6
CONTINUOUS
 62
       110
100
AcDbLine
 10
-135.915227
 20
-281.438575
 30
0.0
 11
-139.915227
 21
-281.438575
 31
0.0
  0
SOLID
  5
212
100
AcDbEntity
  8
0
  6
CONTINUOUS
 62
       110
100
AcDbTrace
 10
-112.9042269702
 20
-281.605242005
 30
0.0
 11
-112.9042269702
 21
-281.271907995
 31
0.0
 12
-113.904227
 22
-281.438575
 32
0.0
 13
-113.904227
 23
-281.438575
 33
0.0
  0
SOLID
  5
213
100
AcDbEntity
  8
0
  6
CONTINUOUS
 62
       110
100
AcDbTrace
 10
-136.9152270298
 20
-281.271907995
 30
0.0
 11
-136.9152270298
 21
-281.605242005
 31
0.0
 12
-135.915227
 22
-281.438575
 32
0.0
 13
-135.915227
 23
-281.438575
 33
0.0
  0
MTEXT
  5
214
100
AcDbEntity
  8
0
  6
CONTINUOUS
 62
       110
100
AcDbMText
 10
-124.609726649
 20
-278.8385749762
 30
0.0
 40
3.2000000477
 41
0.0
 71
         5
 72
         1
  1
\A1;22
 11
1.0
 21
0.0
 31
0.0
  0
POINT
  5
215
100
AcDbEntity
  8
DEFPOINTS
  6
CONTINUOUS
 62
         0
100
AcDbPoint
 10
-113.904227
 20
-249.4086944763
 30
0.0
  0
POINT
  5
216
100
AcDbEntity
  8
DEFPOINTS
  6
CONTINUOUS
 62
         0
100
AcDbPoint
 10
-135.915227
 20
-257.9129440491
 30
0.0
  0
POINT
  5
217
100
AcDbEntity
  8
DEFPOINTS
  6
CONTINUOUS
 62
         0
100
AcDbPoint
 10
-135.915227
 20
-281.438575
 30
0.0
  0
ENDBLK
  5
218
100
AcDbEntity
  8
0
  6
ByBlock
 62
         0
100
AcDbBlockEnd
  0
BLOCK
  5
21B
100
AcDbEntity
  8
0
  6
ByBlock
 62
         0
100
AcDbBlockBegin
  2
*D15
 70
         1
 10
0.0
 20
0.0
 30
0.0
  3
*D15
  1

  0
LINE
  5
21C
100
AcDbEntity
  8
0
  6
CONTINUOUS
 62
       110
100
AcDbLine
 10
201.107023
 20
-205.586054
 30
0.0
 11
311.162023
 21
-205.586054
 31
0.0
  0
LINE
  5
21D
100
AcDbEntity
  8
0
  6
CONTINUOUS
 62
       110
100
AcDbLine
 10
201.107023
 20
-218.8309432593
 30
0.0
 11
201.107023
 21
-203.086054
 31
0.0
  0
LINE
  5
21E
100
AcDbEntity
  8
0
  6
CONTINUOUS
 62
       110
100
AcDbLine
 10
311.162023
 20
-218.8309432593
 30
0.0
 11
311.162023
 21
-203.086054
 31
0.0
  0
LINE
  5
21F
100
AcDbEntity
  8
0
  6
CONTINUOUS
 62
       110
100
AcDbLine
 10
201.107023
 20
-205.586054
 30
0.0
 11
197.107023
 21
-205.586054
 31
0.0
  0
LINE
  5
220
100
AcDbEntity
  8
0
  6
CONTINUOUS
 62
       110
100
AcDbLine
 10
311.162023
 20
-205.586054
 30
0.0
 11
315.162023
 21
-205.586054
 31
0.0
  0
SOLID
  5
221
100
AcDbEntity
  8
0
  6
CONTINUOUS
 62
       110
100
AcDbTrace
 10
200.1070229702
 20
-205.419386995
 30
0.0
 11
200.1070229702
 21
-205.752721005
 31
0.0
 12
201.107023
 22
-205.586054
 32
0.0
 13
201.107023
 23
-205.586054
 33
0.0
  0
SOLID
  5
222
100
AcDbEntity
  8
0
  6
CONTINUOUS
 62
       110
100
AcDbTrace
 10
312.1620230298
 20
-205.752721005
 30
0.0
 11
312.1620230298
 21
-205.419386995
 31
0.0
 12
311.162023
 22
-205.586054
 32
0.0
 13
311.162023
 23
-205.586054
 33
0.0
  0
MTEXT
  5
224
100
AcDbEntity
  8
0
  6
CONTINUOUS
 62
       110
100
AcDbMText
 10
256.4345223896
 20
-202.9860539762
 30
0.0
 40
3.2000000477
 41
0.0
 71
         5
 72
         1
  1
\A1;110
  7
MX_DIMTXSTY_5
  0
POINT
  5
225
100
AcDbEntity
  8
DEFPOINTS
  6
CONTINUOUS
 62
         0
100
AcDbPoint
 10
201.107023
 20
-218.8934432593
 30
0.0
  0
POINT
  5
226
100
AcDbEntity
  8
DEFPOINTS
  6
CONTINUOUS
 62
         0
100
AcDbPoint
 10
311.162023
 20
-218.8934432593
 30
0.0
  0
POINT
  5
227
100
AcDbEntity
  8
DEFPOINTS
  6
CONTINUOUS
 62
         0
100
AcDbPoint
 10
311.162023
 20
-205.586054
 30
0.0
  0
ENDBLK
  5
228
100
AcDbEntity
  8
0
  6
ByBlock
 62
         0
100
AcDbBlockEnd
  0
BLOCK
  5
22B
100
AcDbEntity
  8
0
  6
ByBlock
 62
         0
100
AcDbBlockBegin
  2
*D16
 70
         1
 10
0.0
 20
0.0
 30
0.0
  3
*D16
  1

  0
LINE
  5
22C
100
AcDbEntity
  8
0
  6
CONTINUOUS
 62
       110
100
AcDbLine
 10
311.162023
 20
-268.020636
 30
0.0
 11
178.595773
 21
-268.020636
 31
0.0
  0
LINE
  5
22D
100
AcDbEntity
  8
0
  6
CONTINUOUS
 62
       110
100
AcDbLine
 10
311.162023
 20
-224.9589447158
 30
0.0
 11
311.162023
 21
-270.520636
 31
0.0
  0
LINE
  5
22E
100
AcDbEntity
  8
0
  6
CONTINUOUS
 62
       110
100
AcDbLine
 10
178.595773
 20
-267.1300179737
 30
0.0
 11
178.595773
 21
-270.520636
 31
0.0
  0
LINE
  5
22F
100
AcDbEntity
  8
0
  6
CONTINUOUS
 62
       110
100
AcDbLine
 10
311.162023
 20
-268.020636
 30
0.0
 11
315.162023
 21
-268.020636
 31
0.0
  0
LINE
  5
230
100
AcDbEntity
  8
0
  6
CONTINUOUS
 62
       110
100
AcDbLine
 10
178.595773
 20
-268.020636
 30
0.0
 11
174.595773
 21
-268.020636
 31
0.0
  0
SOLID
  5
231
100
AcDbEntity
  8
0
  6
CONTINUOUS
 62
       110
100
AcDbTrace
 10
312.1620230298
 20
-268.187303005
 30
0.0
 11
312.1620230298
 21
-267.853968995
 31
0.0
 12
311.162023
 22
-268.020636
 32
0.0
 13
311.162023
 23
-268.020636
 33
0.0
  0
SOLID
  5
232
100
AcDbEntity
  8
0
  6
CONTINUOUS
 62
       110
100
AcDbTrace
 10
177.5957729702
 20
-267.853968995
 30
0.0
 11
177.5957729702
 21
-268.187303005
 31
0.0
 12
178.595773
 22
-268.020636
 32
0.0
 13
178.595773
 23
-268.020636
 33
0.0
  0
MTEXT
  5
234
100
AcDbEntity
  8
0
  6
CONTINUOUS
 62
       110
100
AcDbMText
 10
245.1788992207
 20
-265.4206359762
 30
0.0
 40
3.2000000477
 41
0.0
 71
         5
 72
         1
  1
\A1;132.5
  7
MX_DIMTXSTY_6
 11
1.0
 21
0.0
 31
0.0
  0
POINT
  5
235
100
AcDbEntity
  8
DEFPOINTS
  6
CONTINUOUS
 62
         0
100
AcDbPoint
 10
311.162023
 20
-224.8964447158
 30
0.0
  0
POINT
  5
236
100
AcDbEntity
  8
DEFPOINTS
  6
CONTINUOUS
 62
         0
100
AcDbPoint
 10
178.595773
 20
-267.0675179737
 30
0.0
  0
POINT
  5
237
100
AcDbEntity
  8
DEFPOINTS
  6
CONTINUOUS
 62
         0
100
AcDbPoint
 10
178.595773
 20
-268.020636
 30
0.0
  0
ENDBLK
  5
238
100
AcDbEntity
  8
0
  6
ByBlock
 62
         0
100
AcDbBlockEnd
  0
BLOCK
  5
23B
100
AcDbEntity
  8
0
  6
ByBlock
 62
         0
100
AcDbBlockBegin
  2
*D17
 70
         1
 10
0.0
 20
0.0
 30
0.0
  3
*D17
  1

  0
LINE
  5
23C
100
AcDbEntity
  8
0
  6
CONTINUOUS
 62
       110
100
AcDbLine
 10
327.898097
 20
-218.893443
 30
0.0
 11
327.898097
 21
-224.896444
 31
0.0
  0
LINE
  5
23D
100
AcDbEntity
  8
0
  6
CONTINUOUS
 62
       110
100
AcDbLine
 10
311.2245225524
 20
-218.893443
 30
0.0
 11
330.398097
 21
-218.893443
 31
0.0
  0
LINE
  5
23E
100
AcDbEntity
  8
0
  6
CONTINUOUS
 62
       110
100
AcDbLine
 10
311.2245225524
 20
-224.896444
 30
0.0
 11
330.398097
 21
-224.896444
 31
0.0
  0
SOLID
  5
23F
100
AcDbEntity
  8
0
  6
CONTINUOUS
 62
       110
100
AcDbTrace
 10
327.731429995
 20
-219.8934430298
 30
0.0
 11
328.064764005
 21
-219.8934430298
 31
0.0
 12
327.898097
 22
-218.893443
 32
0.0
 13
327.898097
 23
-218.893443
 33
0.0
  0
SOLID
  5
240
100
AcDbEntity
  8
0
  6
CONTINUOUS
 62
       110
100
AcDbTrace
 10
328.064764005
 20
-223.8964439702
 30
0.0
 11
327.731429995
 21
-223.8964439702
 31
0.0
 12
327.898097
 22
-224.896444
 32
0.0
 13
327.898097
 23
-224.896444
 33
0.0
  0
MTEXT
  5
242
100
AcDbEntity
  8
0
  6
CONTINUOUS
 62
       110
100
AcDbMText
 10
325.2980969762
 20
-221.594942939
 30
0.0
 40
3.2000000477
 41
0.0
 71
         5
 72
         1
  1
\A1;\U+22056
  7
MX_DIMTXSTY_7
 11
0.0
 21
1.0
 31
0.0
  0
POINT
  5
243
100
AcDbEntity
  8
DEFPOINTS
  6
CONTINUOUS
 62
         0
100
AcDbPoint
 10
311.1620225524
 20
-218.893443
 30
0.0
  0
POINT
  5
244
100
AcDbEntity
  8
DEFPOINTS
  6
CONTINUOUS
 62
         0
100
AcDbPoint
 10
311.1620225524
 20
-224.896444
 30
0.0
  0
POINT
  5
245
100
AcDbEntity
  8
DEFPOINTS
  6
CONTINUOUS
 62
         0
100
AcDbPoint
 10
327.898097
 20
-224.896444
 30
0.0
  0
ENDBLK
  5
246
100
AcDbEntity
  8
0
  6
ByBlock
 62
         0
100
AcDbBlockEnd
  0
BLOCK
  5
249
100
AcDbEntity
  8
0
  6
ByBlock
 62
         0
100
AcDbBlockBegin
  2
*D18
 70
         1
 10
0.0
 20
0.0
 30
0.0
  3
*D18
  1

  0
LINE
  5
24A
100
AcDbEntity
  8
0
  6
CONTINUOUS
 62
       110
100
AcDbLine
 10
107.793545
 20
-209.888944
 30
0.0
 11
107.793545
 21
-233.900943
 31
0.0
  0
LINE
  5
24B
100
AcDbEntity
  8
0
  6
CONTINUOUS
 62
       110
100
AcDbLine
 10
94.7575209064
 20
-209.888944
 30
0.0
 11
110.293545
 21
-209.888944
 31
0.0
  0
LINE
  5
24C
100
AcDbEntity
  8
0
  6
CONTINUOUS
 62
       110
100
AcDbLine
 10
94.7575209064
 20
-233.900943
 30
0.0
 11
110.293545
 21
-233.900943
 31
0.0
  0
LINE
  5
24D
100
AcDbEntity
  8
0
  6
CONTINUOUS
 62
       110
100
AcDbLine
 10
107.793545
 20
-209.888944
 30
0.0
 11
107.793545
 21
-205.888944
 31
0.0
  0
LINE
  5
24E
100
AcDbEntity
  8
0
  6
CONTINUOUS
 62
       110
100
AcDbLine
 10
107.793545
 20
-233.900943
 30
0.0
 11
107.793545
 21
-237.900943
 31
0.0
  0
SOLID
  5
24F
100
AcDbEntity
  8
0
  6
CONTINUOUS
 62
       110
100
AcDbTrace
 10
107.960212005
 20
-208.8889439702
 30
0.0
 11
107.626877995
 21
-208.8889439702
 31
0.0
 12
107.793545
 22
-209.888944
 32
0.0
 13
107.793545
 23
-209.888944
 33
0.0
  0
SOLID
  5
250
100
AcDbEntity
  8
0
  6
CONTINUOUS
 62
       110
100
AcDbTrace
 10
107.626877995
 20
-234.9009430298
 30
0.0
 11
107.960212005
 21
-234.9009430298
 31
0.0
 12
107.793545
 22
-233.900943
 32
0.0
 13
107.793545
 23
-233.900943
 33
0.0
  0
MTEXT
  5
251
100
AcDbEntity
  8
0
  6
CONTINUOUS
 62
       110
100
AcDbMText
 10
105.1935449762
 20
-221.5949433744
 30
0.0
 40
3.2000000477
 41
0.0
 71
         5
 72
         1
  1
\A1;\U+220524
  7
MX_DIMTXSTY_7
 11
0.0
 21
1.0
 31
0.0
  0
POINT
  5
252
100
AcDbEntity
  8
DEFPOINTS
  6
CONTINUOUS
 62
         0
100
AcDbPoint
 10
94.6950209064
 20
-209.888944
 30
0.0
  0
POINT
  5
253
100
AcDbEntity
  8
DEFPOINTS
  6
CONTINUOUS
 62
         0
100
AcDbPoint
 10
94.6950209064
 20
-233.900943
 30
0.0
  0
POINT
  5
254
100
AcDbEntity
  8
DEFPOINTS
  6
CONTINUOUS
 62
         0
100
AcDbPoint
 10
107.793545
 20
-233.900943
 30
0.0
  0
ENDBLK
  5
255
100
AcDbEntity
  8
0
  6
ByBlock
 62
         0
100
AcDbBlockEnd
  0
ENDSEC
  0
SECTION
  2
ENTITIES
  0
MTEXT
  5
29
100
AcDbEntity
  8
0
  6
CONTINUOUS
 62
       110
100
AcDbMText
 10
-88.2033085583
 20
-14.6083129395
 30
0.0
 40
3.2016000748
 41
0.0
 71
         1
 72
         1
  1
\T1.025;\W1.058;\A1;TSUBAKI
  0
INSERT
  5
2A
100
AcDbEntity
  8
PV
  6
ByBlock
100
AcDbBlockReference
  2
ARROW
 10
-121.654324
 20
-94.4749354
 30
0.0
 50
53.7296608
  0
INSERT
  5
2B
100
AcDbEntity
  8
PV
  6
ByBlock
100
AcDbBlockReference
  2
ARROW
 10
-128.165131
 20
-103.347952
 30
0.0
 50
233.729634
  0
MTEXT
  5
2C
100
AcDbEntity
  8
PV
  6
CONTINUOUS
 62
       110
100
AcDbMText
 10
-88.4441436074
 20
-25.2136130466
 30
0.0
 40
4.001999855
 41
0.0
 71
         1
 72
         1
  1
\W1.102;\A1;DP002A050+(DP002L)
  0
MTEXT
  5
2D
100
AcDbEntity
  8
PV
  6
CONTINUOUS
 62
       110
100
AcDbMText
 10
-88.2198434949
 20
-19.6108129395
 30
0.0
 40
3.2016000748
 41
0.0
 71
         1
 72
         1
  1
\T1.017;\W1.071;\A1;SHOCK DAMPER
  0
CIRCLE
  5
2E
100
AcDbEntity
  8
PV
  6
CONTINUOUS
 62
         3
100
AcDbCircle
 10
8.15677251
 20
-66.8954435
 30
0.0
 40
1.50075
  0
CIRCLE
  5
2F
100
AcDbEntity
  8
PV
  6
CONTINUOUS
 62
         3
100
AcDbCircle
 10
39.1722725
 20
-98.9114435
 30
0.0
 40
5.50275
  0
CIRCLE
  5
30
100
AcDbEntity
  8
PV
  6
CONTINUOUS
 62
         3
100
AcDbCircle
 10
39.1722725
 20
-34.8794435
 30
0.0
 40
5.50275
  0
CIRCLE
  5
31
100
AcDbEntity
  8
PV
  6
CONTINUOUS
 62
         3
100
AcDbCircle
 10
-124.909727
 20
-98.9114435
 30
0.0
 40
5.50275
  0
CIRCLE
  5
32
100
AcDbEntity
  8
PV
  6
CONTINUOUS
 62
         3
100
AcDbCircle
 10
-124.909727
 20
-34.8794435
 30
0.0
 40
5.50275
  0
CIRCLE
  5
33
100
AcDbEntity
  8
PV
  6
CONTINUOUS
 62
         3
100
AcDbCircle
 10
-52.8737275
 20
-66.8954435
 30
0.0
 40
3.0015
  0
ARC
  5
34
100
AcDbEntity
  8
PV
  6
CONTINUOUS
 62
         3
100
AcDbCircle
 10
67.1862725
 20
-66.8954435
 30
0.0
 40
30.015
100
AcDbArc
 50
336.422
 51
23.578
  0
LINE
  5
35
100
AcDbEntity
  8
PV
  6
CONTINUOUS
 62
         3
100
AcDbLine
 10
28.1667725
 20
-81.9029435
 30
0.0
 11
36.1707725
 21
-81.9029435
 31
0.0
  0
LINE
  5
36
100
AcDbEntity
  8
PV
  6
CONTINUOUS
 62
         3
100
AcDbLine
 10
50.1777725
 20
-72.4982435
 30
0.0
 11
50.1777725
 21
-111.917944
 31
0.0
  0
LINE
  5
37
100
AcDbEntity
  8
PV
  6
CONTINUOUS
 62
         3
100
AcDbLine
 10
36.1707725
 20
-52.217108
 30
0.0
 11
50.1777725
 21
-52.217108
 31
0.0
  0
LINE
  5
38
100
AcDbEntity
  8
PV
  6
CONTINUOUS
 62
         3
100
AcDbLine
 10
36.1707725
 20
-81.573779
 30
0.0
 11
50.1777725
 21
-81.573779
 31
0.0
  0
LINE
  5
3A
100
AcDbEntity
  8
PV
  6
CENTER
 62
         3
100
AcDbLine
 10
39.1722725
 20
-47.4477245
 30
0.0
 11
39.1722725
 21
-11.1175685
 31
0.0
  0
LINE
  5
3B
100
AcDbEntity
  8
PV
  6
CENTER
 62
         3
100
AcDbLine
 10
20.7730775
 20
-98.9114435
 30
0.0
 11
55.649507
 21
-98.9114435
 31
0.0
  0
LINE
  5
3C
100
AcDbEntity
  8
PV
  6
CENTER
 62
         3
100
AcDbLine
 10
16.77608
 20
-34.8794435
 30
0.0
 11
58.554959
 21
-34.8794435
 31
0.0
  0
LINE
  5
3D
100
AcDbEntity
  8
PV
  6
CONTINUOUS
 62
         3
100
AcDbLine
 10
28.1667725
 20
-111.917944
 30
0.0
 11
50.1777725
 21
-111.917944
 31
0.0
  0
LINE
  5
3E
100
AcDbEntity
  8
PV
  6
CONTINUOUS
 62
         3
100
AcDbLine
 10
28.1667725
 20
-21.8729435
 30
0.0
 11
50.1777725
 21
-21.8729435
 31
0.0
  0
LINE
  5
3F
100
AcDbEntity
  8
PV
  6
CENTER
 62
         3
100
AcDbLine
 10
39.1722725
 20
-119.016491
 30
0.0
 11
39.1722725
 21
-83.77688
 31
0.0
  0
LINE
  5
40
100
AcDbEntity
  8
PV
  6
CONTINUOUS
 62
         3
100
AcDbLine
 10
28.1667725
 20
-21.8729435
 30
0.0
 11
28.1667725
 21
-111.917944
 31
0.0
  0
LINE
  5
41
100
AcDbEntity
  8
PV
  6
CONTINUOUS
 62
         3
100
AcDbLine
 10
50.1777725
 20
-21.8729435
 30
0.0
 11
50.1777725
 21
-61.2926435
 31
0.0
  0
LINE
  5
42
100
AcDbEntity
  8
PV
  6
CONTINUOUS
 62
         3
100
AcDbLine
 10
-135.915227
 20
-52.217108
 30
0.0
 11
-113.904227
 21
-52.217108
 31
0.0
  0
LINE
  5
43
100
AcDbEntity
  8
PV
  6
CONTINUOUS
 62
         3
100
AcDbLine
 10
-135.915227
 20
-81.573779
 30
0.0
 11
-113.904227
 21
-81.573779
 31
0.0
  0
LINE
  5
44
100
AcDbEntity
  8
PV
  6
CENTER
 62
         3
100
AcDbLine
 10
-124.909727
 20
-47.4477245
 30
0.0
 11
-124.909727
 21
-11.1175685
 31
0.0
  0
LINE
  5
45
100
AcDbEntity
  8
PV
  6
CENTER
 62
         3
100
AcDbLine
 10
-143.308922
 20
-98.9114435
 30
0.0
 11
-108.432493
 21
-98.9114435
 31
0.0
  0
LINE
  5
46
100
AcDbEntity
  8
PV
  6
CENTER
 62
         3
100
AcDbLine
 10
-147.304919
 20
-34.8794435
 30
0.0
 11
-105.52604
 21
-34.8794435
 31
0.0
  0
LINE
  5
47
100
AcDbEntity
  8
PV
  6
CONTINUOUS
 62
         3
100
AcDbLine
 10
-135.915227
 20
-111.917944
 30
0.0
 11
-113.904227
 21
-111.917944
 31
0.0
  0
LINE
  5
48
100
AcDbEntity
  8
PV
  6
CONTINUOUS
 62
         3
100
AcDbLine
 10
-135.915227
 20
-21.8729435
 30
0.0
 11
-113.904227
 21
-21.8729435
 31
0.0
  0
LINE
  5
49
100
AcDbEntity
  8
PV
  6
CENTER
 62
         3
100
AcDbLine
 10
-124.909727
 20
-119.016491
 30
0.0
 11
-124.909727
 21
-83.77688
 31
0.0
  0
LINE
  5
4A
100
AcDbEntity
  8
PV
  6
CONTINUOUS
 62
         3
100
AcDbLine
 10
-135.915227
 20
-21.8729435
 30
0.0
 11
-135.915227
 21
-111.917944
 31
0.0
  0
LINE
  5
4B
100
AcDbEntity
  8
PV
  6
CONTINUOUS
 62
         3
100
AcDbLine
 10
-113.904227
 20
-21.8729435
 30
0.0
 11
-113.904227
 21
-111.917944
 31
0.0
  0
LINE
  5
4C
100
AcDbEntity
  8
PV
  6
CONTINUOUS
 62
         3
100
AcDbLine
 10
4.15477251
 20
-93.4086935
 30
0.0
 11
5.02120551
 21
-93.9089435
 31
0.0
  0
LINE
  5
4D
100
AcDbEntity
  8
PV
  6
CONTINUOUS
 62
         3
100
AcDbLine
 10
-6.85072749
 20
-93.4086935
 30
0.0
 11
-7.71716049
 21
-93.9089435
 31
0.0
  0
LINE
  5
4E
100
AcDbEntity
  8
PV
  6
CONTINUOUS
 62
         3
100
AcDbLine
 10
5.02120551
 20
-93.9089435
 30
0.0
 11
6.15577251
 21
-93.9089435
 31
0.0
  0
LINE
  5
4F
100
AcDbEntity
  8
PV
  6
CONTINUOUS
 62
         3
100
AcDbLine
 10
-6.85072749
 20
-93.4086935
 30
0.0
 11
4.15477251
 21
-93.4086935
 31
0.0
  0
LINE
  5
50
100
AcDbEntity
  8
PV
  6
CONTINUOUS
 62
         3
100
AcDbLine
 10
-45.8702275
 20
-93.9089435
 30
0.0
 11
-7.71716049
 21
-93.9089435
 31
0.0
  0
LINE
  5
51
100
AcDbEntity
  8
PV
  6
CONTINUOUS
 62
         3
100
AcDbLine
 10
4.15477251
 20
-40.3821935
 30
0.0
 11
5.02120551
 21
-39.8819435
 31
0.0
  0
LINE
  5
52
100
AcDbEntity
  8
PV
  6
CONTINUOUS
 62
         3
100
AcDbLine
 10
-6.85072749
 20
-40.3821935
 30
0.0
 11
-7.71716049
 21
-39.8819435
 31
0.0
  0
LINE
  5
53
100
AcDbEntity
  8
PV
  6
CONTINUOUS
 62
         3
100
AcDbLine
 10
-6.85072749
 20
-40.3821935
 30
0.0
 11
-6.85072749
 21
-93.4086935
 31
0.0
  0
LINE
  5
54
100
AcDbEntity
  8
PV
  6
CONTINUOUS
 62
         3
100
AcDbLine
 10
4.15477251
 20
-40.3821935
 30
0.0
 11
4.15477251
 21
-93.4086935
 31
0.0
  0
LINE
  5
55
100
AcDbEntity
  8
PV
  6
CONTINUOUS
 62
         3
100
AcDbLine
 10
6.15577251
 20
-39.3816935
 30
0.0
 11
6.15577251
 21
-94.4091935
 31
0.0
  0
LINE
  5
56
100
AcDbEntity
  8
PV
  6
CENTER
 62
         3
100
AcDbLine
 10
-52.8737275
 20
-61.8929435
 30
0.0
 11
-52.8737275
 21
-71.8979435
 31
0.0
  0
LINE
  5
57
100
AcDbEntity
  8
PV
  6
CONTINUOUS
 62
         3
100
AcDbLine
 10
36.1707725
 20
-51.8879435
 30
0.0
 11
36.1707725
 21
-81.9029435
 31
0.0
  0
LINE
  5
58
100
AcDbEntity
  8
PV
  6
CONTINUOUS
 62
         3
100
AcDbLine
 10
36.1707725
 20
-72.4982435
 30
0.0
 11
86.1957725
 21
-72.4982435
 31
0.0
  0
LINE
  5
59
100
AcDbEntity
  8
PV
  6
CONTINUOUS
 62
         3
100
AcDbLine
 10
36.1707725
 20
-61.2926435
 30
0.0
 11
86.1957725
 21
-61.2926435
 31
0.0
  0
LINE
  5
5A
100
AcDbEntity
  8
PV
  6
CONTINUOUS
 62
         3
100
AcDbLine
 10
28.1667725
 20
-39.3816935
 30
0.0
 11
28.1667725
 21
-94.4091935
 31
0.0
  0
LINE
  5
5B
100
AcDbEntity
  8
PV
  6
CENTER
 62
         3
100
AcDbLine
 10
8.15677251
 20
-62.0490215
 30
0.0
 11
8.15677251
 21
-69.577784
 31
0.0
  0
LINE
  5
5C
100
AcDbEntity
  8
PV
  6
CONTINUOUS
 62
         3
100
AcDbLine
 10
6.15577251
 20
-94.4091935
 30
0.0
 11
28.1667725
 21
-94.4091935
 31
0.0
  0
LINE
  5
5D
100
AcDbEntity
  8
PV
  6
CONTINUOUS
 62
         3
100
AcDbLine
 10
94.69502
 20
-54.8894435
 30
0.0
 11
94.69502
 21
-78.9014435
 31
0.0
  0
LINE
  5
5E
100
AcDbEntity
  8
PV
  6
CONTINUOUS
 62
         3
100
AcDbLine
 10
5.02120551
 20
-39.8819435
 30
0.0
 11
6.15577251
 21
-39.8819435
 31
0.0
  0
LINE
  5
5F
100
AcDbEntity
  8
PV
  6
CONTINUOUS
 62
         3
100
AcDbLine
 10
-6.85072749
 20
-40.3821935
 30
0.0
 11
4.15477251
 21
-40.3821935
 31
0.0
  0
LINE
  5
60
100
AcDbEntity
  8
PV
  6
CONTINUOUS
 62
         3
100
AcDbLine
 10
-59.8772275
 20
-39.6318185
 30
0.0
 11
-45.8702275
 21
-39.6318185
 31
0.0
  0
LINE
  5
61
100
AcDbEntity
  8
PV
  6
CONTINUOUS
 62
         3
100
AcDbLine
 10
-59.8772275
 20
-94.1590685
 30
0.0
 11
-45.8702275
 21
-94.1590685
 31
0.0
  0
LINE
  5
62
100
AcDbEntity
  8
PV
  6
CONTINUOUS
 62
         3
100
AcDbLine
 10
-45.8702275
 20
-39.8819435
 30
0.0
 11
-7.71716049
 21
-39.8819435
 31
0.0
  0
LINE
  5
63
100
AcDbEntity
  8
PV
  6
CONTINUOUS
 62
         3
100
AcDbLine
 10
-59.8772275
 20
-39.6318185
 30
0.0
 11
-59.8772275
 21
-94.1590685
 31
0.0
  0
LINE
  5
64
100
AcDbEntity
  8
PV
  6
CONTINUOUS
 62
         3
100
AcDbLine
 10
-45.8702275
 20
-39.6318185
 30
0.0
 11
-45.8702275
 21
-94.1590685
 31
0.0
  0
LINE
  5
65
100
AcDbEntity
  8
PV
  6
CONTINUOUS
 62
         3
100
AcDbLine
 10
-94.8947275
 20
-93.9089435
 30
0.0
 11
-59.8772275
 21
-93.9089435
 31
0.0
  0
LINE
  5
66
100
AcDbEntity
  8
PV
  6
CONTINUOUS
 62
         3
100
AcDbLine
 10
-94.8947275
 20
-39.8819435
 30
0.0
 11
-59.8772275
 21
-39.8819435
 31
0.0
  0
LINE
  5
67
100
AcDbEntity
  8
PV
  6
CONTINUOUS
 62
         3
100
AcDbLine
 10
6.15577251
 20
-39.3816935
 30
0.0
 11
28.1667725
 21
-39.3816935
 31
0.0
  0
LINE
  5
68
100
AcDbEntity
  8
PV
  6
CONTINUOUS
 62
         3
100
AcDbLine
 10
28.1667725
 20
-51.8879435
 30
0.0
 11
36.1707725
 21
-51.8879435
 31
0.0
  0
LINE
  5
69
100
AcDbEntity
  8
PV
  6
CONTINUOUS
 62
         3
100
AcDbLine
 10
86.1957725
 20
-54.8894435
 30
0.0
 11
94.69502
 21
-54.8894435
 31
0.0
  0
LINE
  5
6A
100
AcDbEntity
  8
PV
  6
CONTINUOUS
 62
         3
100
AcDbLine
 10
86.1957725
 20
-78.9014435
 30
0.0
 11
94.69502
 21
-78.9014435
 31
0.0
  0
LINE
  5
6B
100
AcDbEntity
  8
PV
  6
CONTINUOUS
 62
         3
100
AcDbLine
 10
86.1957725
 20
-54.8894435
 30
0.0
 11
86.1957725
 21
-78.9014435
 31
0.0
  0
LINE
  5
6C
100
AcDbEntity
  8
PV
  6
CONTINUOUS
 62
         3
100
AcDbLine
 10
-94.8947275
 20
-39.3816935
 30
0.0
 11
-94.8947275
 21
-94.4091935
 31
0.0
  0
LINE
  5
6D
100
AcDbEntity
  8
PV
  6
CONTINUOUS
 62
         3
100
AcDbLine
 10
-113.904227
 20
-94.4091935
 30
0.0
 11
-94.8947275
 21
-94.4091935
 31
0.0
  0
LINE
  5
6E
100
AcDbEntity
  8
PV
  6
CONTINUOUS
 62
         3
100
AcDbLine
 10
-113.904227
 20
-39.3816935
 30
0.0
 11
-94.8947275
 21
-39.3816935
 31
0.0
  0
LINE
  5
6F
100
AcDbEntity
  8
PV
  6
CENTER
 62
         3
100
AcDbLine
 10
-140.405471
 20
-66.8954435
 30
0.0
 11
104.476909
 21
-66.8954435
 31
0.0
  0
MTEXT
  5
70
100
AcDbEntity
  8
PV
  6
CONTINUOUS
 62
       110
100
AcDbMText
 10
77.4388092079
 20
7.0
 30
0.0
 40
4.0
 41
0.0
 71
         1
 72
         1
  1
\W1.286;\A1;2.5
  0
MTEXT
  5
71
100
AcDbEntity
  8
PV
  6
CONTINUOUS
 62
       110
100
AcDbMText
 10
67.4959520339
 20
17.0
 30
0.0
 40
4.0
 41
0.0
 71
         1
 72
         1
  1
\W1.371;\A1;99\{10.1\}
  0
MTEXT
  5
72
100
AcDbEntity
  8
PV
  6
CONTINUOUS
 62
       110
100
AcDbMText
 10
65.4388092042
 20
27.0
 30
0.0
 40
4.0
 41
0.0
 71
         1
 72
         1
  1
\W1.286;\A1;42.2\{4.3\}
  0
MTEXT
  5
73
100
AcDbEntity
  8
PV
  6
CONTINUOUS
 62
       110
100
AcDbMText
 10
65.3476238412
 20
37.0
 30
0.0
 40
4.0
 41
0.0
 71
         1
 72
         1
  1
\W1.149;\A1;3920\{400\}
  0
MTEXT
  5
74
100
AcDbEntity
  8
PV
  6
CONTINUOUS
 62
       110
100
AcDbMText
 10
79.3089391437
 20
47.0
 30
0.0
 40
4.0
 41
0.0
 71
         1
 72
         1
  1
\W1.091;\A1;20
  0
MTEXT
  5
75
100
AcDbEntity
  8
PV
  6
CONTINUOUS
 62
       110
100
AcDbMText
 10
65.3316663991
 20
57.0
 30
0.0
 40
4.0
 41
0.0
 71
         1
 72
         1
  1
\W1.125;\A1;2450\{250\}
  0
MTEXT
  5
76
100
AcDbEntity
  8
PV
  6
CONTINUOUS
 62
       110
100
AcDbMText
 10
79.3089391437
 20
67.0
 30
0.0
 40
4.0
 41
0.0
 71
         1
 72
         1
  1
\W1.091;\A1;50
  0
MTEXT
  5
77
100
AcDbEntity
  8
PV
  6
CONTINUOUS
 62
       110
100
AcDbMText
 10
73.2483330784
 20
77.0
 30
0.0
 40
4.0
 41
0.0
 71
         1
 72
         1
  1
\W0.833;\A1;０～０．５
  0
MTEXT
  5
78
100
AcDbEntity
  8
PV
  6
CONTINUOUS
 62
       110
100
AcDbMText
 10
69.3816663728
 20
87.0
 30
0.0
 40
4.0
 41
0.0
 71
         1
 72
         1
  1
\W1.200;\A1;196\{20\}
  0
MTEXT
  5
79
100
AcDbEntity
  8
PV
  6
CONTINUOUS
 62
       110
100
AcDbMText
 10
69.2483330784
 20
97.0
 30
0.0
 40
4.0
 41
0.0
 71
         1
 72
         1
  1
\W0.833;\A1;６０～６０００
  0
MTEXT
  5
7A
100
AcDbEntity
  8
PV
  6
CONTINUOUS
 62
       110
100
AcDbMText
 10
57.284369126
 20
107.0
 30
0.0
 40
4.0
 41
0.0
 71
         1
 72
         1
  1
\W1.054;\A1;DP002A050L-TE
  0
MTEXT
  5
7B
100
AcDbEntity
  8
PV
  6
CONTINUOUS
 62
       110
100
AcDbMText
 10
2.4388092079
 20
7.0
 30
0.0
 40
4.0
 41
0.0
 71
         1
 72
         1
  1
\W1.286;\A1;2.5
  0
MTEXT
  5
7C
100
AcDbEntity
  8
PV
  6
CONTINUOUS
 62
       110
100
AcDbMText
 10
-7.5040479561
 20
17.0
 30
0.0
 40
4.0
 41
0.0
 71
         1
 72
         1
  1
\W1.371;\A1;99\{10.1\}
  0
MTEXT
  5
7D
100
AcDbEntity
  8
PV
  6
CONTINUOUS
 62
       110
100
AcDbMText
 10
-9.5611907658
 20
27.0
 30
0.0
 40
4.0
 41
0.0
 71
         1
 72
         1
  1
\W1.286;\A1;42.2\{4.3\}
  0
MTEXT
  5
7E
100
AcDbEntity
  8
PV
  6
CONTINUOUS
 62
       110
100
AcDbMText
 10
-9.6523761288
 20
37.0
 30
0.0
 40
4.0
 41
0.0
 71
         1
 72
         1
  1
\W1.149;\A1;3920\{400\}
  0
MTEXT
  5
7F
100
AcDbEntity
  8
PV
  6
CONTINUOUS
 62
       110
100
AcDbMText
 10
4.3089391537
 20
47.0
 30
0.0
 40
4.0
 41
0.0
 71
         1
 72
         1
  1
\W1.091;\A1;20
  0
MTEXT
  5
80
100
AcDbEntity
  8
PV
  6
CONTINUOUS
 62
       110
100
AcDbMText
 10
-9.6683335709
 20
57.0
 30
0.0
 40
4.0
 41
0.0
 71
         1
 72
         1
  1
\W1.125;\A1;2450\{250\}
  0
MTEXT
  5
81
100
AcDbEntity
  8
PV
  6
CONTINUOUS
 62
       110
100
AcDbMText
 10
4.3089391537
 20
67.0
 30
0.0
 40
4.0
 41
0.0
 71
         1
 72
         1
  1
\W1.091;\A1;50
  0
MTEXT
  5
82
100
AcDbEntity
  8
PV
  6
CONTINUOUS
 62
       110
100
AcDbMText
 10
-5.7516669116
 20
77.0
 30
0.0
 40
4.0
 41
0.0
 71
         1
 72
         1
  1
\W0.833;\A1;０．１～２．５
  0
MTEXT
  5
83
100
AcDbEntity
  8
PV
  6
CONTINUOUS
 62
       110
100
AcDbMText
 10
-5.6183336172
 20
87.0
 30
0.0
 40
4.0
 41
0.0
 71
         1
 72
         1
  1
\W1.200;\A1;196\{20\}
  0
MTEXT
  5
84
100
AcDbEntity
  8
PV
  6
CONTINUOUS
 62
       110
100
AcDbMText
 10
-5.7516669116
 20
97.0
 30
0.0
 40
4.0
 41
0.0
 71
         1
 72
         1
  1
\W0.833;\A1;２０～２０００
  0
MTEXT
  5
85
100
AcDbEntity
  8
PV
  6
CONTINUOUS
 62
       110
100
AcDbMText
 10
-11.7040478657
 20
107.0
 30
0.0
 40
4.0
 41
0.0
 71
         1
 72
         1
  1
\W1.071;\A1;DP002A050L
  0
MTEXT
  5
86
100
AcDbEntity
  8
PV
  6
CONTINUOUS
 62
       110
100
AcDbMText
 10
-84.2666669216
 20
17.0
 30
0.0
 40
4.0
 41
0.0
 71
         1
 72
         1
  1
\W0.833;\A1;ロッド収縮時
  0
MTEXT
  5
87
100
AcDbEntity
  8
PV
  6
CONTINUOUS
 62
       110
100
AcDbMText
 10
-84.2666669216
 20
27.0
 30
0.0
 40
4.0
 41
0.0
 71
         1
 72
         1
  1
\W0.833;\A1;ロッド伸張時
  0
MTEXT
  5
88
100
AcDbEntity
  8
PV
  6
CONTINUOUS
 62
       110
100
AcDbMText
 10
-55.1833336065
 20
17.0
 30
0.0
 40
4.0
 41
0.0
 71
         1
 72
         1
  1
\W1.125;\A1;N\{kgf\}
  0
MTEXT
  5
89
100
AcDbEntity
  8
PV
  6
CONTINUOUS
 62
       110
100
AcDbMText
 10
-59.2666666213
 20
7.0
 30
0.0
 40
4.0
 41
0.0
 71
         1
 72
         1
  1
\A1;kg
  0
MTEXT
  5
8A
100
AcDbEntity
  8
PV
  6
CONTINUOUS
 62
       110
100
AcDbMText
 10
-117.2666670216
 20
7.0
 30
0.0
 40
4.0
 41
0.0
 71
         1
 72
         1
  1
\W0.833;\A1;製品質量
  0
MTEXT
  5
8B
100
AcDbEntity
  8
PV
  6
CONTINUOUS
 62
       110
100
AcDbMText
 10
-55.1833336065
 20
27.0
 30
0.0
 40
4.0
 41
0.0
 71
         1
 72
         1
  1
\W1.125;\A1;N\{kgf\}
  0
MTEXT
  5
8C
100
AcDbEntity
  8
PV
  6
CONTINUOUS
 62
       110
100
AcDbMText
 10
-55.1833336065
 20
37.0
 30
0.0
 40
4.0
 41
0.0
 71
         1
 72
         1
  1
\W1.125;\A1;N\{kgf\}
  0
MTEXT
  5
8D
100
AcDbEntity
  8
PV
  6
CONTINUOUS
 62
       110
100
AcDbMText
 10
-35.5666667667
 20
47.5
 30
0.0
 40
2.0
 41
0.0
 71
         1
 72
         1
  1
\W1.200;\A1;-1
  0
MTEXT
  5
8E
100
AcDbEntity
  8
PV
  6
CONTINUOUS
 62
       110
100
AcDbMText
 10
-46.8044272242
 20
47.0
 30
0.0
 40
4.0
 41
0.0
 71
         1
 72
         1
  1
\T1.134;\W1.334;\A1;min
  0
MTEXT
  5
8F
100
AcDbEntity
  8
PV
  6
CONTINUOUS
 62
       110
100
AcDbMText
 10
-67.1022222501
 20
54.2000001502
 30
0.0
 40
3.2000000477
 41
0.0
 71
         1
 72
         1
  1
\W0.787;\A1;｛ｋｇｆ・ｍ／　ｍｉｎ｝
  0
MTEXT
  5
90
100
AcDbEntity
  8
PV
  6
CONTINUOUS
 62
       110
100
AcDbMText
 10
-66.445825428
 20
59.0000001502
 30
0.0
 40
3.2000000477
 41
0.0
 71
         1
 72
         1
  1
\T1.186;\W1.723;\A1;      J/ min
  0
MTEXT
  5
91
100
AcDbEntity
  8
PV
  6
CONTINUOUS
 62
       110
100
AcDbMText
 10
-39.2666666213
 20
67.0
 30
0.0
 40
4.0
 41
0.0
 71
         1
 72
         1
  1
\A1;mm
  0
MTEXT
  5
92
100
AcDbEntity
  8
PV
  6
CONTINUOUS
 62
       110
100
AcDbMText
 10
-43.5273783729
 20
77.0
 30
0.0
 40
4.0
 41
0.0
 71
         1
 72
         1
  1
\W1.089;\A1;m/ s
  0
MTEXT
  5
93
100
AcDbEntity
  8
PV
  6
CONTINUOUS
 62
       110
100
AcDbMText
 10
-63.2666669216
 20
87.0
 30
0.0
 40
4.0
 41
0.0
 71
         1
 72
         1
  1
\W0.833;\A1;Ｊ｛ｋｇｆ・ｍ｝
  0
MTEXT
  5
94
100
AcDbEntity
  8
PV
  6
CONTINUOUS
 62
       110
100
AcDbMText
 10
-59.1964914948
 20
97.0
 30
0.0
 40
4.0
 41
0.0
 71
         1
 72
         1
  1
\W1.105;\A1;kg\{kgf\}
  0
MTEXT
  5
95
100
AcDbEntity
  8
PV
  6
CONTINUOUS
 62
       110
100
AcDbMText
 10
-117.2666670216
 20
22.0
 30
0.0
 40
4.0
 41
0.0
 71
         1
 72
         1
  1
\W0.833;\A1;復帰バネ設定力
  0
MTEXT
  5
96
100
AcDbEntity
  8
PV
  6
CONTINUOUS
 62
       110
100
AcDbMText
 10
-117.2666670216
 20
37.0
 30
0.0
 40
4.0
 41
0.0
 71
         1
 72
         1
  1
\W0.833;\A1;許容抵抗力
  0
MTEXT
  5
97
100
AcDbEntity
  8
PV
  6
CONTINUOUS
 62
       110
100
AcDbMText
 10
-117.2666670216
 20
47.0
 30
0.0
 40
4.0
 41
0.0
 71
         1
 72
         1
  1
\W0.833;\A1;毎分当りの最高使用頻度
  0
MTEXT
  5
98
100
AcDbEntity
  8
PV
  6
CONTINUOUS
 62
       110
100
AcDbMText
 10
-117.0133330512
 20
54.2000001502
 30
0.0
 40
3.2000000477
 41
0.0
 71
         1
 72
         1
  1
\W0.833;\A1;吸収エネルギ－の最大値
  0
MTEXT
  5
99
100
AcDbEntity
  8
PV
  6
CONTINUOUS
 62
       110
100
AcDbMText
 10
-117.0133330512
 20
59.0000001502
 30
0.0
 40
3.2000000477
 41
0.0
 71
         1
 72
         1
  1
\W0.833;\A1;毎分当りの
  0
MTEXT
  5
9A
100
AcDbEntity
  8
PV
  6
CONTINUOUS
 62
       110
100
AcDbMText
 10
-117.2666670216
 20
67.0
 30
0.0
 40
4.0
 41
0.0
 71
         1
 72
         1
  1
\W0.833;\A1;吸収ストロ－ク
  0
MTEXT
  5
9B
100
AcDbEntity
  8
PV
  6
CONTINUOUS
 62
       110
100
AcDbMText
 10
-117.2666670216
 20
77.0
 30
0.0
 40
4.0
 41
0.0
 71
         1
 72
         1
  1
\W0.833;\A1;許容衝突速度
  0
MTEXT
  5
9C
100
AcDbEntity
  8
PV
  6
CONTINUOUS
 62
       110
100
AcDbMText
 10
-117.2666670216
 20
87.0
 30
0.0
 40
4.0
 41
0.0
 71
         1
 72
         1
  1
\W0.833;\A1;吸収エネルギ－の最大値
  0
MTEXT
  5
9D
100
AcDbEntity
  8
PV
  6
CONTINUOUS
 62
       110
100
AcDbMText
 10
-117.2666670216
 20
97.0
 30
0.0
 40
4.0
 41
0.0
 71
         1
 72
         1
  1
\W0.833;\A1;衝突物の許容相当質量｛重量｝
  0
MTEXT
  5
9E
100
AcDbEntity
  8
PV
  6
CONTINUOUS
 62
       110
100
AcDbMText
 10
-117.2666670216
 20
107.0
 30
0.0
 40
4.0
 41
0.0
 71
         1
 72
         1
  1
\W0.833;\A1;形番
  0
LINE
  5
9F
100
AcDbEntity
  8
PV
  6
CONTINUOUS
 62
         3
100
AcDbLine
 10
45.0
 20
110.0
 30
0.0
 11
45.0
 21
0.0
 31
0.0
  0
LINE
  5
A0
100
AcDbEntity
  8
PV
  6
CONTINUOUS
 62
         3
100
AcDbLine
 10
120.0
 20
110.0
 30
0.0
 11
120.0
 21
0.0
 31
0.0
  0
LINE
  5
A1
100
AcDbEntity
  8
PV
  6
CONTINUOUS
 62
         3
100
AcDbLine
 10
-87.0
 20
30.0
 30
0.0
 11
-87.0
 21
10.0
 31
0.0
  0
LINE
  5
A2
100
AcDbEntity
  8
PV
  6
CONTINUOUS
 62
         3
100
AcDbLine
 10
-120.0
 20
110.0
 30
0.0
 11
120.0
 21
110.0
 31
0.0
  0
LINE
  5
A3
100
AcDbEntity
  8
PV
  6
CONTINUOUS
 62
         3
100
AcDbLine
 10
-120.0
 20
100.0
 30
0.0
 11
120.0
 21
100.0
 31
0.0
  0
LINE
  5
A4
100
AcDbEntity
  8
PV
  6
CONTINUOUS
 62
         3
100
AcDbLine
 10
-120.0
 20
90.0
 30
0.0
 11
120.0
 21
90.0
 31
0.0
  0
LINE
  5
A5
100
AcDbEntity
  8
PV
  6
CONTINUOUS
 62
         3
100
AcDbLine
 10
-120.0
 20
80.0
 30
0.0
 11
120.0
 21
80.0
 31
0.0
  0
LINE
  5
A6
100
AcDbEntity
  8
PV
  6
CONTINUOUS
 62
         3
100
AcDbLine
 10
-120.0
 20
70.0
 30
0.0
 11
120.0
 21
70.0
 31
0.0
  0
LINE
  5
A7
100
AcDbEntity
  8
PV
  6
CONTINUOUS
 62
         3
100
AcDbLine
 10
-120.0
 20
60.0
 30
0.0
 11
120.0
 21
60.0
 31
0.0
  0
LINE
  5
A8
100
AcDbEntity
  8
PV
  6
CONTINUOUS
 62
         3
100
AcDbLine
 10
-120.0
 20
50.0
 30
0.0
 11
120.0
 21
50.0
 31
0.0
  0
LINE
  5
A9
100
AcDbEntity
  8
PV
  6
CONTINUOUS
 62
         3
100
AcDbLine
 10
-120.0
 20
40.0
 30
0.0
 11
120.0
 21
40.0
 31
0.0
  0
LINE
  5
AA
100
AcDbEntity
  8
PV
  6
CONTINUOUS
 62
         3
100
AcDbLine
 10
-120.0
 20
30.0
 30
0.0
 11
120.0
 21
30.0
 31
0.0
  0
LINE
  5
AB
100
AcDbEntity
  8
PV
  6
CONTINUOUS
 62
         3
100
AcDbLine
 10
-87.0
 20
20.0
 30
0.0
 11
120.0
 21
20.0
 31
0.0
  0
LINE
  5
AC
100
AcDbEntity
  8
PV
  6
CONTINUOUS
 62
         3
100
AcDbLine
 10
-120.0
 20
10.0
 30
0.0
 11
120.0
 21
10.0
 31
0.0
  0
LINE
  5
AD
100
AcDbEntity
  8
PV
  6
CONTINUOUS
 62
         3
100
AcDbLine
 10
-30.0
 20
110.0
 30
0.0
 11
-30.0
 21
0.0
 31
0.0
  0
LINE
  5
AE
100
AcDbEntity
  8
PV
  6
CONTINUOUS
 62
         3
100
AcDbLine
 10
-120.0
 20
110.0
 30
0.0
 11
-120.0
 21
0.0
 31
0.0
  0
LINE
  5
AF
100
AcDbEntity
  8
PV
  6
CONTINUOUS
 62
         3
100
AcDbLine
 10
-120.0
 20
0.0
 30
0.0
 11
120.0
 21
0.0
 31
0.0
  0
CIRCLE
  5
B0
100
AcDbEntity
  8
PV
  6
CONTINUOUS
 62
         3
100
AcDbCircle
 10
163.031995
 20
-237.458722
 30
0.0
 40
4.32216
  0
CIRCLE
  5
B1
100
AcDbEntity
  8
PV
  6
CONTINUOUS
 62
         3
100
AcDbCircle
 10
163.031995
 20
-237.458722
 30
0.0
 40
5.0025
  0
LINE
  5
B2
100
AcDbEntity
  8
PV
  6
CONTINUOUS
 62
         3
100
AcDbLine
 10
163.031995
 20
-240.347165
 30
0.0
 11
160.530745
 21
-238.903443
 31
0.0
  0
LINE
  5
B3
100
AcDbEntity
  8
PV
  6
CONTINUOUS
 62
         3
100
AcDbLine
 10
160.530745
 20
-238.903443
 30
0.0
 11
160.530745
 21
-236.015
 31
0.0
  0
LINE
  5
B4
100
AcDbEntity
  8
PV
  6
CONTINUOUS
 62
         3
100
AcDbLine
 10
160.530745
 20
-236.015
 30
0.0
 11
163.031995
 21
-234.571278
 31
0.0
  0
LINE
  5
B5
100
AcDbEntity
  8
PV
  6
CONTINUOUS
 62
         3
100
AcDbLine
 10
163.031995
 20
-234.571278
 30
0.0
 11
165.533245
 21
-236.015
 31
0.0
  0
LINE
  5
B6
100
AcDbEntity
  8
PV
  6
CONTINUOUS
 62
         3
100
AcDbLine
 10
165.533245
 20
-236.015
 30
0.0
 11
165.533245
 21
-238.903443
 31
0.0
  0
LINE
  5
B7
100
AcDbEntity
  8
PV
  6
CONTINUOUS
 62
         3
100
AcDbLine
 10
165.533245
 20
-238.903443
 30
0.0
 11
163.031995
 21
-240.347165
 31
0.0
  0
CIRCLE
  5
B8
100
AcDbEntity
  8
PV
  6
CONTINUOUS
 62
         3
100
AcDbCircle
 10
194.160551
 20
-237.458722
 30
0.0
 40
4.32216
  0
CIRCLE
  5
B9
100
AcDbEntity
  8
PV
  6
CONTINUOUS
 62
         3
100
AcDbCircle
 10
194.160551
 20
-237.458722
 30
0.0
 40
5.0025
  0
LINE
  5
BA
100
AcDbEntity
  8
PV
  6
CONTINUOUS
 62
         3
100
AcDbLine
 10
194.160551
 20
-240.347165
 30
0.0
 11
191.659301
 21
-238.903443
 31
0.0
  0
LINE
  5
BB
100
AcDbEntity
  8
PV
  6
CONTINUOUS
 62
         3
100
AcDbLine
 10
191.659301
 20
-238.903443
 30
0.0
 11
191.659301
 21
-236.015
 31
0.0
  0
LINE
  5
BC
100
AcDbEntity
  8
PV
  6
CONTINUOUS
 62
         3
100
AcDbLine
 10
191.659301
 20
-236.015
 30
0.0
 11
194.160551
 21
-234.571278
 31
0.0
  0
LINE
  5
BD
100
AcDbEntity
  8
PV
  6
CONTINUOUS
 62
         3
100
AcDbLine
 10
194.160551
 20
-234.571278
 30
0.0
 11
196.661801
 21
-236.015
 31
0.0
  0
LINE
  5
BE
100
AcDbEntity
  8
PV
  6
CONTINUOUS
 62
         3
100
AcDbLine
 10
196.661801
 20
-236.015
 30
0.0
 11
196.661801
 21
-238.903443
 31
0.0
  0
LINE
  5
BF
100
AcDbEntity
  8
PV
  6
CONTINUOUS
 62
         3
100
AcDbLine
 10
196.661801
 20
-238.903443
 30
0.0
 11
194.160551
 21
-240.347165
 31
0.0
  0
MTEXT
  5
C0
100
AcDbEntity
  8
PV
  6
CONTINUOUS
 62
       110
100
AcDbMText
 10
233.9206334335
 20
-213.0725349395
 30
0.0
 40
3.2016000748
 41
0.0
 71
         1
 72
         1
  1
\T1.024;\W1.064;\A1;ADJUSTING HANDLE
  0
ARC
  5
C1
100
AcDbEntity
  8
PV
  6
CONTINUOUS
 62
         3
100
AcDbCircle
 10
178.595773
 20
-221.894944
 30
0.0
 40
15.50775
100
AcDbArc
 50
198.819
 51
341.181
  0
ARC
  5
C2
100
AcDbEntity
  8
PV
  6
CENTER
 62
         3
100
AcDbCircle
 10
178.595773
 20
-221.894944
 30
0.0
 40
22.011
100
AcDbArc
 50
30.742
 51
59.0760001
  0
CIRCLE
  5
C3
100
AcDbEntity
  8
PV
  6
CONTINUOUS
 62
         3
100
AcDbCircle
 10
194.160551
 20
-206.331166
 30
0.0
 40
2.4012
  0
CIRCLE
  5
C4
100
AcDbEntity
  8
PV
  6
CONTINUOUS
 62
         3
100
AcDbCircle
 10
194.160551
 20
-206.331166
 30
0.0
 40
3.0015
  0
ARC
  5
C5
100
AcDbEntity
  8
PV
  6
CENTER
 62
         3
100
AcDbCircle
 10
178.595773
 20
-221.894944
 30
0.0
 40
22.011
100
AcDbArc
 50
120.923
 51
149.696
  0
CIRCLE
  5
C6
100
AcDbEntity
  8
PV
  6
CONTINUOUS
 62
         3
100
AcDbCircle
 10
163.031995
 20
-206.331166
 30
0.0
 40
2.4012
  0
CIRCLE
  5
C7
100
AcDbEntity
  8
PV
  6
CONTINUOUS
 62
         3
100
AcDbCircle
 10
163.031995
 20
-206.331166
 30
0.0
 40
3.0015
  0
ARC
  5
C8
100
AcDbEntity
  8
PV
  6
CENTER
 62
         3
100
AcDbCircle
 10
178.595773
 20
-221.894944
 30
0.0
 40
22.011
100
AcDbArc
 50
300.923
 51
329.696
  0
ARC
  5
C9
100
AcDbEntity
  8
PV
  6
CENTER
 62
         3
100
AcDbCircle
 10
178.595773
 20
-221.894944
 30
0.0
 40
22.011
100
AcDbArc
 50
205.507
 51
239.077
  0
ARC
  5
CA
100
AcDbEntity
  8
PV
  6
CONTINUOUS
 62
         3
100
AcDbCircle
 10
178.595773
 20
-221.894944
 30
0.0
 40
27.51375
100
AcDbArc
 50
349.524
 51
190.476
  0
CIRCLE
  5
CB
100
AcDbEntity
  8
PV
  6
CONTINUOUS
 62
         3
100
AcDbCircle
 10
178.595773
 20
-221.894944
 30
0.0
 40
15.0075
  0
CIRCLE
  5
CC
100
AcDbEntity
  8
PV
  6
CONTINUOUS
 62
         3
100
AcDbCircle
 10
178.595773
 20
-221.894944
 30
0.0
 40
12.006
  0
LINE
  5
CD
100
AcDbEntity
  8
PV
  6
CONTINUOUS
 62
         3
100
AcDbLine
 10
193.275109
 20
-226.897444
 30
0.0
 11
223.618273
 21
-226.897444
 31
0.0
  0
LINE
  5
CF
100
AcDbEntity
  8
PV
  6
DASHED
 62
         3
100
AcDbLine
 10
141.077023
 20
-226.897444
 30
0.0
 11
141.077023
 21
-257.916946
 31
0.0
  0
LINE
  5
D0
100
AcDbEntity
  8
PV
  6
DASHED
 62
         3
100
AcDbLine
 10
205.109023
 20
-226.897444
 30
0.0
 11
205.109023
 21
-257.916946
 31
0.0
  0
LINE
  5
D1
100
AcDbEntity
  8
PV
  6
DASHED
 62
         3
100
AcDbLine
 10
216.114523
 20
-226.897444
 30
0.0
 11
216.114523
 21
-257.916946
 31
0.0
  0
LINE
  5
D2
100
AcDbEntity
  8
PV
  6
DASHED
 62
         3
100
AcDbLine
 10
152.082523
 20
-226.897444
 30
0.0
 11
152.082523
 21
-257.916946
 31
0.0
  0
LINE
  5
D3
100
AcDbEntity
  8
PV
  6
CENTER
 62
         3
100
AcDbLine
 10
146.579773
 20
-220.144069
 30
0.0
 11
146.579773
 21
-263.215594
 31
0.0
  0
LINE
  5
D4
100
AcDbEntity
  8
PV
  6
CENTER
 62
         3
100
AcDbLine
 10
210.611773
 20
-216.642319
 30
0.0
 11
210.611773
 21
-263.215594
 31
0.0
  0
LINE
  5
D5
100
AcDbEntity
  8
PV
  6
CONTINUOUS
 62
         3
100
AcDbLine
 10
133.573273
 20
-226.897444
 30
0.0
 11
163.917437
 21
-226.897444
 31
0.0
  0
LINE
  5
D6
100
AcDbEntity
  8
PV
  6
CONTINUOUS
 62
         3
100
AcDbLine
 10
133.573273
 20
-226.897444
 30
0.0
 11
133.573273
 21
-257.912943
 31
0.0
  0
LINE
  5
D7
100
AcDbEntity
  8
PV
  6
CONTINUOUS
 62
         3
100
AcDbLine
 10
223.618273
 20
-226.897444
 30
0.0
 11
223.618273
 21
-257.912943
 31
0.0
  0
LINE
  5
D8
100
AcDbEntity
  8
PV
  6
CONTINUOUS
 62
         3
100
AcDbLine
 10
133.573273
 20
-257.912943
 30
0.0
 11
223.618273
 21
-257.912943
 31
0.0
  0
LINE
  5
D9
100
AcDbEntity
  8
PV
  6
CENTER
 62
         3
100
AcDbLine
 10
190.000472
 20
-210.490244
 30
0.0
 11
198.050495
 21
-202.440221
 31
0.0
  0
LINE
  5
DA
100
AcDbEntity
  8
PV
  6
CENTER
 62
         3
100
AcDbLine
 10
159.14105
 20
-202.440221
 30
0.0
 11
167.191073
 21
-210.490244
 31
0.0
  0
LINE
  5
DB
100
AcDbEntity
  8
PV
  6
CENTER
 62
         3
100
AcDbLine
 10
198.050495
 20
-241.349666
 30
0.0
 11
190.000472
 21
-233.299643
 31
0.0
  0
LINE
  5
DC
100
AcDbEntity
  8
PV
  6
CENTER
 62
         3
100
AcDbLine
 10
167.191073
 20
-233.299643
 30
0.0
 11
159.14105
 21
-241.349666
 31
0.0
  0
LINE
  5
DD
100
AcDbEntity
  8
PV
  6
CENTER
 62
         3
100
AcDbLine
 10
149.308136
 20
-221.894944
 30
0.0
 11
207.710323
 21
-221.894944
 31
0.0
  0
LINE
  5
DE
100
AcDbEntity
  8
PV
  6
CENTER
 62
         3
100
AcDbLine
 10
178.595773
 20
-188.412211
 30
0.0
 11
178.595773
 21
-267.067519
 31
0.0
  0
LINE
  5
E0
100
AcDbEntity
  8
PV
  6
PHANTOM
 62
         3
100
AcDbLine
 10
311.162023
 20
-218.893443
 30
0.0
 11
311.162023
 21
-224.896444
 31
0.0
  0
LINE
  5
E1
100
AcDbEntity
  8
PV
  6
PHANTOM
 62
         3
100
AcDbLine
 10
201.107023
 20
-218.893443
 30
0.0
 11
201.107023
 21
-224.896444
 31
0.0
  0
LINE
  5
E2
100
AcDbEntity
  8
PV
  6
PHANTOM
 62
         3
100
AcDbLine
 10
201.107023
 20
-224.896444
 30
0.0
 11
311.162023
 21
-224.896444
 31
0.0
  0
LINE
  5
E3
100
AcDbEntity
  8
PV
  6
PHANTOM
 62
         3
100
AcDbLine
 10
201.107023
 20
-218.893443
 30
0.0
 11
311.162023
 21
-218.893443
 31
0.0
  0
CIRCLE
  5
E4
100
AcDbEntity
  8
PV
  6
CONTINUOUS
 62
         3
100
AcDbCircle
 10
-219.468005
 20
-237.458722
 30
0.0
 40
4.32216
  0
CIRCLE
  5
E5
100
AcDbEntity
  8
PV
  6
CONTINUOUS
 62
         3
100
AcDbCircle
 10
-219.468005
 20
-237.458722
 30
0.0
 40
5.0025
  0
LINE
  5
E6
100
AcDbEntity
  8
PV
  6
CONTINUOUS
 62
         3
100
AcDbLine
 10
-219.468005
 20
-240.347165
 30
0.0
 11
-221.969255
 21
-238.903443
 31
0.0
  0
LINE
  5
E7
100
AcDbEntity
  8
PV
  6
CONTINUOUS
 62
         3
100
AcDbLine
 10
-221.969255
 20
-238.903443
 30
0.0
 11
-221.969255
 21
-236.015
 31
0.0
  0
LINE
  5
E8
100
AcDbEntity
  8
PV
  6
CONTINUOUS
 62
         3
100
AcDbLine
 10
-221.969255
 20
-236.015
 30
0.0
 11
-219.468005
 21
-234.571278
 31
0.0
  0
LINE
  5
E9
100
AcDbEntity
  8
PV
  6
CONTINUOUS
 62
         3
100
AcDbLine
 10
-219.468005
 20
-234.571278
 30
0.0
 11
-216.966755
 21
-236.015
 31
0.0
  0
LINE
  5
EA
100
AcDbEntity
  8
PV
  6
CONTINUOUS
 62
         3
100
AcDbLine
 10
-216.966755
 20
-236.015
 30
0.0
 11
-216.966755
 21
-238.903443
 31
0.0
  0
LINE
  5
EB
100
AcDbEntity
  8
PV
  6
CONTINUOUS
 62
         3
100
AcDbLine
 10
-216.966755
 20
-238.903443
 30
0.0
 11
-219.468005
 21
-240.347165
 31
0.0
  0
CIRCLE
  5
EC
100
AcDbEntity
  8
PV
  6
CONTINUOUS
 62
         3
100
AcDbCircle
 10
-188.339449
 20
-237.458722
 30
0.0
 40
4.32216
  0
CIRCLE
  5
ED
100
AcDbEntity
  8
PV
  6
CONTINUOUS
 62
         3
100
AcDbCircle
 10
-188.339449
 20
-237.458722
 30
0.0
 40
5.0025
  0
LINE
  5
EE
100
AcDbEntity
  8
PV
  6
CONTINUOUS
 62
         3
100
AcDbLine
 10
-188.339449
 20
-240.347165
 30
0.0
 11
-190.840699
 21
-238.903443
 31
0.0
  0
LINE
  5
EF
100
AcDbEntity
  8
PV
  6
CONTINUOUS
 62
         3
100
AcDbLine
 10
-190.840699
 20
-238.903443
 30
0.0
 11
-190.840699
 21
-236.015
 31
0.0
  0
LINE
  5
F0
100
AcDbEntity
  8
PV
  6
CONTINUOUS
 62
         3
100
AcDbLine
 10
-190.840699
 20
-236.015
 30
0.0
 11
-188.339449
 21
-234.571278
 31
0.0
  0
LINE
  5
F1
100
AcDbEntity
  8
PV
  6
CONTINUOUS
 62
         3
100
AcDbLine
 10
-188.339449
 20
-234.571278
 30
0.0
 11
-185.838199
 21
-236.015
 31
0.0
  0
LINE
  5
F2
100
AcDbEntity
  8
PV
  6
CONTINUOUS
 62
         3
100
AcDbLine
 10
-185.838199
 20
-236.015
 30
0.0
 11
-185.838199
 21
-238.903443
 31
0.0
  0
LINE
  5
F3
100
AcDbEntity
  8
PV
  6
CONTINUOUS
 62
         3
100
AcDbLine
 10
-185.838199
 20
-238.903443
 30
0.0
 11
-188.339449
 21
-240.347165
 31
0.0
  0
ARC
  5
F4
100
AcDbEntity
  8
PV
  6
CONTINUOUS
 62
         3
100
AcDbCircle
 10
-203.904227
 20
-221.894944
 30
0.0
 40
15.50775
100
AcDbArc
 50
198.819
 51
341.181
  0
ARC
  5
F5
100
AcDbEntity
  8
PV
  6
CENTER
 62
         3
100
AcDbCircle
 10
-203.904227
 20
-221.894944
 30
0.0
 40
22.011
100
AcDbArc
 50
30.742
 51
59.0760001
  0
CIRCLE
  5
F6
100
AcDbEntity
  8
PV
  6
CONTINUOUS
 62
         3
100
AcDbCircle
 10
-188.339449
 20
-206.331166
 30
0.0
 40
2.4012
  0
CIRCLE
  5
F7
100
AcDbEntity
  8
PV
  6
CONTINUOUS
 62
         3
100
AcDbCircle
 10
-188.339449
 20
-206.331166
 30
0.0
 40
3.0015
  0
ARC
  5
F8
100
AcDbEntity
  8
PV
  6
CENTER
 62
         3
100
AcDbCircle
 10
-203.904227
 20
-221.894944
 30
0.0
 40
22.011
100
AcDbArc
 50
120.923
 51
149.696
  0
CIRCLE
  5
F9
100
AcDbEntity
  8
PV
  6
CONTINUOUS
 62
         3
100
AcDbCircle
 10
-219.468005
 20
-206.331166
 30
0.0
 40
2.4012
  0
CIRCLE
  5
FA
100
AcDbEntity
  8
PV
  6
CONTINUOUS
 62
         3
100
AcDbCircle
 10
-219.468005
 20
-206.331166
 30
0.0
 40
3.0015
  0
ARC
  5
FB
100
AcDbEntity
  8
PV
  6
CENTER
 62
         3
100
AcDbCircle
 10
-203.904227
 20
-221.894944
 30
0.0
 40
22.011
100
AcDbArc
 50
300.923
 51
329.696
  0
ARC
  5
FC
100
AcDbEntity
  8
PV
  6
CENTER
 62
         3
100
AcDbCircle
 10
-203.904227
 20
-221.894944
 30
0.0
 40
22.011
100
AcDbArc
 50
205.507
 51
239.077
  0
ARC
  5
FD
100
AcDbEntity
  8
PV
  6
CONTINUOUS
 62
         3
100
AcDbCircle
 10
-203.904227
 20
-221.894944
 30
0.0
 40
27.51375
100
AcDbArc
 50
349.524
 51
190.476
  0
LINE
  5
FE
100
AcDbEntity
  8
PV
  6
CONTINUOUS
 62
         3
100
AcDbLine
 10
-189.224891
 20
-226.897444
 30
0.0
 11
-158.881727
 21
-226.897444
 31
0.0
  0
LINE
  5
FF
100
AcDbEntity
  8
PV
  6
DASHED
 62
         3
100
AcDbLine
 10
-241.422977
 20
-226.897444
 30
0.0
 11
-241.422977
 21
-257.916946
 31
0.0
  0
LINE
  5
100
100
AcDbEntity
  8
PV
  6
DASHED
 62
         3
100
AcDbLine
 10
-177.390977
 20
-226.897444
 30
0.0
 11
-177.390977
 21
-257.916946
 31
0.0
  0
LINE
  5
101
100
AcDbEntity
  8
PV
  6
DASHED
 62
         3
100
AcDbLine
 10
-166.385477
 20
-226.897444
 30
0.0
 11
-166.385477
 21
-257.916946
 31
0.0
  0
LINE
  5
102
100
AcDbEntity
  8
PV
  6
DASHED
 62
         3
100
AcDbLine
 10
-230.417477
 20
-226.897444
 30
0.0
 11
-230.417477
 21
-257.916946
 31
0.0
  0
LINE
  5
103
100
AcDbEntity
  8
PV
  6
CENTER
 62
         3
100
AcDbLine
 10
-235.920227
 20
-220.144069
 30
0.0
 11
-235.920227
 21
-263.215594
 31
0.0
  0
LINE
  5
104
100
AcDbEntity
  8
PV
  6
CENTER
 62
         3
100
AcDbLine
 10
-171.888227
 20
-216.642319
 30
0.0
 11
-171.888227
 21
-263.215594
 31
0.0
  0
LINE
  5
105
100
AcDbEntity
  8
PV
  6
CONTINUOUS
 62
         3
100
AcDbLine
 10
-248.926727
 20
-226.897444
 30
0.0
 11
-218.582563
 21
-226.897444
 31
0.0
  0
LINE
  5
106
100
AcDbEntity
  8
PV
  6
CONTINUOUS
 62
         3
100
AcDbLine
 10
-248.926727
 20
-226.897444
 30
0.0
 11
-248.926727
 21
-257.912943
 31
0.0
  0
LINE
  5
107
100
AcDbEntity
  8
PV
  6
CONTINUOUS
 62
         3
100
AcDbLine
 10
-158.881727
 20
-226.897444
 30
0.0
 11
-158.881727
 21
-257.912943
 31
0.0
  0
LINE
  5
108
100
AcDbEntity
  8
PV
  6
CONTINUOUS
 62
         3
100
AcDbLine
 10
-248.926727
 20
-257.912943
 30
0.0
 11
-158.881727
 21
-257.912943
 31
0.0
  0
LINE
  5
109
100
AcDbEntity
  8
PV
  6
CENTER
 62
         3
100
AcDbLine
 10
-192.499528
 20
-210.490244
 30
0.0
 11
-184.449505
 21
-202.440221
 31
0.0
  0
LINE
  5
10A
100
AcDbEntity
  8
PV
  6
CENTER
 62
         3
100
AcDbLine
 10
-223.35895
 20
-202.440221
 30
0.0
 11
-215.308927
 21
-210.490244
 31
0.0
  0
LINE
  5
10B
100
AcDbEntity
  8
PV
  6
CENTER
 62
         3
100
AcDbLine
 10
-184.449505
 20
-241.349666
 30
0.0
 11
-192.499528
 21
-233.299643
 31
0.0
  0
LINE
  5
10C
100
AcDbEntity
  8
PV
  6
CENTER
 62
         3
100
AcDbLine
 10
-215.308927
 20
-233.299643
 30
0.0
 11
-223.35895
 21
-241.349666
 31
0.0
  0
LINE
  5
10D
100
AcDbEntity
  8
PV
  6
CENTER
 62
         3
100
AcDbLine
 10
-233.191864
 20
-221.894944
 30
0.0
 11
-174.789677
 21
-221.894944
 31
0.0
  0
LINE
  5
10E
100
AcDbEntity
  8
PV
  6
CENTER
 62
         3
100
AcDbLine
 10
-203.904227
 20
-188.412211
 30
0.0
 11
-203.904227
 21
-267.067519
 31
0.0
  0
LINE
  5
10F
100
AcDbEntity
  8
PV
  6
CONTINUOUS
 62
         3
100
AcDbLine
 10
28.1667725
 20
-249.408694
 30
0.0
 11
23.3903855
 21
-249.408694
 31
0.0
  0
LINE
  5
110
100
AcDbEntity
  8
PV
  6
CONTINUOUS
 62
         3
100
AcDbLine
 10
61.1832725
 20
-227.497743
 30
0.0
 11
67.4403995
 21
-227.497743
 31
0.0
  0
LINE
  5
111
100
AcDbEntity
  8
PV
  6
CONTINUOUS
 62
         3
100
AcDbLine
 10
-1.14287499
 20
-221.894944
 30
0.0
 11
2.54897001
 21
-221.894944
 31
0.0
  0
ARC
  5
112
100
AcDbEntity
  8
PV
  6
CONTINUOUS
 62
         3
100
AcDbCircle
 10
17.1612725
 20
-246.189084
 30
0.0
 40
4.720359
100
AcDbArc
 50
197.492
 51
342.507
  0
CIRCLE
  5
113
100
AcDbEntity
  8
PV
  6
CONTINUOUS
 62
         3
100
AcDbCircle
 10
-52.8737275
 20
-221.894944
 30
0.0
 40
3.0015
  0
ARC
  5
114
100
AcDbEntity
  8
PV
  6
CONTINUOUS
 62
         3
100
AcDbCircle
 10
8.15677251
 20
-194.381193
 30
0.0
 40
1.50075
100
AcDbArc
 50
0.0
 51
180.0
  0
ARC
  5
115
100
AcDbEntity
  8
PV
  6
CONTINUOUS
 62
         3
100
AcDbCircle
 10
67.1862725
 20
-221.894944
 30
0.0
 40
30.015
100
AcDbArc
 50
336.422
 51
23.578
  0
LINE
  5
116
100
AcDbEntity
  8
PV
  6
CONTINUOUS
 62
         3
100
AcDbLine
 10
50.1777725
 20
-226.897444
 30
0.0
 11
28.1667725
 21
-226.897444
 31
0.0
  0
LINE
  5
117
100
AcDbEntity
  8
PV
  6
CONTINUOUS
 62
         3
100
AcDbLine
 10
28.1667725
 20
-257.912943
 30
0.0
 11
50.1777725
 21
-257.912943
 31
0.0
  0
LINE
  5
118
100
AcDbEntity
  8
PV
  6
CONTINUOUS
 62
         3
100
AcDbLine
 10
28.1667725
 20
-226.897444
 30
0.0
 11
28.1667725
 21
-257.912943
 31
0.0
  0
LINE
  5
119
100
AcDbEntity
  8
PV
  6
CONTINUOUS
 62
         3
100
AcDbLine
 10
50.1777725
 20
-226.897444
 30
0.0
 11
50.1777725
 21
-257.912943
 31
0.0
  0
LINE
  5
11A
100
AcDbEntity
  8
PV
  6
DASHED
 62
         3
100
AcDbLine
 10
44.6750225
 20
-257.912943
 30
0.0
 11
44.6750225
 21
-226.897444
 31
0.0
  0
LINE
  5
11B
100
AcDbEntity
  8
PV
  6
CENTER
 62
         3
100
AcDbLine
 10
39.1722725
 20
-260.160067
 30
0.0
 11
39.1722725
 21
-216.942469
 31
0.0
  0
LINE
  5
11C
100
AcDbEntity
  8
PV
  6
DASHED
 62
         3
100
AcDbLine
 10
33.6695225
 20
-257.912943
 30
0.0
 11
33.6695225
 21
-226.897444
 31
0.0
  0
LINE
  5
11D
100
AcDbEntity
  8
PV
  6
CONTINUOUS
 62
         3
100
AcDbLine
 10
-113.904227
 20
-226.897444
 30
0.0
 11
-135.915227
 21
-226.897444
 31
0.0
  0
LINE
  5
11E
100
AcDbEntity
  8
PV
  6
CONTINUOUS
 62
         3
100
AcDbLine
 10
-135.915227
 20
-257.912943
 30
0.0
 11
-113.904227
 21
-257.912943
 31
0.0
  0
LINE
  5
11F
100
AcDbEntity
  8
PV
  6
CONTINUOUS
 62
         3
100
AcDbLine
 10
-135.915227
 20
-226.897444
 30
0.0
 11
-135.915227
 21
-257.912943
 31
0.0
  0
LINE
  5
120
100
AcDbEntity
  8
PV
  6
CONTINUOUS
 62
         3
100
AcDbLine
 10
-113.904227
 20
-226.897444
 30
0.0
 11
-113.904227
 21
-257.912943
 31
0.0
  0
LINE
  5
121
100
AcDbEntity
  8
PV
  6
DASHED
 62
         3
100
AcDbLine
 10
-119.406977
 20
-257.912943
 30
0.0
 11
-119.406977
 21
-226.897444
 31
0.0
  0
LINE
  5
122
100
AcDbEntity
  8
PV
  6
CENTER
 62
         3
100
AcDbLine
 10
-124.909727
 20
-261.346659
 30
0.0
 11
-124.909727
 21
-216.942469
 31
0.0
  0
LINE
  5
123
100
AcDbEntity
  8
PV
  6
DASHED
 62
         3
100
AcDbLine
 10
-130.412477
 20
-257.912943
 30
0.0
 11
-130.412477
 21
-226.897444
 31
0.0
  0
LINE
  5
124
100
AcDbEntity
  8
PV
  6
CONTINUOUS
 62
         3
100
AcDbLine
 10
10.1577725
 20
-245.906944
 30
0.0
 11
10.1577725
 21
-249.408694
 31
0.0
  0
LINE
  5
125
100
AcDbEntity
  8
PV
  6
CONTINUOUS
 62
         3
100
AcDbLine
 10
24.1647725
 20
-245.906944
 30
0.0
 11
24.1647725
 21
-249.408694
 31
0.0
  0
LINE
  5
126
100
AcDbEntity
  8
PV
  6
CONTINUOUS
 62
         3
100
AcDbLine
 10
4.15477251
 20
-248.408193
 30
0.0
 11
5.02120551
 21
-248.908443
 31
0.0
  0
LINE
  5
127
100
AcDbEntity
  8
PV
  6
CONTINUOUS
 62
         3
100
AcDbLine
 10
-6.85072749
 20
-248.408193
 30
0.0
 11
-7.71716049
 21
-248.908443
 31
0.0
  0
LINE
  5
128
100
AcDbEntity
  8
PV
  6
CONTINUOUS
 62
         3
100
AcDbLine
 10
5.02120551
 20
-248.908443
 30
0.0
 11
6.15577251
 21
-248.908443
 31
0.0
  0
LINE
  5
129
100
AcDbEntity
  8
PV
  6
CONTINUOUS
 62
         3
100
AcDbLine
 10
-6.85072749
 20
-248.408193
 30
0.0
 11
4.15477251
 21
-248.408193
 31
0.0
  0
LINE
  5
12A
100
AcDbEntity
  8
PV
  6
CONTINUOUS
 62
         3
100
AcDbLine
 10
-45.8702275
 20
-248.908443
 30
0.0
 11
-7.71716049
 21
-248.908443
 31
0.0
  0
LINE
  5
12B
100
AcDbEntity
  8
PV
  6
CONTINUOUS
 62
         3
100
AcDbLine
 10
4.15477251
 20
-195.381693
 30
0.0
 11
5.02120551
 21
-194.881444
 31
0.0
  0
LINE
  5
12C
100
AcDbEntity
  8
PV
  6
CONTINUOUS
 62
         3
100
AcDbLine
 10
-6.85072749
 20
-195.381693
 30
0.0
 11
-7.71716049
 21
-194.881444
 31
0.0
  0
LINE
  5
12D
100
AcDbEntity
  8
PV
  6
CONTINUOUS
 62
         3
100
AcDbLine
 10
-6.85072749
 20
-195.381693
 30
0.0
 11
-6.85072749
 21
-248.408193
 31
0.0
  0
LINE
  5
12E
100
AcDbEntity
  8
PV
  6
CONTINUOUS
 62
         3
100
AcDbLine
 10
4.15477251
 20
-195.381693
 30
0.0
 11
4.15477251
 21
-248.408193
 31
0.0
  0
LINE
  5
12F
100
AcDbEntity
  8
PV
  6
CONTINUOUS
 62
         3
100
AcDbLine
 10
6.15577251
 20
-194.381193
 30
0.0
 11
6.15577251
 21
-249.408694
 31
0.0
  0
LINE
  5
130
100
AcDbEntity
  8
PV
  6
CENTER
 62
         3
100
AcDbLine
 10
-52.8737275
 20
-216.892443
 30
0.0
 11
-52.8737275
 21
-226.897444
 31
0.0
  0
LINE
  5
131
100
AcDbEntity
  8
PV
  6
CONTINUOUS
 62
         3
100
AcDbLine
 10
36.1707725
 20
-206.887444
 30
0.0
 11
36.1707725
 21
-226.897444
 31
0.0
  0
LINE
  5
132
100
AcDbEntity
  8
PV
  6
CONTINUOUS
 62
         3
100
AcDbLine
 10
50.1777725
 20
-227.497743
 30
0.0
 11
86.1957725
 21
-227.497743
 31
0.0
  0
LINE
  5
133
100
AcDbEntity
  8
PV
  6
CONTINUOUS
 62
         3
100
AcDbLine
 10
36.1707725
 20
-216.292144
 30
0.0
 11
86.1957725
 21
-216.292144
 31
0.0
  0
LINE
  5
134
100
AcDbEntity
  8
PV
  6
CONTINUOUS
 62
         3
100
AcDbLine
 10
28.1667725
 20
-194.381193
 30
0.0
 11
28.1667725
 21
-249.408694
 31
0.0
  0
LINE
  5
135
100
AcDbEntity
  8
PV
  6
CONTINUOUS
 62
         3
100
AcDbLine
 10
11.6585225
 20
-247.607793
 30
0.0
 11
11.6585225
 21
-245.906944
 31
0.0
  0
LINE
  5
136
100
AcDbEntity
  8
PV
  6
CONTINUOUS
 62
         3
100
AcDbLine
 10
22.6640225
 20
-247.607793
 30
0.0
 11
22.6640225
 21
-245.906944
 31
0.0
  0
LINE
  5
137
100
AcDbEntity
  8
PV
  6
CONTINUOUS
 62
         3
100
AcDbLine
 10
11.6585225
 20
-247.607793
 30
0.0
 11
22.6640225
 21
-247.607793
 31
0.0
  0
LINE
  5
138
100
AcDbEntity
  8
PV
  6
CENTER
 62
         3
100
AcDbLine
 10
8.15677251
 20
-191.741874
 30
0.0
 11
8.15677251
 21
-195.853929
 31
0.0
  0
LINE
  5
139
100
AcDbEntity
  8
PV
  6
CONTINUOUS
 62
         3
100
AcDbLine
 10
24.1647725
 20
-249.408694
 30
0.0
 11
28.1667725
 21
-249.408694
 31
0.0
  0
LINE
  5
13A
100
AcDbEntity
  8
PV
  6
CENTER
 62
         3
100
AcDbLine
 10
17.1612725
 20
-243.267625
 30
0.0
 11
17.1612725
 21
-252.119048
 31
0.0
  0
LINE
  5
13B
100
AcDbEntity
  8
PV
  6
CONTINUOUS
 62
         3
100
AcDbLine
 10
10.1577725
 20
-245.906944
 30
0.0
 11
24.1647725
 21
-245.906944
 31
0.0
  0
LINE
  5
13C
100
AcDbEntity
  8
PV
  6
CONTINUOUS
 62
         3
100
AcDbLine
 10
94.69502
 20
-209.888944
 30
0.0
 11
94.69502
 21
-233.900943
 31
0.0
  0
LINE
  5
13D
100
AcDbEntity
  8
PV
  6
CONTINUOUS
 62
         3
100
AcDbLine
 10
5.02120551
 20
-194.881444
 30
0.0
 11
6.15577251
 21
-194.881444
 31
0.0
  0
LINE
  5
13E
100
AcDbEntity
  8
PV
  6
CONTINUOUS
 62
         3
100
AcDbLine
 10
-6.85072749
 20
-195.381693
 30
0.0
 11
4.15477251
 21
-195.381693
 31
0.0
  0
LINE
  5
13F
100
AcDbEntity
  8
PV
  6
CONTINUOUS
 62
         3
100
AcDbLine
 10
-59.8772275
 20
-194.631319
 30
0.0
 11
-45.8702275
 21
-194.631319
 31
0.0
  0
LINE
  5
140
100
AcDbEntity
  8
PV
  6
CONTINUOUS
 62
         3
100
AcDbLine
 10
-59.8772275
 20
-249.158569
 30
0.0
 11
-45.8702275
 21
-249.158569
 31
0.0
  0
LINE
  5
141
100
AcDbEntity
  8
PV
  6
CONTINUOUS
 62
         3
100
AcDbLine
 10
-45.8702275
 20
-194.881444
 30
0.0
 11
-7.71716049
 21
-194.881444
 31
0.0
  0
LINE
  5
142
100
AcDbEntity
  8
PV
  6
CONTINUOUS
 62
         3
100
AcDbLine
 10
-59.8772275
 20
-194.631319
 30
0.0
 11
-59.8772275
 21
-249.158569
 31
0.0
  0
LINE
  5
143
100
AcDbEntity
  8
PV
  6
CONTINUOUS
 62
         3
100
AcDbLine
 10
-45.8702275
 20
-194.631319
 30
0.0
 11
-45.8702275
 21
-249.158569
 31
0.0
  0
LINE
  5
144
100
AcDbEntity
  8
PV
  6
CONTINUOUS
 62
         3
100
AcDbLine
 10
-94.8947275
 20
-248.908443
 30
0.0
 11
-59.8772275
 21
-248.908443
 31
0.0
  0
LINE
  5
145
100
AcDbEntity
  8
PV
  6
CONTINUOUS
 62
         3
100
AcDbLine
 10
-94.8947275
 20
-194.881444
 30
0.0
 11
-59.8772275
 21
-194.881444
 31
0.0
  0
LINE
  5
146
100
AcDbEntity
  8
PV
  6
CONTINUOUS
 62
         3
100
AcDbLine
 10
6.15577251
 20
-194.381193
 30
0.0
 11
28.1667725
 21
-194.381193
 31
0.0
  0
LINE
  5
147
100
AcDbEntity
  8
PV
  6
CONTINUOUS
 62
         3
100
AcDbLine
 10
6.15577251
 20
-249.408694
 30
0.0
 11
10.1577725
 21
-249.408694
 31
0.0
  0
LINE
  5
148
100
AcDbEntity
  8
PV
  6
CONTINUOUS
 62
         3
100
AcDbLine
 10
28.1667725
 20
-206.887444
 30
0.0
 11
36.1707725
 21
-206.887444
 31
0.0
  0
LINE
  5
149
100
AcDbEntity
  8
PV
  6
CONTINUOUS
 62
         3
100
AcDbLine
 10
86.1957725
 20
-209.888944
 30
0.0
 11
94.69502
 21
-209.888944
 31
0.0
  0
LINE
  5
14A
100
AcDbEntity
  8
PV
  6
CONTINUOUS
 62
         3
100
AcDbLine
 10
86.1957725
 20
-233.900943
 30
0.0
 11
94.69502
 21
-233.900943
 31
0.0
  0
LINE
  5
14B
100
AcDbEntity
  8
PV
  6
CONTINUOUS
 62
         3
100
AcDbLine
 10
86.1957725
 20
-209.888944
 30
0.0
 11
86.1957725
 21
-233.900943
 31
0.0
  0
LINE
  5
14C
100
AcDbEntity
  8
PV
  6
CONTINUOUS
 62
         3
100
AcDbLine
 10
-94.8947275
 20
-194.381193
 30
0.0
 11
-94.8947275
 21
-249.408694
 31
0.0
  0
LINE
  5
14D
100
AcDbEntity
  8
PV
  6
CONTINUOUS
 62
         3
100
AcDbLine
 10
-113.904227
 20
-249.408694
 30
0.0
 11
-94.8947275
 21
-249.408694
 31
0.0
  0
LINE
  5
14E
100
AcDbEntity
  8
PV
  6
CONTINUOUS
 62
         3
100
AcDbLine
 10
-113.904227
 20
-194.381193
 30
0.0
 11
-94.8947275
 21
-194.381193
 31
0.0
  0
LINE
  5
14F
100
AcDbEntity
  8
PV
  6
CONTINUOUS
 62
         3
100
AcDbLine
 10
-113.904227
 20
-194.381193
 30
0.0
 11
-113.904227
 21
-249.408694
 31
0.0
  0
LINE
  5
150
100
AcDbEntity
  8
PV
  6
CENTER
 62
         3
100
AcDbLine
 10
-117.326938
 20
-221.894944
 30
0.0
 11
99.1922675
 21
-221.894944
 31
0.0
  0
MTEXT
  5
151
100
AcDbEntity
  8
PV
  6
CONTINUOUS
 62
       110
100
AcDbMText
 10
-149.1353275917
 20
-124.8269761001
 30
0.0
 40
3.2000000477
 41
0.0
 71
         1
 72
         1
  1
\W1.047;\A1;4-\U+220511
 11
0.5915957849
 21
0.8062347222
 31
0.0
  0
LINE
  5
152
100
AcDbEntity
  8
PV
  6
CONTINUOUS
 62
         7
100
AcDbLine
 10
-145.961235
 20
-127.600722
 30
0.0
 11
-121.654324
 21
-94.4749354
 31
0.0
  0
LINE
  5
153
100
AcDbEntity
  8
PV
  6
CONTINUOUS
 62
         7
100
AcDbLine
 10
-121.654324
 20
-94.4749354
 30
0.0
 11
-121.358526
 21
-94.071818
 31
0.0
  0
LINE
  5
154
100
AcDbEntity
  8
PV
  6
CONTINUOUS
 62
         7
100
AcDbLine
 10
-128.165131
 20
-103.347952
 30
0.0
 11
-128.460929
 21
-103.751069
 31
0.0
  0
LINE
  5
155
100
AcDbEntity
  8
PV
  6
CONTINUOUS
 62
         7
100
AcDbLine
 10
-121.654324
 20
-94.4749354
 30
0.0
 11
-118.992143
 21
-90.8468791
 31
0.0
  0
DIMENSION
  5
165
100
AcDbEntity
  8
PV
  6
CONTINUOUS
 62
       110
100
AcDbDimension
  2
*D2
 10
-124.909727
 20
-122.601048
 30
0.0
 11
-42.5687248145
 21
-122.601048
 31
0.0
 70
       128
  1
\A1;<>
  3
MXDIMSTYLE
100
AcDbAlignedDimension
 13
39.1722725
 23
-119.0164909436
 33
0.0
 14
-124.909727
 24
-119.0164909436
 34
0.0
100
AcDbRotatedDimension
1001
ACAD
1000
DSTYLE
1002
{
1070
         6
1000
SOLID
1070
         7
1000
SOLID
1070
        41
1040
1.0000000298
1070
        42
1040
0.0625
1070
       271
1070
         4
1070
       284
1070
         8
1070
       340
1005
15F
1070
       343
1005
0
1070
       344
1005
0
1002
}
  0
DIMENSION
  5
174
100
AcDbEntity
  8
PV
  6
CONTINUOUS
 62
       110
100
AcDbDimension
  2
*D3
 10
-150.162723
 20
-34.8794435
 30
0.0
 11
-150.162723
 21
-66.5954454226
 31
0.0
 70
       128
  1
\A1;<>
  3
MXDIMSTYLE
100
AcDbAlignedDimension
 13
-143.3089231801
 23
-98.9114435
 33
0.0
 14
-147.3049198937
 24
-34.8794435
 34
0.0
 50
90.0
100
AcDbRotatedDimension
1001
ACAD
1000
DSTYLE
1002
{
1070
         6
1000
SOLID
1070
         7
1000
SOLID
1070
        41
1040
1.0000000298
1070
        42
1040
0.0625
1070
       271
1070
         4
1070
       284
1070
         8
1070
       343
1005
0
1070
       344
1005
0
1002
}
  0
DIMENSION
  5
183
100
AcDbEntity
  8
PV
  6
CONTINUOUS
 62
       110
100
AcDbDimension
  2
*D4
 10
-235.920227
 20
-273.345357
 30
0.0
 11
-203.6042266033
 21
-273.345357
 31
0.0
 70
       128
  1
\A1;<>
  3
MXDIMSTYLE
100
AcDbAlignedDimension
 13
-171.888227
 23
-263.2155943505
 33
0.0
 14
-235.920227
 24
-263.2155943505
 34
0.0
100
AcDbRotatedDimension
1001
ACAD
1000
DSTYLE
1002
{
1070
         6
1000
SOLID
1070
         7
1000
SOLID
1070
        41
1040
1.0000000298
1070
        42
1040
0.0625
1070
       271
1070
         4
1070
       284
1070
         8
1070
       343
1005
0
1070
       344
1005
0
1002
}
  0
DIMENSION
  5
192
100
AcDbEntity
  8
PV
  6
CONTINUOUS
 62
       110
100
AcDbDimension
  2
*D5
 10
-248.926727
 20
-283.09964
 30
0.0
 11
-203.6042268474
 21
-283.09964
 31
0.0
 70
       128
  1
\A1;<>
  3
MXDIMSTYLE
100
AcDbAlignedDimension
 13
-158.881727
 23
-257.9129429938
 33
0.0
 14
-248.926727
 24
-257.9129429938
 34
0.0
100
AcDbRotatedDimension
1001
ACAD
1000
DSTYLE
1002
{
1070
         6
1000
SOLID
1070
         7
1000
SOLID
1070
        41
1040
1.0000000298
1070
        42
1040
0.0625
1070
       271
1070
         4
1070
       284
1070
         8
1070
       343
1005
0
1070
       344
1005
0
1002
}
  0
DIMENSION
  5
1A2
100
AcDbEntity
  8
PV
  6
CONTINUOUS
 62
       110
100
AcDbDimension
  2
*D6
 10
-258.900168
 20
-226.897444
 30
0.0
 11
-258.900168
 21
-242.1051942054
 31
0.0
 70
       128
  1
\A1;<>
  3
MXDIMSTYLE
100
AcDbAlignedDimension
 13
-248.926726876
 23
-257.912943
 33
0.0
 14
-248.926726876
 24
-226.897444
 34
0.0
 50
90.0
100
AcDbRotatedDimension
1001
ACAD
1000
DSTYLE
1002
{
1070
         6
1000
SOLID
1070
         7
1000
SOLID
1070
        41
1040
1.0000000298
1070
        42
1040
0.0625
1070
       271
1070
         4
1070
       284
1070
         8
1070
       340
1005
19C
1070
       343
1005
0
1070
       344
1005
0
1002
}
  0
DIMENSION
  5
1B1
100
AcDbEntity
  8
PV
  6
CONTINUOUS
 62
       110
100
AcDbDimension
  2
*D7
 10
-147.394947
 20
-194.381193
 30
0.0
 11
-147.394947
 21
-225.8470708076
 31
0.0
 70
       128
  1
\A1;<>
  3
MXDIMSTYLE
100
AcDbAlignedDimension
 13
-135.915227838
 23
-257.912943
 33
0.0
 14
-113.9042281584
 24
-194.381193
 34
0.0
 50
90.0
100
AcDbRotatedDimension
1001
ACAD
1000
DSTYLE
1002
{
1070
         6
1000
SOLID
1070
         7
1000
SOLID
1070
        41
1040
1.0000000298
1070
        42
1040
0.0625
1070
       271
1070
         4
1070
       284
1070
         8
1070
       340
1005
19C
1070
       343
1005
0
1070
       344
1005
0
1002
}
  0
DIMENSION
  5
1C0
100
AcDbEntity
  8
PV
  6
CONTINUOUS
 62
       110
100
AcDbDimension
  2
*D8
 10
28.1667725
 20
-177.654643
 30
0.0
 11
-12.0534798499
 21
-177.654643
 31
0.0
 70
       128
  1
\A1;<>
  3
MXDIMSTYLE
100
AcDbAlignedDimension
 13
-52.8737275
 23
-216.8924435981
 33
0.0
 14
28.1667725
 24
-194.3811940559
 34
0.0
100
AcDbRotatedDimension
1001
ACAD
1000
DSTYLE
1002
{
1070
         6
1000
SOLID
1070
         7
1000
SOLID
1070
        41
1040
1.0000000298
1070
        42
1040
0.0625
1070
       271
1070
         4
1070
       284
1070
         8
1070
       340
1005
19C
1070
       343
1005
0
1070
       344
1005
0
1002
}
  0
DIMENSION
  5
1CD
100
AcDbEntity
  8
PV
  6
CONTINUOUS
 62
       110
100
AcDbDimension
  2
*D9
 10
36.1707725
 20
-167.100345
 30
0.0
 11
32.4687725458
 21
-167.100345
 31
0.0
 70
       128
  1
\A1;<>
  3
MXDIMSTYLE
100
AcDbAlignedDimension
 13
28.1667725
 23
-194.3811925494
 33
0.0
 14
36.1707725
 24
-206.8874429309
 34
0.0
100
AcDbRotatedDimension
1001
ACAD
1000
DSTYLE
1002
{
1070
         6
1000
SOLID
1070
         7
1000
SOLID
1070
        41
1040
1.0000000298
1070
        42
1040
0.0625
1070
       271
1070
         4
1070
       284
1070
         8
1070
       343
1005
0
1070
       344
1005
0
1002
}
  0
DIMENSION
  5
1DC
100
AcDbEntity
  8
PV
  6
CONTINUOUS
 62
       110
100
AcDbDimension
  2
*D10
 10
86.1957725
 20
-167.100345
 30
0.0
 11
61.4832725
 21
-167.100345
 31
0.0
 70
       128
  1
\A1;<>
  3
MXDIMSTYLE
100
AcDbAlignedDimension
 13
36.1707725
 23
-206.8874429309
 33
0.0
 14
86.1957725
 24
-209.8889421069
 34
0.0
100
AcDbRotatedDimension
1001
ACAD
1000
DSTYLE
1002
{
1070
         6
1000
SOLID
1070
         7
1000
SOLID
1070
        41
1040
1.0000000298
1070
        42
1040
0.0625
1070
       271
1070
         4
1070
       284
1070
         8
1070
       343
1005
0
1070
       344
1005
0
1002
}
  0
DIMENSION
  5
1EC
100
AcDbEntity
  8
PV
  6
CONTINUOUS
 62
       110
100
AcDbDimension
  2
*D11
 10
97.2012725
 20
-167.100345
 30
0.0
 11
91.9985226106
 21
-167.100345
 31
0.0
 70
       128
  1
\A1;<>
  3
MXDIMSTYLE
100
AcDbAlignedDimension
 13
86.1957725
 23
-209.8889421069
 33
0.0
 14
97.2012725
 24
-221.8949426257
 34
0.0
100
AcDbRotatedDimension
1001
ACAD
1000
DSTYLE
1002
{
1070
         6
1000
SOLID
1070
         7
1000
SOLID
1070
        41
1040
1.0000000298
1070
        42
1040
0.0625
1070
       271
1070
         4
1070
       284
1070
         8
1070
       340
1005
1E6
1070
       343
1005
0
1070
       344
1005
0
1002
}
  0
DIMENSION
  5
1FB
100
AcDbEntity
  8
PV
  6
CONTINUOUS
 62
       110
100
AcDbDimension
  2
*D12
 10
28.1667725
 20
-167.100345
 30
0.0
 11
-42.5687243755
 21
-167.100345
 31
0.0
 70
       128
  1
\A1;<>
  3
MXDIMSTYLE
100
AcDbAlignedDimension
 13
-113.904227
 23
-194.3811925494
 33
0.0
 14
28.1667725
 24
-194.3811925494
 34
0.0
100
AcDbRotatedDimension
1001
ACAD
1000
DSTYLE
1002
{
1070
         6
1000
SOLID
1070
         7
1000
SOLID
1070
        41
1040
1.0000000298
1070
        42
1040
0.0625
1070
       271
1070
         4
1070
       284
1070
         8
1070
       340
1005
15F
1070
       343
1005
0
1070
       344
1005
0
1002
}
  0
DIMENSION
  5
20A
100
AcDbEntity
  8
PV
  6
CONTINUOUS
 62
       110
100
AcDbDimension
  2
*D13
 10
28.1667725
 20
-281.438575
 30
0.0
 11
39.472272851
 21
-281.438575
 31
0.0
 70
       128
  1
\A1;<>
  3
MXDIMSTYLE
100
AcDbAlignedDimension
 13
50.1777725
 23
-257.9129440491
 33
0.0
 14
28.1667725
 24
-249.4086944763
 34
0.0
100
AcDbRotatedDimension
1001
ACAD
1000
DSTYLE
1002
{
1070
         6
1000
SOLID
1070
         7
1000
SOLID
1070
        41
1040
1.0000000298
1070
        42
1040
0.0625
1070
       271
1070
         4
1070
       284
1070
         8
1070
       343
1005
0
1070
       344
1005
0
1002
}
  0
DIMENSION
  5
219
100
AcDbEntity
  8
PV
  6
CONTINUOUS
 62
       110
100
AcDbDimension
  2
*D14
 10
-135.915227
 20
-281.438575
 30
0.0
 11
-124.609726649
 21
-281.438575
 31
0.0
 70
       128
  1
\A1;<>
  3
MXDIMSTYLE
100
AcDbAlignedDimension
 13
-113.904227
 23
-249.4086944763
 33
0.0
 14
-135.915227
 24
-257.9129440491
 34
0.0
100
AcDbRotatedDimension
1001
ACAD
1000
DSTYLE
1002
{
1070
         6
1000
SOLID
1070
         7
1000
SOLID
1070
        41
1040
1.0000000298
1070
        42
1040
0.0625
1070
       271
1070
         4
1070
       284
1070
         8
1070
       343
1005
0
1070
       344
1005
0
1002
}
  0
DIMENSION
  5
229
100
AcDbEntity
  8
PV
  6
CONTINUOUS
 62
       110
100
AcDbDimension
  2
*D15
 10
311.162023
 20
-205.586054
 30
0.0
 11
256.4345223896
 21
-205.586054
 31
0.0
 70
       128
  1
\A1;<>
  3
MXDIMSTYLE
100
AcDbAlignedDimension
 13
201.107023
 23
-218.8934432593
 33
0.0
 14
311.162023
 24
-218.8934432593
 34
0.0
100
AcDbRotatedDimension
1001
ACAD
1000
DSTYLE
1002
{
1070
         6
1000
SOLID
1070
         7
1000
SOLID
1070
        41
1040
1.0000000298
1070
        42
1040
0.0625
1070
       271
1070
         4
1070
       284
1070
         8
1070
       340
1005
223
1070
       343
1005
0
1070
       344
1005
0
1002
}
  0
DIMENSION
  5
239
100
AcDbEntity
  8
PV
  6
CONTINUOUS
 62
       110
100
AcDbDimension
  2
*D16
 10
178.595773
 20
-268.020636
 30
0.0
 11
245.1788992207
 21
-268.020636
 31
0.0
 70
       128
  1
\A1;<>
  3
MXDIMSTYLE
100
AcDbAlignedDimension
 13
311.162023
 23
-224.8964447158
 33
0.0
 14
178.595773
 24
-267.0675179737
 34
0.0
100
AcDbRotatedDimension
1001
ACAD
1000
DSTYLE
1002
{
1070
         6
1000
SOLID
1070
         7
1000
SOLID
1070
        41
1040
1.0000000298
1070
        42
1040
0.0625
1070
       271
1070
         4
1070
       284
1070
         8
1070
       340
1005
233
1070
       343
1005
0
1070
       344
1005
0
1002
}
  0
DIMENSION
  5
247
100
AcDbEntity
  8
PV
  6
CONTINUOUS
 62
       110
100
AcDbDimension
  2
*D17
 10
327.898097
 20
-224.896444
 30
0.0
 11
327.898097
 21
-221.594942939
 31
0.0
 70
       128
  1
\A1;\U+2205<>
  3
MXDIMSTYLE
100
AcDbAlignedDimension
 13
311.1620225524
 23
-218.893443
 33
0.0
 14
311.1620225524
 24
-224.896444
 34
0.0
 50
90.0
100
AcDbRotatedDimension
1001
ACAD
1000
DSTYLE
1002
{
1070
         6
1000
SOLID
1070
         7
1000
SOLID
1070
        41
1040
1.0000000298
1070
        42
1040
0.0625
1070
       271
1070
         4
1070
       284
1070
         8
1070
       340
1005
241
1070
       343
1005
0
1070
       344
1005
0
1002
}
  0
DIMENSION
  5
256
100
AcDbEntity
  8
PV
  6
CONTINUOUS
 62
       110
100
AcDbDimension
  2
*D18
 10
107.793545
 20
-233.900943
 30
0.0
 11
107.793545
 21
-221.5949433744
 31
0.0
 70
       128
  1
\A1;\U+2205<>
  3
MXDIMSTYLE
100
AcDbAlignedDimension
 13
94.6950209064
 23
-209.888944
 33
0.0
 14
94.6950209064
 24
-233.900943
 34
0.0
 50
90.0
100
AcDbRotatedDimension
1001
ACAD
1000
DSTYLE
1002
{
1070
         6
1000
SOLID
1070
         7
1000
SOLID
1070
        41
1040
1.0000000298
1070
        42
1040
0.0625
1070
       271
1070
         4
1070
       284
1070
         8
1070
       340
1005
241
1070
       343
1005
0
1070
       344
1005
0
1002
}
  0
ENDSEC
  0
SECTION
  2
OBJECTS
  0
DICTIONARY
  5
19
100
AcDbDictionary
  3
ACAD_GROUP
350
1A
  3
ACAD_MLINESTYLE
350
1B
  0
DICTIONARY
  5
1A
102
{ACAD_REACTORS
330
19
102
}
100
AcDbDictionary
  0
DICTIONARY
  5
1B
102
{ACAD_REACTORS
330
19
102
}
100
AcDbDictionary
  3
STANDARD
350
1C
  0
MLINESTYLE
  5
1C
102
{ACAD_REACTORS
330
1B
102
}
100
AcDbMlineStyle
  2
Standard
 70
         0
  3

 62
         0
 51
90.0
 52
90.0
 71
         2
 49
0.5
 62
       256
  6
ByLayer
 49
-0.5
 62
       256
  6
ByLayer
  0
ENDSEC
  0
EOF
