  0
SECTION
  2
HEADER
  9
$ACADVER
  1
AC1014
  9
$ACADMAINTVER
 70
         0
  9
$DWGCODEPAGE
  3
ANSI_932
  9
$INSBASE
 10
0.0
 20
0.0
 30
0.0
  9
$EXTMIN
 10
-251.9667705898
 20
-167.224547387
 30
0.0
  9
$EXTMAX
 10
320.343834
 20
110.0
 30
0.0
  9
$LIMMIN
 10
-251.9667705898
 20
-167.224547387
  9
$LIMMAX
 10
320.343834
 20
110.0
  9
$ORTHOMODE
 70
         0
  9
$REGENMODE
 70
         1
  9
$FILLMODE
 70
         1
  9
$QTEXTMODE
 70
         0
  9
$MIRRTEXT
 70
         1
  9
$DRAGMODE
 70
         2
  9
$LTSCALE
 40
1.0
  9
$OSMODE
 70
         0
  9
$ATTMODE
 70
         1
  9
$TEXTSIZE
 40
3.2000000477
  9
$TRACEWID
 40
0.05
  9
$TEXTSTYLE
  7
MX_NOTE_STANDARD
  9
$CLAYER
  8
0
  9
$CELTYPE
  6
CONTINUOUS
  9
$CECOLOR
 62
       256
  9
$CELTSCALE
 40
1.0
  9
$DELOBJ
 70
         1
  9
$DISPSILH
 70
         0
  9
$DIMSCALE
 40
1.0
  9
$DIMASZ
 40
2.5
  9
$DIMEXO
 40
0.0
  9
$DIMDLI
 40
3.75
  9
$DIMRND
 40
0.0
  9
$DIMDLE
 40
0.0
  9
$DIMEXE
 40
2.5
  9
$DIMTP
 40
0.0
  9
$DIMTM
 40
0.0
  9
$DIMTXT
 40
3.2000000477
  9
$DIMCEN
 40
2.5
  9
$DIMTSZ
 40
0.0
  9
$DIMTOL
 70
         0
  9
$DIMLIM
 70
         0
  9
$DIMTIH
 70
         0
  9
$DIMTOH
 70
         0
  9
$DIMSE1
 70
         0
  9
$DIMSE2
 70
         0
  9
$DIMTAD
 70
         1
  9
$DIMZIN
 70
         8
  9
$DIMBLK
  1

  9
$DIMASO
 70
         1
  9
$DIMSHO
 70
         1
  9
$DIMPOST
  1

  9
$DIMAPOST
  1

  9
$DIMALT
 70
         0
  9
$DIMALTD
 70
         4
  9
$DIMALTF
 40
0.0393700787
  9
$DIMLFAC
 40
1.0
  9
$DIMTOFL
 70
         1
  9
$DIMTVP
 40
0.0
  9
$DIMTIX
 70
         0
  9
$DIMSOXD
 70
         0
  9
$DIMSAH
 70
         1
  9
$DIMBLK1
  1
_OPEN30
  9
$DIMBLK2
  1
_OPEN30
  9
$DIMSTYLE
  2
MXDIMSTYLE
  9
$DIMCLRD
 70
         0
  9
$DIMCLRE
 70
         0
  9
$DIMCLRT
 70
         0
  9
$DIMTFAC
 40
1.0
  9
$DIMGAP
 40
1.0
  9
$DIMJUST
 70
         0
  9
$DIMSD1
 70
         0
  9
$DIMSD2
 70
         0
  9
$DIMTOLJ
 70
         0
  9
$DIMTZIN
 70
         0
  9
$DIMALTZ
 70
         0
  9
$DIMALTTZ
 70
         0
  9
$DIMFIT
 70
         3
  9
$DIMUPT
 70
         0
  9
$DIMUNIT
 70
         2
  9
$DIMDEC
 70
         2
  9
$DIMTDEC
 70
         2
  9
$DIMALTU
 70
         2
  9
$DIMALTTD
 70
         4
  9
$DIMTXSTY
  7
MX_NOTE_STANDARD
  9
$DIMAUNIT
 70
         0
  9
$LUNITS
 70
         2
  9
$LUPREC
 70
         4
  9
$SKETCHINC
 40
0.1
  9
$FILLETRAD
 40
0.0
  9
$AUNITS
 70
         0
  9
$AUPREC
 70
         0
  9
$MENU
  1
acad
  9
$ELEVATION
 40
0.0
  9
$PELEVATION
 40
0.0
  9
$THICKNESS
 40
0.0
  9
$LIMCHECK
 70
         0
  9
$BLIPMODE
 70
         1
  9
$CHAMFERA
 40
0.0
  9
$CHAMFERB
 40
0.0
  9
$CHAMFERC
 40
0.0
  9
$CHAMFERD
 40
0.0
  9
$SKPOLY
 70
         0
  9
$TDCREATE
 40
2456603.443425926
  9
$TDUPDATE
 40
2456603.443425926
  9
$TDINDWG
 40
0.0000000000
  9
$TDUSRTIMER
 40
0.0000000000
  9
$USRTIMER
 70
         1
  9
$ANGBASE
 50
0.0
  9
$ANGDIR
 70
         0
  9
$PDMODE
 70
         0
  9
$PDSIZE
 40
0.0
  9
$PLINEWID
 40
0.0
  9
$COORDS
 70
         1
  9
$SPLFRAME
 70
         0
  9
$SPLINETYPE
 70
         6
  9
$SPLINESEGS
 70
         8
  9
$ATTDIA
 70
         0
  9
$ATTREQ
 70
         1
  9
$HANDLING
 70
         1
  9
$HANDSEED
  5
268
  9
$SURFTAB1
 70
         6
  9
$SURFTAB2
 70
         6
  9
$SURFTYPE
 70
         6
  9
$SURFU
 70
         6
  9
$SURFV
 70
         6
  9
$UCSNAME
  2

  9
$UCSORG
 10
0.0
 20
0.0
 30
0.0
  9
$UCSXDIR
 10
1.0
 20
0.0
 30
0.0
  9
$UCSYDIR
 10
0.0
 20
1.0
 30
0.0
  9
$PUCSNAME
  2

  9
$PUCSORG
 10
0.0
 20
0.0
 30
0.0
  9
$PUCSXDIR
 10
1.0
 20
0.0
 30
0.0
  9
$PUCSYDIR
 10
0.0
 20
1.0
 30
0.0
  9
$USERI1
 70
         0
  9
$USERI2
 70
         0
  9
$USERI3
 70
         0
  9
$USERI4
 70
         0
  9
$USERI5
 70
         0
  9
$USERR1
 40
0.0
  9
$USERR2
 40
0.0
  9
$USERR3
 40
0.0
  9
$USERR4
 40
0.0
  9
$USERR5
 40
0.0
  9
$WORLDVIEW
 70
         1
  9
$SHADEDGE
 70
         3
  9
$SHADEDIF
 70
        70
  9
$TILEMODE
 70
         1
  9
$MAXACTVP
 70
        16
  9
$PINSBASE
 10
0.0
 20
0.0
 30
0.0
  9
$PLIMCHECK
 70
         0
  9
$PEXTMIN
 10
1.0000000000E+20
 20
1.0000000000E+20
 30
1.0000000000E+20
  9
$PEXTMAX
 10
-1.0000000000E+20
 20
-1.0000000000E+20
 30
-1.0000000000E+20
  9
$PLIMMIN
 10
0.0
 20
0.0
  9
$PLIMMAX
 10
12.0
 20
9.0
  9
$UNITMODE
 70
         0
  9
$VISRETAIN
 70
         0
  9
$PLINEGEN
 70
         1
  9
$PSLTSCALE
 70
         0
  9
$TREEDEPTH
 70
      3020
  9
$PICKSTYLE
 70
         1
  9
$CMLSTYLE
  2
Standard
  9
$CMLJUST
 70
         0
  9
$CMLSCALE
 40
1.0
  9
$PROXYGRAPHICS
 70
         0
  9
$MEASUREMENT
 70
         1
  0
ENDSEC
  0
SECTION
  2
CLASSES
  0
CLASS
  1
LWPOLYLINE
  2
AcDbPolyline
  3
"AutoCAD"
 90
        0
280
         0
281
         1
  0
CLASS
  1
IMAGE
  2
AcDbRasterImage
  3
ISM
 90
      127
280
         0
281
         1
  0
CLASS
  1
OLE2FRAME
  2
AcDbOle2Frame
  3
""
 90
        0
280
         0
281
         1
  0
CLASS
  1
HATCH
  2
AcDbHatch
  3
"ACAD_SEDONA"
 90
        0
280
         0
281
         1
  0
CLASS
  1
DICTIONARYVAR
  2
AcDbDictionaryVar
  3
"AutoCAD"
 90
        0
280
         0
281
         0
  0
CLASS
  1
RASTERVARIABLES
  2
AcDbRasterVariables
  3
ISM
 90
        0
280
         0
281
         0
  0
CLASS
  1
IMAGEDEF
  2
AcDbRasterImageDef
  3
ISM
 90
        0
280
         0
281
         0
  0
CLASS
  1
IMAGEDEF_REACTOR
  2
AcDbRasterImageDefReactor
  3
ISM
 90
        1
280
         0
281
         0
  0
CLASS
  1
IDBUFFER
  2
AcDbIdBuffer
  3
"Acad"
 90
        0
280
         0
281
         0
  0
CLASS
  1
SPATIAL_FILTER
  2
AcDbSpatialFilter
  3
"Acad"
 90
        0
280
         0
281
         0
  0
CLASS
  1
XRECORD
  2
AcDbXrecord
  3
"<Built In>"
 90
        0
280
         0
281
         0
  0
CLASS
  1
SORTENTSTABLE
  2
AcDbSortentsTable
  3
"AutoCAD"
 90
        0
280
         0
281
         0
  0
CLASS
  1
LAYER_INDEX
  2
AcDbLayerIndex
  3
"Acad"
 90
        0
280
         0
281
         0
  0
CLASS
  1
SPATIAL_INDEX
  2
AcDbSpatialIndex
  3
"Acad"
 90
        0
280
         0
281
         0
  0
CLASS
  1
OBJECT_PTR
  2
CAseDLPNTableRecord
  3
"ASE-LPNTableRecord"
 90
        1
280
         0
281
         0
  0
CLASS
  1
LAYOUT
  2
AcDbLayout
  3
"AutoCAD 2000"
 90
        0
280
         0
281
         0
  0
CLASS
  1
PLOTSETTINGS
  2
AcDbPlotSettings
  3
"AutoCAD 2000"
 90
        0
280
         0
281
         0
  0
CLASS
  1
ACDBDICTIONARYWDFLT
  2
AcDbDictionaryWithDefault
  3
"AutoCAD 2000"
 90
        0
280
         0
281
         0
  0
CLASS
  1
ACDBPLACEHOLDER
  2
AcDbPlaceHolder
  3
"AutoCAD 2000"
 90
        0
280
         0
281
         0
  0
ENDSEC
  0
SECTION
  2
TABLES
  0
TABLE
  2
VPORT
  5
7
100
AcDbSymbolTable
 70
         1
  0
VPORT
  5
15
100
AcDbSymbolTableRecord
100
AcDbViewportTableRecord
  2
*ACTIVE
 70
         0
 10
0.0
 20
0.0
 11
1.0
 21
1.0
 12
34.1885317051
 22
-28.6122736935
 13
0.0
 23
0.0
 14
1.0
 24
1.0
 15
0.0
 25
0.0
 16
0.0
 26
0.0
 36
1.0
 17
0.0
 27
0.0
 37
0.0
 40
279.9967928609
 41
1.7320508076
 42
50.0
 43
0.0
 44
0.0
 50
0.0
 51
0.0
 71
         0
 72
       100
 73
         1
 74
         1
 75
         0
 76
         0
 77
         0
 78
         0
  0
ENDTAB
  0
TABLE
  2
LTYPE
  5
4
100
AcDbSymbolTable
 70
         5
  0
LTYPE
  5
11
100
AcDbSymbolTableRecord
100
AcDbLinetypeTableRecord
  2
BYBLOCK
 70
        64
  3

 72
        65
 73
         0
 40
0.0
  0
LTYPE
  5
12
100
AcDbSymbolTableRecord
100
AcDbLinetypeTableRecord
  2
BYLAYER
 70
        64
  3

 72
        65
 73
         0
 40
0.0
  0
LTYPE
  5
13
100
AcDbSymbolTableRecord
100
AcDbLinetypeTableRecord
  2
CONTINUOUS
 70
        64
  3
Solid line
 72
        65
 73
         0
 40
0.0
  0
LTYPE
  5
54
100
AcDbSymbolTableRecord
100
AcDbLinetypeTableRecord
  2
CENTER
 70
        64
  3
Center ____ _ ____ _ ____ _ ____ _ ____ _ ____
 72
        65
 73
         4
 40
50.8
 49
31.75
 74
         0
 49
-6.35
 74
         0
 49
6.35
 74
         0
 49
-6.35
 74
         0
  0
LTYPE
  5
95
100
AcDbSymbolTableRecord
100
AcDbLinetypeTableRecord
  2
PHANTOM
 70
        64
  3
Phantom ______  __  __  ______  __  __  ______
 72
        65
 73
         6
 40
63.5
 49
31.75
 74
         0
 49
-6.35
 74
         0
 49
6.35
 74
         0
 49
-6.35
 74
         0
 49
6.35
 74
         0
 49
-6.35
 74
         0
  0
ENDTAB
  0
TABLE
  2
LAYER
  5
2
100
AcDbSymbolTable
 70
         3
  0
LAYER
  5
14
100
AcDbSymbolTableRecord
100
AcDbLayerTableRecord
  2
0
 70
         0
 62
         7
  6
CONTINUOUS
  0
LAYER
  5
1D
100
AcDbSymbolTableRecord
100
AcDbLayerTableRecord
  2
PV
 70
         0
 62
         3
  6
CONTINUOUS
  0
LAYER
  5
1E
100
AcDbSymbolTableRecord
100
AcDbLayerTableRecord
  2
DEFPOINTS
 70
         0
 62
         7
  6
CONTINUOUS
  0
ENDTAB
  0
TABLE
  2
STYLE
  5
3
100
AcDbSymbolTable
 70
         6
  0
STYLE
  5
17
100
AcDbSymbolTableRecord
100
AcDbTextStyleTableRecord
  2
MX_NOTE_STANDARD
 70
         0
 40
0.0
 41
1.0
 50
0.0
 71
         0
 42
3.2000000477
  3
txt.shx
  4
extfont.shx
  0
STYLE
  5
1E6
100
AcDbSymbolTableRecord
100
AcDbTextStyleTableRecord
  2
MX_DIMTXSTY_2
 70
         0
 40
0.0
 41
1.1
 50
0.0
 71
         0
 42
3.2000000477
  3
txt.shx
  4
extfont.shx
  0
STYLE
  5
1F6
100
AcDbSymbolTableRecord
100
AcDbTextStyleTableRecord
  2
MX_DIMTXSTY_3
 70
         0
 40
0.0
 41
1.15
 50
0.0
 71
         0
 42
3.2000000477
  3
txt.shx
  4
extfont.shx
  0
STYLE
  5
206
100
AcDbSymbolTableRecord
100
AcDbTextStyleTableRecord
  2
MX_DIMTXSTY_4
 70
         0
 40
0.0
 41
1.3
 50
0.0
 71
         0
 42
3.2000000477
  3
txt.shx
  4
extfont.shx
  0
STYLE
  5
215
100
AcDbSymbolTableRecord
100
AcDbTextStyleTableRecord
  2
MX_DIMTXSTY_5
 70
         0
 40
0.0
 41
0.85
 50
0.0
 71
         0
 42
3.2000000477
  3
txt.shx
  4
extfont.shx
  0
STYLE
  5
252
100
AcDbSymbolTableRecord
100
AcDbTextStyleTableRecord
  2
MX_DIMTXSTY_6
 70
         0
 40
0.0
 41
1.05
 50
0.0
 71
         0
 42
3.2000000477
  3
txt.shx
  4
extfont.shx
  0
ENDTAB
  0
TABLE
  2
VIEW
  5
5
100
AcDbSymbolTable
 70
         0
  0
ENDTAB
  0
TABLE
  2
UCS
  5
6
100
AcDbSymbolTable
 70
         0
  0
ENDTAB
  0
TABLE
  2
APPID
  5
8
100
AcDbSymbolTable
 70
         1
  0
APPID
  5
16
100
AcDbSymbolTableRecord
100
AcDbRegAppTableRecord
  2
ACAD
 70
         0
  0
ENDTAB
  0
TABLE
  2
DIMSTYLE
  5
9
100
AcDbSymbolTable
 70
         1
  0
DIMSTYLE
105
18
100
AcDbSymbolTableRecord
100
AcDbDimStyleTableRecord
  2
MXDIMSTYLE
 70
         0
  3

  4

  5

  6
_OPEN30
  7
_OPEN30
 40
1.0
 41
2.5
 42
0.0
 43
3.75
 44
2.5
 45
0.0
 46
0.0
 47
0.0
 48
0.0
 71
         0
 72
         0
 73
         0
 74
         0
 75
         0
 76
         0
 77
         1
 78
         8
140
3.2000000477
141
2.5
142
0.0
143
0.0393700787
144
1.0
145
0.0
146
1.0
147
1.0
170
         0
171
         4
172
         1
173
         1
174
         0
175
         0
176
         0
177
         0
178
         0
270
         2
271
         2
272
         2
273
         2
274
         4
275
         0
280
         0
281
         0
282
         0
283
         0
284
         0
285
         0
286
         0
287
         3
288
         0
340
17
  0
ENDTAB
  0
TABLE
  2
BLOCK_RECORD
  5
1
100
AcDbSymbolTable
 70
        15
  0
BLOCK_RECORD
  5
A
100
AcDbSymbolTableRecord
100
AcDbBlockTableRecord
  2
*MODEL_SPACE
  0
BLOCK_RECORD
  5
B
100
AcDbSymbolTableRecord
100
AcDbBlockTableRecord
  2
*PAPER_SPACE
  0
BLOCK_RECORD
  5
1F
100
AcDbSymbolTableRecord
100
AcDbBlockTableRecord
  2
ARROW
  0
BLOCK_RECORD
  5
20
100
AcDbSymbolTableRecord
100
AcDbBlockTableRecord
  2
_OPEN30
  0
BLOCK_RECORD
  5
19C
100
AcDbSymbolTableRecord
100
AcDbBlockTableRecord
  2
*D2
  0
BLOCK_RECORD
  5
1AB
100
AcDbSymbolTableRecord
100
AcDbBlockTableRecord
  2
*D3
  0
BLOCK_RECORD
  5
1BA
100
AcDbSymbolTableRecord
100
AcDbBlockTableRecord
  2
*D4
  0
BLOCK_RECORD
  5
1C9
100
AcDbSymbolTableRecord
100
AcDbBlockTableRecord
  2
*D5
  0
BLOCK_RECORD
  5
1DD
100
AcDbSymbolTableRecord
100
AcDbBlockTableRecord
  2
*D6
  0
BLOCK_RECORD
  5
1ED
100
AcDbSymbolTableRecord
100
AcDbBlockTableRecord
  2
*D7
  0
BLOCK_RECORD
  5
1FD
100
AcDbSymbolTableRecord
100
AcDbBlockTableRecord
  2
*D8
  0
BLOCK_RECORD
  5
20D
100
AcDbSymbolTableRecord
100
AcDbBlockTableRecord
  2
*D9
  0
BLOCK_RECORD
  5
21C
100
AcDbSymbolTableRecord
100
AcDbBlockTableRecord
  2
*D10
  0
BLOCK_RECORD
  5
22B
100
AcDbSymbolTableRecord
100
AcDbBlockTableRecord
  2
*D11
  0
BLOCK_RECORD
  5
23A
100
AcDbSymbolTableRecord
100
AcDbBlockTableRecord
  2
*D12
  0
BLOCK_RECORD
  5
249
100
AcDbSymbolTableRecord
100
AcDbBlockTableRecord
  2
*D13
  0
BLOCK_RECORD
  5
259
100
AcDbSymbolTableRecord
100
AcDbBlockTableRecord
  2
*D14
  0
ENDTAB
  0
ENDSEC
  0
SECTION
  2
BLOCKS
  0
BLOCK
  5
D
100
AcDbEntity
  8
0
100
AcDbBlockBegin
  2
*MODEL_SPACE
 70
         0
 10
0.0
 20
0.0
 30
0.0
  3
*MODEL_SPACE
  1

  0
ENDBLK
  5
E
100
AcDbEntity
  8
0
100
AcDbBlockEnd
  0
BLOCK
  5
F
100
AcDbEntity
 67
         1
  8
0
100
AcDbBlockBegin
  2
*PAPER_SPACE
 70
         0
 10
0.0
 20
0.0
 30
0.0
  3
*PAPER_SPACE
  1

  0
ENDBLK
  5
10
100
AcDbEntity
 67
         1
  8
0
100
AcDbBlockEnd
  0
BLOCK
  5
26
100
AcDbEntity
  8
0
100
AcDbBlockBegin
  2
ARROW
 70
         0
 10
0.0
 20
0.0
 30
0.0
  3
ARROW
  1

  0
LWPOLYLINE
  5
27
100
AcDbEntity
  8
0
  6
CONTINUOUS
 62
       254
100
AcDbPolyline
 90
        3
 70
         0
 10
2.74222011
 20
0.734775663
 10
0.0
 20
0.0
 10
2.74222011
 20
-0.734775663
  0
ENDBLK
  5
28
100
AcDbEntity
  8
0
100
AcDbBlockEnd
  0
BLOCK
  5
21
100
AcDbEntity
  8
0
  6
ByBlock
 62
         0
100
AcDbBlockBegin
  2
_OPEN30
 70
         2
 10
0.0
 20
0.0
 30
0.0
  3
_OPEN30
  1

  0
LINE
  5
22
100
AcDbEntity
  8
0
  6
ByBlock
 62
         0
100
AcDbLine
 10
-1.0
 20
0.267949
 30
0.0
 11
0.0
 21
0.0
 31
0.0
  0
LINE
  5
23
100
AcDbEntity
  8
0
  6
ByBlock
 62
         0
100
AcDbLine
 10
0.0
 20
0.0
 30
0.0
 11
-1.0
 21
-0.267949
 31
0.0
  0
LINE
  5
24
100
AcDbEntity
  8
0
  6
ByBlock
 62
         0
100
AcDbLine
 10
0.0
 20
0.0
 30
0.0
 11
-1.0
 21
0.0
 31
0.0
  0
ENDBLK
  5
25
100
AcDbEntity
  8
0
  6
ByBlock
 62
         0
100
AcDbBlockEnd
  0
BLOCK
  5
19D
100
AcDbEntity
  8
0
  6
ByBlock
 62
         0
100
AcDbBlockBegin
  2
*D2
 70
         1
 10
0.0
 20
0.0
 30
0.0
  3
*D2
  1

  0
LINE
  5
19E
100
AcDbEntity
  8
0
  6
CONTINUOUS
 62
       110
100
AcDbLine
 10
-230.706733
 20
-50.0804988
 30
0.0
 11
-172.677733
 21
-50.0804988
 31
0.0
  0
LINE
  5
19F
100
AcDbEntity
  8
0
  6
CONTINUOUS
 62
       110
100
AcDbLine
 10
-230.706733
 20
-65.7564126107
 30
0.0
 11
-230.706733
 21
-47.5804988
 31
0.0
  0
LINE
  5
1A0
100
AcDbEntity
  8
0
  6
CONTINUOUS
 62
       110
100
AcDbLine
 10
-172.677733
 20
-65.7564126107
 30
0.0
 11
-172.677733
 21
-47.5804988
 31
0.0
  0
LINE
  5
1A1
100
AcDbEntity
  8
0
  6
CONTINUOUS
 62
       110
100
AcDbLine
 10
-230.706733
 20
-50.0804988
 30
0.0
 11
-234.706733
 21
-50.0804988
 31
0.0
  0
LINE
  5
1A2
100
AcDbEntity
  8
0
  6
CONTINUOUS
 62
       110
100
AcDbLine
 10
-172.677733
 20
-50.0804988
 30
0.0
 11
-168.677733
 21
-50.0804988
 31
0.0
  0
SOLID
  5
1A3
100
AcDbEntity
  8
0
  6
CONTINUOUS
 62
       110
100
AcDbTrace
 10
-231.7067330298
 20
-49.913831795
 30
0.0
 11
-231.7067330298
 21
-50.247165805
 31
0.0
 12
-230.706733
 22
-50.0804988
 32
0.0
 13
-230.706733
 23
-50.0804988
 33
0.0
  0
SOLID
  5
1A4
100
AcDbEntity
  8
0
  6
CONTINUOUS
 62
       110
100
AcDbTrace
 10
-171.6777329702
 20
-50.247165805
 30
0.0
 11
-171.6777329702
 21
-49.913831795
 31
0.0
 12
-172.677733
 22
-50.0804988
 32
0.0
 13
-172.677733
 23
-50.0804988
 33
0.0
  0
MTEXT
  5
1A5
100
AcDbEntity
  8
0
  6
CONTINUOUS
 62
       110
100
AcDbMText
 10
-201.3922321913
 20
-47.4804987762
 30
0.0
 40
3.2000000477
 41
0.0
 71
         5
 72
         1
  1
\A1;58
  0
POINT
  5
1A6
100
AcDbEntity
  8
DEFPOINTS
  6
CONTINUOUS
 62
         0
100
AcDbPoint
 10
-230.706733
 20
-65.8189126107
 30
0.0
  0
POINT
  5
1A7
100
AcDbEntity
  8
DEFPOINTS
  6
CONTINUOUS
 62
         0
100
AcDbPoint
 10
-172.677733
 20
-65.8189126107
 30
0.0
  0
POINT
  5
1A8
100
AcDbEntity
  8
DEFPOINTS
  6
CONTINUOUS
 62
         0
100
AcDbPoint
 10
-172.677733
 20
-50.0804988
 30
0.0
  0
ENDBLK
  5
1A9
100
AcDbEntity
  8
0
  6
ByBlock
 62
         0
100
AcDbBlockEnd
  0
BLOCK
  5
1AC
100
AcDbEntity
  8
0
  6
ByBlock
 62
         0
100
AcDbBlockBegin
  2
*D3
 70
         1
 10
0.0
 20
0.0
 30
0.0
  3
*D3
  1

  0
LINE
  5
1AD
100
AcDbEntity
  8
0
  6
CONTINUOUS
 62
       110
100
AcDbLine
 10
-241.712233
 20
-39.0622376
 30
0.0
 11
-161.672233
 21
-39.0622376
 31
0.0
  0
LINE
  5
1AE
100
AcDbEntity
  8
0
  6
CONTINUOUS
 62
       110
100
AcDbLine
 10
-241.712233
 20
-63.9294994866
 30
0.0
 11
-241.712233
 21
-36.5622376
 31
0.0
  0
LINE
  5
1AF
100
AcDbEntity
  8
0
  6
CONTINUOUS
 62
       110
100
AcDbLine
 10
-161.672233
 20
-63.9294994866
 30
0.0
 11
-161.672233
 21
-36.5622376
 31
0.0
  0
LINE
  5
1B0
100
AcDbEntity
  8
0
  6
CONTINUOUS
 62
       110
100
AcDbLine
 10
-241.712233
 20
-39.0622376
 30
0.0
 11
-245.712233
 21
-39.0622376
 31
0.0
  0
LINE
  5
1B1
100
AcDbEntity
  8
0
  6
CONTINUOUS
 62
       110
100
AcDbLine
 10
-161.672233
 20
-39.0622376
 30
0.0
 11
-157.672233
 21
-39.0622376
 31
0.0
  0
SOLID
  5
1B2
100
AcDbEntity
  8
0
  6
CONTINUOUS
 62
       110
100
AcDbTrace
 10
-242.7122330298
 20
-38.895570595
 30
0.0
 11
-242.7122330298
 21
-39.228904605
 31
0.0
 12
-241.712233
 22
-39.0622376
 32
0.0
 13
-241.712233
 23
-39.0622376
 33
0.0
  0
SOLID
  5
1B3
100
AcDbEntity
  8
0
  6
CONTINUOUS
 62
       110
100
AcDbTrace
 10
-160.6722329702
 20
-39.228904605
 30
0.0
 11
-160.6722329702
 21
-38.895570595
 31
0.0
 12
-161.672233
 22
-39.0622376
 32
0.0
 13
-161.672233
 23
-39.0622376
 33
0.0
  0
MTEXT
  5
1B4
100
AcDbEntity
  8
0
  6
CONTINUOUS
 62
       110
100
AcDbMText
 10
-201.3922333052
 20
-36.4622375762
 30
0.0
 40
3.2000000477
 41
0.0
 71
         5
 72
         1
  1
\A1;80
  0
POINT
  5
1B5
100
AcDbEntity
  8
DEFPOINTS
  6
CONTINUOUS
 62
         0
100
AcDbPoint
 10
-241.712233
 20
-63.9919994866
 30
0.0
  0
POINT
  5
1B6
100
AcDbEntity
  8
DEFPOINTS
  6
CONTINUOUS
 62
         0
100
AcDbPoint
 10
-161.672233
 20
-63.9919994866
 30
0.0
  0
POINT
  5
1B7
100
AcDbEntity
  8
DEFPOINTS
  6
CONTINUOUS
 62
         0
100
AcDbPoint
 10
-161.672233
 20
-39.0622376
 30
0.0
  0
ENDBLK
  5
1B8
100
AcDbEntity
  8
0
  6
ByBlock
 62
         0
100
AcDbBlockEnd
  0
BLOCK
  5
1BB
100
AcDbEntity
  8
0
  6
ByBlock
 62
         0
100
AcDbBlockBegin
  2
*D4
 70
         1
 10
0.0
 20
0.0
 30
0.0
  3
*D4
  1

  0
LINE
  5
1BC
100
AcDbEntity
  8
0
  6
CONTINUOUS
 62
       110
100
AcDbLine
 10
-148.523428
 20
-74.9975
 30
0.0
 11
-148.523428
 21
-133.0265
 31
0.0
  0
LINE
  5
1BD
100
AcDbEntity
  8
0
  6
CONTINUOUS
 62
       110
100
AcDbLine
 10
-163.8088322053
 20
-74.9975
 30
0.0
 11
-146.023428
 21
-74.9975
 31
0.0
  0
LINE
  5
1BE
100
AcDbEntity
  8
0
  6
CONTINUOUS
 62
       110
100
AcDbLine
 10
-163.8088322053
 20
-133.0265
 30
0.0
 11
-146.023428
 21
-133.0265
 31
0.0
  0
LINE
  5
1BF
100
AcDbEntity
  8
0
  6
CONTINUOUS
 62
       110
100
AcDbLine
 10
-148.523428
 20
-74.9975
 30
0.0
 11
-148.523428
 21
-70.9975
 31
0.0
  0
LINE
  5
1C0
100
AcDbEntity
  8
0
  6
CONTINUOUS
 62
       110
100
AcDbLine
 10
-148.523428
 20
-133.0265
 30
0.0
 11
-148.523428
 21
-137.0265
 31
0.0
  0
SOLID
  5
1C1
100
AcDbEntity
  8
0
  6
CONTINUOUS
 62
       110
100
AcDbTrace
 10
-148.356760995
 20
-73.9974999702
 30
0.0
 11
-148.690095005
 21
-73.9974999702
 31
0.0
 12
-148.523428
 22
-74.9975
 32
0.0
 13
-148.523428
 23
-74.9975
 33
0.0
  0
SOLID
  5
1C2
100
AcDbEntity
  8
0
  6
CONTINUOUS
 62
       110
100
AcDbTrace
 10
-148.690095005
 20
-134.0265000298
 30
0.0
 11
-148.356760995
 21
-134.0265000298
 31
0.0
 12
-148.523428
 22
-133.0265
 32
0.0
 13
-148.523428
 23
-133.0265
 33
0.0
  0
MTEXT
  5
1C3
100
AcDbEntity
  8
0
  6
CONTINUOUS
 62
       110
100
AcDbMText
 10
-151.1234280238
 20
-103.7120004272
 30
0.0
 40
3.2000000477
 41
0.0
 71
         5
 72
         1
  1
\A1;58
 11
0.0
 21
1.0
 31
0.0
  0
POINT
  5
1C4
100
AcDbEntity
  8
DEFPOINTS
  6
CONTINUOUS
 62
         0
100
AcDbPoint
 10
-163.8713322053
 20
-74.9975
 30
0.0
  0
POINT
  5
1C5
100
AcDbEntity
  8
DEFPOINTS
  6
CONTINUOUS
 62
         0
100
AcDbPoint
 10
-163.8713322053
 20
-133.0265
 30
0.0
  0
POINT
  5
1C6
100
AcDbEntity
  8
DEFPOINTS
  6
CONTINUOUS
 62
         0
100
AcDbPoint
 10
-148.523428
 20
-133.0265
 30
0.0
  0
ENDBLK
  5
1C7
100
AcDbEntity
  8
0
  6
ByBlock
 62
         0
100
AcDbBlockEnd
  0
BLOCK
  5
1CA
100
AcDbEntity
  8
0
  6
ByBlock
 62
         0
100
AcDbBlockBegin
  2
*D5
 70
         1
 10
0.0
 20
0.0
 30
0.0
  3
*D5
  1

  0
LINE
  5
1CB
100
AcDbEntity
  8
0
  6
CONTINUOUS
 62
       110
100
AcDbLine
 10
-139.200284
 20
-63.992
 30
0.0
 11
-139.200284
 21
-144.032
 31
0.0
  0
LINE
  5
1CC
100
AcDbEntity
  8
0
  6
CONTINUOUS
 62
       110
100
AcDbLine
 10
-161.6097326237
 20
-63.992
 30
0.0
 11
-136.700284
 21
-63.992
 31
0.0
  0
LINE
  5
1CD
100
AcDbEntity
  8
0
  6
CONTINUOUS
 62
       110
100
AcDbLine
 10
-161.6097326237
 20
-144.032
 30
0.0
 11
-136.700284
 21
-144.032
 31
0.0
  0
LINE
  5
1CE
100
AcDbEntity
  8
0
  6
CONTINUOUS
 62
       110
100
AcDbLine
 10
-139.200284
 20
-63.992
 30
0.0
 11
-139.200284
 21
-59.992
 31
0.0
  0
LINE
  5
1CF
100
AcDbEntity
  8
0
  6
CONTINUOUS
 62
       110
100
AcDbLine
 10
-139.200284
 20
-144.032
 30
0.0
 11
-139.200284
 21
-148.032
 31
0.0
  0
SOLID
  5
1D0
100
AcDbEntity
  8
0
  6
CONTINUOUS
 62
       110
100
AcDbTrace
 10
-139.033616995
 20
-62.9919999702
 30
0.0
 11
-139.366951005
 21
-62.9919999702
 31
0.0
 12
-139.200284
 22
-63.992
 32
0.0
 13
-139.200284
 23
-63.992
 33
0.0
  0
SOLID
  5
1D1
100
AcDbEntity
  8
0
  6
CONTINUOUS
 62
       110
100
AcDbTrace
 10
-139.366951005
 20
-145.0320000298
 30
0.0
 11
-139.033616995
 21
-145.0320000298
 31
0.0
 12
-139.200284
 22
-144.032
 32
0.0
 13
-139.200284
 23
-144.032
 33
0.0
  0
MTEXT
  5
1D2
100
AcDbEntity
  8
0
  6
CONTINUOUS
 62
       110
100
AcDbMText
 10
-141.8002840238
 20
-103.7120012207
 30
0.0
 40
3.2000000477
 41
0.0
 71
         5
 72
         1
  1
\A1;80
 11
0.0
 21
1.0
 31
0.0
  0
POINT
  5
1D3
100
AcDbEntity
  8
DEFPOINTS
  6
CONTINUOUS
 62
         0
100
AcDbPoint
 10
-161.6722326237
 20
-63.992
 30
0.0
  0
POINT
  5
1D4
100
AcDbEntity
  8
DEFPOINTS
  6
CONTINUOUS
 62
         0
100
AcDbPoint
 10
-161.6722326237
 20
-144.032
 30
0.0
  0
POINT
  5
1D5
100
AcDbEntity
  8
DEFPOINTS
  6
CONTINUOUS
 62
         0
100
AcDbPoint
 10
-139.200284
 20
-144.032
 30
0.0
  0
ENDBLK
  5
1D6
100
AcDbEntity
  8
0
  6
ByBlock
 62
         0
100
AcDbBlockEnd
  0
BLOCK
  5
1DE
100
AcDbEntity
  8
0
  6
ByBlock
 62
         0
100
AcDbBlockBegin
  2
*D6
 70
         1
 10
0.0
 20
0.0
 30
0.0
  3
*D6
  1

  0
LINE
  5
1DF
100
AcDbEntity
  8
0
  6
CONTINUOUS
 62
       110
100
AcDbLine
 10
-50.6617331
 20
-62.468921
 30
0.0
 11
30.3787669
 21
-62.468921
 31
0.0
  0
LINE
  5
1E0
100
AcDbEntity
  8
0
  6
CONTINUOUS
 62
       110
100
AcDbLine
 10
-50.6617331
 20
-98.9470017495
 30
0.0
 11
-50.6617331
 21
-59.968921
 31
0.0
  0
LINE
  5
1E1
100
AcDbEntity
  8
0
  6
CONTINUOUS
 62
       110
100
AcDbLine
 10
30.3787669
 20
-76.4357502999
 30
0.0
 11
30.3787669
 21
-59.968921
 31
0.0
  0
LINE
  5
1E2
100
AcDbEntity
  8
0
  6
CONTINUOUS
 62
       110
100
AcDbLine
 10
-50.6617331
 20
-62.468921
 30
0.0
 11
-54.6617331
 21
-62.468921
 31
0.0
  0
LINE
  5
1E3
100
AcDbEntity
  8
0
  6
CONTINUOUS
 62
       110
100
AcDbLine
 10
30.3787669
 20
-62.468921
 30
0.0
 11
34.3787669
 21
-62.468921
 31
0.0
  0
SOLID
  5
1E4
100
AcDbEntity
  8
0
  6
CONTINUOUS
 62
       110
100
AcDbTrace
 10
-51.6617331298
 20
-62.302253995
 30
0.0
 11
-51.6617331298
 21
-62.635588005
 31
0.0
 12
-50.6617331
 22
-62.468921
 32
0.0
 13
-50.6617331
 23
-62.468921
 33
0.0
  0
SOLID
  5
1E5
100
AcDbEntity
  8
0
  6
CONTINUOUS
 62
       110
100
AcDbTrace
 10
31.3787669298
 20
-62.635588005
 30
0.0
 11
31.3787669298
 21
-62.302253995
 31
0.0
 12
30.3787669
 22
-62.468921
 32
0.0
 13
30.3787669
 23
-62.468921
 33
0.0
  0
MTEXT
  5
1E7
100
AcDbEntity
  8
0
  6
CONTINUOUS
 62
       110
100
AcDbMText
 10
-9.5569929572
 20
-59.8689209762
 30
0.0
 40
3.2000000477
 41
0.0
 71
         5
 72
         1
  1
\A1;81
  7
MX_DIMTXSTY_2
  0
POINT
  5
1E8
100
AcDbEntity
  8
DEFPOINTS
  6
CONTINUOUS
 62
         0
100
AcDbPoint
 10
-50.6617331
 20
-99.0095017495
 30
0.0
  0
POINT
  5
1E9
100
AcDbEntity
  8
DEFPOINTS
  6
CONTINUOUS
 62
         0
100
AcDbPoint
 10
30.3787669
 20
-76.4982502999
 30
0.0
  0
POINT
  5
1EA
100
AcDbEntity
  8
DEFPOINTS
  6
CONTINUOUS
 62
         0
100
AcDbPoint
 10
30.3787669
 20
-62.468921
 30
0.0
  0
ENDBLK
  5
1EB
100
AcDbEntity
  8
0
  6
ByBlock
 62
         0
100
AcDbBlockEnd
  0
BLOCK
  5
1EE
100
AcDbEntity
  8
0
  6
ByBlock
 62
         0
100
AcDbBlockBegin
  2
*D7
 70
         1
 10
0.0
 20
0.0
 30
0.0
  3
*D7
  1

  0
LINE
  5
1EF
100
AcDbEntity
  8
0
  6
CONTINUOUS
 62
       110
100
AcDbLine
 10
303.374017
 20
-162.600495
 30
0.0
 11
170.807767
 21
-162.600495
 31
0.0
  0
LINE
  5
1F0
100
AcDbEntity
  8
0
  6
CONTINUOUS
 62
       110
100
AcDbLine
 10
303.374017
 20
-107.0760008289
 30
0.0
 11
303.374017
 21
-165.100495
 31
0.0
  0
LINE
  5
1F1
100
AcDbEntity
  8
0
  6
CONTINUOUS
 62
       110
100
AcDbLine
 10
170.807767
 20
-141.8613840533
 30
0.0
 11
170.807767
 21
-165.100495
 31
0.0
  0
LINE
  5
1F2
100
AcDbEntity
  8
0
  6
CONTINUOUS
 62
       110
100
AcDbLine
 10
303.374017
 20
-162.600495
 30
0.0
 11
307.374017
 21
-162.600495
 31
0.0
  0
LINE
  5
1F3
100
AcDbEntity
  8
0
  6
CONTINUOUS
 62
       110
100
AcDbLine
 10
170.807767
 20
-162.600495
 30
0.0
 11
166.807767
 21
-162.600495
 31
0.0
  0
SOLID
  5
1F4
100
AcDbEntity
  8
0
  6
CONTINUOUS
 62
       110
100
AcDbTrace
 10
304.3740170298
 20
-162.767162005
 30
0.0
 11
304.3740170298
 21
-162.433827995
 31
0.0
 12
303.374017
 22
-162.600495
 32
0.0
 13
303.374017
 23
-162.600495
 33
0.0
  0
SOLID
  5
1F5
100
AcDbEntity
  8
0
  6
CONTINUOUS
 62
       110
100
AcDbTrace
 10
169.8077669702
 20
-162.433827995
 30
0.0
 11
169.8077669702
 21
-162.767162005
 31
0.0
 12
170.807767
 22
-162.600495
 32
0.0
 13
170.807767
 23
-162.600495
 33
0.0
  0
MTEXT
  5
1F7
100
AcDbEntity
  8
0
  6
CONTINUOUS
 62
       110
100
AcDbMText
 10
237.3908932207
 20
-160.0004949762
 30
0.0
 40
3.2000000477
 41
0.0
 71
         5
 72
         1
  1
\A1;132.5
  7
MX_DIMTXSTY_3
 11
1.0
 21
0.0
 31
0.0
  0
POINT
  5
1F8
100
AcDbEntity
  8
DEFPOINTS
  6
CONTINUOUS
 62
         0
100
AcDbPoint
 10
303.374017
 20
-107.0135008289
 30
0.0
  0
POINT
  5
1F9
100
AcDbEntity
  8
DEFPOINTS
  6
CONTINUOUS
 62
         0
100
AcDbPoint
 10
170.807767
 20
-141.7988840533
 30
0.0
  0
POINT
  5
1FA
100
AcDbEntity
  8
DEFPOINTS
  6
CONTINUOUS
 62
         0
100
AcDbPoint
 10
170.807767
 20
-162.600495
 30
0.0
  0
ENDBLK
  5
1FB
100
AcDbEntity
  8
0
  6
ByBlock
 62
         0
100
AcDbBlockEnd
  0
BLOCK
  5
1FE
100
AcDbEntity
  8
0
  6
ByBlock
 62
         0
100
AcDbBlockBegin
  2
*D8
 70
         1
 10
0.0
 20
0.0
 30
0.0
  3
*D8
  1

  0
LINE
  5
1FF
100
AcDbEntity
  8
0
  6
CONTINUOUS
 62
       110
100
AcDbLine
 10
303.374017
 20
-118.440327
 30
0.0
 11
193.319017
 21
-118.440327
 31
0.0
  0
LINE
  5
200
100
AcDbEntity
  8
0
  6
CONTINUOUS
 62
       110
100
AcDbLine
 10
303.374017
 20
-107.0759995693
 30
0.0
 11
303.374017
 21
-120.940327
 31
0.0
  0
LINE
  5
201
100
AcDbEntity
  8
0
  6
CONTINUOUS
 62
       110
100
AcDbLine
 10
193.319017
 20
-107.0759995693
 30
0.0
 11
193.319017
 21
-120.940327
 31
0.0
  0
LINE
  5
202
100
AcDbEntity
  8
0
  6
CONTINUOUS
 62
       110
100
AcDbLine
 10
303.374017
 20
-118.440327
 30
0.0
 11
307.374017
 21
-118.440327
 31
0.0
  0
LINE
  5
203
100
AcDbEntity
  8
0
  6
CONTINUOUS
 62
       110
100
AcDbLine
 10
193.319017
 20
-118.440327
 30
0.0
 11
189.319017
 21
-118.440327
 31
0.0
  0
SOLID
  5
204
100
AcDbEntity
  8
0
  6
CONTINUOUS
 62
       110
100
AcDbTrace
 10
304.3740170298
 20
-118.606994005
 30
0.0
 11
304.3740170298
 21
-118.273659995
 31
0.0
 12
303.374017
 22
-118.440327
 32
0.0
 13
303.374017
 23
-118.440327
 33
0.0
  0
SOLID
  5
205
100
AcDbEntity
  8
0
  6
CONTINUOUS
 62
       110
100
AcDbTrace
 10
192.3190169702
 20
-118.273659995
 30
0.0
 11
192.3190169702
 21
-118.606994005
 31
0.0
 12
193.319017
 22
-118.440327
 32
0.0
 13
193.319017
 23
-118.440327
 33
0.0
  0
MTEXT
  5
207
100
AcDbEntity
  8
0
  6
CONTINUOUS
 62
       110
100
AcDbMText
 10
248.6465160845
 20
-115.8403269762
 30
0.0
 40
3.2000000477
 41
0.0
 71
         5
 72
         1
  1
\A1;110
  7
MX_DIMTXSTY_4
 11
1.0
 21
0.0
 31
0.0
  0
POINT
  5
208
100
AcDbEntity
  8
DEFPOINTS
  6
CONTINUOUS
 62
         0
100
AcDbPoint
 10
303.374017
 20
-107.0134995693
 30
0.0
  0
POINT
  5
209
100
AcDbEntity
  8
DEFPOINTS
  6
CONTINUOUS
 62
         0
100
AcDbPoint
 10
193.319017
 20
-107.0134995693
 30
0.0
  0
POINT
  5
20A
100
AcDbEntity
  8
DEFPOINTS
  6
CONTINUOUS
 62
         0
100
AcDbPoint
 10
193.319017
 20
-118.440327
 30
0.0
  0
ENDBLK
  5
20B
100
AcDbEntity
  8
0
  6
ByBlock
 62
         0
100
AcDbBlockEnd
  0
BLOCK
  5
20E
100
AcDbEntity
  8
0
  6
ByBlock
 62
         0
100
AcDbBlockBegin
  2
*D9
 70
         1
 10
0.0
 20
0.0
 30
0.0
  3
*D9
  1

  0
LINE
  5
20F
100
AcDbEntity
  8
0
  6
CONTINUOUS
 62
       110
100
AcDbLine
 10
317.843834
 20
-101.0105
 30
0.0
 11
317.843834
 21
-107.0135
 31
0.0
  0
LINE
  5
210
100
AcDbEntity
  8
0
  6
CONTINUOUS
 62
       110
100
AcDbLine
 10
317.843834
 20
-87.7457228165
 30
0.0
 11
317.843834
 21
-101.0105
 31
0.0
  0
LINE
  5
211
100
AcDbEntity
  8
0
  6
CONTINUOUS
 62
       110
100
AcDbLine
 10
303.4365168384
 20
-101.0105
 30
0.0
 11
320.343834
 21
-101.0105
 31
0.0
  0
LINE
  5
212
100
AcDbEntity
  8
0
  6
CONTINUOUS
 62
       110
100
AcDbLine
 10
303.4365168384
 20
-107.0135
 30
0.0
 11
320.343834
 21
-107.0135
 31
0.0
  0
SOLID
  5
213
100
AcDbEntity
  8
0
  6
CONTINUOUS
 62
       110
100
AcDbTrace
 10
317.677166995
 20
-102.0105000298
 30
0.0
 11
318.010501005
 21
-102.0105000298
 31
0.0
 12
317.843834
 22
-101.0105
 32
0.0
 13
317.843834
 23
-101.0105
 33
0.0
  0
SOLID
  5
214
100
AcDbEntity
  8
0
  6
CONTINUOUS
 62
       110
100
AcDbTrace
 10
318.010501005
 20
-106.0134999702
 30
0.0
 11
317.677166995
 21
-106.0134999702
 31
0.0
 12
317.843834
 22
-107.0135
 32
0.0
 13
317.843834
 23
-107.0135
 33
0.0
  0
MTEXT
  5
216
100
AcDbEntity
  8
0
  6
CONTINUOUS
 62
       110
100
AcDbMText
 10
315.2438339762
 20
-90.7457228165
 30
0.0
 40
3.2000000477
 41
0.0
 71
         5
 72
         1
  1
\A1;\U+22056
  7
MX_DIMTXSTY_5
 11
0.0
 21
1.0
 31
0.0
  0
POINT
  5
217
100
AcDbEntity
  8
DEFPOINTS
  6
CONTINUOUS
 62
         0
100
AcDbPoint
 10
303.3740168384
 20
-101.0105
 30
0.0
  0
POINT
  5
218
100
AcDbEntity
  8
DEFPOINTS
  6
CONTINUOUS
 62
         0
100
AcDbPoint
 10
303.3740168384
 20
-107.0135
 30
0.0
  0
POINT
  5
219
100
AcDbEntity
  8
DEFPOINTS
  6
CONTINUOUS
 62
         0
100
AcDbPoint
 10
317.843834
 20
-107.0135
 30
0.0
  0
ENDBLK
  5
21A
100
AcDbEntity
  8
0
  6
ByBlock
 62
         0
100
AcDbBlockEnd
  0
BLOCK
  5
21D
100
AcDbEntity
  8
0
  6
ByBlock
 62
         0
100
AcDbBlockBegin
  2
*D10
 70
         1
 10
0.0
 20
0.0
 30
0.0
  3
*D10
  1

  0
LINE
  5
21E
100
AcDbEntity
  8
0
  6
CONTINUOUS
 62
       110
100
AcDbLine
 10
113.352499
 20
-71.49575
 30
0.0
 11
113.352499
 21
-136.52825
 31
0.0
  0
LINE
  5
21F
100
AcDbEntity
  8
0
  6
CONTINUOUS
 62
       110
100
AcDbLine
 10
82.6103382029
 20
-71.49575
 30
0.0
 11
115.852499
 21
-71.49575
 31
0.0
  0
LINE
  5
220
100
AcDbEntity
  8
0
  6
CONTINUOUS
 62
       110
100
AcDbLine
 10
82.6103382029
 20
-136.52825
 30
0.0
 11
115.852499
 21
-136.52825
 31
0.0
  0
LINE
  5
221
100
AcDbEntity
  8
0
  6
CONTINUOUS
 62
       110
100
AcDbLine
 10
113.352499
 20
-71.49575
 30
0.0
 11
113.352499
 21
-67.49575
 31
0.0
  0
LINE
  5
222
100
AcDbEntity
  8
0
  6
CONTINUOUS
 62
       110
100
AcDbLine
 10
113.352499
 20
-136.52825
 30
0.0
 11
113.352499
 21
-140.52825
 31
0.0
  0
SOLID
  5
223
100
AcDbEntity
  8
0
  6
CONTINUOUS
 62
       110
100
AcDbTrace
 10
113.519166005
 20
-70.4957499702
 30
0.0
 11
113.185831995
 21
-70.4957499702
 31
0.0
 12
113.352499
 22
-71.49575
 32
0.0
 13
113.352499
 23
-71.49575
 33
0.0
  0
SOLID
  5
224
100
AcDbEntity
  8
0
  6
CONTINUOUS
 62
       110
100
AcDbTrace
 10
113.185831995
 20
-137.5282500298
 30
0.0
 11
113.519166005
 21
-137.5282500298
 31
0.0
 12
113.352499
 22
-136.52825
 32
0.0
 13
113.352499
 23
-136.52825
 33
0.0
  0
MTEXT
  5
225
100
AcDbEntity
  8
0
  6
CONTINUOUS
 62
       110
100
AcDbMText
 10
110.7524989762
 20
-103.7120013733
 30
0.0
 40
3.2000000477
 41
0.0
 71
         5
 72
         1
  1
\A1;\U+220565
  7
MX_DIMTXSTY_5
 11
0.0
 21
1.0
 31
0.0
  0
POINT
  5
226
100
AcDbEntity
  8
DEFPOINTS
  6
CONTINUOUS
 62
         0
100
AcDbPoint
 10
82.5478382029
 20
-71.49575
 30
0.0
  0
POINT
  5
227
100
AcDbEntity
  8
DEFPOINTS
  6
CONTINUOUS
 62
         0
100
AcDbPoint
 10
82.5478382029
 20
-136.52825
 30
0.0
  0
POINT
  5
228
100
AcDbEntity
  8
DEFPOINTS
  6
CONTINUOUS
 62
         0
100
AcDbPoint
 10
113.352499
 20
-136.52825
 30
0.0
  0
ENDBLK
  5
229
100
AcDbEntity
  8
0
  6
ByBlock
 62
         0
100
AcDbBlockEnd
  0
BLOCK
  5
22C
100
AcDbEntity
  8
0
  6
ByBlock
 62
         0
100
AcDbBlockBegin
  2
*D11
 70
         1
 10
0.0
 20
0.0
 30
0.0
  3
*D11
  1

  0
LINE
  5
22D
100
AcDbEntity
  8
0
  6
CONTINUOUS
 62
       110
100
AcDbLine
 10
30.3787669
 20
-54.4085253
 30
0.0
 11
99.4132669
 21
-54.4085253
 31
0.0
  0
LINE
  5
22E
100
AcDbEntity
  8
0
  6
CONTINUOUS
 62
       110
100
AcDbLine
 10
30.3787669
 20
-76.4357507944
 30
0.0
 11
30.3787669
 21
-51.9085253
 31
0.0
  0
LINE
  5
22F
100
AcDbEntity
  8
0
  6
CONTINUOUS
 62
       110
100
AcDbLine
 10
99.4132669
 20
-103.9494989633
 30
0.0
 11
99.4132669
 21
-51.9085253
 31
0.0
  0
LINE
  5
230
100
AcDbEntity
  8
0
  6
CONTINUOUS
 62
       110
100
AcDbLine
 10
30.3787669
 20
-54.4085253
 30
0.0
 11
26.3787669
 21
-54.4085253
 31
0.0
  0
LINE
  5
231
100
AcDbEntity
  8
0
  6
CONTINUOUS
 62
       110
100
AcDbLine
 10
99.4132669
 20
-54.4085253
 30
0.0
 11
103.4132669
 21
-54.4085253
 31
0.0
  0
SOLID
  5
232
100
AcDbEntity
  8
0
  6
CONTINUOUS
 62
       110
100
AcDbTrace
 10
29.3787668702
 20
-54.241858295
 30
0.0
 11
29.3787668702
 21
-54.575192305
 31
0.0
 12
30.3787669
 22
-54.4085253
 32
0.0
 13
30.3787669
 23
-54.4085253
 33
0.0
  0
SOLID
  5
233
100
AcDbEntity
  8
0
  6
CONTINUOUS
 62
       110
100
AcDbTrace
 10
100.4132669298
 20
-54.575192305
 30
0.0
 11
100.4132669298
 21
-54.241858295
 31
0.0
 12
99.4132669
 22
-54.4085253
 32
0.0
 13
99.4132669
 23
-54.4085253
 33
0.0
  0
MTEXT
  5
234
100
AcDbEntity
  8
0
  6
CONTINUOUS
 62
       110
100
AcDbMText
 10
65.1960161981
 20
-51.8085252762
 30
0.0
 40
3.2000000477
 41
0.0
 71
         5
 72
         1
  1
\A1;69
  0
POINT
  5
235
100
AcDbEntity
  8
DEFPOINTS
  6
CONTINUOUS
 62
         0
100
AcDbPoint
 10
30.3787669
 20
-76.4982507944
 30
0.0
  0
POINT
  5
236
100
AcDbEntity
  8
DEFPOINTS
  6
CONTINUOUS
 62
         0
100
AcDbPoint
 10
99.4132669
 20
-104.0119989633
 30
0.0
  0
POINT
  5
237
100
AcDbEntity
  8
DEFPOINTS
  6
CONTINUOUS
 62
         0
100
AcDbPoint
 10
99.4132669
 20
-54.4085253
 30
0.0
  0
ENDBLK
  5
238
100
AcDbEntity
  8
0
  6
ByBlock
 62
         0
100
AcDbBlockEnd
  0
BLOCK
  5
23B
100
AcDbEntity
  8
0
  6
ByBlock
 62
         0
100
AcDbBlockBegin
  2
*D12
 70
         1
 10
0.0
 20
0.0
 30
0.0
  3
*D12
  1

  0
LINE
  5
23C
100
AcDbEntity
  8
0
  6
CONTINUOUS
 62
       110
100
AcDbLine
 10
106.594087
 20
-92.006
 30
0.0
 11
106.594087
 21
-116.018
 31
0.0
  0
LINE
  5
23D
100
AcDbEntity
  8
0
  6
CONTINUOUS
 62
       110
100
AcDbLine
 10
96.9695142461
 20
-92.006
 30
0.0
 11
109.094087
 21
-92.006
 31
0.0
  0
LINE
  5
23E
100
AcDbEntity
  8
0
  6
CONTINUOUS
 62
       110
100
AcDbLine
 10
96.9695142461
 20
-116.018
 30
0.0
 11
109.094087
 21
-116.018
 31
0.0
  0
LINE
  5
23F
100
AcDbEntity
  8
0
  6
CONTINUOUS
 62
       110
100
AcDbLine
 10
106.594087
 20
-92.006
 30
0.0
 11
106.594087
 21
-88.006
 31
0.0
  0
LINE
  5
240
100
AcDbEntity
  8
0
  6
CONTINUOUS
 62
       110
100
AcDbLine
 10
106.594087
 20
-116.018
 30
0.0
 11
106.594087
 21
-120.018
 31
0.0
  0
SOLID
  5
241
100
AcDbEntity
  8
0
  6
CONTINUOUS
 62
       110
100
AcDbTrace
 10
106.760754005
 20
-91.0059999702
 30
0.0
 11
106.427419995
 21
-91.0059999702
 31
0.0
 12
106.594087
 22
-92.006
 32
0.0
 13
106.594087
 23
-92.006
 33
0.0
  0
SOLID
  5
242
100
AcDbEntity
  8
0
  6
CONTINUOUS
 62
       110
100
AcDbTrace
 10
106.427419995
 20
-117.0180000298
 30
0.0
 11
106.760754005
 21
-117.0180000298
 31
0.0
 12
106.594087
 22
-116.018
 32
0.0
 13
106.594087
 23
-116.018
 33
0.0
  0
MTEXT
  5
243
100
AcDbEntity
  8
0
  6
CONTINUOUS
 62
       110
100
AcDbMText
 10
103.9940869762
 20
-103.7120003281
 30
0.0
 40
3.2000000477
 41
0.0
 71
         5
 72
         1
  1
\A1;\U+220524
  7
MX_DIMTXSTY_5
 11
0.0
 21
1.0
 31
0.0
  0
POINT
  5
244
100
AcDbEntity
  8
DEFPOINTS
  6
CONTINUOUS
 62
         0
100
AcDbPoint
 10
96.9070142461
 20
-92.006
 30
0.0
  0
POINT
  5
245
100
AcDbEntity
  8
DEFPOINTS
  6
CONTINUOUS
 62
         0
100
AcDbPoint
 10
96.9070142461
 20
-116.018
 30
0.0
  0
POINT
  5
246
100
AcDbEntity
  8
DEFPOINTS
  6
CONTINUOUS
 62
         0
100
AcDbPoint
 10
106.594087
 20
-116.018
 30
0.0
  0
ENDBLK
  5
247
100
AcDbEntity
  8
0
  6
ByBlock
 62
         0
100
AcDbBlockEnd
  0
BLOCK
  5
24A
100
AcDbEntity
  8
0
  6
ByBlock
 62
         0
100
AcDbBlockBegin
  2
*D13
 70
         1
 10
0.0
 20
0.0
 30
0.0
  3
*D13
  1

  0
LINE
  5
24B
100
AcDbEntity
  8
0
  6
CONTINUOUS
 62
       110
100
AcDbLine
 10
-123.698233
 20
-54.4085253
 30
0.0
 11
30.3787669
 21
-54.4085253
 31
0.0
  0
LINE
  5
24C
100
AcDbEntity
  8
0
  6
CONTINUOUS
 62
       110
100
AcDbLine
 10
-123.698233
 20
-63.9295004129
 30
0.0
 11
-123.698233
 21
-51.9085253
 31
0.0
  0
LINE
  5
24D
100
AcDbEntity
  8
0
  6
CONTINUOUS
 62
       110
100
AcDbLine
 10
30.3787669
 20
-76.4357507944
 30
0.0
 11
30.3787669
 21
-51.9085253
 31
0.0
  0
LINE
  5
24E
100
AcDbEntity
  8
0
  6
CONTINUOUS
 62
       110
100
AcDbLine
 10
-123.698233
 20
-54.4085253
 30
0.0
 11
-127.698233
 21
-54.4085253
 31
0.0
  0
LINE
  5
24F
100
AcDbEntity
  8
0
  6
CONTINUOUS
 62
       110
100
AcDbLine
 10
30.3787669
 20
-54.4085253
 30
0.0
 11
34.3787669
 21
-54.4085253
 31
0.0
  0
SOLID
  5
250
100
AcDbEntity
  8
0
  6
CONTINUOUS
 62
       110
100
AcDbTrace
 10
-124.6982330298
 20
-54.241858295
 30
0.0
 11
-124.6982330298
 21
-54.575192305
 31
0.0
 12
-123.698233
 22
-54.4085253
 32
0.0
 13
-123.698233
 23
-54.4085253
 33
0.0
  0
SOLID
  5
251
100
AcDbEntity
  8
0
  6
CONTINUOUS
 62
       110
100
AcDbTrace
 10
31.3787669298
 20
-54.575192305
 30
0.0
 11
31.3787669298
 21
-54.241858295
 31
0.0
 12
30.3787669
 22
-54.4085253
 32
0.0
 13
30.3787669
 23
-54.4085253
 33
0.0
  0
MTEXT
  5
253
100
AcDbEntity
  8
0
  6
CONTINUOUS
 62
       110
100
AcDbMText
 10
-46.3597320234
 20
-51.8085252762
 30
0.0
 40
3.2000000477
 41
0.0
 71
         5
 72
         1
  1
\A1;154
  7
MX_DIMTXSTY_6
  0
POINT
  5
254
100
AcDbEntity
  8
DEFPOINTS
  6
CONTINUOUS
 62
         0
100
AcDbPoint
 10
-123.698233
 20
-63.9920004129
 30
0.0
  0
POINT
  5
255
100
AcDbEntity
  8
DEFPOINTS
  6
CONTINUOUS
 62
         0
100
AcDbPoint
 10
30.3787669
 20
-76.4982507944
 30
0.0
  0
POINT
  5
256
100
AcDbEntity
  8
DEFPOINTS
  6
CONTINUOUS
 62
         0
100
AcDbPoint
 10
30.3787669
 20
-54.4085253
 30
0.0
  0
ENDBLK
  5
257
100
AcDbEntity
  8
0
  6
ByBlock
 62
         0
100
AcDbBlockEnd
  0
BLOCK
  5
25A
100
AcDbEntity
  8
0
  6
ByBlock
 62
         0
100
AcDbBlockBegin
  2
*D14
 70
         1
 10
0.0
 20
0.0
 30
0.0
  3
*D14
  1

  0
LINE
  5
25B
100
AcDbEntity
  8
0
  6
CONTINUOUS
 62
       110
100
AcDbLine
 10
-123.698233
 20
-62.468921
 30
0.0
 11
-111.692233
 21
-62.468921
 31
0.0
  0
LINE
  5
25C
100
AcDbEntity
  8
0
  6
CONTINUOUS
 62
       110
100
AcDbLine
 10
-123.698233
 20
-63.9295001569
 30
0.0
 11
-123.698233
 21
-59.968921
 31
0.0
  0
LINE
  5
25D
100
AcDbEntity
  8
0
  6
CONTINUOUS
 62
       110
100
AcDbLine
 10
-111.692233
 20
-63.9295001569
 30
0.0
 11
-111.692233
 21
-59.968921
 31
0.0
  0
LINE
  5
25E
100
AcDbEntity
  8
0
  6
CONTINUOUS
 62
       110
100
AcDbLine
 10
-123.698233
 20
-62.468921
 30
0.0
 11
-127.698233
 21
-62.468921
 31
0.0
  0
LINE
  5
25F
100
AcDbEntity
  8
0
  6
CONTINUOUS
 62
       110
100
AcDbLine
 10
-111.692233
 20
-62.468921
 30
0.0
 11
-107.692233
 21
-62.468921
 31
0.0
  0
SOLID
  5
260
100
AcDbEntity
  8
0
  6
CONTINUOUS
 62
       110
100
AcDbTrace
 10
-124.6982330298
 20
-62.302253995
 30
0.0
 11
-124.6982330298
 21
-62.635588005
 31
0.0
 12
-123.698233
 22
-62.468921
 32
0.0
 13
-123.698233
 23
-62.468921
 33
0.0
  0
SOLID
  5
261
100
AcDbEntity
  8
0
  6
CONTINUOUS
 62
       110
100
AcDbTrace
 10
-110.6922329702
 20
-62.635588005
 30
0.0
 11
-110.6922329702
 21
-62.302253995
 31
0.0
 12
-111.692233
 22
-62.468921
 32
0.0
 13
-111.692233
 23
-62.468921
 33
0.0
  0
MTEXT
  5
262
100
AcDbEntity
  8
0
  6
CONTINUOUS
 62
       110
100
AcDbMText
 10
-117.3952330267
 20
-59.8689209762
 30
0.0
 40
3.2000000477
 41
0.0
 71
         5
 72
         1
  1
\A1;12
  7
MX_DIMTXSTY_2
  0
POINT
  5
263
100
AcDbEntity
  8
DEFPOINTS
  6
CONTINUOUS
 62
         0
100
AcDbPoint
 10
-123.698233
 20
-63.9920001569
 30
0.0
  0
POINT
  5
264
100
AcDbEntity
  8
DEFPOINTS
  6
CONTINUOUS
 62
         0
100
AcDbPoint
 10
-111.692233
 20
-63.9920001569
 30
0.0
  0
POINT
  5
265
100
AcDbEntity
  8
DEFPOINTS
  6
CONTINUOUS
 62
         0
100
AcDbPoint
 10
-111.692233
 20
-62.468921
 30
0.0
  0
ENDBLK
  5
266
100
AcDbEntity
  8
0
  6
ByBlock
 62
         0
100
AcDbBlockEnd
  0
ENDSEC
  0
SECTION
  2
ENTITIES
  0
MTEXT
  5
29
100
AcDbEntity
  8
0
  6
CONTINUOUS
 62
       110
100
AcDbMText
 10
-92.6406371583
 20
-15.3696999395
 30
0.0
 40
3.2016000748
 41
0.0
 71
         1
 72
         1
  1
\T1.025;\W1.058;\A1;TSUBAKI
  0
INSERT
  5
2A
100
AcDbEntity
  8
PV
  6
ByBlock
100
AcDbBlockReference
  2
ARROW
 10
-228.311715
 20
-128.072295
 30
0.0
 50
64.1994219
  0
INSERT
  5
2B
100
AcDbEntity
  8
PV
  6
ByBlock
100
AcDbBlockReference
  2
ARROW
 10
-233.101751
 20
-137.980705
 30
0.0
 50
244.199422
  0
ARC
  5
2C
100
AcDbEntity
  8
PV
  6
CONTINUOUS
 62
         3
100
AcDbCircle
 10
171.357041
 20
-85.252625
 30
0.0
 40
5.6538255
100
AcDbArc
 50
339.002
 51
20.998
  0
ARC
  5
2D
100
AcDbEntity
  8
PV
  6
CONTINUOUS
 62
         3
100
AcDbCircle
 10
175.45709
 20
-82.213106
 30
0.0
 40
1.554777
100
AcDbArc
 50
319.326
 51
19.326
  0
ARC
  5
2E
100
AcDbEntity
  8
PV
  6
CONTINUOUS
 62
         3
100
AcDbCircle
 10
175.45709
 20
-88.292144
 30
0.0
 40
1.554777
100
AcDbArc
 50
340.674
 51
40.674
  0
LINE
  5
2F
100
AcDbEntity
  8
PV
  6
CONTINUOUS
 62
         3
100
AcDbLine
 10
173.809267
 20
-85.118558
 30
0.0
 11
172.808767
 21
-85.386692
 31
0.0
  0
LINE
  5
30
100
AcDbEntity
  8
PV
  6
CONTINUOUS
 62
         3
100
AcDbLine
 10
173.809267
 20
-89.054525
 30
0.0
 11
172.808767
 21
-89.054525
 31
0.0
  0
LINE
  5
31
100
AcDbEntity
  8
PV
  6
CONTINUOUS
 62
         3
100
AcDbLine
 10
173.809267
 20
-81.450725
 30
0.0
 11
172.808767
 21
-81.450725
 31
0.0
  0
LINE
  5
32
100
AcDbEntity
  8
PV
  6
CONTINUOUS
 62
         3
100
AcDbLine
 10
172.808767
 20
-89.054525
 30
0.0
 11
172.808767
 21
-81.450725
 31
0.0
  0
LINE
  5
33
100
AcDbEntity
  8
PV
  6
CONTINUOUS
 62
         3
100
AcDbLine
 10
177.010867
 20
-81.850925
 30
0.0
 11
176.635679
 21
-81.2006
 31
0.0
  0
LINE
  5
34
100
AcDbEntity
  8
PV
  6
CONTINUOUS
 62
         3
100
AcDbLine
 10
177.010867
 20
-88.654325
 30
0.0
 11
176.635679
 21
-89.30465
 31
0.0
  0
LINE
  5
35
100
AcDbEntity
  8
PV
  6
CONTINUOUS
 62
         3
100
AcDbLine
 10
176.635679
 20
-83.2266125
 30
0.0
 11
173.809267
 21
-83.2266125
 31
0.0
  0
LINE
  5
36
100
AcDbEntity
  8
PV
  6
CONTINUOUS
 62
         3
100
AcDbLine
 10
176.635679
 20
-87.2786375
 30
0.0
 11
173.809267
 21
-87.2786375
 31
0.0
  0
LINE
  5
37
100
AcDbEntity
  8
PV
  6
CONTINUOUS
 62
         3
100
AcDbLine
 10
176.635679
 20
-81.2006
 30
0.0
 11
173.809267
 21
-81.2006
 31
0.0
  0
LINE
  5
38
100
AcDbEntity
  8
PV
  6
CONTINUOUS
 62
         3
100
AcDbLine
 10
176.635679
 20
-89.30465
 30
0.0
 11
173.809267
 21
-89.30465
 31
0.0
  0
LINE
  5
39
100
AcDbEntity
  8
PV
  6
CONTINUOUS
 62
         3
100
AcDbLine
 10
177.010867
 20
-88.654325
 30
0.0
 11
177.010867
 21
-81.850925
 31
0.0
  0
LINE
  5
3A
100
AcDbEntity
  8
PV
  6
CONTINUOUS
 62
         3
100
AcDbLine
 10
173.809267
 20
-89.30465
 30
0.0
 11
173.809267
 21
-81.2006
 31
0.0
  0
ARC
  5
3B
100
AcDbEntity
  8
PV
  6
CONTINUOUS
 62
         3
100
AcDbCircle
 10
171.258992
 20
-85.252625
 30
0.0
 40
5.6538255
100
AcDbArc
 50
159.002
 51
200.998
  0
ARC
  5
3C
100
AcDbEntity
  8
PV
  6
CONTINUOUS
 62
         3
100
AcDbCircle
 10
167.158943
 20
-88.292144
 30
0.0
 40
1.554777
100
AcDbArc
 50
139.326
 51
199.326
  0
ARC
  5
3D
100
AcDbEntity
  8
PV
  6
CONTINUOUS
 62
         3
100
AcDbCircle
 10
167.158943
 20
-82.213106
 30
0.0
 40
1.554777
100
AcDbArc
 50
160.674
 51
220.674
  0
LINE
  5
3E
100
AcDbEntity
  8
PV
  6
CONTINUOUS
 62
         3
100
AcDbLine
 10
165.605167
 20
-88.654325
 30
0.0
 11
165.980354
 21
-89.30465
 31
0.0
  0
LINE
  5
3F
100
AcDbEntity
  8
PV
  6
CONTINUOUS
 62
         3
100
AcDbLine
 10
165.605167
 20
-81.850925
 30
0.0
 11
165.980354
 21
-81.2006
 31
0.0
  0
LINE
  5
40
100
AcDbEntity
  8
PV
  6
CONTINUOUS
 62
         3
100
AcDbLine
 10
165.980354
 20
-87.2786375
 30
0.0
 11
168.806767
 21
-87.2786375
 31
0.0
  0
LINE
  5
41
100
AcDbEntity
  8
PV
  6
CONTINUOUS
 62
         3
100
AcDbLine
 10
165.980354
 20
-83.2266125
 30
0.0
 11
168.806767
 21
-83.2266125
 31
0.0
  0
LINE
  5
42
100
AcDbEntity
  8
PV
  6
CONTINUOUS
 62
         3
100
AcDbLine
 10
165.980354
 20
-89.30465
 30
0.0
 11
168.806767
 21
-89.30465
 31
0.0
  0
LINE
  5
43
100
AcDbEntity
  8
PV
  6
CONTINUOUS
 62
         3
100
AcDbLine
 10
165.980354
 20
-81.2006
 30
0.0
 11
168.806767
 21
-81.2006
 31
0.0
  0
LINE
  5
44
100
AcDbEntity
  8
PV
  6
CONTINUOUS
 62
         3
100
AcDbLine
 10
165.605167
 20
-81.850925
 30
0.0
 11
165.605167
 21
-88.654325
 31
0.0
  0
LINE
  5
45
100
AcDbEntity
  8
PV
  6
CONTINUOUS
 62
         3
100
AcDbLine
 10
168.806767
 20
-81.2006
 30
0.0
 11
168.806767
 21
-89.30465
 31
0.0
  0
MTEXT
  5
46
100
AcDbEntity
  8
PV
  6
CONTINUOUS
 62
       110
100
AcDbMText
 10
226.1326274335
 20
-95.1895909395
 30
0.0
 40
3.2016000748
 41
0.0
 71
         1
 72
         1
  1
\T1.024;\W1.064;\A1;ADJUSTING HANDLE
  0
CIRCLE
  5
47
100
AcDbEntity
  8
PV
  6
CONTINUOUS
 62
         3
100
AcDbCircle
 10
141.793267
 20
-133.0265
 30
0.0
 40
5.50275
  0
CIRCLE
  5
48
100
AcDbEntity
  8
PV
  6
CONTINUOUS
 62
         3
100
AcDbCircle
 10
141.793267
 20
-74.9975
 30
0.0
 40
5.50275
  0
CIRCLE
  5
49
100
AcDbEntity
  8
PV
  6
CONTINUOUS
 62
         3
100
AcDbCircle
 10
199.822267
 20
-133.0265
 30
0.0
 40
5.50275
  0
CIRCLE
  5
4A
100
AcDbEntity
  8
PV
  6
CONTINUOUS
 62
         3
100
AcDbCircle
 10
199.822267
 20
-74.9975
 30
0.0
 40
5.50275
  0
ARC
  5
4B
100
AcDbEntity
  8
PV
  6
CONTINUOUS
 62
         3
100
AcDbCircle
 10
171.357041
 20
-69.744875
 30
0.0
 40
5.6538255
100
AcDbArc
 50
339.002
 51
20.998
  0
ARC
  5
4C
100
AcDbEntity
  8
PV
  6
CONTINUOUS
 62
         3
100
AcDbCircle
 10
175.45709
 20
-66.7063565
 30
0.0
 40
1.554777
100
AcDbArc
 50
319.326
 51
19.326
  0
ARC
  5
4D
100
AcDbEntity
  8
PV
  6
CONTINUOUS
 62
         3
100
AcDbCircle
 10
175.45709
 20
-72.784394
 30
0.0
 40
1.554777
100
AcDbArc
 50
27.82
 51
40.674
  0
ARC
  5
4E
100
AcDbEntity
  8
PV
  6
CONTINUOUS
 62
         3
100
AcDbCircle
 10
171.258992
 20
-69.744875
 30
0.0
 40
5.6538255
100
AcDbArc
 50
159.002
 51
200.998
  0
ARC
  5
4F
100
AcDbEntity
  8
PV
  6
CONTINUOUS
 62
         3
100
AcDbCircle
 10
167.158943
 20
-72.784394
 30
0.0
 40
1.554777
100
AcDbArc
 50
139.326
 51
143.879
  0
ARC
  5
50
100
AcDbEntity
  8
PV
  6
CONTINUOUS
 62
         3
100
AcDbCircle
 10
167.158943
 20
-66.7063565
 30
0.0
 40
1.554777
100
AcDbArc
 50
160.674
 51
220.674
  0
CIRCLE
  5
51
100
AcDbEntity
  8
PV
  6
CONTINUOUS
 62
         3
100
AcDbCircle
 10
170.807767
 20
-104.012
 30
0.0
 40
32.51625
  0
ARC
  5
52
100
AcDbEntity
  8
PV
  6
CONTINUOUS
 62
         3
100
AcDbCircle
 10
170.807767
 20
-104.012
 30
0.0
 40
13.0065
100
AcDbArc
 50
98.8500003
 51
81.1500001
  0
CIRCLE
  5
53
100
AcDbEntity
  8
PV
  6
CONTINUOUS
 62
         3
100
AcDbCircle
 10
170.807767
 20
-104.012
 30
0.0
 40
12.006
  0
LINE
  5
55
100
AcDbEntity
  8
PV
  6
CENTER
 62
         3
100
AcDbLine
 10
141.793267
 20
-142.205087
 30
0.0
 11
141.793267
 21
-122.550265
 31
0.0
  0
LINE
  5
56
100
AcDbEntity
  8
PV
  6
CENTER
 62
         3
100
AcDbLine
 10
150.854795
 20
-133.0265
 30
0.0
 11
132.986866
 21
-133.0265
 31
0.0
  0
LINE
  5
57
100
AcDbEntity
  8
PV
  6
CENTER
 62
         3
100
AcDbLine
 10
141.793267
 20
-85.4737355
 30
0.0
 11
141.793267
 21
-65.818913
 31
0.0
  0
LINE
  5
58
100
AcDbEntity
  8
PV
  6
CENTER
 62
         3
100
AcDbLine
 10
132.986866
 20
-74.9975
 30
0.0
 11
150.854795
 21
-74.9975
 31
0.0
  0
LINE
  5
59
100
AcDbEntity
  8
PV
  6
CENTER
 62
         3
100
AcDbLine
 10
199.822267
 20
-122.550265
 30
0.0
 11
199.822267
 21
-142.205087
 31
0.0
  0
LINE
  5
5A
100
AcDbEntity
  8
PV
  6
CENTER
 62
         3
100
AcDbLine
 10
208.628668
 20
-133.0265
 30
0.0
 11
190.760738
 21
-133.0265
 31
0.0
  0
LINE
  5
5B
100
AcDbEntity
  8
PV
  6
CENTER
 62
         3
100
AcDbLine
 10
199.822267
 20
-65.818913
 30
0.0
 11
199.822267
 21
-85.4737355
 31
0.0
  0
LINE
  5
5C
100
AcDbEntity
  8
PV
  6
CENTER
 62
         3
100
AcDbLine
 10
190.760738
 20
-74.9975
 30
0.0
 11
208.628668
 21
-74.9975
 31
0.0
  0
LINE
  5
5D
100
AcDbEntity
  8
PV
  6
CONTINUOUS
 62
         3
100
AcDbLine
 10
130.787767
 20
-144.032
 30
0.0
 11
210.827767
 21
-144.032
 31
0.0
  0
LINE
  5
5E
100
AcDbEntity
  8
PV
  6
CONTINUOUS
 62
         3
100
AcDbLine
 10
130.787767
 20
-63.992
 30
0.0
 11
210.827767
 21
-63.992
 31
0.0
  0
LINE
  5
5F
100
AcDbEntity
  8
PV
  6
CONTINUOUS
 62
         3
100
AcDbLine
 10
130.787767
 20
-63.992
 30
0.0
 11
130.787767
 21
-144.032
 31
0.0
  0
LINE
  5
60
100
AcDbEntity
  8
PV
  6
CONTINUOUS
 62
         3
100
AcDbLine
 10
210.827767
 20
-63.992
 30
0.0
 11
210.827767
 21
-144.032
 31
0.0
  0
LINE
  5
61
100
AcDbEntity
  8
PV
  6
CONTINUOUS
 62
         3
100
AcDbLine
 10
173.809267
 20
-69.610808
 30
0.0
 11
172.808767
 21
-69.878942
 31
0.0
  0
LINE
  5
62
100
AcDbEntity
  8
PV
  6
CONTINUOUS
 62
         3
100
AcDbLine
 10
173.809267
 20
-65.942975
 30
0.0
 11
172.808767
 21
-65.942975
 31
0.0
  0
LINE
  5
63
100
AcDbEntity
  8
PV
  6
CONTINUOUS
 62
         3
100
AcDbLine
 10
177.010867
 20
-66.343175
 30
0.0
 11
176.635679
 21
-65.69285
 31
0.0
  0
LINE
  5
64
100
AcDbEntity
  8
PV
  6
CONTINUOUS
 62
         3
100
AcDbLine
 10
176.635679
 20
-67.7188625
 30
0.0
 11
173.809267
 21
-67.7188625
 31
0.0
  0
LINE
  5
65
100
AcDbEntity
  8
PV
  6
CONTINUOUS
 62
         3
100
AcDbLine
 10
176.635679
 20
-71.7708875
 30
0.0
 11
175.028876
 21
-71.7708875
 31
0.0
  0
LINE
  5
66
100
AcDbEntity
  8
PV
  6
CONTINUOUS
 62
         3
100
AcDbLine
 10
176.635679
 20
-65.69285
 30
0.0
 11
173.809267
 21
-65.69285
 31
0.0
  0
LINE
  5
67
100
AcDbEntity
  8
PV
  6
CONTINUOUS
 62
         3
100
AcDbLine
 10
177.010867
 20
-72.0930485
 30
0.0
 11
177.010867
 21
-66.343175
 31
0.0
  0
LINE
  5
68
100
AcDbEntity
  8
PV
  6
CONTINUOUS
 62
         3
100
AcDbLine
 10
173.809267
 20
-71.6348195
 30
0.0
 11
173.809267
 21
-65.69285
 31
0.0
  0
LINE
  5
69
100
AcDbEntity
  8
PV
  6
CONTINUOUS
 62
         3
100
AcDbLine
 10
165.605167
 20
-66.343175
 30
0.0
 11
165.980354
 21
-65.69285
 31
0.0
  0
LINE
  5
6A
100
AcDbEntity
  8
PV
  6
CONTINUOUS
 62
         3
100
AcDbLine
 10
165.980354
 20
-71.7708875
 30
0.0
 11
166.586657
 21
-71.7708875
 31
0.0
  0
LINE
  5
6B
100
AcDbEntity
  8
PV
  6
CONTINUOUS
 62
         3
100
AcDbLine
 10
165.980354
 20
-67.7188625
 30
0.0
 11
168.806767
 21
-67.7188625
 31
0.0
  0
LINE
  5
6C
100
AcDbEntity
  8
PV
  6
CONTINUOUS
 62
         3
100
AcDbLine
 10
165.980354
 20
-65.69285
 30
0.0
 11
168.806767
 21
-65.69285
 31
0.0
  0
LINE
  5
6D
100
AcDbEntity
  8
PV
  6
CONTINUOUS
 62
         3
100
AcDbLine
 10
165.605167
 20
-66.343175
 30
0.0
 11
165.605167
 21
-71.9149595
 31
0.0
  0
LINE
  5
6E
100
AcDbEntity
  8
PV
  6
CONTINUOUS
 62
         3
100
AcDbLine
 10
169.807267
 20
-86.853425
 30
0.0
 11
171.808267
 21
-86.853425
 31
0.0
  0
LINE
  5
6F
100
AcDbEntity
  8
PV
  6
CONTINUOUS
 62
         3
100
AcDbLine
 10
177.010867
 20
-86.853425
 30
0.0
 11
179.912317
 21
-86.853425
 31
0.0
  0
LINE
  5
70
100
AcDbEntity
  8
PV
  6
CONTINUOUS
 62
         3
100
AcDbLine
 10
177.010867
 20
-83.651825
 30
0.0
 11
179.912317
 21
-83.651825
 31
0.0
  0
LINE
  5
71
100
AcDbEntity
  8
PV
  6
CONTINUOUS
 62
         3
100
AcDbLine
 10
169.807267
 20
-83.651825
 30
0.0
 11
171.808267
 21
-83.651825
 31
0.0
  0
LINE
  5
72
100
AcDbEntity
  8
PV
  6
CONTINUOUS
 62
         3
100
AcDbLine
 10
179.512117
 20
-83.251625
 30
0.0
 11
180.012367
 21
-83.751875
 31
0.0
  0
LINE
  5
73
100
AcDbEntity
  8
PV
  6
CONTINUOUS
 62
         3
100
AcDbLine
 10
179.512117
 20
-87.253625
 30
0.0
 11
180.012367
 21
-86.753375
 31
0.0
  0
LINE
  5
74
100
AcDbEntity
  8
PV
  6
CONTINUOUS
 62
         3
100
AcDbLine
 10
179.512117
 20
-87.253625
 30
0.0
 11
179.512117
 21
-83.251625
 31
0.0
  0
LINE
  5
75
100
AcDbEntity
  8
PV
  6
CONTINUOUS
 62
         3
100
AcDbLine
 10
180.012367
 20
-86.753375
 30
0.0
 11
180.012367
 21
-83.751875
 31
0.0
  0
LINE
  5
76
100
AcDbEntity
  8
PV
  6
CONTINUOUS
 62
         3
100
AcDbLine
 10
177.010867
 20
-87.253625
 30
0.0
 11
179.512117
 21
-87.253625
 31
0.0
  0
LINE
  5
77
100
AcDbEntity
  8
PV
  6
CONTINUOUS
 62
         3
100
AcDbLine
 10
177.010867
 20
-83.251625
 30
0.0
 11
179.512117
 21
-83.251625
 31
0.0
  0
LINE
  5
78
100
AcDbEntity
  8
PV
  6
CONTINUOUS
 62
         3
100
AcDbLine
 10
169.807267
 20
-87.253625
 30
0.0
 11
171.808267
 21
-87.253625
 31
0.0
  0
LINE
  5
79
100
AcDbEntity
  8
PV
  6
CONTINUOUS
 62
         3
100
AcDbLine
 10
169.807267
 20
-83.251625
 30
0.0
 11
171.808267
 21
-83.251625
 31
0.0
  0
LINE
  5
7A
100
AcDbEntity
  8
PV
  6
CENTER
 62
         3
100
AcDbLine
 10
164.804767
 20
-85.252625
 30
0.0
 11
180.012367
 21
-85.252625
 31
0.0
  0
LINE
  5
7B
100
AcDbEntity
  8
PV
  6
CONTINUOUS
 62
         3
100
AcDbLine
 10
169.807267
 20
-79.49975
 30
0.0
 11
168.806767
 21
-79.49975
 31
0.0
  0
LINE
  5
7C
100
AcDbEntity
  8
PV
  6
CONTINUOUS
 62
         3
100
AcDbLine
 10
171.808267
 20
-79.49975
 30
0.0
 11
172.808767
 21
-79.49975
 31
0.0
  0
LINE
  5
7D
100
AcDbEntity
  8
PV
  6
CONTINUOUS
 62
         3
100
AcDbLine
 10
168.806767
 20
-79.49975
 30
0.0
 11
168.806767
 21
-91.075535
 31
0.0
  0
LINE
  5
7E
100
AcDbEntity
  8
PV
  6
CONTINUOUS
 62
         3
100
AcDbLine
 10
172.808767
 20
-79.49975
 30
0.0
 11
172.808767
 21
-91.075535
 31
0.0
  0
LINE
  5
7F
100
AcDbEntity
  8
PV
  6
CONTINUOUS
 62
         3
100
AcDbLine
 10
171.808267
 20
-79.49975
 30
0.0
 11
171.808267
 21
-92.048021
 31
0.0
  0
LINE
  5
80
100
AcDbEntity
  8
PV
  6
CONTINUOUS
 62
         3
100
AcDbLine
 10
169.807267
 20
-79.49975
 30
0.0
 11
169.807267
 21
-92.048021
 31
0.0
  0
LINE
  5
81
100
AcDbEntity
  8
PV
  6
CONTINUOUS
 62
         3
100
AcDbLine
 10
169.807267
 20
-71.345675
 30
0.0
 11
171.808267
 21
-71.345675
 31
0.0
  0
LINE
  5
82
100
AcDbEntity
  8
PV
  6
CONTINUOUS
 62
         3
100
AcDbLine
 10
177.010867
 20
-71.345675
 30
0.0
 11
179.912317
 21
-71.345675
 31
0.0
  0
LINE
  5
83
100
AcDbEntity
  8
PV
  6
CONTINUOUS
 62
         3
100
AcDbLine
 10
177.010867
 20
-68.144075
 30
0.0
 11
179.912317
 21
-68.144075
 31
0.0
  0
LINE
  5
84
100
AcDbEntity
  8
PV
  6
CONTINUOUS
 62
         3
100
AcDbLine
 10
169.807267
 20
-68.144075
 30
0.0
 11
171.808267
 21
-68.144075
 31
0.0
  0
LINE
  5
85
100
AcDbEntity
  8
PV
  6
CONTINUOUS
 62
         3
100
AcDbLine
 10
179.512117
 20
-67.743875
 30
0.0
 11
180.012367
 21
-68.244125
 31
0.0
  0
LINE
  5
86
100
AcDbEntity
  8
PV
  6
CONTINUOUS
 62
         3
100
AcDbLine
 10
179.512117
 20
-71.745875
 30
0.0
 11
180.012367
 21
-71.245625
 31
0.0
  0
LINE
  5
87
100
AcDbEntity
  8
PV
  6
CONTINUOUS
 62
         3
100
AcDbLine
 10
179.512117
 20
-71.745875
 30
0.0
 11
179.512117
 21
-67.743875
 31
0.0
  0
LINE
  5
88
100
AcDbEntity
  8
PV
  6
CONTINUOUS
 62
         3
100
AcDbLine
 10
180.012367
 20
-71.245625
 30
0.0
 11
180.012367
 21
-68.244125
 31
0.0
  0
LINE
  5
89
100
AcDbEntity
  8
PV
  6
CONTINUOUS
 62
         3
100
AcDbLine
 10
177.010867
 20
-71.745875
 30
0.0
 11
179.512117
 21
-71.745875
 31
0.0
  0
LINE
  5
8A
100
AcDbEntity
  8
PV
  6
CONTINUOUS
 62
         3
100
AcDbLine
 10
177.010867
 20
-67.743875
 30
0.0
 11
179.512117
 21
-67.743875
 31
0.0
  0
LINE
  5
8B
100
AcDbEntity
  8
PV
  6
CONTINUOUS
 62
         3
100
AcDbLine
 10
169.807267
 20
-67.743875
 30
0.0
 11
171.808267
 21
-67.743875
 31
0.0
  0
LINE
  5
8C
100
AcDbEntity
  8
PV
  6
CENTER
 62
         3
100
AcDbLine
 10
164.804767
 20
-69.744875
 30
0.0
 11
180.012367
 21
-69.744875
 31
0.0
  0
LINE
  5
8D
100
AcDbEntity
  8
PV
  6
CONTINUOUS
 62
         3
100
AcDbLine
 10
169.807267
 20
-63.992
 30
0.0
 11
168.806767
 21
-63.992
 31
0.0
  0
LINE
  5
8E
100
AcDbEntity
  8
PV
  6
CONTINUOUS
 62
         3
100
AcDbLine
 10
171.808267
 20
-63.992
 30
0.0
 11
172.808767
 21
-63.992
 31
0.0
  0
LINE
  5
8F
100
AcDbEntity
  8
PV
  6
CONTINUOUS
 62
         3
100
AcDbLine
 10
168.806767
 20
-63.992
 30
0.0
 11
168.806767
 21
-71.557781
 31
0.0
  0
LINE
  5
90
100
AcDbEntity
  8
PV
  6
CONTINUOUS
 62
         3
100
AcDbLine
 10
172.808767
 20
-63.992
 30
0.0
 11
172.808767
 21
-71.557781
 31
0.0
  0
LINE
  5
91
100
AcDbEntity
  8
PV
  6
CONTINUOUS
 62
         3
100
AcDbLine
 10
171.808267
 20
-63.992
 30
0.0
 11
171.808267
 21
-71.5107575
 31
0.0
  0
LINE
  5
92
100
AcDbEntity
  8
PV
  6
CONTINUOUS
 62
         3
100
AcDbLine
 10
169.807267
 20
-63.992
 30
0.0
 11
169.807267
 21
-71.5107575
 31
0.0
  0
LINE
  5
93
100
AcDbEntity
  8
PV
  6
CENTER
 62
         3
100
AcDbLine
 10
121.608179
 20
-104.012
 30
0.0
 11
220.357529
 21
-104.012
 31
0.0
  0
LINE
  5
94
100
AcDbEntity
  8
PV
  6
CENTER
 62
         3
100
AcDbLine
 10
170.807767
 20
-56.038025
 30
0.0
 11
170.807767
 21
-141.798884
 31
0.0
  0
LINE
  5
96
100
AcDbEntity
  8
PV
  6
PHANTOM
 62
         3
100
AcDbLine
 10
303.374017
 20
-101.0105
 30
0.0
 11
303.374017
 21
-107.0135
 31
0.0
  0
LINE
  5
97
100
AcDbEntity
  8
PV
  6
PHANTOM
 62
         3
100
AcDbLine
 10
193.319017
 20
-101.0105
 30
0.0
 11
193.319017
 21
-107.0135
 31
0.0
  0
LINE
  5
98
100
AcDbEntity
  8
PV
  6
PHANTOM
 62
         3
100
AcDbLine
 10
193.319017
 20
-107.0135
 30
0.0
 11
303.374017
 21
-107.0135
 31
0.0
  0
LINE
  5
99
100
AcDbEntity
  8
PV
  6
PHANTOM
 62
         3
100
AcDbLine
 10
193.319017
 20
-101.0105
 30
0.0
 11
303.374017
 21
-101.0105
 31
0.0
  0
CIRCLE
  5
9A
100
AcDbEntity
  8
PV
  6
CONTINUOUS
 62
         3
100
AcDbCircle
 10
-186.128455
 20
-119.575778
 30
0.0
 40
4.32216
  0
CIRCLE
  5
9B
100
AcDbEntity
  8
PV
  6
CONTINUOUS
 62
         3
100
AcDbCircle
 10
-186.128455
 20
-119.575778
 30
0.0
 40
5.0025
  0
LINE
  5
9C
100
AcDbEntity
  8
PV
  6
CONTINUOUS
 62
         3
100
AcDbLine
 10
-186.128455
 20
-122.464221
 30
0.0
 11
-188.629705
 21
-121.0205
 31
0.0
  0
LINE
  5
9D
100
AcDbEntity
  8
PV
  6
CONTINUOUS
 62
         3
100
AcDbLine
 10
-188.629705
 20
-121.0205
 30
0.0
 11
-188.629705
 21
-118.132057
 31
0.0
  0
LINE
  5
9E
100
AcDbEntity
  8
PV
  6
CONTINUOUS
 62
         3
100
AcDbLine
 10
-188.629705
 20
-118.132057
 30
0.0
 11
-186.128455
 21
-116.688335
 31
0.0
  0
LINE
  5
9F
100
AcDbEntity
  8
PV
  6
CONTINUOUS
 62
         3
100
AcDbLine
 10
-186.128455
 20
-116.688335
 30
0.0
 11
-183.627205
 21
-118.132057
 31
0.0
  0
LINE
  5
A0
100
AcDbEntity
  8
PV
  6
CONTINUOUS
 62
         3
100
AcDbLine
 10
-183.627205
 20
-118.132057
 30
0.0
 11
-183.627205
 21
-121.0205
 31
0.0
  0
LINE
  5
A1
100
AcDbEntity
  8
PV
  6
CONTINUOUS
 62
         3
100
AcDbLine
 10
-183.627205
 20
-121.0205
 30
0.0
 11
-186.128455
 21
-122.464221
 31
0.0
  0
CIRCLE
  5
A2
100
AcDbEntity
  8
PV
  6
CONTINUOUS
 62
         3
100
AcDbCircle
 10
-217.256011
 20
-119.575778
 30
0.0
 40
4.32216
  0
CIRCLE
  5
A3
100
AcDbEntity
  8
PV
  6
CONTINUOUS
 62
         3
100
AcDbCircle
 10
-217.256011
 20
-119.575778
 30
0.0
 40
5.0025
  0
LINE
  5
A4
100
AcDbEntity
  8
PV
  6
CONTINUOUS
 62
         3
100
AcDbLine
 10
-217.256011
 20
-122.464221
 30
0.0
 11
-219.757261
 21
-121.0205
 31
0.0
  0
LINE
  5
A5
100
AcDbEntity
  8
PV
  6
CONTINUOUS
 62
         3
100
AcDbLine
 10
-219.757261
 20
-121.0205
 30
0.0
 11
-219.757261
 21
-118.132057
 31
0.0
  0
LINE
  5
A6
100
AcDbEntity
  8
PV
  6
CONTINUOUS
 62
         3
100
AcDbLine
 10
-219.757261
 20
-118.132057
 30
0.0
 11
-217.256011
 21
-116.688335
 31
0.0
  0
LINE
  5
A7
100
AcDbEntity
  8
PV
  6
CONTINUOUS
 62
         3
100
AcDbLine
 10
-217.256011
 20
-116.688335
 30
0.0
 11
-214.754761
 21
-118.132057
 31
0.0
  0
LINE
  5
A8
100
AcDbEntity
  8
PV
  6
CONTINUOUS
 62
         3
100
AcDbLine
 10
-214.754761
 20
-118.132057
 30
0.0
 11
-214.754761
 21
-121.0205
 31
0.0
  0
LINE
  5
A9
100
AcDbEntity
  8
PV
  6
CONTINUOUS
 62
         3
100
AcDbLine
 10
-214.754761
 20
-121.0205
 30
0.0
 11
-217.256011
 21
-122.464221
 31
0.0
  0
CIRCLE
  5
AA
100
AcDbEntity
  8
PV
  6
CONTINUOUS
 62
         3
100
AcDbCircle
 10
-217.256011
 20
-88.448222
 30
0.0
 40
4.32216
  0
CIRCLE
  5
AB
100
AcDbEntity
  8
PV
  6
CONTINUOUS
 62
         3
100
AcDbCircle
 10
-217.256011
 20
-88.448222
 30
0.0
 40
5.0025
  0
LINE
  5
AC
100
AcDbEntity
  8
PV
  6
CONTINUOUS
 62
         3
100
AcDbLine
 10
-217.256011
 20
-91.335665
 30
0.0
 11
-219.757261
 21
-89.8919435
 31
0.0
  0
LINE
  5
AD
100
AcDbEntity
  8
PV
  6
CONTINUOUS
 62
         3
100
AcDbLine
 10
-219.757261
 20
-89.8919435
 30
0.0
 11
-219.757261
 21
-87.0035
 31
0.0
  0
LINE
  5
AE
100
AcDbEntity
  8
PV
  6
CONTINUOUS
 62
         3
100
AcDbLine
 10
-219.757261
 20
-87.0035
 30
0.0
 11
-217.256011
 21
-85.5597785
 31
0.0
  0
LINE
  5
AF
100
AcDbEntity
  8
PV
  6
CONTINUOUS
 62
         3
100
AcDbLine
 10
-217.256011
 20
-85.5597785
 30
0.0
 11
-214.754761
 21
-87.0035
 31
0.0
  0
LINE
  5
B0
100
AcDbEntity
  8
PV
  6
CONTINUOUS
 62
         3
100
AcDbLine
 10
-214.754761
 20
-87.0035
 30
0.0
 11
-214.754761
 21
-89.8919435
 31
0.0
  0
LINE
  5
B1
100
AcDbEntity
  8
PV
  6
CONTINUOUS
 62
         3
100
AcDbLine
 10
-214.754761
 20
-89.8919435
 30
0.0
 11
-217.256011
 21
-91.335665
 31
0.0
  0
CIRCLE
  5
B2
100
AcDbEntity
  8
PV
  6
CONTINUOUS
 62
         3
100
AcDbCircle
 10
-186.128455
 20
-88.448222
 30
0.0
 40
4.32216
  0
CIRCLE
  5
B3
100
AcDbEntity
  8
PV
  6
CONTINUOUS
 62
         3
100
AcDbCircle
 10
-186.128455
 20
-88.448222
 30
0.0
 40
5.0025
  0
LINE
  5
B4
100
AcDbEntity
  8
PV
  6
CONTINUOUS
 62
         3
100
AcDbLine
 10
-186.128455
 20
-91.335665
 30
0.0
 11
-188.629705
 21
-89.8919435
 31
0.0
  0
LINE
  5
B5
100
AcDbEntity
  8
PV
  6
CONTINUOUS
 62
         3
100
AcDbLine
 10
-188.629705
 20
-89.8919435
 30
0.0
 11
-188.629705
 21
-87.0035
 31
0.0
  0
LINE
  5
B6
100
AcDbEntity
  8
PV
  6
CONTINUOUS
 62
         3
100
AcDbLine
 10
-188.629705
 20
-87.0035
 30
0.0
 11
-186.128455
 21
-85.5597785
 31
0.0
  0
LINE
  5
B7
100
AcDbEntity
  8
PV
  6
CONTINUOUS
 62
         3
100
AcDbLine
 10
-186.128455
 20
-85.5597785
 30
0.0
 11
-183.627205
 21
-87.0035
 31
0.0
  0
LINE
  5
B8
100
AcDbEntity
  8
PV
  6
CONTINUOUS
 62
         3
100
AcDbLine
 10
-183.627205
 20
-87.0035
 30
0.0
 11
-183.627205
 21
-89.8919435
 31
0.0
  0
LINE
  5
B9
100
AcDbEntity
  8
PV
  6
CONTINUOUS
 62
         3
100
AcDbLine
 10
-183.627205
 20
-89.8919435
 30
0.0
 11
-186.128455
 21
-91.335665
 31
0.0
  0
CIRCLE
  5
BA
100
AcDbEntity
  8
PV
  6
CONTINUOUS
 62
         3
100
AcDbCircle
 10
-201.692233
 20
-104.012
 30
0.0
 40
15.50775
  0
ARC
  5
BB
100
AcDbEntity
  8
PV
  6
CENTER
 62
         3
100
AcDbCircle
 10
-201.692233
 20
-104.012
 30
0.0
 40
22.011
100
AcDbArc
 50
204.744
 51
245.483
  0
ARC
  5
BC
100
AcDbEntity
  8
PV
  6
CENTER
 62
         3
100
AcDbCircle
 10
-201.692233
 20
-104.012
 30
0.0
 40
22.011
100
AcDbArc
 50
294.517
 51
333.353
  0
ARC
  5
BD
100
AcDbEntity
  8
PV
  6
CENTER
 62
         3
100
AcDbCircle
 10
-201.692233
 20
-104.012
 30
0.0
 40
22.011
100
AcDbArc
 50
114.517
 51
153.353
  0
ARC
  5
BE
100
AcDbEntity
  8
PV
  6
CENTER
 62
         3
100
AcDbCircle
 10
-201.692233
 20
-104.012
 30
0.0
 40
22.011
100
AcDbArc
 50
23.086
 51
65.4829998
  0
CIRCLE
  5
BF
100
AcDbEntity
  8
PV
  6
CONTINUOUS
 62
         3
100
AcDbCircle
 10
-230.706733
 20
-133.0265
 30
0.0
 40
5.50275
  0
CIRCLE
  5
C0
100
AcDbEntity
  8
PV
  6
CONTINUOUS
 62
         3
100
AcDbCircle
 10
-230.706733
 20
-74.9975
 30
0.0
 40
5.50275
  0
CIRCLE
  5
C1
100
AcDbEntity
  8
PV
  6
CONTINUOUS
 62
         3
100
AcDbCircle
 10
-172.677733
 20
-133.0265
 30
0.0
 40
5.50275
  0
CIRCLE
  5
C2
100
AcDbEntity
  8
PV
  6
CONTINUOUS
 62
         3
100
AcDbCircle
 10
-172.677733
 20
-74.9975
 30
0.0
 40
5.50275
  0
LINE
  5
C3
100
AcDbEntity
  8
PV
  6
CENTER
 62
         3
100
AcDbLine
 10
-211.89133
 20
-114.211097
 30
0.0
 11
-221.146956
 21
-123.466723
 31
0.0
  0
LINE
  5
C4
100
AcDbEntity
  8
PV
  6
CENTER
 62
         3
100
AcDbLine
 10
-182.237511
 20
-123.466723
 30
0.0
 11
-191.493136
 21
-114.211097
 31
0.0
  0
LINE
  5
C5
100
AcDbEntity
  8
PV
  6
CENTER
 62
         3
100
AcDbLine
 10
-221.146956
 20
-84.5572775
 30
0.0
 11
-211.89133
 21
-93.812903
 31
0.0
  0
LINE
  5
C6
100
AcDbEntity
  8
PV
  6
CENTER
 62
         3
100
AcDbLine
 10
-191.493136
 20
-93.812903
 30
0.0
 11
-182.237511
 21
-84.5572775
 31
0.0
  0
LINE
  5
C7
100
AcDbEntity
  8
PV
  6
CENTER
 62
         3
100
AcDbLine
 10
-243.74625
 20
-104.012
 30
0.0
 11
-155.644221
 21
-104.012
 31
0.0
  0
LINE
  5
C8
100
AcDbEntity
  8
PV
  6
CENTER
 62
         3
100
AcDbLine
 10
-201.692233
 20
-59.88995
 30
0.0
 11
-201.692233
 21
-149.53475
 31
0.0
  0
LINE
  5
C9
100
AcDbEntity
  8
PV
  6
CENTER
 62
         3
100
AcDbLine
 10
-230.706733
 20
-142.205087
 30
0.0
 11
-230.706733
 21
-122.550265
 31
0.0
  0
LINE
  5
CA
100
AcDbEntity
  8
PV
  6
CENTER
 62
         3
100
AcDbLine
 10
-221.645205
 20
-133.0265
 30
0.0
 11
-239.513134
 21
-133.0265
 31
0.0
  0
LINE
  5
CB
100
AcDbEntity
  8
PV
  6
CENTER
 62
         3
100
AcDbLine
 10
-230.706733
 20
-85.4737355
 30
0.0
 11
-230.706733
 21
-65.818913
 31
0.0
  0
LINE
  5
CC
100
AcDbEntity
  8
PV
  6
CENTER
 62
         3
100
AcDbLine
 10
-239.513134
 20
-74.9975
 30
0.0
 11
-221.645205
 21
-74.9975
 31
0.0
  0
LINE
  5
CD
100
AcDbEntity
  8
PV
  6
CENTER
 62
         3
100
AcDbLine
 10
-172.677733
 20
-122.550265
 30
0.0
 11
-172.677733
 21
-142.205087
 31
0.0
  0
LINE
  5
CE
100
AcDbEntity
  8
PV
  6
CENTER
 62
         3
100
AcDbLine
 10
-163.871332
 20
-133.0265
 30
0.0
 11
-181.739262
 21
-133.0265
 31
0.0
  0
LINE
  5
CF
100
AcDbEntity
  8
PV
  6
CENTER
 62
         3
100
AcDbLine
 10
-172.677733
 20
-65.818913
 30
0.0
 11
-172.677733
 21
-85.4737355
 31
0.0
  0
LINE
  5
D0
100
AcDbEntity
  8
PV
  6
CENTER
 62
         3
100
AcDbLine
 10
-181.739262
 20
-74.9975
 30
0.0
 11
-163.871332
 21
-74.9975
 31
0.0
  0
LINE
  5
D1
100
AcDbEntity
  8
PV
  6
CONTINUOUS
 62
         3
100
AcDbLine
 10
-241.712233
 20
-144.032
 30
0.0
 11
-161.672233
 21
-144.032
 31
0.0
  0
LINE
  5
D2
100
AcDbEntity
  8
PV
  6
CONTINUOUS
 62
         3
100
AcDbLine
 10
-241.712233
 20
-63.992
 30
0.0
 11
-161.672233
 21
-63.992
 31
0.0
  0
LINE
  5
D3
100
AcDbEntity
  8
PV
  6
CONTINUOUS
 62
         3
100
AcDbLine
 10
-241.712233
 20
-63.992
 30
0.0
 11
-241.712233
 21
-144.032
 31
0.0
  0
LINE
  5
D4
100
AcDbEntity
  8
PV
  6
CONTINUOUS
 62
         3
100
AcDbLine
 10
-161.672233
 20
-63.992
 30
0.0
 11
-161.672233
 21
-144.032
 31
0.0
  0
LINE
  5
D5
100
AcDbEntity
  8
PV
  6
CONTINUOUS
 62
         3
100
AcDbLine
 10
30.3787669
 20
-104.012
 30
0.0
 11
16.4988304
 21
-104.012
 31
0.0
  0
LINE
  5
D6
100
AcDbEntity
  8
PV
  6
CONTINUOUS
 62
         3
100
AcDbLine
 10
30.3787669
 20
-131.52575
 30
0.0
 11
25.6023799
 21
-131.52575
 31
0.0
  0
LINE
  5
D7
100
AcDbEntity
  8
PV
  6
CONTINUOUS
 62
         3
100
AcDbLine
 10
63.3952669
 20
-109.6148
 30
0.0
 11
52.7639539
 21
-109.6148
 31
0.0
  0
LINE
  5
D8
100
AcDbEntity
  8
PV
  6
CONTINUOUS
 62
         3
100
AcDbLine
 10
1.06911939
 20
-104.012
 30
0.0
 11
4.76096439
 21
-104.012
 31
0.0
  0
CIRCLE
  5
D9
100
AcDbEntity
  8
PV
  6
CONTINUOUS
 62
         3
100
AcDbCircle
 10
26.3767669
 20
-69.744875
 30
0.0
 40
3.50175
  0
LINE
  5
DA
100
AcDbEntity
  8
PV
  6
CONTINUOUS
 62
         3
100
AcDbLine
 10
26.3767669
 20
-73.788896
 30
0.0
 11
22.8750169
 21
-71.7668855
 31
0.0
  0
LINE
  5
DB
100
AcDbEntity
  8
PV
  6
CONTINUOUS
 62
         3
100
AcDbLine
 10
22.8750169
 20
-71.7668855
 30
0.0
 11
22.8750169
 21
-67.7228645
 31
0.0
  0
LINE
  5
DC
100
AcDbEntity
  8
PV
  6
CONTINUOUS
 62
         3
100
AcDbLine
 10
22.8750169
 20
-67.7228645
 30
0.0
 11
26.3767669
 21
-65.700854
 31
0.0
  0
LINE
  5
DD
100
AcDbEntity
  8
PV
  6
CONTINUOUS
 62
         3
100
AcDbLine
 10
26.3767669
 20
-65.700854
 30
0.0
 11
29.8785169
 21
-67.7228645
 31
0.0
  0
LINE
  5
DE
100
AcDbEntity
  8
PV
  6
CONTINUOUS
 62
         3
100
AcDbLine
 10
29.8785169
 20
-67.7228645
 30
0.0
 11
29.8785169
 21
-71.7668855
 31
0.0
  0
LINE
  5
DF
100
AcDbEntity
  8
PV
  6
CONTINUOUS
 62
         3
100
AcDbLine
 10
29.8785169
 20
-71.7668855
 30
0.0
 11
26.3767669
 21
-73.788896
 31
0.0
  0
CIRCLE
  5
E0
100
AcDbEntity
  8
PV
  6
CONTINUOUS
 62
         3
100
AcDbCircle
 10
92.4097669
 20
-85.252625
 30
0.0
 40
3.50175
  0
LINE
  5
E1
100
AcDbEntity
  8
PV
  6
CONTINUOUS
 62
         3
100
AcDbLine
 10
92.4097669
 20
-89.296646
 30
0.0
 11
88.9080169
 21
-87.2746355
 31
0.0
  0
LINE
  5
E2
100
AcDbEntity
  8
PV
  6
CONTINUOUS
 62
         3
100
AcDbLine
 10
88.9080169
 20
-87.2746355
 30
0.0
 11
88.9080169
 21
-83.2306145
 31
0.0
  0
LINE
  5
E3
100
AcDbEntity
  8
PV
  6
CONTINUOUS
 62
         3
100
AcDbLine
 10
88.9080169
 20
-83.2306145
 30
0.0
 11
92.4097669
 21
-81.208604
 31
0.0
  0
LINE
  5
E4
100
AcDbEntity
  8
PV
  6
CONTINUOUS
 62
         3
100
AcDbLine
 10
92.4097669
 20
-81.208604
 30
0.0
 11
95.9115169
 21
-83.2306145
 31
0.0
  0
LINE
  5
E5
100
AcDbEntity
  8
PV
  6
CONTINUOUS
 62
         3
100
AcDbLine
 10
95.9115169
 20
-83.2306145
 30
0.0
 11
95.9115169
 21
-87.2746355
 31
0.0
  0
LINE
  5
E6
100
AcDbEntity
  8
PV
  6
CONTINUOUS
 62
         3
100
AcDbLine
 10
95.9115169
 20
-87.2746355
 30
0.0
 11
92.4097669
 21
-89.296646
 31
0.0
  0
CIRCLE
  5
E7
100
AcDbEntity
  8
PV
  6
CONTINUOUS
 62
         3
100
AcDbCircle
 10
26.3767669
 20
-69.744875
 30
0.0
 40
3.50175
  0
LINE
  5
E8
100
AcDbEntity
  8
PV
  6
CONTINUOUS
 62
         3
100
AcDbLine
 10
26.3767669
 20
-73.788896
 30
0.0
 11
22.8750169
 21
-71.7668855
 31
0.0
  0
LINE
  5
E9
100
AcDbEntity
  8
PV
  6
CONTINUOUS
 62
         3
100
AcDbLine
 10
22.8750169
 20
-71.7668855
 30
0.0
 11
22.8750169
 21
-67.7228645
 31
0.0
  0
LINE
  5
EA
100
AcDbEntity
  8
PV
  6
CONTINUOUS
 62
         3
100
AcDbLine
 10
22.8750169
 20
-67.7228645
 30
0.0
 11
26.3767669
 21
-65.700854
 31
0.0
  0
LINE
  5
EB
100
AcDbEntity
  8
PV
  6
CONTINUOUS
 62
         3
100
AcDbLine
 10
26.3767669
 20
-65.700854
 30
0.0
 11
29.8785169
 21
-67.7228645
 31
0.0
  0
LINE
  5
EC
100
AcDbEntity
  8
PV
  6
CONTINUOUS
 62
         3
100
AcDbLine
 10
29.8785169
 20
-67.7228645
 30
0.0
 11
29.8785169
 21
-71.7668855
 31
0.0
  0
LINE
  5
ED
100
AcDbEntity
  8
PV
  6
CONTINUOUS
 62
         3
100
AcDbLine
 10
29.8785169
 20
-71.7668855
 30
0.0
 11
26.3767669
 21
-73.788896
 31
0.0
  0
MTEXT
  5
EE
100
AcDbEntity
  8
PV
  6
CONTINUOUS
 62
       110
100
AcDbMText
 10
-92.8764375452
 20
-25.9750000466
 30
0.0
 40
4.001999855
 41
0.0
 71
         1
 72
         1
  1
\W1.110;\A1;DP002A050+(DP002F)+(DP002J)
  0
MTEXT
  5
EF
100
AcDbEntity
  8
PV
  6
CONTINUOUS
 62
       110
100
AcDbMText
 10
-92.6571720949
 20
-20.3721999395
 30
0.0
 40
3.2016000748
 41
0.0
 71
         1
 72
         1
  1
\T1.017;\W1.071;\A1;SHOCK DAMPER
  0
ARC
  5
F0
100
AcDbEntity
  8
PV
  6
CONTINUOUS
 62
         3
100
AcDbCircle
 10
19.3732669
 20
-128.306141
 30
0.0
 40
4.720359
100
AcDbArc
 50
197.492
 51
342.507
  0
CIRCLE
  5
F1
100
AcDbEntity
  8
PV
  6
CONTINUOUS
 62
         3
100
AcDbCircle
 10
-50.6617331
 20
-104.012
 30
0.0
 40
3.0015
  0
ARC
  5
F2
100
AcDbEntity
  8
PV
  6
CONTINUOUS
 62
         3
100
AcDbCircle
 10
10.3687669
 20
-76.49825
 30
0.0
 40
1.50075
100
AcDbArc
 50
0.0
 51
180.0
  0
ARC
  5
F3
100
AcDbEntity
  8
PV
  6
CONTINUOUS
 62
         3
100
AcDbCircle
 10
69.3982669
 20
-104.012
 30
0.0
 40
30.015
100
AcDbArc
 50
336.422
 51
23.578
  0
LINE
  5
F4
100
AcDbEntity
  8
PV
  6
CONTINUOUS
 62
         3
100
AcDbLine
 10
-111.692233
 20
-130.52525
 30
0.0
 11
-111.692233
 21
-144.032
 31
0.0
  0
LINE
  5
F5
100
AcDbEntity
  8
PV
  6
CONTINUOUS
 62
         3
100
AcDbLine
 10
-111.692233
 20
-77.49875
 30
0.0
 11
-111.692233
 21
-130.52525
 31
0.0
  0
LINE
  5
F6
100
AcDbEntity
  8
PV
  6
CONTINUOUS
 62
         3
100
AcDbLine
 10
-123.698233
 20
-63.992
 30
0.0
 11
-111.692233
 21
-63.992
 31
0.0
  0
LINE
  5
F7
100
AcDbEntity
  8
PV
  6
CONTINUOUS
 62
         3
100
AcDbLine
 10
-123.698233
 20
-144.032
 30
0.0
 11
-111.692233
 21
-144.032
 31
0.0
  0
LINE
  5
F8
100
AcDbEntity
  8
PV
  6
CONTINUOUS
 62
         3
100
AcDbLine
 10
-123.698233
 20
-63.992
 30
0.0
 11
-123.698233
 21
-144.032
 31
0.0
  0
LINE
  5
F9
100
AcDbEntity
  8
PV
  6
CONTINUOUS
 62
         3
100
AcDbLine
 10
-111.692233
 20
-76.49825
 30
0.0
 11
-111.692233
 21
-131.52575
 31
0.0
  0
LINE
  5
FA
100
AcDbEntity
  8
PV
  6
CONTINUOUS
 62
         3
100
AcDbLine
 10
-111.692233
 20
-63.992
 30
0.0
 11
-111.692233
 21
-77.49875
 31
0.0
  0
LINE
  5
FB
100
AcDbEntity
  8
PV
  6
CONTINUOUS
 62
         3
100
AcDbLine
 10
22.3747669
 20
-131.52575
 30
0.0
 11
22.3747669
 21
-132.52625
 31
0.0
  0
LINE
  5
FC
100
AcDbEntity
  8
PV
  6
CONTINUOUS
 62
         3
100
AcDbLine
 10
88.4077669
 20
-116.018
 30
0.0
 11
82.5478384
 21
-136.52825
 31
0.0
  0
LINE
  5
FD
100
AcDbEntity
  8
PV
  6
CONTINUOUS
 62
         3
100
AcDbLine
 10
79.3322314
 20
-125.272625
 30
0.0
 11
82.5478384
 21
-136.52825
 31
0.0
  0
LINE
  5
FE
100
AcDbEntity
  8
PV
  6
CONTINUOUS
 62
         3
100
AcDbLine
 10
79.3322314
 20
-125.272625
 30
0.0
 11
76.1156239
 21
-136.52825
 31
0.0
  0
LINE
  5
FF
100
AcDbEntity
  8
PV
  6
CONTINUOUS
 62
         3
100
AcDbLine
 10
72.9000169
 20
-125.272625
 30
0.0
 11
76.1156239
 21
-136.52825
 31
0.0
  0
LINE
  5
100
100
AcDbEntity
  8
PV
  6
PHANTOM
 62
         3
100
AcDbLine
 10
35.0240884
 20
-125.272625
 30
0.0
 11
79.3322314
 21
-125.272625
 31
0.0
  0
LINE
  5
101
100
AcDbEntity
  8
PV
  6
CONTINUOUS
 62
         3
100
AcDbLine
 10
41.4553024
 20
-125.272625
 30
0.0
 11
38.2396954
 21
-136.52825
 31
0.0
  0
LINE
  5
102
100
AcDbEntity
  8
PV
  6
CONTINUOUS
 62
         3
100
AcDbLine
 10
35.0240884
 20
-125.272625
 30
0.0
 11
38.2396954
 21
-136.52825
 31
0.0
  0
LINE
  5
103
100
AcDbEntity
  8
PV
  6
PHANTOM
 62
         3
100
AcDbLine
 10
31.8084814
 20
-136.52825
 30
0.0
 11
82.5478384
 21
-136.52825
 31
0.0
  0
LINE
  5
104
100
AcDbEntity
  8
PV
  6
CONTINUOUS
 62
         3
100
AcDbLine
 10
35.0240884
 20
-125.272625
 30
0.0
 11
31.8084814
 21
-136.52825
 31
0.0
  0
LINE
  5
105
100
AcDbEntity
  8
PV
  6
CONTINUOUS
 62
         3
100
AcDbLine
 10
30.3787669
 20
-131.52575
 30
0.0
 11
31.8084814
 21
-136.52825
 31
0.0
  0
LINE
  5
106
100
AcDbEntity
  8
PV
  6
CONTINUOUS
 62
         3
100
AcDbLine
 10
72.9000169
 20
-82.751375
 30
0.0
 11
76.1156239
 21
-71.49575
 31
0.0
  0
LINE
  5
107
100
AcDbEntity
  8
PV
  6
CONTINUOUS
 62
         3
100
AcDbLine
 10
79.3322314
 20
-82.751375
 30
0.0
 11
76.1156239
 21
-71.49575
 31
0.0
  0
LINE
  5
108
100
AcDbEntity
  8
PV
  6
CONTINUOUS
 62
         3
100
AcDbLine
 10
41.4553024
 20
-82.751375
 30
0.0
 11
38.2396954
 21
-71.49575
 31
0.0
  0
LINE
  5
109
100
AcDbEntity
  8
PV
  6
CONTINUOUS
 62
         3
100
AcDbLine
 10
35.0240884
 20
-82.751375
 30
0.0
 11
38.2396954
 21
-71.49575
 31
0.0
  0
LINE
  5
10A
100
AcDbEntity
  8
PV
  6
CONTINUOUS
 62
         3
100
AcDbLine
 10
88.4077669
 20
-92.006
 30
0.0
 11
82.5478384
 21
-71.49575
 31
0.0
  0
LINE
  5
10B
100
AcDbEntity
  8
PV
  6
CONTINUOUS
 62
         3
100
AcDbLine
 10
79.3322314
 20
-82.751375
 30
0.0
 11
82.5478384
 21
-71.49575
 31
0.0
  0
LINE
  5
10C
100
AcDbEntity
  8
PV
  6
CONTINUOUS
 62
         3
100
AcDbLine
 10
30.3787669
 20
-76.49825
 30
0.0
 11
31.8084814
 21
-71.49575
 31
0.0
  0
LINE
  5
10D
100
AcDbEntity
  8
PV
  6
PHANTOM
 62
         3
100
AcDbLine
 10
35.0240884
 20
-82.751375
 30
0.0
 11
79.3322314
 21
-82.751375
 31
0.0
  0
LINE
  5
10E
100
AcDbEntity
  8
PV
  6
PHANTOM
 62
         3
100
AcDbLine
 10
31.8084814
 20
-71.49575
 30
0.0
 11
82.5478384
 21
-71.49575
 31
0.0
  0
LINE
  5
10F
100
AcDbEntity
  8
PV
  6
CENTER
 62
         3
100
AcDbLine
 10
92.4097669
 20
-81.250625
 30
0.0
 11
92.4097669
 21
-89.254625
 31
0.0
  0
LINE
  5
110
100
AcDbEntity
  8
PV
  6
CENTER
 62
         3
100
AcDbLine
 10
88.4077669
 20
-85.252625
 30
0.0
 11
96.4117669
 21
-85.252625
 31
0.0
  0
LINE
  5
111
100
AcDbEntity
  8
PV
  6
CONTINUOUS
 62
         3
100
AcDbLine
 10
88.4077669
 20
-79.49975
 30
0.0
 11
96.4117669
 21
-79.49975
 31
0.0
  0
LINE
  5
112
100
AcDbEntity
  8
PV
  6
CONTINUOUS
 62
         3
100
AcDbLine
 10
88.4077669
 20
-92.006
 30
0.0
 11
88.4077669
 21
-79.49975
 31
0.0
  0
LINE
  5
113
100
AcDbEntity
  8
PV
  6
CONTINUOUS
 62
         3
100
AcDbLine
 10
88.4077669
 20
-116.018
 30
0.0
 11
88.4077669
 21
-117.0185
 31
0.0
  0
LINE
  5
114
100
AcDbEntity
  8
PV
  6
CONTINUOUS
 62
         3
100
AcDbLine
 10
96.4117669
 20
-116.018
 30
0.0
 11
96.4117669
 21
-117.0185
 31
0.0
  0
LINE
  5
115
100
AcDbEntity
  8
PV
  6
CONTINUOUS
 62
         3
100
AcDbLine
 10
96.4117669
 20
-91.0055
 30
0.0
 11
96.4117669
 21
-92.006
 31
0.0
  0
LINE
  5
116
100
AcDbEntity
  8
PV
  6
CONTINUOUS
 62
         3
100
AcDbLine
 10
96.4117669
 20
-92.006
 30
0.0
 11
96.4117669
 21
-79.49975
 31
0.0
  0
LINE
  5
117
100
AcDbEntity
  8
PV
  6
CONTINUOUS
 62
         3
100
AcDbLine
 10
35.0240884
 20
-82.751375
 30
0.0
 11
31.8084814
 21
-71.49575
 31
0.0
  0
LINE
  5
118
100
AcDbEntity
  8
PV
  6
CONTINUOUS
 62
         3
100
AcDbLine
 10
88.4077669
 20
-117.0185
 30
0.0
 11
96.4117669
 21
-117.0185
 31
0.0
  0
LINE
  5
119
100
AcDbEntity
  8
PV
  6
CONTINUOUS
 62
         3
100
AcDbLine
 10
88.4077669
 20
-91.0055
 30
0.0
 11
96.4117669
 21
-91.0055
 31
0.0
  0
LINE
  5
11A
100
AcDbEntity
  8
PV
  6
CONTINUOUS
 62
         3
100
AcDbLine
 10
88.4077669
 20
-116.018
 30
0.0
 11
88.4077669
 21
-117.0185
 31
0.0
  0
LINE
  5
11B
100
AcDbEntity
  8
PV
  6
CONTINUOUS
 62
         3
100
AcDbLine
 10
96.4117669
 20
-116.018
 30
0.0
 11
96.4117669
 21
-117.0185
 31
0.0
  0
LINE
  5
11C
100
AcDbEntity
  8
PV
  6
CONTINUOUS
 62
         3
100
AcDbLine
 10
96.4117669
 20
-91.0055
 30
0.0
 11
96.4117669
 21
-92.006
 31
0.0
  0
LINE
  5
11D
100
AcDbEntity
  8
PV
  6
CONTINUOUS
 62
         3
100
AcDbLine
 10
88.4077669
 20
-117.0185
 30
0.0
 11
96.4117669
 21
-117.0185
 31
0.0
  0
LINE
  5
11E
100
AcDbEntity
  8
PV
  6
CONTINUOUS
 62
         3
100
AcDbLine
 10
22.3747669
 20
-132.52625
 30
0.0
 11
30.3787669
 21
-132.52625
 31
0.0
  0
LINE
  5
11F
100
AcDbEntity
  8
PV
  6
CONTINUOUS
 62
         3
100
AcDbLine
 10
30.3787669
 20
-76.49825
 30
0.0
 11
30.3787669
 21
-63.992
 31
0.0
  0
LINE
  5
120
100
AcDbEntity
  8
PV
  6
CONTINUOUS
 62
         3
100
AcDbLine
 10
30.3787669
 20
-131.52575
 30
0.0
 11
30.3787669
 21
-132.52625
 31
0.0
  0
LINE
  5
121
100
AcDbEntity
  8
PV
  6
CONTINUOUS
 62
         3
100
AcDbLine
 10
22.3747669
 20
-63.992
 30
0.0
 11
30.3787669
 21
-63.992
 31
0.0
  0
LINE
  5
122
100
AcDbEntity
  8
PV
  6
CONTINUOUS
 62
         3
100
AcDbLine
 10
22.3747669
 20
-75.49775
 30
0.0
 11
30.3787669
 21
-75.49775
 31
0.0
  0
LINE
  5
123
100
AcDbEntity
  8
PV
  6
CENTER
 62
         3
100
AcDbLine
 10
26.3767669
 20
-65.742875
 30
0.0
 11
26.3767669
 21
-73.746875
 31
0.0
  0
LINE
  5
124
100
AcDbEntity
  8
PV
  6
CENTER
 62
         3
100
AcDbLine
 10
22.3747669
 20
-69.744875
 30
0.0
 11
30.3787669
 21
-69.744875
 31
0.0
  0
LINE
  5
125
100
AcDbEntity
  8
PV
  6
CONTINUOUS
 62
         3
100
AcDbLine
 10
22.3747669
 20
-76.49825
 30
0.0
 11
22.3747669
 21
-63.992
 31
0.0
  0
LINE
  5
126
100
AcDbEntity
  8
PV
  6
CENTER
 62
         3
100
AcDbLine
 10
26.3767669
 20
-65.742875
 30
0.0
 11
26.3767669
 21
-73.746875
 31
0.0
  0
LINE
  5
127
100
AcDbEntity
  8
PV
  6
CENTER
 62
         3
100
AcDbLine
 10
22.3747669
 20
-69.744875
 30
0.0
 11
30.3787669
 21
-69.744875
 31
0.0
  0
LINE
  5
128
100
AcDbEntity
  8
PV
  6
CONTINUOUS
 62
         3
100
AcDbLine
 10
22.3747669
 20
-63.992
 30
0.0
 11
30.3787669
 21
-63.992
 31
0.0
  0
LINE
  5
129
100
AcDbEntity
  8
PV
  6
CONTINUOUS
 62
         3
100
AcDbLine
 10
30.3787669
 20
-76.49825
 30
0.0
 11
30.3787669
 21
-63.992
 31
0.0
  0
LINE
  5
12A
100
AcDbEntity
  8
PV
  6
CONTINUOUS
 62
         3
100
AcDbLine
 10
30.3787669
 20
-131.52575
 30
0.0
 11
30.3787669
 21
-132.52625
 31
0.0
  0
LINE
  5
12B
100
AcDbEntity
  8
PV
  6
CONTINUOUS
 62
         3
100
AcDbLine
 10
22.3747669
 20
-76.49825
 30
0.0
 11
22.3747669
 21
-63.992
 31
0.0
  0
LINE
  5
12C
100
AcDbEntity
  8
PV
  6
CONTINUOUS
 62
         3
100
AcDbLine
 10
22.3747669
 20
-75.49775
 30
0.0
 11
30.3787669
 21
-75.49775
 31
0.0
  0
LINE
  5
12D
100
AcDbEntity
  8
PV
  6
CONTINUOUS
 62
         3
100
AcDbLine
 10
22.3747669
 20
-132.52625
 30
0.0
 11
30.3787669
 21
-132.52625
 31
0.0
  0
LINE
  5
12E
100
AcDbEntity
  8
PV
  6
CONTINUOUS
 62
         3
100
AcDbLine
 10
12.3697669
 20
-128.024
 30
0.0
 11
12.3697669
 21
-131.52575
 31
0.0
  0
LINE
  5
12F
100
AcDbEntity
  8
PV
  6
CONTINUOUS
 62
         3
100
AcDbLine
 10
26.3767669
 20
-128.024
 30
0.0
 11
26.3767669
 21
-131.52575
 31
0.0
  0
LINE
  5
130
100
AcDbEntity
  8
PV
  6
CONTINUOUS
 62
         3
100
AcDbLine
 10
6.36676689
 20
-130.52525
 30
0.0
 11
7.23319989
 21
-131.0255
 31
0.0
  0
LINE
  5
131
100
AcDbEntity
  8
PV
  6
CONTINUOUS
 62
         3
100
AcDbLine
 10
-4.63873311
 20
-130.52525
 30
0.0
 11
-5.50516611
 21
-131.0255
 31
0.0
  0
LINE
  5
132
100
AcDbEntity
  8
PV
  6
CONTINUOUS
 62
         3
100
AcDbLine
 10
7.23319989
 20
-131.0255
 30
0.0
 11
8.36776689
 21
-131.0255
 31
0.0
  0
LINE
  5
133
100
AcDbEntity
  8
PV
  6
CONTINUOUS
 62
         3
100
AcDbLine
 10
-4.63873311
 20
-130.52525
 30
0.0
 11
6.36676689
 21
-130.52525
 31
0.0
  0
LINE
  5
134
100
AcDbEntity
  8
PV
  6
CONTINUOUS
 62
         3
100
AcDbLine
 10
-43.6582331
 20
-131.0255
 30
0.0
 11
-5.50516611
 21
-131.0255
 31
0.0
  0
LINE
  5
135
100
AcDbEntity
  8
PV
  6
CONTINUOUS
 62
         3
100
AcDbLine
 10
6.36676689
 20
-77.49875
 30
0.0
 11
7.23319989
 21
-76.9985
 31
0.0
  0
LINE
  5
136
100
AcDbEntity
  8
PV
  6
CONTINUOUS
 62
         3
100
AcDbLine
 10
-4.63873311
 20
-77.49875
 30
0.0
 11
-5.50516611
 21
-76.9985
 31
0.0
  0
LINE
  5
137
100
AcDbEntity
  8
PV
  6
CONTINUOUS
 62
         3
100
AcDbLine
 10
-4.63873311
 20
-77.49875
 30
0.0
 11
-4.63873311
 21
-130.52525
 31
0.0
  0
LINE
  5
138
100
AcDbEntity
  8
PV
  6
CONTINUOUS
 62
         3
100
AcDbLine
 10
6.36676689
 20
-77.49875
 30
0.0
 11
6.36676689
 21
-130.52525
 31
0.0
  0
LINE
  5
139
100
AcDbEntity
  8
PV
  6
CONTINUOUS
 62
         3
100
AcDbLine
 10
8.36776689
 20
-76.49825
 30
0.0
 11
8.36776689
 21
-131.52575
 31
0.0
  0
LINE
  5
13A
100
AcDbEntity
  8
PV
  6
CENTER
 62
         3
100
AcDbLine
 10
-50.6617331
 20
-99.0095
 30
0.0
 11
-50.6617331
 21
-109.0145
 31
0.0
  0
LINE
  5
13B
100
AcDbEntity
  8
PV
  6
CONTINUOUS
 62
         3
100
AcDbLine
 10
38.3827669
 20
-89.0045
 30
0.0
 11
38.3827669
 21
-119.0195
 31
0.0
  0
LINE
  5
13C
100
AcDbEntity
  8
PV
  6
CONTINUOUS
 62
         3
100
AcDbLine
 10
38.3827669
 20
-109.6148
 30
0.0
 11
88.4077669
 21
-109.6148
 31
0.0
  0
LINE
  5
13D
100
AcDbEntity
  8
PV
  6
CONTINUOUS
 62
         3
100
AcDbLine
 10
38.3827669
 20
-98.4092
 30
0.0
 11
88.4077669
 21
-98.4092
 31
0.0
  0
LINE
  5
13E
100
AcDbEntity
  8
PV
  6
CONTINUOUS
 62
         3
100
AcDbLine
 10
30.3787669
 20
-76.49825
 30
0.0
 11
30.3787669
 21
-131.52575
 31
0.0
  0
LINE
  5
13F
100
AcDbEntity
  8
PV
  6
CONTINUOUS
 62
         3
100
AcDbLine
 10
13.8705169
 20
-129.72485
 30
0.0
 11
13.8705169
 21
-128.024
 31
0.0
  0
LINE
  5
140
100
AcDbEntity
  8
PV
  6
CONTINUOUS
 62
         3
100
AcDbLine
 10
24.8760169
 20
-129.72485
 30
0.0
 11
24.8760169
 21
-128.024
 31
0.0
  0
LINE
  5
141
100
AcDbEntity
  8
PV
  6
CONTINUOUS
 62
         3
100
AcDbLine
 10
13.8705169
 20
-129.72485
 30
0.0
 11
24.8760169
 21
-129.72485
 31
0.0
  0
LINE
  5
142
100
AcDbEntity
  8
PV
  6
CENTER
 62
         3
100
AcDbLine
 10
10.3687669
 20
-73.858931
 30
0.0
 11
10.3687669
 21
-77.970986
 31
0.0
  0
LINE
  5
143
100
AcDbEntity
  8
PV
  6
CONTINUOUS
 62
         3
100
AcDbLine
 10
22.8249919
 20
-131.52575
 30
0.0
 11
30.3787669
 21
-131.52575
 31
0.0
  0
LINE
  5
144
100
AcDbEntity
  8
PV
  6
CENTER
 62
         3
100
AcDbLine
 10
19.3732669
 20
-125.384681
 30
0.0
 11
19.3732669
 21
-134.236105
 31
0.0
  0
LINE
  5
145
100
AcDbEntity
  8
PV
  6
CONTINUOUS
 62
         3
100
AcDbLine
 10
12.3697669
 20
-128.024
 30
0.0
 11
26.3767669
 21
-128.024
 31
0.0
  0
LINE
  5
146
100
AcDbEntity
  8
PV
  6
CONTINUOUS
 62
         3
100
AcDbLine
 10
96.9070144
 20
-92.006
 30
0.0
 11
96.9070144
 21
-116.018
 31
0.0
  0
LINE
  5
147
100
AcDbEntity
  8
PV
  6
CONTINUOUS
 62
         3
100
AcDbLine
 10
7.23319989
 20
-76.9985
 30
0.0
 11
8.36776689
 21
-76.9985
 31
0.0
  0
LINE
  5
148
100
AcDbEntity
  8
PV
  6
CONTINUOUS
 62
         3
100
AcDbLine
 10
-4.63873311
 20
-77.49875
 30
0.0
 11
6.36676689
 21
-77.49875
 31
0.0
  0
LINE
  5
149
100
AcDbEntity
  8
PV
  6
CONTINUOUS
 62
         3
100
AcDbLine
 10
-57.6652331
 20
-76.748375
 30
0.0
 11
-43.6582331
 21
-76.748375
 31
0.0
  0
LINE
  5
14A
100
AcDbEntity
  8
PV
  6
CONTINUOUS
 62
         3
100
AcDbLine
 10
-57.6652331
 20
-131.275625
 30
0.0
 11
-43.6582331
 21
-131.275625
 31
0.0
  0
LINE
  5
14B
100
AcDbEntity
  8
PV
  6
CONTINUOUS
 62
         3
100
AcDbLine
 10
-43.6582331
 20
-76.9985
 30
0.0
 11
-5.50516611
 21
-76.9985
 31
0.0
  0
LINE
  5
14C
100
AcDbEntity
  8
PV
  6
CONTINUOUS
 62
         3
100
AcDbLine
 10
-57.6652331
 20
-76.748375
 30
0.0
 11
-57.6652331
 21
-131.275625
 31
0.0
  0
LINE
  5
14D
100
AcDbEntity
  8
PV
  6
CONTINUOUS
 62
         3
100
AcDbLine
 10
-43.6582331
 20
-76.748375
 30
0.0
 11
-43.6582331
 21
-131.275625
 31
0.0
  0
LINE
  5
14E
100
AcDbEntity
  8
PV
  6
CONTINUOUS
 62
         3
100
AcDbLine
 10
-92.6827331
 20
-131.0255
 30
0.0
 11
-57.6652331
 21
-131.0255
 31
0.0
  0
LINE
  5
14F
100
AcDbEntity
  8
PV
  6
CONTINUOUS
 62
         3
100
AcDbLine
 10
-92.6827331
 20
-76.9985
 30
0.0
 11
-57.6652331
 21
-76.9985
 31
0.0
  0
LINE
  5
150
100
AcDbEntity
  8
PV
  6
CONTINUOUS
 62
         3
100
AcDbLine
 10
8.36776689
 20
-76.49825
 30
0.0
 11
30.3787669
 21
-76.49825
 31
0.0
  0
LINE
  5
151
100
AcDbEntity
  8
PV
  6
CONTINUOUS
 62
         3
100
AcDbLine
 10
8.36776689
 20
-131.52575
 30
0.0
 11
12.3697669
 21
-131.52575
 31
0.0
  0
LINE
  5
152
100
AcDbEntity
  8
PV
  6
CONTINUOUS
 62
         3
100
AcDbLine
 10
30.3787669
 20
-119.0195
 30
0.0
 11
38.3827669
 21
-119.0195
 31
0.0
  0
LINE
  5
153
100
AcDbEntity
  8
PV
  6
CONTINUOUS
 62
         3
100
AcDbLine
 10
30.3787669
 20
-89.0045
 30
0.0
 11
38.3827669
 21
-89.0045
 31
0.0
  0
LINE
  5
154
100
AcDbEntity
  8
PV
  6
CONTINUOUS
 62
         3
100
AcDbLine
 10
88.4077669
 20
-92.006
 30
0.0
 11
96.9070144
 21
-92.006
 31
0.0
  0
LINE
  5
155
100
AcDbEntity
  8
PV
  6
CONTINUOUS
 62
         3
100
AcDbLine
 10
88.4077669
 20
-116.018
 30
0.0
 11
96.9070144
 21
-116.018
 31
0.0
  0
LINE
  5
156
100
AcDbEntity
  8
PV
  6
CONTINUOUS
 62
         3
100
AcDbLine
 10
88.4077669
 20
-92.006
 30
0.0
 11
88.4077669
 21
-116.018
 31
0.0
  0
LINE
  5
157
100
AcDbEntity
  8
PV
  6
CONTINUOUS
 62
         3
100
AcDbLine
 10
-92.6827331
 20
-76.49825
 30
0.0
 11
-92.6827331
 21
-131.52575
 31
0.0
  0
LINE
  5
158
100
AcDbEntity
  8
PV
  6
CONTINUOUS
 62
         3
100
AcDbLine
 10
-111.692233
 20
-131.52575
 30
0.0
 11
-92.6827331
 21
-131.52575
 31
0.0
  0
LINE
  5
159
100
AcDbEntity
  8
PV
  6
CONTINUOUS
 62
         3
100
AcDbLine
 10
-111.692233
 20
-76.49825
 30
0.0
 11
-92.6827331
 21
-76.49825
 31
0.0
  0
LINE
  5
15A
100
AcDbEntity
  8
PV
  6
CONTINUOUS
 62
         3
100
AcDbLine
 10
-111.692233
 20
-76.49825
 30
0.0
 11
-111.692233
 21
-131.52575
 31
0.0
  0
LINE
  5
15B
100
AcDbEntity
  8
PV
  6
CENTER
 62
         3
100
AcDbLine
 10
-132.877821
 20
-104.012
 30
0.0
 11
101.404262
 21
-104.012
 31
0.0
  0
MTEXT
  5
15C
100
AcDbEntity
  8
PV
  6
CONTINUOUS
 62
       110
100
AcDbMText
 10
77.4388092079
 20
7.0
 30
0.0
 40
4.0
 41
0.0
 71
         1
 72
         1
  1
\W1.286;\A1;2.4
  0
MTEXT
  5
15D
100
AcDbEntity
  8
PV
  6
CONTINUOUS
 62
       110
100
AcDbMText
 10
67.4959520339
 20
17.0
 30
0.0
 40
4.0
 41
0.0
 71
         1
 72
         1
  1
\W1.371;\A1;99\{10.1\}
  0
MTEXT
  5
15E
100
AcDbEntity
  8
PV
  6
CONTINUOUS
 62
       110
100
AcDbMText
 10
65.4388092042
 20
27.0
 30
0.0
 40
4.0
 41
0.0
 71
         1
 72
         1
  1
\W1.286;\A1;42.2\{4.3\}
  0
MTEXT
  5
15F
100
AcDbEntity
  8
PV
  6
CONTINUOUS
 62
       110
100
AcDbMText
 10
65.3476238412
 20
37.0
 30
0.0
 40
4.0
 41
0.0
 71
         1
 72
         1
  1
\W1.149;\A1;3920\{400\}
  0
MTEXT
  5
160
100
AcDbEntity
  8
PV
  6
CONTINUOUS
 62
       110
100
AcDbMText
 10
79.3089391437
 20
47.0
 30
0.0
 40
4.0
 41
0.0
 71
         1
 72
         1
  1
\W1.091;\A1;20
  0
MTEXT
  5
161
100
AcDbEntity
  8
PV
  6
CONTINUOUS
 62
       110
100
AcDbMText
 10
65.3316663991
 20
57.0
 30
0.0
 40
4.0
 41
0.0
 71
         1
 72
         1
  1
\W1.125;\A1;2450\{250\}
  0
MTEXT
  5
162
100
AcDbEntity
  8
PV
  6
CONTINUOUS
 62
       110
100
AcDbMText
 10
79.3089391437
 20
67.0
 30
0.0
 40
4.0
 41
0.0
 71
         1
 72
         1
  1
\W1.091;\A1;50
  0
MTEXT
  5
163
100
AcDbEntity
  8
PV
  6
CONTINUOUS
 62
       110
100
AcDbMText
 10
73.2483330784
 20
77.0
 30
0.0
 40
4.0
 41
0.0
 71
         1
 72
         1
  1
\W0.833;\A1;０～０．５
  0
MTEXT
  5
164
100
AcDbEntity
  8
PV
  6
CONTINUOUS
 62
       110
100
AcDbMText
 10
69.3816663728
 20
87.0
 30
0.0
 40
4.0
 41
0.0
 71
         1
 72
         1
  1
\W1.200;\A1;196\{20\}
  0
MTEXT
  5
165
100
AcDbEntity
  8
PV
  6
CONTINUOUS
 62
       110
100
AcDbMText
 10
69.2483330784
 20
97.0
 30
0.0
 40
4.0
 41
0.0
 71
         1
 72
         1
  1
\W0.833;\A1;６０～６０００
  0
MTEXT
  5
166
100
AcDbEntity
  8
PV
  6
CONTINUOUS
 62
       110
100
AcDbMText
 10
55.2816664241
 20
107.0
 30
0.0
 40
4.0
 41
0.0
 71
         1
 72
         1
  1
\W1.050;\A1;DP002A050FJ-TE
  0
MTEXT
  5
167
100
AcDbEntity
  8
PV
  6
CONTINUOUS
 62
       110
100
AcDbMText
 10
2.4388092079
 20
7.0
 30
0.0
 40
4.0
 41
0.0
 71
         1
 72
         1
  1
\W1.286;\A1;2.4
  0
MTEXT
  5
168
100
AcDbEntity
  8
PV
  6
CONTINUOUS
 62
       110
100
AcDbMText
 10
-7.5040479561
 20
17.0
 30
0.0
 40
4.0
 41
0.0
 71
         1
 72
         1
  1
\W1.371;\A1;99\{10.1\}
  0
MTEXT
  5
169
100
AcDbEntity
  8
PV
  6
CONTINUOUS
 62
       110
100
AcDbMText
 10
-9.5611907658
 20
27.0
 30
0.0
 40
4.0
 41
0.0
 71
         1
 72
         1
  1
\W1.286;\A1;42.2\{4.3\}
  0
MTEXT
  5
16A
100
AcDbEntity
  8
PV
  6
CONTINUOUS
 62
       110
100
AcDbMText
 10
-9.6523761288
 20
37.0
 30
0.0
 40
4.0
 41
0.0
 71
         1
 72
         1
  1
\W1.149;\A1;3920\{400\}
  0
MTEXT
  5
16B
100
AcDbEntity
  8
PV
  6
CONTINUOUS
 62
       110
100
AcDbMText
 10
4.3089391537
 20
47.0
 30
0.0
 40
4.0
 41
0.0
 71
         1
 72
         1
  1
\W1.091;\A1;20
  0
MTEXT
  5
16C
100
AcDbEntity
  8
PV
  6
CONTINUOUS
 62
       110
100
AcDbMText
 10
-9.6683335709
 20
57.0
 30
0.0
 40
4.0
 41
0.0
 71
         1
 72
         1
  1
\W1.125;\A1;2450\{250\}
  0
MTEXT
  5
16D
100
AcDbEntity
  8
PV
  6
CONTINUOUS
 62
       110
100
AcDbMText
 10
4.3089391537
 20
67.0
 30
0.0
 40
4.0
 41
0.0
 71
         1
 72
         1
  1
\W1.091;\A1;50
  0
MTEXT
  5
16E
100
AcDbEntity
  8
PV
  6
CONTINUOUS
 62
       110
100
AcDbMText
 10
-5.7516669116
 20
77.0
 30
0.0
 40
4.0
 41
0.0
 71
         1
 72
         1
  1
\W0.833;\A1;０．１～２．５
  0
MTEXT
  5
16F
100
AcDbEntity
  8
PV
  6
CONTINUOUS
 62
       110
100
AcDbMText
 10
-5.6183336172
 20
87.0
 30
0.0
 40
4.0
 41
0.0
 71
         1
 72
         1
  1
\W1.200;\A1;196\{20\}
  0
MTEXT
  5
170
100
AcDbEntity
  8
PV
  6
CONTINUOUS
 62
       110
100
AcDbMText
 10
-5.7516669116
 20
97.0
 30
0.0
 40
4.0
 41
0.0
 71
         1
 72
         1
  1
\W0.833;\A1;２０～２０００
  0
MTEXT
  5
171
100
AcDbEntity
  8
PV
  6
CONTINUOUS
 62
       110
100
AcDbMText
 10
-13.7086561593
 20
107.0
 30
0.0
 40
4.0
 41
0.0
 71
         1
 72
         1
  1
\W1.065;\A1;DP002A050FJ
  0
MTEXT
  5
172
100
AcDbEntity
  8
PV
  6
CONTINUOUS
 62
       110
100
AcDbMText
 10
-84.2666669216
 20
17.0
 30
0.0
 40
4.0
 41
0.0
 71
         1
 72
         1
  1
\W0.833;\A1;ロッド収縮時
  0
MTEXT
  5
173
100
AcDbEntity
  8
PV
  6
CONTINUOUS
 62
       110
100
AcDbMText
 10
-84.2666669216
 20
27.0
 30
0.0
 40
4.0
 41
0.0
 71
         1
 72
         1
  1
\W0.833;\A1;ロッド伸張時
  0
MTEXT
  5
174
100
AcDbEntity
  8
PV
  6
CONTINUOUS
 62
       110
100
AcDbMText
 10
-55.1833336065
 20
17.0
 30
0.0
 40
4.0
 41
0.0
 71
         1
 72
         1
  1
\W1.125;\A1;N\{kgf\}
  0
MTEXT
  5
175
100
AcDbEntity
  8
PV
  6
CONTINUOUS
 62
       110
100
AcDbMText
 10
-59.2666666213
 20
7.0
 30
0.0
 40
4.0
 41
0.0
 71
         1
 72
         1
  1
\A1;kg
  0
MTEXT
  5
176
100
AcDbEntity
  8
PV
  6
CONTINUOUS
 62
       110
100
AcDbMText
 10
-117.2666670216
 20
7.0
 30
0.0
 40
4.0
 41
0.0
 71
         1
 72
         1
  1
\W0.833;\A1;製品質量
  0
MTEXT
  5
177
100
AcDbEntity
  8
PV
  6
CONTINUOUS
 62
       110
100
AcDbMText
 10
-55.1833336065
 20
27.0
 30
0.0
 40
4.0
 41
0.0
 71
         1
 72
         1
  1
\W1.125;\A1;N\{kgf\}
  0
MTEXT
  5
178
100
AcDbEntity
  8
PV
  6
CONTINUOUS
 62
       110
100
AcDbMText
 10
-55.1833336065
 20
37.0
 30
0.0
 40
4.0
 41
0.0
 71
         1
 72
         1
  1
\W1.125;\A1;N\{kgf\}
  0
MTEXT
  5
179
100
AcDbEntity
  8
PV
  6
CONTINUOUS
 62
       110
100
AcDbMText
 10
-35.5666667667
 20
47.5
 30
0.0
 40
2.0
 41
0.0
 71
         1
 72
         1
  1
\W1.200;\A1;-1
  0
MTEXT
  5
17A
100
AcDbEntity
  8
PV
  6
CONTINUOUS
 62
       110
100
AcDbMText
 10
-46.8044272242
 20
47.0
 30
0.0
 40
4.0
 41
0.0
 71
         1
 72
         1
  1
\T1.134;\W1.334;\A1;min
  0
MTEXT
  5
17B
100
AcDbEntity
  8
PV
  6
CONTINUOUS
 62
       110
100
AcDbMText
 10
-67.1022222501
 20
54.2000001502
 30
0.0
 40
3.2000000477
 41
0.0
 71
         1
 72
         1
  1
\W0.787;\A1;｛ｋｇｆ・ｍ／　ｍｉｎ｝
  0
MTEXT
  5
17C
100
AcDbEntity
  8
PV
  6
CONTINUOUS
 62
       110
100
AcDbMText
 10
-66.445825428
 20
59.0000001502
 30
0.0
 40
3.2000000477
 41
0.0
 71
         1
 72
         1
  1
\T1.186;\W1.723;\A1;      J/ min
  0
MTEXT
  5
17D
100
AcDbEntity
  8
PV
  6
CONTINUOUS
 62
       110
100
AcDbMText
 10
-39.2666666213
 20
67.0
 30
0.0
 40
4.0
 41
0.0
 71
         1
 72
         1
  1
\A1;mm
  0
MTEXT
  5
17E
100
AcDbEntity
  8
PV
  6
CONTINUOUS
 62
       110
100
AcDbMText
 10
-43.5273783729
 20
77.0
 30
0.0
 40
4.0
 41
0.0
 71
         1
 72
         1
  1
\W1.089;\A1;m/ s
  0
MTEXT
  5
17F
100
AcDbEntity
  8
PV
  6
CONTINUOUS
 62
       110
100
AcDbMText
 10
-63.2666669216
 20
87.0
 30
0.0
 40
4.0
 41
0.0
 71
         1
 72
         1
  1
\W0.833;\A1;Ｊ｛ｋｇｆ・ｍ｝
  0
MTEXT
  5
180
100
AcDbEntity
  8
PV
  6
CONTINUOUS
 62
       110
100
AcDbMText
 10
-59.1964914948
 20
97.0
 30
0.0
 40
4.0
 41
0.0
 71
         1
 72
         1
  1
\W1.105;\A1;kg\{kgf\}
  0
MTEXT
  5
181
100
AcDbEntity
  8
PV
  6
CONTINUOUS
 62
       110
100
AcDbMText
 10
-117.2666670216
 20
22.0
 30
0.0
 40
4.0
 41
0.0
 71
         1
 72
         1
  1
\W0.833;\A1;復帰バネ設定力
  0
MTEXT
  5
182
100
AcDbEntity
  8
PV
  6
CONTINUOUS
 62
       110
100
AcDbMText
 10
-117.2666670216
 20
37.0
 30
0.0
 40
4.0
 41
0.0
 71
         1
 72
         1
  1
\W0.833;\A1;許容抵抗力
  0
MTEXT
  5
183
100
AcDbEntity
  8
PV
  6
CONTINUOUS
 62
       110
100
AcDbMText
 10
-117.2666670216
 20
47.0
 30
0.0
 40
4.0
 41
0.0
 71
         1
 72
         1
  1
\W0.833;\A1;毎分当りの最高使用頻度
  0
MTEXT
  5
184
100
AcDbEntity
  8
PV
  6
CONTINUOUS
 62
       110
100
AcDbMText
 10
-117.0133330512
 20
54.2000001502
 30
0.0
 40
3.2000000477
 41
0.0
 71
         1
 72
         1
  1
\W0.833;\A1;吸収エネルギ－の最大値
  0
MTEXT
  5
185
100
AcDbEntity
  8
PV
  6
CONTINUOUS
 62
       110
100
AcDbMText
 10
-117.0133330512
 20
59.0000001502
 30
0.0
 40
3.2000000477
 41
0.0
 71
         1
 72
         1
  1
\W0.833;\A1;毎分当りの
  0
MTEXT
  5
186
100
AcDbEntity
  8
PV
  6
CONTINUOUS
 62
       110
100
AcDbMText
 10
-117.2666670216
 20
67.0
 30
0.0
 40
4.0
 41
0.0
 71
         1
 72
         1
  1
\W0.833;\A1;吸収ストロ－ク
  0
MTEXT
  5
187
100
AcDbEntity
  8
PV
  6
CONTINUOUS
 62
       110
100
AcDbMText
 10
-117.2666670216
 20
77.0
 30
0.0
 40
4.0
 41
0.0
 71
         1
 72
         1
  1
\W0.833;\A1;許容衝突速度
  0
MTEXT
  5
188
100
AcDbEntity
  8
PV
  6
CONTINUOUS
 62
       110
100
AcDbMText
 10
-117.2666670216
 20
87.0
 30
0.0
 40
4.0
 41
0.0
 71
         1
 72
         1
  1
\W0.833;\A1;吸収エネルギ－の最大値
  0
MTEXT
  5
189
100
AcDbEntity
  8
PV
  6
CONTINUOUS
 62
       110
100
AcDbMText
 10
-117.2666670216
 20
97.0
 30
0.0
 40
4.0
 41
0.0
 71
         1
 72
         1
  1
\W0.833;\A1;衝突物の許容相当質量｛重量｝
  0
MTEXT
  5
18A
100
AcDbEntity
  8
PV
  6
CONTINUOUS
 62
       110
100
AcDbMText
 10
-117.2666670216
 20
107.0
 30
0.0
 40
4.0
 41
0.0
 71
         1
 72
         1
  1
\W0.833;\A1;形番
  0
LINE
  5
18B
100
AcDbEntity
  8
PV
  6
CONTINUOUS
 62
         3
100
AcDbLine
 10
45.0
 20
110.0
 30
0.0
 11
45.0
 21
0.0
 31
0.0
  0
LINE
  5
18C
100
AcDbEntity
  8
PV
  6
CONTINUOUS
 62
         3
100
AcDbLine
 10
120.0
 20
110.0
 30
0.0
 11
120.0
 21
0.0
 31
0.0
  0
LINE
  5
18D
100
AcDbEntity
  8
PV
  6
CONTINUOUS
 62
         3
100
AcDbLine
 10
-87.0
 20
30.0
 30
0.0
 11
-87.0
 21
10.0
 31
0.0
  0
LINE
  5
18E
100
AcDbEntity
  8
PV
  6
CONTINUOUS
 62
         3
100
AcDbLine
 10
-120.0
 20
110.0
 30
0.0
 11
120.0
 21
110.0
 31
0.0
  0
LINE
  5
18F
100
AcDbEntity
  8
PV
  6
CONTINUOUS
 62
         3
100
AcDbLine
 10
-120.0
 20
100.0
 30
0.0
 11
120.0
 21
100.0
 31
0.0
  0
LINE
  5
190
100
AcDbEntity
  8
PV
  6
CONTINUOUS
 62
         3
100
AcDbLine
 10
-120.0
 20
90.0
 30
0.0
 11
120.0
 21
90.0
 31
0.0
  0
LINE
  5
191
100
AcDbEntity
  8
PV
  6
CONTINUOUS
 62
         3
100
AcDbLine
 10
-120.0
 20
80.0
 30
0.0
 11
120.0
 21
80.0
 31
0.0
  0
LINE
  5
192
100
AcDbEntity
  8
PV
  6
CONTINUOUS
 62
         3
100
AcDbLine
 10
-120.0
 20
70.0
 30
0.0
 11
120.0
 21
70.0
 31
0.0
  0
LINE
  5
193
100
AcDbEntity
  8
PV
  6
CONTINUOUS
 62
         3
100
AcDbLine
 10
-120.0
 20
60.0
 30
0.0
 11
120.0
 21
60.0
 31
0.0
  0
LINE
  5
194
100
AcDbEntity
  8
PV
  6
CONTINUOUS
 62
         3
100
AcDbLine
 10
-120.0
 20
50.0
 30
0.0
 11
120.0
 21
50.0
 31
0.0
  0
LINE
  5
195
100
AcDbEntity
  8
PV
  6
CONTINUOUS
 62
         3
100
AcDbLine
 10
-120.0
 20
40.0
 30
0.0
 11
120.0
 21
40.0
 31
0.0
  0
LINE
  5
196
100
AcDbEntity
  8
PV
  6
CONTINUOUS
 62
         3
100
AcDbLine
 10
-120.0
 20
30.0
 30
0.0
 11
120.0
 21
30.0
 31
0.0
  0
LINE
  5
197
100
AcDbEntity
  8
PV
  6
CONTINUOUS
 62
         3
100
AcDbLine
 10
-87.0
 20
20.0
 30
0.0
 11
120.0
 21
20.0
 31
0.0
  0
LINE
  5
198
100
AcDbEntity
  8
PV
  6
CONTINUOUS
 62
         3
100
AcDbLine
 10
-120.0
 20
10.0
 30
0.0
 11
120.0
 21
10.0
 31
0.0
  0
LINE
  5
199
100
AcDbEntity
  8
PV
  6
CONTINUOUS
 62
         3
100
AcDbLine
 10
-30.0
 20
110.0
 30
0.0
 11
-30.0
 21
0.0
 31
0.0
  0
LINE
  5
19A
100
AcDbEntity
  8
PV
  6
CONTINUOUS
 62
         3
100
AcDbLine
 10
-120.0
 20
110.0
 30
0.0
 11
-120.0
 21
0.0
 31
0.0
  0
LINE
  5
19B
100
AcDbEntity
  8
PV
  6
CONTINUOUS
 62
         3
100
AcDbLine
 10
-120.0
 20
0.0
 30
0.0
 11
120.0
 21
0.0
 31
0.0
  0
DIMENSION
  5
1AA
100
AcDbEntity
  8
PV
  6
CONTINUOUS
 62
       110
100
AcDbDimension
  2
*D2
 10
-172.677733
 20
-50.0804988
 30
0.0
 11
-201.3922321913
 21
-50.0804988
 31
0.0
 70
       128
  1
\A1;<>
  3
MXDIMSTYLE
100
AcDbAlignedDimension
 13
-230.706733
 23
-65.8189126107
 33
0.0
 14
-172.677733
 24
-65.8189126107
 34
0.0
100
AcDbRotatedDimension
1001
ACAD
1000
DSTYLE
1002
{
1070
         6
1000
SOLID
1070
         7
1000
SOLID
1070
        41
1040
1.0000000298
1070
        42
1040
0.0625
1070
       271
1070
         4
1070
       284
1070
         8
1070
       343
1005
0
1070
       344
1005
0
1002
}
  0
DIMENSION
  5
1B9
100
AcDbEntity
  8
PV
  6
CONTINUOUS
 62
       110
100
AcDbDimension
  2
*D3
 10
-161.672233
 20
-39.0622376
 30
0.0
 11
-201.3922333052
 21
-39.0622376
 31
0.0
 70
       128
  1
\A1;<>
  3
MXDIMSTYLE
100
AcDbAlignedDimension
 13
-241.712233
 23
-63.9919994866
 33
0.0
 14
-161.672233
 24
-63.9919994866
 34
0.0
100
AcDbRotatedDimension
1001
ACAD
1000
DSTYLE
1002
{
1070
         6
1000
SOLID
1070
         7
1000
SOLID
1070
        41
1040
1.0000000298
1070
        42
1040
0.0625
1070
       271
1070
         4
1070
       284
1070
         8
1070
       343
1005
0
1070
       344
1005
0
1002
}
  0
DIMENSION
  5
1C8
100
AcDbEntity
  8
PV
  6
CONTINUOUS
 62
       110
100
AcDbDimension
  2
*D4
 10
-148.523428
 20
-133.0265
 30
0.0
 11
-148.523428
 21
-103.7120004272
 31
0.0
 70
       128
  1
\A1;<>
  3
MXDIMSTYLE
100
AcDbAlignedDimension
 13
-163.8713322053
 23
-74.9975
 33
0.0
 14
-163.8713322053
 24
-133.0265
 34
0.0
 50
90.0
100
AcDbRotatedDimension
1001
ACAD
1000
DSTYLE
1002
{
1070
         6
1000
SOLID
1070
         7
1000
SOLID
1070
        41
1040
1.0000000298
1070
        42
1040
0.0625
1070
       271
1070
         4
1070
       284
1070
         8
1070
       343
1005
0
1070
       344
1005
0
1002
}
  0
DIMENSION
  5
1D7
100
AcDbEntity
  8
PV
  6
CONTINUOUS
 62
       110
100
AcDbDimension
  2
*D5
 10
-139.200284
 20
-144.032
 30
0.0
 11
-139.200284
 21
-103.7120012207
 31
0.0
 70
       128
  1
\A1;<>
  3
MXDIMSTYLE
100
AcDbAlignedDimension
 13
-161.6722326237
 23
-63.992
 33
0.0
 14
-161.6722326237
 24
-144.032
 34
0.0
 50
90.0
100
AcDbRotatedDimension
1001
ACAD
1000
DSTYLE
1002
{
1070
         6
1000
SOLID
1070
         7
1000
SOLID
1070
        41
1040
1.0000000298
1070
        42
1040
0.0625
1070
       271
1070
         4
1070
       284
1070
         8
1070
       343
1005
0
1070
       344
1005
0
1002
}
  0
MTEXT
  5
1D8
100
AcDbEntity
  8
PV
  6
CONTINUOUS
 62
       110
100
AcDbMText
 10
-250.7633489322
 20
-164.8646873042
 30
0.0
 40
3.2000000477
 41
0.0
 71
         1
 72
         1
  1
\W1.047;\A1;4-\U+220511
 11
0.4352402101
 21
0.9003143671
 31
0.0
  0
LINE
  5
1D9
100
AcDbEntity
  8
PV
  6
CONTINUOUS
 62
         7
100
AcDbLine
 10
-247.138067
 20
-167.015469
 30
0.0
 11
-228.311715
 21
-128.072295
 31
0.0
  0
LINE
  5
1DA
100
AcDbEntity
  8
PV
  6
CONTINUOUS
 62
         7
100
AcDbLine
 10
-228.311715
 20
-128.072295
 30
0.0
 11
-228.094095
 21
-127.622138
 31
0.0
  0
LINE
  5
1DB
100
AcDbEntity
  8
PV
  6
CONTINUOUS
 62
         7
100
AcDbLine
 10
-233.101751
 20
-137.980705
 30
0.0
 11
-233.319371
 21
-138.430862
 31
0.0
  0
LINE
  5
1DC
100
AcDbEntity
  8
PV
  6
CONTINUOUS
 62
         7
100
AcDbLine
 10
-228.311715
 20
-128.072295
 30
0.0
 11
-226.353134
 21
-124.02088
 31
0.0
  0
DIMENSION
  5
1EC
100
AcDbEntity
  8
PV
  6
CONTINUOUS
 62
       110
100
AcDbDimension
  2
*D6
 10
30.3787669
 20
-62.468921
 30
0.0
 11
-9.5569929572
 21
-62.468921
 31
0.0
 70
       128
  1
\A1;<>
  3
MXDIMSTYLE
100
AcDbAlignedDimension
 13
-50.6617331
 23
-99.0095017495
 33
0.0
 14
30.3787669
 24
-76.4982502999
 34
0.0
100
AcDbRotatedDimension
1001
ACAD
1000
DSTYLE
1002
{
1070
         6
1000
SOLID
1070
         7
1000
SOLID
1070
        41
1040
1.0000000298
1070
        42
1040
0.0625
1070
       271
1070
         4
1070
       284
1070
         8
1070
       340
1005
1E6
1070
       343
1005
0
1070
       344
1005
0
1002
}
  0
DIMENSION
  5
1FC
100
AcDbEntity
  8
PV
  6
CONTINUOUS
 62
       110
100
AcDbDimension
  2
*D7
 10
170.807767
 20
-162.600495
 30
0.0
 11
237.3908932207
 21
-162.600495
 31
0.0
 70
       128
  1
\A1;<>
  3
MXDIMSTYLE
100
AcDbAlignedDimension
 13
303.374017
 23
-107.0135008289
 33
0.0
 14
170.807767
 24
-141.7988840533
 34
0.0
100
AcDbRotatedDimension
1001
ACAD
1000
DSTYLE
1002
{
1070
         6
1000
SOLID
1070
         7
1000
SOLID
1070
        41
1040
1.0000000298
1070
        42
1040
0.0625
1070
       271
1070
         4
1070
       284
1070
         8
1070
       340
1005
1F6
1070
       343
1005
0
1070
       344
1005
0
1002
}
  0
DIMENSION
  5
20C
100
AcDbEntity
  8
PV
  6
CONTINUOUS
 62
       110
100
AcDbDimension
  2
*D8
 10
193.319017
 20
-118.440327
 30
0.0
 11
248.6465160845
 21
-118.440327
 31
0.0
 70
       128
  1
\A1;<>
  3
MXDIMSTYLE
100
AcDbAlignedDimension
 13
303.374017
 23
-107.0134995693
 33
0.0
 14
193.319017
 24
-107.0134995693
 34
0.0
100
AcDbRotatedDimension
1001
ACAD
1000
DSTYLE
1002
{
1070
         6
1000
SOLID
1070
         7
1000
SOLID
1070
        41
1040
1.0000000298
1070
        42
1040
0.0625
1070
       271
1070
         4
1070
       284
1070
         8
1070
       340
1005
206
1070
       343
1005
0
1070
       344
1005
0
1002
}
  0
DIMENSION
  5
21B
100
AcDbEntity
  8
PV
  6
CONTINUOUS
 62
       110
100
AcDbDimension
  2
*D9
 10
317.843834
 20
-107.0135
 30
0.0
 11
317.843834
 21
-90.7457228165
 31
0.0
 70
       128
  1
\A1;\U+2205<>
  3
MXDIMSTYLE
100
AcDbAlignedDimension
 13
303.3740168384
 23
-101.0105
 33
0.0
 14
303.3740168384
 24
-107.0135
 34
0.0
 50
90.0
100
AcDbRotatedDimension
1001
ACAD
1000
DSTYLE
1002
{
1070
         6
1000
SOLID
1070
         7
1000
SOLID
1070
        41
1040
1.0000000298
1070
        42
1040
0.0625
1070
       271
1070
         4
1070
       284
1070
         8
1070
       340
1005
215
1070
       343
1005
0
1070
       344
1005
0
1002
}
  0
DIMENSION
  5
22A
100
AcDbEntity
  8
PV
  6
CONTINUOUS
 62
       110
100
AcDbDimension
  2
*D10
 10
113.352499
 20
-136.52825
 30
0.0
 11
113.352499
 21
-103.7120013733
 31
0.0
 70
       128
  1
\A1;\U+2205<>
  3
MXDIMSTYLE
100
AcDbAlignedDimension
 13
82.5478382029
 23
-71.49575
 33
0.0
 14
82.5478382029
 24
-136.52825
 34
0.0
 50
90.0
100
AcDbRotatedDimension
1001
ACAD
1000
DSTYLE
1002
{
1070
         6
1000
SOLID
1070
         7
1000
SOLID
1070
        41
1040
1.0000000298
1070
        42
1040
0.0625
1070
       271
1070
         4
1070
       284
1070
         8
1070
       340
1005
215
1070
       343
1005
0
1070
       344
1005
0
1002
}
  0
DIMENSION
  5
239
100
AcDbEntity
  8
PV
  6
CONTINUOUS
 62
       110
100
AcDbDimension
  2
*D11
 10
99.4132669
 20
-54.4085253
 30
0.0
 11
65.1960161981
 21
-54.4085253
 31
0.0
 70
       128
  1
\A1;<>
  3
MXDIMSTYLE
100
AcDbAlignedDimension
 13
30.3787669
 23
-76.4982507944
 33
0.0
 14
99.4132669
 24
-104.0119989633
 34
0.0
100
AcDbRotatedDimension
1001
ACAD
1000
DSTYLE
1002
{
1070
         6
1000
SOLID
1070
         7
1000
SOLID
1070
        41
1040
1.0000000298
1070
        42
1040
0.0625
1070
       271
1070
         4
1070
       284
1070
         8
1070
       343
1005
0
1070
       344
1005
0
1002
}
  0
DIMENSION
  5
248
100
AcDbEntity
  8
PV
  6
CONTINUOUS
 62
       110
100
AcDbDimension
  2
*D12
 10
106.594087
 20
-116.018
 30
0.0
 11
106.594087
 21
-103.7120003281
 31
0.0
 70
       128
  1
\A1;\U+2205<>
  3
MXDIMSTYLE
100
AcDbAlignedDimension
 13
96.9070142461
 23
-92.006
 33
0.0
 14
96.9070142461
 24
-116.018
 34
0.0
 50
90.0
100
AcDbRotatedDimension
1001
ACAD
1000
DSTYLE
1002
{
1070
         6
1000
SOLID
1070
         7
1000
SOLID
1070
        41
1040
1.0000000298
1070
        42
1040
0.0625
1070
       271
1070
         4
1070
       284
1070
         8
1070
       340
1005
215
1070
       343
1005
0
1070
       344
1005
0
1002
}
  0
DIMENSION
  5
258
100
AcDbEntity
  8
PV
  6
CONTINUOUS
 62
       110
100
AcDbDimension
  2
*D13
 10
30.3787669
 20
-54.4085253
 30
0.0
 11
-46.3597320234
 21
-54.4085253
 31
0.0
 70
       128
  1
\A1;<>
  3
MXDIMSTYLE
100
AcDbAlignedDimension
 13
-123.698233
 23
-63.9920004129
 33
0.0
 14
30.3787669
 24
-76.4982507944
 34
0.0
100
AcDbRotatedDimension
1001
ACAD
1000
DSTYLE
1002
{
1070
         6
1000
SOLID
1070
         7
1000
SOLID
1070
        41
1040
1.0000000298
1070
        42
1040
0.0625
1070
       271
1070
         4
1070
       284
1070
         8
1070
       340
1005
252
1070
       343
1005
0
1070
       344
1005
0
1002
}
  0
DIMENSION
  5
267
100
AcDbEntity
  8
PV
  6
CONTINUOUS
 62
       110
100
AcDbDimension
  2
*D14
 10
-111.692233
 20
-62.468921
 30
0.0
 11
-117.3952330267
 21
-62.468921
 31
0.0
 70
       128
  1
\A1;<>
  3
MXDIMSTYLE
100
AcDbAlignedDimension
 13
-123.698233
 23
-63.9920001569
 33
0.0
 14
-111.692233
 24
-63.9920001569
 34
0.0
100
AcDbRotatedDimension
1001
ACAD
1000
DSTYLE
1002
{
1070
         6
1000
SOLID
1070
         7
1000
SOLID
1070
        41
1040
1.0000000298
1070
        42
1040
0.0625
1070
       271
1070
         4
1070
       284
1070
         8
1070
       340
1005
1E6
1070
       343
1005
0
1070
       344
1005
0
1002
}
  0
ENDSEC
  0
SECTION
  2
OBJECTS
  0
DICTIONARY
  5
19
100
AcDbDictionary
  3
ACAD_GROUP
350
1A
  3
ACAD_MLINESTYLE
350
1B
  0
DICTIONARY
  5
1A
102
{ACAD_REACTORS
330
19
102
}
100
AcDbDictionary
  0
DICTIONARY
  5
1B
102
{ACAD_REACTORS
330
19
102
}
100
AcDbDictionary
  3
STANDARD
350
1C
  0
MLINESTYLE
  5
1C
102
{ACAD_REACTORS
330
1B
102
}
100
AcDbMlineStyle
  2
Standard
 70
         0
  3

 62
         0
 51
90.0
 52
90.0
 71
         2
 49
0.5
 62
       256
  6
ByLayer
 49
-0.5
 62
       256
  6
ByLayer
  0
ENDSEC
  0
EOF
