  0
SECTION
  2
HEADER
  9
$ACADVER
  1
AC1014
  9
$ACADMAINTVER
 70
         0
  9
$DWGCODEPAGE
  3
ANSI_932
  9
$INSBASE
 10
0.0
 20
0.0
 30
0.0
  9
$EXTMIN
 10
-187.534036
 20
-125.977469
 30
0.0
  9
$EXTMAX
 10
296.633503
 20
115.0
 30
0.0
  9
$LIMMIN
 10
-187.534036
 20
-125.977469
  9
$LIMMAX
 10
296.633503
 20
115.0
  9
$ORTHOMODE
 70
         0
  9
$REGENMODE
 70
         1
  9
$FILLMODE
 70
         1
  9
$QTEXTMODE
 70
         0
  9
$MIRRTEXT
 70
         1
  9
$DRAGMODE
 70
         2
  9
$LTSCALE
 40
1.0
  9
$OSMODE
 70
         0
  9
$ATTMODE
 70
         1
  9
$TEXTSIZE
 40
3.2000000477
  9
$TRACEWID
 40
0.05
  9
$TEXTSTYLE
  7
MX_NOTE_STANDARD
  9
$CLAYER
  8
0
  9
$CELTYPE
  6
CONTINUOUS
  9
$CECOLOR
 62
       256
  9
$CELTSCALE
 40
1.0
  9
$DELOBJ
 70
         1
  9
$DISPSILH
 70
         0
  9
$DIMSCALE
 40
1.0
  9
$DIMASZ
 40
2.5
  9
$DIMEXO
 40
0.0
  9
$DIMDLI
 40
3.75
  9
$DIMRND
 40
0.0
  9
$DIMDLE
 40
0.0
  9
$DIMEXE
 40
2.5
  9
$DIMTP
 40
0.0
  9
$DIMTM
 40
0.0
  9
$DIMTXT
 40
3.2000000477
  9
$DIMCEN
 40
2.5
  9
$DIMTSZ
 40
0.0
  9
$DIMTOL
 70
         0
  9
$DIMLIM
 70
         0
  9
$DIMTIH
 70
         0
  9
$DIMTOH
 70
         0
  9
$DIMSE1
 70
         0
  9
$DIMSE2
 70
         0
  9
$DIMTAD
 70
         1
  9
$DIMZIN
 70
         8
  9
$DIMBLK
  1

  9
$DIMASO
 70
         1
  9
$DIMSHO
 70
         1
  9
$DIMPOST
  1

  9
$DIMAPOST
  1

  9
$DIMALT
 70
         0
  9
$DIMALTD
 70
         4
  9
$DIMALTF
 40
0.0393700787
  9
$DIMLFAC
 40
1.0
  9
$DIMTOFL
 70
         1
  9
$DIMTVP
 40
0.0
  9
$DIMTIX
 70
         0
  9
$DIMSOXD
 70
         0
  9
$DIMSAH
 70
         1
  9
$DIMBLK1
  1
_OPEN30
  9
$DIMBLK2
  1
_OPEN30
  9
$DIMSTYLE
  2
MXDIMSTYLE
  9
$DIMCLRD
 70
         0
  9
$DIMCLRE
 70
         0
  9
$DIMCLRT
 70
         0
  9
$DIMTFAC
 40
1.0
  9
$DIMGAP
 40
1.0
  9
$DIMJUST
 70
         0
  9
$DIMSD1
 70
         0
  9
$DIMSD2
 70
         0
  9
$DIMTOLJ
 70
         0
  9
$DIMTZIN
 70
         0
  9
$DIMALTZ
 70
         0
  9
$DIMALTTZ
 70
         0
  9
$DIMFIT
 70
         3
  9
$DIMUPT
 70
         0
  9
$DIMUNIT
 70
         2
  9
$DIMDEC
 70
         2
  9
$DIMTDEC
 70
         2
  9
$DIMALTU
 70
         2
  9
$DIMALTTD
 70
         4
  9
$DIMTXSTY
  7
MX_NOTE_STANDARD
  9
$DIMAUNIT
 70
         0
  9
$LUNITS
 70
         2
  9
$LUPREC
 70
         4
  9
$SKETCHINC
 40
0.1
  9
$FILLETRAD
 40
0.0
  9
$AUNITS
 70
         0
  9
$AUPREC
 70
         0
  9
$MENU
  1
acad
  9
$ELEVATION
 40
0.0
  9
$PELEVATION
 40
0.0
  9
$THICKNESS
 40
0.0
  9
$LIMCHECK
 70
         0
  9
$BLIPMODE
 70
         1
  9
$CHAMFERA
 40
0.0
  9
$CHAMFERB
 40
0.0
  9
$CHAMFERC
 40
0.0
  9
$CHAMFERD
 40
0.0
  9
$SKPOLY
 70
         0
  9
$TDCREATE
 40
2456603.443425926
  9
$TDUPDATE
 40
2456603.443425926
  9
$TDINDWG
 40
0.0000000000
  9
$TDUSRTIMER
 40
0.0000000000
  9
$USRTIMER
 70
         1
  9
$ANGBASE
 50
0.0
  9
$ANGDIR
 70
         0
  9
$PDMODE
 70
         0
  9
$PDSIZE
 40
0.0
  9
$PLINEWID
 40
0.0
  9
$COORDS
 70
         1
  9
$SPLFRAME
 70
         0
  9
$SPLINETYPE
 70
         6
  9
$SPLINESEGS
 70
         8
  9
$ATTDIA
 70
         0
  9
$ATTREQ
 70
         1
  9
$HANDLING
 70
         1
  9
$HANDSEED
  5
209
  9
$SURFTAB1
 70
         6
  9
$SURFTAB2
 70
         6
  9
$SURFTYPE
 70
         6
  9
$SURFU
 70
         6
  9
$SURFV
 70
         6
  9
$UCSNAME
  2

  9
$UCSORG
 10
0.0
 20
0.0
 30
0.0
  9
$UCSXDIR
 10
1.0
 20
0.0
 30
0.0
  9
$UCSYDIR
 10
0.0
 20
1.0
 30
0.0
  9
$PUCSNAME
  2

  9
$PUCSORG
 10
0.0
 20
0.0
 30
0.0
  9
$PUCSXDIR
 10
1.0
 20
0.0
 30
0.0
  9
$PUCSYDIR
 10
0.0
 20
1.0
 30
0.0
  9
$USERI1
 70
         0
  9
$USERI2
 70
         0
  9
$USERI3
 70
         0
  9
$USERI4
 70
         0
  9
$USERI5
 70
         0
  9
$USERR1
 40
0.0
  9
$USERR2
 40
0.0
  9
$USERR3
 40
0.0
  9
$USERR4
 40
0.0
  9
$USERR5
 40
0.0
  9
$WORLDVIEW
 70
         1
  9
$SHADEDGE
 70
         3
  9
$SHADEDIF
 70
        70
  9
$TILEMODE
 70
         1
  9
$MAXACTVP
 70
        16
  9
$PINSBASE
 10
0.0
 20
0.0
 30
0.0
  9
$PLIMCHECK
 70
         0
  9
$PEXTMIN
 10
1.0000000000E+20
 20
1.0000000000E+20
 30
1.0000000000E+20
  9
$PEXTMAX
 10
-1.0000000000E+20
 20
-1.0000000000E+20
 30
-1.0000000000E+20
  9
$PLIMMIN
 10
0.0
 20
0.0
  9
$PLIMMAX
 10
12.0
 20
9.0
  9
$UNITMODE
 70
         0
  9
$VISRETAIN
 70
         0
  9
$PLINEGEN
 70
         1
  9
$PSLTSCALE
 70
         0
  9
$TREEDEPTH
 70
      3020
  9
$PICKSTYLE
 70
         1
  9
$CMLSTYLE
  2
Standard
  9
$CMLJUST
 70
         0
  9
$CMLSCALE
 40
1.0
  9
$PROXYGRAPHICS
 70
         0
  9
$MEASUREMENT
 70
         1
  0
ENDSEC
  0
SECTION
  2
CLASSES
  0
CLASS
  1
LWPOLYLINE
  2
AcDbPolyline
  3
"AutoCAD"
 90
        0
280
         0
281
         1
  0
CLASS
  1
IMAGE
  2
AcDbRasterImage
  3
ISM
 90
      127
280
         0
281
         1
  0
CLASS
  1
OLE2FRAME
  2
AcDbOle2Frame
  3
""
 90
        0
280
         0
281
         1
  0
CLASS
  1
HATCH
  2
AcDbHatch
  3
"ACAD_SEDONA"
 90
        0
280
         0
281
         1
  0
CLASS
  1
DICTIONARYVAR
  2
AcDbDictionaryVar
  3
"AutoCAD"
 90
        0
280
         0
281
         0
  0
CLASS
  1
RASTERVARIABLES
  2
AcDbRasterVariables
  3
ISM
 90
        0
280
         0
281
         0
  0
CLASS
  1
IMAGEDEF
  2
AcDbRasterImageDef
  3
ISM
 90
        0
280
         0
281
         0
  0
CLASS
  1
IMAGEDEF_REACTOR
  2
AcDbRasterImageDefReactor
  3
ISM
 90
        1
280
         0
281
         0
  0
CLASS
  1
IDBUFFER
  2
AcDbIdBuffer
  3
"Acad"
 90
        0
280
         0
281
         0
  0
CLASS
  1
SPATIAL_FILTER
  2
AcDbSpatialFilter
  3
"Acad"
 90
        0
280
         0
281
         0
  0
CLASS
  1
XRECORD
  2
AcDbXrecord
  3
"<Built In>"
 90
        0
280
         0
281
         0
  0
CLASS
  1
SORTENTSTABLE
  2
AcDbSortentsTable
  3
"AutoCAD"
 90
        0
280
         0
281
         0
  0
CLASS
  1
LAYER_INDEX
  2
AcDbLayerIndex
  3
"Acad"
 90
        0
280
         0
281
         0
  0
CLASS
  1
SPATIAL_INDEX
  2
AcDbSpatialIndex
  3
"Acad"
 90
        0
280
         0
281
         0
  0
CLASS
  1
OBJECT_PTR
  2
CAseDLPNTableRecord
  3
"ASE-LPNTableRecord"
 90
        1
280
         0
281
         0
  0
CLASS
  1
LAYOUT
  2
AcDbLayout
  3
"AutoCAD 2000"
 90
        0
280
         0
281
         0
  0
CLASS
  1
PLOTSETTINGS
  2
AcDbPlotSettings
  3
"AutoCAD 2000"
 90
        0
280
         0
281
         0
  0
CLASS
  1
ACDBDICTIONARYWDFLT
  2
AcDbDictionaryWithDefault
  3
"AutoCAD 2000"
 90
        0
280
         0
281
         0
  0
CLASS
  1
ACDBPLACEHOLDER
  2
AcDbPlaceHolder
  3
"AutoCAD 2000"
 90
        0
280
         0
281
         0
  0
ENDSEC
  0
SECTION
  2
TABLES
  0
TABLE
  2
VPORT
  5
7
100
AcDbSymbolTable
 70
         1
  0
VPORT
  5
15
100
AcDbSymbolTableRecord
100
AcDbViewportTableRecord
  2
*ACTIVE
 70
         0
 10
0.0
 20
0.0
 11
1.0
 21
1.0
 12
54.5497335
 22
-5.4887345
 13
0.0
 23
0.0
 14
1.0
 24
1.0
 15
0.0
 25
0.0
 16
0.0
 26
0.0
 36
1.0
 17
0.0
 27
0.0
 37
0.0
 40
243.38724369
 41
1.7320508076
 42
50.0
 43
0.0
 44
0.0
 50
0.0
 51
0.0
 71
         0
 72
       100
 73
         1
 74
         1
 75
         0
 76
         0
 77
         0
 78
         0
  0
ENDTAB
  0
TABLE
  2
LTYPE
  5
4
100
AcDbSymbolTable
 70
         5
  0
LTYPE
  5
11
100
AcDbSymbolTableRecord
100
AcDbLinetypeTableRecord
  2
BYBLOCK
 70
        64
  3

 72
        65
 73
         0
 40
0.0
  0
LTYPE
  5
12
100
AcDbSymbolTableRecord
100
AcDbLinetypeTableRecord
  2
BYLAYER
 70
        64
  3

 72
        65
 73
         0
 40
0.0
  0
LTYPE
  5
13
100
AcDbSymbolTableRecord
100
AcDbLinetypeTableRecord
  2
CONTINUOUS
 70
        64
  3
Solid line
 72
        65
 73
         0
 40
0.0
  0
LTYPE
  5
69
100
AcDbSymbolTableRecord
100
AcDbLinetypeTableRecord
  2
CENTER
 70
        64
  3
Center ____ _ ____ _ ____ _ ____ _ ____ _ ____
 72
        65
 73
         4
 40
50.8
 49
31.75
 74
         0
 49
-6.35
 74
         0
 49
6.35
 74
         0
 49
-6.35
 74
         0
  0
LTYPE
  5
85
100
AcDbSymbolTableRecord
100
AcDbLinetypeTableRecord
  2
PHANTOM
 70
        64
  3
Phantom ______  __  __  ______  __  __  ______
 72
        65
 73
         6
 40
63.5
 49
31.75
 74
         0
 49
-6.35
 74
         0
 49
6.35
 74
         0
 49
-6.35
 74
         0
 49
6.35
 74
         0
 49
-6.35
 74
         0
  0
ENDTAB
  0
TABLE
  2
LAYER
  5
2
100
AcDbSymbolTable
 70
         3
  0
LAYER
  5
14
100
AcDbSymbolTableRecord
100
AcDbLayerTableRecord
  2
0
 70
         0
 62
         7
  6
CONTINUOUS
  0
LAYER
  5
1D
100
AcDbSymbolTableRecord
100
AcDbLayerTableRecord
  2
PV
 70
         0
 62
         3
  6
CONTINUOUS
  0
LAYER
  5
1E
100
AcDbSymbolTableRecord
100
AcDbLayerTableRecord
  2
DEFPOINTS
 70
         0
 62
         7
  6
CONTINUOUS
  0
ENDTAB
  0
TABLE
  2
STYLE
  5
3
100
AcDbSymbolTable
 70
         5
  0
STYLE
  5
17
100
AcDbSymbolTableRecord
100
AcDbTextStyleTableRecord
  2
MX_NOTE_STANDARD
 70
         0
 40
0.0
 41
1.0
 50
0.0
 71
         0
 42
3.2000000477
  3
txt.shx
  4
extfont.shx
  0
STYLE
  5
188
100
AcDbSymbolTableRecord
100
AcDbTextStyleTableRecord
  2
MX_DIMTXSTY_2
 70
         0
 40
0.0
 41
0.9
 50
0.0
 71
         0
 42
3.2000000477
  3
txt.shx
  4
extfont.shx
  0
STYLE
  5
1D4
100
AcDbSymbolTableRecord
100
AcDbTextStyleTableRecord
  2
MX_DIMTXSTY_3
 70
         0
 40
0.0
 41
1.1
 50
0.0
 71
         0
 42
3.2000000477
  3
txt.shx
  4
extfont.shx
  0
STYLE
  5
1E4
100
AcDbSymbolTableRecord
100
AcDbTextStyleTableRecord
  2
MX_DIMTXSTY_4
 70
         0
 40
0.0
 41
1.3
 50
0.0
 71
         0
 42
3.2000000477
  3
txt.shx
  4
extfont.shx
  0
STYLE
  5
1F4
100
AcDbSymbolTableRecord
100
AcDbTextStyleTableRecord
  2
MX_DIMTXSTY_5
 70
         0
 40
0.0
 41
1.15
 50
0.0
 71
         0
 42
3.2000000477
  3
txt.shx
  4
extfont.shx
  0
ENDTAB
  0
TABLE
  2
VIEW
  5
5
100
AcDbSymbolTable
 70
         0
  0
ENDTAB
  0
TABLE
  2
UCS
  5
6
100
AcDbSymbolTable
 70
         0
  0
ENDTAB
  0
TABLE
  2
APPID
  5
8
100
AcDbSymbolTable
 70
         1
  0
APPID
  5
16
100
AcDbSymbolTableRecord
100
AcDbRegAppTableRecord
  2
ACAD
 70
         0
  0
ENDTAB
  0
TABLE
  2
DIMSTYLE
  5
9
100
AcDbSymbolTable
 70
         1
  0
DIMSTYLE
105
18
100
AcDbSymbolTableRecord
100
AcDbDimStyleTableRecord
  2
MXDIMSTYLE
 70
         0
  3

  4

  5

  6
_OPEN30
  7
_OPEN30
 40
1.0
 41
2.5
 42
0.0
 43
3.75
 44
2.5
 45
0.0
 46
0.0
 47
0.0
 48
0.0
 71
         0
 72
         0
 73
         0
 74
         0
 75
         0
 76
         0
 77
         1
 78
         8
140
3.2000000477
141
2.5
142
0.0
143
0.0393700787
144
1.0
145
0.0
146
1.0
147
1.0
170
         0
171
         4
172
         1
173
         1
174
         0
175
         0
176
         0
177
         0
178
         0
270
         2
271
         2
272
         2
273
         2
274
         4
275
         0
280
         0
281
         0
282
         0
283
         0
284
         0
285
         0
286
         0
287
         3
288
         0
340
17
  0
ENDTAB
  0
TABLE
  2
BLOCK_RECORD
  5
1
100
AcDbSymbolTable
 70
        11
  0
BLOCK_RECORD
  5
A
100
AcDbSymbolTableRecord
100
AcDbBlockTableRecord
  2
*MODEL_SPACE
  0
BLOCK_RECORD
  5
B
100
AcDbSymbolTableRecord
100
AcDbBlockTableRecord
  2
*PAPER_SPACE
  0
BLOCK_RECORD
  5
1F
100
AcDbSymbolTableRecord
100
AcDbBlockTableRecord
  2
ARROW
  0
BLOCK_RECORD
  5
20
100
AcDbSymbolTableRecord
100
AcDbBlockTableRecord
  2
_OPEN30
  0
BLOCK_RECORD
  5
17F
100
AcDbSymbolTableRecord
100
AcDbBlockTableRecord
  2
*D2
  0
BLOCK_RECORD
  5
18F
100
AcDbSymbolTableRecord
100
AcDbBlockTableRecord
  2
*D3
  0
BLOCK_RECORD
  5
19E
100
AcDbSymbolTableRecord
100
AcDbBlockTableRecord
  2
*D4
  0
BLOCK_RECORD
  5
1AD
100
AcDbSymbolTableRecord
100
AcDbBlockTableRecord
  2
*D5
  0
BLOCK_RECORD
  5
1BC
100
AcDbSymbolTableRecord
100
AcDbBlockTableRecord
  2
*D6
  0
BLOCK_RECORD
  5
1CB
100
AcDbSymbolTableRecord
100
AcDbBlockTableRecord
  2
*D7
  0
BLOCK_RECORD
  5
1DB
100
AcDbSymbolTableRecord
100
AcDbBlockTableRecord
  2
*D8
  0
BLOCK_RECORD
  5
1EB
100
AcDbSymbolTableRecord
100
AcDbBlockTableRecord
  2
*D9
  0
BLOCK_RECORD
  5
1FB
100
AcDbSymbolTableRecord
100
AcDbBlockTableRecord
  2
*D10
  0
ENDTAB
  0
ENDSEC
  0
SECTION
  2
BLOCKS
  0
BLOCK
  5
D
100
AcDbEntity
  8
0
100
AcDbBlockBegin
  2
*MODEL_SPACE
 70
         0
 10
0.0
 20
0.0
 30
0.0
  3
*MODEL_SPACE
  1

  0
ENDBLK
  5
E
100
AcDbEntity
  8
0
100
AcDbBlockEnd
  0
BLOCK
  5
F
100
AcDbEntity
 67
         1
  8
0
100
AcDbBlockBegin
  2
*PAPER_SPACE
 70
         0
 10
0.0
 20
0.0
 30
0.0
  3
*PAPER_SPACE
  1

  0
ENDBLK
  5
10
100
AcDbEntity
 67
         1
  8
0
100
AcDbBlockEnd
  0
BLOCK
  5
26
100
AcDbEntity
  8
0
100
AcDbBlockBegin
  2
ARROW
 70
         0
 10
0.0
 20
0.0
 30
0.0
  3
ARROW
  1

  0
LWPOLYLINE
  5
27
100
AcDbEntity
  8
0
  6
CONTINUOUS
 62
       193
100
AcDbPolyline
 90
        3
 70
         0
 10
2.74222011
 20
0.734775663
 10
0.0
 20
0.0
 10
2.74222011
 20
-0.734775663
  0
ENDBLK
  5
28
100
AcDbEntity
  8
0
100
AcDbBlockEnd
  0
BLOCK
  5
21
100
AcDbEntity
  8
0
  6
ByBlock
 62
         0
100
AcDbBlockBegin
  2
_OPEN30
 70
         2
 10
0.0
 20
0.0
 30
0.0
  3
_OPEN30
  1

  0
LINE
  5
22
100
AcDbEntity
  8
0
  6
ByBlock
 62
         0
100
AcDbLine
 10
-1.0
 20
0.267949
 30
0.0
 11
0.0
 21
0.0
 31
0.0
  0
LINE
  5
23
100
AcDbEntity
  8
0
  6
ByBlock
 62
         0
100
AcDbLine
 10
0.0
 20
0.0
 30
0.0
 11
-1.0
 21
-0.267949
 31
0.0
  0
LINE
  5
24
100
AcDbEntity
  8
0
  6
ByBlock
 62
         0
100
AcDbLine
 10
0.0
 20
0.0
 30
0.0
 11
-1.0
 21
0.0
 31
0.0
  0
ENDBLK
  5
25
100
AcDbEntity
  8
0
  6
ByBlock
 62
         0
100
AcDbBlockEnd
  0
BLOCK
  5
180
100
AcDbEntity
  8
0
  6
ByBlock
 62
         0
100
AcDbBlockBegin
  2
*D2
 70
         1
 10
0.0
 20
0.0
 30
0.0
  3
*D2
  1

  0
LINE
  5
181
100
AcDbEntity
  8
0
  6
CONTINUOUS
 62
       110
100
AcDbLine
 10
-94.940507
 20
-115.19425
 30
0.0
 11
-94.940507
 21
-60.16675
 31
0.0
  0
LINE
  5
182
100
AcDbEntity
  8
0
  6
CONTINUOUS
 62
       110
100
AcDbLine
 10
-80.0802860909
 20
-115.19425
 30
0.0
 11
-97.440507
 21
-115.19425
 31
0.0
  0
LINE
  5
183
100
AcDbEntity
  8
0
  6
CONTINUOUS
 62
       110
100
AcDbLine
 10
-80.0802860909
 20
-60.16675
 30
0.0
 11
-97.440507
 21
-60.16675
 31
0.0
  0
LINE
  5
184
100
AcDbEntity
  8
0
  6
CONTINUOUS
 62
       110
100
AcDbLine
 10
-94.940507
 20
-115.19425
 30
0.0
 11
-94.940507
 21
-119.19425
 31
0.0
  0
LINE
  5
185
100
AcDbEntity
  8
0
  6
CONTINUOUS
 62
       110
100
AcDbLine
 10
-94.940507
 20
-60.16675
 30
0.0
 11
-94.940507
 21
-56.16675
 31
0.0
  0
SOLID
  5
186
100
AcDbEntity
  8
0
  6
CONTINUOUS
 62
       110
100
AcDbTrace
 10
-95.107174005
 20
-116.1942500298
 30
0.0
 11
-94.773839995
 21
-116.1942500298
 31
0.0
 12
-94.940507
 22
-115.19425
 32
0.0
 13
-94.940507
 23
-115.19425
 33
0.0
  0
SOLID
  5
187
100
AcDbEntity
  8
0
  6
CONTINUOUS
 62
       110
100
AcDbTrace
 10
-94.773839995
 20
-59.1667499702
 30
0.0
 11
-95.107174005
 21
-59.1667499702
 31
0.0
 12
-94.940507
 22
-60.16675
 32
0.0
 13
-94.940507
 23
-60.16675
 33
0.0
  0
MTEXT
  5
189
100
AcDbEntity
  8
0
  6
CONTINUOUS
 62
       110
100
AcDbMText
 10
-97.5405070238
 20
-87.3805006866
 30
0.0
 40
3.2000000477
 41
0.0
 71
         5
 72
         1
  1
\A1;\U+220555
  7
MX_DIMTXSTY_2
 11
0.0
 21
1.0
 31
0.0
  0
POINT
  5
18A
100
AcDbEntity
  8
DEFPOINTS
  6
CONTINUOUS
 62
         0
100
AcDbPoint
 10
-80.0177860909
 20
-115.19425
 30
0.0
  0
POINT
  5
18B
100
AcDbEntity
  8
DEFPOINTS
  6
CONTINUOUS
 62
         0
100
AcDbPoint
 10
-80.0177860909
 20
-60.16675
 30
0.0
  0
POINT
  5
18C
100
AcDbEntity
  8
DEFPOINTS
  6
CONTINUOUS
 62
         0
100
AcDbPoint
 10
-94.940507
 20
-60.16675
 30
0.0
  0
ENDBLK
  5
18D
100
AcDbEntity
  8
0
  6
ByBlock
 62
         0
100
AcDbBlockEnd
  0
BLOCK
  5
190
100
AcDbEntity
  8
0
  6
ByBlock
 62
         0
100
AcDbBlockBegin
  2
*D3
 70
         1
 10
0.0
 20
0.0
 30
0.0
  3
*D3
  1

  0
LINE
  5
191
100
AcDbEntity
  8
0
  6
CONTINUOUS
 62
       110
100
AcDbLine
 10
-23.9897865
 20
-43.4704366
 30
0.0
 11
24.0342135
 21
-43.4704366
 31
0.0
  0
LINE
  5
192
100
AcDbEntity
  8
0
  6
CONTINUOUS
 62
       110
100
AcDbLine
 10
-23.9897865
 20
-82.6155019076
 30
0.0
 11
-23.9897865
 21
-40.9704366
 31
0.0
  0
LINE
  5
193
100
AcDbEntity
  8
0
  6
CONTINUOUS
 62
       110
100
AcDbLine
 10
24.0342135
 20
-60.104250458
 30
0.0
 11
24.0342135
 21
-40.9704366
 31
0.0
  0
LINE
  5
194
100
AcDbEntity
  8
0
  6
CONTINUOUS
 62
       110
100
AcDbLine
 10
-23.9897865
 20
-43.4704366
 30
0.0
 11
-27.9897865
 21
-43.4704366
 31
0.0
  0
LINE
  5
195
100
AcDbEntity
  8
0
  6
CONTINUOUS
 62
       110
100
AcDbLine
 10
24.0342135
 20
-43.4704366
 30
0.0
 11
28.0342135
 21
-43.4704366
 31
0.0
  0
SOLID
  5
196
100
AcDbEntity
  8
0
  6
CONTINUOUS
 62
       110
100
AcDbTrace
 10
-24.9897865298
 20
-43.303769595
 30
0.0
 11
-24.9897865298
 21
-43.637103605
 31
0.0
 12
-23.9897865
 22
-43.4704366
 32
0.0
 13
-23.9897865
 23
-43.4704366
 33
0.0
  0
SOLID
  5
197
100
AcDbEntity
  8
0
  6
CONTINUOUS
 62
       110
100
AcDbTrace
 10
25.0342135298
 20
-43.637103605
 30
0.0
 11
25.0342135298
 21
-43.303769595
 31
0.0
 12
24.0342135
 22
-43.4704366
 32
0.0
 13
24.0342135
 23
-43.4704366
 33
0.0
  0
MTEXT
  5
198
100
AcDbEntity
  8
0
  6
CONTINUOUS
 62
       110
100
AcDbMText
 10
0.3222118673
 20
-40.8704365762
 30
0.0
 40
3.2000000477
 41
0.0
 71
         5
 72
         1
  1
\A1;48
  0
POINT
  5
199
100
AcDbEntity
  8
DEFPOINTS
  6
CONTINUOUS
 62
         0
100
AcDbPoint
 10
-23.9897865
 20
-82.6780019076
 30
0.0
  0
POINT
  5
19A
100
AcDbEntity
  8
DEFPOINTS
  6
CONTINUOUS
 62
         0
100
AcDbPoint
 10
24.0342135
 20
-60.166750458
 30
0.0
  0
POINT
  5
19B
100
AcDbEntity
  8
DEFPOINTS
  6
CONTINUOUS
 62
         0
100
AcDbPoint
 10
24.0342135
 20
-43.4704366
 30
0.0
  0
ENDBLK
  5
19C
100
AcDbEntity
  8
0
  6
ByBlock
 62
         0
100
AcDbBlockEnd
  0
BLOCK
  5
19F
100
AcDbEntity
  8
0
  6
ByBlock
 62
         0
100
AcDbBlockBegin
  2
*D4
 70
         1
 10
0.0
 20
0.0
 30
0.0
  3
*D4
  1

  0
LINE
  5
1A0
100
AcDbEntity
  8
0
  6
CONTINUOUS
 62
       110
100
AcDbLine
 10
24.0342135
 20
-32.9777111
 30
0.0
 11
68.0562135
 21
-32.9777111
 31
0.0
  0
LINE
  5
1A1
100
AcDbEntity
  8
0
  6
CONTINUOUS
 62
       110
100
AcDbLine
 10
24.0342135
 20
-60.1042503303
 30
0.0
 11
24.0342135
 21
-30.4777111
 31
0.0
  0
LINE
  5
1A2
100
AcDbEntity
  8
0
  6
CONTINUOUS
 62
       110
100
AcDbLine
 10
68.0562135
 20
-87.6180004066
 30
0.0
 11
68.0562135
 21
-30.4777111
 31
0.0
  0
LINE
  5
1A3
100
AcDbEntity
  8
0
  6
CONTINUOUS
 62
       110
100
AcDbLine
 10
24.0342135
 20
-32.9777111
 30
0.0
 11
20.0342135
 21
-32.9777111
 31
0.0
  0
LINE
  5
1A4
100
AcDbEntity
  8
0
  6
CONTINUOUS
 62
       110
100
AcDbLine
 10
68.0562135
 20
-32.9777111
 30
0.0
 11
72.0562135
 21
-32.9777111
 31
0.0
  0
SOLID
  5
1A5
100
AcDbEntity
  8
0
  6
CONTINUOUS
 62
       110
100
AcDbTrace
 10
23.0342134702
 20
-32.811044095
 30
0.0
 11
23.0342134702
 21
-33.144378105
 31
0.0
 12
24.0342135
 22
-32.9777111
 32
0.0
 13
24.0342135
 23
-32.9777111
 33
0.0
  0
SOLID
  5
1A6
100
AcDbEntity
  8
0
  6
CONTINUOUS
 62
       110
100
AcDbTrace
 10
69.0562135298
 20
-33.144378105
 30
0.0
 11
69.0562135298
 21
-32.811044095
 31
0.0
 12
68.0562135
 22
-32.9777111
 32
0.0
 13
68.0562135
 23
-32.9777111
 33
0.0
  0
MTEXT
  5
1A7
100
AcDbEntity
  8
0
  6
CONTINUOUS
 62
       110
100
AcDbMText
 10
46.3452124166
 20
-30.3777110762
 30
0.0
 40
3.2000000477
 41
0.0
 71
         5
 72
         1
  1
\A1;44
  0
POINT
  5
1A8
100
AcDbEntity
  8
DEFPOINTS
  6
CONTINUOUS
 62
         0
100
AcDbPoint
 10
24.0342135
 20
-60.1667503303
 30
0.0
  0
POINT
  5
1A9
100
AcDbEntity
  8
DEFPOINTS
  6
CONTINUOUS
 62
         0
100
AcDbPoint
 10
68.0562135
 20
-87.6805004066
 30
0.0
  0
POINT
  5
1AA
100
AcDbEntity
  8
DEFPOINTS
  6
CONTINUOUS
 62
         0
100
AcDbPoint
 10
68.0562135
 20
-32.9777111
 30
0.0
  0
ENDBLK
  5
1AB
100
AcDbEntity
  8
0
  6
ByBlock
 62
         0
100
AcDbBlockEnd
  0
BLOCK
  5
1AE
100
AcDbEntity
  8
0
  6
ByBlock
 62
         0
100
AcDbBlockBegin
  2
*D5
 70
         1
 10
0.0
 20
0.0
 30
0.0
  3
*D5
  1

  0
LINE
  5
1AF
100
AcDbEntity
  8
0
  6
CONTINUOUS
 62
       110
100
AcDbLine
 10
85.684268
 20
-75.6745
 30
0.0
 11
85.684268
 21
-99.6865
 31
0.0
  0
LINE
  5
1B0
100
AcDbEntity
  8
0
  6
CONTINUOUS
 62
       110
100
AcDbLine
 10
65.6124601387
 20
-75.6745
 30
0.0
 11
88.184268
 21
-75.6745
 31
0.0
  0
LINE
  5
1B1
100
AcDbEntity
  8
0
  6
CONTINUOUS
 62
       110
100
AcDbLine
 10
65.6124601387
 20
-99.6865
 30
0.0
 11
88.184268
 21
-99.6865
 31
0.0
  0
LINE
  5
1B2
100
AcDbEntity
  8
0
  6
CONTINUOUS
 62
       110
100
AcDbLine
 10
85.684268
 20
-75.6745
 30
0.0
 11
85.684268
 21
-71.6745
 31
0.0
  0
LINE
  5
1B3
100
AcDbEntity
  8
0
  6
CONTINUOUS
 62
       110
100
AcDbLine
 10
85.684268
 20
-99.6865
 30
0.0
 11
85.684268
 21
-103.6865
 31
0.0
  0
SOLID
  5
1B4
100
AcDbEntity
  8
0
  6
CONTINUOUS
 62
       110
100
AcDbTrace
 10
85.850935005
 20
-74.6744999702
 30
0.0
 11
85.517600995
 21
-74.6744999702
 31
0.0
 12
85.684268
 22
-75.6745
 32
0.0
 13
85.684268
 23
-75.6745
 33
0.0
  0
SOLID
  5
1B5
100
AcDbEntity
  8
0
  6
CONTINUOUS
 62
       110
100
AcDbTrace
 10
85.517600995
 20
-100.6865000298
 30
0.0
 11
85.850935005
 21
-100.6865000298
 31
0.0
 12
85.684268
 22
-99.6865
 32
0.0
 13
85.684268
 23
-99.6865
 33
0.0
  0
MTEXT
  5
1B6
100
AcDbEntity
  8
0
  6
CONTINUOUS
 62
       110
100
AcDbMText
 10
83.0842679762
 20
-87.3804993744
 30
0.0
 40
3.2000000477
 41
0.0
 71
         5
 72
         1
  1
\A1;\U+220524
  7
MX_DIMTXSTY_2
 11
0.0
 21
1.0
 31
0.0
  0
POINT
  5
1B7
100
AcDbEntity
  8
DEFPOINTS
  6
CONTINUOUS
 62
         0
100
AcDbPoint
 10
65.5499601387
 20
-75.6745
 30
0.0
  0
POINT
  5
1B8
100
AcDbEntity
  8
DEFPOINTS
  6
CONTINUOUS
 62
         0
100
AcDbPoint
 10
65.5499601387
 20
-99.6865
 30
0.0
  0
POINT
  5
1B9
100
AcDbEntity
  8
DEFPOINTS
  6
CONTINUOUS
 62
         0
100
AcDbPoint
 10
85.684268
 20
-99.6865
 30
0.0
  0
ENDBLK
  5
1BA
100
AcDbEntity
  8
0
  6
ByBlock
 62
         0
100
AcDbBlockEnd
  0
BLOCK
  5
1BD
100
AcDbEntity
  8
0
  6
ByBlock
 62
         0
100
AcDbBlockBegin
  2
*D6
 70
         1
 10
0.0
 20
0.0
 30
0.0
  3
*D6
  1

  0
LINE
  5
1BE
100
AcDbEntity
  8
0
  6
CONTINUOUS
 62
       110
100
AcDbLine
 10
95.4275131
 20
-55.16425
 30
0.0
 11
95.4275131
 21
-120.19675
 31
0.0
  0
LINE
  5
1BF
100
AcDbEntity
  8
0
  6
CONTINUOUS
 62
       110
100
AcDbLine
 10
51.2532844318
 20
-55.16425
 30
0.0
 11
97.9275131
 21
-55.16425
 31
0.0
  0
LINE
  5
1C0
100
AcDbEntity
  8
0
  6
CONTINUOUS
 62
       110
100
AcDbLine
 10
51.2532844318
 20
-120.19675
 30
0.0
 11
97.9275131
 21
-120.19675
 31
0.0
  0
LINE
  5
1C1
100
AcDbEntity
  8
0
  6
CONTINUOUS
 62
       110
100
AcDbLine
 10
95.4275131
 20
-55.16425
 30
0.0
 11
95.4275131
 21
-51.16425
 31
0.0
  0
LINE
  5
1C2
100
AcDbEntity
  8
0
  6
CONTINUOUS
 62
       110
100
AcDbLine
 10
95.4275131
 20
-120.19675
 30
0.0
 11
95.4275131
 21
-124.19675
 31
0.0
  0
SOLID
  5
1C3
100
AcDbEntity
  8
0
  6
CONTINUOUS
 62
       110
100
AcDbTrace
 10
95.594180105
 20
-54.1642499702
 30
0.0
 11
95.260846095
 21
-54.1642499702
 31
0.0
 12
95.4275131
 22
-55.16425
 32
0.0
 13
95.4275131
 23
-55.16425
 33
0.0
  0
SOLID
  5
1C4
100
AcDbEntity
  8
0
  6
CONTINUOUS
 62
       110
100
AcDbTrace
 10
95.260846095
 20
-121.1967500298
 30
0.0
 11
95.594180105
 21
-121.1967500298
 31
0.0
 12
95.4275131
 22
-120.19675
 32
0.0
 13
95.4275131
 23
-120.19675
 33
0.0
  0
MTEXT
  5
1C5
100
AcDbEntity
  8
0
  6
CONTINUOUS
 62
       110
100
AcDbMText
 10
92.8275130762
 20
-87.3805013733
 30
0.0
 40
3.2000000477
 41
0.0
 71
         5
 72
         1
  1
\A1;\U+220565
  7
MX_DIMTXSTY_2
 11
0.0
 21
1.0
 31
0.0
  0
POINT
  5
1C6
100
AcDbEntity
  8
DEFPOINTS
  6
CONTINUOUS
 62
         0
100
AcDbPoint
 10
51.1907844318
 20
-55.16425
 30
0.0
  0
POINT
  5
1C7
100
AcDbEntity
  8
DEFPOINTS
  6
CONTINUOUS
 62
         0
100
AcDbPoint
 10
51.1907844318
 20
-120.19675
 30
0.0
  0
POINT
  5
1C8
100
AcDbEntity
  8
DEFPOINTS
  6
CONTINUOUS
 62
         0
100
AcDbPoint
 10
95.4275131
 20
-120.19675
 30
0.0
  0
ENDBLK
  5
1C9
100
AcDbEntity
  8
0
  6
ByBlock
 62
         0
100
AcDbBlockEnd
  0
BLOCK
  5
1CC
100
AcDbEntity
  8
0
  6
ByBlock
 62
         0
100
AcDbBlockBegin
  2
*D7
 70
         1
 10
0.0
 20
0.0
 30
0.0
  3
*D7
  1

  0
LINE
  5
1CD
100
AcDbEntity
  8
0
  6
CONTINUOUS
 62
       110
100
AcDbLine
 10
-80.0177865
 20
-32.9777111
 30
0.0
 11
24.0342135
 21
-32.9777111
 31
0.0
  0
LINE
  5
1CE
100
AcDbEntity
  8
0
  6
CONTINUOUS
 62
       110
100
AcDbLine
 10
-80.0177865
 20
-60.1042503303
 30
0.0
 11
-80.0177865
 21
-30.4777111
 31
0.0
  0
LINE
  5
1CF
100
AcDbEntity
  8
0
  6
CONTINUOUS
 62
       110
100
AcDbLine
 10
24.0342135
 20
-60.1042503303
 30
0.0
 11
24.0342135
 21
-30.4777111
 31
0.0
  0
LINE
  5
1D0
100
AcDbEntity
  8
0
  6
CONTINUOUS
 62
       110
100
AcDbLine
 10
-80.0177865
 20
-32.9777111
 30
0.0
 11
-84.0177865
 21
-32.9777111
 31
0.0
  0
LINE
  5
1D1
100
AcDbEntity
  8
0
  6
CONTINUOUS
 62
       110
100
AcDbLine
 10
24.0342135
 20
-32.9777111
 30
0.0
 11
28.0342135
 21
-32.9777111
 31
0.0
  0
SOLID
  5
1D2
100
AcDbEntity
  8
0
  6
CONTINUOUS
 62
       110
100
AcDbTrace
 10
-81.0177865298
 20
-32.811044095
 30
0.0
 11
-81.0177865298
 21
-33.144378105
 31
0.0
 12
-80.0177865
 22
-32.9777111
 32
0.0
 13
-80.0177865
 23
-32.9777111
 33
0.0
  0
SOLID
  5
1D3
100
AcDbEntity
  8
0
  6
CONTINUOUS
 62
       110
100
AcDbTrace
 10
25.0342135298
 20
-33.144378105
 30
0.0
 11
25.0342135298
 21
-32.811044095
 31
0.0
 12
24.0342135
 22
-32.9777111
 32
0.0
 13
24.0342135
 23
-32.9777111
 33
0.0
  0
MTEXT
  5
1D5
100
AcDbEntity
  8
0
  6
CONTINUOUS
 62
       110
100
AcDbMText
 10
-27.6917862864
 20
-30.3777110762
 30
0.0
 40
3.2000000477
 41
0.0
 71
         5
 72
         1
  1
\A1;104
  7
MX_DIMTXSTY_3
  0
POINT
  5
1D6
100
AcDbEntity
  8
DEFPOINTS
  6
CONTINUOUS
 62
         0
100
AcDbPoint
 10
-80.0177865
 20
-60.1667503303
 30
0.0
  0
POINT
  5
1D7
100
AcDbEntity
  8
DEFPOINTS
  6
CONTINUOUS
 62
         0
100
AcDbPoint
 10
24.0342135
 20
-60.1667503303
 30
0.0
  0
POINT
  5
1D8
100
AcDbEntity
  8
DEFPOINTS
  6
CONTINUOUS
 62
         0
100
AcDbPoint
 10
24.0342135
 20
-32.9777111
 30
0.0
  0
ENDBLK
  5
1D9
100
AcDbEntity
  8
0
  6
ByBlock
 62
         0
100
AcDbBlockEnd
  0
BLOCK
  5
1DC
100
AcDbEntity
  8
0
  6
ByBlock
 62
         0
100
AcDbBlockBegin
  2
*D8
 70
         1
 10
0.0
 20
0.0
 30
0.0
  3
*D8
  1

  0
LINE
  5
1DD
100
AcDbEntity
  8
0
  6
CONTINUOUS
 62
       110
100
AcDbLine
 10
277.548464
 20
-104.553089
 30
0.0
 11
167.493464
 21
-104.553089
 31
0.0
  0
LINE
  5
1DE
100
AcDbEntity
  8
0
  6
CONTINUOUS
 62
       110
100
AcDbLine
 10
277.548464
 20
-90.7445000184
 30
0.0
 11
277.548464
 21
-107.053089
 31
0.0
  0
LINE
  5
1DF
100
AcDbEntity
  8
0
  6
CONTINUOUS
 62
       110
100
AcDbLine
 10
167.493464
 20
-90.7445000184
 30
0.0
 11
167.493464
 21
-107.053089
 31
0.0
  0
LINE
  5
1E0
100
AcDbEntity
  8
0
  6
CONTINUOUS
 62
       110
100
AcDbLine
 10
277.548464
 20
-104.553089
 30
0.0
 11
281.548464
 21
-104.553089
 31
0.0
  0
LINE
  5
1E1
100
AcDbEntity
  8
0
  6
CONTINUOUS
 62
       110
100
AcDbLine
 10
167.493464
 20
-104.553089
 30
0.0
 11
163.493464
 21
-104.553089
 31
0.0
  0
SOLID
  5
1E2
100
AcDbEntity
  8
0
  6
CONTINUOUS
 62
       110
100
AcDbTrace
 10
278.5484640298
 20
-104.719756005
 30
0.0
 11
278.5484640298
 21
-104.386421995
 31
0.0
 12
277.548464
 22
-104.553089
 32
0.0
 13
277.548464
 23
-104.553089
 33
0.0
  0
SOLID
  5
1E3
100
AcDbEntity
  8
0
  6
CONTINUOUS
 62
       110
100
AcDbTrace
 10
166.4934639702
 20
-104.386421995
 30
0.0
 11
166.4934639702
 21
-104.719756005
 31
0.0
 12
167.493464
 22
-104.553089
 32
0.0
 13
167.493464
 23
-104.553089
 33
0.0
  0
MTEXT
  5
1E5
100
AcDbEntity
  8
0
  6
CONTINUOUS
 62
       110
100
AcDbMText
 10
222.8209630845
 20
-101.9530889762
 30
0.0
 40
3.2000000477
 41
0.0
 71
         5
 72
         1
  1
\A1;110
  7
MX_DIMTXSTY_4
 11
1.0
 21
0.0
 31
0.0
  0
POINT
  5
1E6
100
AcDbEntity
  8
DEFPOINTS
  6
CONTINUOUS
 62
         0
100
AcDbPoint
 10
277.548464
 20
-90.6820000184
 30
0.0
  0
POINT
  5
1E7
100
AcDbEntity
  8
DEFPOINTS
  6
CONTINUOUS
 62
         0
100
AcDbPoint
 10
167.493464
 20
-90.6820000184
 30
0.0
  0
POINT
  5
1E8
100
AcDbEntity
  8
DEFPOINTS
  6
CONTINUOUS
 62
         0
100
AcDbPoint
 10
167.493464
 20
-104.553089
 30
0.0
  0
ENDBLK
  5
1E9
100
AcDbEntity
  8
0
  6
ByBlock
 62
         0
100
AcDbBlockEnd
  0
BLOCK
  5
1EC
100
AcDbEntity
  8
0
  6
ByBlock
 62
         0
100
AcDbBlockBegin
  2
*D9
 70
         1
 10
0.0
 20
0.0
 30
0.0
  3
*D9
  1

  0
LINE
  5
1ED
100
AcDbEntity
  8
0
  6
CONTINUOUS
 62
       110
100
AcDbLine
 10
277.548464
 20
-123.477469
 30
0.0
 11
144.982214
 21
-123.477469
 31
0.0
  0
LINE
  5
1EE
100
AcDbEntity
  8
0
  6
CONTINUOUS
 62
       110
100
AcDbLine
 10
277.548464
 20
-90.7445016233
 30
0.0
 11
277.548464
 21
-125.977469
 31
0.0
  0
LINE
  5
1EF
100
AcDbEntity
  8
0
  6
CONTINUOUS
 62
       110
100
AcDbLine
 10
144.982214
 20
-123.414969
 30
0.0
 11
144.982214
 21
-123.297469
 31
0.0
  0
LINE
  5
1F0
100
AcDbEntity
  8
0
  6
CONTINUOUS
 62
       110
100
AcDbLine
 10
277.548464
 20
-123.477469
 30
0.0
 11
281.548464
 21
-123.477469
 31
0.0
  0
LINE
  5
1F1
100
AcDbEntity
  8
0
  6
CONTINUOUS
 62
       110
100
AcDbLine
 10
144.982214
 20
-123.477469
 30
0.0
 11
140.982214
 21
-123.477469
 31
0.0
  0
SOLID
  5
1F2
100
AcDbEntity
  8
0
  6
CONTINUOUS
 62
       110
100
AcDbTrace
 10
278.5484640298
 20
-123.644136005
 30
0.0
 11
278.5484640298
 21
-123.310801995
 31
0.0
 12
277.548464
 22
-123.477469
 32
0.0
 13
277.548464
 23
-123.477469
 33
0.0
  0
SOLID
  5
1F3
100
AcDbEntity
  8
0
  6
CONTINUOUS
 62
       110
100
AcDbTrace
 10
143.9822139702
 20
-123.310801995
 30
0.0
 11
143.9822139702
 21
-123.644136005
 31
0.0
 12
144.982214
 22
-123.477469
 32
0.0
 13
144.982214
 23
-123.477469
 33
0.0
  0
MTEXT
  5
1F5
100
AcDbEntity
  8
0
  6
CONTINUOUS
 62
       110
100
AcDbMText
 10
211.5653402207
 20
-120.8774689762
 30
0.0
 40
3.2000000477
 41
0.0
 71
         5
 72
         1
  1
\A1;132.5
  7
MX_DIMTXSTY_5
 11
1.0
 21
0.0
 31
0.0
  0
POINT
  5
1F6
100
AcDbEntity
  8
DEFPOINTS
  6
CONTINUOUS
 62
         0
100
AcDbPoint
 10
277.548464
 20
-90.6820016233
 30
0.0
  0
POINT
  5
1F7
100
AcDbEntity
  8
DEFPOINTS
  6
CONTINUOUS
 62
         0
100
AcDbPoint
 10
144.982214
 20
-123.477469
 30
0.0
  0
POINT
  5
1F8
100
AcDbEntity
  8
DEFPOINTS
  6
CONTINUOUS
 62
         0
100
AcDbPoint
 10
144.982214
 20
-123.477469
 30
0.0
  0
ENDBLK
  5
1F9
100
AcDbEntity
  8
0
  6
ByBlock
 62
         0
100
AcDbBlockEnd
  0
BLOCK
  5
1FC
100
AcDbEntity
  8
0
  6
ByBlock
 62
         0
100
AcDbBlockBegin
  2
*D10
 70
         1
 10
0.0
 20
0.0
 30
0.0
  3
*D10
  1

  0
LINE
  5
1FD
100
AcDbEntity
  8
0
  6
CONTINUOUS
 62
       110
100
AcDbLine
 10
294.133503
 20
-84.679
 30
0.0
 11
294.133503
 21
-90.682
 31
0.0
  0
LINE
  5
1FE
100
AcDbEntity
  8
0
  6
CONTINUOUS
 62
       110
100
AcDbLine
 10
294.133503
 20
-75.9581256905
 30
0.0
 11
294.133503
 21
-84.679
 31
0.0
  0
LINE
  5
1FF
100
AcDbEntity
  8
0
  6
CONTINUOUS
 62
       110
100
AcDbLine
 10
277.6109638612
 20
-84.679
 30
0.0
 11
296.633503
 21
-84.679
 31
0.0
  0
LINE
  5
200
100
AcDbEntity
  8
0
  6
CONTINUOUS
 62
       110
100
AcDbLine
 10
277.6109638612
 20
-90.682
 30
0.0
 11
296.633503
 21
-90.682
 31
0.0
  0
SOLID
  5
201
100
AcDbEntity
  8
0
  6
CONTINUOUS
 62
       110
100
AcDbTrace
 10
293.966835995
 20
-85.6790000298
 30
0.0
 11
294.300170005
 21
-85.6790000298
 31
0.0
 12
294.133503
 22
-84.679
 32
0.0
 13
294.133503
 23
-84.679
 33
0.0
  0
SOLID
  5
202
100
AcDbEntity
  8
0
  6
CONTINUOUS
 62
       110
100
AcDbTrace
 10
294.300170005
 20
-89.6819999702
 30
0.0
 11
293.966835995
 21
-89.6819999702
 31
0.0
 12
294.133503
 22
-90.682
 32
0.0
 13
294.133503
 23
-90.682
 33
0.0
  0
MTEXT
  5
203
100
AcDbEntity
  8
0
  6
CONTINUOUS
 62
       110
100
AcDbMText
 10
291.5335029762
 20
-78.9581256905
 30
0.0
 40
3.2000000477
 41
0.0
 71
         5
 72
         1
  1
\A1;\U+22056
  7
MX_DIMTXSTY_2
 11
0.0
 21
1.0
 31
0.0
  0
POINT
  5
204
100
AcDbEntity
  8
DEFPOINTS
  6
CONTINUOUS
 62
         0
100
AcDbPoint
 10
277.5484638612
 20
-84.679
 30
0.0
  0
POINT
  5
205
100
AcDbEntity
  8
DEFPOINTS
  6
CONTINUOUS
 62
         0
100
AcDbPoint
 10
277.5484638612
 20
-90.682
 30
0.0
  0
POINT
  5
206
100
AcDbEntity
  8
DEFPOINTS
  6
CONTINUOUS
 62
         0
100
AcDbPoint
 10
294.133503
 20
-90.682
 30
0.0
  0
ENDBLK
  5
207
100
AcDbEntity
  8
0
  6
ByBlock
 62
         0
100
AcDbBlockEnd
  0
ENDSEC
  0
SECTION
  2
ENTITIES
  0
MTEXT
  5
29
100
AcDbEntity
  8
0
  6
CONTINUOUS
 62
       110
100
AcDbMText
 10
-80.9761905583
 20
-3.0381999795
 30
0.0
 40
3.2016000748
 41
0.0
 71
         1
 72
         1
  1
\T1.025;\W1.058;\A1;TSUBAKI
  0
LINE
  5
2A
100
AcDbEntity
  8
PV
  6
CONTINUOUS
 62
         3
100
AcDbLine
 10
144.982214
 20
-119.19625
 30
0.0
 11
144.982214
 21
-125.467384
 31
0.0
  0
ARC
  5
2B
100
AcDbEntity
  8
PV
  6
CONTINUOUS
 62
         3
100
AcDbCircle
 10
145.531488
 20
-68.921125
 30
0.0
 40
5.6538255
100
AcDbArc
 50
339.002
 51
20.998
  0
ARC
  5
2C
100
AcDbEntity
  8
PV
  6
CONTINUOUS
 62
         3
100
AcDbCircle
 10
149.631537
 20
-65.881606
 30
0.0
 40
1.554777
100
AcDbArc
 50
319.326
 51
19.326
  0
ARC
  5
2D
100
AcDbEntity
  8
PV
  6
CONTINUOUS
 62
         3
100
AcDbCircle
 10
149.631537
 20
-71.960644
 30
0.0
 40
1.554777
100
AcDbArc
 50
340.674
 51
40.674
  0
LINE
  5
2E
100
AcDbEntity
  8
PV
  6
CONTINUOUS
 62
         3
100
AcDbLine
 10
147.983714
 20
-68.787058
 30
0.0
 11
146.983214
 21
-69.055192
 31
0.0
  0
LINE
  5
2F
100
AcDbEntity
  8
PV
  6
CONTINUOUS
 62
         3
100
AcDbLine
 10
147.983714
 20
-72.723025
 30
0.0
 11
146.983214
 21
-72.723025
 31
0.0
  0
LINE
  5
30
100
AcDbEntity
  8
PV
  6
CONTINUOUS
 62
         3
100
AcDbLine
 10
147.983714
 20
-65.119225
 30
0.0
 11
146.983214
 21
-65.119225
 31
0.0
  0
LINE
  5
31
100
AcDbEntity
  8
PV
  6
CONTINUOUS
 62
         3
100
AcDbLine
 10
146.983214
 20
-72.723025
 30
0.0
 11
146.983214
 21
-65.119225
 31
0.0
  0
LINE
  5
32
100
AcDbEntity
  8
PV
  6
CONTINUOUS
 62
         3
100
AcDbLine
 10
151.185314
 20
-65.519425
 30
0.0
 11
150.810126
 21
-64.8691
 31
0.0
  0
LINE
  5
33
100
AcDbEntity
  8
PV
  6
CONTINUOUS
 62
         3
100
AcDbLine
 10
151.185314
 20
-72.322825
 30
0.0
 11
150.810126
 21
-72.97315
 31
0.0
  0
LINE
  5
34
100
AcDbEntity
  8
PV
  6
CONTINUOUS
 62
         3
100
AcDbLine
 10
150.810126
 20
-66.8951125
 30
0.0
 11
147.983714
 21
-66.8951125
 31
0.0
  0
LINE
  5
35
100
AcDbEntity
  8
PV
  6
CONTINUOUS
 62
         3
100
AcDbLine
 10
150.810126
 20
-70.9471375
 30
0.0
 11
147.983714
 21
-70.9471375
 31
0.0
  0
LINE
  5
36
100
AcDbEntity
  8
PV
  6
CONTINUOUS
 62
         3
100
AcDbLine
 10
150.810126
 20
-64.8691
 30
0.0
 11
147.983714
 21
-64.8691
 31
0.0
  0
LINE
  5
37
100
AcDbEntity
  8
PV
  6
CONTINUOUS
 62
         3
100
AcDbLine
 10
150.810126
 20
-72.97315
 30
0.0
 11
147.983714
 21
-72.97315
 31
0.0
  0
LINE
  5
38
100
AcDbEntity
  8
PV
  6
CONTINUOUS
 62
         3
100
AcDbLine
 10
151.185314
 20
-72.322825
 30
0.0
 11
151.185314
 21
-65.519425
 31
0.0
  0
LINE
  5
39
100
AcDbEntity
  8
PV
  6
CONTINUOUS
 62
         3
100
AcDbLine
 10
147.983714
 20
-72.97315
 30
0.0
 11
147.983714
 21
-64.8691
 31
0.0
  0
ARC
  5
3A
100
AcDbEntity
  8
PV
  6
CONTINUOUS
 62
         3
100
AcDbCircle
 10
145.433439
 20
-68.921125
 30
0.0
 40
5.6538255
100
AcDbArc
 50
159.002
 51
200.998
  0
ARC
  5
3B
100
AcDbEntity
  8
PV
  6
CONTINUOUS
 62
         3
100
AcDbCircle
 10
141.33339
 20
-71.960644
 30
0.0
 40
1.554777
100
AcDbArc
 50
139.326
 51
199.326
  0
ARC
  5
3C
100
AcDbEntity
  8
PV
  6
CONTINUOUS
 62
         3
100
AcDbCircle
 10
141.33339
 20
-65.881606
 30
0.0
 40
1.554777
100
AcDbArc
 50
160.674
 51
220.674
  0
LINE
  5
3D
100
AcDbEntity
  8
PV
  6
CONTINUOUS
 62
         3
100
AcDbLine
 10
139.779614
 20
-72.322825
 30
0.0
 11
140.154801
 21
-72.97315
 31
0.0
  0
LINE
  5
3E
100
AcDbEntity
  8
PV
  6
CONTINUOUS
 62
         3
100
AcDbLine
 10
139.779614
 20
-65.519425
 30
0.0
 11
140.154801
 21
-64.8691
 31
0.0
  0
LINE
  5
3F
100
AcDbEntity
  8
PV
  6
CONTINUOUS
 62
         3
100
AcDbLine
 10
140.154801
 20
-70.9471375
 30
0.0
 11
142.981214
 21
-70.9471375
 31
0.0
  0
LINE
  5
40
100
AcDbEntity
  8
PV
  6
CONTINUOUS
 62
         3
100
AcDbLine
 10
140.154801
 20
-66.8951125
 30
0.0
 11
142.981214
 21
-66.8951125
 31
0.0
  0
LINE
  5
41
100
AcDbEntity
  8
PV
  6
CONTINUOUS
 62
         3
100
AcDbLine
 10
140.154801
 20
-72.97315
 30
0.0
 11
142.981214
 21
-72.97315
 31
0.0
  0
LINE
  5
42
100
AcDbEntity
  8
PV
  6
CONTINUOUS
 62
         3
100
AcDbLine
 10
140.154801
 20
-64.8691
 30
0.0
 11
142.981214
 21
-64.8691
 31
0.0
  0
LINE
  5
43
100
AcDbEntity
  8
PV
  6
CONTINUOUS
 62
         3
100
AcDbLine
 10
139.779614
 20
-65.519425
 30
0.0
 11
139.779614
 21
-72.322825
 31
0.0
  0
LINE
  5
44
100
AcDbEntity
  8
PV
  6
CONTINUOUS
 62
         3
100
AcDbLine
 10
142.981214
 20
-64.8691
 30
0.0
 11
142.981214
 21
-72.97315
 31
0.0
  0
MTEXT
  5
45
100
AcDbEntity
  8
PV
  6
CONTINUOUS
 62
       110
100
AcDbMText
 10
200.3070744335
 20
-78.8580909395
 30
0.0
 40
3.2016000748
 41
0.0
 71
         1
 72
         1
  1
\T1.024;\W1.064;\A1;ADJUSTING HANDLE
  0
ARC
  5
46
100
AcDbEntity
  8
PV
  6
CONTINUOUS
 62
         3
100
AcDbCircle
 10
145.531488
 20
-53.413375
 30
0.0
 40
5.6538255
100
AcDbArc
 50
339.002
 51
20.998
  0
ARC
  5
47
100
AcDbEntity
  8
PV
  6
CONTINUOUS
 62
         3
100
AcDbCircle
 10
149.631537
 20
-50.3748565
 30
0.0
 40
1.554777
100
AcDbArc
 50
319.326
 51
19.326
  0
ARC
  5
48
100
AcDbEntity
  8
PV
  6
CONTINUOUS
 62
         3
100
AcDbCircle
 10
149.631537
 20
-56.452894
 30
0.0
 40
1.554777
100
AcDbArc
 50
27.82
 51
40.674
  0
ARC
  5
49
100
AcDbEntity
  8
PV
  6
CONTINUOUS
 62
         3
100
AcDbCircle
 10
145.433439
 20
-53.413375
 30
0.0
 40
5.6538255
100
AcDbArc
 50
159.002
 51
200.998
  0
ARC
  5
4A
100
AcDbEntity
  8
PV
  6
CONTINUOUS
 62
         3
100
AcDbCircle
 10
141.33339
 20
-56.452894
 30
0.0
 40
1.554777
100
AcDbArc
 50
139.326
 51
143.879
  0
ARC
  5
4B
100
AcDbEntity
  8
PV
  6
CONTINUOUS
 62
         3
100
AcDbCircle
 10
141.33339
 20
-50.3748565
 30
0.0
 40
1.554777
100
AcDbArc
 50
160.674
 51
220.674
  0
CIRCLE
  5
4C
100
AcDbEntity
  8
PV
  6
CONTINUOUS
 62
         3
100
AcDbCircle
 10
144.982214
 20
-87.6805
 30
0.0
 40
32.51625
  0
ARC
  5
4D
100
AcDbEntity
  8
PV
  6
CONTINUOUS
 62
         3
100
AcDbCircle
 10
144.982214
 20
-87.6805
 30
0.0
 40
13.0065
100
AcDbArc
 50
98.8500003
 51
81.1500001
  0
CIRCLE
  5
4E
100
AcDbEntity
  8
PV
  6
CONTINUOUS
 62
         3
100
AcDbCircle
 10
144.982214
 20
-87.6805
 30
0.0
 40
12.006
  0
LINE
  5
4F
100
AcDbEntity
  8
PV
  6
CONTINUOUS
 62
         3
100
AcDbLine
 10
147.983714
 20
-53.279308
 30
0.0
 11
146.983214
 21
-53.547442
 31
0.0
  0
LINE
  5
50
100
AcDbEntity
  8
PV
  6
CONTINUOUS
 62
         3
100
AcDbLine
 10
147.983714
 20
-49.611475
 30
0.0
 11
146.983214
 21
-49.611475
 31
0.0
  0
LINE
  5
51
100
AcDbEntity
  8
PV
  6
CONTINUOUS
 62
         3
100
AcDbLine
 10
151.185314
 20
-50.011675
 30
0.0
 11
150.810126
 21
-49.36135
 31
0.0
  0
LINE
  5
52
100
AcDbEntity
  8
PV
  6
CONTINUOUS
 62
         3
100
AcDbLine
 10
150.810126
 20
-51.3873625
 30
0.0
 11
147.983714
 21
-51.3873625
 31
0.0
  0
LINE
  5
53
100
AcDbEntity
  8
PV
  6
CONTINUOUS
 62
         3
100
AcDbLine
 10
150.810126
 20
-55.4393875
 30
0.0
 11
149.203323
 21
-55.4393875
 31
0.0
  0
LINE
  5
54
100
AcDbEntity
  8
PV
  6
CONTINUOUS
 62
         3
100
AcDbLine
 10
150.810126
 20
-49.36135
 30
0.0
 11
147.983714
 21
-49.36135
 31
0.0
  0
LINE
  5
55
100
AcDbEntity
  8
PV
  6
CONTINUOUS
 62
         3
100
AcDbLine
 10
151.185314
 20
-55.7615485
 30
0.0
 11
151.185314
 21
-50.011675
 31
0.0
  0
LINE
  5
56
100
AcDbEntity
  8
PV
  6
CONTINUOUS
 62
         3
100
AcDbLine
 10
147.983714
 20
-55.3033195
 30
0.0
 11
147.983714
 21
-49.36135
 31
0.0
  0
LINE
  5
57
100
AcDbEntity
  8
PV
  6
CONTINUOUS
 62
         3
100
AcDbLine
 10
139.779614
 20
-50.011675
 30
0.0
 11
140.154801
 21
-49.36135
 31
0.0
  0
LINE
  5
58
100
AcDbEntity
  8
PV
  6
CONTINUOUS
 62
         3
100
AcDbLine
 10
140.154801
 20
-55.4393875
 30
0.0
 11
140.761104
 21
-55.4393875
 31
0.0
  0
LINE
  5
59
100
AcDbEntity
  8
PV
  6
CONTINUOUS
 62
         3
100
AcDbLine
 10
140.154801
 20
-51.3873625
 30
0.0
 11
142.981214
 21
-51.3873625
 31
0.0
  0
LINE
  5
5A
100
AcDbEntity
  8
PV
  6
CONTINUOUS
 62
         3
100
AcDbLine
 10
140.154801
 20
-49.36135
 30
0.0
 11
142.981214
 21
-49.36135
 31
0.0
  0
LINE
  5
5B
100
AcDbEntity
  8
PV
  6
CONTINUOUS
 62
         3
100
AcDbLine
 10
139.779614
 20
-50.011675
 30
0.0
 11
139.779614
 21
-55.5834595
 31
0.0
  0
LINE
  5
5C
100
AcDbEntity
  8
PV
  6
CONTINUOUS
 62
         3
100
AcDbLine
 10
142.981214
 20
-49.36135
 30
0.0
 11
142.981214
 21
-55.226281
 31
0.0
  0
LINE
  5
5D
100
AcDbEntity
  8
PV
  6
CONTINUOUS
 62
         3
100
AcDbLine
 10
143.981714
 20
-70.521925
 30
0.0
 11
145.982714
 21
-70.521925
 31
0.0
  0
LINE
  5
5E
100
AcDbEntity
  8
PV
  6
CONTINUOUS
 62
         3
100
AcDbLine
 10
151.185314
 20
-70.521925
 30
0.0
 11
154.086764
 21
-70.521925
 31
0.0
  0
LINE
  5
5F
100
AcDbEntity
  8
PV
  6
CONTINUOUS
 62
         3
100
AcDbLine
 10
151.185314
 20
-67.320325
 30
0.0
 11
154.086764
 21
-67.320325
 31
0.0
  0
LINE
  5
60
100
AcDbEntity
  8
PV
  6
CONTINUOUS
 62
         3
100
AcDbLine
 10
143.981714
 20
-67.320325
 30
0.0
 11
145.982714
 21
-67.320325
 31
0.0
  0
LINE
  5
61
100
AcDbEntity
  8
PV
  6
CONTINUOUS
 62
         3
100
AcDbLine
 10
153.686564
 20
-66.920125
 30
0.0
 11
154.186814
 21
-67.420375
 31
0.0
  0
LINE
  5
62
100
AcDbEntity
  8
PV
  6
CONTINUOUS
 62
         3
100
AcDbLine
 10
153.686564
 20
-70.922125
 30
0.0
 11
154.186814
 21
-70.421875
 31
0.0
  0
LINE
  5
63
100
AcDbEntity
  8
PV
  6
CONTINUOUS
 62
         3
100
AcDbLine
 10
153.686564
 20
-70.922125
 30
0.0
 11
153.686564
 21
-66.920125
 31
0.0
  0
LINE
  5
64
100
AcDbEntity
  8
PV
  6
CONTINUOUS
 62
         3
100
AcDbLine
 10
154.186814
 20
-70.421875
 30
0.0
 11
154.186814
 21
-67.420375
 31
0.0
  0
LINE
  5
65
100
AcDbEntity
  8
PV
  6
CONTINUOUS
 62
         3
100
AcDbLine
 10
151.185314
 20
-70.922125
 30
0.0
 11
153.686564
 21
-70.922125
 31
0.0
  0
LINE
  5
66
100
AcDbEntity
  8
PV
  6
CONTINUOUS
 62
         3
100
AcDbLine
 10
151.185314
 20
-66.920125
 30
0.0
 11
153.686564
 21
-66.920125
 31
0.0
  0
LINE
  5
67
100
AcDbEntity
  8
PV
  6
CONTINUOUS
 62
         3
100
AcDbLine
 10
143.981714
 20
-70.922125
 30
0.0
 11
145.982714
 21
-70.922125
 31
0.0
  0
LINE
  5
68
100
AcDbEntity
  8
PV
  6
CONTINUOUS
 62
         3
100
AcDbLine
 10
143.981714
 20
-66.920125
 30
0.0
 11
145.982714
 21
-66.920125
 31
0.0
  0
LINE
  5
6A
100
AcDbEntity
  8
PV
  6
CENTER
 62
         3
100
AcDbLine
 10
138.979214
 20
-68.921125
 30
0.0
 11
154.186814
 21
-68.921125
 31
0.0
  0
LINE
  5
6B
100
AcDbEntity
  8
PV
  6
CONTINUOUS
 62
         3
100
AcDbLine
 10
143.981714
 20
-63.16825
 30
0.0
 11
142.981214
 21
-63.16825
 31
0.0
  0
LINE
  5
6C
100
AcDbEntity
  8
PV
  6
CONTINUOUS
 62
         3
100
AcDbLine
 10
145.982714
 20
-63.16825
 30
0.0
 11
146.983214
 21
-63.16825
 31
0.0
  0
LINE
  5
6D
100
AcDbEntity
  8
PV
  6
CONTINUOUS
 62
         3
100
AcDbLine
 10
142.981214
 20
-63.16825
 30
0.0
 11
142.981214
 21
-74.744035
 31
0.0
  0
LINE
  5
6E
100
AcDbEntity
  8
PV
  6
CONTINUOUS
 62
         3
100
AcDbLine
 10
146.983214
 20
-63.16825
 30
0.0
 11
146.983214
 21
-74.744035
 31
0.0
  0
LINE
  5
6F
100
AcDbEntity
  8
PV
  6
CONTINUOUS
 62
         3
100
AcDbLine
 10
145.982714
 20
-63.16825
 30
0.0
 11
145.982714
 21
-75.716521
 31
0.0
  0
LINE
  5
70
100
AcDbEntity
  8
PV
  6
CONTINUOUS
 62
         3
100
AcDbLine
 10
143.981714
 20
-63.16825
 30
0.0
 11
143.981714
 21
-75.716521
 31
0.0
  0
LINE
  5
71
100
AcDbEntity
  8
PV
  6
CONTINUOUS
 62
         3
100
AcDbLine
 10
143.981714
 20
-55.014175
 30
0.0
 11
145.982714
 21
-55.014175
 31
0.0
  0
LINE
  5
72
100
AcDbEntity
  8
PV
  6
CONTINUOUS
 62
         3
100
AcDbLine
 10
151.185314
 20
-55.014175
 30
0.0
 11
154.086764
 21
-55.014175
 31
0.0
  0
LINE
  5
73
100
AcDbEntity
  8
PV
  6
CONTINUOUS
 62
         3
100
AcDbLine
 10
151.185314
 20
-51.812575
 30
0.0
 11
154.086764
 21
-51.812575
 31
0.0
  0
LINE
  5
74
100
AcDbEntity
  8
PV
  6
CONTINUOUS
 62
         3
100
AcDbLine
 10
143.981714
 20
-51.812575
 30
0.0
 11
145.982714
 21
-51.812575
 31
0.0
  0
LINE
  5
75
100
AcDbEntity
  8
PV
  6
CONTINUOUS
 62
         3
100
AcDbLine
 10
153.686564
 20
-51.412375
 30
0.0
 11
154.186814
 21
-51.912625
 31
0.0
  0
LINE
  5
76
100
AcDbEntity
  8
PV
  6
CONTINUOUS
 62
         3
100
AcDbLine
 10
153.686564
 20
-55.414375
 30
0.0
 11
154.186814
 21
-54.914125
 31
0.0
  0
LINE
  5
77
100
AcDbEntity
  8
PV
  6
CONTINUOUS
 62
         3
100
AcDbLine
 10
153.686564
 20
-55.414375
 30
0.0
 11
153.686564
 21
-51.412375
 31
0.0
  0
LINE
  5
78
100
AcDbEntity
  8
PV
  6
CONTINUOUS
 62
         3
100
AcDbLine
 10
154.186814
 20
-54.914125
 30
0.0
 11
154.186814
 21
-51.912625
 31
0.0
  0
LINE
  5
79
100
AcDbEntity
  8
PV
  6
CONTINUOUS
 62
         3
100
AcDbLine
 10
151.185314
 20
-55.414375
 30
0.0
 11
153.686564
 21
-55.414375
 31
0.0
  0
LINE
  5
7A
100
AcDbEntity
  8
PV
  6
CONTINUOUS
 62
         3
100
AcDbLine
 10
151.185314
 20
-51.412375
 30
0.0
 11
153.686564
 21
-51.412375
 31
0.0
  0
LINE
  5
7B
100
AcDbEntity
  8
PV
  6
CONTINUOUS
 62
         3
100
AcDbLine
 10
143.981714
 20
-51.412375
 30
0.0
 11
145.982714
 21
-51.412375
 31
0.0
  0
LINE
  5
7C
100
AcDbEntity
  8
PV
  6
CENTER
 62
         3
100
AcDbLine
 10
138.979214
 20
-53.413375
 30
0.0
 11
154.186814
 21
-53.413375
 31
0.0
  0
LINE
  5
7D
100
AcDbEntity
  8
PV
  6
CONTINUOUS
 62
         3
100
AcDbLine
 10
143.981714
 20
-47.6605
 30
0.0
 11
142.981214
 21
-47.6605
 31
0.0
  0
LINE
  5
7E
100
AcDbEntity
  8
PV
  6
CONTINUOUS
 62
         3
100
AcDbLine
 10
145.982714
 20
-47.6605
 30
0.0
 11
146.983214
 21
-47.6605
 31
0.0
  0
LINE
  5
7F
100
AcDbEntity
  8
PV
  6
CONTINUOUS
 62
         3
100
AcDbLine
 10
142.981214
 20
-47.6605
 30
0.0
 11
142.981214
 21
-55.226281
 31
0.0
  0
LINE
  5
80
100
AcDbEntity
  8
PV
  6
CONTINUOUS
 62
         3
100
AcDbLine
 10
146.983214
 20
-47.6605
 30
0.0
 11
146.983214
 21
-55.226281
 31
0.0
  0
LINE
  5
81
100
AcDbEntity
  8
PV
  6
CONTINUOUS
 62
         3
100
AcDbLine
 10
145.982714
 20
-47.6605
 30
0.0
 11
145.982714
 21
-55.1792575
 31
0.0
  0
LINE
  5
82
100
AcDbEntity
  8
PV
  6
CONTINUOUS
 62
         3
100
AcDbLine
 10
143.981714
 20
-47.6605
 30
0.0
 11
143.981714
 21
-55.1792575
 31
0.0
  0
LINE
  5
83
100
AcDbEntity
  8
PV
  6
CENTER
 62
         3
100
AcDbLine
 10
108.927195
 20
-87.6805
 30
0.0
 11
182.995211
 21
-87.6805
 31
0.0
  0
LINE
  5
84
100
AcDbEntity
  8
PV
  6
CENTER
 62
         3
100
AcDbLine
 10
144.982214
 20
-41.8285855
 30
0.0
 11
144.982214
 21
-124.23777
 31
0.0
  0
LINE
  5
86
100
AcDbEntity
  8
PV
  6
PHANTOM
 62
         3
100
AcDbLine
 10
277.548464
 20
-84.679
 30
0.0
 11
277.548464
 21
-90.682
 31
0.0
  0
LINE
  5
87
100
AcDbEntity
  8
PV
  6
PHANTOM
 62
         3
100
AcDbLine
 10
167.493464
 20
-84.679
 30
0.0
 11
167.493464
 21
-90.682
 31
0.0
  0
LINE
  5
88
100
AcDbEntity
  8
PV
  6
PHANTOM
 62
         3
100
AcDbLine
 10
167.493464
 20
-90.682
 30
0.0
 11
277.548464
 21
-90.682
 31
0.0
  0
LINE
  5
89
100
AcDbEntity
  8
PV
  6
PHANTOM
 62
         3
100
AcDbLine
 10
167.493464
 20
-84.679
 30
0.0
 11
277.548464
 21
-84.679
 31
0.0
  0
ARC
  5
8A
100
AcDbEntity
  8
PV
  6
CONTINUOUS
 62
         3
100
AcDbCircle
 10
-155.567061
 20
-53.413375
 30
0.0
 40
5.6538255
100
AcDbArc
 50
159.002
 51
200.998
  0
ARC
  5
8B
100
AcDbEntity
  8
PV
  6
CONTINUOUS
 62
         3
100
AcDbCircle
 10
-159.66711
 20
-50.3748565
 30
0.0
 40
1.554777
100
AcDbArc
 50
160.674
 51
220.674
  0
ARC
  5
8C
100
AcDbEntity
  8
PV
  6
CONTINUOUS
 62
         3
100
AcDbCircle
 10
-159.66711
 20
-56.452894
 30
0.0
 40
1.554777
100
AcDbArc
 50
139.326
 51
199.326
  0
LINE
  5
8D
100
AcDbEntity
  8
PV
  6
CONTINUOUS
 62
         3
100
AcDbLine
 10
-158.019286
 20
-53.279308
 30
0.0
 11
-157.018786
 21
-53.547442
 31
0.0
  0
LINE
  5
8E
100
AcDbEntity
  8
PV
  6
CONTINUOUS
 62
         3
100
AcDbLine
 10
-158.019286
 20
-57.215275
 30
0.0
 11
-157.018786
 21
-57.215275
 31
0.0
  0
LINE
  5
8F
100
AcDbEntity
  8
PV
  6
CONTINUOUS
 62
         3
100
AcDbLine
 10
-158.019286
 20
-49.611475
 30
0.0
 11
-157.018786
 21
-49.611475
 31
0.0
  0
LINE
  5
90
100
AcDbEntity
  8
PV
  6
CONTINUOUS
 62
         3
100
AcDbLine
 10
-157.018786
 20
-57.215275
 30
0.0
 11
-157.018786
 21
-49.611475
 31
0.0
  0
LINE
  5
91
100
AcDbEntity
  8
PV
  6
CONTINUOUS
 62
         3
100
AcDbLine
 10
-161.220886
 20
-50.011675
 30
0.0
 11
-160.845699
 21
-49.36135
 31
0.0
  0
LINE
  5
92
100
AcDbEntity
  8
PV
  6
CONTINUOUS
 62
         3
100
AcDbLine
 10
-161.220886
 20
-56.815075
 30
0.0
 11
-160.845699
 21
-57.4654
 31
0.0
  0
LINE
  5
93
100
AcDbEntity
  8
PV
  6
CONTINUOUS
 62
         3
100
AcDbLine
 10
-160.845699
 20
-51.3873625
 30
0.0
 11
-158.019286
 21
-51.3873625
 31
0.0
  0
LINE
  5
94
100
AcDbEntity
  8
PV
  6
CONTINUOUS
 62
         3
100
AcDbLine
 10
-160.845699
 20
-55.4393875
 30
0.0
 11
-158.019286
 21
-55.4393875
 31
0.0
  0
LINE
  5
95
100
AcDbEntity
  8
PV
  6
CONTINUOUS
 62
         3
100
AcDbLine
 10
-160.845699
 20
-49.36135
 30
0.0
 11
-158.019286
 21
-49.36135
 31
0.0
  0
LINE
  5
96
100
AcDbEntity
  8
PV
  6
CONTINUOUS
 62
         3
100
AcDbLine
 10
-160.845699
 20
-57.4654
 30
0.0
 11
-158.019286
 21
-57.4654
 31
0.0
  0
LINE
  5
97
100
AcDbEntity
  8
PV
  6
CONTINUOUS
 62
         3
100
AcDbLine
 10
-161.220886
 20
-56.815075
 30
0.0
 11
-161.220886
 21
-50.011675
 31
0.0
  0
LINE
  5
98
100
AcDbEntity
  8
PV
  6
CONTINUOUS
 62
         3
100
AcDbLine
 10
-158.019286
 20
-57.4654
 30
0.0
 11
-158.019286
 21
-49.36135
 31
0.0
  0
ARC
  5
99
100
AcDbEntity
  8
PV
  6
CONTINUOUS
 62
         3
100
AcDbCircle
 10
-155.469012
 20
-53.413375
 30
0.0
 40
5.6538255
100
AcDbArc
 50
339.002
 51
20.998
  0
ARC
  5
9A
100
AcDbEntity
  8
PV
  6
CONTINUOUS
 62
         3
100
AcDbCircle
 10
-151.368963
 20
-56.452894
 30
0.0
 40
1.554777
100
AcDbArc
 50
340.674
 51
40.674
  0
ARC
  5
9B
100
AcDbEntity
  8
PV
  6
CONTINUOUS
 62
         3
100
AcDbCircle
 10
-151.368963
 20
-50.3748565
 30
0.0
 40
1.554777
100
AcDbArc
 50
319.326
 51
19.326
  0
LINE
  5
9C
100
AcDbEntity
  8
PV
  6
CONTINUOUS
 62
         3
100
AcDbLine
 10
-149.815186
 20
-56.815075
 30
0.0
 11
-150.190374
 21
-57.4654
 31
0.0
  0
LINE
  5
9D
100
AcDbEntity
  8
PV
  6
CONTINUOUS
 62
         3
100
AcDbLine
 10
-149.815186
 20
-50.011675
 30
0.0
 11
-150.190374
 21
-49.36135
 31
0.0
  0
LINE
  5
9E
100
AcDbEntity
  8
PV
  6
CONTINUOUS
 62
         3
100
AcDbLine
 10
-150.190374
 20
-55.4393875
 30
0.0
 11
-153.016786
 21
-55.4393875
 31
0.0
  0
LINE
  5
9F
100
AcDbEntity
  8
PV
  6
CONTINUOUS
 62
         3
100
AcDbLine
 10
-150.190374
 20
-51.3873625
 30
0.0
 11
-153.016786
 21
-51.3873625
 31
0.0
  0
LINE
  5
A0
100
AcDbEntity
  8
PV
  6
CONTINUOUS
 62
         3
100
AcDbLine
 10
-150.190374
 20
-57.4654
 30
0.0
 11
-153.016786
 21
-57.4654
 31
0.0
  0
LINE
  5
A1
100
AcDbEntity
  8
PV
  6
CONTINUOUS
 62
         3
100
AcDbLine
 10
-150.190374
 20
-49.36135
 30
0.0
 11
-153.016786
 21
-49.36135
 31
0.0
  0
LINE
  5
A2
100
AcDbEntity
  8
PV
  6
CONTINUOUS
 62
         3
100
AcDbLine
 10
-149.815186
 20
-50.011675
 30
0.0
 11
-149.815186
 21
-56.815075
 31
0.0
  0
LINE
  5
A3
100
AcDbEntity
  8
PV
  6
CONTINUOUS
 62
         3
100
AcDbLine
 10
-153.016786
 20
-49.36135
 30
0.0
 11
-153.016786
 21
-57.4654
 31
0.0
  0
ARC
  5
A4
100
AcDbEntity
  8
PV
  6
CONTINUOUS
 62
         3
100
AcDbCircle
 10
-155.017786
 20
-87.6805
 30
0.0
 40
28.51425
100
AcDbArc
 50
94.0240002
 51
85.9760001
  0
ARC
  5
A5
100
AcDbEntity
  8
PV
  6
CONTINUOUS
 62
         3
100
AcDbCircle
 10
-155.017786
 20
-87.6805
 30
0.0
 40
32.51625
100
AcDbArc
 50
100.811
 51
80.6689998
  0
CIRCLE
  5
A6
100
AcDbEntity
  8
PV
  6
CONTINUOUS
 62
         3
100
AcDbCircle
 10
-139.454008
 20
-103.244278
 30
0.0
 40
2.459229
  0
CIRCLE
  5
A7
100
AcDbEntity
  8
PV
  6
CONTINUOUS
 62
         3
100
AcDbCircle
 10
-139.454008
 20
-103.244278
 30
0.0
 40
3.0015
  0
ARC
  5
A8
100
AcDbEntity
  8
PV
  6
CENTER
 62
         3
100
AcDbCircle
 10
-155.017786
 20
-87.6805
 30
0.0
 40
22.011
100
AcDbArc
 50
299.325
 51
330.675
  0
CIRCLE
  5
A9
100
AcDbEntity
  8
PV
  6
CONTINUOUS
 62
         3
100
AcDbCircle
 10
-139.454008
 20
-72.116722
 30
0.0
 40
2.459229
  0
CIRCLE
  5
AA
100
AcDbEntity
  8
PV
  6
CONTINUOUS
 62
         3
100
AcDbCircle
 10
-139.454008
 20
-72.116722
 30
0.0
 40
3.0015
  0
ARC
  5
AB
100
AcDbEntity
  8
PV
  6
CENTER
 62
         3
100
AcDbCircle
 10
-155.017786
 20
-87.6805
 30
0.0
 40
22.011
100
AcDbArc
 50
33.0987557
 51
60.6749998
  0
CIRCLE
  5
AC
100
AcDbEntity
  8
PV
  6
CONTINUOUS
 62
         3
100
AcDbCircle
 10
-170.581564
 20
-103.244278
 30
0.0
 40
2.459229
  0
CIRCLE
  5
AD
100
AcDbEntity
  8
PV
  6
CONTINUOUS
 62
         3
100
AcDbCircle
 10
-170.581564
 20
-103.244278
 30
0.0
 40
3.0015
  0
ARC
  5
AE
100
AcDbEntity
  8
PV
  6
CENTER
 62
         3
100
AcDbCircle
 10
-155.017786
 20
-87.6805
 30
0.0
 40
22.011
100
AcDbArc
 50
212.159519
 51
240.675
  0
CIRCLE
  5
AF
100
AcDbEntity
  8
PV
  6
CONTINUOUS
 62
         3
100
AcDbCircle
 10
-170.581564
 20
-72.116722
 30
0.0
 40
2.459229
  0
CIRCLE
  5
B0
100
AcDbEntity
  8
PV
  6
CONTINUOUS
 62
         3
100
AcDbCircle
 10
-170.581564
 20
-72.116722
 30
0.0
 40
3.0015
  0
ARC
  5
B1
100
AcDbEntity
  8
PV
  6
CENTER
 62
         3
100
AcDbCircle
 10
-155.017786
 20
-87.6805
 30
0.0
 40
22.011
100
AcDbArc
 50
119.325
 51
150.675
  0
CIRCLE
  5
B2
100
AcDbEntity
  8
PV
  6
CONTINUOUS
 62
         3
100
AcDbCircle
 10
-155.017786
 20
-87.6805
 30
0.0
 40
27.51375
  0
LINE
  5
B3
100
AcDbEntity
  8
PV
  6
CONTINUOUS
 62
         3
100
AcDbLine
 10
-164.122336
 20
-55.014175
 30
0.0
 11
-161.220886
 21
-55.014175
 31
0.0
  0
LINE
  5
B4
100
AcDbEntity
  8
PV
  6
CONTINUOUS
 62
         3
100
AcDbLine
 10
-164.122336
 20
-51.812575
 30
0.0
 11
-161.220886
 21
-51.812575
 31
0.0
  0
LINE
  5
B5
100
AcDbEntity
  8
PV
  6
CONTINUOUS
 62
         3
100
AcDbLine
 10
-164.222386
 20
-51.912625
 30
0.0
 11
-163.722136
 21
-51.412375
 31
0.0
  0
LINE
  5
B6
100
AcDbEntity
  8
PV
  6
CONTINUOUS
 62
         3
100
AcDbLine
 10
-164.222386
 20
-54.914125
 30
0.0
 11
-163.722136
 21
-55.414375
 31
0.0
  0
LINE
  5
B7
100
AcDbEntity
  8
PV
  6
CONTINUOUS
 62
         3
100
AcDbLine
 10
-163.722136
 20
-51.412375
 30
0.0
 11
-163.722136
 21
-55.414375
 31
0.0
  0
LINE
  5
B8
100
AcDbEntity
  8
PV
  6
CONTINUOUS
 62
         3
100
AcDbLine
 10
-164.222386
 20
-51.912625
 30
0.0
 11
-164.222386
 21
-54.914125
 31
0.0
  0
LINE
  5
B9
100
AcDbEntity
  8
PV
  6
CONTINUOUS
 62
         3
100
AcDbLine
 10
-163.722136
 20
-55.414375
 30
0.0
 11
-161.220886
 21
-55.414375
 31
0.0
  0
LINE
  5
BA
100
AcDbEntity
  8
PV
  6
CONTINUOUS
 62
         3
100
AcDbLine
 10
-163.722136
 20
-51.412375
 30
0.0
 11
-161.220886
 21
-51.412375
 31
0.0
  0
LINE
  5
BB
100
AcDbEntity
  8
PV
  6
CONTINUOUS
 62
         3
100
AcDbLine
 10
-156.018286
 20
-55.014175
 30
0.0
 11
-154.017286
 21
-55.014175
 31
0.0
  0
LINE
  5
BC
100
AcDbEntity
  8
PV
  6
CONTINUOUS
 62
         3
100
AcDbLine
 10
-156.018286
 20
-51.812575
 30
0.0
 11
-154.017286
 21
-51.812575
 31
0.0
  0
LINE
  5
BD
100
AcDbEntity
  8
PV
  6
CONTINUOUS
 62
         3
100
AcDbLine
 10
-156.018286
 20
-55.414375
 30
0.0
 11
-154.017286
 21
-55.414375
 31
0.0
  0
LINE
  5
BE
100
AcDbEntity
  8
PV
  6
CONTINUOUS
 62
         3
100
AcDbLine
 10
-156.018286
 20
-51.412375
 30
0.0
 11
-154.017286
 21
-51.412375
 31
0.0
  0
LINE
  5
BF
100
AcDbEntity
  8
PV
  6
CENTER
 62
         3
100
AcDbLine
 10
-166.621585
 20
-53.413375
 30
0.0
 11
-145.813186
 21
-53.413375
 31
0.0
  0
LINE
  5
C0
100
AcDbEntity
  8
PV
  6
CONTINUOUS
 62
         3
100
AcDbLine
 10
-156.018286
 20
-47.6605
 30
0.0
 11
-157.018786
 21
-47.6605
 31
0.0
  0
LINE
  5
C1
100
AcDbEntity
  8
PV
  6
CONTINUOUS
 62
         3
100
AcDbLine
 10
-154.017286
 20
-47.6605
 30
0.0
 11
-153.016786
 21
-47.6605
 31
0.0
  0
LINE
  5
C2
100
AcDbEntity
  8
PV
  6
CONTINUOUS
 62
         3
100
AcDbLine
 10
-157.018786
 20
-47.6605
 30
0.0
 11
-157.018786
 21
-59.236285
 31
0.0
  0
LINE
  5
C3
100
AcDbEntity
  8
PV
  6
CONTINUOUS
 62
         3
100
AcDbLine
 10
-153.016786
 20
-47.6605
 30
0.0
 11
-153.016786
 21
-59.236285
 31
0.0
  0
LINE
  5
C4
100
AcDbEntity
  8
PV
  6
CONTINUOUS
 62
         3
100
AcDbLine
 10
-154.017286
 20
-47.6605
 30
0.0
 11
-154.017286
 21
-60.184759
 31
0.0
  0
LINE
  5
C5
100
AcDbEntity
  8
PV
  6
CONTINUOUS
 62
         3
100
AcDbLine
 10
-156.018286
 20
-47.6605
 30
0.0
 11
-156.018286
 21
-60.184759
 31
0.0
  0
LINE
  5
C6
100
AcDbEntity
  8
PV
  6
CENTER
 62
         3
100
AcDbLine
 10
-135.208887
 20
-107.4894
 30
0.0
 11
-143.698129
 21
-99.000157
 31
0.0
  0
LINE
  5
C7
100
AcDbEntity
  8
PV
  6
CENTER
 62
         3
100
AcDbLine
 10
-135.208887
 20
-67.8716005
 30
0.0
 11
-143.698129
 21
-76.360843
 31
0.0
  0
LINE
  5
C8
100
AcDbEntity
  8
PV
  6
CENTER
 62
         3
100
AcDbLine
 10
-174.826686
 20
-107.4894
 30
0.0
 11
-166.337443
 21
-99.000157
 31
0.0
  0
LINE
  5
C9
100
AcDbEntity
  8
PV
  6
CENTER
 62
         3
100
AcDbLine
 10
-186.533536
 20
-87.6805
 30
0.0
 11
-123.502036
 21
-87.6805
 31
0.0
  0
LINE
  5
CA
100
AcDbEntity
  8
PV
  6
CENTER
 62
         3
100
AcDbLine
 10
-155.017786
 20
-56.16475
 30
0.0
 11
-155.017786
 21
-119.19625
 31
0.0
  0
LINE
  5
CB
100
AcDbEntity
  8
PV
  6
CENTER
 62
         3
100
AcDbLine
 10
-174.826686
 20
-67.8716005
 30
0.0
 11
-166.337443
 21
-76.360843
 31
0.0
  0
LINE
  5
CC
100
AcDbEntity
  8
PV
  6
CONTINUOUS
 62
         3
100
AcDbLine
 10
70.50729
 20
-87.6805
 30
0.0
 11
8.39239651
 21
-87.6805
 31
0.0
  0
LINE
  5
CD
100
AcDbEntity
  8
PV
  6
CONTINUOUS
 62
         3
100
AcDbLine
 10
24.0342135
 20
-60.16675
 30
0.0
 11
17.9971965
 21
-60.16675
 31
0.0
  0
LINE
  5
CE
100
AcDbEntity
  8
PV
  6
CONTINUOUS
 62
         3
100
AcDbLine
 10
24.0342135
 20
-115.19425
 30
0.0
 11
17.9971965
 21
-115.19425
 31
0.0
  0
LINE
  5
CF
100
AcDbEntity
  8
PV
  6
CONTINUOUS
 62
         3
100
AcDbLine
 10
57.0507135
 20
-93.2833
 30
0.0
 11
46.4194005
 21
-93.2833
 31
0.0
  0
LINE
  5
D0
100
AcDbEntity
  8
PV
  6
CONTINUOUS
 62
         3
100
AcDbLine
 10
-5.27543399
 20
-87.6805
 30
0.0
 11
-1.58358899
 21
-87.6805
 31
0.0
  0
CIRCLE
  5
D1
100
AcDbEntity
  8
PV
  6
CONTINUOUS
 62
         3
100
AcDbCircle
 10
18.0312135
 20
-53.413375
 30
0.0
 40
3.50175
  0
LINE
  5
D2
100
AcDbEntity
  8
PV
  6
CONTINUOUS
 62
         3
100
AcDbLine
 10
18.0312135
 20
-57.457396
 30
0.0
 11
14.5294635
 21
-55.4353855
 31
0.0
  0
LINE
  5
D3
100
AcDbEntity
  8
PV
  6
CONTINUOUS
 62
         3
100
AcDbLine
 10
14.5294635
 20
-55.4353855
 30
0.0
 11
14.5294635
 21
-51.3913645
 31
0.0
  0
LINE
  5
D4
100
AcDbEntity
  8
PV
  6
CONTINUOUS
 62
         3
100
AcDbLine
 10
14.5294635
 20
-51.3913645
 30
0.0
 11
18.0312135
 21
-49.369354
 31
0.0
  0
LINE
  5
D5
100
AcDbEntity
  8
PV
  6
CONTINUOUS
 62
         3
100
AcDbLine
 10
18.0312135
 20
-49.369354
 30
0.0
 11
21.5329635
 21
-51.3913645
 31
0.0
  0
LINE
  5
D6
100
AcDbEntity
  8
PV
  6
CONTINUOUS
 62
         3
100
AcDbLine
 10
21.5329635
 20
-51.3913645
 30
0.0
 11
21.5329635
 21
-55.4353855
 31
0.0
  0
LINE
  5
D7
100
AcDbEntity
  8
PV
  6
CONTINUOUS
 62
         3
100
AcDbLine
 10
21.5329635
 20
-55.4353855
 30
0.0
 11
18.0312135
 21
-57.457396
 31
0.0
  0
CIRCLE
  5
D8
100
AcDbEntity
  8
PV
  6
CONTINUOUS
 62
         3
100
AcDbCircle
 10
61.0527135
 20
-68.921125
 30
0.0
 40
3.50175
  0
LINE
  5
D9
100
AcDbEntity
  8
PV
  6
CONTINUOUS
 62
         3
100
AcDbLine
 10
61.0527135
 20
-72.965146
 30
0.0
 11
57.5509635
 21
-70.9431355
 31
0.0
  0
LINE
  5
DA
100
AcDbEntity
  8
PV
  6
CONTINUOUS
 62
         3
100
AcDbLine
 10
57.5509635
 20
-70.9431355
 30
0.0
 11
57.5509635
 21
-66.8991145
 31
0.0
  0
LINE
  5
DB
100
AcDbEntity
  8
PV
  6
CONTINUOUS
 62
         3
100
AcDbLine
 10
57.5509635
 20
-66.8991145
 30
0.0
 11
61.0527135
 21
-64.877104
 31
0.0
  0
LINE
  5
DC
100
AcDbEntity
  8
PV
  6
CONTINUOUS
 62
         3
100
AcDbLine
 10
61.0527135
 20
-64.877104
 30
0.0
 11
64.5544635
 21
-66.8991145
 31
0.0
  0
LINE
  5
DD
100
AcDbEntity
  8
PV
  6
CONTINUOUS
 62
         3
100
AcDbLine
 10
64.5544635
 20
-66.8991145
 30
0.0
 11
64.5544635
 21
-70.9431355
 31
0.0
  0
LINE
  5
DE
100
AcDbEntity
  8
PV
  6
CONTINUOUS
 62
         3
100
AcDbLine
 10
64.5544635
 20
-70.9431355
 30
0.0
 11
61.0527135
 21
-72.965146
 31
0.0
  0
MTEXT
  5
DF
100
AcDbEntity
  8
PV
  6
CONTINUOUS
 62
       110
100
AcDbMText
 10
-81.2244504654
 20
-13.6435000466
 30
0.0
 40
4.001999855
 41
0.0
 71
         1
 72
         1
  1
\W1.091;\A1;DP002A025+(DP002J)
  0
MTEXT
  5
E0
100
AcDbEntity
  8
PV
  6
CONTINUOUS
 62
       110
100
AcDbMText
 10
-80.9927254949
 20
-8.0406999395
 30
0.0
 40
3.2016000748
 41
0.0
 71
         1
 72
         1
  1
\T1.017;\W1.071;\A1;SHOCK DAMPER
  0
ARC
  5
E1
100
AcDbEntity
  8
PV
  6
CONTINUOUS
 62
         3
100
AcDbCircle
 10
13.0287135
 20
-111.974641
 30
0.0
 40
4.720359
100
AcDbArc
 50
197.492
 51
342.507
  0
CIRCLE
  5
E2
100
AcDbEntity
  8
PV
  6
CONTINUOUS
 62
         3
100
AcDbCircle
 10
-23.9897865
 20
-87.6805
 30
0.0
 40
3.0015
  0
ARC
  5
E3
100
AcDbEntity
  8
PV
  6
CONTINUOUS
 62
         3
100
AcDbCircle
 10
4.02421351
 20
-60.16675
 30
0.0
 40
1.50075
100
AcDbArc
 50
0.0
 51
180.0
  0
ARC
  5
E4
100
AcDbEntity
  8
PV
  6
CONTINUOUS
 62
         3
100
AcDbCircle
 10
38.0412135
 20
-87.6805
 30
0.0
 40
30.015
100
AcDbArc
 50
336.422
 51
23.578
  0
LINE
  5
E5
100
AcDbEntity
  8
PV
  6
CONTINUOUS
 62
         3
100
AcDbLine
 10
57.0507135
 20
-99.6865
 30
0.0
 11
51.190785
 21
-120.19675
 31
0.0
  0
LINE
  5
E6
100
AcDbEntity
  8
PV
  6
CONTINUOUS
 62
         3
100
AcDbLine
 10
47.975178
 20
-108.941125
 30
0.0
 11
51.190785
 21
-120.19675
 31
0.0
  0
LINE
  5
E7
100
AcDbEntity
  8
PV
  6
CONTINUOUS
 62
         3
100
AcDbLine
 10
47.975178
 20
-108.941125
 30
0.0
 11
44.7585705
 21
-120.19675
 31
0.0
  0
LINE
  5
E8
100
AcDbEntity
  8
PV
  6
CONTINUOUS
 62
         3
100
AcDbLine
 10
41.5429635
 20
-108.941125
 30
0.0
 11
44.7585705
 21
-120.19675
 31
0.0
  0
LINE
  5
E9
100
AcDbEntity
  8
PV
  6
PHANTOM
 62
         3
100
AcDbLine
 10
28.679535
 20
-108.941125
 30
0.0
 11
54.406392
 21
-108.941125
 31
0.0
  0
LINE
  5
EA
100
AcDbEntity
  8
PV
  6
CONTINUOUS
 62
         3
100
AcDbLine
 10
35.110749
 20
-108.941125
 30
0.0
 11
31.895142
 21
-120.19675
 31
0.0
  0
LINE
  5
EB
100
AcDbEntity
  8
PV
  6
CONTINUOUS
 62
         3
100
AcDbLine
 10
28.679535
 20
-108.941125
 30
0.0
 11
31.895142
 21
-120.19675
 31
0.0
  0
LINE
  5
EC
100
AcDbEntity
  8
PV
  6
PHANTOM
 62
         3
100
AcDbLine
 10
25.463928
 20
-120.19675
 30
0.0
 11
51.190785
 21
-120.19675
 31
0.0
  0
LINE
  5
ED
100
AcDbEntity
  8
PV
  6
CONTINUOUS
 62
         3
100
AcDbLine
 10
28.679535
 20
-108.941125
 30
0.0
 11
25.463928
 21
-120.19675
 31
0.0
  0
LINE
  5
EE
100
AcDbEntity
  8
PV
  6
CONTINUOUS
 62
         3
100
AcDbLine
 10
24.0342135
 20
-115.19425
 30
0.0
 11
25.463928
 21
-120.19675
 31
0.0
  0
LINE
  5
EF
100
AcDbEntity
  8
PV
  6
CONTINUOUS
 62
         3
100
AcDbLine
 10
41.5429635
 20
-66.419875
 30
0.0
 11
44.7585705
 21
-55.16425
 31
0.0
  0
LINE
  5
F0
100
AcDbEntity
  8
PV
  6
CONTINUOUS
 62
         3
100
AcDbLine
 10
47.975178
 20
-66.419875
 30
0.0
 11
44.7585705
 21
-55.16425
 31
0.0
  0
LINE
  5
F1
100
AcDbEntity
  8
PV
  6
CONTINUOUS
 62
         3
100
AcDbLine
 10
35.110749
 20
-66.419875
 30
0.0
 11
31.895142
 21
-55.16425
 31
0.0
  0
LINE
  5
F2
100
AcDbEntity
  8
PV
  6
CONTINUOUS
 62
         3
100
AcDbLine
 10
28.679535
 20
-66.419875
 30
0.0
 11
31.895142
 21
-55.16425
 31
0.0
  0
LINE
  5
F3
100
AcDbEntity
  8
PV
  6
CONTINUOUS
 62
         3
100
AcDbLine
 10
57.0507135
 20
-75.6745
 30
0.0
 11
51.190785
 21
-55.16425
 31
0.0
  0
LINE
  5
F4
100
AcDbEntity
  8
PV
  6
CONTINUOUS
 62
         3
100
AcDbLine
 10
47.975178
 20
-66.419875
 30
0.0
 11
51.190785
 21
-55.16425
 31
0.0
  0
LINE
  5
F5
100
AcDbEntity
  8
PV
  6
CONTINUOUS
 62
         3
100
AcDbLine
 10
24.0342135
 20
-60.16675
 30
0.0
 11
25.463928
 21
-55.16425
 31
0.0
  0
LINE
  5
F6
100
AcDbEntity
  8
PV
  6
PHANTOM
 62
         3
100
AcDbLine
 10
28.679535
 20
-66.419875
 30
0.0
 11
47.975178
 21
-66.419875
 31
0.0
  0
LINE
  5
F7
100
AcDbEntity
  8
PV
  6
PHANTOM
 62
         3
100
AcDbLine
 10
25.463928
 20
-55.16425
 30
0.0
 11
51.190785
 21
-55.16425
 31
0.0
  0
LINE
  5
F8
100
AcDbEntity
  8
PV
  6
CENTER
 62
         3
100
AcDbLine
 10
18.0312135
 20
-49.411375
 30
0.0
 11
18.0312135
 21
-57.415375
 31
0.0
  0
LINE
  5
F9
100
AcDbEntity
  8
PV
  6
CENTER
 62
         3
100
AcDbLine
 10
14.0292135
 20
-53.413375
 30
0.0
 11
22.0332135
 21
-53.413375
 31
0.0
  0
LINE
  5
FA
100
AcDbEntity
  8
PV
  6
CONTINUOUS
 62
         3
100
AcDbLine
 10
14.0292135
 20
-47.6605
 30
0.0
 11
22.0332135
 21
-47.6605
 31
0.0
  0
LINE
  5
FB
100
AcDbEntity
  8
PV
  6
CONTINUOUS
 62
         3
100
AcDbLine
 10
22.0332135
 20
-60.16675
 30
0.0
 11
22.0332135
 21
-47.6605
 31
0.0
  0
LINE
  5
FC
100
AcDbEntity
  8
PV
  6
CENTER
 62
         3
100
AcDbLine
 10
61.0527135
 20
-64.919125
 30
0.0
 11
61.0527135
 21
-72.923125
 31
0.0
  0
LINE
  5
FD
100
AcDbEntity
  8
PV
  6
CENTER
 62
         3
100
AcDbLine
 10
57.0507135
 20
-68.921125
 30
0.0
 11
65.0547135
 21
-68.921125
 31
0.0
  0
LINE
  5
FE
100
AcDbEntity
  8
PV
  6
CONTINUOUS
 62
         3
100
AcDbLine
 10
57.0507135
 20
-63.16825
 30
0.0
 11
65.0547135
 21
-63.16825
 31
0.0
  0
LINE
  5
FF
100
AcDbEntity
  8
PV
  6
CONTINUOUS
 62
         3
100
AcDbLine
 10
57.0507135
 20
-75.6745
 30
0.0
 11
57.0507135
 21
-63.16825
 31
0.0
  0
LINE
  5
100
100
AcDbEntity
  8
PV
  6
CONTINUOUS
 62
         3
100
AcDbLine
 10
57.0507135
 20
-99.6865
 30
0.0
 11
57.0507135
 21
-100.687
 31
0.0
  0
LINE
  5
101
100
AcDbEntity
  8
PV
  6
CONTINUOUS
 62
         3
100
AcDbLine
 10
65.0547135
 20
-99.6865
 30
0.0
 11
65.0547135
 21
-100.687
 31
0.0
  0
LINE
  5
102
100
AcDbEntity
  8
PV
  6
CONTINUOUS
 62
         3
100
AcDbLine
 10
65.0547135
 20
-74.674
 30
0.0
 11
65.0547135
 21
-75.6745
 31
0.0
  0
LINE
  5
103
100
AcDbEntity
  8
PV
  6
CONTINUOUS
 62
         3
100
AcDbLine
 10
21.0327135
 20
-115.19425
 30
0.0
 11
24.0342135
 21
-115.19425
 31
0.0
  0
LINE
  5
104
100
AcDbEntity
  8
PV
  6
CONTINUOUS
 62
         3
100
AcDbLine
 10
65.0547135
 20
-75.6745
 30
0.0
 11
65.0547135
 21
-63.16825
 31
0.0
  0
LINE
  5
105
100
AcDbEntity
  8
PV
  6
CONTINUOUS
 62
         3
100
AcDbLine
 10
14.0292135
 20
-60.16675
 30
0.0
 11
14.0292135
 21
-47.6605
 31
0.0
  0
LINE
  5
106
100
AcDbEntity
  8
PV
  6
CONTINUOUS
 62
         3
100
AcDbLine
 10
21.0327135
 20
-60.16675
 30
0.0
 11
24.0342135
 21
-60.16675
 31
0.0
  0
LINE
  5
107
100
AcDbEntity
  8
PV
  6
CONTINUOUS
 62
         3
100
AcDbLine
 10
28.679535
 20
-66.419875
 30
0.0
 11
25.463928
 21
-55.16425
 31
0.0
  0
LINE
  5
108
100
AcDbEntity
  8
PV
  6
CONTINUOUS
 62
         3
100
AcDbLine
 10
14.0292135
 20
-59.16625
 30
0.0
 11
22.0332135
 21
-59.16625
 31
0.0
  0
LINE
  5
109
100
AcDbEntity
  8
PV
  6
CONTINUOUS
 62
         3
100
AcDbLine
 10
57.0507135
 20
-100.687
 30
0.0
 11
65.0547135
 21
-100.687
 31
0.0
  0
LINE
  5
10A
100
AcDbEntity
  8
PV
  6
CONTINUOUS
 62
         3
100
AcDbLine
 10
57.0507135
 20
-74.674
 30
0.0
 11
65.0547135
 21
-74.674
 31
0.0
  0
LINE
  5
10B
100
AcDbEntity
  8
PV
  6
CONTINUOUS
 62
         3
100
AcDbLine
 10
57.0507135
 20
-99.6865
 30
0.0
 11
57.0507135
 21
-100.687
 31
0.0
  0
LINE
  5
10C
100
AcDbEntity
  8
PV
  6
CONTINUOUS
 62
         3
100
AcDbLine
 10
65.0547135
 20
-99.6865
 30
0.0
 11
65.0547135
 21
-100.687
 31
0.0
  0
LINE
  5
10D
100
AcDbEntity
  8
PV
  6
CONTINUOUS
 62
         3
100
AcDbLine
 10
65.0547135
 20
-74.674
 30
0.0
 11
65.0547135
 21
-75.6745
 31
0.0
  0
LINE
  5
10E
100
AcDbEntity
  8
PV
  6
CONTINUOUS
 62
         3
100
AcDbLine
 10
57.0507135
 20
-100.687
 30
0.0
 11
65.0547135
 21
-100.687
 31
0.0
  0
LINE
  5
10F
100
AcDbEntity
  8
PV
  6
CONTINUOUS
 62
         3
100
AcDbLine
 10
16.2403185
 20
-115.19425
 30
0.0
 11
23.0337135
 21
-115.19425
 31
0.0
  0
LINE
  5
110
100
AcDbEntity
  8
PV
  6
CONTINUOUS
 62
         3
100
AcDbLine
 10
23.0337135
 20
-115.19425
 30
0.0
 11
24.0342135
 21
-114.19375
 31
0.0
  0
LINE
  5
111
100
AcDbEntity
  8
PV
  6
CONTINUOUS
 62
         3
100
AcDbLine
 10
6.02521351
 20
-111.6925
 30
0.0
 11
6.02521351
 21
-115.19425
 31
0.0
  0
LINE
  5
112
100
AcDbEntity
  8
PV
  6
CONTINUOUS
 62
         3
100
AcDbLine
 10
20.0322135
 20
-111.6925
 30
0.0
 11
20.0322135
 21
-115.19425
 31
0.0
  0
LINE
  5
113
100
AcDbEntity
  8
PV
  6
CONTINUOUS
 62
         3
100
AcDbLine
 10
0.0222135112
 20
-114.19375
 30
0.0
 11
0.888646511
 21
-114.694
 31
0.0
  0
LINE
  5
114
100
AcDbEntity
  8
PV
  6
CONTINUOUS
 62
         3
100
AcDbLine
 10
-10.9832865
 20
-114.19375
 30
0.0
 11
-11.8497195
 21
-114.694
 31
0.0
  0
LINE
  5
115
100
AcDbEntity
  8
PV
  6
CONTINUOUS
 62
         3
100
AcDbLine
 10
0.888646511
 20
-114.694
 30
0.0
 11
2.02321351
 21
-114.694
 31
0.0
  0
LINE
  5
116
100
AcDbEntity
  8
PV
  6
CONTINUOUS
 62
         3
100
AcDbLine
 10
-10.9832865
 20
-114.19375
 30
0.0
 11
0.0222135112
 21
-114.19375
 31
0.0
  0
LINE
  5
117
100
AcDbEntity
  8
PV
  6
CONTINUOUS
 62
         3
100
AcDbLine
 10
-16.9862865
 20
-114.694
 30
0.0
 11
-11.8497195
 21
-114.694
 31
0.0
  0
LINE
  5
118
100
AcDbEntity
  8
PV
  6
CONTINUOUS
 62
         3
100
AcDbLine
 10
0.0222135112
 20
-61.16725
 30
0.0
 11
0.888646511
 21
-60.667
 31
0.0
  0
LINE
  5
119
100
AcDbEntity
  8
PV
  6
CONTINUOUS
 62
         3
100
AcDbLine
 10
-10.9832865
 20
-61.16725
 30
0.0
 11
-11.8497195
 21
-60.667
 31
0.0
  0
LINE
  5
11A
100
AcDbEntity
  8
PV
  6
CONTINUOUS
 62
         3
100
AcDbLine
 10
-10.9832865
 20
-61.16725
 30
0.0
 11
-10.9832865
 21
-114.19375
 31
0.0
  0
LINE
  5
11B
100
AcDbEntity
  8
PV
  6
CONTINUOUS
 62
         3
100
AcDbLine
 10
0.0222135112
 20
-61.16725
 30
0.0
 11
0.0222135112
 21
-114.19375
 31
0.0
  0
LINE
  5
11C
100
AcDbEntity
  8
PV
  6
CONTINUOUS
 62
         3
100
AcDbLine
 10
2.02321351
 20
-60.16675
 30
0.0
 11
2.02321351
 21
-115.19425
 31
0.0
  0
LINE
  5
11D
100
AcDbEntity
  8
PV
  6
CENTER
 62
         3
100
AcDbLine
 10
-23.9897865
 20
-82.678
 30
0.0
 11
-23.9897865
 21
-92.683
 31
0.0
  0
LINE
  5
11E
100
AcDbEntity
  8
PV
  6
CONTINUOUS
 62
         3
100
AcDbLine
 10
32.0382135
 20
-72.673
 30
0.0
 11
32.0382135
 21
-102.688
 31
0.0
  0
LINE
  5
11F
100
AcDbEntity
  8
PV
  6
CONTINUOUS
 62
         3
100
AcDbLine
 10
32.0382135
 20
-93.2833
 30
0.0
 11
57.0507135
 21
-93.2833
 31
0.0
  0
LINE
  5
120
100
AcDbEntity
  8
PV
  6
CONTINUOUS
 62
         3
100
AcDbLine
 10
32.0382135
 20
-82.0777
 30
0.0
 11
57.0507135
 21
-82.0777
 31
0.0
  0
LINE
  5
121
100
AcDbEntity
  8
PV
  6
CONTINUOUS
 62
         3
100
AcDbLine
 10
24.0342135
 20
-60.16675
 30
0.0
 11
24.0342135
 21
-115.19425
 31
0.0
  0
LINE
  5
122
100
AcDbEntity
  8
PV
  6
CONTINUOUS
 62
         3
100
AcDbLine
 10
7.52596351
 20
-113.39335
 30
0.0
 11
7.52596351
 21
-111.6925
 31
0.0
  0
LINE
  5
123
100
AcDbEntity
  8
PV
  6
CONTINUOUS
 62
         3
100
AcDbLine
 10
18.5314635
 20
-113.39335
 30
0.0
 11
18.5314635
 21
-111.6925
 31
0.0
  0
LINE
  5
124
100
AcDbEntity
  8
PV
  6
CONTINUOUS
 62
         3
100
AcDbLine
 10
7.52596351
 20
-113.39335
 30
0.0
 11
18.5314635
 21
-113.39335
 31
0.0
  0
LINE
  5
125
100
AcDbEntity
  8
PV
  6
CENTER
 62
         3
100
AcDbLine
 10
4.02421351
 20
-57.527431
 30
0.0
 11
4.02421351
 21
-61.639486
 31
0.0
  0
LINE
  5
126
100
AcDbEntity
  8
PV
  6
CONTINUOUS
 62
         3
100
AcDbLine
 10
20.0322135
 20
-115.19425
 30
0.0
 11
24.0342135
 21
-115.19425
 31
0.0
  0
LINE
  5
127
100
AcDbEntity
  8
PV
  6
CENTER
 62
         3
100
AcDbLine
 10
13.0287135
 20
-109.053181
 30
0.0
 11
13.0287135
 21
-117.904605
 31
0.0
  0
LINE
  5
128
100
AcDbEntity
  8
PV
  6
CONTINUOUS
 62
         3
100
AcDbLine
 10
6.02521351
 20
-111.6925
 30
0.0
 11
20.0322135
 21
-111.6925
 31
0.0
  0
LINE
  5
129
100
AcDbEntity
  8
PV
  6
CONTINUOUS
 62
         3
100
AcDbLine
 10
65.549961
 20
-75.6745
 30
0.0
 11
65.549961
 21
-99.6865
 31
0.0
  0
LINE
  5
12A
100
AcDbEntity
  8
PV
  6
CONTINUOUS
 62
         3
100
AcDbLine
 10
0.888646511
 20
-60.667
 30
0.0
 11
2.02321351
 21
-60.667
 31
0.0
  0
LINE
  5
12B
100
AcDbEntity
  8
PV
  6
CONTINUOUS
 62
         3
100
AcDbLine
 10
-10.9832865
 20
-61.16725
 30
0.0
 11
0.0222135112
 21
-61.16725
 31
0.0
  0
LINE
  5
12C
100
AcDbEntity
  8
PV
  6
CONTINUOUS
 62
         3
100
AcDbLine
 10
-30.9932865
 20
-60.416875
 30
0.0
 11
-16.9862865
 21
-60.416875
 31
0.0
  0
LINE
  5
12D
100
AcDbEntity
  8
PV
  6
CONTINUOUS
 62
         3
100
AcDbLine
 10
-30.9932865
 20
-114.944125
 30
0.0
 11
-16.9862865
 21
-114.944125
 31
0.0
  0
LINE
  5
12E
100
AcDbEntity
  8
PV
  6
CONTINUOUS
 62
         3
100
AcDbLine
 10
-16.9862865
 20
-60.667
 30
0.0
 11
-11.8497195
 21
-60.667
 31
0.0
  0
LINE
  5
12F
100
AcDbEntity
  8
PV
  6
CONTINUOUS
 62
         3
100
AcDbLine
 10
-30.9932865
 20
-60.416875
 30
0.0
 11
-30.9932865
 21
-114.944125
 31
0.0
  0
LINE
  5
130
100
AcDbEntity
  8
PV
  6
CONTINUOUS
 62
         3
100
AcDbLine
 10
-16.9862865
 20
-60.416875
 30
0.0
 11
-16.9862865
 21
-114.944125
 31
0.0
  0
LINE
  5
131
100
AcDbEntity
  8
PV
  6
CONTINUOUS
 62
         3
100
AcDbLine
 10
-61.0082865
 20
-114.694
 30
0.0
 11
-30.9932865
 21
-114.694
 31
0.0
  0
LINE
  5
132
100
AcDbEntity
  8
PV
  6
CONTINUOUS
 62
         3
100
AcDbLine
 10
-61.0082865
 20
-60.667
 30
0.0
 11
-30.9932865
 21
-60.667
 31
0.0
  0
LINE
  5
133
100
AcDbEntity
  8
PV
  6
CONTINUOUS
 62
         3
100
AcDbLine
 10
2.02321351
 20
-60.16675
 30
0.0
 11
24.0342135
 21
-60.16675
 31
0.0
  0
LINE
  5
134
100
AcDbEntity
  8
PV
  6
CONTINUOUS
 62
         3
100
AcDbLine
 10
2.02321351
 20
-115.19425
 30
0.0
 11
6.02521351
 21
-115.19425
 31
0.0
  0
LINE
  5
135
100
AcDbEntity
  8
PV
  6
CONTINUOUS
 62
         3
100
AcDbLine
 10
24.0342135
 20
-102.688
 30
0.0
 11
32.0382135
 21
-102.688
 31
0.0
  0
LINE
  5
136
100
AcDbEntity
  8
PV
  6
CONTINUOUS
 62
         3
100
AcDbLine
 10
24.0342135
 20
-72.673
 30
0.0
 11
32.0382135
 21
-72.673
 31
0.0
  0
LINE
  5
137
100
AcDbEntity
  8
PV
  6
CONTINUOUS
 62
         3
100
AcDbLine
 10
57.0507135
 20
-75.6745
 30
0.0
 11
65.549961
 21
-75.6745
 31
0.0
  0
LINE
  5
138
100
AcDbEntity
  8
PV
  6
CONTINUOUS
 62
         3
100
AcDbLine
 10
57.0507135
 20
-99.6865
 30
0.0
 11
65.549961
 21
-99.6865
 31
0.0
  0
LINE
  5
139
100
AcDbEntity
  8
PV
  6
CONTINUOUS
 62
         3
100
AcDbLine
 10
57.0507135
 20
-75.6745
 30
0.0
 11
57.0507135
 21
-99.6865
 31
0.0
  0
LINE
  5
13A
100
AcDbEntity
  8
PV
  6
CONTINUOUS
 62
         3
100
AcDbLine
 10
-61.0082865
 20
-60.16675
 30
0.0
 11
-61.0082865
 21
-115.19425
 31
0.0
  0
LINE
  5
13B
100
AcDbEntity
  8
PV
  6
CONTINUOUS
 62
         3
100
AcDbLine
 10
-80.0177865
 20
-115.19425
 30
0.0
 11
-61.0082865
 21
-115.19425
 31
0.0
  0
LINE
  5
13C
100
AcDbEntity
  8
PV
  6
CONTINUOUS
 62
         3
100
AcDbLine
 10
-80.0177865
 20
-60.16675
 30
0.0
 11
-61.0082865
 21
-60.16675
 31
0.0
  0
LINE
  5
13D
100
AcDbEntity
  8
PV
  6
CONTINUOUS
 62
         3
100
AcDbLine
 10
-80.0177865
 20
-60.16675
 30
0.0
 11
-80.0177865
 21
-115.19425
 31
0.0
  0
LINE
  5
13E
100
AcDbEntity
  8
PV
  6
CENTER
 62
         3
100
AcDbLine
 10
-83.440497
 20
-87.6805
 30
0.0
 11
70.0472085
 21
-87.6805
 31
0.0
  0
MTEXT
  5
13F
100
AcDbEntity
  8
PV
  6
CONTINUOUS
 62
       110
100
AcDbMText
 10
77.5816662799
 20
12.0
 30
0.0
 40
4.0
 41
0.0
 71
         1
 72
         1
  1
\W1.500;\A1;1.3
  0
MTEXT
  5
140
100
AcDbEntity
  8
PV
  6
CONTINUOUS
 62
       110
100
AcDbMText
 10
65.4388092042
 20
22.0
 30
0.0
 40
4.0
 41
0.0
 71
         1
 72
         1
  1
\W1.286;\A1;85.3\{8.7\}
  0
MTEXT
  5
141
100
AcDbEntity
  8
PV
  6
CONTINUOUS
 62
       110
100
AcDbMText
 10
65.4388092042
 20
32.0
 30
0.0
 40
4.0
 41
0.0
 71
         1
 72
         1
  1
\W1.286;\A1;42.2\{4.3\}
  0
MTEXT
  5
142
100
AcDbEntity
  8
PV
  6
CONTINUOUS
 62
       110
100
AcDbMText
 10
65.3476238412
 20
42.0
 30
0.0
 40
4.0
 41
0.0
 71
         1
 72
         1
  1
\W1.149;\A1;3920\{400\}
  0
MTEXT
  5
143
100
AcDbEntity
  8
PV
  6
CONTINUOUS
 62
       110
100
AcDbMText
 10
79.2483333787
 20
52.0
 30
0.0
 40
4.0
 41
0.0
 71
         1
 72
         1
  1
\A1;25
  0
MTEXT
  5
144
100
AcDbEntity
  8
PV
  6
CONTINUOUS
 62
       110
100
AcDbMText
 10
65.3998481844
 20
62.0
 30
0.0
 40
4.0
 41
0.0
 71
         1
 72
         1
  1
\W1.227;\A1;1470\{150\}
  0
MTEXT
  5
145
100
AcDbEntity
  8
PV
  6
CONTINUOUS
 62
       110
100
AcDbMText
 10
79.2483333787
 20
72.0
 30
0.0
 40
4.0
 41
0.0
 71
         1
 72
         1
  1
\A1;25
  0
MTEXT
  5
146
100
AcDbEntity
  8
PV
  6
CONTINUOUS
 62
       110
100
AcDbMText
 10
73.2483330784
 20
82.0
 30
0.0
 40
4.0
 41
0.0
 71
         1
 72
         1
  1
\W0.833;\A1;０～０．５
  0
MTEXT
  5
147
100
AcDbEntity
  8
PV
  6
CONTINUOUS
 62
       110
100
AcDbMText
 10
71.4092525668
 20
92.0
 30
0.0
 40
4.0
 41
0.0
 71
         1
 72
         1
  1
\W1.241;\A1;98\{10\}
  0
MTEXT
  5
148
100
AcDbEntity
  8
PV
  6
CONTINUOUS
 62
       110
100
AcDbMText
 10
69.2483330784
 20
102.0
 30
0.0
 40
4.0
 41
0.0
 71
         1
 72
         1
  1
\W0.833;\A1;６０～６０００
  0
MTEXT
  5
149
100
AcDbEntity
  8
PV
  6
CONTINUOUS
 62
       110
100
AcDbMText
 10
57.2749997594
 20
112.0
 30
0.0
 40
4.0
 41
0.0
 71
         1
 72
         1
  1
\W1.040;\A1;DP002A025J-TE
  0
MTEXT
  5
14A
100
AcDbEntity
  8
PV
  6
CONTINUOUS
 62
       110
100
AcDbMText
 10
2.5816662799
 20
12.0
 30
0.0
 40
4.0
 41
0.0
 71
         1
 72
         1
  1
\W1.500;\A1;1.3
  0
MTEXT
  5
14B
100
AcDbEntity
  8
PV
  6
CONTINUOUS
 62
       110
100
AcDbMText
 10
-9.5611907658
 20
22.0
 30
0.0
 40
4.0
 41
0.0
 71
         1
 72
         1
  1
\W1.286;\A1;85.3\{8.7\}
  0
MTEXT
  5
14C
100
AcDbEntity
  8
PV
  6
CONTINUOUS
 62
       110
100
AcDbMText
 10
-9.5611907658
 20
32.0
 30
0.0
 40
4.0
 41
0.0
 71
         1
 72
         1
  1
\W1.286;\A1;42.2\{4.3\}
  0
MTEXT
  5
14D
100
AcDbEntity
  8
PV
  6
CONTINUOUS
 62
       110
100
AcDbMText
 10
-9.6523761288
 20
42.0
 30
0.0
 40
4.0
 41
0.0
 71
         1
 72
         1
  1
\W1.149;\A1;3920\{400\}
  0
MTEXT
  5
14E
100
AcDbEntity
  8
PV
  6
CONTINUOUS
 62
       110
100
AcDbMText
 10
4.2483333887
 20
52.0
 30
0.0
 40
4.0
 41
0.0
 71
         1
 72
         1
  1
\A1;25
  0
MTEXT
  5
14F
100
AcDbEntity
  8
PV
  6
CONTINUOUS
 62
       110
100
AcDbMText
 10
-9.6001517856
 20
62.0
 30
0.0
 40
4.0
 41
0.0
 71
         1
 72
         1
  1
\W1.227;\A1;1470\{150\}
  0
MTEXT
  5
150
100
AcDbEntity
  8
PV
  6
CONTINUOUS
 62
       110
100
AcDbMText
 10
4.2483333887
 20
72.0
 30
0.0
 40
4.0
 41
0.0
 71
         1
 72
         1
  1
\A1;25
  0
MTEXT
  5
151
100
AcDbEntity
  8
PV
  6
CONTINUOUS
 62
       110
100
AcDbMText
 10
-5.7516669116
 20
82.0
 30
0.0
 40
4.0
 41
0.0
 71
         1
 72
         1
  1
\W0.833;\A1;０．１～２．５
  0
MTEXT
  5
152
100
AcDbEntity
  8
PV
  6
CONTINUOUS
 62
       110
100
AcDbMText
 10
-3.5907474232
 20
92.0
 30
0.0
 40
4.0
 41
0.0
 71
         1
 72
         1
  1
\W1.241;\A1;98\{10\}
  0
MTEXT
  5
153
100
AcDbEntity
  8
PV
  6
CONTINUOUS
 62
       110
100
AcDbMText
 10
-5.7516669116
 20
102.0
 30
0.0
 40
4.0
 41
0.0
 71
         1
 72
         1
  1
\W0.833;\A1;２０～２０００
  0
MTEXT
  5
154
100
AcDbEntity
  8
PV
  6
CONTINUOUS
 62
       110
100
AcDbMText
 10
-11.7165791904
 20
112.0
 30
0.0
 40
4.0
 41
0.0
 71
         1
 72
         1
  1
\W1.053;\A1;DP002A025J
  0
MTEXT
  5
155
100
AcDbEntity
  8
PV
  6
CONTINUOUS
 62
       110
100
AcDbMText
 10
-84.2666669216
 20
22.0
 30
0.0
 40
4.0
 41
0.0
 71
         1
 72
         1
  1
\W0.833;\A1;ロッド収縮時
  0
MTEXT
  5
156
100
AcDbEntity
  8
PV
  6
CONTINUOUS
 62
       110
100
AcDbMText
 10
-84.2666669216
 20
32.0
 30
0.0
 40
4.0
 41
0.0
 71
         1
 72
         1
  1
\W0.833;\A1;ロッド伸張時
  0
MTEXT
  5
157
100
AcDbEntity
  8
PV
  6
CONTINUOUS
 62
       110
100
AcDbMText
 10
-55.1833336065
 20
22.0
 30
0.0
 40
4.0
 41
0.0
 71
         1
 72
         1
  1
\W1.125;\A1;N\{kgf\}
  0
MTEXT
  5
158
100
AcDbEntity
  8
PV
  6
CONTINUOUS
 62
       110
100
AcDbMText
 10
-59.1964914948
 20
12.0
 30
0.0
 40
4.0
 41
0.0
 71
         1
 72
         1
  1
\W1.105;\A1;kg\{kgf\}
  0
MTEXT
  5
159
100
AcDbEntity
  8
PV
  6
CONTINUOUS
 62
       110
100
AcDbMText
 10
-117.2666670216
 20
12.0
 30
0.0
 40
4.0
 41
0.0
 71
         1
 72
         1
  1
\W0.833;\A1;製品質量｛重量｝
  0
MTEXT
  5
15A
100
AcDbEntity
  8
PV
  6
CONTINUOUS
 62
       110
100
AcDbMText
 10
-55.1833336065
 20
32.0
 30
0.0
 40
4.0
 41
0.0
 71
         1
 72
         1
  1
\W1.125;\A1;N\{kgf\}
  0
MTEXT
  5
15B
100
AcDbEntity
  8
PV
  6
CONTINUOUS
 62
       110
100
AcDbMText
 10
-55.1833336065
 20
42.0
 30
0.0
 40
4.0
 41
0.0
 71
         1
 72
         1
  1
\W1.125;\A1;N\{kgf\}
  0
MTEXT
  5
15C
100
AcDbEntity
  8
PV
  6
CONTINUOUS
 62
       110
100
AcDbMText
 10
-35.5666667667
 20
52.5
 30
0.0
 40
2.0
 41
0.0
 71
         1
 72
         1
  1
\W1.200;\A1;-1
  0
MTEXT
  5
15D
100
AcDbEntity
  8
PV
  6
CONTINUOUS
 62
       110
100
AcDbMText
 10
-46.8044272242
 20
52.0
 30
0.0
 40
4.0
 41
0.0
 71
         1
 72
         1
  1
\T1.134;\W1.334;\A1;min
  0
MTEXT
  5
15E
100
AcDbEntity
  8
PV
  6
CONTINUOUS
 62
       110
100
AcDbMText
 10
-67.1022222501
 20
59.2000001502
 30
0.0
 40
3.2000000477
 41
0.0
 71
         1
 72
         1
  1
\W0.787;\A1;｛ｋｇｆ・ｍ／　ｍｉｎ｝
  0
MTEXT
  5
15F
100
AcDbEntity
  8
PV
  6
CONTINUOUS
 62
       110
100
AcDbMText
 10
-66.445825428
 20
64.0000001502
 30
0.0
 40
3.2000000477
 41
0.0
 71
         1
 72
         1
  1
\T1.186;\W1.723;\A1;      J/ min
  0
MTEXT
  5
160
100
AcDbEntity
  8
PV
  6
CONTINUOUS
 62
       110
100
AcDbMText
 10
-39.2666666213
 20
72.0
 30
0.0
 40
4.0
 41
0.0
 71
         1
 72
         1
  1
\A1;mm
  0
MTEXT
  5
161
100
AcDbEntity
  8
PV
  6
CONTINUOUS
 62
       110
100
AcDbMText
 10
-43.5273783729
 20
82.0
 30
0.0
 40
4.0
 41
0.0
 71
         1
 72
         1
  1
\W1.089;\A1;m/ s
  0
MTEXT
  5
162
100
AcDbEntity
  8
PV
  6
CONTINUOUS
 62
       110
100
AcDbMText
 10
-63.2666669216
 20
92.0
 30
0.0
 40
4.0
 41
0.0
 71
         1
 72
         1
  1
\W0.833;\A1;Ｊ｛ｋｇｆ・ｍ｝
  0
MTEXT
  5
163
100
AcDbEntity
  8
PV
  6
CONTINUOUS
 62
       110
100
AcDbMText
 10
-59.1964914948
 20
102.0
 30
0.0
 40
4.0
 41
0.0
 71
         1
 72
         1
  1
\W1.105;\A1;kg\{kgf\}
  0
MTEXT
  5
164
100
AcDbEntity
  8
PV
  6
CONTINUOUS
 62
       110
100
AcDbMText
 10
-117.2666670216
 20
27.0
 30
0.0
 40
4.0
 41
0.0
 71
         1
 72
         1
  1
\W0.833;\A1;復帰バネ設定力
  0
MTEXT
  5
165
100
AcDbEntity
  8
PV
  6
CONTINUOUS
 62
       110
100
AcDbMText
 10
-117.2666670216
 20
42.0
 30
0.0
 40
4.0
 41
0.0
 71
         1
 72
         1
  1
\W0.833;\A1;許容抵抗力
  0
MTEXT
  5
166
100
AcDbEntity
  8
PV
  6
CONTINUOUS
 62
       110
100
AcDbMText
 10
-117.2666670216
 20
52.0
 30
0.0
 40
4.0
 41
0.0
 71
         1
 72
         1
  1
\W0.833;\A1;毎分当りの最高使用頻度
  0
MTEXT
  5
167
100
AcDbEntity
  8
PV
  6
CONTINUOUS
 62
       110
100
AcDbMText
 10
-117.0133330512
 20
59.2000001502
 30
0.0
 40
3.2000000477
 41
0.0
 71
         1
 72
         1
  1
\W0.833;\A1;吸収エネルギ－の最大値
  0
MTEXT
  5
168
100
AcDbEntity
  8
PV
  6
CONTINUOUS
 62
       110
100
AcDbMText
 10
-117.0133330512
 20
64.0000001502
 30
0.0
 40
3.2000000477
 41
0.0
 71
         1
 72
         1
  1
\W0.833;\A1;毎分当りの
  0
MTEXT
  5
169
100
AcDbEntity
  8
PV
  6
CONTINUOUS
 62
       110
100
AcDbMText
 10
-117.2666670216
 20
72.0
 30
0.0
 40
4.0
 41
0.0
 71
         1
 72
         1
  1
\W0.833;\A1;吸収ストロ－ク
  0
MTEXT
  5
16A
100
AcDbEntity
  8
PV
  6
CONTINUOUS
 62
       110
100
AcDbMText
 10
-117.2666670216
 20
82.0
 30
0.0
 40
4.0
 41
0.0
 71
         1
 72
         1
  1
\W0.833;\A1;許容衝突速度
  0
MTEXT
  5
16B
100
AcDbEntity
  8
PV
  6
CONTINUOUS
 62
       110
100
AcDbMText
 10
-117.2666670216
 20
92.0
 30
0.0
 40
4.0
 41
0.0
 71
         1
 72
         1
  1
\W0.833;\A1;吸収エネルギ－の最大値
  0
MTEXT
  5
16C
100
AcDbEntity
  8
PV
  6
CONTINUOUS
 62
       110
100
AcDbMText
 10
-117.2666670216
 20
102.0
 30
0.0
 40
4.0
 41
0.0
 71
         1
 72
         1
  1
\W0.833;\A1;衝突物の許容相当質量｛重量｝
  0
MTEXT
  5
16D
100
AcDbEntity
  8
PV
  6
CONTINUOUS
 62
       110
100
AcDbMText
 10
-117.2666670216
 20
112.0
 30
0.0
 40
4.0
 41
0.0
 71
         1
 72
         1
  1
\W0.833;\A1;形番
  0
LINE
  5
16E
100
AcDbEntity
  8
PV
  6
CONTINUOUS
 62
         3
100
AcDbLine
 10
45.0
 20
115.0
 30
0.0
 11
45.0
 21
5.0
 31
0.0
  0
LINE
  5
16F
100
AcDbEntity
  8
PV
  6
CONTINUOUS
 62
         3
100
AcDbLine
 10
120.0
 20
115.0
 30
0.0
 11
120.0
 21
5.0
 31
0.0
  0
LINE
  5
170
100
AcDbEntity
  8
PV
  6
CONTINUOUS
 62
         3
100
AcDbLine
 10
-87.0
 20
35.0
 30
0.0
 11
-87.0
 21
15.0
 31
0.0
  0
LINE
  5
171
100
AcDbEntity
  8
PV
  6
CONTINUOUS
 62
         3
100
AcDbLine
 10
-120.0
 20
115.0
 30
0.0
 11
120.0
 21
115.0
 31
0.0
  0
LINE
  5
172
100
AcDbEntity
  8
PV
  6
CONTINUOUS
 62
         3
100
AcDbLine
 10
-120.0
 20
105.0
 30
0.0
 11
120.0
 21
105.0
 31
0.0
  0
LINE
  5
173
100
AcDbEntity
  8
PV
  6
CONTINUOUS
 62
         3
100
AcDbLine
 10
-120.0
 20
95.0
 30
0.0
 11
120.0
 21
95.0
 31
0.0
  0
LINE
  5
174
100
AcDbEntity
  8
PV
  6
CONTINUOUS
 62
         3
100
AcDbLine
 10
-120.0
 20
85.0
 30
0.0
 11
120.0
 21
85.0
 31
0.0
  0
LINE
  5
175
100
AcDbEntity
  8
PV
  6
CONTINUOUS
 62
         3
100
AcDbLine
 10
-120.0
 20
75.0
 30
0.0
 11
120.0
 21
75.0
 31
0.0
  0
LINE
  5
176
100
AcDbEntity
  8
PV
  6
CONTINUOUS
 62
         3
100
AcDbLine
 10
-120.0
 20
65.0
 30
0.0
 11
120.0
 21
65.0
 31
0.0
  0
LINE
  5
177
100
AcDbEntity
  8
PV
  6
CONTINUOUS
 62
         3
100
AcDbLine
 10
-120.0
 20
55.0
 30
0.0
 11
120.0
 21
55.0
 31
0.0
  0
LINE
  5
178
100
AcDbEntity
  8
PV
  6
CONTINUOUS
 62
         3
100
AcDbLine
 10
-120.0
 20
45.0
 30
0.0
 11
120.0
 21
45.0
 31
0.0
  0
LINE
  5
179
100
AcDbEntity
  8
PV
  6
CONTINUOUS
 62
         3
100
AcDbLine
 10
-120.0
 20
35.0
 30
0.0
 11
120.0
 21
35.0
 31
0.0
  0
LINE
  5
17A
100
AcDbEntity
  8
PV
  6
CONTINUOUS
 62
         3
100
AcDbLine
 10
-87.0
 20
25.0
 30
0.0
 11
120.0
 21
25.0
 31
0.0
  0
LINE
  5
17B
100
AcDbEntity
  8
PV
  6
CONTINUOUS
 62
         3
100
AcDbLine
 10
-120.0
 20
15.0
 30
0.0
 11
120.0
 21
15.0
 31
0.0
  0
LINE
  5
17C
100
AcDbEntity
  8
PV
  6
CONTINUOUS
 62
         3
100
AcDbLine
 10
-30.0
 20
115.0
 30
0.0
 11
-30.0
 21
5.0
 31
0.0
  0
LINE
  5
17D
100
AcDbEntity
  8
PV
  6
CONTINUOUS
 62
         3
100
AcDbLine
 10
-120.0
 20
115.0
 30
0.0
 11
-120.0
 21
5.0
 31
0.0
  0
LINE
  5
17E
100
AcDbEntity
  8
PV
  6
CONTINUOUS
 62
         3
100
AcDbLine
 10
-120.0
 20
5.0
 30
0.0
 11
120.0
 21
5.0
 31
0.0
  0
DIMENSION
  5
18E
100
AcDbEntity
  8
PV
  6
CONTINUOUS
 62
       110
100
AcDbDimension
  2
*D2
 10
-94.940507
 20
-60.16675
 30
0.0
 11
-94.940507
 21
-87.3805006866
 31
0.0
 70
       128
  1
\A1;\U+2205<>
  3
MXDIMSTYLE
100
AcDbAlignedDimension
 13
-80.0177860909
 23
-115.19425
 33
0.0
 14
-80.0177860909
 24
-60.16675
 34
0.0
 50
90.0
100
AcDbRotatedDimension
1001
ACAD
1000
DSTYLE
1002
{
1070
         6
1000
SOLID
1070
         7
1000
SOLID
1070
        41
1040
1.0000000298
1070
        42
1040
0.0625
1070
       271
1070
         4
1070
       284
1070
         8
1070
       340
1005
188
1070
       343
1005
0
1070
       344
1005
0
1002
}
  0
DIMENSION
  5
19D
100
AcDbEntity
  8
PV
  6
CONTINUOUS
 62
       110
100
AcDbDimension
  2
*D3
 10
24.0342135
 20
-43.4704366
 30
0.0
 11
0.3222118673
 21
-43.4704366
 31
0.0
 70
       128
  1
\A1;<>
  3
MXDIMSTYLE
100
AcDbAlignedDimension
 13
-23.9897865
 23
-82.6780019076
 33
0.0
 14
24.0342135
 24
-60.166750458
 34
0.0
100
AcDbRotatedDimension
1001
ACAD
1000
DSTYLE
1002
{
1070
         6
1000
SOLID
1070
         7
1000
SOLID
1070
        41
1040
1.0000000298
1070
        42
1040
0.0625
1070
       271
1070
         4
1070
       284
1070
         8
1070
       343
1005
0
1070
       344
1005
0
1002
}
  0
DIMENSION
  5
1AC
100
AcDbEntity
  8
PV
  6
CONTINUOUS
 62
       110
100
AcDbDimension
  2
*D4
 10
68.0562135
 20
-32.9777111
 30
0.0
 11
46.3452124166
 21
-32.9777111
 31
0.0
 70
       128
  1
\A1;<>
  3
MXDIMSTYLE
100
AcDbAlignedDimension
 13
24.0342135
 23
-60.1667503303
 33
0.0
 14
68.0562135
 24
-87.6805004066
 34
0.0
100
AcDbRotatedDimension
1001
ACAD
1000
DSTYLE
1002
{
1070
         6
1000
SOLID
1070
         7
1000
SOLID
1070
        41
1040
1.0000000298
1070
        42
1040
0.0625
1070
       271
1070
         4
1070
       284
1070
         8
1070
       343
1005
0
1070
       344
1005
0
1002
}
  0
DIMENSION
  5
1BB
100
AcDbEntity
  8
PV
  6
CONTINUOUS
 62
       110
100
AcDbDimension
  2
*D5
 10
85.684268
 20
-99.6865
 30
0.0
 11
85.684268
 21
-87.3804993744
 31
0.0
 70
       128
  1
\A1;\U+2205<>
  3
MXDIMSTYLE
100
AcDbAlignedDimension
 13
65.5499601387
 23
-75.6745
 33
0.0
 14
65.5499601387
 24
-99.6865
 34
0.0
 50
90.0
100
AcDbRotatedDimension
1001
ACAD
1000
DSTYLE
1002
{
1070
         6
1000
SOLID
1070
         7
1000
SOLID
1070
        41
1040
1.0000000298
1070
        42
1040
0.0625
1070
       271
1070
         4
1070
       284
1070
         8
1070
       340
1005
188
1070
       343
1005
0
1070
       344
1005
0
1002
}
  0
DIMENSION
  5
1CA
100
AcDbEntity
  8
PV
  6
CONTINUOUS
 62
       110
100
AcDbDimension
  2
*D6
 10
95.4275131
 20
-120.19675
 30
0.0
 11
95.4275131
 21
-87.3805013733
 31
0.0
 70
       128
  1
\A1;\U+2205<>
  3
MXDIMSTYLE
100
AcDbAlignedDimension
 13
51.1907844318
 23
-55.16425
 33
0.0
 14
51.1907844318
 24
-120.19675
 34
0.0
 50
90.0
100
AcDbRotatedDimension
1001
ACAD
1000
DSTYLE
1002
{
1070
         6
1000
SOLID
1070
         7
1000
SOLID
1070
        41
1040
1.0000000298
1070
        42
1040
0.0625
1070
       271
1070
         4
1070
       284
1070
         8
1070
       340
1005
188
1070
       343
1005
0
1070
       344
1005
0
1002
}
  0
DIMENSION
  5
1DA
100
AcDbEntity
  8
PV
  6
CONTINUOUS
 62
       110
100
AcDbDimension
  2
*D7
 10
24.0342135
 20
-32.9777111
 30
0.0
 11
-27.6917862864
 21
-32.9777111
 31
0.0
 70
       128
  1
\A1;<>
  3
MXDIMSTYLE
100
AcDbAlignedDimension
 13
-80.0177865
 23
-60.1667503303
 33
0.0
 14
24.0342135
 24
-60.1667503303
 34
0.0
100
AcDbRotatedDimension
1001
ACAD
1000
DSTYLE
1002
{
1070
         6
1000
SOLID
1070
         7
1000
SOLID
1070
        41
1040
1.0000000298
1070
        42
1040
0.0625
1070
       271
1070
         4
1070
       284
1070
         8
1070
       340
1005
1D4
1070
       343
1005
0
1070
       344
1005
0
1002
}
  0
DIMENSION
  5
1EA
100
AcDbEntity
  8
PV
  6
CONTINUOUS
 62
       110
100
AcDbDimension
  2
*D8
 10
167.493464
 20
-104.553089
 30
0.0
 11
222.8209630845
 21
-104.553089
 31
0.0
 70
       128
  1
\A1;<>
  3
MXDIMSTYLE
100
AcDbAlignedDimension
 13
277.548464
 23
-90.6820000184
 33
0.0
 14
167.493464
 24
-90.6820000184
 34
0.0
100
AcDbRotatedDimension
1001
ACAD
1000
DSTYLE
1002
{
1070
         6
1000
SOLID
1070
         7
1000
SOLID
1070
        41
1040
1.0000000298
1070
        42
1040
0.0625
1070
       271
1070
         4
1070
       284
1070
         8
1070
       340
1005
1E4
1070
       343
1005
0
1070
       344
1005
0
1002
}
  0
DIMENSION
  5
1FA
100
AcDbEntity
  8
PV
  6
CONTINUOUS
 62
       110
100
AcDbDimension
  2
*D9
 10
144.982214
 20
-123.477469
 30
0.0
 11
211.5653402207
 21
-123.477469
 31
0.0
 70
       128
  1
\A1;<>
  3
MXDIMSTYLE
100
AcDbAlignedDimension
 13
277.548464
 23
-90.6820016233
 33
0.0
 14
144.982214
 24
-123.477469
 34
0.0
100
AcDbRotatedDimension
1001
ACAD
1000
DSTYLE
1002
{
1070
         6
1000
SOLID
1070
         7
1000
SOLID
1070
        41
1040
1.0000000298
1070
        42
1040
0.0625
1070
        44
1040
1.34
1070
       271
1070
         4
1070
       284
1070
         8
1070
       340
1005
1F4
1070
       343
1005
0
1070
       344
1005
0
1002
}
  0
DIMENSION
  5
208
100
AcDbEntity
  8
PV
  6
CONTINUOUS
 62
       110
100
AcDbDimension
  2
*D10
 10
294.133503
 20
-90.682
 30
0.0
 11
294.133503
 21
-78.9581256905
 31
0.0
 70
       128
  1
\A1;\U+2205<>
  3
MXDIMSTYLE
100
AcDbAlignedDimension
 13
277.5484638612
 23
-84.679
 33
0.0
 14
277.5484638612
 24
-90.682
 34
0.0
 50
90.0
100
AcDbRotatedDimension
1001
ACAD
1000
DSTYLE
1002
{
1070
         6
1000
SOLID
1070
         7
1000
SOLID
1070
        41
1040
1.0000000298
1070
        42
1040
0.0625
1070
       271
1070
         4
1070
       284
1070
         8
1070
       340
1005
188
1070
       343
1005
0
1070
       344
1005
0
1002
}
  0
ENDSEC
  0
SECTION
  2
OBJECTS
  0
DICTIONARY
  5
19
100
AcDbDictionary
  3
ACAD_GROUP
350
1A
  3
ACAD_MLINESTYLE
350
1B
  0
DICTIONARY
  5
1A
102
{ACAD_REACTORS
330
19
102
}
100
AcDbDictionary
  0
DICTIONARY
  5
1B
102
{ACAD_REACTORS
330
19
102
}
100
AcDbDictionary
  3
STANDARD
350
1C
  0
MLINESTYLE
  5
1C
102
{ACAD_REACTORS
330
1B
102
}
100
AcDbMlineStyle
  2
Standard
 70
         0
  3

 62
         0
 51
90.0
 52
90.0
 71
         2
 49
0.5
 62
       256
  6
ByLayer
 49
-0.5
 62
       256
  6
ByLayer
  0
ENDSEC
  0
EOF
