  0
SECTION
  2
HEADER
  9
$ACADVER
  1
AC1015
  9
$ACADMAINTVER
 70
    20
  9
$DWGCODEPAGE
  3
ANSI_932
  9
$INSBASE
 10
0.0
 20
0.0
 30
0.0
  9
$EXTMIN
 10
707.9061365269917
 20
-143.1167040422634
 30
-0.0000000000112498
  9
$EXTMAX
 10
1640.665965746134
 20
-88.11302978475589
 30
0.0000000000002956
  9
$LIMMIN
 10
0.0
 20
0.0
  9
$LIMMAX
 10
420.0
 20
297.0
  9
$ORTHOMODE
 70
     0
  9
$REGENMODE
 70
     1
  9
$FILLMODE
 70
     1
  9
$QTEXTMODE
 70
     0
  9
$MIRRTEXT
 70
     0
  9
$LTSCALE
 40
1.0
  9
$ATTMODE
 70
     1
  9
$TEXTSIZE
 40
3.5
  9
$TRACEWID
 40
1.0
  9
$TEXTSTYLE
  7
BIGFONT
  9
$CLAYER
  8
1
  9
$CELTYPE
  6
BYLAYER
  9
$CECOLOR
 62
     7
  9
$CELTSCALE
 40
1.0
  9
$DISPSILH
 70
     0
  9
$DIMSCALE
 40
1.0
  9
$DIMASZ
 40
2.5
  9
$DIMEXO
 40
0.0625
  9
$DIMDLI
 40
0.38
  9
$DIMRND
 40
0.0
  9
$DIMDLE
 40
0.0
  9
$DIMEXE
 40
0.18
  9
$DIMTP
 40
0.0
  9
$DIMTM
 40
0.0
  9
$DIMTXT
 40
3.0
  9
$DIMCEN
 40
-1.0
  9
$DIMTSZ
 40
0.0
  9
$DIMTOL
 70
     0
  9
$DIMLIM
 70
     0
  9
$DIMTIH
 70
     0
  9
$DIMTOH
 70
     0
  9
$DIMSE1
 70
     0
  9
$DIMSE2
 70
     0
  9
$DIMTAD
 70
     1
  9
$DIMZIN
 70
    12
  9
$DIMBLK
  1

  9
$DIMASO
 70
     1
  9
$DIMSHO
 70
     1
  9
$DIMPOST
  1

  9
$DIMAPOST
  1

  9
$DIMALT
 70
     0
  9
$DIMALTD
 70
     2
  9
$DIMALTF
 40
25.4
  9
$DIMLFAC
 40
1.0
  9
$DIMTOFL
 70
     1
  9
$DIMTVP
 40
0.0
  9
$DIMTIX
 70
     0
  9
$DIMSOXD
 70
     0
  9
$DIMSAH
 70
     0
  9
$DIMBLK1
  1

  9
$DIMBLK2
  1

  9
$DIMSTYLE
  2
STANDARD
  9
$DIMCLRD
 70
     0
  9
$DIMCLRE
 70
     0
  9
$DIMCLRT
 70
     0
  9
$DIMTFAC
 40
1.0
  9
$DIMGAP
 40
1.0
  9
$DIMJUST
 70
     0
  9
$DIMSD1
 70
     0
  9
$DIMSD2
 70
     0
  9
$DIMTOLJ
 70
     1
  9
$DIMTZIN
 70
    12
  9
$DIMALTZ
 70
     0
  9
$DIMALTTZ
 70
     0
  9
$DIMUPT
 70
     0
  9
$DIMDEC
 70
     2
  9
$DIMTDEC
 70
     2
  9
$DIMALTU
 70
     2
  9
$DIMALTTD
 70
     2
  9
$DIMTXSTY
  7
BIGFONT
  9
$DIMAUNIT
 70
     0
  9
$DIMADEC
 70
     0
  9
$DIMALTRND
 40
0.0
  9
$DIMAZIN
 70
     0
  9
$DIMDSEP
 70
    46
  9
$DIMATFIT
 70
     3
  9
$DIMFRAC
 70
     0
  9
$DIMLDRBLK
  1

  9
$DIMLUNIT
 70
     2
  9
$DIMLWD
 70
    -2
  9
$DIMLWE
 70
    -2
  9
$DIMTMOVE
 70
     0
  9
$LUNITS
 70
     2
  9
$LUPREC
 70
     2
  9
$SKETCHINC
 40
1.0
  9
$FILLETRAD
 40
0.0
  9
$AUNITS
 70
     0
  9
$AUPREC
 70
     0
  9
$MENU
  1
acad
  9
$ELEVATION
 40
0.0
  9
$PELEVATION
 40
0.0
  9
$THICKNESS
 40
0.0
  9
$LIMCHECK
 70
     0
  9
$CHAMFERA
 40
0.25
  9
$CHAMFERB
 40
0.25
  9
$CHAMFERC
 40
0.0
  9
$CHAMFERD
 40
0.0
  9
$SKPOLY
 70
     0
  9
$TDCREATE
 40
2452836.755218414
  9
$TDUCREATE
 40
2452836.380218414
  9
$TDUPDATE
 40
2456210.606334086
  9
$TDUUPDATE
 40
2456210.231334086
  9
$TDINDWG
 40
0.6289603704
  9
$TDUSRTIMER
 40
2456006.056077338
  9
$USRTIMER
 70
     1
  9
$ANGBASE
 50
0.0
  9
$ANGDIR
 70
     0
  9
$PDMODE
 70
     0
  9
$PDSIZE
 40
0.0
  9
$PLINEWID
 40
0.0
  9
$SPLFRAME
 70
     0
  9
$SPLINETYPE
 70
     6
  9
$SPLINESEGS
 70
     8
  9
$HANDSEED
  5
B5F6
  9
$SURFTAB1
 70
     6
  9
$SURFTAB2
 70
     6
  9
$SURFTYPE
 70
     6
  9
$SURFU
 70
     6
  9
$SURFV
 70
     6
  9
$UCSBASE
  2

  9
$UCSNAME
  2

  9
$UCSORG
 10
0.0
 20
0.0
 30
0.0
  9
$UCSXDIR
 10
1.0
 20
0.0
 30
0.0
  9
$UCSYDIR
 10
0.0
 20
1.0
 30
0.0
  9
$UCSORTHOREF
  2

  9
$UCSORTHOVIEW
 70
     0
  9
$UCSORGTOP
 10
0.0
 20
0.0
 30
0.0
  9
$UCSORGBOTTOM
 10
0.0
 20
0.0
 30
0.0
  9
$UCSORGLEFT
 10
0.0
 20
0.0
 30
0.0
  9
$UCSORGRIGHT
 10
0.0
 20
0.0
 30
0.0
  9
$UCSORGFRONT
 10
0.0
 20
0.0
 30
0.0
  9
$UCSORGBACK
 10
0.0
 20
0.0
 30
0.0
  9
$PUCSBASE
  2

  9
$PUCSNAME
  2

  9
$PUCSORG
 10
0.0
 20
0.0
 30
0.0
  9
$PUCSXDIR
 10
1.0
 20
0.0
 30
0.0
  9
$PUCSYDIR
 10
0.0
 20
1.0
 30
0.0
  9
$PUCSORTHOREF
  2

  9
$PUCSORTHOVIEW
 70
     0
  9
$PUCSORGTOP
 10
0.0
 20
0.0
 30
0.0
  9
$PUCSORGBOTTOM
 10
0.0
 20
0.0
 30
0.0
  9
$PUCSORGLEFT
 10
0.0
 20
0.0
 30
0.0
  9
$PUCSORGRIGHT
 10
0.0
 20
0.0
 30
0.0
  9
$PUCSORGFRONT
 10
0.0
 20
0.0
 30
0.0
  9
$PUCSORGBACK
 10
0.0
 20
0.0
 30
0.0
  9
$USERI1
 70
     0
  9
$USERI2
 70
     0
  9
$USERI3
 70
     0
  9
$USERI4
 70
     0
  9
$USERI5
 70
     0
  9
$USERR1
 40
0.0
  9
$USERR2
 40
0.0
  9
$USERR3
 40
0.0
  9
$USERR4
 40
0.0
  9
$USERR5
 40
0.0
  9
$WORLDVIEW
 70
     1
  9
$SHADEDGE
 70
     3
  9
$SHADEDIF
 70
    70
  9
$TILEMODE
 70
     1
  9
$MAXACTVP
 70
    16
  9
$PINSBASE
 10
0.0
 20
0.0
 30
0.0
  9
$PLIMCHECK
 70
     0
  9
$PEXTMIN
 10
1.000000000000000E+20
 20
1.000000000000000E+20
 30
1.000000000000000E+20
  9
$PEXTMAX
 10
-1.000000000000000E+20
 20
-1.000000000000000E+20
 30
-1.000000000000000E+20
  9
$PLIMMIN
 10
0.0
 20
0.0
  9
$PLIMMAX
 10
420.0
 20
297.0
  9
$UNITMODE
 70
     0
  9
$VISRETAIN
 70
     0
  9
$PLINEGEN
 70
     0
  9
$PSLTSCALE
 70
     1
  9
$TREEDEPTH
 70
  3020
  9
$CMLSTYLE
  2
STANDARD
  9
$CMLJUST
 70
     0
  9
$CMLSCALE
 40
1.0
  9
$PROXYGRAPHICS
 70
     1
  9
$MEASUREMENT
 70
     1
  9
$CELWEIGHT
370
    -1
  9
$ENDCAPS
280
     0
  9
$JOINSTYLE
280
     0
  9
$LWDISPLAY
290
     0
  9
$INSUNITS
 70
     0
  9
$HYPERLINKBASE
  1

  9
$STYLESHEET
  1
CANON00.CTB
  9
$XEDIT
290
     1
  9
$CEPSNTYPE
380
     0
  9
$PSTYLEMODE
290
     1
  9
$FINGERPRINTGUID
  2
{7545F8F0-0B94-11D4-9EDF-0040266A266F}
  9
$VERSIONGUID
  2
{EC39F91D-2FB1-45E0-B7F1-ADB295E0B065}
  9
$EXTNAMES
290
     1
  9
$PSVPSCALE
 40
0.0
  9
$OLESTARTUP
290
     0
  0
ENDSEC
  0
SECTION
  2
CLASSES
  0
CLASS
  1
DICTIONARYVAR
  2
AcDbDictionaryVar
  3
ObjectDBX Classes
 90
        0
280
     0
281
     0
  0
CLASS
  1
ACDBDICTIONARYWDFLT
  2
AcDbDictionaryWithDefault
  3
ObjectDBX Classes
 90
        0
280
     0
281
     0
  0
CLASS
  1
ACDBPLACEHOLDER
  2
AcDbPlaceHolder
  3
ObjectDBX Classes
 90
        0
280
     0
281
     0
  0
CLASS
  1
LAYOUT
  2
AcDbLayout
  3
ObjectDBX Classes
 90
        0
280
     0
281
     0
  0
CLASS
  1
MATERIAL
  2
AcDbMaterial
  3
ObjectDBX Classes
 90
     1153
280
     0
281
     0
  0
CLASS
  1
VISUALSTYLE
  2
AcDbVisualStyle
  3
ObjectDBX Classes
 90
     4095
280
     0
281
     0
  0
CLASS
  1
TABLESTYLE
  2
AcDbTableStyle
  3
ObjectDBX Classes
 90
     4095
280
     0
281
     0
  0
CLASS
  1
EXACXREFPANELOBJECT
  2
ExAcXREFPanelObject
  3
EXAC_ESW
 90
    33793
280
     1
281
     0
  0
CLASS
  1
NPOCOLLECTION
  2
AcDbImpNonPersistentObjectsCollection
  3
ObjectDBX Classes
 90
    33921
280
     1
281
     0
  0
CLASS
  1
SORTENTSTABLE
  2
AcDbSortentsTable
  3
ObjectDBX Classes
 90
        0
280
     0
281
     0
  0
CLASS
  1
SCALE
  2
AcDbScale
  3
ObjectDBX Classes
 90
     1153
280
     0
281
     0
  0
CLASS
  1
MLEADERSTYLE
  2
AcDbMLeaderStyle
  3
ACDB_MLEADERSTYLE_CLASS
 90
     4095
280
     0
281
     0
  0
CLASS
  1
CELLSTYLEMAP
  2
AcDbCellStyleMap
  3
ObjectDBX Classes
 90
     1152
280
     0
281
     0
  0
CLASS
  1
RASTERVARIABLES
  2
AcDbRasterVariables
  3
ISM
 90
        0
280
     0
281
     0
  0
CLASS
  1
IMAGEDEF
  2
AcDbRasterImageDef
  3
ISM
 90
        0
280
     0
281
     0
  0
CLASS
  1
IMAGE
  2
AcDbRasterImage
  3
ISM
 90
    34943
280
     0
281
     1
  0
CLASS
  1
IMAGEDEF_REACTOR
  2
AcDbRasterImageDefReactor
  3
ISM
 90
    32769
280
     0
281
     0
  0
ENDSEC
  0
SECTION
  2
TABLES
  0
TABLE
  2
VPORT
  5
8
102
{ACAD_XDICTIONARY
360
B130
102
}
330
0
100
AcDbSymbolTable
 70
     1
  0
VPORT
  5
8F41
330
8
100
AcDbSymbolTableRecord
100
AcDbViewportTableRecord
  2
*Active
 70
     0
 10
0.0
 20
0.0
 11
1.0
 21
1.0
 12
1174.286051136563
 22
-115.6148669135097
 13
0.0
 23
0.0
 14
1.0
 24
1.0
 15
10.0
 25
10.0
 16
0.0
 26
0.0
 36
1.0
 17
0.0
 27
0.0
 37
0.0
 40
614.3132265087579
 41
1.525916561314791
 42
50.0
 43
0.0
 44
0.0
 50
0.0
 51
0.0
 71
    16
 72
   100
 73
     1
 74
     0
 75
     0
 76
     0
 77
     0
 78
     0
281
     0
 65
     1
110
0.0
120
0.0
130
0.0
111
1.0
121
0.0
131
0.0
112
0.0
122
1.0
132
0.0
 79
     0
146
0.0
  0
ENDTAB
  0
TABLE
  2
LTYPE
  5
5
330
0
100
AcDbSymbolTable
 70
     2
  0
LTYPE
  5
12
330
5
100
AcDbSymbolTableRecord
100
AcDbLinetypeTableRecord
  2
BYBLOCK
 70
     0
  3

 72
    65
 73
     0
 40
0.0
  0
LTYPE
  5
13
330
5
100
AcDbSymbolTableRecord
100
AcDbLinetypeTableRecord
  2
BYLAYER
 70
     0
  3

 72
    65
 73
     0
 40
0.0
  0
LTYPE
  5
14
330
5
100
AcDbSymbolTableRecord
100
AcDbLinetypeTableRecord
  2
CONTINUOUS
 70
     0
  3
Solid line
 72
    65
 73
     0
 40
0.0
  0
LTYPE
  5
C0D
330
5
100
AcDbSymbolTableRecord
100
AcDbLinetypeTableRecord
  2
CENTER2
 70
     0
  3
___ _ ___ _ ___ _ ___ _ ___ _ ___ _ ___ _ ___ _
 72
    65
 73
     4
 40
28.575
 49
19.05
 74
     0
 49
-3.174999999999998
 74
     0
 49
3.174999999999998
 74
     0
 49
-3.174999999999998
 74
     0
  0
ENDTAB
  0
TABLE
  2
LAYER
  5
2
102
{ACAD_XDICTIONARY
360
A0A3
102
}
330
0
100
AcDbSymbolTable
 70
     5
  0
LAYER
  5
F
102
{ACAD_XDICTIONARY
360
9FD1
102
}
330
2
100
AcDbSymbolTableRecord
100
AcDbLayerTableRecord
  2
0
 70
     0
 62
     2
  6
CONTINUOUS
370
    -3
390
1C61
  0
LAYER
  5
30
330
2
100
AcDbSymbolTableRecord
100
AcDbLayerTableRecord
  2
DEFPOINTS
 70
     0
 62
     7
  6
CONTINUOUS
290
     0
370
    -3
390
1C61
  0
LAYER
  5
526
102
{ACAD_XDICTIONARY
360
9FD3
102
}
330
2
100
AcDbSymbolTableRecord
100
AcDbLayerTableRecord
  2
2
 70
     0
 62
     1
  6
CONTINUOUS
370
    -3
390
1C61
  0
LAYER
  5
138F
102
{ACAD_XDICTIONARY
360
9FD5
102
}
330
2
100
AcDbSymbolTableRecord
100
AcDbLayerTableRecord
  2
3
 70
     0
 62
     6
  6
CENTER2
370
    -3
390
1C61
  0
LAYER
  5
1390
102
{ACAD_XDICTIONARY
360
9FD7
102
}
330
2
100
AcDbSymbolTableRecord
100
AcDbLayerTableRecord
  2
1
 70
     0
 62
     7
  6
CONTINUOUS
370
    -3
390
1C61
  0
ENDTAB
  0
TABLE
  2
STYLE
  5
3
330
0
100
AcDbSymbolTable
 70
     2
  0
STYLE
  5
10
330
3
100
AcDbSymbolTableRecord
100
AcDbTextStyleTableRecord
  2
STANDARD
 70
     0
 40
0.0
 41
1.0
 50
0.0
 71
     0
 42
3.5
  3
ISOCP.SHX
  4
extfont.shx
  0
STYLE
  5
52A
330
3
100
AcDbSymbolTableRecord
100
AcDbTextStyleTableRecord
  2
BIGFONT
 70
     0
 40
0.0
 41
1.0
 50
0.0
 71
     0
 42
3.5
  3
txt
  4
bigfont
  0
ENDTAB
  0
TABLE
  2
VIEW
  5
6
330
0
100
AcDbSymbolTable
 70
     0
  0
ENDTAB
  0
TABLE
  2
UCS
  5
7
330
0
100
AcDbSymbolTable
 70
     0
  0
ENDTAB
  0
TABLE
  2
APPID
  5
9
330
0
100
AcDbSymbolTable
 70
     7
  0
APPID
  5
11
330
9
100
AcDbSymbolTableRecord
100
AcDbRegAppTableRecord
  2
ACAD
 70
     0
  0
APPID
  5
323
330
9
100
AcDbSymbolTableRecord
100
AcDbRegAppTableRecord
  2
CONTENTTABDATA
 70
     0
  0
APPID
  5
324
330
9
100
AcDbSymbolTableRecord
100
AcDbRegAppTableRecord
  2
CONTENTCURRENTTAB
 70
     0
  0
APPID
  5
9A86
330
9
100
AcDbSymbolTableRecord
100
AcDbRegAppTableRecord
  2
ACAD_EXEMPT_FROM_CAD_STANDARDS
 70
     0
  0
APPID
  5
9FCB
330
9
100
AcDbSymbolTableRecord
100
AcDbRegAppTableRecord
  2
ACAD_MLEADERVER
 70
     0
  0
APPID
  5
A3BF
330
9
100
AcDbSymbolTableRecord
100
AcDbRegAppTableRecord
  2
ACAD_PSEXT
 70
     0
  0
APPID
  5
B109
330
9
100
AcDbSymbolTableRecord
100
AcDbRegAppTableRecord
  2
ACAD_DSTYLE_DIMRADIAL_EXTENSION
 70
     0
  0
ENDTAB
  0
TABLE
  2
DIMSTYLE
  5
A
330
0
100
AcDbSymbolTable
 70
     2
100
AcDbDimStyleTable
 71
     1
340
117
  0
DIMSTYLE
105
117
330
A
100
AcDbSymbolTableRecord
100
AcDbDimStyleTableRecord
  2
STANDARD
 70
     0
 41
2.5
 73
     0
 74
     0
 77
     1
 78
    12
140
3.0
141
-1.0
147
1.0
172
     1
271
     2
272
     2
284
    12
340
52A
  0
DIMSTYLE
105
B214
102
{ACAD_REACTORS
330
B52C
330
B52D
330
B52E
102
}
330
A
100
AcDbSymbolTableRecord
100
AcDbDimStyleTableRecord
  2
×1
 70
     0
 40
0.0
 41
3.0
 42
0.0
 47
0.1
 48
0.1
 73
     0
 74
     0
 77
     1
 78
     8
 79
     2
140
3.0
141
-3.0
147
1.0
172
     1
179
     3
284
     8
289
     2
340
52A
  0
ENDTAB
  0
TABLE
  2
BLOCK_RECORD
  5
1
330
0
100
AcDbSymbolTable
 70
     3
  0
BLOCK_RECORD
  5
18
102
{ACAD_XDICTIONARY
360
9ACC
102
}
330
1
100
AcDbSymbolTableRecord
100
AcDbBlockTableRecord
  2
*MODEL_SPACE
340
1C64
  0
BLOCK_RECORD
  5
15
330
1
100
AcDbSymbolTableRecord
100
AcDbBlockTableRecord
  2
*PAPER_SPACE
340
1C65
  0
BLOCK_RECORD
  5
B530
330
1
100
AcDbSymbolTableRecord
100
AcDbBlockTableRecord
  2
*D0
340
0
  0
BLOCK_RECORD
  5
B53C
330
1
100
AcDbSymbolTableRecord
100
AcDbBlockTableRecord
  2
*D1
340
0
  0
BLOCK_RECORD
  5
B548
330
1
100
AcDbSymbolTableRecord
100
AcDbBlockTableRecord
  2
*D2
340
0
  0
ENDTAB
  0
ENDSEC
  0
SECTION
  2
BLOCKS
  0
BLOCK
  5
44
330
18
100
AcDbEntity
  8
0
100
AcDbBlockBegin
  2
*MODEL_SPACE
 70
     2
 10
0.0
 20
0.0
 30
0.0
  3
*MODEL_SPACE
  1

  0
ENDBLK
  5
45
330
18
100
AcDbEntity
  8
0
100
AcDbBlockEnd
  0
BLOCK
  5
42
330
15
100
AcDbEntity
 67
     1
  8
0
100
AcDbBlockBegin
  2
*PAPER_SPACE
 70
     0
 10
0.0
 20
0.0
 30
0.0
  3
*PAPER_SPACE
  1

  0
ENDBLK
  5
43
330
15
100
AcDbEntity
 67
     1
  8
0
100
AcDbBlockEnd
  0
BLOCK
  5
B531
330
B530
100
AcDbEntity
  8
0
 62
     7
100
AcDbBlockBegin
  2
*D0
 70
     1
 10
0.0
 20
0.0
 30
0.0
  3
*D0
  1

  0
LINE
  5
B554
330
B530
100
AcDbEntity
  8
2
 62
     0
370
    -2
100
AcDbLine
 10
726.4961318673738
 20
-120.4935626264888
 30
0.0
 11
726.4961318673738
 21
-114.8609182099203
 31
0.0
  0
LINE
  5
B555
330
B530
100
AcDbEntity
  8
2
 62
     0
370
    -2
100
AcDbLine
 10
1576.496131867374
 20
-120.4935626264892
 30
0.0
 11
1576.496131867374
 21
-114.8609182099203
 31
0.0
  0
LINE
  5
B556
330
B530
100
AcDbEntity
  8
2
 62
     0
370
    -2
100
AcDbLine
 10
729.4961318673736
 20
-115.0409182099203
 30
0.0
 11
1573.496131867374
 21
-115.0409182099203
 31
0.0
  0
SOLID
  5
B557
330
B530
100
AcDbEntity
  8
2
 62
     0
100
AcDbTrace
 10
729.4961318673736
 20
-114.5409182099203
 30
0.0
 11
729.4961318673736
 21
-115.5409182099203
 31
0.0
 12
726.4961318673738
 22
-115.0409182099203
 32
0.0
 13
726.4961318673738
 23
-115.0409182099203
 33
0.0
  0
SOLID
  5
B558
330
B530
100
AcDbEntity
  8
2
 62
     0
100
AcDbTrace
 10
1573.496131867374
 20
-114.5409182099203
 30
0.0
 11
1573.496131867374
 21
-115.5409182099203
 31
0.0
 12
1576.496131867374
 22
-115.0409182099203
 32
0.0
 13
1576.496131867374
 23
-115.0409182099203
 33
0.0
  0
MTEXT
  5
B559
330
B530
100
AcDbEntity
  8
2
 62
     0
100
AcDbMText
 10
1151.496131867374
 20
-112.5409182099203
 30
0.0
 40
3.0
 41
0.0
 71
     5
 72
     1
  1
\A1;850
  7
BIGFONT
 73
     1
 44
1.0
1001
ACAD
1000
MTEXTBEGIN
1070
    73
1070
     1
1070
    44
1040
1.0
1070
    74
1070
     0
1000
MTEXTEND
  0
POINT
  5
B55A
330
B530
100
AcDbEntity
  8
DEFPOINTS
 62
     0
100
AcDbPoint
 10
726.4961318673738
 20
-120.4935626264888
 30
0.0
  0
POINT
  5
B55B
330
B530
100
AcDbEntity
  8
DEFPOINTS
 62
     0
100
AcDbPoint
 10
1576.496131867374
 20
-120.4935626264892
 30
0.0
  0
POINT
  5
B55C
330
B530
100
AcDbEntity
  8
DEFPOINTS
 62
     0
100
AcDbPoint
 10
1576.496131867374
 20
-115.0409182099203
 30
0.0
  0
ENDBLK
  5
B532
330
B530
100
AcDbEntity
  8
0
 62
     7
100
AcDbBlockEnd
  0
BLOCK
  5
B53D
330
B53C
100
AcDbEntity
  8
0
 62
     7
100
AcDbBlockBegin
  2
*D1
 70
     1
 10
0.0
 20
0.0
 30
0.0
  3
*D1
  1

  0
LINE
  5
B55D
330
B53C
100
AcDbEntity
  8
2
 62
     0
370
    -2
100
AcDbLine
 10
1610.731312048024
 20
-120.8935626264893
 30
0.0
 11
1610.731312048024
 21
-114.8609182099203
 31
0.0
  0
LINE
  5
B55E
330
B53C
100
AcDbEntity
  8
2
 62
     0
370
    -2
100
AcDbLine
 10
1590.731312048024
 20
-120.8935626264893
 30
0.0
 11
1590.731312048024
 21
-114.8609182099203
 31
0.0
  0
LINE
  5
B55F
330
B53C
100
AcDbEntity
  8
2
 62
     0
370
    -2
100
AcDbLine
 10
1607.731312048024
 20
-115.0409182099203
 30
0.0
 11
1593.731312048024
 21
-115.0409182099203
 31
0.0
  0
SOLID
  5
B560
330
B53C
100
AcDbEntity
  8
2
 62
     0
100
AcDbTrace
 10
1607.731312048024
 20
-114.5409182099203
 30
0.0
 11
1607.731312048024
 21
-115.5409182099203
 31
0.0
 12
1610.731312048024
 22
-115.0409182099203
 32
0.0
 13
1610.731312048024
 23
-115.0409182099203
 33
0.0
  0
SOLID
  5
B561
330
B53C
100
AcDbEntity
  8
2
 62
     0
100
AcDbTrace
 10
1593.731312048024
 20
-114.5409182099203
 30
0.0
 11
1593.731312048024
 21
-115.5409182099203
 31
0.0
 12
1590.731312048024
 22
-115.0409182099203
 32
0.0
 13
1590.731312048024
 23
-115.0409182099203
 33
0.0
  0
MTEXT
  5
B562
330
B53C
100
AcDbEntity
  8
2
 62
     0
100
AcDbMText
 10
1600.731312048024
 20
-112.5409182099203
 30
0.0
 40
3.0
 41
0.0
 71
     5
 72
     1
  1
\A1;20
  7
BIGFONT
 73
     1
 44
1.0
1001
ACAD
1000
MTEXTBEGIN
1070
    73
1070
     1
1070
    44
1040
1.0
1070
    74
1070
     0
1000
MTEXTEND
  0
POINT
  5
B563
330
B53C
100
AcDbEntity
  8
DEFPOINTS
 62
     0
100
AcDbPoint
 10
1610.731312048024
 20
-120.8935626264893
 30
0.0
  0
POINT
  5
B564
330
B53C
100
AcDbEntity
  8
DEFPOINTS
 62
     0
100
AcDbPoint
 10
1590.731312048024
 20
-120.8935626264893
 30
0.0
  0
POINT
  5
B565
330
B53C
100
AcDbEntity
  8
DEFPOINTS
 62
     0
100
AcDbPoint
 10
1590.731312048024
 20
-115.0409182099203
 30
0.0
  0
ENDBLK
  5
B53E
330
B53C
100
AcDbEntity
  8
0
 62
     7
100
AcDbBlockEnd
  0
BLOCK
  5
B549
330
B548
100
AcDbEntity
  8
0
 62
     7
100
AcDbBlockBegin
  2
*D2
 70
     1
 10
0.0
 20
0.0
 30
0.0
  3
*D2
  1

  0
LINE
  5
B566
330
B548
100
AcDbEntity
  8
2
 62
     0
370
    -2
100
AcDbLine
 10
1610.331312048024
 20
-120.4935626264893
 30
0.0
 11
1616.392648450263
 21
-120.4935626264893
 31
0.0
  0
LINE
  5
B567
330
B548
100
AcDbEntity
  8
2
 62
     0
370
    -2
100
AcDbLine
 10
1601.531312048024
 20
-129.4935626264893
 30
0.0
 11
1616.392648450263
 21
-129.4935626264893
 31
0.0
  0
LINE
  5
B568
330
B548
100
AcDbEntity
  8
2
 62
     0
370
    -2
100
AcDbLine
 10
1616.212648450263
 20
-123.4935626264893
 30
0.0
 11
1616.212648450263
 21
-126.4935626264893
 31
0.0
  0
SOLID
  5
B569
330
B548
100
AcDbEntity
  8
2
 62
     0
100
AcDbTrace
 10
1615.712648450263
 20
-123.4935626264893
 30
0.0
 11
1616.712648450263
 21
-123.4935626264893
 31
0.0
 12
1616.212648450263
 22
-120.4935626264893
 32
0.0
 13
1616.212648450263
 23
-120.4935626264893
 33
0.0
  0
SOLID
  5
B56A
330
B548
100
AcDbEntity
  8
2
 62
     0
100
AcDbTrace
 10
1615.712648450263
 20
-126.4935626264893
 30
0.0
 11
1616.712648450263
 21
-126.4935626264893
 31
0.0
 12
1616.212648450263
 22
-129.4935626264893
 32
0.0
 13
1616.212648450263
 23
-129.4935626264893
 33
0.0
  0
MTEXT
  5
B56B
330
B548
100
AcDbEntity
  8
2
 62
     0
100
AcDbMText
 10
1613.712648450263
 20
-124.993562626489
 30
0.0
 40
3.0
 41
0.0
 71
     5
 72
     1
  1
\A1;9
  7
BIGFONT
 11
0.0000000000000001
 21
1.0
 31
0.0
 73
     1
 44
1.0
1001
ACAD
1000
MTEXTBEGIN
1070
    73
1070
     1
1070
    44
1040
1.0
1070
    74
1070
     0
1000
MTEXTEND
  0
POINT
  5
B56C
330
B548
100
AcDbEntity
  8
DEFPOINTS
 62
     0
100
AcDbPoint
 10
1610.331312048024
 20
-120.4935626264893
 30
0.0
  0
POINT
  5
B56D
330
B548
100
AcDbEntity
  8
DEFPOINTS
 62
     0
100
AcDbPoint
 10
1601.531312048024
 20
-129.4935626264893
 30
0.0
  0
POINT
  5
B56E
330
B548
100
AcDbEntity
  8
DEFPOINTS
 62
     0
100
AcDbPoint
 10
1616.212648450263
 20
-129.4935626264893
 30
0.0
  0
ENDBLK
  5
B54A
330
B548
100
AcDbEntity
  8
0
 62
     7
100
AcDbBlockEnd
  0
ENDSEC
  0
SECTION
  2
ENTITIES
  0
TEXT
  5
FDF
330
18
100
AcDbEntity
  8
2
100
AcDbText
 10
61.80397887142635
 20
115.9153310921788
 30
0.0
 40
3.5
  1

  7
BIGFONT
100
AcDbText
  0
TEXT
  5
FE2
330
18
100
AcDbEntity
  8
2
100
AcDbText
 10
203.8957585163355
 20
143.31043555714
 30
0.0
 40
3.5
  1

  7
BIGFONT
100
AcDbText
  0
TEXT
  5
218A
330
18
100
AcDbEntity
  8
2
  6
Continuous
 48
3.0
100
AcDbText
 10
345.2872429042694
 20
59.92647845586116
 30
0.0
 40
3.5
  1

 50
359.780436223055
 41
0.6085702442471829
  7
BIGFONT
 72
     5
 11
360.1971044114504
 21
59.8693419344833
 31
0.0
100
AcDbText
  0
LINE
  5
B4F5
330
18
100
AcDbEntity
  8
1
 48
0.5
100
AcDbLine
 10
1600.731312048024
 20
-120.8935626264893
 30
0.0
 11
1610.431312048024
 21
-120.8935626264893
 31
0.0
  0
LINE
  5
B4F6
330
18
100
AcDbEntity
  8
1
 48
0.5
100
AcDbLine
 10
1600.731312048024
 20
-120.4935626264893
 30
0.0
 11
1609.731312048024
 21
-120.4935626264893
 31
0.0
  0
LINE
  5
B4F7
330
18
100
AcDbEntity
  8
1
 48
0.5
100
AcDbLine
 10
1600.731312048024
 20
-129.4935626264893
 30
0.0
 11
1600.731312048024
 21
-121.6935626264893
 31
0.0
  0
LINE
  5
B4F8
330
18
100
AcDbEntity
  8
1
 48
0.5
100
AcDbLine
 10
1601.531312048024
 20
-129.4935626264893
 30
0.0
 11
1601.531312048024
 21
-122.3935626264893
 31
0.0
  0
LINE
  5
B4F9
330
18
100
AcDbEntity
  8
3
 48
0.5
100
AcDbLine
 10
1600.731312048024
 20
-117.4935626264893
 30
0.0
 11
1600.731312048024
 21
-132.4935626264893
 31
0.0
  0
LINE
  5
B4FA
330
18
100
AcDbEntity
  8
1
 48
0.5
100
AcDbLine
 10
1600.731312048024
 20
-120.8935626264893
 30
0.0
 11
1591.131312048024
 21
-120.8935626264893
 31
0.0
  0
LINE
  5
B4FB
330
18
100
AcDbEntity
  8
1
 48
0.5
100
AcDbLine
 10
1600.731312048024
 20
-120.4935626264893
 30
0.0
 11
1591.131312048024
 21
-120.4935626264893
 31
0.0
  0
LINE
  5
B4FC
330
18
100
AcDbEntity
  8
1
 48
0.5
100
AcDbLine
 10
1601.531312048024
 20
-129.4935626264893
 30
0.0
 11
1599.931312048024
 21
-129.4935626264893
 31
0.0
  0
LINE
  5
B4FD
330
18
100
AcDbEntity
  8
1
 48
0.5
100
AcDbLine
 10
1600.731312048024
 20
-129.4935626264893
 30
0.0
 11
1600.731312048024
 21
-121.6935626264893
 31
0.0
  0
LINE
  5
B4FE
330
18
100
AcDbEntity
  8
1
 48
0.5
100
AcDbLine
 10
1599.931312048024
 20
-129.4935626264894
 30
0.0
 11
1599.931312048024
 21
-122.3935626264893
 31
0.0
  0
LINE
  5
B4FF
330
18
100
AcDbEntity
  8
1
 48
0.5
100
AcDbLine
 10
1596.031312048024
 20
-123.2935626264893
 30
0.0
 11
1596.031312048024
 21
-121.6935626264893
 31
0.0
  0
LINE
  5
B500
330
18
100
AcDbEntity
  8
1
 48
0.5
100
AcDbLine
 10
1600.731312048024
 20
-121.6935626264893
 30
0.0
 11
1593.831312048024
 21
-121.6935626264893
 31
0.0
  0
LINE
  5
B501
330
18
100
AcDbEntity
  8
1
 48
0.5
100
AcDbLine
 10
1593.481312048024
 20
-122.3935626264893
 30
0.0
 11
1595.231312048024
 21
-122.3935626264893
 31
0.0
  0
LINE
  5
B502
330
18
100
AcDbEntity
  8
1
 48
0.5
100
AcDbLine
 10
1593.481312048024
 20
-122.8935626264893
 30
0.0
 11
1594.731312048024
 21
-122.8935626264893
 31
0.0
  0
LINE
  5
B503
330
18
100
AcDbEntity
  8
1
 48
0.5
100
AcDbLine
 10
1592.981312048024
 20
-121.8935626264893
 30
0.0
 11
1592.981312048024
 21
-120.8935626264893
 31
0.0
  0
ARC
  5
B504
330
18
100
AcDbEntity
  8
1
 48
0.5
100
AcDbCircle
 10
1593.481312048024
 20
-121.8935626264893
 30
0.0
 40
1.0
100
AcDbArc
 50
180.0
 51
270.0
  0
ARC
  5
B505
330
18
100
AcDbEntity
  8
1
 48
0.5
100
AcDbCircle
 10
1593.481312048024
 20
-121.8935626264893
 30
0.0
 40
0.5
100
AcDbArc
 50
180.0
 51
270.0
  0
LINE
  5
B506
330
18
100
AcDbEntity
  8
1
 48
0.5
100
AcDbLine
 10
1594.731312048024
 20
-123.2935626264893
 30
0.0
 11
1594.731312048024
 21
-122.8935626264893
 31
0.0
  0
LINE
  5
B507
330
18
100
AcDbEntity
  8
1
 48
0.5
100
AcDbLine
 10
1595.231312048024
 20
-123.2935626264893
 30
0.0
 11
1595.231312048024
 21
-122.3935626264893
 31
0.0
  0
LINE
  5
B508
330
18
100
AcDbEntity
  8
1
 48
0.5
100
AcDbLine
 10
1596.831312048024
 20
-123.2935626264893
 30
0.0
 11
1596.831312048024
 21
-122.3935626264893
 31
0.0
  0
LINE
  5
B509
330
18
100
AcDbEntity
  8
1
 48
0.5
100
AcDbLine
 10
1597.331312048024
 20
-122.8935626264893
 30
0.0
 11
1599.931312048024
 21
-122.8935626264895
 31
0.0
  0
ARC
  5
B50A
330
18
100
AcDbEntity
  8
1
100
AcDbCircle
 10
1591.131312048024
 20
-120.8935626264893
 30
0.0
 40
0.4000000000000199
100
AcDbArc
 50
90.0
 51
270.0
  0
LINE
  5
B50B
330
18
100
AcDbEntity
  8
1
100
AcDbLine
 10
1591.131312048024
 20
-121.2935626264893
 30
0.0
 11
1592.481312048024
 21
-121.2935626264893
 31
0.0
  0
LINE
  5
B50C
330
18
100
AcDbEntity
  8
1
100
AcDbLine
 10
1592.481312048024
 20
-121.8935626264893
 30
0.0
 11
1592.481312048024
 21
-121.2935626264893
 31
0.0
  0
LINE
  5
B50D
330
18
100
AcDbEntity
  8
1
 48
0.5
100
AcDbLine
 10
1597.331312048024
 20
-123.2935626264893
 30
0.0
 11
1597.331312048024
 21
-122.8935626264893
 31
0.0
  0
ARC
  5
B50E
330
18
100
AcDbEntity
  8
1
100
AcDbCircle
 10
1596.031312048024
 20
-123.2935626264893
 30
0.0
 40
1.299999999999932
100
AcDbArc
 50
180.0000000000032
 51
359.9999999999951
  0
ARC
  5
B50F
330
18
100
AcDbEntity
  8
1
100
AcDbCircle
 10
1596.031312048024
 20
-123.2935626264893
 30
0.0
 40
0.7999999999999332
100
AcDbArc
 50
180.0
 51
0.0
  0
LINE
  5
B510
330
18
100
AcDbEntity
  8
1
100
AcDbLine
 10
1596.831312048024
 20
-122.3935626264893
 30
0.0
 11
1599.931312048024
 21
-122.3935626264893
 31
0.0
  0
LINE
  5
B511
330
18
100
AcDbEntity
  8
1
 48
0.5
100
AcDbLine
 10
1600.731312048024
 20
-120.8935626264893
 30
0.0
 11
1610.331312048024
 21
-120.8935626264893
 31
0.0
  0
LINE
  5
B512
330
18
100
AcDbEntity
  8
1
 48
0.5
100
AcDbLine
 10
1600.731312048024
 20
-120.4935626264893
 30
0.0
 11
1610.331312048024
 21
-120.4935626264893
 31
0.0
  0
LINE
  5
B513
330
18
100
AcDbEntity
  8
1
 48
0.5
100
AcDbLine
 10
1605.431312048024
 20
-123.2935626264893
 30
0.0
 11
1605.431312048024
 21
-121.6935626264893
 31
0.0
  0
LINE
  5
B514
330
18
100
AcDbEntity
  8
1
 48
0.5
100
AcDbLine
 10
1600.731312048024
 20
-121.6935626264893
 30
0.0
 11
1607.631312048024
 21
-121.6935626264893
 31
0.0
  0
LINE
  5
B515
330
18
100
AcDbEntity
  8
1
 48
0.5
100
AcDbLine
 10
1607.981312048024
 20
-122.3935626264893
 30
0.0
 11
1606.231312048024
 21
-122.3935626264893
 31
0.0
  0
LINE
  5
B516
330
18
100
AcDbEntity
  8
1
 48
0.5
100
AcDbLine
 10
1607.981312048024
 20
-122.8935626264893
 30
0.0
 11
1606.731312048024
 21
-122.8935626264893
 31
0.0
  0
LINE
  5
B517
330
18
100
AcDbEntity
  8
1
 48
0.5
100
AcDbLine
 10
1608.481312048024
 20
-121.8935626264893
 30
0.0
 11
1608.481312048024
 21
-120.8935626264893
 31
0.0
  0
ARC
  5
B518
330
18
100
AcDbEntity
  8
1
 48
0.5
100
AcDbCircle
 10
1607.981312048024
 20
-121.8935626264893
 30
0.0
 40
1.0
100
AcDbArc
 50
270.0
 51
0.0
  0
ARC
  5
B519
330
18
100
AcDbEntity
  8
1
 48
0.5
100
AcDbCircle
 10
1607.981312048024
 20
-121.8935626264893
 30
0.0
 40
0.5
100
AcDbArc
 50
270.0
 51
0.0
  0
LINE
  5
B51A
330
18
100
AcDbEntity
  8
1
 48
0.5
100
AcDbLine
 10
1606.731312048024
 20
-123.2935626264893
 30
0.0
 11
1606.731312048024
 21
-122.8935626264893
 31
0.0
  0
LINE
  5
B51B
330
18
100
AcDbEntity
  8
1
 48
0.5
100
AcDbLine
 10
1606.231312048024
 20
-123.2935626264893
 30
0.0
 11
1606.231312048024
 21
-122.3935626264893
 31
0.0
  0
LINE
  5
B51C
330
18
100
AcDbEntity
  8
1
 48
0.5
100
AcDbLine
 10
1604.631312048024
 20
-123.2935626264893
 30
0.0
 11
1604.631312048024
 21
-122.3935626264893
 31
0.0
  0
LINE
  5
B51D
330
18
100
AcDbEntity
  8
1
 48
0.5
100
AcDbLine
 10
1604.131312048024
 20
-122.8935626264893
 30
0.0
 11
1601.531312048024
 21
-122.8935626264895
 31
0.0
  0
ARC
  5
B51E
330
18
100
AcDbEntity
  8
1
100
AcDbCircle
 10
1610.331312048024
 20
-120.8935626264893
 30
0.0
 40
0.4000000000000199
100
AcDbArc
 50
270.0
 51
90.0
  0
LINE
  5
B51F
330
18
100
AcDbEntity
  8
1
100
AcDbLine
 10
1610.331312048024
 20
-121.2935626264893
 30
0.0
 11
1608.981312048024
 21
-121.2935626264893
 31
0.0
  0
LINE
  5
B520
330
18
100
AcDbEntity
  8
1
100
AcDbLine
 10
1608.981312048024
 20
-121.8935626264893
 30
0.0
 11
1608.981312048024
 21
-121.2935626264893
 31
0.0
  0
LINE
  5
B521
330
18
100
AcDbEntity
  8
1
 48
0.5
100
AcDbLine
 10
1604.131312048024
 20
-123.2935626264893
 30
0.0
 11
1604.131312048024
 21
-122.8935626264893
 31
0.0
  0
ARC
  5
B522
330
18
100
AcDbEntity
  8
1
100
AcDbCircle
 10
1605.431312048024
 20
-123.2935626264893
 30
0.0
 40
1.299999999999932
100
AcDbArc
 50
180.0000000000032
 51
359.9999999999951
  0
ARC
  5
B523
330
18
100
AcDbEntity
  8
1
100
AcDbCircle
 10
1605.431312048024
 20
-123.2935626264893
 30
0.0
 40
0.7999999999999332
100
AcDbArc
 50
180.0
 51
0.0
  0
LINE
  5
B524
330
18
100
AcDbEntity
  8
1
100
AcDbLine
 10
1604.631312048024
 20
-122.3935626264893
 30
0.0
 11
1601.531312048024
 21
-122.3935626264893
 31
0.0
  0
LINE
  5
B525
330
18
100
AcDbEntity
  8
1
100
AcDbLine
 10
1576.496131867374
 20
-120.4935626264893
 30
0.0
 11
726.4961318673738
 21
-120.493562626488
 31
0.0
  0
LINE
  5
B526
330
18
100
AcDbEntity
  8
1
100
AcDbLine
 10
1576.496131867374
 20
-129.4935626264893
 30
0.0
 11
726.4961318673738
 21
-129.4935626264897
 31
0.0
  0
LINE
  5
B527
330
18
100
AcDbEntity
  8
1
100
AcDbLine
 10
1576.496131867374
 20
-129.4935626264894
 30
0.0
 11
1576.496131867374
 21
-120.4935626264893
 31
0.0
  0
LINE
  5
B528
330
18
100
AcDbEntity
  8
1
100
AcDbLine
 10
726.4961318673738
 20
-129.4935626264889
 30
0.0
 11
726.4961318673738
 21
-120.4935626264888
 31
0.0
  0
LINE
  5
B529
330
18
100
AcDbEntity
  8
1
100
AcDbLine
 10
1576.496131867374
 20
-121.2935626264893
 30
0.0
 11
726.4961318673738
 21
-121.2935626264874
 31
0.0
  0
LINE
  5
B52A
330
18
100
AcDbEntity
  8
1
100
AcDbLine
 10
1576.496131867374
 20
-122.8935626264893
 30
0.0
 11
726.4961318673738
 21
-122.8935626264893
 31
0.0
  0
LINE
  5
B52B
330
18
100
AcDbEntity
  8
1
100
AcDbLine
 10
1576.496131867374
 20
-124.5935626264893
 30
0.0
 11
726.4961318673738
 21
-124.593562626487
 31
0.0
  0
DIMENSION
  5
B52C
330
18
100
AcDbEntity
  8
2
100
AcDbDimension
  2
*D0
 10
1576.496131867374
 20
-115.0409182099203
 30
0.0
 11
1151.496131867374
 21
-112.5409182099203
 31
0.0
 70
    32
 71
     5
 42
850.0000000000001
  3
×1
100
AcDbAlignedDimension
 13
726.4961318673738
 23
-120.4935626264888
 33
0.0
 14
1576.496131867374
 24
-120.4935626264892
 34
0.0
100
AcDbRotatedDimension
1001
ACAD
1000
DSTYLE
1002
{
1070
    40
1040
1.0
1002
}
  0
DIMENSION
  5
B52D
330
18
100
AcDbEntity
  8
2
100
AcDbDimension
  2
*D1
 10
1590.731312048024
 20
-115.0409182099203
 30
0.0
 11
1600.731312048024
 21
-112.5409182099203
 31
0.0
 70
    32
 71
     5
 42
19.99999999999977
  3
×1
100
AcDbAlignedDimension
 13
1610.731312048024
 23
-120.8935626264893
 33
0.0
 14
1590.731312048024
 24
-120.8935626264893
 34
0.0
100
AcDbRotatedDimension
1001
ACAD
1000
DSTYLE
1002
{
1070
    40
1040
1.0
1002
}
  0
DIMENSION
  5
B52E
330
18
100
AcDbEntity
  8
2
100
AcDbDimension
  2
*D2
 10
1616.212648450263
 20
-129.4935626264893
 30
0.0
 11
1613.712648450263
 21
-124.993562626489
 31
0.0
 70
    32
 71
     5
 42
9.0
  3
×1
100
AcDbAlignedDimension
 13
1610.331312048024
 23
-120.4935626264893
 33
0.0
 14
1601.531312048024
 24
-129.4935626264893
 34
0.0
 50
90.0
100
AcDbRotatedDimension
1001
ACAD
1000
DSTYLE
1002
{
1070
    40
1040
1.0
1002
}
  0
TEXT
  5
B5CE
330
18
100
AcDbEntity
  8
2
 62
     1
100
AcDbText
 10
1606.159933828831
 20
-143.104647747652
 30
0.0
 40
3.5
  1
DATE2020.5.1
  7
BIGFONT
100
AcDbText
  0
TEXT
  5
B5D2
330
18
100
AcDbEntity
  8
2
 62
     1
100
AcDbText
 10
707.9145291984787
 20
-92.1184245348842
 30
0.0
 40
4.0
  1

  7
BIGFONT
100
AcDbText
  0
ENDSEC
  0
SECTION
  2
OBJECTS
  0
DICTIONARY
  5
C
330
0
100
AcDbDictionary
281
     1
  3
ACAD_COLOR
350
A12D
  3
ACAD_GROUP
350
D
  3
ACAD_IMAGE_DICT
350
A0F4
  3
ACAD_IMAGE_VARS
350
A0EC
  3
ACAD_LAYOUT
350
1C62
  3
ACAD_MATERIAL
350
A103
  3
ACAD_MLEADERSTYLE
350
A130
  3
ACAD_MLINESTYLE
350
E
  3
ACAD_PLOTSETTINGS
350
1C63
  3
ACAD_PLOTSTYLENAME
350
1C60
  3
ACAD_SCALELIST
350
9FA7
  3
ACAD_TABLESTYLE
350
A12E
  3
ACAD_VISUALSTYLE
350
A11C
  3
AcadDim
350
2219
  3
ACDB_RECOMPOSE_DATA
350
9FE1
  3
AcDbVariableDictionary
350
1237
  3
APPDATA
350
A0EB
  3
CONTENTDICTIONARY
350
322
  3
DWGPROPS
350
B5F0
  0
DICTIONARY
  5
B130
330
8
100
AcDbDictionary
280
     1
281
     1
  0
DICTIONARY
  5
A0A3
330
2
100
AcDbDictionary
280
     1
281
     1
  3
ACAD_LAYERFILTERS
360
A0DF
  3
ACAD_LAYERSTATES
360
A0ED
  3
ACLYDICTIONARY
360
A0DE
  0
DICTIONARY
  5
9FD1
330
F
100
AcDbDictionary
280
     1
281
     1
  3
ADSK_XREC_LAYER_RECONCILED
360
9FD2
  0
DICTIONARY
  5
9FD3
330
526
100
AcDbDictionary
280
     1
281
     1
  3
ADSK_XREC_LAYER_RECONCILED
360
9FD4
  0
DICTIONARY
  5
9FD5
330
138F
100
AcDbDictionary
280
     1
281
     1
  3
ADSK_XREC_LAYER_RECONCILED
360
9FD6
  0
DICTIONARY
  5
9FD7
330
1390
100
AcDbDictionary
280
     1
281
     1
  3
ADSK_XREC_LAYER_RECONCILED
360
9FD8
  0
DICTIONARY
  5
9ACC
330
18
100
AcDbDictionary
280
     1
281
     1
  3
ACAD_SORTENTS
360
9ACD
  0
DICTIONARY
  5
A12D
102
{ACAD_REACTORS
330
C
102
}
330
C
100
AcDbDictionary
281
     1
  0
DICTIONARY
  5
D
102
{ACAD_REACTORS
330
C
102
}
330
C
100
AcDbDictionary
281
     1
  0
DICTIONARY
  5
A0F4
102
{ACAD_REACTORS
330
C
102
}
330
C
100
AcDbDictionary
281
     1
  3
新しい画像 (7)
350
A0F6
  0
RASTERVARIABLES
  5
A0EC
102
{ACAD_REACTORS
330
C
102
}
330
C
100
AcDbRasterVariables
 90
        0
 70
     1
 71
     1
 72
     0
  0
DICTIONARY
  5
1C62
102
{ACAD_REACTORS
330
C
102
}
330
C
100
AcDbDictionary
281
     1
  3
Model
350
1C64
  3
ﾚｲｱｳﾄ1
350
1C65
  0
DICTIONARY
  5
A103
102
{ACAD_REACTORS
330
C
102
}
330
C
100
AcDbDictionary
281
     1
  3
ByBlock
350
A10C
  3
ByLayer
350
A104
  3
Global
350
A114
  0
DICTIONARY
  5
A130
102
{ACAD_REACTORS
330
C
102
}
330
C
100
AcDbDictionary
281
     1
  3
Standard
350
A131
  0
DICTIONARY
  5
E
102
{ACAD_REACTORS
330
C
102
}
330
C
100
AcDbDictionary
281
     1
  3
STANDARD
350
1B
  0
DICTIONARY
  5
1C63
102
{ACAD_REACTORS
330
C
102
}
330
C
100
AcDbDictionary
281
     1
  0
ACDBDICTIONARYWDFLT
  5
1C60
102
{ACAD_REACTORS
330
C
102
}
330
C
100
AcDbDictionary
281
     1
  3
Normal
350
1C61
100
AcDbDictionaryWithDefault
340
1C61
  0
DICTIONARY
  5
9FA7
102
{ACAD_REACTORS
330
C
102
}
330
C
100
AcDbDictionary
281
     1
  3
A0
350
9FA8
  3
A1
350
9FA9
  3
A2
350
9FAA
  3
A3
350
9FAB
  3
A4
350
9FAC
  3
A5
350
9FAD
  3
A6
350
9FAE
  3
A7
350
9FAF
  3
A8
350
9FB0
  3
A9
350
9FB1
  3
B0
350
9FB2
  3
B1
350
9FB3
  3
B2
350
9FB4
  3
B3
350
9FB5
  3
B4
350
9FB6
  3
B5
350
9FB7
  3
B6
350
9FB8
  3
B7
350
9FB9
  3
B8
350
9FBA
  3
B9
350
9FBB
  3
C0
350
9FBC
  3
C1
350
9FBD
  3
C2
350
9FBE
  3
C3
350
9FBF
  3
C4
350
9FC0
  3
C5
350
9FC1
  3
C6
350
9FC2
  3
C7
350
9FC3
  3
C8
350
9FC4
  3
C9
350
9FC5
  3
D0
350
9FC6
  3
D1
350
9FC7
  3
D2
350
9FC8
  0
DICTIONARY
  5
A12E
102
{ACAD_REACTORS
330
C
102
}
330
C
100
AcDbDictionary
281
     1
  3
Standard
350
A12F
  0
DICTIONARY
  5
A11C
102
{ACAD_REACTORS
330
C
102
}
330
C
100
AcDbDictionary
281
     1
  3
2dWireframe
350
A122
  3
3D Hidden
350
A124
  3
3dWireframe
350
A123
  3
Basic
350
A121
  3
Brighten
350
A128
  3
ColorChange
350
A12C
  3
Conceptual
350
A125
  3
Dim
350
A127
  3
Facepattern
350
A12B
  3
Flat
350
A11D
  3
FlatWithEdges
350
A11E
  3
Gouraud
350
A11F
  3
GouraudWithEdges
350
A120
  3
Linepattern
350
A12A
  3
Realistic
350
A126
  3
Thicken
350
A129
  0
XRECORD
  5
2219
102
{ACAD_REACTORS
330
C
102
}
330
C
100
AcDbXrecord
280
     1
 90
   990106
  3

 60
     4
 61
     0
 62
     1
 63
     3
 64
     0
 65
     0
 66
     1
 67
     3
 68
     1
 69
     0
 70
     0
 71
     0
 72
     0
 40
0.0
170
     1
  0
XRECORD
  5
9FE1
102
{ACAD_REACTORS
330
C
102
}
330
C
100
AcDbXrecord
280
     1
 90
        1
330
A12F
  0
DICTIONARY
  5
1237
102
{ACAD_REACTORS
330
C
102
}
330
C
100
AcDbDictionary
281
     1
  3
CANNOSCALE
350
A101
  3
CMLEADERSTYLE
350
A2B4
  3
CTABLESTYLE
350
A2B3
  3
DIMASSOC
350
9CC6
  3
INDEXCTL
350
9CC5
  3
SORTENTS
350
1238
  0
DICTIONARY
  5
A0EB
102
{ACAD_REACTORS
330
C
102
}
330
C
100
AcDbDictionary
281
     1
  0
DICTIONARY
  5
322
102
{ACAD_REACTORS
330
C
102
}
330
C
100
AcDbDictionary
281
     1
  0
XRECORD
  5
B5F0
102
{ACAD_REACTORS
330
C
102
}
330
C
100
AcDbXrecord
280
     1
  1
DWGPROPS COOKIE
  2

  3

  4

  6

  7

  8
yutaka.oda
  9

300
=
301
=
302
=
303
=
304
=
305
=
306
=
307
=
308
=
309
=
 40
0.6289603703703703
 41
2452836.755218414
 42
2456210.606334086
  1

 90
        0
  0
DICTIONARY
  5
A0DF
102
{ACAD_REACTORS
330
A0A3
102
}
330
A0A3
100
AcDbDictionary
281
     1
  0
DICTIONARY
  5
A0ED
102
{ACAD_REACTORS
330
A0A3
102
}
330
A0A3
100
AcDbDictionary
281
     1
  3
ARGON_LAYERP_1
350
A0EE
  0
DICTIONARY
  5
A0DE
102
{ACAD_REACTORS
330
A0A3
102
}
330
A0A3
100
AcDbDictionary
281
     1
1001
ACAD
1000
<All
  0
XRECORD
  5
9FD2
102
{ACAD_REACTORS
330
9FD1
102
}
330
9FD1
100
AcDbXrecord
280
     1
290
     1
  0
XRECORD
  5
9FD4
102
{ACAD_REACTORS
330
9FD3
102
}
330
9FD3
100
AcDbXrecord
280
     1
290
     1
  0
XRECORD
  5
9FD6
102
{ACAD_REACTORS
330
9FD5
102
}
330
9FD5
100
AcDbXrecord
280
     1
290
     1
  0
XRECORD
  5
9FD8
102
{ACAD_REACTORS
330
9FD7
102
}
330
9FD7
100
AcDbXrecord
280
     1
290
     1
  0
SORTENTSTABLE
  5
9ACD
102
{ACAD_REACTORS
330
9ACC
102
}
330
9ACC
100
AcDbSortentsTable
330
18
331
218A
  5
218A
331
FE2
  5
FE2
331
FDF
  5
FDF
  0
IMAGEDEF
  5
A0F6
102
{ACAD_REACTORS
330
A0F4
102
}
330
A0F4
100
AcDbRasterImageDef
 90
        0
  1
D:\My Documents\My Pictures\新しい画像 (7).bmp
 10
736.0
 20
463.0
 11
0.0013586956521739
 21
0.0013586956521739
280
     1
281
     0
  0
LAYOUT
  5
1C64
102
{ACAD_XDICTIONARY
360
B5F1
102
}
102
{ACAD_REACTORS
330
1C62
102
}
330
1C62
100
AcDbPlotSettings
  1

  2
EPSON LP-8900.pc3
  4
A3
  6

 40
5.873749732971191
 41
5.873747825622557
 42
5.873748779296875
 43
5.873748779296875
 44
297.0106506347656
 45
419.9466552734373
 46
-10.64
 47
0.51
 48
190.4169537375563
 49
284.6621781964941
140
597.6008585168202
141
591.2146139738211
142
1.0
143
1.0
 70
 11956
 72
     1
 73
     1
 74
     4
  7
canon00.ctb
 75
    16
147
1.0
148
-190.4169537375563
149
-284.6621781964941
100
AcDbLayout
  1
Model
 70
     1
 71
     0
 10
0.0
 20
0.0
 11
12.0
 21
9.0
 12
0.0
 22
0.0
 32
0.0
 14
0.0
 24
0.0
 34
0.0
 15
0.0
 25
0.0
 35
0.0
146
0.0
 13
0.0
 23
0.0
 33
0.0
 16
1.0
 26
0.0
 36
0.0
 17
0.0
 27
1.0
 37
0.0
 76
     0
330
18
331
8F41
  0
LAYOUT
  5
1C65
102
{ACAD_XDICTIONARY
360
B5F3
102
}
102
{ACAD_REACTORS
330
1C62
102
}
330
1C62
100
AcDbPlotSettings
  1

  2
\\TECH-SERVER\Canon
  4

  6

 40
0.0
 41
0.0
 42
0.0
 43
0.0
 44
0.0
 45
0.0
 46
0.0
 47
0.0
 48
0.0
 49
0.0
140
0.0
141
0.0
142
1.0
143
1.0
 70
   688
 72
     0
 73
     0
 74
     5
  7
030127.ctb
 75
    16
147
1.0
148
0.0
149
0.0
100
AcDbLayout
  1
ﾚｲｱｳﾄ1
 70
     1
 71
     1
 10
0.0
 20
0.0
 11
420.0
 21
297.0
 12
0.0
 22
0.0
 32
0.0
 14
1.000000000000000E+20
 24
1.000000000000000E+20
 34
1.000000000000000E+20
 15
-1.000000000000000E+20
 25
-1.000000000000000E+20
 35
-1.000000000000000E+20
146
0.0
 13
0.0
 23
0.0
 33
0.0
 16
1.0
 26
0.0
 36
0.0
 17
0.0
 27
1.0
 37
0.0
 76
     0
330
15
  0
MATERIAL
  5
A10C
102
{ACAD_XDICTIONARY
360
A10D
102
}
102
{ACAD_REACTORS
330
A103
102
}
330
A103
100
AcDbMaterial
  1
ByBlock
 72
     0
 43
0.0208333333333333
 43
0.0
 43
0.0
 43
0.0
 43
0.0
 43
0.0208333333333333
 43
0.0
 43
0.0
 43
0.0
 43
0.0
 43
1.0
 43
0.0
 43
0.0
 43
0.0
 43
0.0
 43
1.0
 77
     0
 47
0.0208333333333333
 47
0.0
 47
0.0
 47
0.0
 47
0.0
 47
0.0208333333333333
 47
0.0
 47
0.0
 47
0.0
 47
0.0
 47
1.0
 47
0.0
 47
0.0
 47
0.0
 47
0.0
 47
1.0
171
     0
 49
0.0208333333333333
 49
0.0
 49
0.0
 49
0.0
 49
0.0
 49
0.0208333333333333
 49
0.0
 49
0.0
 49
0.0
 49
0.0
 49
1.0
 49
0.0
 49
0.0
 49
0.0
 49
0.0
 49
1.0
175
     0
142
0.0208333333333333
142
0.0
142
0.0
142
0.0
142
0.0
142
0.0208333333333333
142
0.0
142
0.0
142
0.0
142
0.0
142
1.0
142
0.0
142
0.0
142
0.0
142
0.0
142
1.0
179
     0
144
0.0208333333333333
144
0.0
144
0.0
144
0.0
144
0.0
144
0.0208333333333333
144
0.0
144
0.0
144
0.0
144
0.0
144
1.0
144
0.0
144
0.0
144
0.0
144
0.0
144
1.0
147
0.0208333333333333
147
0.0
147
0.0
147
0.0
147
0.0
147
0.0208333333333333
147
0.0
147
0.0
147
0.0
147
0.0
147
1.0
147
0.0
147
0.0
147
0.0
147
0.0
147
1.0
  0
MATERIAL
  5
A104
102
{ACAD_XDICTIONARY
360
A105
102
}
102
{ACAD_REACTORS
330
A103
102
}
330
A103
100
AcDbMaterial
  1
ByLayer
 72
     0
 43
0.0208333333333333
 43
0.0
 43
0.0
 43
0.0
 43
0.0
 43
0.0208333333333333
 43
0.0
 43
0.0
 43
0.0
 43
0.0
 43
1.0
 43
0.0
 43
0.0
 43
0.0
 43
0.0
 43
1.0
 77
     0
 47
0.0208333333333333
 47
0.0
 47
0.0
 47
0.0
 47
0.0
 47
0.0208333333333333
 47
0.0
 47
0.0
 47
0.0
 47
0.0
 47
1.0
 47
0.0
 47
0.0
 47
0.0
 47
0.0
 47
1.0
171
     0
 49
0.0208333333333333
 49
0.0
 49
0.0
 49
0.0
 49
0.0
 49
0.0208333333333333
 49
0.0
 49
0.0
 49
0.0
 49
0.0
 49
1.0
 49
0.0
 49
0.0
 49
0.0
 49
0.0
 49
1.0
175
     0
142
0.0208333333333333
142
0.0
142
0.0
142
0.0
142
0.0
142
0.0208333333333333
142
0.0
142
0.0
142
0.0
142
0.0
142
1.0
142
0.0
142
0.0
142
0.0
142
0.0
142
1.0
179
     0
144
0.0208333333333333
144
0.0
144
0.0
144
0.0
144
0.0
144
0.0208333333333333
144
0.0
144
0.0
144
0.0
144
0.0
144
1.0
144
0.0
144
0.0
144
0.0
144
0.0
144
1.0
147
0.0208333333333333
147
0.0
147
0.0
147
0.0
147
0.0
147
0.0208333333333333
147
0.0
147
0.0
147
0.0
147
0.0
147
1.0
147
0.0
147
0.0
147
0.0
147
0.0
147
1.0
  0
MATERIAL
  5
A114
102
{ACAD_XDICTIONARY
360
A115
102
}
102
{ACAD_REACTORS
330
A103
102
}
330
A103
100
AcDbMaterial
  1
Global
 72
     0
 43
0.0208333333333333
 43
0.0
 43
0.0
 43
0.0
 43
0.0
 43
0.0208333333333333
 43
0.0
 43
0.0
 43
0.0
 43
0.0
 43
1.0
 43
0.0
 43
0.0
 43
0.0
 43
0.0
 43
1.0
 77
     0
 47
0.0208333333333333
 47
0.0
 47
0.0
 47
0.0
 47
0.0
 47
0.0208333333333333
 47
0.0
 47
0.0
 47
0.0
 47
0.0
 47
1.0
 47
0.0
 47
0.0
 47
0.0
 47
0.0
 47
1.0
171
     0
 49
0.0208333333333333
 49
0.0
 49
0.0
 49
0.0
 49
0.0
 49
0.0208333333333333
 49
0.0
 49
0.0
 49
0.0
 49
0.0
 49
1.0
 49
0.0
 49
0.0
 49
0.0
 49
0.0
 49
1.0
175
     0
142
0.0208333333333333
142
0.0
142
0.0
142
0.0
142
0.0
142
0.0208333333333333
142
0.0
142
0.0
142
0.0
142
0.0
142
1.0
142
0.0
142
0.0
142
0.0
142
0.0
142
1.0
179
     0
144
0.0208333333333333
144
0.0
144
0.0
144
0.0
144
0.0
144
0.0208333333333333
144
0.0
144
0.0
144
0.0
144
0.0
144
1.0
144
0.0
144
0.0
144
0.0
144
0.0
144
1.0
147
0.0208333333333333
147
0.0
147
0.0
147
0.0
147
0.0
147
0.0208333333333333
147
0.0
147
0.0
147
0.0
147
0.0
147
1.0
147
0.0
147
0.0
147
0.0
147
0.0
147
1.0
  0
MLEADERSTYLE
  5
A131
102
{ACAD_REACTORS
330
A130
102
}
330
A130
100
AcDbMLeaderStyle
170
     2
171
     1
172
     0
 90
        2
 40
0.0
 41
0.0
173
     1
 91
-1056964608
340
12
 92
       -2
290
     1
 42
2.0
291
     1
 43
0.36
  3
Standard
 44
4.0
300

342
10
174
     1
178
     6
175
     1
176
     0
 93
-1056964608
 45
4.0
292
     0
297
     0
 46
4.0
 94
-1056964608
 47
1.0
 49
1.0
140
1.0
293
     1
141
0.0
294
     1
177
     0
142
1.0
295
     0
296
     0
143
0.125
1001
ACAD_MLEADERVER
1070
     2
  0
MLINESTYLE
  5
1B
102
{ACAD_REACTORS
330
E
102
}
330
E
100
AcDbMlineStyle
  2
STANDARD
 70
     0
  3

 62
     0
 51
90.0
 52
90.0
 71
     2
 49
0.5
 62
   256
  6
BYLAYER
 49
-0.5
 62
   256
  6
BYLAYER
  0
ACDBPLACEHOLDER
  5
1C61
102
{ACAD_REACTORS
330
1C60
102
}
330
1C60
  0
SCALE
  5
9FA8
102
{ACAD_REACTORS
330
9FA7
102
}
330
9FA7
100
AcDbScale
 70
     0
300
1:1
140
1.0
141
1.0
290
     1
  0
SCALE
  5
9FA9
102
{ACAD_REACTORS
330
9FA7
102
}
330
9FA7
100
AcDbScale
 70
     0
300
1:2
140
1.0
141
2.0
290
     0
  0
SCALE
  5
9FAA
102
{ACAD_REACTORS
330
9FA7
102
}
330
9FA7
100
AcDbScale
 70
     0
300
1:4
140
1.0
141
4.0
290
     0
  0
SCALE
  5
9FAB
102
{ACAD_REACTORS
330
9FA7
102
}
330
9FA7
100
AcDbScale
 70
     0
300
1:5
140
1.0
141
5.0
290
     0
  0
SCALE
  5
9FAC
102
{ACAD_REACTORS
330
9FA7
102
}
330
9FA7
100
AcDbScale
 70
     0
300
1:8
140
1.0
141
8.0
290
     0
  0
SCALE
  5
9FAD
102
{ACAD_REACTORS
330
9FA7
102
}
330
9FA7
100
AcDbScale
 70
     0
300
1:10
140
1.0
141
10.0
290
     0
  0
SCALE
  5
9FAE
102
{ACAD_REACTORS
330
9FA7
102
}
330
9FA7
100
AcDbScale
 70
     0
300
1:16
140
1.0
141
16.0
290
     0
  0
SCALE
  5
9FAF
102
{ACAD_REACTORS
330
9FA7
102
}
330
9FA7
100
AcDbScale
 70
     0
300
1:20
140
1.0
141
20.0
290
     0
  0
SCALE
  5
9FB0
102
{ACAD_REACTORS
330
9FA7
102
}
330
9FA7
100
AcDbScale
 70
     0
300
1:30
140
1.0
141
30.0
290
     0
  0
SCALE
  5
9FB1
102
{ACAD_REACTORS
330
9FA7
102
}
330
9FA7
100
AcDbScale
 70
     0
300
1:40
140
1.0
141
40.0
290
     0
  0
SCALE
  5
9FB2
102
{ACAD_REACTORS
330
9FA7
102
}
330
9FA7
100
AcDbScale
 70
     0
300
1:50
140
1.0
141
50.0
290
     0
  0
SCALE
  5
9FB3
102
{ACAD_REACTORS
330
9FA7
102
}
330
9FA7
100
AcDbScale
 70
     0
300
1:100
140
1.0
141
100.0
290
     0
  0
SCALE
  5
9FB4
102
{ACAD_REACTORS
330
9FA7
102
}
330
9FA7
100
AcDbScale
 70
     0
300
2:1
140
2.0
141
1.0
290
     0
  0
SCALE
  5
9FB5
102
{ACAD_REACTORS
330
9FA7
102
}
330
9FA7
100
AcDbScale
 70
     0
300
4:1
140
4.0
141
1.0
290
     0
  0
SCALE
  5
9FB6
102
{ACAD_REACTORS
330
9FA7
102
}
330
9FA7
100
AcDbScale
 70
     0
300
8:1
140
8.0
141
1.0
290
     0
  0
SCALE
  5
9FB7
102
{ACAD_REACTORS
330
9FA7
102
}
330
9FA7
100
AcDbScale
 70
     0
300
10:1
140
10.0
141
1.0
290
     0
  0
SCALE
  5
9FB8
102
{ACAD_REACTORS
330
9FA7
102
}
330
9FA7
100
AcDbScale
 70
     0
300
100:1
140
100.0
141
1.0
290
     0
  0
SCALE
  5
9FB9
102
{ACAD_REACTORS
330
9FA7
102
}
330
9FA7
100
AcDbScale
 70
     0
300
1/128" = 1'-0"
140
0.0078125
141
12.0
290
     0
  0
SCALE
  5
9FBA
102
{ACAD_REACTORS
330
9FA7
102
}
330
9FA7
100
AcDbScale
 70
     0
300
1/64" = 1'-0"
140
0.015625
141
12.0
290
     0
  0
SCALE
  5
9FBB
102
{ACAD_REACTORS
330
9FA7
102
}
330
9FA7
100
AcDbScale
 70
     0
300
1/32" = 1'-0"
140
0.03125
141
12.0
290
     0
  0
SCALE
  5
9FBC
102
{ACAD_REACTORS
330
9FA7
102
}
330
9FA7
100
AcDbScale
 70
     0
300
1/16" = 1'-0"
140
0.0625
141
12.0
290
     0
  0
SCALE
  5
9FBD
102
{ACAD_REACTORS
330
9FA7
102
}
330
9FA7
100
AcDbScale
 70
     0
300
3/32" = 1'-0"
140
0.09375
141
12.0
290
     0
  0
SCALE
  5
9FBE
102
{ACAD_REACTORS
330
9FA7
102
}
330
9FA7
100
AcDbScale
 70
     0
300
1/8" = 1'-0"
140
0.125
141
12.0
290
     0
  0
SCALE
  5
9FBF
102
{ACAD_REACTORS
330
9FA7
102
}
330
9FA7
100
AcDbScale
 70
     0
300
3/16" = 1'-0"
140
0.1875
141
12.0
290
     0
  0
SCALE
  5
9FC0
102
{ACAD_REACTORS
330
9FA7
102
}
330
9FA7
100
AcDbScale
 70
     0
300
1/4" = 1'-0"
140
0.25
141
12.0
290
     0
  0
SCALE
  5
9FC1
102
{ACAD_REACTORS
330
9FA7
102
}
330
9FA7
100
AcDbScale
 70
     0
300
3/8" = 1'-0"
140
0.375
141
12.0
290
     0
  0
SCALE
  5
9FC2
102
{ACAD_REACTORS
330
9FA7
102
}
330
9FA7
100
AcDbScale
 70
     0
300
1/2" = 1'-0"
140
0.5
141
12.0
290
     0
  0
SCALE
  5
9FC3
102
{ACAD_REACTORS
330
9FA7
102
}
330
9FA7
100
AcDbScale
 70
     0
300
3/4" = 1'-0"
140
0.75
141
12.0
290
     0
  0
SCALE
  5
9FC4
102
{ACAD_REACTORS
330
9FA7
102
}
330
9FA7
100
AcDbScale
 70
     0
300
1" = 1'-0"
140
1.0
141
12.0
290
     0
  0
SCALE
  5
9FC5
102
{ACAD_REACTORS
330
9FA7
102
}
330
9FA7
100
AcDbScale
 70
     0
300
1-1/2" = 1'-0"
140
1.5
141
12.0
290
     0
  0
SCALE
  5
9FC6
102
{ACAD_REACTORS
330
9FA7
102
}
330
9FA7
100
AcDbScale
 70
     0
300
3" = 1'-0"
140
3.0
141
12.0
290
     0
  0
SCALE
  5
9FC7
102
{ACAD_REACTORS
330
9FA7
102
}
330
9FA7
100
AcDbScale
 70
     0
300
6" = 1'-0"
140
6.0
141
12.0
290
     0
  0
SCALE
  5
9FC8
102
{ACAD_REACTORS
330
9FA7
102
}
330
9FA7
100
AcDbScale
 70
     0
300
1'-0" = 1'-0"
140
12.0
141
12.0
290
     0
  0
TABLESTYLE
  5
A12F
102
{ACAD_XDICTIONARY
360
A2B5
102
}
102
{ACAD_REACTORS
330
A12E
102
}
330
A12E
100
AcDbTableStyle
  3
Standard
 70
     0
 71
     0
 40
1.5
 41
1.5
280
     0
281
     0
  7
STANDARD
140
4.5
170
     2
 62
     0
 63
     7
283
     0
274
    -2
284
     1
 64
     0
275
    -2
285
     1
 65
     0
276
    -2
286
     1
 66
     0
277
    -2
287
     1
 67
     0
278
    -2
288
     1
 68
     0
279
    -2
289
     1
 69
     0
  7
STANDARD
140
6.0
170
     5
 62
     0
 63
     7
283
     0
274
    -2
284
     1
 64
     0
275
    -2
285
     1
 65
     0
276
    -2
286
     1
 66
     0
277
    -2
287
     1
 67
     0
278
    -2
288
     1
 68
     0
279
    -2
289
     1
 69
     0
  7
STANDARD
140
4.5
170
     5
 62
     0
 63
     7
283
     0
274
    -2
284
     1
 64
     0
275
    -2
285
     1
 65
     0
276
    -2
286
     1
 66
     0
277
    -2
287
     1
 67
     0
278
    -2
288
     1
 68
     0
279
    -2
289
     1
 69
     0
  0
VISUALSTYLE
  5
A122
102
{ACAD_REACTORS
330
A11C
102
}
330
A11C
100
AcDbVisualStyle
  2
2dWireframe
 70
     4
 71
     0
 72
     2
 73
     0
 90
        0
 40
-0.6
 41
-30.0
 62
     5
 63
     7
 74
     1
 91
        4
 64
     7
 65
   257
 75
     1
175
     1
 42
1.0
 92
        0
 66
   257
 43
1.0
 76
     1
 77
     6
 78
     2
 67
     7
 79
     5
170
     0
171
     0
290
     0
174
     0
 93
        1
 44
0.0
173
     0
291
     0
 45
0.0
1001
ACAD
1000
AcDbSavedByObjectVersion
1070
     0
1000
AcDbSavedByObjectVersion
1070
     0
1000
AcDbSavedByObjectVersion
1070
     0
1000
AcDbSavedByObjectVersion
1070
     0
1000
AcDbSavedByObjectVersion
1070
     0
1000
AcDbSavedByObjectVersion
1070
     0
1000
AcDbSavedByObjectVersion
1070
     0
1000
AcDbSavedByObjectVersion
1070
     0
  0
VISUALSTYLE
  5
A124
102
{ACAD_REACTORS
330
A11C
102
}
330
A11C
100
AcDbVisualStyle
  2
3D Hidden
 70
     6
 71
     1
 72
     2
 73
     2
 90
        0
 40
-0.6
 41
-30.0
 62
     5
 63
     7
 74
     2
 91
        2
 64
     7
 65
   257
 75
     2
175
     1
 42
40.0
 92
        0
 66
   257
 43
1.0
 76
     1
 77
     6
 78
     2
 67
     7
 79
     3
170
     0
171
     0
290
     0
174
     0
 93
        1
 44
0.0
173
     0
291
     0
 45
0.0
1001
ACAD
1000
AcDbSavedByObjectVersion
1070
     0
1000
AcDbSavedByObjectVersion
1070
     0
1000
AcDbSavedByObjectVersion
1070
     0
1000
AcDbSavedByObjectVersion
1070
     0
1000
AcDbSavedByObjectVersion
1070
     0
1000
AcDbSavedByObjectVersion
1070
     0
1000
AcDbSavedByObjectVersion
1070
     0
1000
AcDbSavedByObjectVersion
1070
     0
  0
VISUALSTYLE
  5
A123
102
{ACAD_REACTORS
330
A11C
102
}
330
A11C
100
AcDbVisualStyle
  2
3dWireframe
 70
     5
 71
     0
 72
     2
 73
     0
 90
        0
 40
-0.6
 41
-30.0
 62
     5
 63
     7
 74
     1
 91
        4
 64
     7
 65
   257
 75
     1
175
     1
 42
1.0
 92
        0
 66
   257
 43
1.0
 76
     1
 77
     6
 78
     2
 67
     7
 79
     5
170
     0
171
     0
290
     0
174
     0
 93
        1
 44
0.0
173
     0
291
     0
 45
0.0
1001
ACAD
1000
AcDbSavedByObjectVersion
1070
     0
1000
AcDbSavedByObjectVersion
1070
     0
1000
AcDbSavedByObjectVersion
1070
     0
1000
AcDbSavedByObjectVersion
1070
     0
1000
AcDbSavedByObjectVersion
1070
     0
1000
AcDbSavedByObjectVersion
1070
     0
1000
AcDbSavedByObjectVersion
1070
     0
1000
AcDbSavedByObjectVersion
1070
     0
  0
VISUALSTYLE
  5
A121
102
{ACAD_REACTORS
330
A11C
102
}
330
A11C
100
AcDbVisualStyle
  2
Basic
 70
     7
 71
     1
 72
     0
 73
     1
 90
        0
 40
-0.6
 41
-30.0
 62
     5
 63
     7
 74
     0
 91
        4
 64
     7
 65
   257
 75
     1
175
     1
 42
1.0
 92
        8
 66
     7
 43
1.0
 76
     1
 77
     6
 78
     2
 67
     7
 79
     5
170
     0
171
     0
290
     0
174
     0
 93
        1
 44
0.0
173
     0
291
     1
 45
0.0
1001
ACAD
1000
AcDbSavedByObjectVersion
1070
     0
1000
AcDbSavedByObjectVersion
1070
     0
1000
AcDbSavedByObjectVersion
1070
     0
1000
AcDbSavedByObjectVersion
1070
     0
1000
AcDbSavedByObjectVersion
1070
     0
1000
AcDbSavedByObjectVersion
1070
     0
1000
AcDbSavedByObjectVersion
1070
     0
1000
AcDbSavedByObjectVersion
1070
     0
  0
VISUALSTYLE
  5
A128
102
{ACAD_REACTORS
330
A11C
102
}
330
A11C
100
AcDbVisualStyle
  2
Brighten
 70
    12
 71
     2
 72
     2
 73
     0
 90
        0
 40
-0.6
 41
-30.0
 62
     5
 63
     7
 74
     1
 91
        4
 64
     7
 65
   257
 75
     1
175
     1
 42
1.0
 92
        8
 66
     7
 43
1.0
 76
     1
 77
     6
 78
     2
 67
     7
 79
     5
170
     0
171
     0
290
     0
174
     0
 93
        1
 44
50.0
173
     0
291
     1
 45
0.0
1001
ACAD
1000
AcDbSavedByObjectVersion
1070
     0
1000
AcDbSavedByObjectVersion
1070
     0
1000
AcDbSavedByObjectVersion
1070
     0
1000
AcDbSavedByObjectVersion
1070
     0
1000
AcDbSavedByObjectVersion
1070
     0
1000
AcDbSavedByObjectVersion
1070
     0
1000
AcDbSavedByObjectVersion
1070
     0
1000
AcDbSavedByObjectVersion
1070
     0
  0
VISUALSTYLE
  5
A12C
102
{ACAD_REACTORS
330
A11C
102
}
330
A11C
100
AcDbVisualStyle
  2
ColorChange
 70
    16
 71
     2
 72
     2
 73
     3
 90
        0
 40
-0.6
 41
-30.0
 62
     5
 63
     8
 74
     1
 91
        4
 64
     7
 65
   257
 75
     1
175
     1
 42
1.0
 92
        8
 66
     8
 43
1.0
 76
     1
 77
     6
 78
     2
 67
     7
 79
     5
170
     0
171
     0
290
     0
174
     0
 93
        1
 44
0.0
173
     0
291
     1
 45
0.0
1001
ACAD
1000
AcDbSavedByObjectVersion
1070
     0
1000
AcDbSavedByObjectVersion
1070
     0
1000
AcDbSavedByObjectVersion
1070
     0
1000
AcDbSavedByObjectVersion
1070
     0
1000
AcDbSavedByObjectVersion
1070
     0
1000
AcDbSavedByObjectVersion
1070
     0
1000
AcDbSavedByObjectVersion
1070
     0
1000
AcDbSavedByObjectVersion
1070
     0
  0
VISUALSTYLE
  5
A125
102
{ACAD_REACTORS
330
A11C
102
}
330
A11C
100
AcDbVisualStyle
  2
Conceptual
 70
     9
 71
     3
 72
     2
 73
     0
 90
        0
 40
-0.6
 41
-30.0
 62
     5
 63
     7
 74
     2
 91
        2
 64
     7
 65
   257
 75
     1
175
     1
 42
40.0
 92
        8
 66
     7
 43
1.0
 76
     1
 77
     6
 78
     2
 67
     7
 79
     3
170
     0
171
     0
290
     0
174
     0
 93
        1
 44
0.0
173
     0
291
     0
 45
0.0
1001
ACAD
1000
AcDbSavedByObjectVersion
1070
     0
1000
AcDbSavedByObjectVersion
1070
     0
1000
AcDbSavedByObjectVersion
1070
     0
1000
AcDbSavedByObjectVersion
1070
     0
1000
AcDbSavedByObjectVersion
1070
     0
1000
AcDbSavedByObjectVersion
1070
     0
1000
AcDbSavedByObjectVersion
1070
     0
1000
AcDbSavedByObjectVersion
1070
     0
  0
VISUALSTYLE
  5
A127
102
{ACAD_REACTORS
330
A11C
102
}
330
A11C
100
AcDbVisualStyle
  2
Dim
 70
    11
 71
     2
 72
     2
 73
     0
 90
        0
 40
-0.6
 41
-30.0
 62
     5
 63
     7
 74
     1
 91
        4
 64
     7
 65
   257
 75
     1
175
     1
 42
1.0
 92
        8
 66
     7
 43
1.0
 76
     1
 77
     6
 78
     2
 67
     7
 79
     5
170
     0
171
     0
290
     0
174
     0
 93
        1
 44
-50.0
173
     0
291
     1
 45
0.0
1001
ACAD
1000
AcDbSavedByObjectVersion
1070
     0
1000
AcDbSavedByObjectVersion
1070
     0
1000
AcDbSavedByObjectVersion
1070
     0
1000
AcDbSavedByObjectVersion
1070
     0
1000
AcDbSavedByObjectVersion
1070
     0
1000
AcDbSavedByObjectVersion
1070
     0
1000
AcDbSavedByObjectVersion
1070
     0
1000
AcDbSavedByObjectVersion
1070
     0
  0
VISUALSTYLE
  5
A12B
102
{ACAD_REACTORS
330
A11C
102
}
330
A11C
100
AcDbVisualStyle
  2
Facepattern
 70
    15
 71
     2
 72
     2
 73
     0
 90
        0
 40
-0.6
 41
-30.0
 62
     5
 63
     7
 74
     1
 91
        4
 64
     7
 65
   257
 75
     1
175
     1
 42
1.0
 92
        8
 66
     7
 43
1.0
 76
     1
 77
     6
 78
     2
 67
     7
 79
     5
170
     0
171
     0
290
     0
174
     0
 93
        1
 44
0.0
173
     0
291
     1
 45
0.0
1001
ACAD
1000
AcDbSavedByObjectVersion
1070
     0
1000
AcDbSavedByObjectVersion
1070
     0
1000
AcDbSavedByObjectVersion
1070
     0
1000
AcDbSavedByObjectVersion
1070
     0
1000
AcDbSavedByObjectVersion
1070
     0
1000
AcDbSavedByObjectVersion
1070
     0
1000
AcDbSavedByObjectVersion
1070
     0
1000
AcDbSavedByObjectVersion
1070
     0
  0
VISUALSTYLE
  5
A11D
102
{ACAD_REACTORS
330
A11C
102
}
330
A11C
100
AcDbVisualStyle
  2
Flat
 70
     0
 71
     2
 72
     1
 73
     1
 90
        2
 40
-0.6
 41
30.0
 62
     5
 63
     7
 74
     0
 91
        4
 64
     7
 65
   257
 75
     1
175
     1
 42
1.0
 92
        8
 66
     7
 43
1.0
 76
     1
 77
     6
 78
     2
 67
     7
 79
     5
170
     0
171
     0
290
     0
174
     0
 93
       13
 44
0.0
173
     0
291
     1
 45
0.0
1001
ACAD
1000
AcDbSavedByObjectVersion
1070
     0
1000
AcDbSavedByObjectVersion
1070
     0
1000
AcDbSavedByObjectVersion
1070
     0
1000
AcDbSavedByObjectVersion
1070
     0
1000
AcDbSavedByObjectVersion
1070
     0
1000
AcDbSavedByObjectVersion
1070
     0
1000
AcDbSavedByObjectVersion
1070
     0
1000
AcDbSavedByObjectVersion
1070
     0
  0
VISUALSTYLE
  5
A11E
102
{ACAD_REACTORS
330
A11C
102
}
330
A11C
100
AcDbVisualStyle
  2
FlatWithEdges
 70
     1
 71
     2
 72
     1
 73
     1
 90
        2
 40
-0.6
 41
30.0
 62
     5
 63
     7
 74
     1
 91
        4
 64
     7
 65
   257
 75
     1
175
     1
 42
1.0
 92
        0
 66
   257
 43
1.0
 76
     1
 77
     6
 78
     2
 67
     7
 79
     5
170
     0
171
     0
290
     0
174
     0
 93
       13
 44
0.0
173
     0
291
     1
 45
0.0
1001
ACAD
1000
AcDbSavedByObjectVersion
1070
     0
1000
AcDbSavedByObjectVersion
1070
     0
1000
AcDbSavedByObjectVersion
1070
     0
1000
AcDbSavedByObjectVersion
1070
     0
1000
AcDbSavedByObjectVersion
1070
     0
1000
AcDbSavedByObjectVersion
1070
     0
1000
AcDbSavedByObjectVersion
1070
     0
1000
AcDbSavedByObjectVersion
1070
     0
  0
VISUALSTYLE
  5
A11F
102
{ACAD_REACTORS
330
A11C
102
}
330
A11C
100
AcDbVisualStyle
  2
Gouraud
 70
     2
 71
     2
 72
     2
 73
     1
 90
        2
 40
-0.6
 41
30.0
 62
     5
 63
     7
 74
     0
 91
        4
 64
     7
 65
   257
 75
     1
175
     1
 42
1.0
 92
        0
 66
     7
 43
1.0
 76
     1
 77
     6
 78
     2
 67
     7
 79
     5
170
     0
171
     0
290
     0
174
     0
 93
       13
 44
0.0
173
     0
291
     1
 45
0.0
1001
ACAD
1000
AcDbSavedByObjectVersion
1070
     0
1000
AcDbSavedByObjectVersion
1070
     0
1000
AcDbSavedByObjectVersion
1070
     0
1000
AcDbSavedByObjectVersion
1070
     0
1000
AcDbSavedByObjectVersion
1070
     0
1000
AcDbSavedByObjectVersion
1070
     0
1000
AcDbSavedByObjectVersion
1070
     0
1000
AcDbSavedByObjectVersion
1070
     0
  0
VISUALSTYLE
  5
A120
102
{ACAD_REACTORS
330
A11C
102
}
330
A11C
100
AcDbVisualStyle
  2
GouraudWithEdges
 70
     3
 71
     2
 72
     2
 73
     1
 90
        2
 40
-0.6
 41
30.0
 62
     5
 63
     7
 74
     1
 91
        4
 64
     7
 65
   257
 75
     1
175
     1
 42
1.0
 92
        0
 66
   257
 43
1.0
 76
     1
 77
     6
 78
     2
 67
     7
 79
     5
170
     0
171
     0
290
     0
174
     0
 93
       13
 44
0.0
173
     0
291
     1
 45
0.0
1001
ACAD
1000
AcDbSavedByObjectVersion
1070
     0
1000
AcDbSavedByObjectVersion
1070
     0
1000
AcDbSavedByObjectVersion
1070
     0
1000
AcDbSavedByObjectVersion
1070
     0
1000
AcDbSavedByObjectVersion
1070
     0
1000
AcDbSavedByObjectVersion
1070
     0
1000
AcDbSavedByObjectVersion
1070
     0
1000
AcDbSavedByObjectVersion
1070
     0
  0
VISUALSTYLE
  5
A12A
102
{ACAD_REACTORS
330
A11C
102
}
330
A11C
100
AcDbVisualStyle
  2
Linepattern
 70
    14
 71
     2
 72
     2
 73
     0
 90
        0
 40
-0.6
 41
-30.0
 62
     5
 63
     7
 74
     1
 91
        4
 64
     7
 65
   257
 75
     7
175
     7
 42
1.0
 92
        8
 66
     7
 43
1.0
 76
     1
 77
     6
 78
     2
 67
     7
 79
     5
170
     0
171
     0
290
     0
174
     0
 93
        1
 44
0.0
173
     0
291
     1
 45
0.0
1001
ACAD
1000
AcDbSavedByObjectVersion
1070
     0
1000
AcDbSavedByObjectVersion
1070
     0
1000
AcDbSavedByObjectVersion
1070
     0
1000
AcDbSavedByObjectVersion
1070
     0
1000
AcDbSavedByObjectVersion
1070
     0
1000
AcDbSavedByObjectVersion
1070
     0
1000
AcDbSavedByObjectVersion
1070
     0
1000
AcDbSavedByObjectVersion
1070
     0
  0
VISUALSTYLE
  5
A126
102
{ACAD_REACTORS
330
A11C
102
}
330
A11C
100
AcDbVisualStyle
  2
Realistic
 70
     8
 71
     2
 72
     2
 73
     0
 90
        0
 40
-0.6
 41
-30.0
 62
     5
 63
     7
 74
     1
 91
        0
 64
     7
 65
   257
 75
     1
175
     1
 42
1.0
 92
        8
 66
     8
 43
1.0
 76
     1
 77
     6
 78
     2
 67
     7
 79
     5
170
     0
171
     0
290
     0
174
     0
 93
       13
 44
0.0
173
     0
291
     0
 45
0.0
1001
ACAD
1000
AcDbSavedByObjectVersion
1070
     0
1000
AcDbSavedByObjectVersion
1070
     0
1000
AcDbSavedByObjectVersion
1070
     0
1000
AcDbSavedByObjectVersion
1070
     0
1000
AcDbSavedByObjectVersion
1070
     0
1000
AcDbSavedByObjectVersion
1070
     0
1000
AcDbSavedByObjectVersion
1070
     0
1000
AcDbSavedByObjectVersion
1070
     0
  0
VISUALSTYLE
  5
A129
102
{ACAD_REACTORS
330
A11C
102
}
330
A11C
100
AcDbVisualStyle
  2
Thicken
 70
    13
 71
     2
 72
     2
 73
     0
 90
        0
 40
-0.6
 41
-30.0
 62
     5
 63
     7
 74
     1
 91
        4
 64
     7
 65
   257
 75
     1
175
     1
 42
1.0
 92
       12
 66
     7
 43
1.0
 76
     1
 77
     6
 78
     2
 67
     7
 79
     5
170
     0
171
     0
290
     0
174
     0
 93
        1
 44
0.0
173
     0
291
     1
 45
0.0
1001
ACAD
1000
AcDbSavedByObjectVersion
1070
     0
1000
AcDbSavedByObjectVersion
1070
     0
1000
AcDbSavedByObjectVersion
1070
     0
1000
AcDbSavedByObjectVersion
1070
     0
1000
AcDbSavedByObjectVersion
1070
     0
1000
AcDbSavedByObjectVersion
1070
     0
1000
AcDbSavedByObjectVersion
1070
     0
1000
AcDbSavedByObjectVersion
1070
     0
  0
DICTIONARYVAR
  5
A101
102
{ACAD_REACTORS
330
1237
102
}
330
1237
100
DictionaryVariables
280
     0
  1
1:1
  0
DICTIONARYVAR
  5
A2B4
102
{ACAD_REACTORS
330
1237
102
}
330
1237
100
DictionaryVariables
280
     0
  1
STANDARD
  0
DICTIONARYVAR
  5
A2B3
102
{ACAD_REACTORS
330
1237
102
}
330
1237
100
DictionaryVariables
280
     0
  1
STANDARD
  0
DICTIONARYVAR
  5
9CC6
102
{ACAD_REACTORS
330
1237
102
}
330
1237
100
DictionaryVariables
280
     0
  1
1
  0
DICTIONARYVAR
  5
9CC5
102
{ACAD_REACTORS
330
1237
102
}
330
1237
100
DictionaryVariables
280
     0
  1
0
  0
DICTIONARYVAR
  5
1238
102
{ACAD_REACTORS
330
1237
102
}
330
1237
100
DictionaryVariables
280
     0
  1
96
  0
XRECORD
  5
A0EE
102
{ACAD_REACTORS
330
A0ED
102
}
330
A0ED
100
AcDbXrecord
280
     1
 91
     1023
301

290
     0
302
1
330
F
 90
        8
 62
     2
370
    -3
331
14
  1
Color_2
330
30
 90
        0
 62
     7
370
    -3
331
14
  1
Color_7
330
526
 90
        8
 62
     1
370
    -3
331
14
  1
Color_1
330
138F
 90
        8
 62
     6
370
    -3
331
C0D
  1
Color_6
330
1390
 90
        8
 62
     7
370
    -3
331
14
  1
Color_7
  0
DICTIONARY
  5
B5F1
330
1C64
100
AcDbDictionary
280
     1
281
     1
  3
ACAD_XREC_ROUNDTRIP
360
B5F2
  0
DICTIONARY
  5
B5F3
330
1C65
100
AcDbDictionary
280
     1
281
     1
  3
ACAD_XREC_ROUNDTRIP
360
B5F4
  0
DICTIONARY
  5
A10D
330
A10C
100
AcDbDictionary
280
     1
281
     1
  3
ACAD_XREC_ROUNDTRIP
360
B144
  3
BUMPTILE
360
A10F
  3
DIFFUSETILE
360
A10E
  3
OPACITYTILE
360
A112
  3
REFLECTIONTILE
360
A111
  3
REFRACTIONTILE
360
A113
  3
SPECULARTILE
360
A110
  0
DICTIONARY
  5
A105
330
A104
100
AcDbDictionary
280
     1
281
     1
  3
ACAD_XREC_ROUNDTRIP
360
B143
  3
BUMPTILE
360
A107
  3
DIFFUSETILE
360
A106
  3
OPACITYTILE
360
A10A
  3
REFLECTIONTILE
360
A109
  3
REFRACTIONTILE
360
A10B
  3
SPECULARTILE
360
A108
  0
DICTIONARY
  5
A115
330
A114
100
AcDbDictionary
280
     1
281
     1
  3
ACAD_XREC_ROUNDTRIP
360
B145
  3
BUMPTILE
360
A117
  3
DIFFUSETILE
360
A116
  3
OPACITYTILE
360
A11A
  3
REFLECTIONTILE
360
A119
  3
REFRACTIONTILE
360
A11B
  3
SPECULARTILE
360
A118
  0
DICTIONARY
  5
A2B5
330
A12F
100
AcDbDictionary
280
     1
281
     1
  3
ACAD_ROUNDTRIP_2008_TABLESTYLE_CELLSTYLEMAP
360
B5EF
  3
ACAD_XREC_ROUNDTRIP
360
B5F5
  0
XRECORD
  5
B5F2
102
{ACAD_REACTORS
330
B5F1
102
}
330
B5F1
100
AcDbXrecord
280
     1
102
SHADEPLOT
 70
     0
102
SHADEPLOTRESLEVEL
 70
     2
102
SHADEPLOTCUSTOMDPI
 70
   300
  0
XRECORD
  5
B5F4
102
{ACAD_REACTORS
330
B5F3
102
}
330
B5F3
100
AcDbXrecord
280
     1
102
SHADEPLOT
 70
     0
102
SHADEPLOTRESLEVEL
 70
     2
102
SHADEPLOTCUSTOMDPI
 70
   300
  0
XRECORD
  5
B144
102
{ACAD_REACTORS
330
A10D
102
}
330
A10D
100
AcDbXrecord
280
     1
102
MATERIAL
148
0.0
149
0.0
149
0.0
 93
        0
 94
      127
282
     0
 72
     0
 77
     0
171
     0
175
     0
179
     0
273
     0
  0
XRECORD
  5
A10F
102
{ACAD_REACTORS
330
A10D
102
}
330
A10D
100
AcDbXrecord
280
     1
270
     1
271
     1
  0
XRECORD
  5
A10E
102
{ACAD_REACTORS
330
A10D
102
}
330
A10D
100
AcDbXrecord
280
     1
270
     1
271
     1
  0
XRECORD
  5
A112
102
{ACAD_REACTORS
330
A10D
102
}
330
A10D
100
AcDbXrecord
280
     1
270
     1
271
     1
  0
XRECORD
  5
A111
102
{ACAD_REACTORS
330
A10D
102
}
330
A10D
100
AcDbXrecord
280
     1
270
     1
271
     1
  0
XRECORD
  5
A113
102
{ACAD_REACTORS
330
A10D
102
}
330
A10D
100
AcDbXrecord
280
     1
270
     1
271
     1
  0
XRECORD
  5
A110
102
{ACAD_REACTORS
330
A10D
102
}
330
A10D
100
AcDbXrecord
280
     1
270
     1
271
     1
  0
XRECORD
  5
B143
102
{ACAD_REACTORS
330
A105
102
}
330
A105
100
AcDbXrecord
280
     1
102
MATERIAL
148
0.0
149
0.0
149
0.0
 93
        0
 94
      127
282
     0
 72
     0
 77
     0
171
     0
175
     0
179
     0
273
     0
  0
XRECORD
  5
A107
102
{ACAD_REACTORS
330
A105
102
}
330
A105
100
AcDbXrecord
280
     1
270
     1
271
     1
  0
XRECORD
  5
A106
102
{ACAD_REACTORS
330
A105
102
}
330
A105
100
AcDbXrecord
280
     1
270
     1
271
     1
  0
XRECORD
  5
A10A
102
{ACAD_REACTORS
330
A105
102
}
330
A105
100
AcDbXrecord
280
     1
270
     1
271
     1
  0
XRECORD
  5
A109
102
{ACAD_REACTORS
330
A105
102
}
330
A105
100
AcDbXrecord
280
     1
270
     1
271
     1
  0
XRECORD
  5
A10B
102
{ACAD_REACTORS
330
A105
102
}
330
A105
100
AcDbXrecord
280
     1
270
     1
271
     1
  0
XRECORD
  5
A108
102
{ACAD_REACTORS
330
A105
102
}
330
A105
100
AcDbXrecord
280
     1
270
     1
271
     1
  0
XRECORD
  5
B145
102
{ACAD_REACTORS
330
A115
102
}
330
A115
100
AcDbXrecord
280
     1
102
MATERIAL
148
0.0
149
0.0
149
0.0
 93
        0
 94
      127
282
     0
 72
     0
 77
     0
171
     0
175
     0
179
     0
273
     0
  0
XRECORD
  5
A117
102
{ACAD_REACTORS
330
A115
102
}
330
A115
100
AcDbXrecord
280
     1
270
     1
271
     1
  0
XRECORD
  5
A116
102
{ACAD_REACTORS
330
A115
102
}
330
A115
100
AcDbXrecord
280
     1
270
     1
271
     1
  0
XRECORD
  5
A11A
102
{ACAD_REACTORS
330
A115
102
}
330
A115
100
AcDbXrecord
280
     1
270
     1
271
     1
  0
XRECORD
  5
A119
102
{ACAD_REACTORS
330
A115
102
}
330
A115
100
AcDbXrecord
280
     1
270
     1
271
     1
  0
XRECORD
  5
A11B
102
{ACAD_REACTORS
330
A115
102
}
330
A115
100
AcDbXrecord
280
     1
270
     1
271
     1
  0
XRECORD
  5
A118
102
{ACAD_REACTORS
330
A115
102
}
330
A115
100
AcDbXrecord
280
     1
270
     1
271
     1
  0
CELLSTYLEMAP
  5
B5EF
102
{ACAD_REACTORS
330
A2B5
102
}
330
A2B5
100
AcDbCellStyleMap
 90
        3
300
CELLSTYLE
  1
TABLEFORMAT_BEGIN
 90
        5
170
     1
 91
        0
 92
    32768
 62
   257
 93
        1
300
CONTENTFORMAT
  1
CONTENTFORMAT_BEGIN
 90
        0
 91
        0
 92
      512
 93
        0
300

 40
0.0
140
1.0
 94
        5
 62
     0
340
10
144
6.0
309
CONTENTFORMAT_END
171
     1
301
MARGIN
  1
CELLMARGIN_BEGIN
 40
1.5
 40
1.5
 40
1.5
 40
1.5
 40
0.18
 40
0.18
309
CELLMARGIN_END
 94
        6
 95
        1
302
GRIDFORMAT
  1
GRIDFORMAT_BEGIN
 90
        0
 91
        1
 62
     0
 92
       -2
340
0
 93
        0
 40
1.125
309
GRIDFORMAT_END
 95
        2
302
GRIDFORMAT
  1
GRIDFORMAT_BEGIN
 90
        0
 91
        1
 62
     0
 92
       -2
340
0
 93
        0
 40
1.125
309
GRIDFORMAT_END
 95
        4
302
GRIDFORMAT
  1
GRIDFORMAT_BEGIN
 90
        0
 91
        1
 62
     0
 92
       -2
340
0
 93
        0
 40
1.125
309
GRIDFORMAT_END
 95
        8
302
GRIDFORMAT
  1
GRIDFORMAT_BEGIN
 90
        0
 91
        1
 62
     0
 92
       -2
340
0
 93
        0
 40
1.125
309
GRIDFORMAT_END
 95
       16
302
GRIDFORMAT
  1
GRIDFORMAT_BEGIN
 90
        0
 91
        1
 62
     0
 92
       -2
340
0
 93
        0
 40
1.125
309
GRIDFORMAT_END
 95
       32
302
GRIDFORMAT
  1
GRIDFORMAT_BEGIN
 90
        0
 91
        1
 62
     0
 92
       -2
340
0
 93
        0
 40
1.125
309
GRIDFORMAT_END
309
TABLEFORMAT_END
  1
CELLSTYLE_BEGIN
 90
        1
 91
        1
300
_TITLE
309
CELLSTYLE_END
300
CELLSTYLE
  1
TABLEFORMAT_BEGIN
 90
        5
170
     1
 91
        0
 92
        0
 62
   257
 93
        1
300
CONTENTFORMAT
  1
CONTENTFORMAT_BEGIN
 90
        0
 91
        0
 92
      512
 93
        0
300

 40
0.0
140
1.0
 94
        5
 62
     0
340
10
144
4.5
309
CONTENTFORMAT_END
171
     1
301
MARGIN
  1
CELLMARGIN_BEGIN
 40
1.5
 40
1.5
 40
1.5
 40
1.5
 40
0.18
 40
0.18
309
CELLMARGIN_END
 94
        6
 95
        1
302
GRIDFORMAT
  1
GRIDFORMAT_BEGIN
 90
        0
 91
        1
 62
     0
 92
       -2
340
0
 93
        0
 40
1.125
309
GRIDFORMAT_END
 95
        2
302
GRIDFORMAT
  1
GRIDFORMAT_BEGIN
 90
        0
 91
        1
 62
     0
 92
       -2
340
0
 93
        0
 40
1.125
309
GRIDFORMAT_END
 95
        4
302
GRIDFORMAT
  1
GRIDFORMAT_BEGIN
 90
        0
 91
        1
 62
     0
 92
       -2
340
0
 93
        0
 40
1.125
309
GRIDFORMAT_END
 95
        8
302
GRIDFORMAT
  1
GRIDFORMAT_BEGIN
 90
        0
 91
        1
 62
     0
 92
       -2
340
0
 93
        0
 40
1.125
309
GRIDFORMAT_END
 95
       16
302
GRIDFORMAT
  1
GRIDFORMAT_BEGIN
 90
        0
 91
        1
 62
     0
 92
       -2
340
0
 93
        0
 40
1.125
309
GRIDFORMAT_END
 95
       32
302
GRIDFORMAT
  1
GRIDFORMAT_BEGIN
 90
        0
 91
        1
 62
     0
 92
       -2
340
0
 93
        0
 40
1.125
309
GRIDFORMAT_END
309
TABLEFORMAT_END
  1
CELLSTYLE_BEGIN
 90
        2
 91
        1
300
_HEADER
309
CELLSTYLE_END
300
CELLSTYLE
  1
TABLEFORMAT_BEGIN
 90
        5
170
     1
 91
        0
 92
        0
 62
   257
 93
        1
300
CONTENTFORMAT
  1
CONTENTFORMAT_BEGIN
 90
        0
 91
        0
 92
      512
 93
        0
300

 40
0.0
140
1.0
 94
        2
 62
     0
340
10
144
4.5
309
CONTENTFORMAT_END
171
     1
301
MARGIN
  1
CELLMARGIN_BEGIN
 40
1.5
 40
1.5
 40
1.5
 40
1.5
 40
0.18
 40
0.18
309
CELLMARGIN_END
 94
        6
 95
        1
302
GRIDFORMAT
  1
GRIDFORMAT_BEGIN
 90
        0
 91
        1
 62
     0
 92
       -2
340
0
 93
        0
 40
1.125
309
GRIDFORMAT_END
 95
        2
302
GRIDFORMAT
  1
GRIDFORMAT_BEGIN
 90
        0
 91
        1
 62
     0
 92
       -2
340
0
 93
        0
 40
1.125
309
GRIDFORMAT_END
 95
        4
302
GRIDFORMAT
  1
GRIDFORMAT_BEGIN
 90
        0
 91
        1
 62
     0
 92
       -2
340
0
 93
        0
 40
1.125
309
GRIDFORMAT_END
 95
        8
302
GRIDFORMAT
  1
GRIDFORMAT_BEGIN
 90
        0
 91
        1
 62
     0
 92
       -2
340
0
 93
        0
 40
1.125
309
GRIDFORMAT_END
 95
       16
302
GRIDFORMAT
  1
GRIDFORMAT_BEGIN
 90
        0
 91
        1
 62
     0
 92
       -2
340
0
 93
        0
 40
1.125
309
GRIDFORMAT_END
 95
       32
302
GRIDFORMAT
  1
GRIDFORMAT_BEGIN
 90
        0
 91
        1
 62
     0
 92
       -2
340
0
 93
        0
 40
1.125
309
GRIDFORMAT_END
309
TABLEFORMAT_END
  1
CELLSTYLE_BEGIN
 90
        3
 91
        2
300
_DATA
309
CELLSTYLE_END
  0
XRECORD
  5
B5F5
102
{ACAD_REACTORS
330
A2B5
102
}
330
A2B5
100
AcDbXrecord
280
     1
102
ACAD_ROUNDTRIP_PRE2007_TABLESTYLE
 90
      512
 91
        0
  1

 92
      512
 93
        0
  2

 94
      512
 95
        0
  3

  0
ENDSEC
  0
EOF
