  0
SECTION
  2
HEADER
  9
$ACADVER
  1
AC1015
  9
$ACADMAINTVER
 70
    20
  9
$DWGCODEPAGE
  3
ANSI_932
  9
$INSBASE
 10
0.0
 20
0.0
 30
0.0
  9
$EXTMIN
 10
1908.721255156517
 20
-666.9385343484273
 30
-0.0000000000000053
  9
$EXTMAX
 10
2250.778607050094
 20
-495.4422531648028
 30
0.0000000000000099
  9
$LIMMIN
 10
0.0
 20
0.0
  9
$LIMMAX
 10
420.0
 20
297.0
  9
$ORTHOMODE
 70
     1
  9
$REGENMODE
 70
     1
  9
$FILLMODE
 70
     1
  9
$QTEXTMODE
 70
     0
  9
$MIRRTEXT
 70
     0
  9
$LTSCALE
 40
1.0
  9
$ATTMODE
 70
     1
  9
$TEXTSIZE
 40
3.5
  9
$TRACEWID
 40
1.0
  9
$TEXTSTYLE
  7
BIGFONT
  9
$CLAYER
  8
1
  9
$CELTYPE
  6
BYLAYER
  9
$CECOLOR
 62
     7
  9
$CELTSCALE
 40
1.0
  9
$DISPSILH
 70
     0
  9
$DIMSCALE
 40
1.0
  9
$DIMASZ
 40
2.5
  9
$DIMEXO
 40
0.0625
  9
$DIMDLI
 40
0.38
  9
$DIMRND
 40
0.0
  9
$DIMDLE
 40
0.0
  9
$DIMEXE
 40
0.18
  9
$DIMTP
 40
0.0
  9
$DIMTM
 40
0.0
  9
$DIMTXT
 40
3.0
  9
$DIMCEN
 40
-1.0
  9
$DIMTSZ
 40
0.0
  9
$DIMTOL
 70
     0
  9
$DIMLIM
 70
     0
  9
$DIMTIH
 70
     0
  9
$DIMTOH
 70
     0
  9
$DIMSE1
 70
     0
  9
$DIMSE2
 70
     0
  9
$DIMTAD
 70
     1
  9
$DIMZIN
 70
    12
  9
$DIMBLK
  1

  9
$DIMASO
 70
     1
  9
$DIMSHO
 70
     1
  9
$DIMPOST
  1

  9
$DIMAPOST
  1

  9
$DIMALT
 70
     0
  9
$DIMALTD
 70
     2
  9
$DIMALTF
 40
25.4
  9
$DIMLFAC
 40
1.0
  9
$DIMTOFL
 70
     1
  9
$DIMTVP
 40
0.0
  9
$DIMTIX
 70
     0
  9
$DIMSOXD
 70
     0
  9
$DIMSAH
 70
     0
  9
$DIMBLK1
  1

  9
$DIMBLK2
  1

  9
$DIMSTYLE
  2
STANDARD
  9
$DIMCLRD
 70
     0
  9
$DIMCLRE
 70
     0
  9
$DIMCLRT
 70
     0
  9
$DIMTFAC
 40
1.0
  9
$DIMGAP
 40
1.0
  9
$DIMJUST
 70
     0
  9
$DIMSD1
 70
     0
  9
$DIMSD2
 70
     0
  9
$DIMTOLJ
 70
     1
  9
$DIMTZIN
 70
    12
  9
$DIMALTZ
 70
     0
  9
$DIMALTTZ
 70
     0
  9
$DIMUPT
 70
     0
  9
$DIMDEC
 70
     2
  9
$DIMTDEC
 70
     2
  9
$DIMALTU
 70
     2
  9
$DIMALTTD
 70
     2
  9
$DIMTXSTY
  7
BIGFONT
  9
$DIMAUNIT
 70
     0
  9
$DIMADEC
 70
     0
  9
$DIMALTRND
 40
0.0
  9
$DIMAZIN
 70
     0
  9
$DIMDSEP
 70
    46
  9
$DIMATFIT
 70
     3
  9
$DIMFRAC
 70
     0
  9
$DIMLDRBLK
  1

  9
$DIMLUNIT
 70
     2
  9
$DIMLWD
 70
    -2
  9
$DIMLWE
 70
    -2
  9
$DIMTMOVE
 70
     0
  9
$LUNITS
 70
     2
  9
$LUPREC
 70
     2
  9
$SKETCHINC
 40
1.0
  9
$FILLETRAD
 40
0.0
  9
$AUNITS
 70
     0
  9
$AUPREC
 70
     0
  9
$MENU
  1
acad
  9
$ELEVATION
 40
0.0
  9
$PELEVATION
 40
0.0
  9
$THICKNESS
 40
0.0
  9
$LIMCHECK
 70
     0
  9
$CHAMFERA
 40
0.25
  9
$CHAMFERB
 40
0.25
  9
$CHAMFERC
 40
0.0
  9
$CHAMFERD
 40
0.0
  9
$SKPOLY
 70
     0
  9
$TDCREATE
 40
2452836.755218414
  9
$TDUCREATE
 40
2452836.380218414
  9
$TDUPDATE
 40
2457168.618029977
  9
$TDUUPDATE
 40
2457168.243029977
  9
$TDINDWG
 40
0.7179925810
  9
$TDUSRTIMER
 40
2456006.145112940
  9
$USRTIMER
 70
     1
  9
$ANGBASE
 50
0.0
  9
$ANGDIR
 70
     0
  9
$PDMODE
 70
     0
  9
$PDSIZE
 40
0.0
  9
$PLINEWID
 40
0.0
  9
$SPLFRAME
 70
     0
  9
$SPLINETYPE
 70
     6
  9
$SPLINESEGS
 70
     8
  9
$HANDSEED
  5
FBFE
  9
$SURFTAB1
 70
     6
  9
$SURFTAB2
 70
     6
  9
$SURFTYPE
 70
     6
  9
$SURFU
 70
     6
  9
$SURFV
 70
     6
  9
$UCSBASE
  2

  9
$UCSNAME
  2

  9
$UCSORG
 10
0.0
 20
0.0
 30
0.0
  9
$UCSXDIR
 10
1.0
 20
0.0
 30
0.0
  9
$UCSYDIR
 10
0.0
 20
1.0
 30
0.0
  9
$UCSORTHOREF
  2

  9
$UCSORTHOVIEW
 70
     0
  9
$UCSORGTOP
 10
0.0
 20
0.0
 30
0.0
  9
$UCSORGBOTTOM
 10
0.0
 20
0.0
 30
0.0
  9
$UCSORGLEFT
 10
0.0
 20
0.0
 30
0.0
  9
$UCSORGRIGHT
 10
0.0
 20
0.0
 30
0.0
  9
$UCSORGFRONT
 10
0.0
 20
0.0
 30
0.0
  9
$UCSORGBACK
 10
0.0
 20
0.0
 30
0.0
  9
$PUCSBASE
  2

  9
$PUCSNAME
  2

  9
$PUCSORG
 10
0.0
 20
0.0
 30
0.0
  9
$PUCSXDIR
 10
1.0
 20
0.0
 30
0.0
  9
$PUCSYDIR
 10
0.0
 20
1.0
 30
0.0
  9
$PUCSORTHOREF
  2

  9
$PUCSORTHOVIEW
 70
     0
  9
$PUCSORGTOP
 10
0.0
 20
0.0
 30
0.0
  9
$PUCSORGBOTTOM
 10
0.0
 20
0.0
 30
0.0
  9
$PUCSORGLEFT
 10
0.0
 20
0.0
 30
0.0
  9
$PUCSORGRIGHT
 10
0.0
 20
0.0
 30
0.0
  9
$PUCSORGFRONT
 10
0.0
 20
0.0
 30
0.0
  9
$PUCSORGBACK
 10
0.0
 20
0.0
 30
0.0
  9
$USERI1
 70
     0
  9
$USERI2
 70
     0
  9
$USERI3
 70
     0
  9
$USERI4
 70
     0
  9
$USERI5
 70
     0
  9
$USERR1
 40
0.0
  9
$USERR2
 40
0.0
  9
$USERR3
 40
0.0
  9
$USERR4
 40
0.0
  9
$USERR5
 40
0.0
  9
$WORLDVIEW
 70
     1
  9
$SHADEDGE
 70
     3
  9
$SHADEDIF
 70
    70
  9
$TILEMODE
 70
     1
  9
$MAXACTVP
 70
    16
  9
$PINSBASE
 10
0.0
 20
0.0
 30
0.0
  9
$PLIMCHECK
 70
     0
  9
$PEXTMIN
 10
1.000000000000000E+20
 20
1.000000000000000E+20
 30
1.000000000000000E+20
  9
$PEXTMAX
 10
-1.000000000000000E+20
 20
-1.000000000000000E+20
 30
-1.000000000000000E+20
  9
$PLIMMIN
 10
0.0
 20
0.0
  9
$PLIMMAX
 10
420.0
 20
297.0
  9
$UNITMODE
 70
     0
  9
$VISRETAIN
 70
     0
  9
$PLINEGEN
 70
     0
  9
$PSLTSCALE
 70
     1
  9
$TREEDEPTH
 70
  3020
  9
$CMLSTYLE
  2
STANDARD
  9
$CMLJUST
 70
     0
  9
$CMLSCALE
 40
1.0
  9
$PROXYGRAPHICS
 70
     1
  9
$MEASUREMENT
 70
     1
  9
$CELWEIGHT
370
    -1
  9
$ENDCAPS
280
     0
  9
$JOINSTYLE
280
     0
  9
$LWDISPLAY
290
     0
  9
$INSUNITS
 70
     0
  9
$HYPERLINKBASE
  1

  9
$STYLESHEET
  1
CANON00.CTB
  9
$XEDIT
290
     1
  9
$CEPSNTYPE
380
     0
  9
$PSTYLEMODE
290
     1
  9
$FINGERPRINTGUID
  2
{7545F8F0-0B94-11D4-9EDF-0040266A266F}
  9
$VERSIONGUID
  2
{F3F8936B-A559-47D2-9C0A-9965130E49E3}
  9
$EXTNAMES
290
     1
  9
$PSVPSCALE
 40
0.0
  9
$OLESTARTUP
290
     0
  0
ENDSEC
  0
SECTION
  2
CLASSES
  0
CLASS
  1
DICTIONARYVAR
  2
AcDbDictionaryVar
  3
ObjectDBX Classes
 90
        0
280
     0
281
     0
  0
CLASS
  1
ACDBDICTIONARYWDFLT
  2
AcDbDictionaryWithDefault
  3
ObjectDBX Classes
 90
        0
280
     0
281
     0
  0
CLASS
  1
ACDBPLACEHOLDER
  2
AcDbPlaceHolder
  3
ObjectDBX Classes
 90
        0
280
     0
281
     0
  0
CLASS
  1
LAYOUT
  2
AcDbLayout
  3
ObjectDBX Classes
 90
        0
280
     0
281
     0
  0
CLASS
  1
MATERIAL
  2
AcDbMaterial
  3
ObjectDBX Classes
 90
     1153
280
     0
281
     0
  0
CLASS
  1
VISUALSTYLE
  2
AcDbVisualStyle
  3
ObjectDBX Classes
 90
     4095
280
     0
281
     0
  0
CLASS
  1
TABLESTYLE
  2
AcDbTableStyle
  3
ObjectDBX Classes
 90
     4095
280
     0
281
     0
  0
CLASS
  1
EXACXREFPANELOBJECT
  2
ExAcXREFPanelObject
  3
EXAC_ESW
 90
    33793
280
     1
281
     0
  0
CLASS
  1
NPOCOLLECTION
  2
AcDbImpNonPersistentObjectsCollection
  3
ObjectDBX Classes
 90
    33921
280
     1
281
     0
  0
CLASS
  1
SORTENTSTABLE
  2
AcDbSortentsTable
  3
ObjectDBX Classes
 90
        0
280
     0
281
     0
  0
CLASS
  1
SCALE
  2
AcDbScale
  3
ObjectDBX Classes
 90
     1153
280
     0
281
     0
  0
CLASS
  1
MLEADERSTYLE
  2
AcDbMLeaderStyle
  3
ACDB_MLEADERSTYLE_CLASS
 90
     4095
280
     0
281
     0
  0
CLASS
  1
CELLSTYLEMAP
  2
AcDbCellStyleMap
  3
ObjectDBX Classes
 90
     1152
280
     0
281
     0
  0
CLASS
  1
RASTERVARIABLES
  2
AcDbRasterVariables
  3
ISM
 90
        0
280
     0
281
     0
  0
CLASS
  1
IMAGEDEF
  2
AcDbRasterImageDef
  3
ISM
 90
        0
280
     0
281
     0
  0
CLASS
  1
IMAGE
  2
AcDbRasterImage
  3
ISM
 90
    34943
280
     0
281
     1
  0
CLASS
  1
IMAGEDEF_REACTOR
  2
AcDbRasterImageDefReactor
  3
ISM
 90
    32769
280
     0
281
     0
  0
CLASS
  1
ACDBSECTIONVIEWSTYLE
  2
AcDbSectionViewStyle
  3
ObjectDBX Classes
 90
     1025
280
     0
281
     0
  0
CLASS
  1
ACDBDETAILVIEWSTYLE
  2
AcDbDetailViewStyle
  3
ObjectDBX Classes
 90
     1025
280
     0
281
     0
  0
ENDSEC
  0
SECTION
  2
TABLES
  0
TABLE
  2
VPORT
  5
8
330
0
100
AcDbSymbolTable
 70
     1
  0
VPORT
  5
8F41
330
8
100
AcDbSymbolTableRecord
100
AcDbViewportTableRecord
  2
*Active
 70
     0
 10
0.0
 20
0.0
 11
1.0
 21
1.0
 12
2079.749931103306
 22
-581.190393756615
 13
0.0
 23
0.0
 14
1.0
 24
1.0
 15
10.0
 25
10.0
 16
0.0
 26
0.0
 36
1.0
 17
0.0
 27
0.0
 37
0.0
 40
172.8291538353106
 41
2.456549935149157
 42
50.0
 43
0.0
 44
0.0
 50
0.0
 51
0.0
 71
    16
 72
   100
 73
     1
 74
     0
 75
     0
 76
     0
 77
     0
 78
     0
281
     0
 65
     1
110
0.0
120
0.0
130
0.0
111
1.0
121
0.0
131
0.0
112
0.0
122
1.0
132
0.0
 79
     0
146
0.0
1001
ACAD_NAV_VCDISPLAY
1070
     3
  0
ENDTAB
  0
TABLE
  2
LTYPE
  5
5
330
0
100
AcDbSymbolTable
 70
     3
  0
LTYPE
  5
12
330
5
100
AcDbSymbolTableRecord
100
AcDbLinetypeTableRecord
  2
BYBLOCK
 70
     0
  3

 72
    65
 73
     0
 40
0.0
  0
LTYPE
  5
13
330
5
100
AcDbSymbolTableRecord
100
AcDbLinetypeTableRecord
  2
BYLAYER
 70
     0
  3

 72
    65
 73
     0
 40
0.0
  0
LTYPE
  5
14
330
5
100
AcDbSymbolTableRecord
100
AcDbLinetypeTableRecord
  2
CONTINUOUS
 70
     0
  3
Solid line
 72
    65
 73
     0
 40
0.0
  0
LTYPE
  5
C0D
330
5
100
AcDbSymbolTableRecord
100
AcDbLinetypeTableRecord
  2
CENTER2
 70
     0
  3
___ _ ___ _ ___ _ ___ _ ___ _ ___ _ ___ _ ___ _
 72
    65
 73
     4
 40
28.575
 49
19.05
 74
     0
 49
-3.174999999999998
 74
     0
 49
3.174999999999998
 74
     0
 49
-3.174999999999998
 74
     0
  0
ENDTAB
  0
TABLE
  2
LAYER
  5
2
102
{ACAD_XDICTIONARY
360
A0A3
102
}
330
0
100
AcDbSymbolTable
 70
     5
  0
LAYER
  5
F
102
{ACAD_XDICTIONARY
360
9FD1
102
}
330
2
100
AcDbSymbolTableRecord
100
AcDbLayerTableRecord
  2
0
 70
     0
 62
     2
  6
CONTINUOUS
370
    -3
390
1C61
  0
LAYER
  5
30
330
2
100
AcDbSymbolTableRecord
100
AcDbLayerTableRecord
  2
DEFPOINTS
 70
     0
 62
     7
  6
CONTINUOUS
290
     0
370
    -3
390
1C61
  0
LAYER
  5
526
102
{ACAD_XDICTIONARY
360
9FD3
102
}
330
2
100
AcDbSymbolTableRecord
100
AcDbLayerTableRecord
  2
2
 70
     0
 62
     1
  6
CONTINUOUS
370
    -3
390
1C61
  0
LAYER
  5
138F
102
{ACAD_XDICTIONARY
360
9FD5
102
}
330
2
100
AcDbSymbolTableRecord
100
AcDbLayerTableRecord
  2
3
 70
     0
 62
     6
  6
CENTER2
370
    -3
390
1C61
  0
LAYER
  5
1390
102
{ACAD_XDICTIONARY
360
9FD7
102
}
330
2
100
AcDbSymbolTableRecord
100
AcDbLayerTableRecord
  2
1
 70
     0
 62
     7
  6
CONTINUOUS
370
    -3
390
1C61
  0
ENDTAB
  0
TABLE
  2
STYLE
  5
3
330
0
100
AcDbSymbolTable
 70
     2
  0
STYLE
  5
10
330
3
100
AcDbSymbolTableRecord
100
AcDbTextStyleTableRecord
  2
STANDARD
 70
     0
 40
0.0
 41
1.0
 50
0.0
 71
     0
 42
3.5
  3
ISOCP.SHX
  4
extfont.shx
  0
STYLE
  5
52A
330
3
100
AcDbSymbolTableRecord
100
AcDbTextStyleTableRecord
  2
BIGFONT
 70
     0
 40
0.0
 41
1.0
 50
0.0
 71
     0
 42
3.5
  3
txt
  4
bigfont
  0
ENDTAB
  0
TABLE
  2
VIEW
  5
6
330
0
100
AcDbSymbolTable
 70
     0
  0
ENDTAB
  0
TABLE
  2
UCS
  5
7
330
0
100
AcDbSymbolTable
 70
     0
  0
ENDTAB
  0
TABLE
  2
APPID
  5
9
330
0
100
AcDbSymbolTable
 70
     9
  0
APPID
  5
11
330
9
100
AcDbSymbolTableRecord
100
AcDbRegAppTableRecord
  2
ACAD
 70
     0
  0
APPID
  5
323
330
9
100
AcDbSymbolTableRecord
100
AcDbRegAppTableRecord
  2
CONTENTTABDATA
 70
     0
  0
APPID
  5
324
330
9
100
AcDbSymbolTableRecord
100
AcDbRegAppTableRecord
  2
CONTENTCURRENTTAB
 70
     0
  0
APPID
  5
9A86
330
9
100
AcDbSymbolTableRecord
100
AcDbRegAppTableRecord
  2
ACAD_EXEMPT_FROM_CAD_STANDARDS
 70
     0
  0
APPID
  5
9FCB
330
9
100
AcDbSymbolTableRecord
100
AcDbRegAppTableRecord
  2
ACAD_MLEADERVER
 70
     0
  0
APPID
  5
A5D8
330
9
100
AcDbSymbolTableRecord
100
AcDbRegAppTableRecord
  2
GENIUS_GENODEF_13
 70
     0
  0
APPID
  5
A5D9
330
9
100
AcDbSymbolTableRecord
100
AcDbRegAppTableRecord
  2
GENIUS_GENOBJ-N-FIL_13
 70
     0
  0
APPID
  5
A5DA
330
9
100
AcDbSymbolTableRecord
100
AcDbRegAppTableRecord
  2
ACAD_PSEXT
 70
     0
  0
APPID
  5
FAAB
330
9
100
AcDbSymbolTableRecord
100
AcDbRegAppTableRecord
  2
ACAD_NAV_VCDISPLAY
 70
     0
  0
ENDTAB
  0
TABLE
  2
DIMSTYLE
  5
A
330
0
100
AcDbSymbolTable
 70
     2
100
AcDbDimStyleTable
 71
     1
340
117
  0
DIMSTYLE
105
117
330
A
100
AcDbSymbolTableRecord
100
AcDbDimStyleTableRecord
  2
STANDARD
 70
     0
 41
2.5
 73
     0
 74
     0
 77
     1
 78
    12
140
3.0
141
-1.0
147
1.0
172
     1
271
     2
272
     2
284
    12
340
52A
  0
DIMSTYLE
105
2346
102
{ACAD_REACTORS
330
EE38
330
FB3F
330
FB40
330
FB41
102
}
330
A
100
AcDbSymbolTableRecord
100
AcDbDimStyleTableRecord
  2
\U+00D71
 70
     0
 40
0.0
 41
3.0
 42
0.0
 47
0.1
 48
0.1
 73
     0
 74
     0
 77
     1
 78
     8
 79
     2
140
3.0
141
-3.0
147
1.0
172
     1
179
     3
284
     8
289
     2
340
52A
  0
ENDTAB
  0
TABLE
  2
BLOCK_RECORD
  5
1
330
0
100
AcDbSymbolTable
 70
    17
  0
BLOCK_RECORD
  5
18
102
{ACAD_XDICTIONARY
360
9ACC
102
}
330
1
100
AcDbSymbolTableRecord
100
AcDbBlockTableRecord
  2
*MODEL_SPACE
340
1C64
  0
BLOCK_RECORD
  5
15
330
1
100
AcDbSymbolTableRecord
100
AcDbBlockTableRecord
  2
*PAPER_SPACE
340
1C65
  0
BLOCK_RECORD
  5
EAC2
102
{ACAD_XDICTIONARY
360
EB3C
102
}
330
1
100
AcDbSymbolTableRecord
100
AcDbBlockTableRecord
  2
A$C67D15A66
340
0
102
{BLKREFS
331
EB40
102
}
  0
BLOCK_RECORD
  5
EB41
102
{ACAD_XDICTIONARY
360
EB81
102
}
330
1
100
AcDbSymbolTableRecord
100
AcDbBlockTableRecord
  2
A$C11A66D03
340
0
102
{BLKREFS
331
EB85
102
}
  0
BLOCK_RECORD
  5
EB86
102
{ACAD_XDICTIONARY
360
EBC6
102
}
330
1
100
AcDbSymbolTableRecord
100
AcDbBlockTableRecord
  2
A$C45131AE7
340
0
102
{BLKREFS
331
EBCA
102
}
  0
BLOCK_RECORD
  5
EBCB
102
{ACAD_XDICTIONARY
360
EC45
102
}
330
1
100
AcDbSymbolTableRecord
100
AcDbBlockTableRecord
  2
A$C43691DAA
340
0
102
{BLKREFS
331
EC49
102
}
  0
BLOCK_RECORD
  5
EC4A
102
{ACAD_XDICTIONARY
360
ECBD
102
}
330
1
100
AcDbSymbolTableRecord
100
AcDbBlockTableRecord
  2
A$C6E5F17A0
340
0
102
{BLKREFS
331
ECC1
102
}
  0
BLOCK_RECORD
  5
ECC2
102
{ACAD_XDICTIONARY
360
EDB0
102
}
330
1
100
AcDbSymbolTableRecord
100
AcDbBlockTableRecord
  2
A$C6AF37FBF
340
0
102
{BLKREFS
331
EDB4
102
}
  0
BLOCK_RECORD
  5
EDF5
330
1
100
AcDbSymbolTableRecord
100
AcDbBlockTableRecord
  2
*D6
340
0
  0
BLOCK_RECORD
  5
EE01
330
1
100
AcDbSymbolTableRecord
100
AcDbBlockTableRecord
  2
*D7
340
0
  0
BLOCK_RECORD
  5
EE0D
330
1
100
AcDbSymbolTableRecord
100
AcDbBlockTableRecord
  2
*D8
340
0
  0
BLOCK_RECORD
  5
EE39
330
1
100
AcDbSymbolTableRecord
100
AcDbBlockTableRecord
  2
*D9
340
0
  0
BLOCK_RECORD
  5
FA85
330
1
100
AcDbSymbolTableRecord
100
AcDbBlockTableRecord
  2
*D10
340
0
  0
BLOCK_RECORD
  5
FA91
330
1
100
AcDbSymbolTableRecord
100
AcDbBlockTableRecord
  2
*D11
340
0
  0
BLOCK_RECORD
  5
FA9D
330
1
100
AcDbSymbolTableRecord
100
AcDbBlockTableRecord
  2
*D12
340
0
  0
BLOCK_RECORD
  5
FB5A
330
1
100
AcDbSymbolTableRecord
100
AcDbBlockTableRecord
  2
*D14
340
0
  0
BLOCK_RECORD
  5
FB66
330
1
100
AcDbSymbolTableRecord
100
AcDbBlockTableRecord
  2
*D15
340
0
  0
BLOCK_RECORD
  5
FB72
330
1
100
AcDbSymbolTableRecord
100
AcDbBlockTableRecord
  2
*D16
340
0
  0
ENDTAB
  0
ENDSEC
  0
SECTION
  2
BLOCKS
  0
BLOCK
  5
44
330
18
100
AcDbEntity
  8
0
100
AcDbBlockBegin
  2
*MODEL_SPACE
 70
     2
 10
0.0
 20
0.0
 30
0.0
  3
*MODEL_SPACE
  1

  0
ENDBLK
  5
45
330
18
100
AcDbEntity
  8
0
100
AcDbBlockEnd
  0
BLOCK
  5
42
330
15
100
AcDbEntity
 67
     1
  8
0
100
AcDbBlockBegin
  2
*PAPER_SPACE
 70
     0
 10
0.0
 20
0.0
 30
0.0
  3
*PAPER_SPACE
  1

  0
ENDBLK
  5
43
330
15
100
AcDbEntity
 67
     1
  8
0
100
AcDbBlockEnd
  0
BLOCK
  5
EB3E
330
EAC2
100
AcDbEntity
  8
0
 62
     7
100
AcDbBlockBegin
  2
A$C67D15A66
 70
     0
 10
0.0
 20
0.0
 30
0.0
  3
A$C67D15A66
  1

  0
LINE
  5
EAC3
330
EAC2
100
AcDbEntity
  8
1
 62
     7
100
AcDbLine
 10
75.49999435794325
 20
30.30956146811821
 30
0.0
 11
66.79999435794298
 21
30.30956146811821
 31
0.0
  0
LINE
  5
EAC4
330
EAC2
100
AcDbEntity
  8
1
 62
     7
100
AcDbLine
 10
122.9999943579432
 20
7.424496022643777
 30
0.0
 11
114.299994357943
 21
7.424496022643666
 31
0.0
  0
LINE
  5
EAC5
330
EAC2
100
AcDbEntity
  8
1
 62
     7
100
AcDbLine
 10
122.5999943579427
 20
37.81702874538087
 30
0.0
 11
114.699994357943
 21
37.81702874538087
 31
0.0
  0
LINE
  5
EAC6
330
EAC2
100
AcDbEntity
  8
1
 62
     7
100
AcDbLine
 10
151.799994357943
 20
29.10956146811816
 30
0.0
 11
151.7999943579425
 21
0.577898989080893
 31
0.0
  0
LINE
  5
EAC7
330
EAC2
100
AcDbEntity
  8
1
 62
     7
100
AcDbLine
 10
123.199994357943
 20
37.21702874538085
 30
0.0
 11
123.199994357943
 21
30.90956146811823
 31
0.0
  0
LINE
  5
EAC8
330
EAC2
100
AcDbEntity
  8
1
 62
     7
100
AcDbLine
 10
133.0999943579431
 20
37.21702874538085
 30
0.0
 11
133.0999943579431
 21
30.90956146811811
 31
0.0
  0
LINE
  5
EAC9
330
EAC2
100
AcDbEntity
  8
1
 62
     7
100
AcDbLine
 10
142.1999943579431
 20
37.21702874538085
 30
0.0
 11
142.1999943579431
 21
30.90956146811823
 31
0.0
  0
LINE
  5
EACA
330
EAC2
100
AcDbEntity
  8
1
 62
     7
100
AcDbLine
 10
133.2999943579429
 20
7.424496022643777
 30
0.0
 11
141.9999943579432
 21
7.424496022643777
 31
0.0
  0
LINE
  5
EACB
330
EAC2
100
AcDbEntity
  8
3
  6
CENTER2
 62
     6
100
AcDbLine
 10
-0.0000056420567489
 20
3.867028745381162
 30
0.0
 11
151.799994357943
 21
3.867028745381048
 31
0.0
  0
LINE
  5
EACC
330
EAC2
100
AcDbEntity
  8
1
 62
     7
100
AcDbLine
 10
142.5999943579431
 20
0.417028745381117
 30
0.0
 11
142.5999943579431
 21
6.824496022643756
 31
0.0
  0
ARC
  5
EACD
330
EAC2
100
AcDbEntity
  8
1
 62
     7
100
AcDbCircle
 10
143.0999943579431
 20
0.417028745381117
 30
0.0
 40
0.5
100
AcDbArc
 50
180.0
 51
192.4116877924409
  0
LINE
  5
EACE
330
EAC2
100
AcDbEntity
  8
1
 62
     7
100
AcDbLine
 10
123.5999943579431
 20
6.824496022643756
 30
0.0
 11
123.5999943579431
 21
0.5170287453810261
 31
0.0
  0
ARC
  5
EACF
330
EAC2
100
AcDbEntity
  8
1
 62
     7
100
AcDbCircle
 10
132.0999943579431
 20
0.5170287453810261
 30
0.0
 40
0.6
100
AcDbArc
 50
354.5389069001049
 51
0.0
  0
ARC
  5
EAD0
330
EAC2
100
AcDbEntity
  8
1
 62
     7
100
AcDbCircle
 10
124.199994357943
 20
0.5170287453810261
 30
0.0
 40
0.6
100
AcDbArc
 50
180.0
 51
200.2293435782128
  0
LINE
  5
EAD1
330
EAC2
100
AcDbEntity
  8
3
  6
CENTER2
 62
     6
100
AcDbLine
 10
-0.0000056420567489
 20
33.86702874538105
 30
0.0
 11
151.799994357943
 21
33.86702874538105
 31
0.0
  0
LINE
  5
EAD2
330
EAC2
100
AcDbEntity
  8
1
 62
     7
100
AcDbLine
 10
133.699994357943
 20
37.81702874538087
 30
0.0
 11
141.5999943579427
 21
37.81702874538087
 31
0.0
  0
LINE
  5
EAD3
330
EAC2
100
AcDbEntity
  8
1
 62
     7
100
AcDbLine
 10
150.5999943579431
 20
30.30956146811821
 30
0.0
 11
142.7999943579429
 21
30.30956146811821
 31
0.0
  0
LINE
  5
EAD4
330
EAC2
100
AcDbEntity
  8
1
 62
     7
100
AcDbLine
 10
123.7999943579429
 20
30.30956146811821
 30
0.0
 11
132.4999943579432
 21
30.30956146811809
 31
0.0
  0
LINE
  5
EAD5
330
EAC2
100
AcDbEntity
  8
1
 62
     7
100
AcDbLine
 10
114.0999943579431
 20
37.21702874538085
 30
0.0
 11
114.0999943579431
 21
30.90956146811823
 31
0.0
  0
LINE
  5
EAD6
330
EAC2
100
AcDbEntity
  8
1
 62
     7
100
AcDbLine
 10
104.199994357943
 20
37.21702874538085
 30
0.0
 11
104.199994357943
 21
30.90956146811823
 31
0.0
  0
LINE
  5
EAD7
330
EAC2
100
AcDbEntity
  8
1
 62
     7
100
AcDbLine
 10
76.09999435794316
 20
37.21702874538085
 30
0.0
 11
76.09999435794316
 21
30.90956146811823
 31
0.0
  0
LINE
  5
EAD8
330
EAC2
100
AcDbEntity
  8
1
 62
     7
100
AcDbLine
 10
95.09999435794316
 20
37.21702874538085
 30
0.0
 11
95.09999435794316
 21
30.90956146811823
 31
0.0
  0
LINE
  5
EAD9
330
EAC2
100
AcDbEntity
  8
1
 62
     7
100
AcDbLine
 10
85.19999435794305
 20
37.21702874538085
 30
0.0
 11
85.19999435794305
 21
30.90956146811823
 31
0.0
  0
LINE
  5
EADA
330
EAC2
100
AcDbEntity
  8
1
 62
     7
100
AcDbLine
 10
113.699994357943
 20
6.824496022643642
 30
0.0
 11
113.699994357943
 21
0.5170287453810261
 31
0.0
  0
LINE
  5
EADB
330
EAC2
100
AcDbEntity
  8
1
 62
     7
100
AcDbLine
 10
94.69999435794305
 20
6.824496022643642
 30
0.0
 11
94.69999435794305
 21
0.5170287453810261
 31
0.0
  0
LINE
  5
EADC
330
EAC2
100
AcDbEntity
  8
1
 62
     7
100
AcDbLine
 10
104.5999943579431
 20
6.824496022643756
 30
0.0
 11
104.5999943579427
 21
0.5170287453810261
 31
0.0
  0
ARC
  5
EADD
330
EAC2
100
AcDbEntity
  8
1
 62
     7
100
AcDbCircle
 10
113.0999943579431
 20
0.5170287453810261
 30
0.0
 40
0.6
100
AcDbArc
 50
354.5389069001049
 51
0.0
  0
LINE
  5
EADE
330
EAC2
100
AcDbEntity
  8
1
 62
     7
100
AcDbLine
 10
95.29999435794298
 20
7.424496022643666
 30
0.0
 11
103.9999943579432
 21
7.424496022643777
 31
0.0
  0
ARC
  5
EADF
330
EAC2
100
AcDbEntity
  8
1
 62
     7
100
AcDbCircle
 10
105.199994357943
 20
0.5170287453810261
 30
0.0
 40
0.6
100
AcDbArc
 50
180.0
 51
200.2293435782067
  0
ARC
  5
EAE0
330
EAC2
100
AcDbEntity
  8
1
 62
     7
100
AcDbCircle
 10
94.09999435794269
 20
0.5170287453810261
 30
0.0
 40
0.6
100
AcDbArc
 50
354.538906900079
 51
0.0
  0
LINE
  5
EAE1
330
EAC2
100
AcDbEntity
  8
1
 62
     7
100
AcDbLine
 10
85.59999435794271
 20
6.824496022643756
 30
0.0
 11
85.59999435794271
 21
0.5170287453810261
 31
0.0
  0
LINE
  5
EAE2
330
EAC2
100
AcDbEntity
  8
1
 62
     7
100
AcDbLine
 10
75.69999435794305
 20
6.824496022643756
 30
0.0
 11
75.69999435794305
 21
0.5170287453810261
 31
0.0
  0
LINE
  5
EAE3
330
EAC2
100
AcDbEntity
  8
1
 62
     7
100
AcDbLine
 10
84.99999435794325
 20
7.424496022643777
 30
0.0
 11
76.29999435794298
 21
7.424496022643777
 31
0.0
  0
ARC
  5
EAE4
330
EAC2
100
AcDbEntity
  8
1
 62
     7
100
AcDbCircle
 10
86.19999435794303
 20
0.5170287453810261
 30
0.0
 40
0.6
100
AcDbArc
 50
180.0
 51
200.2293435782067
  0
ARC
  5
EAE5
330
EAC2
100
AcDbEntity
  8
1
 62
     7
100
AcDbCircle
 10
75.0999943579427
 20
0.5170287453810261
 30
0.0
 40
0.6
100
AcDbArc
 50
300.4904373372536
 51
0.0
  0
LINE
  5
EAE6
330
EAC2
100
AcDbEntity
  8
1
 62
     7
100
AcDbLine
 10
85.79999435794297
 20
30.30956146811821
 30
0.0
 11
94.49999435794323
 21
30.30956146811821
 31
0.0
  0
LINE
  5
EAE7
330
EAC2
100
AcDbEntity
  8
1
 62
     7
100
AcDbLine
 10
113.4999943579432
 20
30.30956146811821
 30
0.0
 11
104.799994357943
 21
30.30956146811821
 31
0.0
  0
LINE
  5
EAE8
330
EAC2
100
AcDbEntity
  8
1
 62
     7
100
AcDbLine
 10
103.5999943579427
 20
37.81702874538087
 30
0.0
 11
95.69999435794306
 21
37.81702874538087
 31
0.0
  0
LINE
  5
EAE9
330
EAC2
100
AcDbEntity
  8
1
 62
     7
100
AcDbLine
 10
76.69999435794306
 20
37.81702874538087
 30
0.0
 11
84.59999435794271
 21
37.81702874538087
 31
0.0
  0
LINE
  5
EAEA
330
EAC2
100
AcDbEntity
  8
1
 62
     7
100
AcDbLine
 10
19.29999435794298
 20
7.424496022643721
 30
0.0
 11
27.99999435794325
 21
7.424496022643777
 31
0.0
  0
LINE
  5
EAEB
330
EAC2
100
AcDbEntity
  8
1
 62
     7
100
AcDbLine
 10
19.69999435794307
 20
37.81702874538087
 30
0.0
 11
27.5999943579427
 21
37.81702874538081
 31
0.0
  0
LINE
  5
EAEC
330
EAC2
100
AcDbEntity
  8
1
 62
     7
100
AcDbLine
 10
66.19999435794307
 20
37.21702874538085
 30
0.0
 11
66.19999435794307
 21
30.90956146811823
 31
0.0
  0
LINE
  5
EAED
330
EAC2
100
AcDbEntity
  8
1
 62
     7
100
AcDbLine
 10
38.09999435794271
 20
37.21702874538085
 30
0.0
 11
38.09999435794271
 21
30.90956146811811
 31
0.0
  0
LINE
  5
EAEE
330
EAC2
100
AcDbEntity
  8
1
 62
     7
100
AcDbLine
 10
28.19999435794307
 20
37.21702874538085
 30
0.0
 11
28.19999435794307
 21
30.90956146811823
 31
0.0
  0
LINE
  5
EAEF
330
EAC2
100
AcDbEntity
  8
1
 62
     7
100
AcDbLine
 10
57.0999943579427
 20
37.21702874538085
 30
0.0
 11
57.0999943579427
 21
30.90956146811811
 31
0.0
  0
LINE
  5
EAF0
330
EAC2
100
AcDbEntity
  8
1
 62
     7
100
AcDbLine
 10
47.19999435794306
 20
37.21702874538085
 30
0.0
 11
47.19999435794306
 21
30.90956146811823
 31
0.0
  0
ARC
  5
EAF1
330
EAC2
100
AcDbEntity
  8
1
 62
     7
100
AcDbCircle
 10
46.99999435794325
 20
6.824496022643756
 30
0.0
 40
0.6
100
AcDbArc
 50
0.0
 51
90.0
  0
LINE
  5
EAF2
330
EAC2
100
AcDbEntity
  8
1
 62
     7
100
AcDbLine
 10
47.5999943579427
 20
6.824496022643756
 30
0.0
 11
47.5999943579427
 21
0.5170287453810261
 31
0.0
  0
LINE
  5
EAF3
330
EAC2
100
AcDbEntity
  8
1
 62
     7
100
AcDbLine
 10
56.69999435794307
 20
6.824496022643699
 30
0.0
 11
56.69999435794307
 21
0.5170287453810261
 31
0.0
  0
LINE
  5
EAF4
330
EAC2
100
AcDbEntity
  8
1
 62
     7
100
AcDbLine
 10
66.5999943579427
 20
6.824496022643756
 30
0.0
 11
66.5999943579427
 21
0.5170287453810261
 31
0.0
  0
LINE
  5
EAF5
330
EAC2
100
AcDbEntity
  8
1
 62
     7
100
AcDbLine
 10
57.29999435794297
 20
7.424496022643721
 30
0.0
 11
65.99999435794325
 21
7.424496022643777
 31
0.0
  0
ARC
  5
EAF6
330
EAC2
100
AcDbEntity
  8
1
 62
     7
100
AcDbCircle
 10
67.19999435794306
 20
0.5170287453810261
 30
0.0
 40
0.6
100
AcDbArc
 50
180.0
 51
197.6984644306615
  0
ARC
  5
EAF7
330
EAC2
100
AcDbEntity
  8
1
 62
     7
100
AcDbCircle
 10
56.09999435794271
 20
0.5170287453810261
 30
0.0
 40
0.6
100
AcDbArc
 50
342.3015355692747
 51
0.0
  0
ARC
  5
EAF8
330
EAC2
100
AcDbEntity
  8
1
 62
     7
100
AcDbCircle
 10
48.19999435794307
 20
0.5170287453810261
 30
0.0
 40
0.6
100
AcDbArc
 50
180.0
 51
197.6984644306615
  0
LINE
  5
EAF9
330
EAC2
100
AcDbEntity
  8
1
 62
     7
100
AcDbLine
 10
37.69999435794307
 20
6.824496022643699
 30
0.0
 11
37.69999435794307
 21
0.5170287453810261
 31
0.0
  0
LINE
  5
EAFA
330
EAC2
100
AcDbEntity
  8
1
 62
     7
100
AcDbLine
 10
28.59999435794271
 20
6.824496022643756
 30
0.0
 11
28.59999435794271
 21
0.5170287453810261
 31
0.0
  0
LINE
  5
EAFB
330
EAC2
100
AcDbEntity
  8
1
 62
     7
100
AcDbLine
 10
46.99999435794325
 20
7.424496022643777
 30
0.0
 11
38.29999435794298
 21
7.424496022643721
 31
0.0
  0
ARC
  5
EAFC
330
EAC2
100
AcDbEntity
  8
1
 62
     7
100
AcDbCircle
 10
37.09999435794272
 20
0.5170287453810261
 30
0.0
 40
0.6
100
AcDbArc
 50
342.3015355692685
 51
0.0
  0
ARC
  5
EAFD
330
EAC2
100
AcDbEntity
  8
1
 62
     7
100
AcDbCircle
 10
27.99999435794325
 20
6.824496022643756
 30
0.0
 40
0.6
100
AcDbArc
 50
0.0
 51
90.0
  0
ARC
  5
EAFE
330
EAC2
100
AcDbEntity
  8
1
 62
     7
100
AcDbCircle
 10
29.19999435794307
 20
0.5170287453810261
 30
0.0
 40
0.6
100
AcDbArc
 50
180.0
 51
197.6984644306708
  0
LINE
  5
EAFF
330
EAC2
100
AcDbEntity
  8
1
 62
     7
100
AcDbLine
 10
47.79999435794297
 20
30.30956146811821
 30
0.0
 11
56.49999435794325
 21
30.30956146811809
 31
0.0
  0
LINE
  5
EB00
330
EAC2
100
AcDbEntity
  8
1
 62
     7
100
AcDbLine
 10
65.59999435794272
 20
37.81702874538087
 30
0.0
 11
57.69999435794307
 21
37.81702874538087
 31
0.0
  0
LINE
  5
EB01
330
EAC2
100
AcDbEntity
  8
1
 62
     7
100
AcDbLine
 10
37.49999435794325
 20
30.30956146811809
 30
0.0
 11
28.79999435794298
 21
30.30956146811821
 31
0.0
  0
LINE
  5
EB02
330
EAC2
100
AcDbEntity
  8
1
 62
     7
100
AcDbLine
 10
46.5999943579427
 20
37.81702874538081
 30
0.0
 11
38.69999435794307
 21
37.81702874538087
 31
0.0
  0
LINE
  5
EB03
330
EAC2
100
AcDbEntity
  8
1
 62
     7
100
AcDbLine
 10
-0.0000056420572037
 20
8.624496022643768
 30
0.0
 11
-0.0000056420572037
 21
37.21702874538085
 31
0.0
  0
LINE
  5
EB04
330
EAC2
100
AcDbEntity
  8
1
 62
     7
100
AcDbLine
 10
19.09999435794316
 20
37.21702874538085
 30
0.0
 11
19.0999943579427
 21
30.90956146811823
 31
0.0
  0
LINE
  5
EB05
330
EAC2
100
AcDbEntity
  8
1
 62
     7
100
AcDbLine
 10
9.199994357943069
 20
37.21702874538085
 30
0.0
 11
9.199994357943069
 21
30.90956146811823
 31
0.0
  0
LINE
  5
EB06
330
EAC2
100
AcDbEntity
  8
1
 62
     7
100
AcDbLine
 10
1.199994357943067
 20
7.424496022643777
 30
0.0
 11
8.999994357943252
 21
7.424496022643777
 31
0.0
  0
LINE
  5
EB07
330
EAC2
100
AcDbEntity
  8
1
 62
     7
100
AcDbLine
 10
9.59999435794316
 20
6.824496022643756
 30
0.0
 11
9.59999435794316
 21
0.5170287453810261
 31
0.0
  0
LINE
  5
EB08
330
EAC2
100
AcDbEntity
  8
1
 62
     7
100
AcDbLine
 10
18.69999435794307
 20
6.824496022643699
 30
0.0
 11
18.69999435794307
 21
0.5170287453810261
 31
0.0
  0
ARC
  5
EB09
330
EAC2
100
AcDbEntity
  8
1
 62
     7
100
AcDbCircle
 10
18.0999943579427
 20
0.5170287453810261
 30
0.0
 40
0.6
100
AcDbArc
 50
342.3015355692747
 51
0.0
  0
ARC
  5
EB0A
330
EAC2
100
AcDbEntity
  8
1
 62
     7
100
AcDbCircle
 10
8.999994357943252
 20
6.824496022643756
 30
0.0
 40
0.6
100
AcDbArc
 50
0.0
 51
90.0
  0
ARC
  5
EB0B
330
EAC2
100
AcDbEntity
  8
1
 62
     7
100
AcDbCircle
 10
10.19999435794307
 20
0.5170287453810261
 30
0.0
 40
0.6
100
AcDbArc
 50
180.0
 51
197.6984644306708
  0
LINE
  5
EB0C
330
EAC2
100
AcDbEntity
  8
1
 62
     7
100
AcDbLine
 10
0.5999943579431603
 20
37.81702874538087
 30
0.0
 11
8.599994357942705
 21
37.81702874538087
 31
0.0
  0
LINE
  5
EB0D
330
EAC2
100
AcDbEntity
  8
1
 62
     7
100
AcDbLine
 10
9.799994357942976
 20
30.30956146811821
 30
0.0
 11
18.49999435794325
 21
30.30956146811821
 31
0.0
  0
LINE
  5
EB0E
330
EAC2
100
AcDbEntity
  8
1
 62
     7
100
AcDbLine
 10
132.699994357943
 20
6.824496022643756
 30
0.0
 11
132.699994357943
 21
0.5170287453810261
 31
0.0
  0
ARC
  5
EB0F
330
EAC2
100
AcDbEntity
  8
1
 62
     7
100
AcDbCircle
 10
19.29999435794298
 20
6.824496022643699
 30
0.0
 40
0.6
100
AcDbArc
 50
90.0
 51
180.0
  0
ARC
  5
EB10
330
EAC2
100
AcDbEntity
  8
1
 62
     7
100
AcDbCircle
 10
28.79999435794298
 20
30.90956146811823
 30
0.0
 40
0.6
100
AcDbArc
 50
180.0
 51
270.0
  0
ARC
  5
EB11
330
EAC2
100
AcDbEntity
  8
1
 62
     7
100
AcDbCircle
 10
37.49999435794325
 20
30.90956146811811
 30
0.0
 40
0.6
100
AcDbArc
 50
270.0
 51
0.0
  0
ARC
  5
EB12
330
EAC2
100
AcDbEntity
  8
1
 62
     7
100
AcDbCircle
 10
47.79999435794297
 20
30.90956146811823
 30
0.0
 40
0.6
100
AcDbArc
 50
180.0
 51
270.0
  0
ARC
  5
EB13
330
EAC2
100
AcDbEntity
  8
1
 62
     7
100
AcDbCircle
 10
142.7999943579429
 20
30.90956146811823
 30
0.0
 40
0.6
100
AcDbArc
 50
180.0
 51
270.0
  0
ARC
  5
EB14
330
EAC2
100
AcDbEntity
  8
1
 62
     7
100
AcDbCircle
 10
38.29999435794298
 20
6.824496022643699
 30
0.0
 40
0.6
100
AcDbArc
 50
90.0
 51
180.0
  0
ARC
  5
EB15
330
EAC2
100
AcDbEntity
  8
1
 62
     7
100
AcDbCircle
 10
9.799994357942976
 20
30.90956146811823
 30
0.0
 40
0.6
100
AcDbArc
 50
180.0
 51
270.0
  0
ARC
  5
EB16
330
EAC2
100
AcDbEntity
  8
1
 62
     7
100
AcDbCircle
 10
18.49999435794325
 20
30.90956146811823
 30
0.0
 40
0.6
100
AcDbArc
 50
270.0
 51
0.0
  0
ARC
  5
EB17
330
EAC2
100
AcDbEntity
  8
1
 62
     7
100
AcDbCircle
 10
57.29999435794297
 20
6.824496022643699
 30
0.0
 40
0.6
100
AcDbArc
 50
90.0
 51
180.0
  0
ARC
  5
EB18
330
EAC2
100
AcDbEntity
  8
1
 62
     7
100
AcDbCircle
 10
65.99999435794325
 20
6.824496022643756
 30
0.0
 40
0.6
100
AcDbArc
 50
0.0
 51
90.0
  0
ARC
  5
EB19
330
EAC2
100
AcDbEntity
  8
1
 62
     7
100
AcDbCircle
 10
76.29999435794298
 20
6.824496022643756
 30
0.0
 40
0.6
100
AcDbArc
 50
90.0
 51
180.0
  0
ARC
  5
EB1A
330
EAC2
100
AcDbEntity
  8
1
 62
     7
100
AcDbCircle
 10
84.99999435794325
 20
6.824496022643756
 30
0.0
 40
0.6
100
AcDbArc
 50
0.0
 51
90.0
  0
ARC
  5
EB1B
330
EAC2
100
AcDbEntity
  8
1
 62
     7
100
AcDbCircle
 10
95.29999435794298
 20
6.824496022643642
 30
0.0
 40
0.6
100
AcDbArc
 50
90.0
 51
180.0
  0
ARC
  5
EB1C
330
EAC2
100
AcDbEntity
  8
1
 62
     7
100
AcDbCircle
 10
103.9999943579432
 20
6.824496022643756
 30
0.0
 40
0.6
100
AcDbArc
 50
0.0
 51
90.0
  0
ARC
  5
EB1D
330
EAC2
100
AcDbEntity
  8
1
 62
     7
100
AcDbCircle
 10
114.299994357943
 20
6.824496022643642
 30
0.0
 40
0.6
100
AcDbArc
 50
90.0
 51
180.0
  0
ARC
  5
EB1E
330
EAC2
100
AcDbEntity
  8
1
 62
     7
100
AcDbCircle
 10
122.9999943579432
 20
6.824496022643756
 30
0.0
 40
0.6
100
AcDbArc
 50
0.0
 51
90.0
  0
ARC
  5
EB1F
330
EAC2
100
AcDbEntity
  8
1
 62
     7
100
AcDbCircle
 10
133.2999943579429
 20
6.824496022643756
 30
0.0
 40
0.6
100
AcDbArc
 50
90.0
 51
180.0
  0
ARC
  5
EB20
330
EAC2
100
AcDbEntity
  8
1
 62
     7
100
AcDbCircle
 10
141.9999943579432
 20
6.824496022643756
 30
0.0
 40
0.6
100
AcDbArc
 50
0.0
 51
90.0
  0
ARC
  5
EB21
330
EAC2
100
AcDbEntity
  8
1
 62
     7
100
AcDbCircle
 10
141.5999943579427
 20
37.21702874538085
 30
0.0
 40
0.6
100
AcDbArc
 50
0.0
 51
90.0
  0
ARC
  5
EB22
330
EAC2
100
AcDbEntity
  8
1
 62
     7
100
AcDbCircle
 10
133.699994357943
 20
37.21702874538085
 30
0.0
 40
0.6
100
AcDbArc
 50
90.0
 51
180.0
  0
ARC
  5
EB23
330
EAC2
100
AcDbEntity
  8
1
 62
     7
100
AcDbCircle
 10
132.4999943579432
 20
30.90956146811811
 30
0.0
 40
0.6
100
AcDbArc
 50
270.0
 51
0.0
  0
ARC
  5
EB24
330
EAC2
100
AcDbEntity
  8
1
 62
     7
100
AcDbCircle
 10
123.7999943579429
 20
30.90956146811823
 30
0.0
 40
0.6
100
AcDbArc
 50
180.0
 51
270.0
  0
ARC
  5
EB25
330
EAC2
100
AcDbEntity
  8
1
 62
     7
100
AcDbCircle
 10
122.5999943579427
 20
37.21702874538085
 30
0.0
 40
0.6
100
AcDbArc
 50
0.0
 51
90.0
  0
ARC
  5
EB26
330
EAC2
100
AcDbEntity
  8
1
 62
     7
100
AcDbCircle
 10
114.699994357943
 20
37.21702874538085
 30
0.0
 40
0.6
100
AcDbArc
 50
90.0
 51
180.0
  0
ARC
  5
EB27
330
EAC2
100
AcDbEntity
  8
1
 62
     7
100
AcDbCircle
 10
113.4999943579432
 20
30.90956146811823
 30
0.0
 40
0.6
100
AcDbArc
 50
270.0
 51
0.0
  0
ARC
  5
EB28
330
EAC2
100
AcDbEntity
  8
1
 62
     7
100
AcDbCircle
 10
104.799994357943
 20
30.90956146811823
 30
0.0
 40
0.6
100
AcDbArc
 50
180.0
 51
270.0
  0
ARC
  5
EB29
330
EAC2
100
AcDbEntity
  8
1
 62
     7
100
AcDbCircle
 10
103.5999943579427
 20
37.21702874538085
 30
0.0
 40
0.6
100
AcDbArc
 50
0.0
 51
90.0
  0
ARC
  5
EB2A
330
EAC2
100
AcDbEntity
  8
1
 62
     7
100
AcDbCircle
 10
94.49999435794323
 20
30.90956146811823
 30
0.0
 40
0.6
100
AcDbArc
 50
270.0
 51
0.0
  0
ARC
  5
EB2B
330
EAC2
100
AcDbEntity
  8
1
 62
     7
100
AcDbCircle
 10
95.69999435794306
 20
37.21702874538085
 30
0.0
 40
0.6
100
AcDbArc
 50
90.0
 51
180.0
  0
ARC
  5
EB2C
330
EAC2
100
AcDbEntity
  8
1
 62
     7
100
AcDbCircle
 10
85.79999435794297
 20
30.90956146811823
 30
0.0
 40
0.6
100
AcDbArc
 50
180.0
 51
270.0
  0
ARC
  5
EB2D
330
EAC2
100
AcDbEntity
  8
1
 62
     7
100
AcDbCircle
 10
84.59999435794271
 20
37.21702874538085
 30
0.0
 40
0.6
100
AcDbArc
 50
0.0
 51
90.0
  0
ARC
  5
EB2E
330
EAC2
100
AcDbEntity
  8
1
 62
     7
100
AcDbCircle
 10
76.69999435794306
 20
37.21702874538085
 30
0.0
 40
0.6
100
AcDbArc
 50
90.0
 51
180.0
  0
ARC
  5
EB2F
330
EAC2
100
AcDbEntity
  8
1
 62
     7
100
AcDbCircle
 10
75.49999435794325
 20
30.90956146811823
 30
0.0
 40
0.6
100
AcDbArc
 50
270.0
 51
0.0
  0
ARC
  5
EB30
330
EAC2
100
AcDbEntity
  8
1
 62
     7
100
AcDbCircle
 10
66.79999435794298
 20
30.90956146811823
 30
0.0
 40
0.6
100
AcDbArc
 50
180.0
 51
270.0
  0
ARC
  5
EB31
330
EAC2
100
AcDbEntity
  8
1
 62
     7
100
AcDbCircle
 10
65.59999435794272
 20
37.21702874538085
 30
0.0
 40
0.6
100
AcDbArc
 50
0.0
 51
90.0
  0
ARC
  5
EB32
330
EAC2
100
AcDbEntity
  8
1
 62
     7
100
AcDbCircle
 10
57.69999435794307
 20
37.21702874538085
 30
0.0
 40
0.6
100
AcDbArc
 50
90.0
 51
180.0
  0
ARC
  5
EB33
330
EAC2
100
AcDbEntity
  8
1
 62
     7
100
AcDbCircle
 10
56.49999435794325
 20
30.90956146811811
 30
0.0
 40
0.6
100
AcDbArc
 50
270.0
 51
0.0
  0
ARC
  5
EB34
330
EAC2
100
AcDbEntity
  8
1
 62
     7
100
AcDbCircle
 10
46.5999943579427
 20
37.21702874538085
 30
0.0
 40
0.6
100
AcDbArc
 50
0.0
 51
90.0
  0
ARC
  5
EB35
330
EAC2
100
AcDbEntity
  8
1
 62
     7
100
AcDbCircle
 10
38.69999435794307
 20
37.21702874538085
 30
0.0
 40
0.6
100
AcDbArc
 50
90.0
 51
180.0
  0
ARC
  5
EB36
330
EAC2
100
AcDbEntity
  8
1
 62
     7
100
AcDbCircle
 10
27.5999943579427
 20
37.21702874538085
 30
0.0
 40
0.6
100
AcDbArc
 50
0.0
 51
90.0
  0
ARC
  5
EB37
330
EAC2
100
AcDbEntity
  8
1
 62
     7
100
AcDbCircle
 10
19.69999435794307
 20
37.21702874538085
 30
0.0
 40
0.6
100
AcDbArc
 50
90.0
 51
180.0
  0
ARC
  5
EB38
330
EAC2
100
AcDbEntity
  8
1
 62
     7
100
AcDbCircle
 10
8.599994357942705
 20
37.21702874538085
 30
0.0
 40
0.6
100
AcDbArc
 50
0.0
 51
90.0
  0
ARC
  5
EB39
330
EAC2
100
AcDbEntity
  8
1
 62
     7
100
AcDbCircle
 10
0.5999943579431603
 20
37.21702874538085
 30
0.0
 40
0.6
100
AcDbArc
 50
90.0
 51
180.0
  0
ARC
  5
EB3A
330
EAC2
100
AcDbEntity
  8
1
 62
     7
100
AcDbCircle
 10
1.199994357943067
 20
8.624496022643768
 30
0.0
 40
1.199999999999999
100
AcDbArc
 50
180.0
 51
270.0
  0
ARC
  5
EB3B
330
EAC2
100
AcDbEntity
  8
1
 62
     7
100
AcDbCircle
 10
150.5999943579431
 20
29.10956146811816
 30
0.0
 40
1.199999999999999
100
AcDbArc
 50
0.0
 51
90.0
  0
ENDBLK
  5
EB3F
330
EAC2
100
AcDbEntity
  8
0
 62
     7
100
AcDbBlockEnd
  0
BLOCK
  5
EB83
330
EB41
100
AcDbEntity
  8
0
 62
     7
100
AcDbBlockBegin
  2
A$C11A66D03
 70
     0
 10
0.0
 20
0.0
 30
0.0
  3
A$C11A66D03
  1

  0
LINE
  5
EB42
330
EB41
100
AcDbEntity
  8
1
 62
     7
100
AcDbLine
 10
-0.0000020936117835
 20
8.657555889845525
 30
0.0
 11
-0.0000020936117835
 21
37.25008861258243
 31
0.0
  0
LINE
  5
EB43
330
EB41
100
AcDbEntity
  8
1
 62
     7
100
AcDbLine
 10
75.79999790638841
 20
29.14262133532003
 30
0.0
 11
75.79999790638841
 21
0.5500886125828403
 31
0.0
  0
ARC
  5
EB44
330
EB41
100
AcDbEntity
  8
1
 62
     7
100
AcDbCircle
 10
75.19999790638803
 20
0.5500886125828403
 30
0.0
 40
0.6
100
AcDbArc
 50
293.5350003945871
 51
0.0
  0
LINE
  5
EB45
330
EB41
100
AcDbEntity
  8
1
 62
     7
100
AcDbLine
 10
46.59999790638858
 20
37.8500886125824
 30
0.0
 11
38.69999790638849
 21
37.85008861258245
 31
0.0
  0
LINE
  5
EB46
330
EB41
100
AcDbEntity
  8
1
 62
     7
100
AcDbLine
 10
57.69999790638848
 20
37.85008861258251
 30
0.0
 11
65.59999790638858
 21
37.85008861258251
 31
0.0
  0
LINE
  5
EB47
330
EB41
100
AcDbEntity
  8
3
  6
CENTER2
 62
     6
100
AcDbLine
 10
-0.0000020936122382
 20
33.90008861258275
 30
0.0
 11
75.79999790638884
 21
33.90008861258275
 31
0.0
  0
ARC
  5
EB48
330
EB41
100
AcDbEntity
  8
1
 62
     7
100
AcDbCircle
 10
65.59999790638858
 20
37.25008861258249
 30
0.0
 40
0.6
100
AcDbArc
 50
0.0
 51
90.0
  0
LINE
  5
EB49
330
EB41
100
AcDbEntity
  8
1
 62
     7
100
AcDbLine
 10
74.59999790638858
 20
30.34262133532002
 30
0.0
 11
66.7999979063884
 21
30.34262133532002
 31
0.0
  0
ARC
  5
EB4A
330
EB41
100
AcDbEntity
  8
1
 62
     7
100
AcDbCircle
 10
66.7999979063884
 20
30.94262133532004
 30
0.0
 40
0.6
100
AcDbArc
 50
180.0
 51
270.0
  0
LINE
  5
EB4B
330
EB41
100
AcDbEntity
  8
1
 62
     7
100
AcDbLine
 10
66.19999790638849
 20
37.25008861258249
 30
0.0
 11
66.19999790638849
 21
30.94262133532004
 31
0.0
  0
LINE
  5
EB4C
330
EB41
100
AcDbEntity
  8
1
 62
     7
100
AcDbLine
 10
47.79999790638838
 20
30.34262133532002
 30
0.0
 11
56.49999790638822
 21
30.34262133531996
 31
0.0
  0
ARC
  5
EB4D
330
EB41
100
AcDbEntity
  8
1
 62
     7
100
AcDbCircle
 10
57.69999790638848
 20
37.25008861258249
 30
0.0
 40
0.6
100
AcDbArc
 50
90.0
 51
180.0
  0
ARC
  5
EB4E
330
EB41
100
AcDbEntity
  8
1
 62
     7
100
AcDbCircle
 10
56.49999790638822
 20
30.94262133531998
 30
0.0
 40
0.6
100
AcDbArc
 50
270.0
 51
0.0
  0
LINE
  5
EB4F
330
EB41
100
AcDbEntity
  8
1
 62
     7
100
AcDbLine
 10
57.09999790638858
 20
37.25008861258249
 30
0.0
 11
57.09999790638858
 21
30.94262133531998
 31
0.0
  0
ARC
  5
EB50
330
EB41
100
AcDbEntity
  8
1
 62
     7
100
AcDbCircle
 10
46.59999790638858
 20
37.25008861258243
 30
0.0
 40
0.6
100
AcDbArc
 50
0.0
 51
90.0
  0
ARC
  5
EB51
330
EB41
100
AcDbEntity
  8
1
 62
     7
100
AcDbCircle
 10
47.79999790638838
 20
30.94262133532004
 30
0.0
 40
0.6
100
AcDbArc
 50
180.0
 51
270.0
  0
LINE
  5
EB52
330
EB41
100
AcDbEntity
  8
1
 62
     7
100
AcDbLine
 10
47.19999790638803
 20
37.25008861258243
 30
0.0
 11
47.19999790638849
 21
30.94262133532004
 31
0.0
  0
LINE
  5
EB53
330
EB41
100
AcDbEntity
  8
1
 62
     7
100
AcDbLine
 10
9.799997906388398
 20
30.34262133531996
 30
0.0
 11
18.49999790638822
 21
30.34262133531996
 31
0.0
  0
LINE
  5
EB54
330
EB41
100
AcDbEntity
  8
1
 62
     7
100
AcDbLine
 10
37.49999790638823
 20
30.34262133531991
 30
0.0
 11
28.7999979063884
 21
30.34262133531996
 31
0.0
  0
ARC
  5
EB55
330
EB41
100
AcDbEntity
  8
1
 62
     7
100
AcDbCircle
 10
38.69999790638849
 20
37.25008861258243
 30
0.0
 40
0.6
100
AcDbArc
 50
90.0
 51
180.0
  0
ARC
  5
EB56
330
EB41
100
AcDbEntity
  8
1
 62
     7
100
AcDbCircle
 10
37.49999790638823
 20
30.94262133531993
 30
0.0
 40
0.6
100
AcDbArc
 50
270.0
 51
0.0
  0
LINE
  5
EB57
330
EB41
100
AcDbEntity
  8
1
 62
     7
100
AcDbLine
 10
38.09999790638858
 20
37.25008861258243
 30
0.0
 11
38.09999790638858
 21
30.94262133531993
 31
0.0
  0
ARC
  5
EB58
330
EB41
100
AcDbEntity
  8
1
 62
     7
100
AcDbCircle
 10
19.69999790638849
 20
37.25008861258243
 30
0.0
 40
0.6
100
AcDbArc
 50
90.0
 51
180.0
  0
ARC
  5
EB59
330
EB41
100
AcDbEntity
  8
1
 62
     7
100
AcDbCircle
 10
27.59999790638858
 20
37.25008861258243
 30
0.0
 40
0.6
100
AcDbArc
 50
0.0
 51
90.0
  0
LINE
  5
EB5A
330
EB41
100
AcDbEntity
  8
1
 62
     7
100
AcDbLine
 10
19.69999790638849
 20
37.85008861258245
 30
0.0
 11
27.59999790638858
 21
37.8500886125824
 31
0.0
  0
ARC
  5
EB5B
330
EB41
100
AcDbEntity
  8
1
 62
     7
100
AcDbCircle
 10
28.7999979063884
 20
30.94262133531998
 30
0.0
 40
0.6
100
AcDbArc
 50
180.0
 51
270.0
  0
LINE
  5
EB5C
330
EB41
100
AcDbEntity
  8
1
 62
     7
100
AcDbLine
 10
28.19999790638803
 20
37.25008861258243
 30
0.0
 11
28.19999790638849
 21
30.94262133531998
 31
0.0
  0
ARC
  5
EB5D
330
EB41
100
AcDbEntity
  8
1
 62
     7
100
AcDbCircle
 10
18.49999790638822
 20
30.94262133531998
 30
0.0
 40
0.6
100
AcDbArc
 50
270.0
 51
0.0
  0
LINE
  5
EB5E
330
EB41
100
AcDbEntity
  8
1
 62
     7
100
AcDbLine
 10
19.09999790638858
 20
37.25008861258243
 30
0.0
 11
19.09999790638858
 21
30.94262133531998
 31
0.0
  0
LINE
  5
EB5F
330
EB41
100
AcDbEntity
  8
1
 62
     7
100
AcDbLine
 10
0.5999979063885803
 20
37.85008861258245
 30
0.0
 11
8.59999790638858
 21
37.85008861258245
 31
0.0
  0
ARC
  5
EB60
330
EB41
100
AcDbEntity
  8
1
 62
     7
100
AcDbCircle
 10
8.59999790638858
 20
37.25008861258243
 30
0.0
 40
0.6
100
AcDbArc
 50
0.0
 51
90.0
  0
ARC
  5
EB61
330
EB41
100
AcDbEntity
  8
1
 62
     7
100
AcDbCircle
 10
9.799997906388398
 20
30.94262133531998
 30
0.0
 40
0.6
100
AcDbArc
 50
180.0
 51
270.0
  0
LINE
  5
EB62
330
EB41
100
AcDbEntity
  8
1
 62
     7
100
AcDbLine
 10
9.199997906388032
 20
37.25008861258243
 30
0.0
 11
9.199997906388032
 21
30.94262133531998
 31
0.0
  0
ARC
  5
EB63
330
EB41
100
AcDbEntity
  8
1
 62
     7
100
AcDbCircle
 10
0.5999979063885803
 20
37.25008861258243
 30
0.0
 40
0.6
100
AcDbArc
 50
90.0
 51
180.0
  0
LINE
  5
EB64
330
EB41
100
AcDbEntity
  8
1
 62
     7
100
AcDbLine
 10
46.99999790638822
 20
7.457555889845536
 30
0.0
 11
38.2999979063884
 21
7.457555889845481
 31
0.0
  0
LINE
  5
EB65
330
EB41
100
AcDbEntity
  8
3
  6
CENTER2
 62
     6
100
AcDbLine
 10
-0.0000020936122382
 20
3.900088612582861
 30
0.0
 11
75.79999790638884
 21
3.900088612582861
 31
0.0
  0
LINE
  5
EB66
330
EB41
100
AcDbEntity
  8
1
 62
     7
100
AcDbLine
 10
57.2999979063884
 20
7.457555889845592
 30
0.0
 11
65.99999790638822
 21
7.457555889845647
 31
0.0
  0
LINE
  5
EB67
330
EB41
100
AcDbEntity
  8
1
 62
     7
100
AcDbLine
 10
66.59999790638858
 20
0.5500886125828403
 30
0.0
 11
66.59999790638858
 21
6.857555889845571
 31
0.0
  0
ARC
  5
EB68
330
EB41
100
AcDbEntity
  8
1
 62
     7
100
AcDbCircle
 10
65.99999790638822
 20
6.857555889845571
 30
0.0
 40
0.6
100
AcDbArc
 50
0.0
 51
90.0
  0
ARC
  5
EB69
330
EB41
100
AcDbEntity
  8
1
 62
     7
100
AcDbCircle
 10
67.19999790638849
 20
0.5500886125828403
 30
0.0
 40
0.6
100
AcDbArc
 50
180.0
 51
197.6984644307067
  0
ARC
  5
EB6A
330
EB41
100
AcDbEntity
  8
1
 62
     7
100
AcDbCircle
 10
48.19999790638803
 20
0.5500886125828403
 30
0.0
 40
0.6
100
AcDbArc
 50
180.0
 51
197.6984644306864
  0
LINE
  5
EB6B
330
EB41
100
AcDbEntity
  8
1
 62
     7
100
AcDbLine
 10
56.69999790638849
 20
6.857555889845571
 30
0.0
 11
56.69999790638849
 21
0.5500886125828403
 31
0.0
  0
ARC
  5
EB6C
330
EB41
100
AcDbEntity
  8
1
 62
     7
100
AcDbCircle
 10
56.09999790638858
 20
0.5500886125828403
 30
0.0
 40
0.6
100
AcDbArc
 50
342.3015355692592
 51
0.0
  0
ARC
  5
EB6D
330
EB41
100
AcDbEntity
  8
1
 62
     7
100
AcDbCircle
 10
57.2999979063884
 20
6.857555889845571
 30
0.0
 40
0.6
100
AcDbArc
 50
90.0
 51
180.0
  0
LINE
  5
EB6E
330
EB41
100
AcDbEntity
  8
1
 62
     7
100
AcDbLine
 10
47.59999790638858
 20
6.857555889845513
 30
0.0
 11
47.59999790638858
 21
0.5500886125828403
 31
0.0
  0
LINE
  5
EB6F
330
EB41
100
AcDbEntity
  8
1
 62
     7
100
AcDbLine
 10
47.59999790638858
 20
6.857555889845571
 30
0.0
 11
47.59999790638858
 21
0.5500886125828403
 31
0.0
  0
ARC
  5
EB70
330
EB41
100
AcDbEntity
  8
1
 62
     7
100
AcDbCircle
 10
46.99999790638822
 20
6.857555889845513
 30
0.0
 40
0.6
100
AcDbArc
 50
0.0
 51
90.0
  0
ARC
  5
EB71
330
EB41
100
AcDbEntity
  8
1
 62
     7
100
AcDbCircle
 10
10.19999790638849
 20
0.5500886125827833
 30
0.0
 40
0.6
100
AcDbArc
 50
180.0
 51
197.6984644306974
  0
ARC
  5
EB72
330
EB41
100
AcDbEntity
  8
1
 62
     7
100
AcDbCircle
 10
29.19999790638803
 20
0.5500886125827833
 30
0.0
 40
0.6
100
AcDbArc
 50
180.0
 51
197.6984644306802
  0
LINE
  5
EB73
330
EB41
100
AcDbEntity
  8
1
 62
     7
100
AcDbLine
 10
37.69999790638804
 20
6.857555889845457
 30
0.0
 11
37.69999790638804
 21
0.5500886125827833
 31
0.0
  0
ARC
  5
EB74
330
EB41
100
AcDbEntity
  8
1
 62
     7
100
AcDbCircle
 10
37.09999790638858
 20
0.5500886125827833
 30
0.0
 40
0.6
100
AcDbArc
 50
342.3015355692747
 51
0.0
  0
ARC
  5
EB75
330
EB41
100
AcDbEntity
  8
1
 62
     7
100
AcDbCircle
 10
38.2999979063884
 20
6.857555889845457
 30
0.0
 40
0.6
100
AcDbArc
 50
90.0
 51
180.0
  0
LINE
  5
EB76
330
EB41
100
AcDbEntity
  8
1
 62
     7
100
AcDbLine
 10
18.69999790638803
 20
6.857555889845457
 30
0.0
 11
18.69999790638803
 21
0.5500886125827833
 31
0.0
  0
ARC
  5
EB77
330
EB41
100
AcDbEntity
  8
1
 62
     7
100
AcDbCircle
 10
18.09999790638858
 20
0.5500886125827833
 30
0.0
 40
0.6
100
AcDbArc
 50
342.3015355692747
 51
0.0
  0
LINE
  5
EB78
330
EB41
100
AcDbEntity
  8
1
 62
     7
100
AcDbLine
 10
28.59999790638858
 20
6.857555889845513
 30
0.0
 11
28.59999790638858
 21
0.5500886125827833
 31
0.0
  0
LINE
  5
EB79
330
EB41
100
AcDbEntity
  8
1
 62
     7
100
AcDbLine
 10
19.2999979063884
 20
7.457555889845481
 30
0.0
 11
27.99999790638822
 21
7.457555889845536
 31
0.0
  0
ARC
  5
EB7A
330
EB41
100
AcDbEntity
  8
1
 62
     7
100
AcDbCircle
 10
27.99999790638822
 20
6.857555889845513
 30
0.0
 40
0.6
100
AcDbArc
 50
0.0
 51
90.0
  0
ARC
  5
EB7B
330
EB41
100
AcDbEntity
  8
1
 62
     7
100
AcDbCircle
 10
19.2999979063884
 20
6.857555889845457
 30
0.0
 40
0.6
100
AcDbArc
 50
90.0
 51
180.0
  0
LINE
  5
EB7C
330
EB41
100
AcDbEntity
  8
1
 62
     7
100
AcDbLine
 10
1.199997906388488
 20
7.457555889845536
 30
0.0
 11
8.999997906388216
 21
7.457555889845536
 31
0.0
  0
LINE
  5
EB7D
330
EB41
100
AcDbEntity
  8
1
 62
     7
100
AcDbLine
 10
9.59999790638858
 20
6.857555889845513
 30
0.0
 11
9.59999790638858
 21
0.5500886125827833
 31
0.0
  0
ARC
  5
EB7E
330
EB41
100
AcDbEntity
  8
1
 62
     7
100
AcDbCircle
 10
8.999997906388216
 20
6.857555889845513
 30
0.0
 40
0.6
100
AcDbArc
 50
0.0
 51
90.0
  0
ARC
  5
EB7F
330
EB41
100
AcDbEntity
  8
1
 62
     7
100
AcDbCircle
 10
1.199997906388488
 20
8.657555889845525
 30
0.0
 40
1.199999999999999
100
AcDbArc
 50
180.0
 51
270.0
  0
ARC
  5
EB80
330
EB41
100
AcDbEntity
  8
1
 62
     7
100
AcDbCircle
 10
74.59999790638858
 20
29.14262133532003
 30
0.0
 40
1.199999999999999
100
AcDbArc
 50
0.0
 51
90.0
  0
ENDBLK
  5
EB84
330
EB41
100
AcDbEntity
  8
0
 62
     7
100
AcDbBlockEnd
  0
BLOCK
  5
EBC8
330
EB86
100
AcDbEntity
  8
0
 62
     7
100
AcDbBlockBegin
  2
A$C45131AE7
 70
     0
 10
0.0
 20
0.0
 30
0.0
  3
A$C45131AE7
  1

  0
LINE
  5
EB87
330
EB86
100
AcDbEntity
  8
1
 62
     7
100
AcDbLine
 10
-0.0000056420562942
 20
8.707466404651199
 30
0.0
 11
-0.0000056420562942
 21
37.29999912738811
 31
0.0
  0
LINE
  5
EB88
330
EB86
100
AcDbEntity
  8
1
 62
     7
100
AcDbLine
 10
75.79999435794388
 20
29.1925318501257
 30
0.0
 11
75.79999435794388
 21
0.5999991273885144
 31
0.0
  0
ARC
  5
EB89
330
EB86
100
AcDbEntity
  8
1
 62
     7
100
AcDbCircle
 10
75.19999435794351
 20
0.5999991273885144
 30
0.0
 40
0.6
100
AcDbArc
 50
270.0
 51
0.0
  0
LINE
  5
EB8A
330
EB86
100
AcDbEntity
  8
3
  6
CENTER2
 62
     6
100
AcDbLine
 10
-0.0000056420567489
 20
33.94999912738843
 30
0.0
 11
75.79999435794434
 21
33.94999912738843
 31
0.0
  0
ARC
  5
EB8B
330
EB86
100
AcDbEntity
  8
1
 62
     7
100
AcDbCircle
 10
65.59999435794407
 20
37.29999912738815
 30
0.0
 40
0.6
100
AcDbArc
 50
0.0
 51
17.69846443069742
  0
LINE
  5
EB8C
330
EB86
100
AcDbEntity
  8
1
 62
     7
100
AcDbLine
 10
74.59999435794405
 20
30.39253185012569
 30
0.0
 11
66.79999435794389
 21
30.39253185012569
 31
0.0
  0
ARC
  5
EB8D
330
EB86
100
AcDbEntity
  8
1
 62
     7
100
AcDbCircle
 10
66.79999435794389
 20
30.99253185012571
 30
0.0
 40
0.6
100
AcDbArc
 50
180.0
 51
270.0
  0
LINE
  5
EB8E
330
EB86
100
AcDbEntity
  8
1
 62
     7
100
AcDbLine
 10
66.19999435794396
 20
37.29999912738815
 30
0.0
 11
66.19999435794396
 21
30.99253185012571
 31
0.0
  0
LINE
  5
EB8F
330
EB86
100
AcDbEntity
  8
1
 62
     7
100
AcDbLine
 10
47.79999435794389
 20
30.39253185012569
 30
0.0
 11
56.4999943579437
 21
30.39253185012564
 31
0.0
  0
ARC
  5
EB90
330
EB86
100
AcDbEntity
  8
1
 62
     7
100
AcDbCircle
 10
57.69999435794396
 20
37.29999912738815
 30
0.0
 40
0.6
100
AcDbArc
 50
162.3015355692591
 51
180.0
  0
ARC
  5
EB91
330
EB86
100
AcDbEntity
  8
1
 62
     7
100
AcDbCircle
 10
56.4999943579437
 20
30.99253185012566
 30
0.0
 40
0.6
100
AcDbArc
 50
270.0
 51
0.0
  0
LINE
  5
EB92
330
EB86
100
AcDbEntity
  8
1
 62
     7
100
AcDbLine
 10
57.09999435794407
 20
37.29999912738815
 30
0.0
 11
57.09999435794407
 21
30.99253185012566
 31
0.0
  0
ARC
  5
EB93
330
EB86
100
AcDbEntity
  8
1
 62
     7
100
AcDbCircle
 10
46.59999435794406
 20
37.29999912738811
 30
0.0
 40
0.6
100
AcDbArc
 50
0.0
 51
17.69846443070363
  0
ARC
  5
EB94
330
EB86
100
AcDbEntity
  8
1
 62
     7
100
AcDbCircle
 10
47.79999435794389
 20
30.99253185012571
 30
0.0
 40
0.6
100
AcDbArc
 50
180.0
 51
270.0
  0
LINE
  5
EB95
330
EB86
100
AcDbEntity
  8
1
 62
     7
100
AcDbLine
 10
47.19999435794352
 20
37.29999912738811
 30
0.0
 11
47.19999435794396
 21
30.99253185012571
 31
0.0
  0
LINE
  5
EB96
330
EB86
100
AcDbEntity
  8
1
 62
     7
100
AcDbLine
 10
9.799994357943882
 20
30.39253185012564
 30
0.0
 11
18.4999943579437
 21
30.39253185012564
 31
0.0
  0
LINE
  5
EB97
330
EB86
100
AcDbEntity
  8
1
 62
     7
100
AcDbLine
 10
37.49999435794372
 20
30.39253185012558
 30
0.0
 11
28.79999435794389
 21
30.39253185012564
 31
0.0
  0
ARC
  5
EB98
330
EB86
100
AcDbEntity
  8
1
 62
     7
100
AcDbCircle
 10
38.69999435794398
 20
37.29999912738811
 30
0.0
 40
0.6
100
AcDbArc
 50
162.3015355692498
 51
180.0
  0
ARC
  5
EB99
330
EB86
100
AcDbEntity
  8
1
 62
     7
100
AcDbCircle
 10
37.49999435794372
 20
30.99253185012561
 30
0.0
 40
0.6
100
AcDbArc
 50
270.0
 51
0.0
  0
LINE
  5
EB9A
330
EB86
100
AcDbEntity
  8
1
 62
     7
100
AcDbLine
 10
38.09999435794407
 20
37.29999912738811
 30
0.0
 11
38.09999435794407
 21
30.99253185012561
 31
0.0
  0
ARC
  5
EB9B
330
EB86
100
AcDbEntity
  8
1
 62
     7
100
AcDbCircle
 10
19.69999435794398
 20
37.29999912738811
 30
0.0
 40
0.6
100
AcDbArc
 50
162.3015355692498
 51
180.0
  0
ARC
  5
EB9C
330
EB86
100
AcDbEntity
  8
1
 62
     7
100
AcDbCircle
 10
27.59999435794407
 20
37.29999912738811
 30
0.0
 40
0.6
100
AcDbArc
 50
0.0
 51
17.69846443070363
  0
ARC
  5
EB9D
330
EB86
100
AcDbEntity
  8
1
 62
     7
100
AcDbCircle
 10
28.79999435794389
 20
30.99253185012566
 30
0.0
 40
0.6
100
AcDbArc
 50
180.0
 51
270.0
  0
LINE
  5
EB9E
330
EB86
100
AcDbEntity
  8
1
 62
     7
100
AcDbLine
 10
28.19999435794353
 20
37.29999912738811
 30
0.0
 11
28.19999435794398
 21
30.99253185012566
 31
0.0
  0
ARC
  5
EB9F
330
EB86
100
AcDbEntity
  8
1
 62
     7
100
AcDbCircle
 10
18.4999943579437
 20
30.99253185012566
 30
0.0
 40
0.6
100
AcDbArc
 50
270.0
 51
0.0
  0
LINE
  5
EBA0
330
EB86
100
AcDbEntity
  8
1
 62
     7
100
AcDbLine
 10
19.09999435794407
 20
37.29999912738811
 30
0.0
 11
19.09999435794407
 21
30.99253185012566
 31
0.0
  0
ARC
  5
EBA1
330
EB86
100
AcDbEntity
  8
1
 62
     7
100
AcDbCircle
 10
8.599994357944069
 20
37.29999912738811
 30
0.0
 40
0.6
100
AcDbArc
 50
0.0
 51
17.69846443070363
  0
ARC
  5
EBA2
330
EB86
100
AcDbEntity
  8
1
 62
     7
100
AcDbCircle
 10
9.799994357943882
 20
30.99253185012566
 30
0.0
 40
0.6
100
AcDbArc
 50
180.0
 51
270.0
  0
LINE
  5
EBA3
330
EB86
100
AcDbEntity
  8
1
 62
     7
100
AcDbLine
 10
9.199994357943522
 20
37.29999912738811
 30
0.0
 11
9.199994357943522
 21
30.99253185012566
 31
0.0
  0
ARC
  5
EBA4
330
EB86
100
AcDbEntity
  8
1
 62
     7
100
AcDbCircle
 10
0.5999943579440698
 20
37.29999912738811
 30
0.0
 40
0.6
100
AcDbArc
 50
113.535000394587
 51
180.0
  0
LINE
  5
EBA5
330
EB86
100
AcDbEntity
  8
1
 62
     7
100
AcDbLine
 10
46.9999943579437
 20
7.507466404651211
 30
0.0
 11
38.2999943579439
 21
7.507466404651151
 31
0.0
  0
LINE
  5
EBA6
330
EB86
100
AcDbEntity
  8
3
  6
CENTER2
 62
     6
100
AcDbLine
 10
-0.0000056420567489
 20
3.949999127388537
 30
0.0
 11
75.79999435794434
 21
3.949999127388537
 31
0.0
  0
LINE
  5
EBA7
330
EB86
100
AcDbEntity
  8
1
 62
     7
100
AcDbLine
 10
57.29999435794389
 20
7.507466404651267
 30
0.0
 11
65.9999943579437
 21
7.507466404651324
 31
0.0
  0
LINE
  5
EBA8
330
EB86
100
AcDbEntity
  8
1
 62
     7
100
AcDbLine
 10
66.59999435794407
 20
0.5999991273885144
 30
0.0
 11
66.59999435794407
 21
6.907466404651245
 31
0.0
  0
ARC
  5
EBA9
330
EB86
100
AcDbEntity
  8
1
 62
     7
100
AcDbCircle
 10
65.9999943579437
 20
6.907466404651245
 30
0.0
 40
0.6
100
AcDbArc
 50
0.0
 51
90.0
  0
LINE
  5
EBAA
330
EB86
100
AcDbEntity
  8
1
 62
     7
100
AcDbLine
 10
75.19999435794351
 20
-0.0000008726115084
 30
0.0
 11
67.19999435794398
 21
-0.0000008726115084
 31
0.0
  0
ARC
  5
EBAB
330
EB86
100
AcDbEntity
  8
1
 62
     7
100
AcDbCircle
 10
67.19999435794398
 20
0.5999991273885144
 30
0.0
 40
0.6
100
AcDbArc
 50
180.0
 51
270.0
  0
LINE
  5
EBAC
330
EB86
100
AcDbEntity
  8
1
 62
     7
100
AcDbLine
 10
56.09999435794406
 20
-0.0000008726115084
 30
0.0
 11
48.19999435794352
 21
-0.0000008726115084
 31
0.0
  0
ARC
  5
EBAD
330
EB86
100
AcDbEntity
  8
1
 62
     7
100
AcDbCircle
 10
48.19999435794352
 20
0.5999991273885144
 30
0.0
 40
0.6
100
AcDbArc
 50
180.0
 51
270.0
  0
LINE
  5
EBAE
330
EB86
100
AcDbEntity
  8
1
 62
     7
100
AcDbLine
 10
56.69999435794396
 20
6.907466404651245
 30
0.0
 11
56.69999435794396
 21
0.5999991273885144
 31
0.0
  0
ARC
  5
EBAF
330
EB86
100
AcDbEntity
  8
1
 62
     7
100
AcDbCircle
 10
56.09999435794406
 20
0.5999991273885144
 30
0.0
 40
0.6
100
AcDbArc
 50
270.0
 51
0.0
  0
ARC
  5
EBB0
330
EB86
100
AcDbEntity
  8
1
 62
     7
100
AcDbCircle
 10
57.29999435794389
 20
6.907466404651245
 30
0.0
 40
0.6
100
AcDbArc
 50
90.0
 51
180.0
  0
LINE
  5
EBB1
330
EB86
100
AcDbEntity
  8
1
 62
     7
100
AcDbLine
 10
47.59999435794407
 20
6.907466404651187
 30
0.0
 11
47.59999435794407
 21
0.5999991273885144
 31
0.0
  0
LINE
  5
EBB2
330
EB86
100
AcDbEntity
  8
1
 62
     7
100
AcDbLine
 10
47.59999435794407
 20
6.907466404651245
 30
0.0
 11
47.59999435794407
 21
0.5999991273885144
 31
0.0
  0
ARC
  5
EBB3
330
EB86
100
AcDbEntity
  8
1
 62
     7
100
AcDbCircle
 10
46.9999943579437
 20
6.907466404651187
 30
0.0
 40
0.6
100
AcDbArc
 50
0.0
 51
90.0
  0
LINE
  5
EBB4
330
EB86
100
AcDbEntity
  8
1
 62
     7
100
AcDbLine
 10
18.09999435794407
 20
-0.0000008726115084
 30
0.0
 11
10.19999435794398
 21
-0.0000008726115084
 31
0.0
  0
ARC
  5
EBB5
330
EB86
100
AcDbEntity
  8
1
 62
     7
100
AcDbCircle
 10
10.19999435794398
 20
0.5999991273884575
 30
0.0
 40
0.6
100
AcDbArc
 50
180.0
 51
270.0
  0
LINE
  5
EBB6
330
EB86
100
AcDbEntity
  8
1
 62
     7
100
AcDbLine
 10
29.19999435794352
 20
-0.0000008726115084
 30
0.0
 11
37.09999435794407
 21
-0.0000008726115084
 31
0.0
  0
ARC
  5
EBB7
330
EB86
100
AcDbEntity
  8
1
 62
     7
100
AcDbCircle
 10
29.19999435794352
 20
0.5999991273884575
 30
0.0
 40
0.6
100
AcDbArc
 50
180.0
 51
270.0
  0
LINE
  5
EBB8
330
EB86
100
AcDbEntity
  8
1
 62
     7
100
AcDbLine
 10
37.69999435794352
 20
6.90746640465113
 30
0.0
 11
37.69999435794352
 21
0.5999991273884575
 31
0.0
  0
ARC
  5
EBB9
330
EB86
100
AcDbEntity
  8
1
 62
     7
100
AcDbCircle
 10
37.09999435794407
 20
0.5999991273884575
 30
0.0
 40
0.6
100
AcDbArc
 50
270.0
 51
0.0
  0
ARC
  5
EBBA
330
EB86
100
AcDbEntity
  8
1
 62
     7
100
AcDbCircle
 10
38.2999943579439
 20
6.90746640465113
 30
0.0
 40
0.6
100
AcDbArc
 50
90.0
 51
180.0
  0
LINE
  5
EBBB
330
EB86
100
AcDbEntity
  8
1
 62
     7
100
AcDbLine
 10
18.69999435794352
 20
6.90746640465113
 30
0.0
 11
18.69999435794352
 21
0.5999991273884575
 31
0.0
  0
ARC
  5
EBBC
330
EB86
100
AcDbEntity
  8
1
 62
     7
100
AcDbCircle
 10
18.09999435794407
 20
0.5999991273884575
 30
0.0
 40
0.6
100
AcDbArc
 50
270.0
 51
0.0
  0
LINE
  5
EBBD
330
EB86
100
AcDbEntity
  8
1
 62
     7
100
AcDbLine
 10
28.59999435794407
 20
6.907466404651187
 30
0.0
 11
28.59999435794407
 21
0.5999991273884575
 31
0.0
  0
LINE
  5
EBBE
330
EB86
100
AcDbEntity
  8
1
 62
     7
100
AcDbLine
 10
19.29999435794389
 20
7.507466404651151
 30
0.0
 11
27.99999435794371
 21
7.507466404651211
 31
0.0
  0
ARC
  5
EBBF
330
EB86
100
AcDbEntity
  8
1
 62
     7
100
AcDbCircle
 10
27.99999435794371
 20
6.907466404651187
 30
0.0
 40
0.6
100
AcDbArc
 50
0.0
 51
90.0
  0
ARC
  5
EBC0
330
EB86
100
AcDbEntity
  8
1
 62
     7
100
AcDbCircle
 10
19.29999435794389
 20
6.90746640465113
 30
0.0
 40
0.6
100
AcDbArc
 50
90.0
 51
180.0
  0
LINE
  5
EBC1
330
EB86
100
AcDbEntity
  8
1
 62
     7
100
AcDbLine
 10
1.199994357943978
 20
7.507466404651211
 30
0.0
 11
8.999994357943705
 21
7.507466404651211
 31
0.0
  0
LINE
  5
EBC2
330
EB86
100
AcDbEntity
  8
1
 62
     7
100
AcDbLine
 10
9.599994357944069
 20
6.907466404651187
 30
0.0
 11
9.599994357944069
 21
0.5999991273884575
 31
0.0
  0
ARC
  5
EBC3
330
EB86
100
AcDbEntity
  8
1
 62
     7
100
AcDbCircle
 10
8.999994357943705
 20
6.907466404651187
 30
0.0
 40
0.6
100
AcDbArc
 50
0.0
 51
90.0
  0
ARC
  5
EBC4
330
EB86
100
AcDbEntity
  8
1
 62
     7
100
AcDbCircle
 10
1.199994357943978
 20
8.707466404651199
 30
0.0
 40
1.199999999999999
100
AcDbArc
 50
180.0
 51
270.0
  0
ARC
  5
EBC5
330
EB86
100
AcDbEntity
  8
1
 62
     7
100
AcDbCircle
 10
74.59999435794405
 20
29.1925318501257
 30
0.0
 40
1.199999999999999
100
AcDbArc
 50
0.0
 51
90.0
  0
ENDBLK
  5
EBC9
330
EB86
100
AcDbEntity
  8
0
 62
     7
100
AcDbBlockEnd
  0
BLOCK
  5
EC47
330
EBCB
100
AcDbEntity
  8
0
 62
     7
100
AcDbBlockBegin
  2
A$C43691DAA
 70
     0
 10
0.0
 20
0.0
 30
0.0
  3
A$C43691DAA
  1

  0
LINE
  5
EBCC
330
EBCB
100
AcDbEntity
  8
1
 62
     7
100
AcDbLine
 10
75.49999735080064
 20
30.39253185012558
 30
0.0
 11
66.79999735080037
 21
30.39253185012558
 31
0.0
  0
LINE
  5
EBCD
330
EBCB
100
AcDbEntity
  8
1
 62
     7
100
AcDbLine
 10
75.14999735080029
 20
-0.0000008726115652
 30
0.0
 11
67.14999735080027
 21
-0.0000008726115652
 31
0.0
  0
LINE
  5
EBCE
330
EBCB
100
AcDbEntity
  8
1
 62
     7
100
AcDbLine
 10
122.9999973508006
 20
7.507466404651151
 30
0.0
 11
114.2999973508003
 21
7.507466404651037
 31
0.0
  0
LINE
  5
EBCF
330
EBCB
100
AcDbEntity
  8
1
 62
     7
100
AcDbLine
 10
151.7999973508003
 20
29.19253185012554
 30
0.0
 11
151.7999973508003
 21
0.4999991273883781
 31
0.0
  0
LINE
  5
EBD0
330
EBCB
100
AcDbEntity
  8
1
 62
     7
100
AcDbLine
 10
123.1999973508004
 20
37.29999912738822
 30
0.0
 11
123.1999973508004
 21
30.99253185012561
 31
0.0
  0
LINE
  5
EBD1
330
EBCB
100
AcDbEntity
  8
1
 62
     7
100
AcDbLine
 10
133.0999973508005
 20
37.29999912738822
 30
0.0
 11
133.0999973508005
 21
30.99253185012549
 31
0.0
  0
LINE
  5
EBD2
330
EBCB
100
AcDbEntity
  8
1
 62
     7
100
AcDbLine
 10
142.1999973508004
 20
37.29999912738822
 30
0.0
 11
142.1999973508004
 21
30.99253185012561
 31
0.0
  0
LINE
  5
EBD3
330
EBCB
100
AcDbEntity
  8
1
 62
     7
100
AcDbLine
 10
133.2999973508004
 20
7.507466404651151
 30
0.0
 11
141.9999973508005
 21
7.507466404651151
 31
0.0
  0
LINE
  5
EBD4
330
EBCB
100
AcDbEntity
  8
3
  6
CENTER2
 62
     6
100
AcDbLine
 10
-0.0000026491993594
 20
3.949999127388537
 30
0.0
 11
151.7999973508003
 21
3.949999127388423
 31
0.0
  0
LINE
  5
EBD5
330
EBCB
100
AcDbEntity
  8
1
 62
     7
100
AcDbLine
 10
142.5999973508005
 20
0.4999991273884917
 30
0.0
 11
142.5999973508005
 21
6.90746640465113
 31
0.0
  0
ARC
  5
EBD6
330
EBCB
100
AcDbEntity
  8
1
 62
     7
100
AcDbCircle
 10
151.2999973508003
 20
0.4999991273883781
 30
0.0
 40
0.5
100
AcDbArc
 50
270.0
 51
0.0
  0
LINE
  5
EBD7
330
EBCB
100
AcDbEntity
  8
1
 62
     7
100
AcDbLine
 10
151.2999973508003
 20
-0.0000008726116221
 30
0.0
 11
143.0499973508003
 21
-0.0000008726115084
 31
0.0
  0
ARC
  5
EBD8
330
EBCB
100
AcDbEntity
  8
1
 62
     7
100
AcDbCircle
 10
143.0999973508005
 20
0.4999991273884917
 30
0.0
 40
0.5
100
AcDbArc
 50
180.0
 51
270.0
  0
LINE
  5
EBD9
330
EBCB
100
AcDbEntity
  8
1
 62
     7
100
AcDbLine
 10
123.5999973508005
 20
6.90746640465113
 30
0.0
 11
123.5999973508005
 21
0.5999991273884007
 31
0.0
  0
LINE
  5
EBDA
330
EBCB
100
AcDbEntity
  8
1
 62
     7
100
AcDbLine
 10
132.0999973508005
 20
-0.0000008726116221
 30
0.0
 11
124.1499973508003
 21
-0.0000008726116221
 31
0.0
  0
ARC
  5
EBDB
330
EBCB
100
AcDbEntity
  8
1
 62
     7
100
AcDbCircle
 10
132.0999973508005
 20
0.5999991273884007
 30
0.0
 40
0.6
100
AcDbArc
 50
270.0
 51
0.0
  0
ARC
  5
EBDC
330
EBCB
100
AcDbEntity
  8
1
 62
     7
100
AcDbCircle
 10
124.1999973508004
 20
0.5999991273884007
 30
0.0
 40
0.6
100
AcDbArc
 50
180.0
 51
270.0
  0
LINE
  5
EBDD
330
EBCB
100
AcDbEntity
  8
3
  6
CENTER2
 62
     6
100
AcDbLine
 10
-0.0000026491993594
 20
33.94999912738843
 30
0.0
 11
151.7999973508003
 21
33.94999912738843
 31
0.0
  0
LINE
  5
EBDE
330
EBCB
100
AcDbEntity
  8
1
 62
     7
100
AcDbLine
 10
150.5999973508005
 20
30.39253185012558
 30
0.0
 11
142.7999973508003
 21
30.39253185012558
 31
0.0
  0
LINE
  5
EBDF
330
EBCB
100
AcDbEntity
  8
1
 62
     7
100
AcDbLine
 10
123.7999973508003
 20
30.39253185012558
 30
0.0
 11
132.4999973508006
 21
30.39253185012547
 31
0.0
  0
LINE
  5
EBE0
330
EBCB
100
AcDbEntity
  8
1
 62
     7
100
AcDbLine
 10
114.0999973508005
 20
37.29999912738822
 30
0.0
 11
114.0999973508005
 21
30.99253185012561
 31
0.0
  0
LINE
  5
EBE1
330
EBCB
100
AcDbEntity
  8
1
 62
     7
100
AcDbLine
 10
104.1999973508004
 20
37.29999912738822
 30
0.0
 11
104.1999973508004
 21
30.99253185012561
 31
0.0
  0
LINE
  5
EBE2
330
EBCB
100
AcDbEntity
  8
1
 62
     7
100
AcDbLine
 10
76.09999735080055
 20
37.29999912738822
 30
0.0
 11
76.09999735080055
 21
30.99253185012561
 31
0.0
  0
LINE
  5
EBE3
330
EBCB
100
AcDbEntity
  8
1
 62
     7
100
AcDbLine
 10
95.09999735080057
 20
37.29999912738822
 30
0.0
 11
95.09999735080057
 21
30.99253185012561
 31
0.0
  0
LINE
  5
EBE4
330
EBCB
100
AcDbEntity
  8
1
 62
     7
100
AcDbLine
 10
85.19999735080046
 20
37.29999912738822
 30
0.0
 11
85.19999735080046
 21
30.99253185012561
 31
0.0
  0
LINE
  5
EBE5
330
EBCB
100
AcDbEntity
  8
1
 62
     7
100
AcDbLine
 10
94.14999735080028
 20
-0.0000008726116221
 30
0.0
 11
86.14999735080031
 21
-0.0000008726115652
 31
0.0
  0
LINE
  5
EBE6
330
EBCB
100
AcDbEntity
  8
1
 62
     7
100
AcDbLine
 10
113.6999973508004
 20
6.907466404651017
 30
0.0
 11
113.6999973508004
 21
0.5999991273884007
 31
0.0
  0
LINE
  5
EBE7
330
EBCB
100
AcDbEntity
  8
1
 62
     7
100
AcDbLine
 10
94.69999735080046
 20
6.907466404651017
 30
0.0
 11
94.69999735080046
 21
0.5999991273884007
 31
0.0
  0
LINE
  5
EBE8
330
EBCB
100
AcDbEntity
  8
1
 62
     7
100
AcDbLine
 10
104.5999973508005
 20
6.90746640465113
 30
0.0
 11
104.5999973508001
 21
0.5999991273884007
 31
0.0
  0
LINE
  5
EBE9
330
EBCB
100
AcDbEntity
  8
1
 62
     7
100
AcDbLine
 10
105.1499973508003
 20
-0.0000008726116221
 30
0.0
 11
113.1499973508002
 21
-0.0000008726116221
 31
0.0
  0
ARC
  5
EBEA
330
EBCB
100
AcDbEntity
  8
1
 62
     7
100
AcDbCircle
 10
113.0999973508005
 20
0.5999991273884007
 30
0.0
 40
0.6
100
AcDbArc
 50
270.0
 51
0.0
  0
LINE
  5
EBEB
330
EBCB
100
AcDbEntity
  8
1
 62
     7
100
AcDbLine
 10
95.29999735080037
 20
7.507466404651037
 30
0.0
 11
103.9999973508006
 21
7.507466404651151
 31
0.0
  0
ARC
  5
EBEC
330
EBCB
100
AcDbEntity
  8
1
 62
     7
100
AcDbCircle
 10
105.1999973508004
 20
0.5999991273884007
 30
0.0
 40
0.6
100
AcDbArc
 50
180.0
 51
270.0
  0
ARC
  5
EBED
330
EBCB
100
AcDbEntity
  8
1
 62
     7
100
AcDbCircle
 10
94.0999973508001
 20
0.5999991273884007
 30
0.0
 40
0.6
100
AcDbArc
 50
270.0
 51
0.0
  0
LINE
  5
EBEE
330
EBCB
100
AcDbEntity
  8
1
 62
     7
100
AcDbLine
 10
85.5999973508001
 20
6.90746640465113
 30
0.0
 11
85.5999973508001
 21
0.5999991273884007
 31
0.0
  0
LINE
  5
EBEF
330
EBCB
100
AcDbEntity
  8
1
 62
     7
100
AcDbLine
 10
75.69999735080045
 20
6.90746640465113
 30
0.0
 11
75.69999735080045
 21
0.5999991273884007
 31
0.0
  0
LINE
  5
EBF0
330
EBCB
100
AcDbEntity
  8
1
 62
     7
100
AcDbLine
 10
84.99999735080065
 20
7.507466404651151
 30
0.0
 11
76.29999735080037
 21
7.507466404651151
 31
0.0
  0
ARC
  5
EBF1
330
EBCB
100
AcDbEntity
  8
1
 62
     7
100
AcDbCircle
 10
86.19999735080046
 20
0.5999991273884007
 30
0.0
 40
0.6
100
AcDbArc
 50
180.0
 51
270.0
  0
ARC
  5
EBF2
330
EBCB
100
AcDbEntity
  8
1
 62
     7
100
AcDbCircle
 10
75.09999735080009
 20
0.5999991273884007
 30
0.0
 40
0.6
100
AcDbArc
 50
270.0
 51
0.0
  0
LINE
  5
EBF3
330
EBCB
100
AcDbEntity
  8
1
 62
     7
100
AcDbLine
 10
85.79999735080036
 20
30.39253185012558
 30
0.0
 11
94.49999735080066
 21
30.39253185012558
 31
0.0
  0
LINE
  5
EBF4
330
EBCB
100
AcDbEntity
  8
1
 62
     7
100
AcDbLine
 10
113.4999973508006
 20
30.39253185012558
 30
0.0
 11
104.7999973508003
 21
30.39253185012558
 31
0.0
  0
LINE
  5
EBF5
330
EBCB
100
AcDbEntity
  8
1
 62
     7
100
AcDbLine
 10
19.29999735080037
 20
7.507466404651098
 30
0.0
 11
27.99999735080064
 21
7.507466404651151
 31
0.0
  0
LINE
  5
EBF6
330
EBCB
100
AcDbEntity
  8
1
 62
     7
100
AcDbLine
 10
66.19999735080046
 20
37.29999912738822
 30
0.0
 11
66.19999735080046
 21
30.99253185012561
 31
0.0
  0
LINE
  5
EBF7
330
EBCB
100
AcDbEntity
  8
1
 62
     7
100
AcDbLine
 10
38.0999973508001
 20
37.29999912738822
 30
0.0
 11
38.0999973508001
 21
30.99253185012549
 31
0.0
  0
LINE
  5
EBF8
330
EBCB
100
AcDbEntity
  8
1
 62
     7
100
AcDbLine
 10
28.19999735080046
 20
37.29999912738822
 30
0.0
 11
28.19999735080046
 21
30.99253185012561
 31
0.0
  0
LINE
  5
EBF9
330
EBCB
100
AcDbEntity
  8
1
 62
     7
100
AcDbLine
 10
57.0999973508001
 20
37.29999912738822
 30
0.0
 11
57.0999973508001
 21
30.99253185012549
 31
0.0
  0
LINE
  5
EBFA
330
EBCB
100
AcDbEntity
  8
1
 62
     7
100
AcDbLine
 10
47.19999735080046
 20
37.29999912738822
 30
0.0
 11
47.19999735080046
 21
30.99253185012561
 31
0.0
  0
ARC
  5
EBFB
330
EBCB
100
AcDbEntity
  8
1
 62
     7
100
AcDbCircle
 10
46.99999735080064
 20
6.90746640465113
 30
0.0
 40
0.6
100
AcDbArc
 50
0.0
 51
90.0
  0
LINE
  5
EBFC
330
EBCB
100
AcDbEntity
  8
1
 62
     7
100
AcDbLine
 10
47.59999735080009
 20
6.90746640465113
 30
0.0
 11
47.59999735080009
 21
0.5999991273884007
 31
0.0
  0
LINE
  5
EBFD
330
EBCB
100
AcDbEntity
  8
1
 62
     7
100
AcDbLine
 10
56.69999735080046
 20
6.907466404651074
 30
0.0
 11
56.69999735080046
 21
0.5999991273884007
 31
0.0
  0
LINE
  5
EBFE
330
EBCB
100
AcDbEntity
  8
1
 62
     7
100
AcDbLine
 10
66.59999735080011
 20
6.90746640465113
 30
0.0
 11
66.59999735080011
 21
0.5999991273884007
 31
0.0
  0
LINE
  5
EBFF
330
EBCB
100
AcDbEntity
  8
1
 62
     7
100
AcDbLine
 10
57.29999735080037
 20
7.507466404651098
 30
0.0
 11
65.99999735080064
 21
7.507466404651151
 31
0.0
  0
ARC
  5
EC00
330
EBCB
100
AcDbEntity
  8
1
 62
     7
100
AcDbCircle
 10
67.19999735080046
 20
0.5999991273884007
 30
0.0
 40
0.6
100
AcDbArc
 50
180.0
 51
270.0
  0
LINE
  5
EC01
330
EBCB
100
AcDbEntity
  8
1
 62
     7
100
AcDbLine
 10
48.14999735080029
 20
-0.0000008726115652
 30
0.0
 11
56.14999735080028
 21
-0.0000008726115652
 31
0.0
  0
ARC
  5
EC02
330
EBCB
100
AcDbEntity
  8
1
 62
     7
100
AcDbCircle
 10
56.09999735080009
 20
0.5999991273884007
 30
0.0
 40
0.6
100
AcDbArc
 50
270.0
 51
0.0
  0
ARC
  5
EC03
330
EBCB
100
AcDbEntity
  8
1
 62
     7
100
AcDbCircle
 10
48.19999735080045
 20
0.5999991273884007
 30
0.0
 40
0.6
100
AcDbArc
 50
180.0
 51
270.0
  0
LINE
  5
EC04
330
EBCB
100
AcDbEntity
  8
1
 62
     7
100
AcDbLine
 10
37.69999735080046
 20
6.907466404651074
 30
0.0
 11
37.69999735080046
 21
0.5999991273884007
 31
0.0
  0
LINE
  5
EC05
330
EBCB
100
AcDbEntity
  8
1
 62
     7
100
AcDbLine
 10
28.59999735080009
 20
6.90746640465113
 30
0.0
 11
28.59999735080009
 21
0.5999991273884007
 31
0.0
  0
LINE
  5
EC06
330
EBCB
100
AcDbEntity
  8
1
 62
     7
100
AcDbLine
 10
29.14999735080028
 20
-0.0000008726115652
 30
0.0
 11
37.14999735080029
 21
-0.0000008726115652
 31
0.0
  0
LINE
  5
EC07
330
EBCB
100
AcDbEntity
  8
1
 62
     7
100
AcDbLine
 10
46.99999735080064
 20
7.507466404651151
 30
0.0
 11
38.29999735080037
 21
7.507466404651098
 31
0.0
  0
ARC
  5
EC08
330
EBCB
100
AcDbEntity
  8
1
 62
     7
100
AcDbCircle
 10
37.0999973508001
 20
0.5999991273884007
 30
0.0
 40
0.6
100
AcDbArc
 50
270.0
 51
0.0
  0
ARC
  5
EC09
330
EBCB
100
AcDbEntity
  8
1
 62
     7
100
AcDbCircle
 10
27.99999735080064
 20
6.90746640465113
 30
0.0
 40
0.6
100
AcDbArc
 50
0.0
 51
90.0
  0
ARC
  5
EC0A
330
EBCB
100
AcDbEntity
  8
1
 62
     7
100
AcDbCircle
 10
29.19999735080046
 20
0.5999991273884007
 30
0.0
 40
0.6
100
AcDbArc
 50
180.0
 51
270.0
  0
LINE
  5
EC0B
330
EBCB
100
AcDbEntity
  8
1
 62
     7
100
AcDbLine
 10
47.79999735080036
 20
30.39253185012558
 30
0.0
 11
56.49999735080064
 21
30.39253185012547
 31
0.0
  0
LINE
  5
EC0C
330
EBCB
100
AcDbEntity
  8
1
 62
     7
100
AcDbLine
 10
37.49999735080064
 20
30.39253185012547
 30
0.0
 11
28.79999735080037
 21
30.39253185012558
 31
0.0
  0
LINE
  5
EC0D
330
EBCB
100
AcDbEntity
  8
1
 62
     7
100
AcDbLine
 10
-0.0000026491998142
 20
8.707466404651142
 30
0.0
 11
-0.0000026491998142
 21
37.2391288836871
 31
0.0
  0
LINE
  5
EC0E
330
EBCB
100
AcDbEntity
  8
1
 62
     7
100
AcDbLine
 10
19.09999735080055
 20
37.29999912738822
 30
0.0
 11
19.09999735080009
 21
30.99253185012561
 31
0.0
  0
LINE
  5
EC0F
330
EBCB
100
AcDbEntity
  8
1
 62
     7
100
AcDbLine
 10
9.199997350800456
 20
37.29999912738822
 30
0.0
 11
9.199997350800456
 21
30.99253185012561
 31
0.0
  0
LINE
  5
EC10
330
EBCB
100
AcDbEntity
  8
1
 62
     7
100
AcDbLine
 10
1.199997350800457
 20
7.507466404651151
 30
0.0
 11
8.99999735080064
 21
7.507466404651151
 31
0.0
  0
LINE
  5
EC11
330
EBCB
100
AcDbEntity
  8
1
 62
     7
100
AcDbLine
 10
9.599997350800546
 20
6.90746640465113
 30
0.0
 11
9.599997350800546
 21
0.5999991273884007
 31
0.0
  0
LINE
  5
EC12
330
EBCB
100
AcDbEntity
  8
1
 62
     7
100
AcDbLine
 10
18.69999735080046
 20
6.907466404651074
 30
0.0
 11
18.69999735080046
 21
0.5999991273884007
 31
0.0
  0
LINE
  5
EC13
330
EBCB
100
AcDbEntity
  8
1
 62
     7
100
AcDbLine
 10
18.14999735080028
 20
-0.0000008726115652
 30
0.0
 11
10.14999735080027
 21
-0.0000008726115652
 31
0.0
  0
ARC
  5
EC14
330
EBCB
100
AcDbEntity
  8
1
 62
     7
100
AcDbCircle
 10
18.09999735080009
 20
0.5999991273884007
 30
0.0
 40
0.6
100
AcDbArc
 50
270.0
 51
0.0
  0
ARC
  5
EC15
330
EBCB
100
AcDbEntity
  8
1
 62
     7
100
AcDbCircle
 10
8.99999735080064
 20
6.90746640465113
 30
0.0
 40
0.6
100
AcDbArc
 50
0.0
 51
90.0
  0
ARC
  5
EC16
330
EBCB
100
AcDbEntity
  8
1
 62
     7
100
AcDbCircle
 10
10.19999735080046
 20
0.5999991273884007
 30
0.0
 40
0.6
100
AcDbArc
 50
180.0
 51
270.0
  0
LINE
  5
EC17
330
EBCB
100
AcDbEntity
  8
1
 62
     7
100
AcDbLine
 10
9.799997350800367
 20
30.39253185012558
 30
0.0
 11
18.49999735080064
 21
30.39253185012558
 31
0.0
  0
LINE
  5
EC18
330
EBCB
100
AcDbEntity
  8
1
 62
     7
100
AcDbLine
 10
132.6999973508004
 20
6.90746640465113
 30
0.0
 11
132.6999973508004
 21
0.5999991273884007
 31
0.0
  0
ARC
  5
EC19
330
EBCB
100
AcDbEntity
  8
1
 62
     7
100
AcDbCircle
 10
19.29999735080037
 20
6.907466404651074
 30
0.0
 40
0.6
100
AcDbArc
 50
90.0
 51
180.0
  0
ARC
  5
EC1A
330
EBCB
100
AcDbEntity
  8
1
 62
     7
100
AcDbCircle
 10
28.79999735080037
 20
30.99253185012561
 30
0.0
 40
0.6
100
AcDbArc
 50
180.0
 51
270.0
  0
ARC
  5
EC1B
330
EBCB
100
AcDbEntity
  8
1
 62
     7
100
AcDbCircle
 10
37.49999735080064
 20
30.99253185012549
 30
0.0
 40
0.6
100
AcDbArc
 50
270.0
 51
0.0
  0
ARC
  5
EC1C
330
EBCB
100
AcDbEntity
  8
1
 62
     7
100
AcDbCircle
 10
47.79999735080036
 20
30.99253185012561
 30
0.0
 40
0.6
100
AcDbArc
 50
180.0
 51
270.0
  0
ARC
  5
EC1D
330
EBCB
100
AcDbEntity
  8
1
 62
     7
100
AcDbCircle
 10
142.7999973508003
 20
30.99253185012561
 30
0.0
 40
0.6
100
AcDbArc
 50
180.0
 51
270.0
  0
ARC
  5
EC1E
330
EBCB
100
AcDbEntity
  8
1
 62
     7
100
AcDbCircle
 10
38.29999735080037
 20
6.907466404651074
 30
0.0
 40
0.6
100
AcDbArc
 50
90.0
 51
180.0
  0
ARC
  5
EC1F
330
EBCB
100
AcDbEntity
  8
1
 62
     7
100
AcDbCircle
 10
9.799997350800367
 20
30.99253185012561
 30
0.0
 40
0.6
100
AcDbArc
 50
180.0
 51
270.0
  0
ARC
  5
EC20
330
EBCB
100
AcDbEntity
  8
1
 62
     7
100
AcDbCircle
 10
18.49999735080064
 20
30.99253185012561
 30
0.0
 40
0.6
100
AcDbArc
 50
270.0
 51
0.0
  0
ARC
  5
EC21
330
EBCB
100
AcDbEntity
  8
1
 62
     7
100
AcDbCircle
 10
57.29999735080037
 20
6.907466404651074
 30
0.0
 40
0.6
100
AcDbArc
 50
90.0
 51
180.0
  0
ARC
  5
EC22
330
EBCB
100
AcDbEntity
  8
1
 62
     7
100
AcDbCircle
 10
65.99999735080064
 20
6.90746640465113
 30
0.0
 40
0.6
100
AcDbArc
 50
0.0
 51
90.0
  0
ARC
  5
EC23
330
EBCB
100
AcDbEntity
  8
1
 62
     7
100
AcDbCircle
 10
76.29999735080037
 20
6.90746640465113
 30
0.0
 40
0.6
100
AcDbArc
 50
90.0
 51
180.0
  0
ARC
  5
EC24
330
EBCB
100
AcDbEntity
  8
1
 62
     7
100
AcDbCircle
 10
84.99999735080065
 20
6.90746640465113
 30
0.0
 40
0.6
100
AcDbArc
 50
0.0
 51
90.0
  0
ARC
  5
EC25
330
EBCB
100
AcDbEntity
  8
1
 62
     7
100
AcDbCircle
 10
95.29999735080037
 20
6.907466404651017
 30
0.0
 40
0.6
100
AcDbArc
 50
90.0
 51
180.0
  0
ARC
  5
EC26
330
EBCB
100
AcDbEntity
  8
1
 62
     7
100
AcDbCircle
 10
103.9999973508006
 20
6.90746640465113
 30
0.0
 40
0.6
100
AcDbArc
 50
0.0
 51
90.0
  0
ARC
  5
EC27
330
EBCB
100
AcDbEntity
  8
1
 62
     7
100
AcDbCircle
 10
114.2999973508003
 20
6.907466404651017
 30
0.0
 40
0.6
100
AcDbArc
 50
90.0
 51
180.0
  0
ARC
  5
EC28
330
EBCB
100
AcDbEntity
  8
1
 62
     7
100
AcDbCircle
 10
122.9999973508006
 20
6.90746640465113
 30
0.0
 40
0.6
100
AcDbArc
 50
0.0
 51
90.0
  0
ARC
  5
EC29
330
EBCB
100
AcDbEntity
  8
1
 62
     7
100
AcDbCircle
 10
133.2999973508004
 20
6.90746640465113
 30
0.0
 40
0.6
100
AcDbArc
 50
90.0
 51
180.0
  0
ARC
  5
EC2A
330
EBCB
100
AcDbEntity
  8
1
 62
     7
100
AcDbCircle
 10
141.9999973508005
 20
6.90746640465113
 30
0.0
 40
0.6
100
AcDbArc
 50
0.0
 51
90.0
  0
ARC
  5
EC2B
330
EBCB
100
AcDbEntity
  8
1
 62
     7
100
AcDbCircle
 10
141.5999973508001
 20
37.29999912738822
 30
0.0
 40
0.6
100
AcDbArc
 50
0.0
 51
17.69846443071603
  0
ARC
  5
EC2C
330
EBCB
100
AcDbEntity
  8
1
 62
     7
100
AcDbCircle
 10
133.6999973508004
 20
37.29999912738822
 30
0.0
 40
0.6
100
AcDbArc
 50
162.3015355692591
 51
180.0
  0
ARC
  5
EC2D
330
EBCB
100
AcDbEntity
  8
1
 62
     7
100
AcDbCircle
 10
132.4999973508006
 20
30.99253185012549
 30
0.0
 40
0.6
100
AcDbArc
 50
270.0
 51
0.0
  0
ARC
  5
EC2E
330
EBCB
100
AcDbEntity
  8
1
 62
     7
100
AcDbCircle
 10
123.7999973508003
 20
30.99253185012561
 30
0.0
 40
0.6
100
AcDbArc
 50
180.0
 51
270.0
  0
ARC
  5
EC2F
330
EBCB
100
AcDbEntity
  8
1
 62
     7
100
AcDbCircle
 10
122.5999973508001
 20
37.29999912738822
 30
0.0
 40
0.6
100
AcDbArc
 50
0.0
 51
17.69846443071292
  0
ARC
  5
EC30
330
EBCB
100
AcDbEntity
  8
1
 62
     7
100
AcDbCircle
 10
114.6999973508004
 20
37.29999912738822
 30
0.0
 40
0.6
100
AcDbArc
 50
162.3015355692684
 51
180.0
  0
ARC
  5
EC31
330
EBCB
100
AcDbEntity
  8
1
 62
     7
100
AcDbCircle
 10
113.4999973508006
 20
30.99253185012561
 30
0.0
 40
0.6
100
AcDbArc
 50
270.0
 51
0.0
  0
ARC
  5
EC32
330
EBCB
100
AcDbEntity
  8
1
 62
     7
100
AcDbCircle
 10
104.7999973508003
 20
30.99253185012561
 30
0.0
 40
0.6
100
AcDbArc
 50
180.0
 51
270.0
  0
ARC
  5
EC33
330
EBCB
100
AcDbEntity
  8
1
 62
     7
100
AcDbCircle
 10
103.5999973508001
 20
37.29999912738822
 30
0.0
 40
0.6
100
AcDbArc
 50
0.0
 51
17.69846443071292
  0
ARC
  5
EC34
330
EBCB
100
AcDbEntity
  8
1
 62
     7
100
AcDbCircle
 10
94.49999735080066
 20
30.99253185012561
 30
0.0
 40
0.6
100
AcDbArc
 50
270.0
 51
0.0
  0
ARC
  5
EC35
330
EBCB
100
AcDbEntity
  8
1
 62
     7
100
AcDbCircle
 10
95.69999735080044
 20
37.29999912738822
 30
0.0
 40
0.6
100
AcDbArc
 50
162.3015355692684
 51
180.0
  0
ARC
  5
EC36
330
EBCB
100
AcDbEntity
  8
1
 62
     7
100
AcDbCircle
 10
85.79999735080036
 20
30.99253185012561
 30
0.0
 40
0.6
100
AcDbArc
 50
180.0
 51
270.0
  0
ARC
  5
EC37
330
EBCB
100
AcDbEntity
  8
1
 62
     7
100
AcDbCircle
 10
84.59999735080009
 20
37.29999912738822
 30
0.0
 40
0.6
100
AcDbArc
 50
0.0
 51
17.69846443071292
  0
ARC
  5
EC38
330
EBCB
100
AcDbEntity
  8
1
 62
     7
100
AcDbCircle
 10
76.69999735080046
 20
37.29999912738822
 30
0.0
 40
0.6
100
AcDbArc
 50
120.4904373371614
 51
180.0
  0
ARC
  5
EC39
330
EBCB
100
AcDbEntity
  8
1
 62
     7
100
AcDbCircle
 10
75.49999735080064
 20
30.99253185012561
 30
0.0
 40
0.6
100
AcDbArc
 50
270.0
 51
0.0
  0
ARC
  5
EC3A
330
EBCB
100
AcDbEntity
  8
1
 62
     7
100
AcDbCircle
 10
66.79999735080037
 20
30.99253185012561
 30
0.0
 40
0.6
100
AcDbArc
 50
180.0
 51
270.0
  0
ARC
  5
EC3B
330
EBCB
100
AcDbEntity
  8
1
 62
     7
100
AcDbCircle
 10
65.59999735080009
 20
37.29999912738822
 30
0.0
 40
0.6
100
AcDbArc
 50
0.0
 51
20.22934357821589
  0
ARC
  5
EC3C
330
EBCB
100
AcDbEntity
  8
1
 62
     7
100
AcDbCircle
 10
57.69999735080046
 20
37.29999912738822
 30
0.0
 40
0.6
100
AcDbArc
 50
174.5389069001049
 51
180.0
  0
ARC
  5
EC3D
330
EBCB
100
AcDbEntity
  8
1
 62
     7
100
AcDbCircle
 10
56.49999735080064
 20
30.99253185012549
 30
0.0
 40
0.6
100
AcDbArc
 50
270.0
 51
0.0
  0
ARC
  5
EC3E
330
EBCB
100
AcDbEntity
  8
1
 62
     7
100
AcDbCircle
 10
46.59999735080009
 20
37.29999912738822
 30
0.0
 40
0.6
100
AcDbArc
 50
0.0
 51
20.22934357821589
  0
ARC
  5
EC3F
330
EBCB
100
AcDbEntity
  8
1
 62
     7
100
AcDbCircle
 10
38.69999735080046
 20
37.29999912738822
 30
0.0
 40
0.6
100
AcDbArc
 50
174.5389069001211
 51
180.0
  0
ARC
  5
EC40
330
EBCB
100
AcDbEntity
  8
1
 62
     7
100
AcDbCircle
 10
27.5999973508001
 20
37.29999912738822
 30
0.0
 40
0.6
100
AcDbArc
 50
0.0
 51
20.22934357821589
  0
ARC
  5
EC41
330
EBCB
100
AcDbEntity
  8
1
 62
     7
100
AcDbCircle
 10
19.69999735080046
 20
37.29999912738822
 30
0.0
 40
0.6
100
AcDbArc
 50
174.5389069001211
 51
180.0
  0
ARC
  5
EC42
330
EBCB
100
AcDbEntity
  8
1
 62
     7
100
AcDbCircle
 10
8.599997350800093
 20
37.29999912738822
 30
0.0
 40
0.6
100
AcDbArc
 50
0.0
 51
20.22934357821589
  0
ARC
  5
EC43
330
EBCB
100
AcDbEntity
  8
1
 62
     7
100
AcDbCircle
 10
1.199997350800457
 20
8.707466404651142
 30
0.0
 40
1.199999999999999
100
AcDbArc
 50
180.0
 51
270.0
  0
ARC
  5
EC44
330
EBCB
100
AcDbEntity
  8
1
 62
     7
100
AcDbCircle
 10
150.5999973508005
 20
29.19253185012554
 30
0.0
 40
1.199999999999999
100
AcDbArc
 50
0.0
 51
90.0
  0
ENDBLK
  5
EC48
330
EBCB
100
AcDbEntity
  8
0
 62
     7
100
AcDbBlockEnd
  0
BLOCK
  5
ECBF
330
EC4A
100
AcDbEntity
  8
0
 62
     7
100
AcDbBlockBegin
  2
A$C6E5F17A0
 70
     0
 10
0.0
 20
0.0
 30
0.0
  3
A$C6E5F17A0
  1

  0
ARC
  5
EC4B
330
EC4A
100
AcDbEntity
  8
1
100
AcDbCircle
 10
66.00000685727628
 20
6.199997666619026
 30
0.0
 40
0.6
100
AcDbArc
 50
0.0
 51
90.0
  0
ARC
  5
EC4C
330
EC4A
100
AcDbEntity
  8
1
100
AcDbCircle
 10
57.30000685727645
 20
6.199997666618968
 30
0.0
 40
0.6
100
AcDbArc
 50
90.0
 51
180.0
  0
ARC
  5
EC4D
330
EC4A
100
AcDbEntity
  8
1
100
AcDbCircle
 10
28.00000685727628
 20
6.199997666618968
 30
0.0
 40
0.6
100
AcDbArc
 50
0.0
 51
90.0
  0
ARC
  5
EC4E
330
EC4A
100
AcDbEntity
  8
1
100
AcDbCircle
 10
19.30000685727646
 20
6.19999766661891
 30
0.0
 40
0.6
100
AcDbArc
 50
90.0
 51
180.0
  0
ARC
  5
EC4F
330
EC4A
100
AcDbEntity
  8
1
100
AcDbCircle
 10
9.000006857276275
 20
6.19999766661891
 30
0.0
 40
0.6
100
AcDbArc
 50
0.0
 51
90.0
  0
LINE
  5
EC50
330
EC4A
100
AcDbEntity
  8
1
100
AcDbLine
 10
66.60000685727664
 20
0.5999976666190605
 30
0.0
 11
66.60000685727664
 21
8.199997666618912
 31
0.0
  0
LINE
  5
EC51
330
EC4A
100
AcDbEntity
  8
1
100
AcDbLine
 10
56.70000685727609
 20
0.5999976666190605
 30
0.0
 11
56.70000685727609
 21
8.199997666618912
 31
0.0
  0
LINE
  5
EC52
330
EC4A
100
AcDbEntity
  8
1
100
AcDbLine
 10
47.60000685727663
 20
0.5999976666190605
 30
0.0
 11
47.60000685727663
 21
8.199997666618912
 31
0.0
  0
LINE
  5
EC53
330
EC4A
100
AcDbEntity
  8
1
100
AcDbLine
 10
37.70000685727609
 20
0.5999976666190605
 30
0.0
 11
37.70000685727609
 21
8.199997666618967
 31
0.0
  0
LINE
  5
EC54
330
EC4A
100
AcDbEntity
  8
1
100
AcDbLine
 10
28.60000685727619
 20
0.5999976666190605
 30
0.0
 11
28.60000685727619
 21
8.199997666618912
 31
0.0
  0
LINE
  5
EC55
330
EC4A
100
AcDbEntity
  8
1
100
AcDbLine
 10
18.70000685727609
 20
0.5999976666190605
 30
0.0
 11
18.70000685727609
 21
8.199997666618912
 31
0.0
  0
LINE
  5
EC56
330
EC4A
100
AcDbEntity
  8
1
100
AcDbLine
 10
9.600006857276182
 20
0.5999976666190605
 30
0.0
 11
9.600006857276182
 21
8.199997666618855
 31
0.0
  0
LINE
  5
EC57
330
EC4A
100
AcDbEntity
  8
1
100
AcDbLine
 10
75.80000685727644
 20
8.199997666618912
 30
0.0
 11
75.80000685727644
 21
0.5999976666190605
 31
0.0
  0
LINE
  5
EC58
330
EC4A
100
AcDbEntity
  8
1
100
AcDbLine
 10
0.0000068572762757
 20
8.199997666618912
 30
0.0
 11
0.0000068572762757
 21
0.5999976666190605
 31
0.0
  0
LINE
  5
EC59
330
EC4A
100
AcDbEntity
  8
1
100
AcDbLine
 10
30.60000685727664
 20
4.849997666619001
 30
0.0
 11
35.7000068572761
 21
4.849997666619001
 31
0.0
  0
LINE
  5
EC5A
330
EC4A
100
AcDbEntity
  8
1
100
AcDbLine
 10
37.70000685727609
 20
5.849997666619002
 30
0.0
 11
28.60000685727664
 21
5.849997666619002
 31
0.0
  0
LINE
  5
EC5B
330
EC4A
100
AcDbEntity
  8
1
100
AcDbLine
 10
35.7000068572761
 20
0.8999976666191287
 30
0.0
 11
30.60000685727619
 21
0.8999976666191287
 31
0.0
  0
LINE
  5
EC5C
330
EC4A
100
AcDbEntity
  8
1
100
AcDbLine
 10
10.20000685727609
 20
-0.0000023333808485
 30
0.0
 11
18.10000685727618
 21
-0.0000023333808485
 31
0.0
  0
LINE
  5
EC5D
330
EC4A
100
AcDbEntity
  8
1
100
AcDbLine
 10
18.70000685727609
 20
3.84999766661906
 30
0.0
 11
9.600006857276182
 21
3.84999766661906
 31
0.0
  0
LINE
  5
EC5E
330
EC4A
100
AcDbEntity
  8
1
100
AcDbLine
 10
18.70000685727609
 20
5.849997666618946
 30
0.0
 11
9.600006857276182
 21
5.849997666619002
 31
0.0
  0
LINE
  5
EC5F
330
EC4A
100
AcDbEntity
  8
3
  6
CENTER2
 62
     6
100
AcDbLine
 10
75.80000685727644
 20
4.849997666618945
 30
0.0
 11
0.0000068572762757
 21
4.849997666619001
 31
0.0
  0
ARC
  5
EC60
330
EC4A
100
AcDbEntity
  8
1
100
AcDbCircle
 10
0.6000068572761848
 20
1.899997666619128
 30
0.0
 40
0.6
100
AcDbArc
 50
180.0
 51
270.0
  0
ARC
  5
EC61
330
EC4A
100
AcDbEntity
  8
1
100
AcDbCircle
 10
0.6000068572761848
 20
0.5999976666190605
 30
0.0
 40
0.6
100
AcDbArc
 50
180.0
 51
270.0
  0
LINE
  5
EC62
330
EC4A
100
AcDbEntity
  8
1
100
AcDbLine
 10
0.6000068572761848
 20
-0.0000023333808485
 30
0.0
 11
8.600006857276182
 21
-0.0000023333808485
 31
0.0
  0
LINE
  5
EC63
330
EC4A
100
AcDbEntity
  8
1
100
AcDbLine
 10
9.600006857276182
 20
1.299997666619105
 30
0.0
 11
0.6000068572761848
 21
1.299997666619105
 31
0.0
  0
LINE
  5
EC64
330
EC4A
100
AcDbEntity
  8
1
100
AcDbLine
 10
4.875006857276273
 20
-0.0000023333808485
 30
0.0
 11
4.875006857276273
 21
1.299997666619105
 31
0.0
  0
LINE
  5
EC65
330
EC4A
100
AcDbEntity
  8
1
100
AcDbLine
 10
2.775006857275911
 20
-0.0000023333808485
 30
0.0
 11
2.775006857275911
 21
1.299997666619105
 31
0.0
  0
LINE
  5
EC66
330
EC4A
100
AcDbEntity
  8
1
100
AcDbLine
 10
5.675006857276457
 20
-0.0000023333808485
 30
0.0
 11
5.675006857276457
 21
1.299997666619105
 31
0.0
  0
ARC
  5
EC67
330
EC4A
100
AcDbEntity
  8
1
100
AcDbCircle
 10
7.480006857276292
 20
0.5999976666190605
 30
0.0
 40
0.6
100
AcDbArc
 50
180.0
 51
270.0
  0
ARC
  5
EC68
330
EC4A
100
AcDbEntity
  8
1
100
AcDbCircle
 10
8.600006857276182
 20
0.5999976666190605
 30
0.0
 40
0.6
100
AcDbArc
 50
270.0
 51
0.0
  0
LINE
  5
EC69
330
EC4A
100
AcDbEntity
  8
1
100
AcDbLine
 10
9.200006857276092
 20
0.5999976666190605
 30
0.0
 11
9.200006857276092
 21
1.299997666619105
 31
0.0
  0
LINE
  5
EC6A
330
EC4A
100
AcDbEntity
  8
1
100
AcDbLine
 10
6.880006857276382
 20
1.299997666619105
 30
0.0
 11
6.880006857276382
 21
-0.0000023333808485
 31
0.0
  0
ARC
  5
EC6B
330
EC4A
100
AcDbEntity
  8
1
100
AcDbCircle
 10
10.20000685727609
 20
0.5999976666190605
 30
0.0
 40
0.6
100
AcDbArc
 50
180.0
 51
270.0
  0
LINE
  5
EC6C
330
EC4A
100
AcDbEntity
  8
1
100
AcDbLine
 10
18.70000685727609
 20
1.299997666619105
 30
0.0
 11
28.60000685727619
 21
1.299997666619105
 31
0.0
  0
LINE
  5
EC6D
330
EC4A
100
AcDbEntity
  8
1
100
AcDbLine
 10
19.70000685727609
 20
-0.0000023333808485
 30
0.0
 11
27.60000685727618
 21
-0.0000023333806212
 31
0.0
  0
ARC
  5
EC6E
330
EC4A
100
AcDbEntity
  8
1
100
AcDbCircle
 10
20.50000685727628
 20
0.5999976666191742
 30
0.0
 40
0.6
100
AcDbArc
 50
270.0
 51
0.0
  0
LINE
  5
EC6F
330
EC4A
100
AcDbEntity
  8
1
100
AcDbLine
 10
21.10000685727619
 20
1.299997666619105
 30
0.0
 11
21.10000685727619
 21
-0.0000023333808485
 31
0.0
  0
LINE
  5
EC70
330
EC4A
100
AcDbEntity
  8
1
100
AcDbLine
 10
19.10000685727618
 20
0.5999976666190605
 30
0.0
 11
19.10000685727618
 21
1.299997666619105
 31
0.0
  0
ARC
  5
EC71
330
EC4A
100
AcDbEntity
  8
1
100
AcDbCircle
 10
19.70000685727609
 20
0.5999976666190605
 30
0.0
 40
0.6
100
AcDbArc
 50
180.0
 51
270.0
  0
ARC
  5
EC72
330
EC4A
100
AcDbEntity
  8
1
100
AcDbCircle
 10
18.10000685727618
 20
0.5999976666190605
 30
0.0
 40
0.6
100
AcDbArc
 50
270.0
 51
0.0
  0
LINE
  5
EC73
330
EC4A
100
AcDbEntity
  8
1
100
AcDbLine
 10
30.60000685727664
 20
3.84999766661906
 30
0.0
 11
28.60000685727619
 21
3.84999766661906
 31
0.0
  0
ARC
  5
EC74
330
EC4A
100
AcDbEntity
  8
1
100
AcDbCircle
 10
29.2000068572761
 20
0.5999976666190605
 30
0.0
 40
0.6
100
AcDbArc
 50
180.0
 51
270.0
  0
LINE
  5
EC75
330
EC4A
100
AcDbEntity
  8
1
100
AcDbLine
 10
28.2000068572761
 20
0.5999976666190605
 30
0.0
 11
28.2000068572761
 21
1.299997666619105
 31
0.0
  0
ARC
  5
EC76
330
EC4A
100
AcDbEntity
  8
1
100
AcDbCircle
 10
27.60000685727618
 20
0.5999976666190605
 30
0.0
 40
0.6
100
AcDbArc
 50
270.0
 51
0.0
  0
ARC
  5
EC77
330
EC4A
100
AcDbEntity
  8
1
100
AcDbCircle
 10
26.80000685727646
 20
0.5999976666191742
 30
0.0
 40
0.6
100
AcDbArc
 50
180.0
 51
270.0
  0
LINE
  5
EC78
330
EC4A
100
AcDbEntity
  8
1
100
AcDbLine
 10
26.20000685727609
 20
1.299997666619105
 30
0.0
 11
26.20000685727609
 21
-0.0000023333806212
 31
0.0
  0
LINE
  5
EC79
330
EC4A
100
AcDbEntity
  8
1
100
AcDbLine
 10
30.60000685727619
 20
0.5999976666191742
 30
0.0
 11
30.60000685727619
 21
4.849997666619001
 31
0.0
  0
LINE
  5
EC7A
330
EC4A
100
AcDbEntity
  8
1
100
AcDbLine
 10
29.2000068572761
 20
-0.0000023333808485
 30
0.0
 11
30.00000685727628
 21
-0.0000023333808485
 31
0.0
  0
ARC
  5
EC7B
330
EC4A
100
AcDbEntity
  8
1
100
AcDbCircle
 10
30.00000685727628
 20
0.5999976666191742
 30
0.0
 40
0.6
100
AcDbArc
 50
270.0
 51
0.0
  0
LINE
  5
EC7C
330
EC4A
100
AcDbEntity
  8
1
100
AcDbLine
 10
56.70000685727609
 20
1.299997666619105
 30
0.0
 11
66.60000685727664
 21
1.299997666619105
 31
0.0
  0
LINE
  5
EC7D
330
EC4A
100
AcDbEntity
  8
1
100
AcDbLine
 10
57.70000685727609
 20
-0.0000023333809622
 30
0.0
 11
65.60000685727619
 21
-0.0000023333806212
 31
0.0
  0
LINE
  5
EC7E
330
EC4A
100
AcDbEntity
  8
1
100
AcDbLine
 10
45.80000685727646
 20
-0.0000023333808485
 30
0.0
 11
46.60000685727618
 21
-0.0000023333808485
 31
0.0
  0
LINE
  5
EC7F
330
EC4A
100
AcDbEntity
  8
1
100
AcDbLine
 10
45.20000685727609
 20
1.299997666619105
 30
0.0
 11
47.60000685727663
 21
1.299997666619105
 31
0.0
  0
ARC
  5
EC80
330
EC4A
100
AcDbEntity
  8
1
100
AcDbCircle
 10
40.70000685727609
 20
2.999997666618923
 30
0.0
 40
0.6
100
AcDbArc
 50
90.0
 51
179.9999999999935
  0
LINE
  5
EC81
330
EC4A
100
AcDbEntity
  8
1
100
AcDbLine
 10
45.20000685727609
 20
0.8999976666192424
 30
0.0
 11
40.10000685727663
 21
0.8999976666192424
 31
0.0
  0
LINE
  5
EC82
330
EC4A
100
AcDbEntity
  8
1
100
AcDbLine
 10
35.7000068572761
 20
0.5999976666190605
 30
0.0
 11
35.7000068572761
 21
4.849997666619001
 31
0.0
  0
LINE
  5
EC83
330
EC4A
100
AcDbEntity
  8
1
100
AcDbLine
 10
37.70000685727609
 20
3.84999766661906
 30
0.0
 11
35.7000068572761
 21
3.849997666618946
 31
0.0
  0
LINE
  5
EC84
330
EC4A
100
AcDbEntity
  8
1
100
AcDbLine
 10
37.70000685727609
 20
1.299997666619105
 30
0.0
 11
40.10000685727663
 21
1.299997666619105
 31
0.0
  0
ARC
  5
EC85
330
EC4A
100
AcDbEntity
  8
1
100
AcDbCircle
 10
39.50000685727628
 20
0.5999976666191742
 30
0.0
 40
0.6
100
AcDbArc
 50
270.0
 51
0.0
  0
LINE
  5
EC86
330
EC4A
100
AcDbEntity
  8
1
100
AcDbLine
 10
38.70000685727609
 20
-0.0000023333808485
 30
0.0
 11
39.50000685727628
 21
-0.0000023333808485
 31
0.0
  0
ARC
  5
EC87
330
EC4A
100
AcDbEntity
  8
1
100
AcDbCircle
 10
38.70000685727609
 20
0.5999976666190605
 30
0.0
 40
0.6
100
AcDbArc
 50
180.0
 51
270.0
  0
LINE
  5
EC88
330
EC4A
100
AcDbEntity
  8
1
100
AcDbLine
 10
38.10000685727664
 20
0.5999976666190605
 30
0.0
 11
38.10000685727664
 21
1.299997666619105
 31
0.0
  0
LINE
  5
EC89
330
EC4A
100
AcDbEntity
  8
1
100
AcDbLine
 10
40.10000685727663
 20
0.5999976666191742
 30
0.0
 11
40.10000685727663
 21
2.999997666619037
 31
0.0
  0
ARC
  5
EC8A
330
EC4A
100
AcDbEntity
  8
1
100
AcDbCircle
 10
36.30000685727646
 20
0.5999976666190605
 30
0.0
 40
0.6
100
AcDbArc
 50
180.0
 51
270.0
  0
LINE
  5
EC8B
330
EC4A
100
AcDbEntity
  8
1
100
AcDbLine
 10
36.30000685727646
 20
-0.0000023333809622
 30
0.0
 11
37.10000685727619
 21
-0.0000023333809622
 31
0.0
  0
ARC
  5
EC8C
330
EC4A
100
AcDbEntity
  8
1
100
AcDbCircle
 10
37.10000685727619
 20
0.5999976666190605
 30
0.0
 40
0.6
100
AcDbArc
 50
270.0
 51
0.0
  0
ARC
  5
EC8D
330
EC4A
100
AcDbEntity
  8
1
100
AcDbCircle
 10
45.80000685727646
 20
0.5999976666191742
 30
0.0
 40
0.6
100
AcDbArc
 50
180.0
 51
270.0
  0
ARC
  5
EC8E
330
EC4A
100
AcDbEntity
  8
1
100
AcDbCircle
 10
44.60000685727663
 20
2.999997666618923
 30
0.0
 40
0.6
100
AcDbArc
 50
359.9999999999935
 51
90.0
  0
LINE
  5
EC8F
330
EC4A
100
AcDbEntity
  8
1
100
AcDbLine
 10
45.20000685727609
 20
0.5999976666191742
 30
0.0
 11
45.20000685727609
 21
2.999997666618923
 31
0.0
  0
LINE
  5
EC90
330
EC4A
100
AcDbEntity
  8
1
100
AcDbLine
 10
44.60000685727663
 20
3.599997666618946
 30
0.0
 11
40.70000685727609
 21
3.599997666618946
 31
0.0
  0
LINE
  5
EC91
330
EC4A
100
AcDbEntity
  8
1
100
AcDbLine
 10
56.70000685727609
 20
3.84999766661906
 30
0.0
 11
47.60000685727663
 21
3.849997666618946
 31
0.0
  0
LINE
  5
EC92
330
EC4A
100
AcDbEntity
  8
1
100
AcDbLine
 10
56.70000685727609
 20
5.849997666619002
 30
0.0
 11
47.60000685727663
 21
5.849997666619002
 31
0.0
  0
LINE
  5
EC93
330
EC4A
100
AcDbEntity
  8
1
100
AcDbLine
 10
48.2000068572761
 20
-0.0000023333808485
 30
0.0
 11
56.10000685727619
 21
-0.0000023333808485
 31
0.0
  0
LINE
  5
EC94
330
EC4A
100
AcDbEntity
  8
1
100
AcDbLine
 10
47.20000685727609
 20
0.5999976666190605
 30
0.0
 11
47.20000685727609
 21
1.299997666619105
 31
0.0
  0
ARC
  5
EC95
330
EC4A
100
AcDbEntity
  8
1
100
AcDbCircle
 10
46.60000685727618
 20
0.5999976666190605
 30
0.0
 40
0.6
100
AcDbArc
 50
270.0
 51
359.9999999999935
  0
ARC
  5
EC96
330
EC4A
100
AcDbEntity
  8
1
100
AcDbCircle
 10
48.2000068572761
 20
0.5999976666190605
 30
0.0
 40
0.6
100
AcDbArc
 50
180.0
 51
270.0
  0
ARC
  5
EC97
330
EC4A
100
AcDbEntity
  8
1
100
AcDbCircle
 10
57.70000685727609
 20
0.5999976666190605
 30
0.0
 40
0.6
100
AcDbArc
 50
180.0
 51
270.0
  0
LINE
  5
EC98
330
EC4A
100
AcDbEntity
  8
1
100
AcDbLine
 10
57.10000685727663
 20
0.5999976666190605
 30
0.0
 11
57.10000685727663
 21
1.299997666619105
 31
0.0
  0
ARC
  5
EC99
330
EC4A
100
AcDbEntity
  8
1
100
AcDbCircle
 10
56.10000685727619
 20
0.5999976666190605
 30
0.0
 40
0.6
100
AcDbArc
 50
270.0
 51
0.0
  0
LINE
  5
EC9A
330
EC4A
100
AcDbEntity
  8
1
100
AcDbLine
 10
67.20000685727609
 20
-0.0000023333809622
 30
0.0
 11
75.20000685727609
 21
-0.0000023333809622
 31
0.0
  0
LINE
  5
EC9B
330
EC4A
100
AcDbEntity
  8
1
100
AcDbLine
 10
75.80000685727644
 20
3.849997666619002
 30
0.0
 11
66.60000685727664
 21
3.84999766661906
 31
0.0
  0
LINE
  5
EC9C
330
EC4A
100
AcDbEntity
  8
1
100
AcDbLine
 10
75.80000685727644
 20
5.849997666619057
 30
0.0
 11
66.60000685727664
 21
5.849997666619057
 31
0.0
  0
LINE
  5
EC9D
330
EC4A
100
AcDbEntity
  8
1
100
AcDbLine
 10
59.10000685727618
 20
1.299997666619105
 30
0.0
 11
59.10000685727618
 21
-0.0000023333808485
 31
0.0
  0
ARC
  5
EC9E
330
EC4A
100
AcDbEntity
  8
1
100
AcDbCircle
 10
58.50000685727628
 20
0.5999976666190605
 30
0.0
 40
0.6
100
AcDbArc
 50
270.0
 51
0.0
  0
LINE
  5
EC9F
330
EC4A
100
AcDbEntity
  8
1
100
AcDbLine
 10
64.20000685727609
 20
1.299997666619105
 30
0.0
 11
64.20000685727609
 21
-0.0000023333807349
 31
0.0
  0
ARC
  5
ECA0
330
EC4A
100
AcDbEntity
  8
1
100
AcDbCircle
 10
64.80000685727644
 20
0.5999976666190605
 30
0.0
 40
0.6
100
AcDbArc
 50
180.0
 51
270.0
  0
ARC
  5
ECA1
330
EC4A
100
AcDbEntity
  8
1
100
AcDbCircle
 10
65.60000685727619
 20
0.5999976666190605
 30
0.0
 40
0.6
100
AcDbArc
 50
270.0
 51
0.0
  0
LINE
  5
ECA2
330
EC4A
100
AcDbEntity
  8
1
100
AcDbLine
 10
66.20000685727609
 20
0.5999976666190605
 30
0.0
 11
66.20000685727609
 21
1.299997666619105
 31
0.0
  0
ARC
  5
ECA3
330
EC4A
100
AcDbEntity
  8
1
100
AcDbCircle
 10
67.20000685727609
 20
0.5999976666190605
 30
0.0
 40
0.6
100
AcDbArc
 50
180.0
 51
270.0
  0
ARC
  5
ECA4
330
EC4A
100
AcDbEntity
  8
1
100
AcDbCircle
 10
75.20000685727609
 20
0.5999976666190605
 30
0.0
 40
0.6
100
AcDbArc
 50
270.0
 51
0.0
  0
LINE
  5
ECA5
330
EC4A
100
AcDbEntity
  8
1
100
AcDbLine
 10
73.80000685727644
 20
8.799997666618935
 30
0.0
 11
2.000006857276274
 21
8.799997666618876
 31
0.0
  0
LINE
  5
ECA6
330
EC4A
100
AcDbEntity
  8
1
100
AcDbLine
 10
9.000006857276275
 20
6.799997666618877
 30
0.0
 11
0.0000068572762757
 21
6.799997666618877
 31
0.0
  0
LINE
  5
ECA7
330
EC4A
100
AcDbEntity
  8
1
100
AcDbLine
 10
9.600006857276182
 20
8.199997666618912
 30
0.0
 11
0.0000068572762757
 21
8.199997666618912
 31
0.0
  0
ARC
  5
ECA8
330
EC4A
100
AcDbEntity
  8
1
100
AcDbCircle
 10
10.20000685727609
 20
8.199997666618855
 30
0.0
 40
0.6
100
AcDbArc
 50
90.0
 51
180.0
  0
LINE
  5
ECA9
330
EC4A
100
AcDbEntity
  8
1
100
AcDbLine
 10
28.60000685727619
 20
8.199997666618912
 30
0.0
 11
18.70000685727609
 21
8.199997666618912
 31
0.0
  0
LINE
  5
ECAA
330
EC4A
100
AcDbEntity
  8
1
100
AcDbLine
 10
28.00000685727628
 20
6.799997666618932
 30
0.0
 11
19.30000685727646
 21
6.799997666618932
 31
0.0
  0
ARC
  5
ECAB
330
EC4A
100
AcDbEntity
  8
1
100
AcDbCircle
 10
18.10000685727618
 20
8.199997666618912
 30
0.0
 40
0.6
100
AcDbArc
 50
0.0
 51
90.0
  0
ARC
  5
ECAC
330
EC4A
100
AcDbEntity
  8
1
100
AcDbCircle
 10
29.2000068572761
 20
8.199997666618912
 30
0.0
 40
0.6
100
AcDbArc
 50
90.0
 51
180.0
  0
LINE
  5
ECAD
330
EC4A
100
AcDbEntity
  8
1
100
AcDbLine
 10
66.00000685727628
 20
6.799997666618877
 30
0.0
 11
57.30000685727645
 21
6.799997666618877
 31
0.0
  0
LINE
  5
ECAE
330
EC4A
100
AcDbEntity
  8
1
100
AcDbLine
 10
66.60000685727664
 20
8.199997666618912
 30
0.0
 11
56.70000685727609
 21
8.199997666618912
 31
0.0
  0
LINE
  5
ECAF
330
EC4A
100
AcDbEntity
  8
1
100
AcDbLine
 10
47.60000685727663
 20
8.199997666618912
 30
0.0
 11
37.70000685727609
 21
8.199997666618912
 31
0.0
  0
LINE
  5
ECB0
330
EC4A
100
AcDbEntity
  8
1
100
AcDbLine
 10
45.20000685727609
 20
7.299997666618932
 30
0.0
 11
40.10000685727663
 21
7.299997666618932
 31
0.0
  0
ARC
  5
ECB1
330
EC4A
100
AcDbEntity
  8
1
100
AcDbCircle
 10
37.10000685727619
 20
8.199997666618967
 30
0.0
 40
0.6
100
AcDbArc
 50
0.0
 51
90.0
  0
ARC
  5
ECB2
330
EC4A
100
AcDbEntity
  8
1
100
AcDbCircle
 10
48.2000068572761
 20
8.199997666618912
 30
0.0
 40
0.6
100
AcDbArc
 50
90.0
 51
180.0
  0
ARC
  5
ECB3
330
EC4A
100
AcDbEntity
  8
1
100
AcDbCircle
 10
56.10000685727619
 20
8.199997666618912
 30
0.0
 40
0.6
100
AcDbArc
 50
0.0
 51
90.0
  0
ARC
  5
ECB4
330
EC4A
100
AcDbEntity
  8
1
100
AcDbCircle
 10
67.20000685727609
 20
8.199997666618912
 30
0.0
 40
0.6
100
AcDbArc
 50
90.0
 51
180.0
  0
ARC
  5
ECB5
330
EC4A
100
AcDbEntity
  8
1
100
AcDbCircle
 10
67.20000685727609
 20
8.199997666618912
 30
0.0
 40
0.6
100
AcDbArc
 50
90.0
 51
180.0
  0
LINE
  5
ECB6
330
EC4A
100
AcDbEntity
  8
1
100
AcDbLine
 10
45.20000685727609
 20
6.799997666618877
 30
0.0
 11
45.20000685727609
 21
7.299997666618932
 31
0.0
  0
LINE
  5
ECB7
330
EC4A
100
AcDbEntity
  8
1
100
AcDbLine
 10
40.10000685727663
 20
6.799997666618877
 30
0.0
 11
40.10000685727663
 21
7.299997666618932
 31
0.0
  0
LINE
  5
ECB8
330
EC4A
100
AcDbEntity
  8
1
100
AcDbLine
 10
47.60000685727663
 20
6.799997666618877
 30
0.0
 11
37.70000685727609
 21
6.799997666618877
 31
0.0
  0
ARC
  5
ECB9
330
EC4A
100
AcDbEntity
  8
1
100
AcDbCircle
 10
0.400006857276367
 20
8.199997666618912
 30
0.0
 40
0.4
100
AcDbArc
 50
97.01851186592065
 51
180.0
  0
LINE
  5
ECBA
330
EC4A
100
AcDbEntity
  8
1
100
AcDbLine
 10
2.000006857276274
 20
8.799997666618876
 30
0.0
 11
0.3511308485708469
 21
8.597000356500245
 31
0.0
  0
ARC
  5
ECBB
330
EC4A
100
AcDbEntity
  8
1
100
AcDbCircle
 10
75.40000685727637
 20
8.199997666618912
 30
0.0
 40
0.4
100
AcDbArc
 50
0.0
 51
82.98148813402685
  0
LINE
  5
ECBC
330
EC4A
100
AcDbEntity
  8
1
100
AcDbLine
 10
73.80000685727644
 20
8.799997666618935
 30
0.0
 11
75.44888286598187
 21
8.597000356500245
 31
0.0
  0
ENDBLK
  5
ECC0
330
EC4A
100
AcDbEntity
  8
0
 62
     7
100
AcDbBlockEnd
  0
BLOCK
  5
EDB2
330
ECC2
100
AcDbEntity
  8
0
 62
     7
100
AcDbBlockBegin
  2
A$C6AF37FBF
 70
     0
 10
0.0
 20
0.0
 30
0.0
  3
A$C6AF37FBF
  1

  0
LINE
  5
ECC3
330
ECC2
100
AcDbEntity
  8
1
100
AcDbLine
 10
149.8000068572755
 20
8.800002603884022
 30
0.0
 11
2.000006857276046
 21
8.80000260388391
 31
0.0
  0
LINE
  5
ECC4
330
ECC2
100
AcDbEntity
  8
1
100
AcDbLine
 10
0.0000068572760483
 20
8.200002603884
 30
0.0
 11
0.0000068572760483
 21
0.6000026038840929
 31
0.0
  0
LINE
  5
ECC5
330
ECC2
100
AcDbEntity
  8
1
100
AcDbLine
 10
151.8000068572764
 20
8.200002603884058
 30
0.0
 11
151.8000068572764
 21
0.6000026038840362
 31
0.0
  0
ARC
  5
ECC6
330
ECC2
100
AcDbEntity
  8
1
100
AcDbCircle
 10
0.6000068572759574
 20
0.6000026038840929
 30
0.0
 40
0.6
100
AcDbArc
 50
180.0
 51
270.0
  0
LINE
  5
ECC7
330
ECC2
100
AcDbEntity
  8
3
  6
CENTER2
 62
     6
100
AcDbLine
 10
151.8000068572755
 20
4.850002603884036
 30
0.0
 11
0.0000068572760483
 21
4.850002603884148
 31
0.0
  0
ARC
  5
ECC8
330
ECC2
100
AcDbEntity
  8
1
100
AcDbCircle
 10
151.2000068572761
 20
0.6000026038840362
 30
0.0
 40
0.6
100
AcDbArc
 50
270.0
 51
0.0
  0
LINE
  5
ECC9
330
ECC2
100
AcDbEntity
  8
1
100
AcDbLine
 10
9.600006857275957
 20
0.6000026038840929
 30
0.0
 11
9.600006857275957
 21
8.200002603883945
 31
0.0
  0
LINE
  5
ECCA
330
ECC2
100
AcDbEntity
  8
1
100
AcDbLine
 10
18.70000685727586
 20
0.6000026038840362
 30
0.0
 11
18.70000685727586
 21
8.200002603883945
 31
0.0
  0
LINE
  5
ECCB
330
ECC2
100
AcDbEntity
  8
1
100
AcDbLine
 10
28.00000685727605
 20
6.800002603883967
 30
0.0
 11
19.30000685727577
 21
6.800002603883967
 31
0.0
  0
LINE
  5
ECCC
330
ECC2
100
AcDbEntity
  8
1
100
AcDbLine
 10
9.600006857275957
 20
8.200002603884
 30
0.0
 11
0.0000068572760483
 21
8.200002603884
 31
0.0
  0
LINE
  5
ECCD
330
ECC2
100
AcDbEntity
  8
1
100
AcDbLine
 10
28.60000685727597
 20
8.200002603883945
 30
0.0
 11
18.70000685727586
 21
8.200002603883945
 31
0.0
  0
ARC
  5
ECCE
330
ECC2
100
AcDbEntity
  8
1
100
AcDbCircle
 10
18.10000685727596
 20
8.200002603883945
 30
0.0
 40
0.6
100
AcDbArc
 50
0.0
 51
90.0
  0
ARC
  5
ECCF
330
ECC2
100
AcDbEntity
  8
1
100
AcDbCircle
 10
10.20000685727632
 20
8.200002603883945
 30
0.0
 40
0.6
100
AcDbArc
 50
90.0
 51
180.0
  0
ARC
  5
ECD0
330
ECC2
100
AcDbEntity
  8
1
100
AcDbCircle
 10
10.20000685727632
 20
0.6000026038840929
 30
0.0
 40
0.6
100
AcDbArc
 50
180.0
 51
270.0
  0
ARC
  5
ECD1
330
ECC2
100
AcDbEntity
  8
1
100
AcDbCircle
 10
18.10000685727596
 20
0.6000026038840362
 30
0.0
 40
0.6
100
AcDbArc
 50
270.0
 51
0.0
  0
LINE
  5
ECD2
330
ECC2
100
AcDbEntity
  8
1
100
AcDbLine
 10
28.60000685727597
 20
0.6000026038840929
 30
0.0
 11
28.60000685727597
 21
8.200002603883945
 31
0.0
  0
ARC
  5
ECD3
330
ECC2
100
AcDbEntity
  8
1
100
AcDbCircle
 10
29.20000685727632
 20
0.6000026038840929
 30
0.0
 40
0.6
100
AcDbArc
 50
180.0
 51
270.0
  0
ARC
  5
ECD4
330
ECC2
100
AcDbEntity
  8
1
100
AcDbCircle
 10
29.20000685727632
 20
8.200002603883945
 30
0.0
 40
0.6
100
AcDbArc
 50
90.0
 51
180.0
  0
LINE
  5
ECD5
330
ECC2
100
AcDbEntity
  8
1
100
AcDbLine
 10
37.70000685727587
 20
0.6000026038840929
 30
0.0
 11
37.70000685727587
 21
8.200002603883945
 31
0.0
  0
ARC
  5
ECD6
330
ECC2
100
AcDbEntity
  8
1
100
AcDbCircle
 10
37.10000685727596
 20
0.6000026038840929
 30
0.0
 40
0.6
100
AcDbArc
 50
270.0
 51
0.0
  0
LINE
  5
ECD7
330
ECC2
100
AcDbEntity
  8
1
100
AcDbLine
 10
35.70000685727587
 20
0.9000026038841609
 30
0.0
 11
30.60000685727596
 21
0.9000026038841609
 31
0.0
  0
LINE
  5
ECD8
330
ECC2
100
AcDbEntity
  8
1
100
AcDbLine
 10
36.30000685727579
 20
0.0000026038840701
 30
0.0
 11
37.10000685727596
 21
0.0000026038840701
 31
0.0
  0
ARC
  5
ECD9
330
ECC2
100
AcDbEntity
  8
1
100
AcDbCircle
 10
36.30000685727579
 20
0.6000026038840362
 30
0.0
 40
0.6
100
AcDbArc
 50
180.0
 51
270.0
  0
ARC
  5
ECDA
330
ECC2
100
AcDbEntity
  8
1
100
AcDbCircle
 10
30.00000685727605
 20
0.6000026038841498
 30
0.0
 40
0.6
100
AcDbArc
 50
270.0
 51
0.0
  0
LINE
  5
ECDB
330
ECC2
100
AcDbEntity
  8
1
100
AcDbLine
 10
47.60000685727596
 20
0.6000026038840362
 30
0.0
 11
47.60000685727596
 21
8.200002603883945
 31
0.0
  0
ARC
  5
ECDC
330
ECC2
100
AcDbEntity
  8
1
100
AcDbCircle
 10
48.20000685727631
 20
0.6000026038840362
 30
0.0
 40
0.6
100
AcDbArc
 50
180.0
 51
270.0
  0
LINE
  5
ECDD
330
ECC2
100
AcDbEntity
  8
1
100
AcDbLine
 10
56.70000685727586
 20
0.6000026038840362
 30
0.0
 11
56.70000685727586
 21
8.200002603883945
 31
0.0
  0
ARC
  5
ECDE
330
ECC2
100
AcDbEntity
  8
1
100
AcDbCircle
 10
56.10000685727595
 20
0.6000026038840362
 30
0.0
 40
0.6
100
AcDbArc
 50
270.0
 51
0.0
  0
ARC
  5
ECDF
330
ECC2
100
AcDbEntity
  8
1
100
AcDbCircle
 10
56.10000685727595
 20
8.200002603883945
 30
0.0
 40
0.6
100
AcDbArc
 50
0.0
 51
90.0
  0
LINE
  5
ECE0
330
ECC2
100
AcDbEntity
  8
1
100
AcDbLine
 10
73.70000685727585
 20
0.9000026038841609
 30
0.0
 11
68.60000685727595
 21
0.9000026038841609
 31
0.0
  0
LINE
  5
ECE1
330
ECC2
100
AcDbEntity
  8
1
100
AcDbLine
 10
66.60000685727595
 20
8.200002603883945
 30
0.0
 11
56.70000685727586
 21
8.200002603883945
 31
0.0
  0
LINE
  5
ECE2
330
ECC2
100
AcDbEntity
  8
1
100
AcDbLine
 10
66.00000685727605
 20
6.80000260388391
 30
0.0
 11
57.30000685727578
 21
6.80000260388391
 31
0.0
  0
LINE
  5
ECE3
330
ECC2
100
AcDbEntity
  8
1
100
AcDbLine
 10
68.60000685727595
 20
0.6000026038841498
 30
0.0
 11
68.60000685727595
 21
4.850002603884036
 31
0.0
  0
LINE
  5
ECE4
330
ECC2
100
AcDbEntity
  8
1
100
AcDbLine
 10
66.60000685727595
 20
0.6000026038840929
 30
0.0
 11
66.60000685727595
 21
8.200002603883945
 31
0.0
  0
ARC
  5
ECE5
330
ECC2
100
AcDbEntity
  8
1
100
AcDbCircle
 10
67.20000685727632
 20
0.6000026038840929
 30
0.0
 40
0.6
100
AcDbArc
 50
180.0
 51
270.0
  0
ARC
  5
ECE6
330
ECC2
100
AcDbEntity
  8
1
100
AcDbCircle
 10
68.00000685727605
 20
0.6000026038841498
 30
0.0
 40
0.6
100
AcDbArc
 50
270.0
 51
0.0
  0
ARC
  5
ECE7
330
ECC2
100
AcDbEntity
  8
1
100
AcDbCircle
 10
67.20000685727632
 20
8.200002603883945
 30
0.0
 40
0.6
100
AcDbArc
 50
90.0
 51
180.0
  0
LINE
  5
ECE8
330
ECC2
100
AcDbEntity
  8
1
100
AcDbLine
 10
73.70000685727585
 20
0.6000026038840362
 30
0.0
 11
73.70000685727585
 21
4.850002603884036
 31
0.0
  0
LINE
  5
ECE9
330
ECC2
100
AcDbEntity
  8
1
100
AcDbLine
 10
75.70000685727585
 20
0.6000026038840929
 30
0.0
 11
75.70000685727585
 21
8.200002603883945
 31
0.0
  0
ARC
  5
ECEA
330
ECC2
100
AcDbEntity
  8
1
100
AcDbCircle
 10
74.30000685727576
 20
0.6000026038840362
 30
0.0
 40
0.6
100
AcDbArc
 50
180.0
 51
270.0
  0
ARC
  5
ECEB
330
ECC2
100
AcDbEntity
  8
1
100
AcDbCircle
 10
75.10000685727596
 20
0.6000026038840929
 30
0.0
 40
0.6
100
AcDbArc
 50
270.0
 51
0.0
  0
LINE
  5
ECEC
330
ECC2
100
AcDbEntity
  8
1
100
AcDbLine
 10
94.7000068572761
 20
0.6000026038840362
 30
0.0
 11
94.7000068572761
 21
8.200002603883945
 31
0.0
  0
LINE
  5
ECED
330
ECC2
100
AcDbEntity
  8
1
100
AcDbLine
 10
85.60000685727571
 20
0.6000026038840362
 30
0.0
 11
85.60000685727571
 21
8.200002603883945
 31
0.0
  0
ARC
  5
ECEE
330
ECC2
100
AcDbEntity
  8
1
100
AcDbCircle
 10
86.20000685727609
 20
0.6000026038840362
 30
0.0
 40
0.6
100
AcDbArc
 50
180.0
 51
270.0
  0
ARC
  5
ECEF
330
ECC2
100
AcDbEntity
  8
1
100
AcDbCircle
 10
94.10000685727572
 20
0.6000026038840362
 30
0.0
 40
0.6
100
AcDbArc
 50
270.0
 51
0.0
  0
ARC
  5
ECF0
330
ECC2
100
AcDbEntity
  8
1
100
AcDbCircle
 10
94.10000685727572
 20
8.200002603883945
 30
0.0
 40
0.6
100
AcDbArc
 50
0.0
 51
90.0
  0
LINE
  5
ECF1
330
ECC2
100
AcDbEntity
  8
1
100
AcDbLine
 10
74.30000685727576
 20
0.000002603884127
 30
0.0
 11
75.10000685727596
 21
0.000002603884127
 31
0.0
  0
LINE
  5
ECF2
330
ECC2
100
AcDbEntity
  8
1
100
AcDbLine
 10
120.6000068572757
 20
3.600002603884036
 30
0.0
 11
116.7000068572761
 21
3.600002603884036
 31
0.0
  0
LINE
  5
ECF3
330
ECC2
100
AcDbEntity
  8
1
100
AcDbLine
 10
104.0000068572763
 20
6.800002603883967
 30
0.0
 11
95.30000685727555
 21
6.80000260388391
 31
0.0
  0
LINE
  5
ECF4
330
ECC2
100
AcDbEntity
  8
1
100
AcDbLine
 10
104.6000068572757
 20
8.200002603883945
 30
0.0
 11
94.7000068572761
 21
8.200002603883945
 31
0.0
  0
LINE
  5
ECF5
330
ECC2
100
AcDbEntity
  8
1
100
AcDbLine
 10
111.7000068572761
 20
0.9000026038841609
 30
0.0
 11
106.6000068572757
 21
0.9000026038841609
 31
0.0
  0
LINE
  5
ECF6
330
ECC2
100
AcDbEntity
  8
1
100
AcDbLine
 10
104.6000068572757
 20
0.6000026038840929
 30
0.0
 11
104.6000068572757
 21
8.200002603883945
 31
0.0
  0
LINE
  5
ECF7
330
ECC2
100
AcDbEntity
  8
1
100
AcDbLine
 10
106.6000068572757
 20
0.6000026038841498
 30
0.0
 11
106.6000068572757
 21
4.850002603884036
 31
0.0
  0
ARC
  5
ECF8
330
ECC2
100
AcDbEntity
  8
1
100
AcDbCircle
 10
106.0000068572763
 20
0.6000026038841498
 30
0.0
 40
0.6
100
AcDbArc
 50
270.0
 51
0.0
  0
ARC
  5
ECF9
330
ECC2
100
AcDbEntity
  8
1
100
AcDbCircle
 10
105.2000068572761
 20
0.6000026038840929
 30
0.0
 40
0.6
100
AcDbArc
 50
180.0
 51
270.0
  0
ARC
  5
ECFA
330
ECC2
100
AcDbEntity
  8
1
100
AcDbCircle
 10
105.2000068572761
 20
8.200002603883945
 30
0.0
 40
0.6
100
AcDbArc
 50
90.0
 51
180.0
  0
LINE
  5
ECFB
330
ECC2
100
AcDbEntity
  8
1
100
AcDbLine
 10
113.7000068572761
 20
0.6000026038840929
 30
0.0
 11
113.7000068572761
 21
8.200002603883945
 31
0.0
  0
LINE
  5
ECFC
330
ECC2
100
AcDbEntity
  8
1
100
AcDbLine
 10
116.1000068572757
 20
0.6000026038840929
 30
0.0
 11
116.1000068572757
 21
3.000002603884126
 31
0.0
  0
LINE
  5
ECFD
330
ECC2
100
AcDbEntity
  8
1
100
AcDbLine
 10
111.7000068572761
 20
0.6000026038840362
 30
0.0
 11
111.7000068572761
 21
4.850002603884036
 31
0.0
  0
ARC
  5
ECFE
330
ECC2
100
AcDbEntity
  8
1
100
AcDbCircle
 10
113.1000068572757
 20
0.6000026038840929
 30
0.0
 40
0.6
100
AcDbArc
 50
270.0
 51
0.0
  0
ARC
  5
ECFF
330
ECC2
100
AcDbEntity
  8
1
100
AcDbCircle
 10
112.3000068572755
 20
0.6000026038840362
 30
0.0
 40
0.6
100
AcDbArc
 50
180.0
 51
270.0
  0
ARC
  5
ED00
330
ECC2
100
AcDbEntity
  8
1
100
AcDbCircle
 10
115.5000068572763
 20
0.6000026038840929
 30
0.0
 40
0.6
100
AcDbArc
 50
270.0
 51
0.0
  0
LINE
  5
ED01
330
ECC2
100
AcDbEntity
  8
1
100
AcDbLine
 10
123.6000068572757
 20
0.6000026038840362
 30
0.0
 11
123.6000068572757
 21
8.200002603883945
 31
0.0
  0
LINE
  5
ED02
330
ECC2
100
AcDbEntity
  8
1
100
AcDbLine
 10
121.2000068572761
 20
0.6000026038840929
 30
0.0
 11
121.2000068572761
 21
3.000002603884013
 31
0.0
  0
ARC
  5
ED03
330
ECC2
100
AcDbEntity
  8
1
100
AcDbCircle
 10
124.2000068572761
 20
0.6000026038840362
 30
0.0
 40
0.6
100
AcDbArc
 50
180.0
 51
270.0
  0
ARC
  5
ED04
330
ECC2
100
AcDbEntity
  8
1
100
AcDbCircle
 10
121.8000068572755
 20
0.6000026038840929
 30
0.0
 40
0.6
100
AcDbArc
 50
180.0
 51
270.0
  0
LINE
  5
ED05
330
ECC2
100
AcDbEntity
  8
1
100
AcDbLine
 10
132.7000068572761
 20
0.6000026038840362
 30
0.0
 11
132.7000068572761
 21
8.200002603883945
 31
0.0
  0
ARC
  5
ED06
330
ECC2
100
AcDbEntity
  8
1
100
AcDbCircle
 10
132.1000068572757
 20
0.6000026038840362
 30
0.0
 40
0.6
100
AcDbArc
 50
270.0
 51
0.0
  0
ARC
  5
ED07
330
ECC2
100
AcDbEntity
  8
1
100
AcDbCircle
 10
132.1000068572757
 20
8.200002603883945
 30
0.0
 40
0.6
100
AcDbArc
 50
0.0
 51
90.0
  0
LINE
  5
ED08
330
ECC2
100
AcDbEntity
  8
1
100
AcDbLine
 10
142.6000068572757
 20
8.200002603883945
 30
0.0
 11
132.7000068572761
 21
8.200002603883945
 31
0.0
  0
LINE
  5
ED09
330
ECC2
100
AcDbEntity
  8
1
100
AcDbLine
 10
142.0000068572762
 20
6.80000260388391
 30
0.0
 11
133.3000068572755
 21
6.80000260388391
 31
0.0
  0
ARC
  5
ED0A
330
ECC2
100
AcDbEntity
  8
1
100
AcDbCircle
 10
132.1000068572757
 20
8.200002603883945
 30
0.0
 40
0.6
100
AcDbArc
 50
0.0
 51
90.0
  0
ARC
  5
ED0B
330
ECC2
100
AcDbEntity
  8
1
100
AcDbCircle
 10
143.2000068572761
 20
8.200002603883945
 30
0.0
 40
0.6
100
AcDbArc
 50
90.0
 51
180.0
  0
LINE
  5
ED0C
330
ECC2
100
AcDbEntity
  8
1
100
AcDbLine
 10
142.6000068572757
 20
0.6000026038840929
 30
0.0
 11
142.6000068572757
 21
8.200002603883945
 31
0.0
  0
ARC
  5
ED0D
330
ECC2
100
AcDbEntity
  8
1
100
AcDbCircle
 10
143.2000068572761
 20
0.6000026038840929
 30
0.0
 40
0.6
100
AcDbArc
 50
180.0
 51
270.0
  0
ARC
  5
ED0E
330
ECC2
100
AcDbEntity
  8
1
100
AcDbCircle
 10
143.2000068572761
 20
8.200002603883945
 30
0.0
 40
0.6
100
AcDbArc
 50
90.0
 51
180.0
  0
LINE
  5
ED0F
330
ECC2
100
AcDbEntity
  8
1
100
AcDbLine
 10
112.3000068572755
 20
0.0000026038840701
 30
0.0
 11
113.1000068572757
 21
0.0000026038840701
 31
0.0
  0
LINE
  5
ED10
330
ECC2
100
AcDbEntity
  8
1
100
AcDbLine
 10
121.2000068572761
 20
0.9000026038842179
 30
0.0
 11
116.1000068572757
 21
0.9000026038841609
 31
0.0
  0
LINE
  5
ED11
330
ECC2
100
AcDbEntity
  8
1
100
AcDbLine
 10
121.8000068572755
 20
0.0000026038840701
 30
0.0
 11
122.6000068572757
 21
0.0000026038840701
 31
0.0
  0
LINE
  5
ED12
330
ECC2
100
AcDbEntity
  8
1
100
AcDbLine
 10
86.20000685727609
 20
0.000002603884127
 30
0.0
 11
94.10000685727572
 21
0.000002603884127
 31
0.0
  0
LINE
  5
ED13
330
ECC2
100
AcDbEntity
  8
1
100
AcDbLine
 10
48.20000685727631
 20
0.000002603884127
 30
0.0
 11
56.10000685727595
 21
0.000002603884127
 31
0.0
  0
LINE
  5
ED14
330
ECC2
100
AcDbEntity
  8
1
  6
Continuous
100
AcDbLine
 10
151.8000068572764
 20
5.850002603884036
 30
0.0
 11
142.6000068572757
 21
5.850002603884036
 31
0.0
  0
LINE
  5
ED15
330
ECC2
100
AcDbEntity
  8
1
  6
Continuous
100
AcDbLine
 10
151.8000068572764
 20
3.850002603884036
 30
0.0
 11
142.6000068572757
 21
3.850002603884036
 31
0.0
  0
LINE
  5
ED16
330
ECC2
100
AcDbEntity
  8
1
  6
Continuous
100
AcDbLine
 10
132.7000068572761
 20
5.850002603884036
 30
0.0
 11
123.6000068572757
 21
5.850002603884036
 31
0.0
  0
LINE
  5
ED17
330
ECC2
100
AcDbEntity
  8
1
  6
Continuous
100
AcDbLine
 10
132.7000068572761
 20
3.850002603884036
 30
0.0
 11
123.6000068572757
 21
3.850002603884036
 31
0.0
  0
LINE
  5
ED18
330
ECC2
100
AcDbEntity
  8
1
  6
Continuous
100
AcDbLine
 10
113.7000068572761
 20
3.850002603884036
 30
0.0
 11
111.7000068572761
 21
3.850002603883978
 31
0.0
  0
LINE
  5
ED19
330
ECC2
100
AcDbEntity
  8
1
  6
Continuous
100
AcDbLine
 10
113.7000068572761
 20
5.850002603884036
 30
0.0
 11
104.6000068572757
 21
5.850002603884036
 31
0.0
  0
LINE
  5
ED1A
330
ECC2
100
AcDbEntity
  8
1
  6
Continuous
100
AcDbLine
 10
94.7000068572761
 20
5.850002603884036
 30
0.0
 11
85.60000685727571
 21
5.850002603884036
 31
0.0
  0
LINE
  5
ED1B
330
ECC2
100
AcDbEntity
  8
1
  6
Continuous
100
AcDbLine
 10
94.7000068572761
 20
3.850002603884036
 30
0.0
 11
85.60000685727571
 21
3.850002603884036
 31
0.0
  0
LINE
  5
ED1C
330
ECC2
100
AcDbEntity
  8
1
  6
Continuous
100
AcDbLine
 10
75.70000685727585
 20
5.850002603884036
 30
0.0
 11
66.60000685727595
 21
5.850002603884036
 31
0.0
  0
LINE
  5
ED1D
330
ECC2
100
AcDbEntity
  8
1
  6
Continuous
100
AcDbLine
 10
56.70000685727586
 20
5.850002603884036
 30
0.0
 11
47.60000685727596
 21
5.850002603884036
 31
0.0
  0
LINE
  5
ED1E
330
ECC2
100
AcDbEntity
  8
1
  6
Continuous
100
AcDbLine
 10
56.70000685727586
 20
3.850002603884036
 30
0.0
 11
47.60000685727596
 21
3.850002603883978
 31
0.0
  0
LINE
  5
ED1F
330
ECC2
100
AcDbEntity
  8
1
  6
Continuous
100
AcDbLine
 10
37.70000685727587
 20
5.850002603884036
 30
0.0
 11
28.60000685727597
 21
5.850002603884036
 31
0.0
  0
LINE
  5
ED20
330
ECC2
100
AcDbEntity
  8
1
  6
Continuous
100
AcDbLine
 10
18.70000685727586
 20
5.850002603883978
 30
0.0
 11
9.600006857275957
 21
5.850002603884092
 31
0.0
  0
LINE
  5
ED21
330
ECC2
100
AcDbEntity
  8
1
  6
Continuous
100
AcDbLine
 10
18.70000685727586
 20
3.850002603884036
 30
0.0
 11
9.600006857275957
 21
3.850002603884091
 31
0.0
  0
LINE
  5
ED22
330
ECC2
100
AcDbEntity
  8
1
100
AcDbLine
 10
132.7000068572761
 20
1.300002603884081
 30
0.0
 11
142.6000068572757
 21
1.300002603884081
 31
0.0
  0
LINE
  5
ED23
330
ECC2
100
AcDbEntity
  8
1
100
AcDbLine
 10
135.1000068572757
 20
1.300002603884081
 30
0.0
 11
135.1000068572757
 21
0.000002603884127
 31
0.0
  0
LINE
  5
ED24
330
ECC2
100
AcDbEntity
  8
1
100
AcDbLine
 10
140.2000068572761
 20
1.300002603884081
 30
0.0
 11
140.2000068572761
 21
0.0000026038842975
 31
0.0
  0
LINE
  5
ED25
330
ECC2
100
AcDbEntity
  8
1
100
AcDbLine
 10
94.7000068572761
 20
1.300002603884081
 30
0.0
 11
104.6000068572757
 21
1.300002603884081
 31
0.0
  0
LINE
  5
ED26
330
ECC2
100
AcDbEntity
  8
1
100
AcDbLine
 10
6.880006857275701
 20
1.300002603884195
 30
0.0
 11
6.880006857275701
 21
0.0000026038841838
 31
0.0
  0
LINE
  5
ED27
330
ECC2
100
AcDbEntity
  8
1
100
AcDbLine
 10
9.600006857275957
 20
1.300002603884137
 30
0.0
 11
0.6000068572759574
 21
1.300002603884137
 31
0.0
  0
ARC
  5
ED28
330
ECC2
100
AcDbEntity
  8
1
100
AcDbCircle
 10
9.000006857276048
 20
6.200002603884001
 30
0.0
 40
0.6
100
AcDbArc
 50
0.0
 51
90.0
  0
ARC
  5
ED29
330
ECC2
100
AcDbEntity
  8
1
100
AcDbCircle
 10
19.30000685727577
 20
6.200002603883945
 30
0.0
 40
0.6
100
AcDbArc
 50
90.0
 51
180.0
  0
LINE
  5
ED2A
330
ECC2
100
AcDbEntity
  8
1
100
AcDbLine
 10
9.000006857276048
 20
6.800002603883967
 30
0.0
 11
0.0000068572760483
 21
6.80000260388391
 31
0.0
  0
ARC
  5
ED2B
330
ECC2
100
AcDbEntity
  8
1
100
AcDbCircle
 10
28.00000685727605
 20
6.200002603883945
 30
0.0
 40
0.6
100
AcDbArc
 50
0.0
 51
90.0
  0
ARC
  5
ED2C
330
ECC2
100
AcDbEntity
  8
1
100
AcDbCircle
 10
57.30000685727578
 20
6.200002603883945
 30
0.0
 40
0.6
100
AcDbArc
 50
90.0
 51
180.0
  0
ARC
  5
ED2D
330
ECC2
100
AcDbEntity
  8
1
100
AcDbCircle
 10
66.00000685727605
 20
6.200002603884057
 30
0.0
 40
0.6
100
AcDbArc
 50
0.0
 51
90.0
  0
ARC
  5
ED2E
330
ECC2
100
AcDbEntity
  8
1
100
AcDbCircle
 10
95.30000685727555
 20
6.200002603883945
 30
0.0
 40
0.6
100
AcDbArc
 50
90.0
 51
180.0
  0
ARC
  5
ED2F
330
ECC2
100
AcDbEntity
  8
1
100
AcDbCircle
 10
104.0000068572763
 20
6.200002603884057
 30
0.0
 40
0.6
100
AcDbArc
 50
0.0
 51
90.0
  0
ARC
  5
ED30
330
ECC2
100
AcDbEntity
  8
1
100
AcDbCircle
 10
133.3000068572755
 20
6.200002603883945
 30
0.0
 40
0.6
100
AcDbArc
 50
90.0
 51
180.0
  0
ARC
  5
ED31
330
ECC2
100
AcDbEntity
  8
1
100
AcDbCircle
 10
142.0000068572762
 20
6.200002603884057
 30
0.0
 40
0.6
100
AcDbArc
 50
0.0
 51
90.0
  0
LINE
  5
ED32
330
ECC2
100
AcDbEntity
  8
1
100
AcDbLine
 10
142.2000068572761
 20
0.6000026038840362
 30
0.0
 11
142.2000068572761
 21
1.300002603884081
 31
0.0
  0
LINE
  5
ED33
330
ECC2
100
AcDbEntity
  8
1
100
AcDbLine
 10
143.2000068572761
 20
0.0000026038840701
 30
0.0
 11
151.2000068572761
 21
0.0000026038840701
 31
0.0
  0
ARC
  5
ED34
330
ECC2
100
AcDbEntity
  8
1
100
AcDbCircle
 10
141.6000068572757
 20
0.6000026038840362
 30
0.0
 40
0.6
100
AcDbArc
 50
270.0
 51
0.0
  0
ARC
  5
ED35
330
ECC2
100
AcDbEntity
  8
1
100
AcDbCircle
 10
133.7000068572761
 20
0.6000026038840362
 30
0.0
 40
0.6
100
AcDbArc
 50
180.0
 51
270.0
  0
LINE
  5
ED36
330
ECC2
100
AcDbEntity
  8
1
100
AcDbLine
 10
133.1000068572757
 20
0.6000026038840362
 30
0.0
 11
133.1000068572757
 21
1.300002603884081
 31
0.0
  0
LINE
  5
ED37
330
ECC2
100
AcDbEntity
  8
1
100
AcDbLine
 10
133.7000068572761
 20
0.0000026038840701
 30
0.0
 11
141.6000068572757
 21
0.0000026038843544
 31
0.0
  0
ARC
  5
ED38
330
ECC2
100
AcDbEntity
  8
1
100
AcDbCircle
 10
140.8000068572755
 20
0.6000026038840929
 30
0.0
 40
0.6
100
AcDbArc
 50
180.0
 51
270.0
  0
ARC
  5
ED39
330
ECC2
100
AcDbEntity
  8
1
100
AcDbCircle
 10
134.5000068572762
 20
0.6000026038840929
 30
0.0
 40
0.6
100
AcDbArc
 50
270.0
 51
0.0
  0
LINE
  5
ED3A
330
ECC2
100
AcDbEntity
  8
1
100
AcDbLine
 10
105.2000068572761
 20
0.0000026038840701
 30
0.0
 11
106.0000068572763
 21
0.0000026038840701
 31
0.0
  0
LINE
  5
ED3B
330
ECC2
100
AcDbEntity
  8
1
100
AcDbLine
 10
95.7000068572761
 20
0.0000026038840701
 30
0.0
 11
103.6000068572757
 21
0.0000026038843544
 31
0.0
  0
ARC
  5
ED3C
330
ECC2
100
AcDbEntity
  8
1
100
AcDbCircle
 10
95.7000068572761
 20
0.6000026038840362
 30
0.0
 40
0.6
100
AcDbArc
 50
180.0
 51
270.0
  0
LINE
  5
ED3D
330
ECC2
100
AcDbEntity
  8
1
100
AcDbLine
 10
95.10000685727574
 20
0.6000026038840362
 30
0.0
 11
95.10000685727574
 21
1.300002603884081
 31
0.0
  0
LINE
  5
ED3E
330
ECC2
100
AcDbEntity
  8
1
100
AcDbLine
 10
97.10000685727571
 20
1.300002603884081
 30
0.0
 11
97.10000685727571
 21
0.000002603884127
 31
0.0
  0
ARC
  5
ED3F
330
ECC2
100
AcDbEntity
  8
1
100
AcDbCircle
 10
96.50000685727629
 20
0.6000026038840929
 30
0.0
 40
0.6
100
AcDbArc
 50
270.0
 51
0.0
  0
LINE
  5
ED40
330
ECC2
100
AcDbEntity
  8
1
100
AcDbLine
 10
102.2000068572761
 20
1.300002603884081
 30
0.0
 11
102.2000068572761
 21
0.0000026038842975
 31
0.0
  0
ARC
  5
ED41
330
ECC2
100
AcDbEntity
  8
1
100
AcDbCircle
 10
102.8000068572755
 20
0.6000026038840929
 30
0.0
 40
0.6
100
AcDbArc
 50
180.0
 51
270.0
  0
ARC
  5
ED42
330
ECC2
100
AcDbEntity
  8
1
100
AcDbCircle
 10
103.6000068572757
 20
0.6000026038840362
 30
0.0
 40
0.6
100
AcDbArc
 50
270.0
 51
0.0
  0
LINE
  5
ED43
330
ECC2
100
AcDbEntity
  8
1
100
AcDbLine
 10
104.2000068572761
 20
0.6000026038840362
 30
0.0
 11
104.2000068572761
 21
1.300002603884081
 31
0.0
  0
LINE
  5
ED44
330
ECC2
100
AcDbEntity
  8
1
100
AcDbLine
 10
113.7000068572761
 20
1.300002603884081
 30
0.0
 11
116.1000068572757
 21
1.300002603884081
 31
0.0
  0
LINE
  5
ED45
330
ECC2
100
AcDbEntity
  8
1
100
AcDbLine
 10
121.2000068572761
 20
1.300002603884081
 30
0.0
 11
123.6000068572757
 21
1.300002603884081
 31
0.0
  0
LINE
  5
ED46
330
ECC2
100
AcDbEntity
  8
1
100
AcDbLine
 10
123.2000068572761
 20
0.6000026038840362
 30
0.0
 11
123.2000068572761
 21
1.300002603884081
 31
0.0
  0
LINE
  5
ED47
330
ECC2
100
AcDbEntity
  8
1
100
AcDbLine
 10
124.2000068572761
 20
0.0000026038840701
 30
0.0
 11
132.1000068572757
 21
0.0000026038840701
 31
0.0
  0
ARC
  5
ED48
330
ECC2
100
AcDbEntity
  8
1
100
AcDbCircle
 10
122.6000068572757
 20
0.6000026038840362
 30
0.0
 40
0.6
100
AcDbArc
 50
270.0
 51
0.0
  0
ARC
  5
ED49
330
ECC2
100
AcDbEntity
  8
1
100
AcDbCircle
 10
120.6000068572757
 20
3.000002603884013
 30
0.0
 40
0.6
100
AcDbArc
 50
359.9999999999935
 51
90.0
  0
ARC
  5
ED4A
330
ECC2
100
AcDbEntity
  8
1
100
AcDbCircle
 10
116.7000068572761
 20
3.00000260388407
 30
0.0
 40
0.6
100
AcDbArc
 50
90.0
 51
180.0
  0
LINE
  5
ED4B
330
ECC2
100
AcDbEntity
  8
1
100
AcDbLine
 10
114.1000068572757
 20
0.6000026038840362
 30
0.0
 11
114.1000068572757
 21
1.300002603884081
 31
0.0
  0
ARC
  5
ED4C
330
ECC2
100
AcDbEntity
  8
1
100
AcDbCircle
 10
114.7000068572761
 20
0.6000026038840362
 30
0.0
 40
0.6
100
AcDbArc
 50
180.0
 51
270.0
  0
LINE
  5
ED4D
330
ECC2
100
AcDbEntity
  8
1
100
AcDbLine
 10
114.7000068572761
 20
0.0000026038840701
 30
0.0
 11
115.5000068572763
 21
0.0000026038840701
 31
0.0
  0
ARC
  5
ED4E
330
ECC2
100
AcDbEntity
  8
1
100
AcDbCircle
 10
77.50000685727605
 20
0.6000026038841498
 30
0.0
 40
0.6
100
AcDbArc
 50
270.0
 51
0.0
  0
LINE
  5
ED4F
330
ECC2
100
AcDbEntity
  8
1
100
AcDbLine
 10
76.70000685727632
 20
0.000002603884127
 30
0.0
 11
77.50000685727605
 21
0.000002603884127
 31
0.0
  0
ARC
  5
ED50
330
ECC2
100
AcDbEntity
  8
1
100
AcDbCircle
 10
76.70000685727632
 20
0.6000026038840929
 30
0.0
 40
0.6
100
AcDbArc
 50
180.0
 51
270.0
  0
LINE
  5
ED51
330
ECC2
100
AcDbEntity
  8
1
100
AcDbLine
 10
76.10000685727595
 20
0.6000026038840929
 30
0.0
 11
76.10000685727595
 21
1.300002603884081
 31
0.0
  0
LINE
  5
ED52
330
ECC2
100
AcDbEntity
  8
1
100
AcDbLine
 10
83.80000685727555
 20
0.000002603884127
 30
0.0
 11
84.60000685727573
 21
0.000002603884127
 31
0.0
  0
LINE
  5
ED53
330
ECC2
100
AcDbEntity
  8
1
100
AcDbLine
 10
83.2000068572761
 20
0.9000026038842179
 30
0.0
 11
78.10000685727596
 21
0.9000026038842179
 31
0.0
  0
ARC
  5
ED54
330
ECC2
100
AcDbEntity
  8
1
100
AcDbCircle
 10
83.80000685727555
 20
0.6000026038841498
 30
0.0
 40
0.6
100
AcDbArc
 50
180.0
 51
270.0
  0
LINE
  5
ED55
330
ECC2
100
AcDbEntity
  8
1
100
AcDbLine
 10
85.20000685727609
 20
0.6000026038840929
 30
0.0
 11
85.20000685727609
 21
1.300002603884081
 31
0.0
  0
ARC
  5
ED56
330
ECC2
100
AcDbEntity
  8
1
100
AcDbCircle
 10
84.60000685727573
 20
0.6000026038840929
 30
0.0
 40
0.6
100
AcDbArc
 50
270.0
 51
0.0
  0
LINE
  5
ED57
330
ECC2
100
AcDbEntity
  8
1
100
AcDbLine
 10
83.2000068572761
 20
1.300002603884081
 30
0.0
 11
85.60000685727571
 21
1.300002603884081
 31
0.0
  0
LINE
  5
ED58
330
ECC2
100
AcDbEntity
  8
1
100
AcDbLine
 10
75.70000685727585
 20
1.300002603884081
 30
0.0
 11
78.10000685727596
 21
1.300002603884081
 31
0.0
  0
ARC
  5
ED59
330
ECC2
100
AcDbEntity
  8
1
100
AcDbCircle
 10
78.70000685727632
 20
3.000002603884013
 30
0.0
 40
0.6
100
AcDbArc
 50
90.0
 51
180.0
  0
LINE
  5
ED5A
330
ECC2
100
AcDbEntity
  8
1
100
AcDbLine
 10
78.10000685727596
 20
0.6000026038841498
 30
0.0
 11
78.10000685727596
 21
3.00000260388407
 31
0.0
  0
LINE
  5
ED5B
330
ECC2
100
AcDbEntity
  8
1
100
AcDbLine
 10
82.60000685727574
 20
3.600002603883978
 30
0.0
 11
78.70000685727632
 21
3.600002603884036
 31
0.0
  0
ARC
  5
ED5C
330
ECC2
100
AcDbEntity
  8
1
100
AcDbCircle
 10
82.60000685727574
 20
3.000002603884013
 30
0.0
 40
0.6
100
AcDbArc
 50
359.9999999999935
 51
90.0
  0
LINE
  5
ED5D
330
ECC2
100
AcDbEntity
  8
1
100
AcDbLine
 10
83.2000068572761
 20
0.6000026038841498
 30
0.0
 11
83.2000068572761
 21
3.000002603883956
 31
0.0
  0
LINE
  5
ED5E
330
ECC2
100
AcDbEntity
  8
1
100
AcDbLine
 10
67.20000685727632
 20
0.000002603884127
 30
0.0
 11
68.00000685727605
 21
0.000002603884127
 31
0.0
  0
LINE
  5
ED5F
330
ECC2
100
AcDbEntity
  8
1
100
AcDbLine
 10
57.70000685727631
 20
0.0000026038840701
 30
0.0
 11
65.60000685727596
 21
0.0000026038843544
 31
0.0
  0
ARC
  5
ED60
330
ECC2
100
AcDbEntity
  8
1
100
AcDbCircle
 10
58.50000685727605
 20
0.6000026038840929
 30
0.0
 40
0.6
100
AcDbArc
 50
270.0
 51
0.0
  0
LINE
  5
ED61
330
ECC2
100
AcDbEntity
  8
1
100
AcDbLine
 10
59.10000685727595
 20
1.300002603884081
 30
0.0
 11
59.10000685727595
 21
0.000002603884127
 31
0.0
  0
LINE
  5
ED62
330
ECC2
100
AcDbEntity
  8
1
100
AcDbLine
 10
57.10000685727596
 20
0.6000026038840362
 30
0.0
 11
57.10000685727596
 21
1.300002603884081
 31
0.0
  0
ARC
  5
ED63
330
ECC2
100
AcDbEntity
  8
1
100
AcDbCircle
 10
57.70000685727631
 20
0.6000026038840362
 30
0.0
 40
0.6
100
AcDbArc
 50
180.0
 51
270.0
  0
LINE
  5
ED64
330
ECC2
100
AcDbEntity
  8
1
100
AcDbLine
 10
66.20000685727585
 20
0.6000026038840362
 30
0.0
 11
66.20000685727585
 21
1.300002603884081
 31
0.0
  0
ARC
  5
ED65
330
ECC2
100
AcDbEntity
  8
1
100
AcDbCircle
 10
65.60000685727596
 20
0.6000026038840362
 30
0.0
 40
0.6
100
AcDbArc
 50
270.0
 51
0.0
  0
ARC
  5
ED66
330
ECC2
100
AcDbEntity
  8
1
100
AcDbCircle
 10
64.80000685727578
 20
0.6000026038840929
 30
0.0
 40
0.6
100
AcDbArc
 50
180.0
 51
270.0
  0
LINE
  5
ED67
330
ECC2
100
AcDbEntity
  8
1
100
AcDbLine
 10
64.20000685727585
 20
1.300002603884081
 30
0.0
 11
64.20000685727585
 21
0.0000026038842975
 31
0.0
  0
LINE
  5
ED68
330
ECC2
100
AcDbEntity
  8
1
100
AcDbLine
 10
56.70000685727586
 20
1.300002603884081
 30
0.0
 11
66.60000685727595
 21
1.300002603884081
 31
0.0
  0
LINE
  5
ED69
330
ECC2
100
AcDbEntity
  8
1
100
AcDbLine
 10
44.60000685727595
 20
3.600002603883921
 30
0.0
 11
40.70000685727632
 21
3.600002603883978
 31
0.0
  0
LINE
  5
ED6A
330
ECC2
100
AcDbEntity
  8
1
100
AcDbLine
 10
45.20000685727587
 20
0.9000026038842179
 30
0.0
 11
40.10000685727596
 21
0.9000026038842179
 31
0.0
  0
LINE
  5
ED6B
330
ECC2
100
AcDbEntity
  8
1
100
AcDbLine
 10
40.10000685727596
 20
0.6000026038841498
 30
0.0
 11
40.10000685727596
 21
3.000002603884013
 31
0.0
  0
ARC
  5
ED6C
330
ECC2
100
AcDbEntity
  8
1
100
AcDbCircle
 10
40.70000685727632
 20
3.000002603884013
 30
0.0
 40
0.6
100
AcDbArc
 50
90.0
 51
180.0
  0
LINE
  5
ED6D
330
ECC2
100
AcDbEntity
  8
1
100
AcDbLine
 10
38.10000685727596
 20
0.6000026038840929
 30
0.0
 11
38.10000685727596
 21
1.300002603884081
 31
0.0
  0
ARC
  5
ED6E
330
ECC2
100
AcDbEntity
  8
1
100
AcDbCircle
 10
38.70000685727632
 20
0.6000026038840929
 30
0.0
 40
0.6
100
AcDbArc
 50
180.0
 51
270.0
  0
LINE
  5
ED6F
330
ECC2
100
AcDbEntity
  8
1
100
AcDbLine
 10
38.70000685727632
 20
0.000002603884127
 30
0.0
 11
39.50000685727605
 21
0.000002603884127
 31
0.0
  0
ARC
  5
ED70
330
ECC2
100
AcDbEntity
  8
1
100
AcDbCircle
 10
39.50000685727605
 20
0.6000026038841498
 30
0.0
 40
0.6
100
AcDbArc
 50
270.0
 51
0.0
  0
LINE
  5
ED71
330
ECC2
100
AcDbEntity
  8
1
100
AcDbLine
 10
45.20000685727587
 20
0.6000026038841498
 30
0.0
 11
45.20000685727631
 21
3.000002603883896
 31
0.0
  0
ARC
  5
ED72
330
ECC2
100
AcDbEntity
  8
1
100
AcDbCircle
 10
44.60000685727595
 20
3.000002603883896
 30
0.0
 40
0.6
100
AcDbArc
 50
359.9999999999935
 51
90.0
  0
ARC
  5
ED73
330
ECC2
100
AcDbEntity
  8
1
100
AcDbCircle
 10
45.80000685727577
 20
0.6000026038841498
 30
0.0
 40
0.6
100
AcDbArc
 50
180.0
 51
270.0
  0
LINE
  5
ED74
330
ECC2
100
AcDbEntity
  8
1
100
AcDbLine
 10
37.70000685727587
 20
1.300002603884081
 30
0.0
 11
40.10000685727596
 21
1.300002603884081
 31
0.0
  0
LINE
  5
ED75
330
ECC2
100
AcDbEntity
  8
1
100
AcDbLine
 10
45.20000685727587
 20
1.300002603884081
 30
0.0
 11
47.60000685727596
 21
1.300002603884081
 31
0.0
  0
LINE
  5
ED76
330
ECC2
100
AcDbEntity
  8
1
100
AcDbLine
 10
45.80000685727577
 20
0.000002603884127
 30
0.0
 11
46.60000685727593
 21
0.000002603884127
 31
0.0
  0
ARC
  5
ED77
330
ECC2
100
AcDbEntity
  8
1
100
AcDbCircle
 10
46.60000685727593
 20
0.6000026038840929
 30
0.0
 40
0.6
100
AcDbArc
 50
270.0
 51
0.0
  0
LINE
  5
ED78
330
ECC2
100
AcDbEntity
  8
1
100
AcDbLine
 10
47.20000685727586
 20
0.6000026038840929
 30
0.0
 11
47.20000685727586
 21
1.300002603884081
 31
0.0
  0
LINE
  5
ED79
330
ECC2
100
AcDbEntity
  8
1
100
AcDbLine
 10
29.20000685727632
 20
0.000002603884127
 30
0.0
 11
30.00000685727605
 21
0.000002603884127
 31
0.0
  0
LINE
  5
ED7A
330
ECC2
100
AcDbEntity
  8
1
100
AcDbLine
 10
19.70000685727632
 20
0.000002603884127
 30
0.0
 11
27.60000685727597
 21
0.0000026038843544
 31
0.0
  0
ARC
  5
ED7B
330
ECC2
100
AcDbEntity
  8
1
100
AcDbCircle
 10
19.70000685727632
 20
0.6000026038840929
 30
0.0
 40
0.6
100
AcDbArc
 50
180.0
 51
270.0
  0
LINE
  5
ED7C
330
ECC2
100
AcDbEntity
  8
1
100
AcDbLine
 10
19.10000685727595
 20
0.6000026038840929
 30
0.0
 11
19.10000685727595
 21
1.300002603884081
 31
0.0
  0
LINE
  5
ED7D
330
ECC2
100
AcDbEntity
  8
1
100
AcDbLine
 10
21.10000685727596
 20
1.300002603884081
 30
0.0
 11
21.10000685727596
 21
0.000002603884127
 31
0.0
  0
ARC
  5
ED7E
330
ECC2
100
AcDbEntity
  8
1
100
AcDbCircle
 10
20.50000685727605
 20
0.6000026038841498
 30
0.0
 40
0.6
100
AcDbArc
 50
270.0
 51
0.0
  0
LINE
  5
ED7F
330
ECC2
100
AcDbEntity
  8
1
100
AcDbLine
 10
26.20000685727588
 20
1.300002603884137
 30
0.0
 11
26.20000685727588
 21
0.0000026038843544
 31
0.0
  0
ARC
  5
ED80
330
ECC2
100
AcDbEntity
  8
1
100
AcDbCircle
 10
26.80000685727577
 20
0.6000026038841498
 30
0.0
 40
0.6
100
AcDbArc
 50
180.0
 51
270.0
  0
ARC
  5
ED81
330
ECC2
100
AcDbEntity
  8
1
100
AcDbCircle
 10
27.60000685727597
 20
0.6000026038840929
 30
0.0
 40
0.6
100
AcDbArc
 50
270.0
 51
0.0
  0
LINE
  5
ED82
330
ECC2
100
AcDbEntity
  8
1
100
AcDbLine
 10
28.20000685727587
 20
0.6000026038840929
 30
0.0
 11
28.20000685727587
 21
1.300002603884081
 31
0.0
  0
LINE
  5
ED83
330
ECC2
100
AcDbEntity
  8
1
100
AcDbLine
 10
18.70000685727586
 20
1.300002603884081
 30
0.0
 11
28.60000685727597
 21
1.300002603884081
 31
0.0
  0
LINE
  5
ED84
330
ECC2
100
AcDbEntity
  8
1
100
AcDbLine
 10
9.200006857275868
 20
0.6000026038841498
 30
0.0
 11
9.200006857275868
 21
1.300002603884137
 31
0.0
  0
LINE
  5
ED85
330
ECC2
100
AcDbEntity
  8
1
100
AcDbLine
 10
0.6000068572759574
 20
0.0000026038841838
 30
0.0
 11
8.600006857275957
 21
0.0000026038841838
 31
0.0
  0
LINE
  5
ED86
330
ECC2
100
AcDbEntity
  8
1
100
AcDbLine
 10
10.20000685727632
 20
0.0000026038841838
 30
0.0
 11
18.10000685727596
 21
0.000002603884127
 31
0.0
  0
ARC
  5
ED87
330
ECC2
100
AcDbEntity
  8
1
100
AcDbCircle
 10
8.600006857275957
 20
0.6000026038841498
 30
0.0
 40
0.6
100
AcDbArc
 50
270.0
 51
0.0
  0
ARC
  5
ED88
330
ECC2
100
AcDbEntity
  8
1
100
AcDbCircle
 10
7.480006857276066
 20
0.6000026038841498
 30
0.0
 40
0.6
100
AcDbArc
 50
180.0
 51
270.0
  0
LINE
  5
ED89
330
ECC2
100
AcDbEntity
  8
1
100
AcDbLine
 10
5.675006857275775
 20
0.0000026038841838
 30
0.0
 11
5.675006857275775
 21
1.300002603884137
 31
0.0
  0
LINE
  5
ED8A
330
ECC2
100
AcDbEntity
  8
1
100
AcDbLine
 10
2.775006857275228
 20
0.0000026038841838
 30
0.0
 11
2.775006857275228
 21
1.300002603884137
 31
0.0
  0
ARC
  5
ED8B
330
ECC2
100
AcDbEntity
  8
1
100
AcDbCircle
 10
0.6000068572759574
 20
1.90000260388416
 30
0.0
 40
0.6
100
AcDbArc
 50
180.0
 51
270.0
  0
LINE
  5
ED8C
330
ECC2
100
AcDbEntity
  8
1
100
AcDbLine
 10
4.875006857276048
 20
0.0000026038841838
 30
0.0
 11
4.875006857276048
 21
1.300002603884137
 31
0.0
  0
LINE
  5
ED8D
330
ECC2
100
AcDbEntity
  8
1
  6
Continuous
100
AcDbLine
 10
106.6000068572757
 20
3.850002603884036
 30
0.0
 11
104.6000068572757
 21
3.850002603884036
 31
0.0
  0
LINE
  5
ED8E
330
ECC2
100
AcDbEntity
  8
1
100
AcDbLine
 10
106.6000068572757
 20
4.850002603884036
 30
0.0
 11
111.7000068572761
 21
4.850002603884036
 31
0.0
  0
LINE
  5
ED8F
330
ECC2
100
AcDbEntity
  8
1
  6
Continuous
100
AcDbLine
 10
75.70000685727585
 20
3.850002603884036
 30
0.0
 11
73.70000685727585
 21
3.850002603883978
 31
0.0
  0
LINE
  5
ED90
330
ECC2
100
AcDbEntity
  8
1
  6
Continuous
100
AcDbLine
 10
68.60000685727595
 20
3.850002603884036
 30
0.0
 11
66.60000685727595
 21
3.850002603884036
 31
0.0
  0
LINE
  5
ED91
330
ECC2
100
AcDbEntity
  8
1
100
AcDbLine
 10
68.60000685727595
 20
4.850002603884036
 30
0.0
 11
73.70000685727585
 21
4.850002603884036
 31
0.0
  0
LINE
  5
ED92
330
ECC2
100
AcDbEntity
  8
1
100
AcDbLine
 10
30.60000685727596
 20
0.6000026038841498
 30
0.0
 11
30.60000685727596
 21
4.850002603884036
 31
0.0
  0
LINE
  5
ED93
330
ECC2
100
AcDbEntity
  8
1
  6
Continuous
100
AcDbLine
 10
30.60000685727596
 20
3.850002603884036
 30
0.0
 11
28.60000685727597
 21
3.850002603884036
 31
0.0
  0
LINE
  5
ED94
330
ECC2
100
AcDbEntity
  8
1
  6
Continuous
100
AcDbLine
 10
37.70000685727587
 20
3.850002603884036
 30
0.0
 11
35.70000685727587
 21
3.850002603883978
 31
0.0
  0
LINE
  5
ED95
330
ECC2
100
AcDbEntity
  8
1
100
AcDbLine
 10
35.70000685727587
 20
0.6000026038840362
 30
0.0
 11
35.70000685727587
 21
4.850002603884036
 31
0.0
  0
LINE
  5
ED96
330
ECC2
100
AcDbEntity
  8
1
100
AcDbLine
 10
30.60000685727596
 20
4.850002603884036
 30
0.0
 11
35.70000685727587
 21
4.850002603884036
 31
0.0
  0
LINE
  5
ED97
330
ECC2
100
AcDbEntity
  8
1
100
AcDbLine
 10
123.6000068572757
 20
6.800002603883967
 30
0.0
 11
113.7000068572761
 21
6.800002603883967
 31
0.0
  0
LINE
  5
ED98
330
ECC2
100
AcDbEntity
  8
1
100
AcDbLine
 10
121.2000068572761
 20
7.30000260388408
 30
0.0
 11
116.1000068572757
 21
7.30000260388408
 31
0.0
  0
LINE
  5
ED99
330
ECC2
100
AcDbEntity
  8
1
100
AcDbLine
 10
116.1000068572757
 20
6.800002603883967
 30
0.0
 11
116.1000068572757
 21
7.30000260388408
 31
0.0
  0
LINE
  5
ED9A
330
ECC2
100
AcDbEntity
  8
1
100
AcDbLine
 10
121.2000068572761
 20
6.800002603883967
 30
0.0
 11
121.2000068572761
 21
7.30000260388408
 31
0.0
  0
LINE
  5
ED9B
330
ECC2
100
AcDbEntity
  8
1
100
AcDbLine
 10
123.6000068572757
 20
8.200002603884058
 30
0.0
 11
113.7000068572761
 21
8.200002603884058
 31
0.0
  0
ARC
  5
ED9C
330
ECC2
100
AcDbEntity
  8
1
100
AcDbCircle
 10
113.1000068572757
 20
8.200002603884058
 30
0.0
 40
0.6
100
AcDbArc
 50
0.0
 51
90.0
  0
ARC
  5
ED9D
330
ECC2
100
AcDbEntity
  8
1
100
AcDbCircle
 10
124.2000068572761
 20
8.200002603884058
 30
0.0
 40
0.6
100
AcDbArc
 50
90.0
 51
180.0
  0
LINE
  5
ED9E
330
ECC2
100
AcDbEntity
  8
1
100
AcDbLine
 10
85.60000685727571
 20
6.800002603883967
 30
0.0
 11
75.70000685727585
 21
6.800002603883967
 31
0.0
  0
LINE
  5
ED9F
330
ECC2
100
AcDbEntity
  8
1
100
AcDbLine
 10
85.60000685727571
 20
8.200002603884
 30
0.0
 11
75.70000685727585
 21
8.200002603884
 31
0.0
  0
ARC
  5
EDA0
330
ECC2
100
AcDbEntity
  8
1
100
AcDbCircle
 10
75.10000685727596
 20
8.200002603884058
 30
0.0
 40
0.6
100
AcDbArc
 50
0.0
 51
90.0
  0
LINE
  5
EDA1
330
ECC2
100
AcDbEntity
  8
1
100
AcDbLine
 10
83.2000068572761
 20
6.800002603883967
 30
0.0
 11
83.2000068572761
 21
7.300002603884022
 31
0.0
  0
LINE
  5
EDA2
330
ECC2
100
AcDbEntity
  8
1
100
AcDbLine
 10
78.10000685727596
 20
6.800002603883967
 30
0.0
 11
78.10000685727596
 21
7.300002603884022
 31
0.0
  0
LINE
  5
EDA3
330
ECC2
100
AcDbEntity
  8
1
100
AcDbLine
 10
83.2000068572761
 20
7.300002603884022
 30
0.0
 11
78.10000685727596
 21
7.300002603884022
 31
0.0
  0
ARC
  5
EDA4
330
ECC2
100
AcDbEntity
  8
1
100
AcDbCircle
 10
86.20000685727609
 20
8.200002603884
 30
0.0
 40
0.6
100
AcDbArc
 50
90.0
 51
180.0
  0
LINE
  5
EDA5
330
ECC2
100
AcDbEntity
  8
1
100
AcDbLine
 10
47.60000685727596
 20
6.80000260388391
 30
0.0
 11
37.70000685727587
 21
6.80000260388391
 31
0.0
  0
LINE
  5
EDA6
330
ECC2
100
AcDbEntity
  8
1
100
AcDbLine
 10
47.60000685727596
 20
8.200002603883945
 30
0.0
 11
37.70000685727587
 21
8.200002603883945
 31
0.0
  0
ARC
  5
EDA7
330
ECC2
100
AcDbEntity
  8
1
100
AcDbCircle
 10
37.10000685727596
 20
8.200002603884
 30
0.0
 40
0.6
100
AcDbArc
 50
0.0
 51
90.0
  0
LINE
  5
EDA8
330
ECC2
100
AcDbEntity
  8
1
100
AcDbLine
 10
45.20000685727631
 20
6.80000260388391
 30
0.0
 11
45.20000685727631
 21
7.300002603883967
 31
0.0
  0
LINE
  5
EDA9
330
ECC2
100
AcDbEntity
  8
1
100
AcDbLine
 10
40.10000685727596
 20
6.80000260388391
 30
0.0
 11
40.10000685727596
 21
7.300002603883967
 31
0.0
  0
LINE
  5
EDAA
330
ECC2
100
AcDbEntity
  8
1
100
AcDbLine
 10
45.20000685727631
 20
7.300002603883967
 30
0.0
 11
40.10000685727596
 21
7.300002603883967
 31
0.0
  0
ARC
  5
EDAB
330
ECC2
100
AcDbEntity
  8
1
100
AcDbCircle
 10
48.20000685727631
 20
8.200002603883945
 30
0.0
 40
0.6
100
AcDbArc
 50
90.0
 51
180.0
  0
ARC
  5
EDAC
330
ECC2
100
AcDbEntity
  8
1
100
AcDbCircle
 10
0.4000068572761394
 20
8.200002603884
 30
0.0
 40
0.4
100
AcDbArc
 50
97.01851186592065
 51
180.0
  0
LINE
  5
EDAD
330
ECC2
100
AcDbEntity
  8
1
100
AcDbLine
 10
2.000006857276046
 20
8.80000260388391
 30
0.0
 11
0.3511308485706195
 21
8.597005293765331
 31
0.0
  0
ARC
  5
EDAE
330
ECC2
100
AcDbEntity
  8
1
100
AcDbCircle
 10
151.4000068572759
 20
8.200002603884058
 30
0.0
 40
0.4
100
AcDbArc
 50
0.0
 51
90.0
  0
LINE
  5
EDAF
330
ECC2
100
AcDbEntity
  8
1
100
AcDbLine
 10
149.8000068572755
 20
8.800002603884022
 30
0.0
 11
151.4000068572759
 21
8.600002603884036
 31
0.0
  0
ENDBLK
  5
EDB3
330
ECC2
100
AcDbEntity
  8
0
 62
     7
100
AcDbBlockEnd
  0
BLOCK
  5
EDF6
330
EDF5
100
AcDbEntity
  8
0
 62
     7
100
AcDbBlockBegin
  2
*D6
 70
     1
 10
0.0
 20
0.0
 30
0.0
  3
*D6
  1

  0
LINE
  5
EE1B
330
EDF5
100
AcDbEntity
  8
2
 62
     0
370
    -2
100
AcDbLine
 10
1926.178250088179
 20
-533.7310085725456
 30
0.0
 11
1919.597371317853
 21
-533.7310085725456
 31
0.0
  0
LINE
  5
EE1C
330
EDF5
100
AcDbEntity
  8
2
 62
     0
370
    -2
100
AcDbLine
 10
1926.178250088179
 20
-563.7310085725456
 30
0.0
 11
1919.597371317853
 21
-563.7310085725456
 31
0.0
  0
LINE
  5
EE1D
330
EDF5
100
AcDbEntity
  8
2
 62
     0
370
    -2
100
AcDbLine
 10
1919.777371317853
 20
-536.7310085725456
 30
0.0
 11
1919.777371317853
 21
-560.7310085725456
 31
0.0
  0
SOLID
  5
EE1E
330
EDF5
100
AcDbEntity
  8
2
 62
     0
100
AcDbTrace
 10
1919.277371317853
 20
-536.7310085725456
 30
0.0
 11
1920.277371317853
 21
-536.7310085725456
 31
0.0
 12
1919.777371317853
 22
-533.7310085725456
 32
0.0
 13
1919.777371317853
 23
-533.7310085725456
 33
0.0
  0
SOLID
  5
EE1F
330
EDF5
100
AcDbEntity
  8
2
 62
     0
100
AcDbTrace
 10
1919.277371317853
 20
-560.7310085725456
 30
0.0
 11
1920.277371317853
 21
-560.7310085725456
 31
0.0
 12
1919.777371317853
 22
-563.7310085725456
 32
0.0
 13
1919.777371317853
 23
-563.7310085725456
 33
0.0
  0
MTEXT
  5
EE20
330
EDF5
100
AcDbEntity
  8
2
 62
     0
100
AcDbMText
 10
1917.277371317853
 20
-548.7310085725454
 30
0.0
 40
3.0
 41
0.0
 71
     5
 72
     1
  1
\A1;30
  7
BIGFONT
 11
0.0000000000000001
 21
1.0
 31
0.0
 73
     1
 44
1.0
1001
ACAD
1000
MTEXTBEGIN
1070
    73
1070
     1
1070
    44
1040
1.0
1070
    74
1070
     0
1000
MTEXTEND
  0
POINT
  5
EE21
330
EDF5
100
AcDbEntity
  8
DEFPOINTS
 62
     0
100
AcDbPoint
 10
1926.178250088179
 20
-533.7310085725456
 30
0.0
  0
POINT
  5
EE22
330
EDF5
100
AcDbEntity
  8
DEFPOINTS
 62
     0
100
AcDbPoint
 10
1926.178250088179
 20
-563.7310085725456
 30
0.0
  0
POINT
  5
EE23
330
EDF5
100
AcDbEntity
  8
DEFPOINTS
 62
     0
100
AcDbPoint
 10
1919.777371317853
 20
-563.7310085725456
 30
0.0
  0
ENDBLK
  5
EDF7
330
EDF5
100
AcDbEntity
  8
0
 62
     7
100
AcDbBlockEnd
  0
BLOCK
  5
EE02
330
EE01
100
AcDbEntity
  8
0
 62
     7
100
AcDbBlockBegin
  2
*D7
 70
     1
 10
0.0
 20
0.0
 30
0.0
  3
*D7
  1

  0
LINE
  5
EE24
330
EE01
100
AcDbEntity
  8
2
 62
     0
370
    -2
100
AcDbLine
 10
1935.577371317853
 20
-532.836581381545
 30
0.0
 11
1935.577371317853
 21
-515.6010085725458
 31
0.0
  0
LINE
  5
EE25
330
EE01
100
AcDbEntity
  8
2
 62
     0
370
    -2
100
AcDbLine
 10
1926.777371317854
 20
-531.7391501438418
 30
0.0
 11
1926.777371317854
 21
-515.6010085725458
 31
0.0
  0
LINE
  5
EE26
330
EE01
100
AcDbEntity
  8
2
 62
     0
370
    -2
100
AcDbLine
 10
1932.577371317853
 20
-515.7810085725458
 30
0.0
 11
1929.777371317854
 21
-515.7810085725458
 31
0.0
  0
SOLID
  5
EE27
330
EE01
100
AcDbEntity
  8
2
 62
     0
100
AcDbTrace
 10
1932.577371317853
 20
-515.2810085725458
 30
0.0
 11
1932.577371317853
 21
-516.2810085725458
 31
0.0
 12
1935.577371317853
 22
-515.7810085725458
 32
0.0
 13
1935.577371317853
 23
-515.7810085725458
 33
0.0
  0
SOLID
  5
EE28
330
EE01
100
AcDbEntity
  8
2
 62
     0
100
AcDbTrace
 10
1929.777371317854
 20
-515.2810085725458
 30
0.0
 11
1929.777371317854
 21
-516.2810085725458
 31
0.0
 12
1926.777371317854
 22
-515.7810085725458
 32
0.0
 13
1926.777371317854
 23
-515.7810085725458
 33
0.0
  0
MTEXT
  5
EE29
330
EE01
100
AcDbEntity
  8
2
 62
     0
100
AcDbMText
 10
1931.177371317853
 20
-513.2810085725458
 30
0.0
 40
3.0
 41
0.0
 71
     5
 72
     1
  1
\A1;8.8
  7
BIGFONT
 73
     1
 44
1.0
1001
ACAD
1000
MTEXTBEGIN
1070
    73
1070
     1
1070
    44
1040
1.0
1070
    74
1070
     0
1000
MTEXTEND
  0
POINT
  5
EE2A
330
EE01
100
AcDbEntity
  8
DEFPOINTS
 62
     0
100
AcDbPoint
 10
1935.577371317853
 20
-532.836581381545
 30
0.0
  0
POINT
  5
EE2B
330
EE01
100
AcDbEntity
  8
DEFPOINTS
 62
     0
100
AcDbPoint
 10
1926.777371317854
 20
-531.7391501438418
 30
0.0
  0
POINT
  5
EE2C
330
EE01
100
AcDbEntity
  8
DEFPOINTS
 62
     0
100
AcDbPoint
 10
1926.777371317854
 20
-515.7810085725458
 30
0.0
  0
ENDBLK
  5
EE03
330
EE01
100
AcDbEntity
  8
0
 62
     7
100
AcDbBlockEnd
  0
BLOCK
  5
EE0E
330
EE0D
100
AcDbEntity
  8
0
 62
     7
100
AcDbBlockBegin
  2
*D8
 70
     1
 10
0.0
 20
0.0
 30
0.0
  3
*D8
  1

  0
LINE
  5
EE2D
330
EE0D
100
AcDbEntity
  8
2
 62
     0
370
    -2
100
AcDbLine
 10
1931.627371317853
 20
-527.7810085725458
 30
0.0
 11
1931.627371317853
 21
-522.6010085725459
 31
0.0
  0
LINE
  5
EE2E
330
EE0D
100
AcDbEntity
  8
2
 62
     0
370
    -2
100
AcDbLine
 10
1926.777371317854
 20
-531.7391501438418
 30
0.0
 11
1926.777371317854
 21
-522.6010085725459
 31
0.0
  0
LINE
  5
EE2F
330
EE0D
100
AcDbEntity
  8
2
 62
     0
370
    -2
100
AcDbLine
 10
1934.627371317853
 20
-522.7810085725458
 30
0.0
 11
1937.627371317853
 21
-522.7810085725458
 31
0.0
  0
LINE
  5
EE30
330
EE0D
100
AcDbEntity
  8
2
 62
     0
370
    -2
100
AcDbLine
 10
1923.777371317854
 20
-522.7810085725458
 30
0.0
 11
1909.777371317854
 21
-522.7810085725458
 31
0.0
  0
LINE
  5
EE31
330
EE0D
100
AcDbEntity
  8
2
 62
     0
370
    -2
100
AcDbLine
 10
1931.627371317853
 20
-522.7810085725458
 30
0.0
 11
1926.777371317854
 21
-522.7810085725458
 31
0.0
  0
SOLID
  5
EE32
330
EE0D
100
AcDbEntity
  8
2
 62
     0
100
AcDbTrace
 10
1934.627371317853
 20
-522.2810085725458
 30
0.0
 11
1934.627371317853
 21
-523.2810085725458
 31
0.0
 12
1931.627371317853
 22
-522.7810085725458
 32
0.0
 13
1931.627371317853
 23
-522.7810085725458
 33
0.0
  0
SOLID
  5
EE33
330
EE0D
100
AcDbEntity
  8
2
 62
     0
100
AcDbTrace
 10
1923.777371317854
 20
-522.2810085725458
 30
0.0
 11
1923.777371317854
 21
-523.2810085725458
 31
0.0
 12
1926.777371317854
 22
-522.7810085725458
 32
0.0
 13
1926.777371317854
 23
-522.7810085725458
 33
0.0
  0
MTEXT
  5
EE34
330
EE0D
100
AcDbEntity
  8
2
 62
     0
100
AcDbMText
 10
1915.277371317854
 20
-520.2810085725458
 30
0.0
 40
3.0
 41
0.0
 71
     5
 72
     1
  1
\A1;4.85
  7
BIGFONT
 73
     1
 44
1.0
1001
ACAD
1000
MTEXTBEGIN
1070
    73
1070
     1
1070
    44
1040
1.0
1070
    74
1070
     0
1000
MTEXTEND
  0
POINT
  5
EE35
330
EE0D
100
AcDbEntity
  8
DEFPOINTS
 62
     0
100
AcDbPoint
 10
1931.627371317853
 20
-527.7810085725458
 30
0.0
  0
POINT
  5
EE36
330
EE0D
100
AcDbEntity
  8
DEFPOINTS
 62
     0
100
AcDbPoint
 10
1926.777371317854
 20
-531.7391501438418
 30
0.0
  0
POINT
  5
EE37
330
EE0D
100
AcDbEntity
  8
DEFPOINTS
 62
     0
100
AcDbPoint
 10
1926.777371317854
 20
-522.7810085725458
 30
0.0
  0
ENDBLK
  5
EE0F
330
EE0D
100
AcDbEntity
  8
0
 62
     7
100
AcDbBlockEnd
  0
BLOCK
  5
EE3A
330
EE39
100
AcDbEntity
  8
0
 62
     7
100
AcDbBlockBegin
  2
*D9
 70
     1
 10
0.0
 20
0.0
 30
0.0
  3
*D9
  1

  0
LINE
  5
EE4E
330
EE39
100
AcDbEntity
  8
2
 62
     0
370
    -2
100
AcDbLine
 10
1965.577371317853
 20
-530.3810085725461
 30
0.0
 11
1965.577371317853
 21
-515.6010085725458
 31
0.0
  0
LINE
  5
EE4F
330
EE39
100
AcDbEntity
  8
2
 62
     0
370
    -2
100
AcDbLine
 10
2193.177371317853
 20
-538.4884758498087
 30
0.0
 11
2193.177371317853
 21
-515.6010085725458
 31
0.0
  0
LINE
  5
EE50
330
EE39
100
AcDbEntity
  8
2
 62
     0
370
    -2
100
AcDbLine
 10
1968.577371317852
 20
-515.7810085725458
 30
0.0
 11
2190.177371317853
 21
-515.7810085725458
 31
0.0
  0
SOLID
  5
EE51
330
EE39
100
AcDbEntity
  8
2
 62
     0
100
AcDbTrace
 10
1968.577371317852
 20
-515.2810085725458
 30
0.0
 11
1968.577371317852
 21
-516.2810085725458
 31
0.0
 12
1965.577371317853
 22
-515.7810085725458
 32
0.0
 13
1965.577371317853
 23
-515.7810085725458
 33
0.0
  0
SOLID
  5
EE52
330
EE39
100
AcDbEntity
  8
2
 62
     0
100
AcDbTrace
 10
2190.177371317853
 20
-515.2810085725458
 30
0.0
 11
2190.177371317853
 21
-516.2810085725458
 31
0.0
 12
2193.177371317853
 22
-515.7810085725458
 32
0.0
 13
2193.177371317853
 23
-515.7810085725458
 33
0.0
  0
MTEXT
  5
EE53
330
EE39
100
AcDbEntity
  8
2
 62
     0
100
AcDbMText
 10
2079.377371317852
 20
-513.2810085725458
 30
0.0
 40
3.0
 41
0.0
 71
     5
 72
     1
  1
\A1;227.6
  7
BIGFONT
 73
     1
 44
1.0
1001
ACAD
1000
MTEXTBEGIN
1070
    73
1070
     1
1070
    44
1040
1.0
1070
    74
1070
     0
1000
MTEXTEND
  0
POINT
  5
EE54
330
EE39
100
AcDbEntity
  8
DEFPOINTS
 62
     0
100
AcDbPoint
 10
1965.577371317853
 20
-530.3810085725461
 30
0.0
  0
POINT
  5
EE55
330
EE39
100
AcDbEntity
  8
DEFPOINTS
 62
     0
100
AcDbPoint
 10
2193.177371317853
 20
-538.4884758498087
 30
0.0
  0
POINT
  5
EE56
330
EE39
100
AcDbEntity
  8
DEFPOINTS
 62
     0
100
AcDbPoint
 10
2193.177371317853
 20
-515.7810085725458
 30
0.0
  0
ENDBLK
  5
EE3B
330
EE39
100
AcDbEntity
  8
0
 62
     7
100
AcDbBlockEnd
  0
BLOCK
  5
FA86
330
FA85
100
AcDbEntity
  8
0
 62
     7
100
AcDbBlockBegin
  2
*D10
 70
     1
 10
0.0
 20
0.0
 30
0.0
  3
*D10
  1

  0
LINE
  5
FA87
330
FA85
100
AcDbEntity
  8
2
 62
     0
370
    -2
100
AcDbLine
 10
1926.178250088179
 20
-1299.326219423396
 30
0.0
 11
1919.597371317853
 21
-1299.326219423396
 31
0.0
  0
LINE
  5
FA88
330
FA85
100
AcDbEntity
  8
2
 62
     0
370
    -2
100
AcDbLine
 10
1926.178250088179
 20
-1329.326219423396
 30
0.0
 11
1919.597371317853
 21
-1329.326219423396
 31
0.0
  0
LINE
  5
FA89
330
FA85
100
AcDbEntity
  8
2
 62
     0
370
    -2
100
AcDbLine
 10
1919.777371317853
 20
-1302.326219423396
 30
0.0
 11
1919.777371317853
 21
-1326.326219423396
 31
0.0
  0
SOLID
  5
FA8A
330
FA85
100
AcDbEntity
  8
2
 62
     0
100
AcDbTrace
 10
1919.277371317853
 20
-1302.326219423396
 30
0.0
 11
1920.277371317853
 21
-1302.326219423396
 31
0.0
 12
1919.777371317853
 22
-1299.326219423396
 32
0.0
 13
1919.777371317853
 23
-1299.326219423396
 33
0.0
  0
SOLID
  5
FA8B
330
FA85
100
AcDbEntity
  8
2
 62
     0
100
AcDbTrace
 10
1919.277371317853
 20
-1326.326219423396
 30
0.0
 11
1920.277371317853
 21
-1326.326219423396
 31
0.0
 12
1919.777371317853
 22
-1329.326219423396
 32
0.0
 13
1919.777371317853
 23
-1329.326219423396
 33
0.0
  0
MTEXT
  5
FA8C
330
FA85
100
AcDbEntity
  8
2
 62
     0
100
AcDbMText
 10
1917.277371317853
 20
-1314.326219423396
 30
0.0
 40
3.0
 41
0.0
 71
     5
 72
     1
  1
\A1;30
  7
BIGFONT
 11
0.0000000000000001
 21
1.0
 31
0.0
 73
     1
 44
1.0
1001
ACAD
1000
MTEXTBEGIN
1070
    73
1070
     1
1070
    44
1040
1.0
1070
    74
1070
     0
1000
MTEXTEND
  0
POINT
  5
FA8D
330
FA85
100
AcDbEntity
  8
DEFPOINTS
 62
     0
100
AcDbPoint
 10
1926.178250088179
 20
-1299.326219423396
 30
0.0
  0
POINT
  5
FA8E
330
FA85
100
AcDbEntity
  8
DEFPOINTS
 62
     0
100
AcDbPoint
 10
1926.178250088179
 20
-1329.326219423396
 30
0.0
  0
POINT
  5
FA8F
330
FA85
100
AcDbEntity
  8
DEFPOINTS
 62
     0
100
AcDbPoint
 10
1919.777371317853
 20
-1329.326219423396
 30
0.0
  0
ENDBLK
  5
FA90
330
FA85
100
AcDbEntity
  8
0
 62
     7
100
AcDbBlockEnd
  0
BLOCK
  5
FA92
330
FA91
100
AcDbEntity
  8
0
 62
     7
100
AcDbBlockBegin
  2
*D11
 70
     1
 10
0.0
 20
0.0
 30
0.0
  3
*D11
  1

  0
LINE
  5
FA93
330
FA91
100
AcDbEntity
  8
2
 62
     0
370
    -2
100
AcDbLine
 10
1935.577371317853
 20
-1298.431792232395
 30
0.0
 11
1935.577371317853
 21
-1281.196219423396
 31
0.0
  0
LINE
  5
FA94
330
FA91
100
AcDbEntity
  8
2
 62
     0
370
    -2
100
AcDbLine
 10
1926.777371317854
 20
-1297.334360994692
 30
0.0
 11
1926.777371317854
 21
-1281.196219423396
 31
0.0
  0
LINE
  5
FA95
330
FA91
100
AcDbEntity
  8
2
 62
     0
370
    -2
100
AcDbLine
 10
1932.577371317853
 20
-1281.376219423396
 30
0.0
 11
1929.777371317854
 21
-1281.376219423396
 31
0.0
  0
SOLID
  5
FA96
330
FA91
100
AcDbEntity
  8
2
 62
     0
100
AcDbTrace
 10
1932.577371317853
 20
-1280.876219423396
 30
0.0
 11
1932.577371317853
 21
-1281.876219423396
 31
0.0
 12
1935.577371317853
 22
-1281.376219423396
 32
0.0
 13
1935.577371317853
 23
-1281.376219423396
 33
0.0
  0
SOLID
  5
FA97
330
FA91
100
AcDbEntity
  8
2
 62
     0
100
AcDbTrace
 10
1929.777371317854
 20
-1280.876219423396
 30
0.0
 11
1929.777371317854
 21
-1281.876219423396
 31
0.0
 12
1926.777371317854
 22
-1281.376219423396
 32
0.0
 13
1926.777371317854
 23
-1281.376219423396
 33
0.0
  0
MTEXT
  5
FA98
330
FA91
100
AcDbEntity
  8
2
 62
     0
100
AcDbMText
 10
1931.177371317853
 20
-1278.876219423396
 30
0.0
 40
3.0
 41
0.0
 71
     5
 72
     1
  1
\A1;8.8
  7
BIGFONT
 73
     1
 44
1.0
1001
ACAD
1000
MTEXTBEGIN
1070
    73
1070
     1
1070
    44
1040
1.0
1070
    74
1070
     0
1000
MTEXTEND
  0
POINT
  5
FA99
330
FA91
100
AcDbEntity
  8
DEFPOINTS
 62
     0
100
AcDbPoint
 10
1935.577371317853
 20
-1298.431792232395
 30
0.0
  0
POINT
  5
FA9A
330
FA91
100
AcDbEntity
  8
DEFPOINTS
 62
     0
100
AcDbPoint
 10
1926.777371317854
 20
-1297.334360994692
 30
0.0
  0
POINT
  5
FA9B
330
FA91
100
AcDbEntity
  8
DEFPOINTS
 62
     0
100
AcDbPoint
 10
1926.777371317854
 20
-1281.376219423396
 30
0.0
  0
ENDBLK
  5
FA9C
330
FA91
100
AcDbEntity
  8
0
 62
     7
100
AcDbBlockEnd
  0
BLOCK
  5
FA9E
330
FA9D
100
AcDbEntity
  8
0
 62
     7
100
AcDbBlockBegin
  2
*D12
 70
     1
 10
0.0
 20
0.0
 30
0.0
  3
*D12
  1

  0
LINE
  5
FA9F
330
FA9D
100
AcDbEntity
  8
2
 62
     0
370
    -2
100
AcDbLine
 10
1931.627371317853
 20
-1293.376219423396
 30
0.0
 11
1931.627371317853
 21
-1288.196219423396
 31
0.0
  0
LINE
  5
FAA0
330
FA9D
100
AcDbEntity
  8
2
 62
     0
370
    -2
100
AcDbLine
 10
1926.777371317854
 20
-1297.334360994692
 30
0.0
 11
1926.777371317854
 21
-1288.196219423396
 31
0.0
  0
LINE
  5
FAA1
330
FA9D
100
AcDbEntity
  8
2
 62
     0
370
    -2
100
AcDbLine
 10
1934.627371317853
 20
-1288.376219423396
 30
0.0
 11
1937.627371317853
 21
-1288.376219423396
 31
0.0
  0
LINE
  5
FAA2
330
FA9D
100
AcDbEntity
  8
2
 62
     0
370
    -2
100
AcDbLine
 10
1923.777371317854
 20
-1288.376219423396
 30
0.0
 11
1909.777371317854
 21
-1288.376219423396
 31
0.0
  0
LINE
  5
FAA3
330
FA9D
100
AcDbEntity
  8
2
 62
     0
370
    -2
100
AcDbLine
 10
1931.627371317853
 20
-1288.376219423396
 30
0.0
 11
1926.777371317854
 21
-1288.376219423396
 31
0.0
  0
SOLID
  5
FAA4
330
FA9D
100
AcDbEntity
  8
2
 62
     0
100
AcDbTrace
 10
1934.627371317853
 20
-1287.876219423396
 30
0.0
 11
1934.627371317853
 21
-1288.876219423396
 31
0.0
 12
1931.627371317853
 22
-1288.376219423396
 32
0.0
 13
1931.627371317853
 23
-1288.376219423396
 33
0.0
  0
SOLID
  5
FAA5
330
FA9D
100
AcDbEntity
  8
2
 62
     0
100
AcDbTrace
 10
1923.777371317854
 20
-1287.876219423396
 30
0.0
 11
1923.777371317854
 21
-1288.876219423396
 31
0.0
 12
1926.777371317854
 22
-1288.376219423396
 32
0.0
 13
1926.777371317854
 23
-1288.376219423396
 33
0.0
  0
MTEXT
  5
FAA6
330
FA9D
100
AcDbEntity
  8
2
 62
     0
100
AcDbMText
 10
1915.277371317854
 20
-1285.876219423396
 30
0.0
 40
3.0
 41
0.0
 71
     5
 72
     1
  1
\A1;4.85
  7
BIGFONT
 73
     1
 44
1.0
1001
ACAD
1000
MTEXTBEGIN
1070
    73
1070
     1
1070
    44
1040
1.0
1070
    74
1070
     0
1000
MTEXTEND
  0
POINT
  5
FAA7
330
FA9D
100
AcDbEntity
  8
DEFPOINTS
 62
     0
100
AcDbPoint
 10
1931.627371317853
 20
-1293.376219423396
 30
0.0
  0
POINT
  5
FAA8
330
FA9D
100
AcDbEntity
  8
DEFPOINTS
 62
     0
100
AcDbPoint
 10
1926.777371317854
 20
-1297.334360994692
 30
0.0
  0
POINT
  5
FAA9
330
FA9D
100
AcDbEntity
  8
DEFPOINTS
 62
     0
100
AcDbPoint
 10
1926.777371317854
 20
-1288.376219423396
 30
0.0
  0
ENDBLK
  5
FAAA
330
FA9D
100
AcDbEntity
  8
0
 62
     7
100
AcDbBlockEnd
  0
BLOCK
  5
FB5B
330
FB5A
100
AcDbEntity
  8
0
 62
     7
100
AcDbBlockBegin
  2
*D14
 70
     1
 10
0.0
 20
0.0
 30
0.0
  3
*D14
  1

  0
LINE
  5
FB9D
330
FB5A
100
AcDbEntity
  8
2
 62
     0
370
    -2
100
AcDbLine
 10
1926.178250088178
 20
-533.7310085725456
 30
0.0
 11
1919.597371317852
 21
-533.7310085725456
 31
0.0
  0
LINE
  5
FB9E
330
FB5A
100
AcDbEntity
  8
2
 62
     0
370
    -2
100
AcDbLine
 10
1926.178250088178
 20
-563.7310085725456
 30
0.0
 11
1919.597371317852
 21
-563.7310085725456
 31
0.0
  0
LINE
  5
FB9F
330
FB5A
100
AcDbEntity
  8
2
 62
     0
370
    -2
100
AcDbLine
 10
1919.777371317852
 20
-536.7310085725456
 30
0.0
 11
1919.777371317852
 21
-560.7310085725456
 31
0.0
  0
SOLID
  5
FBA0
330
FB5A
100
AcDbEntity
  8
2
 62
     0
100
AcDbTrace
 10
1919.277371317852
 20
-536.7310085725456
 30
0.0
 11
1920.277371317853
 21
-536.7310085725456
 31
0.0
 12
1919.777371317852
 22
-533.7310085725456
 32
0.0
 13
1919.777371317852
 23
-533.7310085725456
 33
0.0
  0
SOLID
  5
FBA1
330
FB5A
100
AcDbEntity
  8
2
 62
     0
100
AcDbTrace
 10
1919.277371317852
 20
-560.7310085725456
 30
0.0
 11
1920.277371317853
 21
-560.7310085725456
 31
0.0
 12
1919.777371317852
 22
-563.7310085725456
 32
0.0
 13
1919.777371317852
 23
-563.7310085725456
 33
0.0
  0
MTEXT
  5
FBA2
330
FB5A
100
AcDbEntity
  8
2
 62
     0
100
AcDbMText
 10
1917.277371317853
 20
-548.7310085725453
 30
0.0
 40
3.0
 41
0.0
 71
     5
 72
     1
  1
\A1;30
  7
BIGFONT
 11
0.0000000000000001
 21
1.0
 31
0.0
 73
     1
 44
1.0
1001
ACAD
1000
MTEXTBEGIN
1070
    73
1070
     1
1070
    44
1040
1.0
1070
    74
1070
     0
1000
MTEXTEND
  0
POINT
  5
FBA3
330
FB5A
100
AcDbEntity
  8
DEFPOINTS
 62
     0
100
AcDbPoint
 10
1926.178250088178
 20
-533.7310085725456
 30
0.0
  0
POINT
  5
FBA4
330
FB5A
100
AcDbEntity
  8
DEFPOINTS
 62
     0
100
AcDbPoint
 10
1926.178250088178
 20
-563.7310085725456
 30
0.0
  0
POINT
  5
FBA5
330
FB5A
100
AcDbEntity
  8
DEFPOINTS
 62
     0
100
AcDbPoint
 10
1919.777371317852
 20
-563.7310085725456
 30
0.0
  0
ENDBLK
  5
FB5C
330
FB5A
100
AcDbEntity
  8
0
 62
     7
100
AcDbBlockEnd
  0
BLOCK
  5
FB67
330
FB66
100
AcDbEntity
  8
0
 62
     7
100
AcDbBlockBegin
  2
*D15
 70
     1
 10
0.0
 20
0.0
 30
0.0
  3
*D15
  1

  0
LINE
  5
FBA6
330
FB66
100
AcDbEntity
  8
2
 62
     0
370
    -2
100
AcDbLine
 10
1935.577371317852
 20
-532.8365813815447
 30
0.0
 11
1935.577371317852
 21
-515.6010085725456
 31
0.0
  0
LINE
  5
FBA7
330
FB66
100
AcDbEntity
  8
2
 62
     0
370
    -2
100
AcDbLine
 10
1926.777371317853
 20
-531.7391501438415
 30
0.0
 11
1926.777371317853
 21
-515.6010085725456
 31
0.0
  0
LINE
  5
FBA8
330
FB66
100
AcDbEntity
  8
2
 62
     0
370
    -2
100
AcDbLine
 10
1932.577371317853
 20
-515.7810085725456
 30
0.0
 11
1929.777371317853
 21
-515.7810085725456
 31
0.0
  0
SOLID
  5
FBA9
330
FB66
100
AcDbEntity
  8
2
 62
     0
100
AcDbTrace
 10
1932.577371317853
 20
-515.2810085725455
 30
0.0
 11
1932.577371317853
 21
-516.2810085725456
 31
0.0
 12
1935.577371317852
 22
-515.7810085725456
 32
0.0
 13
1935.577371317852
 23
-515.7810085725456
 33
0.0
  0
SOLID
  5
FBAA
330
FB66
100
AcDbEntity
  8
2
 62
     0
100
AcDbTrace
 10
1929.777371317853
 20
-515.2810085725455
 30
0.0
 11
1929.777371317853
 21
-516.2810085725456
 31
0.0
 12
1926.777371317853
 22
-515.7810085725456
 32
0.0
 13
1926.777371317853
 23
-515.7810085725456
 33
0.0
  0
MTEXT
  5
FBAB
330
FB66
100
AcDbEntity
  8
2
 62
     0
100
AcDbMText
 10
1931.177371317853
 20
-513.2810085725456
 30
0.0
 40
3.0
 41
0.0
 71
     5
 72
     1
  1
\A1;8.8
  7
BIGFONT
 73
     1
 44
1.0
1001
ACAD
1000
MTEXTBEGIN
1070
    73
1070
     1
1070
    44
1040
1.0
1070
    74
1070
     0
1000
MTEXTEND
  0
POINT
  5
FBAC
330
FB66
100
AcDbEntity
  8
DEFPOINTS
 62
     0
100
AcDbPoint
 10
1935.577371317852
 20
-532.8365813815447
 30
0.0
  0
POINT
  5
FBAD
330
FB66
100
AcDbEntity
  8
DEFPOINTS
 62
     0
100
AcDbPoint
 10
1926.777371317853
 20
-531.7391501438415
 30
0.0
  0
POINT
  5
FBAE
330
FB66
100
AcDbEntity
  8
DEFPOINTS
 62
     0
100
AcDbPoint
 10
1926.777371317853
 20
-515.7810085725456
 30
0.0
  0
ENDBLK
  5
FB68
330
FB66
100
AcDbEntity
  8
0
 62
     7
100
AcDbBlockEnd
  0
BLOCK
  5
FB73
330
FB72
100
AcDbEntity
  8
0
 62
     7
100
AcDbBlockBegin
  2
*D16
 70
     1
 10
0.0
 20
0.0
 30
0.0
  3
*D16
  1

  0
LINE
  5
FBAF
330
FB72
100
AcDbEntity
  8
2
 62
     0
370
    -2
100
AcDbLine
 10
1931.627371317852
 20
-527.7810085725455
 30
0.0
 11
1931.627371317852
 21
-522.6010085725456
 31
0.0
  0
LINE
  5
FBB0
330
FB72
100
AcDbEntity
  8
2
 62
     0
370
    -2
100
AcDbLine
 10
1926.777371317853
 20
-531.7391501438415
 30
0.0
 11
1926.777371317853
 21
-522.6010085725456
 31
0.0
  0
LINE
  5
FBB1
330
FB72
100
AcDbEntity
  8
2
 62
     0
370
    -2
100
AcDbLine
 10
1934.627371317852
 20
-522.7810085725455
 30
0.0
 11
1937.627371317853
 21
-522.7810085725455
 31
0.0
  0
LINE
  5
FBB2
330
FB72
100
AcDbEntity
  8
2
 62
     0
370
    -2
100
AcDbLine
 10
1923.777371317854
 20
-522.7810085725455
 30
0.0
 11
1909.777371317854
 21
-522.7810085725455
 31
0.0
  0
LINE
  5
FBB3
330
FB72
100
AcDbEntity
  8
2
 62
     0
370
    -2
100
AcDbLine
 10
1931.627371317852
 20
-522.7810085725455
 30
0.0
 11
1926.777371317853
 21
-522.7810085725455
 31
0.0
  0
SOLID
  5
FBB4
330
FB72
100
AcDbEntity
  8
2
 62
     0
100
AcDbTrace
 10
1934.627371317852
 20
-522.2810085725456
 30
0.0
 11
1934.627371317852
 21
-523.2810085725455
 31
0.0
 12
1931.627371317852
 22
-522.7810085725455
 32
0.0
 13
1931.627371317852
 23
-522.7810085725455
 33
0.0
  0
SOLID
  5
FBB5
330
FB72
100
AcDbEntity
  8
2
 62
     0
100
AcDbTrace
 10
1923.777371317854
 20
-522.2810085725456
 30
0.0
 11
1923.777371317854
 21
-523.2810085725455
 31
0.0
 12
1926.777371317853
 22
-522.7810085725455
 32
0.0
 13
1926.777371317853
 23
-522.7810085725455
 33
0.0
  0
MTEXT
  5
FBB6
330
FB72
100
AcDbEntity
  8
2
 62
     0
100
AcDbMText
 10
1915.277371317854
 20
-520.2810085725456
 30
0.0
 40
3.0
 41
0.0
 71
     5
 72
     1
  1
\A1;4.85
  7
BIGFONT
 73
     1
 44
1.0
1001
ACAD
1000
MTEXTBEGIN
1070
    73
1070
     1
1070
    44
1040
1.0
1070
    74
1070
     0
1000
MTEXTEND
  0
POINT
  5
FBB7
330
FB72
100
AcDbEntity
  8
DEFPOINTS
 62
     0
100
AcDbPoint
 10
1931.627371317852
 20
-527.7810085725455
 30
0.0
  0
POINT
  5
FBB8
330
FB72
100
AcDbEntity
  8
DEFPOINTS
 62
     0
100
AcDbPoint
 10
1926.777371317853
 20
-531.7391501438415
 30
0.0
  0
POINT
  5
FBB9
330
FB72
100
AcDbEntity
  8
DEFPOINTS
 62
     0
100
AcDbPoint
 10
1926.777371317853
 20
-522.7810085725455
 30
0.0
  0
ENDBLK
  5
FB74
330
FB72
100
AcDbEntity
  8
0
 62
     7
100
AcDbBlockEnd
  0
ENDSEC
  0
SECTION
  2
ENTITIES
  0
TEXT
  5
FDF
330
18
100
AcDbEntity
  8
2
100
AcDbText
 10
61.80397887142635
 20
115.9153310921788
 30
0.0
 40
3.5
  1

  7
BIGFONT
100
AcDbText
  0
TEXT
  5
FE2
330
18
100
AcDbEntity
  8
2
100
AcDbText
 10
203.8957585163355
 20
143.31043555714
 30
0.0
 40
3.5
  1

  7
BIGFONT
100
AcDbText
  0
TEXT
  5
218A
330
18
100
AcDbEntity
  8
2
  6
Continuous
 48
3.0
100
AcDbText
 10
345.2872429042694
 20
59.92647845586116
 30
0.0
 40
3.5
  1

 50
359.780436223055
 41
0.6085702442471829
  7
BIGFONT
 72
     5
 11
360.1971044114504
 21
59.8693419344833
 31
0.0
100
AcDbText
  0
INSERT
  5
EB40
330
18
100
AcDbEntity
  8
1
 62
     7
100
AcDbBlockReference
  2
A$C67D15A66
 10
1965.57737695991
 20
-567.5980373179267
 30
0.0
  0
INSERT
  5
EB85
330
18
100
AcDbEntity
  8
1
 62
     7
100
AcDbBlockReference
  2
A$C11A66D03
 10
2117.377373411464
 20
-567.6310971851286
 30
0.0
  0
INSERT
  5
EBCA
330
18
100
AcDbEntity
  8
1
 62
     7
100
AcDbBlockReference
  2
A$C45131AE7
 10
1965.57737695991
 20
-597.6810076999342
 30
0.0
  0
INSERT
  5
EC49
330
18
100
AcDbEntity
  8
1
 62
     7
100
AcDbBlockReference
  2
A$C43691DAA
 10
2041.377373967053
 20
-597.6810076999342
 30
0.0
  0
INSERT
  5
ECC1
330
18
100
AcDbEntity
  8
1
 62
     7
100
AcDbBlockReference
  2
A$C6E5F17A0
 10
1965.577364460577
 20
-626.4810062391647
 30
0.0
  0
INSERT
  5
EDB4
330
18
100
AcDbEntity
  8
1
 62
     7
100
AcDbBlockReference
  2
A$C6AF37FBF
 10
2041.377364460577
 20
-626.4810111764298
 30
0.0
  0
TEXT
  5
EDF4
330
18
100
AcDbEntity
  8
2
100
AcDbText
 10
1908.729995939777
 20
-499.4998873681195
 30
0.0
 40
4.0
  1

  7
BIGFONT
100
AcDbText
  0
DIMENSION
  5
EE38
330
18
100
AcDbEntity
  8
2
100
AcDbDimension
  2
*D9
 10
2193.177371317853
 20
-515.7810085725458
 30
0.0
 11
2079.377371317852
 21
-513.2810085725458
 31
0.0
 70
    32
 71
     5
 42
227.5999999999999
  3
\U+00D71
100
AcDbAlignedDimension
 13
1965.577371317853
 23
-530.3810085725461
 33
0.0
 14
2193.177371317853
 24
-538.4884758498087
 34
0.0
 50
180.0
100
AcDbRotatedDimension
1001
ACAD
1000
DSTYLE
1002
{
1070
    40
1040
1.0
1002
}
  0
TEXT
  5
F9F0
330
18
100
AcDbEntity
  8
2
100
AcDbText
 10
2216.274276671116
 20
-637.3726139881433
 30
0.0
 40
3.5
  1
DATE2020.5.1
  7
BIGFONT
100
AcDbText
  0
TEXT
  5
FA43
330
18
100
AcDbEntity
  8
2
 62
     1
100
AcDbText
 10
1965.623361959329
 20
-661.8904547136454
 30
0.0
 40
3.0
  1
注記）1.図形デ-タから得られる寸法は、表記寸法以外は参考程度に扱ってください。干渉チェックなどに使用される場合は、弊社までご相談下さい。
  7
BIGFONT
100
AcDbText
1001
ACAD
1000
MTEXTBEGIN
1070
    73
1070
     1
1070
    44
1040
1.0
1070
    74
1070
     0
1000
MTEXTEND
  0
TEXT
  5
FA44
330
18
100
AcDbEntity
  8
2
 62
     1
100
AcDbText
 10
1965.623361959329
 20
-666.8904547136456
 30
0.0
 40
3.0
  1
      2.本デ-タは、実寸法を基にしておりカタログ記載の呼称幅と異なる場合があります。
  7
BIGFONT
100
AcDbText
1001
ACAD
1000
MTEXTBEGIN
1070
    73
1070
     1
1070
    44
1040
1.0
1070
    74
1070
     0
1000
MTEXTEND
  0
LINE
  5
FB07
330
18
100
AcDbEntity
  8
1
 62
     7
100
AcDbLine
 10
1930.127371317852
 20
-547.9819176634547
 30
0.0
 11
1930.127371317852
 21
-535.4439579277242
 31
0.0
  0
LINE
  5
FB08
330
18
100
AcDbEntity
  8
1
 62
     7
100
AcDbLine
 10
1933.127371317852
 20
-547.5518616312286
 30
0.0
 11
1933.127371317852
 21
-535.4439579277267
 31
0.0
  0
LINE
  5
FB09
330
18
100
AcDbEntity
  8
1
 62
     7
100
AcDbLine
 10
1926.777371317853
 20
-531.7391501438415
 30
0.0
 11
1926.777371317853
 21
-545.5263245007537
 31
0.0
  0
LINE
  5
FB0A
330
18
100
AcDbEntity
  8
3
  6
CENTER2
 62
     6
100
AcDbLine
 10
1931.627371317852
 20
-563.7310085725456
 30
0.0
 11
1931.627371317852
 21
-527.7810085725455
 31
0.0
  0
LINE
  5
FB0B
330
18
100
AcDbEntity
  8
1
 62
     7
100
AcDbLine
 10
1935.577371317852
 20
-532.8365813815447
 30
0.0
 11
1935.577371317852
 21
-564.6254357635467
 31
0.0
  0
ARC
  5
FB0C
330
18
100
AcDbEntity
  8
1
 62
     7
100
AcDbCircle
 10
1931.627371317852
 20
-533.7310085725456
 30
0.0
 40
2.41
100
AcDbArc
 50
308.4920937841095
 51
231.507906215886
  0
ARC
  5
FB0D
330
18
100
AcDbEntity
  8
1
 62
     7
100
AcDbCircle
 10
1930.627371317854
 20
-533.7310085725456
 30
0.0
 40
3.950000000000044
100
AcDbArc
 50
90.0
 51
120.0000000000009
  0
LINE
  5
FB0E
330
18
100
AcDbEntity
  8
3
  6
CENTER2
 62
     6
100
AcDbLine
 10
1937.076492547527
 20
-533.7310085725456
 30
0.0
 11
1926.178250088178
 21
-533.7310085725456
 31
0.0
  0
LINE
  5
FB0F
330
18
100
AcDbEntity
  8
1
 62
     7
100
AcDbLine
 10
1932.521798508853
 20
-529.7810085725456
 30
0.0
 11
1930.627371317854
 21
-529.7810085725456
 31
0.0
  0
ARC
  5
FB10
330
18
100
AcDbEntity
  8
1
 62
     7
100
AcDbCircle
 10
1931.627371317852
 20
-533.7310085725456
 30
0.0
 40
4.049999999999998
100
AcDbArc
 50
12.75874041690673
 51
77.24125958313345
  0
LINE
  5
FB11
330
18
100
AcDbEntity
  8
1
 62
     7
100
AcDbLine
 10
1928.652371317852
 20
-530.3102082275976
 30
0.0
 11
1927.077371317852
 21
-531.2195349015707
 31
0.0
  0
ARC
  5
FB12
330
18
100
AcDbEntity
  8
1
 62
     7
100
AcDbCircle
 10
1927.377371317854
 20
-531.7391501438415
 30
0.0
 40
0.6
100
AcDbArc
 50
120.0000000000009
 51
180.0
  0
LINE
  5
FB13
330
18
100
AcDbEntity
  8
1
 62
     7
100
AcDbLine
 10
1926.777371317853
 20
-551.9356926443387
 30
0.0
 11
1926.777371317853
 21
-565.7228670012496
 31
0.0
  0
LINE
  5
FB14
330
18
100
AcDbEntity
  8
1
 62
     7
100
AcDbLine
 10
1932.464414152788
 20
-547.8119509118235
 30
0.0
 11
1930.127371317852
 21
-547.9819176634547
 31
0.0
  0
LINE
  5
FB15
330
18
100
AcDbEntity
  8
1
 62
     7
100
AcDbLine
 10
1933.127371317852
 20
-542.5010085725456
 30
0.0
 11
1930.127371317852
 21
-542.5010085725456
 31
0.0
  0
ARC
  5
FB16
330
18
100
AcDbEntity
  8
1
 62
     7
100
AcDbCircle
 10
1932.377371317852
 20
-546.6151119314726
 30
0.0
 40
1.199999999999999
100
AcDbArc
 50
274.1596422937315
 51
308.6821874534886
  0
ARC
  5
FB17
330
18
100
AcDbEntity
  8
1
 62
     7
100
AcDbCircle
 10
1927.377371317852
 20
-551.9356926443387
 30
0.0
 40
0.6
100
AcDbArc
 50
135.83951957006
 51
180.0
  0
ARC
  5
FB18
330
18
100
AcDbEntity
  8
1
 62
     7
100
AcDbCircle
 10
1927.377371317852
 20
-545.5263245007537
 30
0.0
 40
0.6
100
AcDbArc
 50
180.0
 51
224.16048042994
  0
ARC
  5
FB19
330
18
100
AcDbEntity
  8
1
 62
     7
100
AcDbCircle
 10
1924.077371317853
 20
-548.7310085725456
 30
0.0
 40
3.999999999999856
100
AcDbArc
 50
315.83951957006
 51
44.16048042994002
  0
LINE
  5
FB1A
330
18
100
AcDbEntity
  8
1
  6
Continuous
 62
     7
100
AcDbLine
 10
1927.377371317854
 20
-558.1610085725457
 30
0.0
 11
1932.194850331896
 21
-558.1610085725457
 31
0.0
  0
LINE
  5
FB1B
330
18
100
AcDbEntity
  8
3
  6
CENTER2
 62
     6
100
AcDbLine
 10
1937.076492547527
 20
-563.7310085725456
 30
0.0
 11
1926.178250088178
 21
-563.7310085725456
 31
0.0
  0
ARC
  5
FB1C
330
18
100
AcDbEntity
  8
1
 62
     7
100
AcDbCircle
 10
1934.977371317853
 20
-559.5735412952826
 30
0.0
 40
0.6
100
AcDbArc
 50
270.0
 51
0.0
  0
LINE
  5
FB1D
330
18
100
AcDbEntity
  8
1
 62
     7
100
AcDbLine
 10
1934.977371317853
 20
-560.1735412952827
 30
0.0
 11
1932.564247217093
 21
-558.2882021203817
 31
0.0
  0
ARC
  5
FB1E
330
18
100
AcDbEntity
  8
1
 62
     7
100
AcDbCircle
 10
1932.194850331896
 20
-558.7610085725456
 30
0.0
 40
0.6
100
AcDbArc
 50
52.00000000001615
 51
90.0
  0
ARC
  5
FB1F
330
18
100
AcDbEntity
  8
1
 62
     7
100
AcDbCircle
 10
1927.377371317854
 20
-557.5610085725456
 30
0.0
 40
0.6
100
AcDbArc
 50
180.0
 51
270.0
  0
LINE
  5
FB20
330
18
100
AcDbEntity
  8
1
 62
     7
100
AcDbLine
 10
1930.127371317852
 20
-577.9819176634547
 30
0.0
 11
1930.127371317852
 21
-565.4439579277237
 31
0.0
  0
LINE
  5
FB21
330
18
100
AcDbEntity
  8
1
 62
     7
100
AcDbLine
 10
1933.127371317852
 20
-577.5518616312275
 30
0.0
 11
1933.127371317853
 21
-565.4439579277272
 31
0.0
  0
LINE
  5
FB22
330
18
100
AcDbEntity
  8
1
 62
     7
100
AcDbLine
 10
1926.777371317853
 20
-561.7391501438415
 30
0.0
 11
1926.777371317853
 21
-575.5263245007525
 31
0.0
  0
LINE
  5
FB23
330
18
100
AcDbEntity
  8
3
  6
CENTER2
 62
     6
100
AcDbLine
 10
1931.627371317852
 20
-599.6810085725456
 30
0.0
 11
1931.627371317852
 21
-563.7310085725456
 31
0.0
  0
LINE
  5
FB24
330
18
100
AcDbEntity
  8
1
 62
     7
100
AcDbLine
 10
1935.577371317852
 20
-562.8365813815447
 30
0.0
 11
1935.577371317852
 21
-594.6254357635456
 31
0.0
  0
ARC
  5
FB25
330
18
100
AcDbEntity
  8
1
 62
     7
100
AcDbCircle
 10
1931.627371317852
 20
-563.7310085725456
 30
0.0
 40
2.41
100
AcDbArc
 50
308.4920937841095
 51
231.507906215886
  0
ARC
  5
FB26
330
18
100
AcDbEntity
  8
1
 62
     7
100
AcDbCircle
 10
1930.627371317854
 20
-563.7310085725456
 30
0.0
 40
3.950000000000044
100
AcDbArc
 50
90.0
 51
120.0000000000009
  0
LINE
  5
FB27
330
18
100
AcDbEntity
  8
3
  6
CENTER2
 62
     6
100
AcDbLine
 10
1937.076492547527
 20
-563.7310085725456
 30
0.0
 11
1926.178250088178
 21
-563.7310085725456
 31
0.0
  0
LINE
  5
FB28
330
18
100
AcDbEntity
  8
1
 62
     7
100
AcDbLine
 10
1932.521798508853
 20
-559.7810085725456
 30
0.0
 11
1930.627371317854
 21
-559.7810085725456
 31
0.0
  0
ARC
  5
FB29
330
18
100
AcDbEntity
  8
1
 62
     7
100
AcDbCircle
 10
1931.627371317852
 20
-563.7310085725456
 30
0.0
 40
4.049999999999998
100
AcDbArc
 50
12.75874041690673
 51
77.24125958313345
  0
LINE
  5
FB2A
330
18
100
AcDbEntity
  8
1
 62
     7
100
AcDbLine
 10
1928.652371317852
 20
-560.3102082275976
 30
0.0
 11
1927.077371317852
 21
-561.2195349015706
 31
0.0
  0
ARC
  5
FB2B
330
18
100
AcDbEntity
  8
1
 62
     7
100
AcDbCircle
 10
1927.377371317854
 20
-561.7391501438415
 30
0.0
 40
0.6
100
AcDbArc
 50
120.0000000000009
 51
180.0
  0
LINE
  5
FB2C
330
18
100
AcDbEntity
  8
1
 62
     7
100
AcDbLine
 10
1926.777371317853
 20
-581.9356926443386
 30
0.0
 11
1926.777371317853
 21
-595.7228670012496
 31
0.0
  0
LINE
  5
FB2D
330
18
100
AcDbEntity
  8
1
 62
     7
100
AcDbLine
 10
1932.464414152788
 20
-577.8119509118226
 30
0.0
 11
1930.127371317852
 21
-577.9819176634547
 31
0.0
  0
LINE
  5
FB2E
330
18
100
AcDbEntity
  8
1
 62
     7
100
AcDbLine
 10
1933.127371317852
 20
-572.5010085725456
 30
0.0
 11
1930.127371317852
 21
-572.5010085725456
 31
0.0
  0
ARC
  5
FB2F
330
18
100
AcDbEntity
  8
1
 62
     7
100
AcDbCircle
 10
1932.377371317852
 20
-576.6151119314725
 30
0.0
 40
1.199999999999999
100
AcDbArc
 50
274.1596422937315
 51
308.6821874534886
  0
ARC
  5
FB30
330
18
100
AcDbEntity
  8
1
 62
     7
100
AcDbCircle
 10
1927.377371317852
 20
-581.9356926443386
 30
0.0
 40
0.6
100
AcDbArc
 50
135.83951957006
 51
180.0
  0
ARC
  5
FB31
330
18
100
AcDbEntity
  8
1
 62
     7
100
AcDbCircle
 10
1927.377371317852
 20
-575.5263245007525
 30
0.0
 40
0.6
100
AcDbArc
 50
180.0
 51
224.16048042994
  0
ARC
  5
FB32
330
18
100
AcDbEntity
  8
1
 62
     7
100
AcDbCircle
 10
1924.077371317853
 20
-578.7310085725456
 30
0.0
 40
3.999999999999856
100
AcDbArc
 50
315.83951957006
 51
44.16048042994002
  0
ARC
  5
FB33
330
18
100
AcDbEntity
  8
1
 62
     7
100
AcDbCircle
 10
1930.627371317854
 20
-593.7310085725456
 30
0.0
 40
3.950000000000044
100
AcDbArc
 50
239.999999999999
 51
270.0
  0
LINE
  5
FB34
330
18
100
AcDbEntity
  8
1
  6
Continuous
 62
     7
100
AcDbLine
 10
1927.377371317854
 20
-588.1610085725457
 30
0.0
 11
1932.194850331896
 21
-588.1610085725457
 31
0.0
  0
CIRCLE
  5
FB35
330
18
100
AcDbEntity
  8
1
 62
     7
100
AcDbCircle
 10
1931.627371317852
 20
-593.7310085725456
 30
0.0
 40
2.41
  0
LINE
  5
FB36
330
18
100
AcDbEntity
  8
3
  6
CENTER2
 62
     6
100
AcDbLine
 10
1937.076492547527
 20
-593.7310085725456
 30
0.0
 11
1926.178250088178
 21
-593.7310085725456
 31
0.0
  0
ARC
  5
FB37
330
18
100
AcDbEntity
  8
1
 62
     7
100
AcDbCircle
 10
1931.627371317852
 20
-593.7310085725456
 30
0.0
 40
4.049999999999998
100
AcDbArc
 50
282.7587404168665
 51
347.2412595831066
  0
LINE
  5
FB38
330
18
100
AcDbEntity
  8
1
 62
     7
100
AcDbLine
 10
1932.521798508853
 20
-597.6810085725457
 30
0.0
 11
1930.627371317854
 21
-597.6810085725457
 31
0.0
  0
ARC
  5
FB39
330
18
100
AcDbEntity
  8
1
 62
     7
100
AcDbCircle
 10
1934.977371317853
 20
-589.5735412952825
 30
0.0
 40
0.6
100
AcDbArc
 50
270.0
 51
0.0
  0
LINE
  5
FB3A
330
18
100
AcDbEntity
  8
1
 62
     7
100
AcDbLine
 10
1934.977371317853
 20
-590.1735412952826
 30
0.0
 11
1932.564247217093
 21
-588.2882021203816
 31
0.0
  0
ARC
  5
FB3B
330
18
100
AcDbEntity
  8
1
 62
     7
100
AcDbCircle
 10
1932.194850331896
 20
-588.7610085725456
 30
0.0
 40
0.6
100
AcDbArc
 50
52.00000000001615
 51
90.0
  0
ARC
  5
FB3C
330
18
100
AcDbEntity
  8
1
 62
     7
100
AcDbCircle
 10
1927.377371317854
 20
-595.7228670012496
 30
0.0
 40
0.6
100
AcDbArc
 50
180.0
 51
239.999999999999
  0
LINE
  5
FB3D
330
18
100
AcDbEntity
  8
1
 62
     7
100
AcDbLine
 10
1928.652371317852
 20
-597.1518089174947
 30
0.0
 11
1927.077371317852
 21
-596.2424822435206
 31
0.0
  0
ARC
  5
FB3E
330
18
100
AcDbEntity
  8
1
 62
     7
100
AcDbCircle
 10
1927.377371317854
 20
-587.5610085725456
 30
0.0
 40
0.6
100
AcDbArc
 50
180.0
 51
270.0
  0
DIMENSION
  5
FB3F
330
18
100
AcDbEntity
  8
2
100
AcDbDimension
  2
*D14
 10
1919.777371317852
 20
-563.7310085725456
 30
0.0
 11
1917.277371317853
 21
-548.7310085725453
 31
0.0
 70
    32
 71
     5
 42
30.0
  3
\U+00D71
100
AcDbAlignedDimension
 13
1926.178250088178
 23
-533.7310085725456
 33
0.0
 14
1926.178250088178
 24
-563.7310085725456
 34
0.0
 50
270.0
100
AcDbRotatedDimension
1001
ACAD
1000
DSTYLE
1002
{
1070
    40
1040
1.0
1002
}
  0
DIMENSION
  5
FB40
330
18
100
AcDbEntity
  8
2
100
AcDbDimension
  2
*D15
 10
1926.777371317853
 20
-515.7810085725456
 30
0.0
 11
1931.177371317853
 21
-513.2810085725456
 31
0.0
 70
    32
 71
     5
 42
8.799999999999045
  3
\U+00D71
100
AcDbAlignedDimension
 13
1935.577371317852
 23
-532.8365813815447
 33
0.0
 14
1926.777371317853
 24
-531.7391501438415
 34
0.0
 50
180.0
100
AcDbRotatedDimension
1001
ACAD
1000
DSTYLE
1002
{
1070
    40
1040
1.0
1002
}
  0
DIMENSION
  5
FB41
330
18
100
AcDbEntity
  8
2
100
AcDbDimension
  2
*D16
 10
1926.777371317853
 20
-522.7810085725455
 30
0.0
 11
1915.277371317854
 21
-520.2810085725456
 31
0.0
 70
    32
 71
     5
 42
4.849999999998999
  3
\U+00D71
100
AcDbAlignedDimension
 13
1931.627371317852
 23
-527.7810085725455
 33
0.0
 14
1926.777371317853
 24
-531.7391501438415
 34
0.0
 50
180.0
100
AcDbRotatedDimension
1001
ACAD
1000
DSTYLE
1002
{
1070
    40
1040
1.0
1002
}
  0
ARC
  5
FB42
330
18
100
AcDbEntity
  8
1
100
AcDbCircle
 10
1931.625774317852
 20
-533.7310885725456
 30
0.0
 40
2.43
100
AcDbArc
 50
308.1179633403321
 51
308.1180299999877
  0
ARC
  5
FB43
330
18
100
AcDbEntity
  8
1
 62
     7
100
AcDbCircle
 10
1930.527371317852
 20
-533.2997104016454
 30
0.0
 40
0.3000000000000007
100
AcDbArc
 50
90.0
 51
180.0
  0
LINE
  5
FB44
330
18
100
AcDbEntity
  8
1
 62
     7
100
AcDbLine
 10
1932.727371317852
 20
-532.9997104016455
 30
0.0
 11
1930.527371317852
 21
-532.9997104016455
 31
0.0
  0
ARC
  5
FB45
330
18
100
AcDbEntity
  8
1
 62
     7
100
AcDbCircle
 10
1932.727371317852
 20
-533.2997104016454
 30
0.0
 40
0.3000000000000007
100
AcDbArc
 50
0.0
 51
90.0
  0
LINE
  5
FB46
330
18
100
AcDbEntity
  8
1
 62
     7
100
AcDbLine
 10
1933.027371317854
 20
-533.2997104016454
 30
0.0
 11
1933.027371317854
 21
-533.7003983503094
 31
0.0
  0
LINE
  5
FB47
330
18
100
AcDbEntity
  8
1
 62
     7
100
AcDbLine
 10
1933.027371317854
 20
-533.7003983503094
 30
0.0
 11
1933.827371317853
 21
-533.7003983503094
 31
0.0
  0
LINE
  5
FB48
330
18
100
AcDbEntity
  8
1
 62
     7
100
AcDbLine
 10
1933.827371317853
 20
-534.3716276383055
 30
0.0
 11
1933.827371317853
 21
-533.7003983503094
 31
0.0
  0
LINE
  5
FB49
330
18
100
AcDbEntity
  8
1
 62
     7
100
AcDbLine
 10
1929.427371317852
 20
-533.7003983503092
 30
0.0
 11
1929.427371317852
 21
-534.3716276383055
 31
0.0
  0
LINE
  5
FB4A
330
18
100
AcDbEntity
  8
1
 62
     7
100
AcDbLine
 10
1929.427371317852
 20
-533.7003983503092
 30
0.0
 11
1930.227371317854
 21
-533.7003983503094
 31
0.0
  0
LINE
  5
FB4B
330
18
100
AcDbEntity
  8
1
 62
     7
100
AcDbLine
 10
1930.227371317854
 20
-533.2997104016454
 30
0.0
 11
1930.227371317854
 21
-533.7003983503094
 31
0.0
  0
ARC
  5
FB4C
330
18
100
AcDbEntity
  8
1
 62
     7
100
AcDbCircle
 10
1931.627371317854
 20
-533.7003983503092
 30
0.0
 40
2.299999999999998
100
AcDbArc
 50
196.9574262941575
 51
229.294293168922
  0
ARC
  5
FB4D
330
18
100
AcDbEntity
  8
1
 62
     7
100
AcDbCircle
 10
1931.627371317854
 20
-533.7003983503092
 30
0.0
 40
2.299999999999998
100
AcDbArc
 50
310.6531403081364
 51
343.0425737058135
  0
ARC
  5
FB4E
330
18
100
AcDbEntity
  8
1
100
AcDbCircle
 10
1931.625774317852
 20
-563.7310885725456
 30
0.0
 40
2.43
100
AcDbArc
 50
308.1179633403321
 51
308.1180299999877
  0
ARC
  5
FB4F
330
18
100
AcDbEntity
  8
1
 62
     7
100
AcDbCircle
 10
1930.527371317852
 20
-563.2997104016454
 30
0.0
 40
0.3000000000000007
100
AcDbArc
 50
90.0
 51
180.0
  0
LINE
  5
FB50
330
18
100
AcDbEntity
  8
1
 62
     7
100
AcDbLine
 10
1932.727371317852
 20
-562.9997104016455
 30
0.0
 11
1930.527371317852
 21
-562.9997104016455
 31
0.0
  0
ARC
  5
FB51
330
18
100
AcDbEntity
  8
1
 62
     7
100
AcDbCircle
 10
1932.727371317852
 20
-563.2997104016454
 30
0.0
 40
0.3000000000000007
100
AcDbArc
 50
0.0
 51
90.0
  0
LINE
  5
FB52
330
18
100
AcDbEntity
  8
1
 62
     7
100
AcDbLine
 10
1933.027371317854
 20
-563.2997104016454
 30
0.0
 11
1933.027371317854
 21
-563.7003983503094
 31
0.0
  0
LINE
  5
FB53
330
18
100
AcDbEntity
  8
1
 62
     7
100
AcDbLine
 10
1933.027371317854
 20
-563.7003983503094
 30
0.0
 11
1933.827371317853
 21
-563.7003983503094
 31
0.0
  0
LINE
  5
FB54
330
18
100
AcDbEntity
  8
1
 62
     7
100
AcDbLine
 10
1933.827371317853
 20
-564.3716276383055
 30
0.0
 11
1933.827371317853
 21
-563.7003983503094
 31
0.0
  0
LINE
  5
FB55
330
18
100
AcDbEntity
  8
1
 62
     7
100
AcDbLine
 10
1929.427371317853
 20
-563.7003983503092
 30
0.0
 11
1929.427371317853
 21
-564.3716276383055
 31
0.0
  0
LINE
  5
FB56
330
18
100
AcDbEntity
  8
1
 62
     7
100
AcDbLine
 10
1929.427371317853
 20
-563.7003983503092
 30
0.0
 11
1930.227371317855
 21
-563.7003983503094
 31
0.0
  0
LINE
  5
FB57
330
18
100
AcDbEntity
  8
1
 62
     7
100
AcDbLine
 10
1930.227371317855
 20
-563.2997104016454
 30
0.0
 11
1930.227371317855
 21
-563.7003983503094
 31
0.0
  0
ARC
  5
FB58
330
18
100
AcDbEntity
  8
1
 62
     7
100
AcDbCircle
 10
1931.627371317854
 20
-563.7003983503092
 30
0.0
 40
2.299999999999998
100
AcDbArc
 50
196.9574262941575
 51
229.294293168922
  0
ARC
  5
FB59
330
18
100
AcDbEntity
  8
1
 62
     7
100
AcDbCircle
 10
1931.627371317854
 20
-563.7003983503092
 30
0.0
 40
2.299999999999998
100
AcDbArc
 50
310.6531403081364
 51
343.0425737058135
  0
ENDSEC
  0
SECTION
  2
OBJECTS
  0
DICTIONARY
  5
C
330
0
100
AcDbDictionary
281
     1
  3
ACAD_CIP_PREVIOUS_PRODUCT_INFO
350
FA84
  3
ACAD_COLOR
350
A12D
  3
ACAD_DETAILVIEWSTYLE
350
FA7F
  3
ACAD_GROUP
350
D
  3
ACAD_IMAGE_DICT
350
A0F4
  3
ACAD_IMAGE_VARS
350
A0EC
  3
ACAD_LAYOUT
350
1C62
  3
ACAD_MATERIAL
350
A103
  3
ACAD_MLEADERSTYLE
350
A130
  3
ACAD_MLINESTYLE
350
E
  3
ACAD_PLOTSETTINGS
350
1C63
  3
ACAD_PLOTSTYLENAME
350
1C60
  3
ACAD_SCALELIST
350
9FA7
  3
ACAD_SECTIONVIEWSTYLE
350
FA7D
  3
ACAD_TABLESTYLE
350
A12E
  3
ACAD_VISUALSTYLE
350
A11C
  3
AcadDim
350
2219
  3
ACDB_RECOMPOSE_DATA
350
FBBF
  3
AcDbVariableDictionary
350
1237
  3
APPDATA
350
A0EB
  3
CONTENTDICTIONARY
350
322
  3
DWGPROPS
350
FBC0
  0
DICTIONARY
  5
A0A3
330
2
100
AcDbDictionary
280
     1
281
     1
  3
ACAD_LAYERFILTERS
360
A0DF
  3
ACAD_LAYERSTATES
360
A0ED
  3
ACLYDICTIONARY
360
A0DE
  0
DICTIONARY
  5
9FD1
330
F
100
AcDbDictionary
280
     1
281
     1
  3
ADSK_XREC_LAYER_RECONCILED
360
9FD2
  0
DICTIONARY
  5
9FD3
330
526
100
AcDbDictionary
280
     1
281
     1
  3
ADSK_XREC_LAYER_RECONCILED
360
9FD4
  0
DICTIONARY
  5
9FD5
330
138F
100
AcDbDictionary
280
     1
281
     1
  3
ADSK_XREC_LAYER_RECONCILED
360
9FD6
  0
DICTIONARY
  5
9FD7
330
1390
100
AcDbDictionary
280
     1
281
     1
  3
ADSK_XREC_LAYER_RECONCILED
360
9FD8
  0
DICTIONARY
  5
9ACC
330
18
100
AcDbDictionary
280
     1
281
     1
  3
ACAD_SORTENTS
360
9ACD
  0
DICTIONARY
  5
EB3C
330
EAC2
100
AcDbDictionary
280
     1
281
     1
  3
ACAD_SORTENTS
360
EB3D
  0
DICTIONARY
  5
EB81
330
EB41
100
AcDbDictionary
280
     1
281
     1
  3
ACAD_SORTENTS
360
EB82
  0
DICTIONARY
  5
EBC6
330
EB86
100
AcDbDictionary
280
     1
281
     1
  3
ACAD_SORTENTS
360
EBC7
  0
DICTIONARY
  5
EC45
330
EBCB
100
AcDbDictionary
280
     1
281
     1
  3
ACAD_SORTENTS
360
EC46
  0
DICTIONARY
  5
ECBD
330
EC4A
100
AcDbDictionary
280
     1
281
     1
  3
ACAD_SORTENTS
360
ECBE
  0
DICTIONARY
  5
EDB0
330
ECC2
100
AcDbDictionary
280
     1
281
     1
  3
ACAD_SORTENTS
360
EDB1
  0
XRECORD
  5
FA84
102
{ACAD_REACTORS
330
C
102
}
330
C
100
AcDbXrecord
280
     1
300
ACDLT
300
2015
300
ACDLT_F_S
  0
DICTIONARY
  5
A12D
102
{ACAD_REACTORS
330
C
102
}
330
C
100
AcDbDictionary
281
     1
  0
DICTIONARY
  5
FA7F
102
{ACAD_REACTORS
330
C
102
}
330
C
100
AcDbDictionary
281
     1
  3
Metric50
350
FA80
  0
DICTIONARY
  5
D
102
{ACAD_REACTORS
330
C
102
}
330
C
100
AcDbDictionary
281
     1
  0
DICTIONARY
  5
A0F4
102
{ACAD_REACTORS
330
C
102
}
330
C
100
AcDbDictionary
281
     1
  3
新しい画像 (7)
350
A0F6
  0
RASTERVARIABLES
  5
A0EC
102
{ACAD_REACTORS
330
C
102
}
330
C
100
AcDbRasterVariables
 90
        0
 70
     1
 71
     1
 72
     0
  0
DICTIONARY
  5
1C62
102
{ACAD_REACTORS
330
C
102
}
330
C
100
AcDbDictionary
281
     1
  3
Model
350
1C64
  3
ﾚｲｱｳﾄ1
350
1C65
  0
DICTIONARY
  5
A103
102
{ACAD_REACTORS
330
C
102
}
330
C
100
AcDbDictionary
281
     1
  3
ByBlock
350
A10C
  3
ByLayer
350
A104
  3
Global
350
A114
  0
DICTIONARY
  5
A130
102
{ACAD_REACTORS
330
C
102
}
330
C
100
AcDbDictionary
281
     1
  3
Standard
350
A131
  0
DICTIONARY
  5
E
102
{ACAD_REACTORS
330
C
102
}
330
C
100
AcDbDictionary
281
     1
  3
STANDARD
350
1B
  0
DICTIONARY
  5
1C63
102
{ACAD_REACTORS
330
C
102
}
330
C
100
AcDbDictionary
281
     1
  0
ACDBDICTIONARYWDFLT
  5
1C60
102
{ACAD_REACTORS
330
C
102
}
330
C
100
AcDbDictionary
281
     1
  3
Normal
350
1C61
100
AcDbDictionaryWithDefault
340
1C61
  0
DICTIONARY
  5
9FA7
102
{ACAD_REACTORS
330
C
102
}
330
C
100
AcDbDictionary
281
     1
  3
A0
350
9FA8
  3
A1
350
9FA9
  3
A2
350
9FAA
  3
A3
350
9FAB
  3
A4
350
9FAC
  3
A5
350
9FAD
  3
A6
350
9FAE
  3
A7
350
9FAF
  3
A8
350
9FB0
  3
A9
350
9FB1
  3
B0
350
9FB2
  3
B1
350
9FB3
  3
B2
350
9FB4
  3
B3
350
9FB5
  3
B4
350
9FB6
  3
B5
350
9FB7
  3
B6
350
9FB8
  3
B7
350
9FB9
  3
B8
350
9FBA
  3
B9
350
9FBB
  3
C0
350
9FBC
  3
C1
350
9FBD
  3
C2
350
9FBE
  3
C3
350
9FBF
  3
C4
350
9FC0
  3
C5
350
9FC1
  3
C6
350
9FC2
  3
C7
350
9FC3
  3
C8
350
9FC4
  3
C9
350
9FC5
  3
D0
350
9FC6
  3
D1
350
9FC7
  3
D2
350
9FC8
  0
DICTIONARY
  5
FA7D
102
{ACAD_REACTORS
330
C
102
}
330
C
100
AcDbDictionary
281
     1
  3
Metric50
350
FA7E
  0
DICTIONARY
  5
A12E
102
{ACAD_REACTORS
330
C
102
}
330
C
100
AcDbDictionary
281
     1
  3
Standard
350
A12F
  0
DICTIONARY
  5
A11C
102
{ACAD_REACTORS
330
C
102
}
330
C
100
AcDbDictionary
281
     1
  3
2dWireframe
350
A122
  3
3D Hidden
350
A124
  3
3dWireframe
350
A123
  3
Basic
350
A121
  3
Brighten
350
A128
  3
ColorChange
350
A12C
  3
Conceptual
350
A125
  3
Dim
350
A127
  3
EdgeColorOff
350
FA7C
  3
Facepattern
350
A12B
  3
Flat
350
A11D
  3
FlatWithEdges
350
A11E
  3
Gouraud
350
A11F
  3
GouraudWithEdges
350
A120
  3
Hidden
350
FA74
  3
JitterOff
350
FA7A
  3
Linepattern
350
A12A
  3
OverhangOff
350
FA7B
  3
Realistic
350
A126
  3
Shaded
350
FA79
  3
Shaded with edges
350
FA78
  3
Shades of Gray
350
FA75
  3
Sketchy
350
FA76
  3
Thicken
350
A129
  3
Wireframe
350
FA73
  3
X-Ray
350
FA77
  0
XRECORD
  5
2219
102
{ACAD_REACTORS
330
C
102
}
330
C
100
AcDbXrecord
280
     1
 90
   990106
  3

 60
     4
 61
     0
 62
     1
 63
     3
 64
     0
 65
     0
 66
     1
 67
     3
 68
     1
 69
     0
 70
     0
 71
     0
 72
     0
 40
0.0
170
     1
  0
XRECORD
  5
FBBF
102
{ACAD_REACTORS
330
C
102
}
330
C
100
AcDbXrecord
280
     1
 90
        1
330
A12F
  0
DICTIONARY
  5
1237
102
{ACAD_REACTORS
330
C
102
}
330
C
100
AcDbDictionary
281
     1
  3
CANNOSCALE
350
A101
  3
CMLEADERSTYLE
350
A2B4
  3
CTABLESTYLE
350
A2B3
  3
CVIEWDETAILSTYLE
350
FBBB
  3
CVIEWSECTIONSTYLE
350
FBBC
  3
DIMASSOC
350
9CC6
  3
INDEXCTL
350
9CC5
  3
SORTENTS
350
1238
  3
XCLIPFRAME
350
FBBD
  0
DICTIONARY
  5
A0EB
102
{ACAD_REACTORS
330
C
102
}
330
C
100
AcDbDictionary
281
     1
  0
DICTIONARY
  5
322
102
{ACAD_REACTORS
330
C
102
}
330
C
100
AcDbDictionary
281
     1
  0
XRECORD
  5
FBC0
102
{ACAD_REACTORS
330
C
102
}
330
C
100
AcDbXrecord
280
     1
  1
DWGPROPS COOKIE
  2

  3

  4

  6

  7

  8
hirotaka.suyama
  9

300
=
301
=
302
=
303
=
304
=
305
=
306
=
307
=
308
=
309
=
 40
0.7179912384259259
 41
2452836.755218414
 42
2457168.618029977
  1

 90
        0
  0
DICTIONARY
  5
A0DF
102
{ACAD_REACTORS
330
A0A3
102
}
330
A0A3
100
AcDbDictionary
281
     1
  0
DICTIONARY
  5
A0ED
102
{ACAD_REACTORS
330
A0A3
102
}
330
A0A3
100
AcDbDictionary
281
     1
  3
ARGON_LAYERP_1
350
A0EE
  0
DICTIONARY
  5
A0DE
102
{ACAD_REACTORS
330
A0A3
102
}
330
A0A3
100
AcDbDictionary
281
     1
1001
ACAD
1000
<All
  0
XRECORD
  5
9FD2
102
{ACAD_REACTORS
330
9FD1
102
}
330
9FD1
100
AcDbXrecord
280
     1
290
     1
  0
XRECORD
  5
9FD4
102
{ACAD_REACTORS
330
9FD3
102
}
330
9FD3
100
AcDbXrecord
280
     1
290
     1
  0
XRECORD
  5
9FD6
102
{ACAD_REACTORS
330
9FD5
102
}
330
9FD5
100
AcDbXrecord
280
     1
290
     1
  0
XRECORD
  5
9FD8
102
{ACAD_REACTORS
330
9FD7
102
}
330
9FD7
100
AcDbXrecord
280
     1
290
     1
  0
SORTENTSTABLE
  5
9ACD
102
{ACAD_REACTORS
330
9ACC
102
}
330
9ACC
100
AcDbSortentsTable
330
18
331
EC49
  5
EC49
331
FE2
  5
FE2
331
EB85
  5
EB85
331
EDF4
  5
EDF4
331
EDB4
  5
EDB4
331
EB40
  5
EB40
331
EBCA
  5
EBCA
331
EE38
  5
EE38
331
218A
  5
218A
331
ECC1
  5
ECC1
331
FDF
  5
FDF
  0
SORTENTSTABLE
  5
EB3D
102
{ACAD_REACTORS
330
EB3C
102
}
330
EB3C
100
AcDbSortentsTable
330
EAC2
  0
SORTENTSTABLE
  5
EB82
102
{ACAD_REACTORS
330
EB81
102
}
330
EB81
100
AcDbSortentsTable
330
EB41
  0
SORTENTSTABLE
  5
EBC7
102
{ACAD_REACTORS
330
EBC6
102
}
330
EBC6
100
AcDbSortentsTable
330
EB86
  0
SORTENTSTABLE
  5
EC46
102
{ACAD_REACTORS
330
EC45
102
}
330
EC45
100
AcDbSortentsTable
330
EBCB
  0
SORTENTSTABLE
  5
ECBE
102
{ACAD_REACTORS
330
ECBD
102
}
330
ECBD
100
AcDbSortentsTable
330
EC4A
  0
SORTENTSTABLE
  5
EDB1
102
{ACAD_REACTORS
330
EDB0
102
}
330
EDB0
100
AcDbSortentsTable
330
ECC2
  0
ACDBDETAILVIEWSTYLE
  5
FA80
102
{ACAD_XDICTIONARY
360
FBFC
102
}
102
{ACAD_REACTORS
330
FA7F
102
}
330
FA7F
100
AcDbModelDocViewStyle
 70
     0
  3
Metric50
290
     0
100
AcDbDetailViewStyle
 70
     0
 71
     0
 90
        3
 71
     1
340
10
 40
5.0
340
0
 40
5.0
300

 40
0.0
280
     1
 71
     2
340
14
 90
       25
 71
     3
340
10
 40
5.0
 90
        0
 40
15.0
 90
        1
300
%<\AcVar ViewDetailId>% (%<\AcVar ViewScale \f "%sn">%)
 71
     4
340
14
 90
       25
340
14
 90
       25
280
     0
  0
IMAGEDEF
  5
A0F6
102
{ACAD_REACTORS
330
A0F4
102
}
330
A0F4
100
AcDbRasterImageDef
 90
        0
  1
D:\My Documents\My Pictures\新しい画像 (7).bmp
 10
736.0
 20
463.0
 11
0.0013586956521739
 21
0.0013586956521739
280
     1
281
     0
  0
LAYOUT
  5
1C64
102
{ACAD_XDICTIONARY
360
FBC1
102
}
102
{ACAD_REACTORS
330
1C62
102
}
330
1C62
100
AcDbPlotSettings
  1

  2
EPSON LP-8900.pc3
  4
A3
  6

 40
5.873749732971191
 41
5.873747825622557
 42
5.873748779296875
 43
5.873748779296875
 44
297.0106506347656
 45
419.9466552734373
 46
-10.64
 47
0.51
 48
190.4169537375563
 49
284.6621781964941
140
597.6008585168202
141
591.2146139738211
142
1.0
143
1.0
 70
 11956
 72
     1
 73
     1
 74
     4
  7
canon00.ctb
 75
    16
147
1.0
148
-190.4169537375563
149
-284.6621781964941
100
AcDbLayout
  1
Model
 70
     1
 71
     0
 10
0.0
 20
0.0
 11
12.0
 21
9.0
 12
0.0
 22
0.0
 32
0.0
 14
0.0
 24
0.0
 34
0.0
 15
0.0
 25
0.0
 35
0.0
146
0.0
 13
0.0
 23
0.0
 33
0.0
 16
1.0
 26
0.0
 36
0.0
 17
0.0
 27
1.0
 37
0.0
 76
     0
330
18
331
8F41
  0
LAYOUT
  5
1C65
102
{ACAD_XDICTIONARY
360
FBC3
102
}
102
{ACAD_REACTORS
330
1C62
102
}
330
1C62
100
AcDbPlotSettings
  1

  2
\\TECH-SERVER\Canon
  4

  6

 40
0.0
 41
0.0
 42
0.0
 43
0.0
 44
0.0
 45
0.0
 46
0.0
 47
0.0
 48
0.0
 49
0.0
140
0.0
141
0.0
142
1.0
143
1.0
 70
   688
 72
     0
 73
     0
 74
     5
  7
030127.ctb
 75
    16
147
1.0
148
0.0
149
0.0
100
AcDbLayout
  1
ﾚｲｱｳﾄ1
 70
     1
 71
     1
 10
0.0
 20
0.0
 11
420.0
 21
297.0
 12
0.0
 22
0.0
 32
0.0
 14
1.000000000000000E+20
 24
1.000000000000000E+20
 34
1.000000000000000E+20
 15
-1.000000000000000E+20
 25
-1.000000000000000E+20
 35
-1.000000000000000E+20
146
0.0
 13
0.0
 23
0.0
 33
0.0
 16
1.0
 26
0.0
 36
0.0
 17
0.0
 27
1.0
 37
0.0
 76
     0
330
15
  0
MATERIAL
  5
A10C
102
{ACAD_XDICTIONARY
360
A10D
102
}
102
{ACAD_REACTORS
330
A103
102
}
330
A103
100
AcDbMaterial
  1
ByBlock
 72
     0
 43
0.0208333333333333
 43
0.0
 43
0.0
 43
0.0
 43
0.0
 43
0.0208333333333333
 43
0.0
 43
0.0
 43
0.0
 43
0.0
 43
1.0
 43
0.0
 43
0.0
 43
0.0
 43
0.0
 43
1.0
 77
     0
 47
0.0208333333333333
 47
0.0
 47
0.0
 47
0.0
 47
0.0
 47
0.0208333333333333
 47
0.0
 47
0.0
 47
0.0
 47
0.0
 47
1.0
 47
0.0
 47
0.0
 47
0.0
 47
0.0
 47
1.0
171
     0
 49
0.0208333333333333
 49
0.0
 49
0.0
 49
0.0
 49
0.0
 49
0.0208333333333333
 49
0.0
 49
0.0
 49
0.0
 49
0.0
 49
1.0
 49
0.0
 49
0.0
 49
0.0
 49
0.0
 49
1.0
175
     0
142
0.0208333333333333
142
0.0
142
0.0
142
0.0
142
0.0
142
0.0208333333333333
142
0.0
142
0.0
142
0.0
142
0.0
142
1.0
142
0.0
142
0.0
142
0.0
142
0.0
142
1.0
179
     0
144
0.0208333333333333
144
0.0
144
0.0
144
0.0
144
0.0
144
0.0208333333333333
144
0.0
144
0.0
144
0.0
144
0.0
144
1.0
144
0.0
144
0.0
144
0.0
144
0.0
144
1.0
147
0.0208333333333333
147
0.0
147
0.0
147
0.0
147
0.0
147
0.0208333333333333
147
0.0
147
0.0
147
0.0
147
0.0
147
1.0
147
0.0
147
0.0
147
0.0
147
0.0
147
1.0
  0
MATERIAL
  5
A104
102
{ACAD_XDICTIONARY
360
A105
102
}
102
{ACAD_REACTORS
330
A103
102
}
330
A103
100
AcDbMaterial
  1
ByLayer
 72
     0
 43
0.0208333333333333
 43
0.0
 43
0.0
 43
0.0
 43
0.0
 43
0.0208333333333333
 43
0.0
 43
0.0
 43
0.0
 43
0.0
 43
1.0
 43
0.0
 43
0.0
 43
0.0
 43
0.0
 43
1.0
 77
     0
 47
0.0208333333333333
 47
0.0
 47
0.0
 47
0.0
 47
0.0
 47
0.0208333333333333
 47
0.0
 47
0.0
 47
0.0
 47
0.0
 47
1.0
 47
0.0
 47
0.0
 47
0.0
 47
0.0
 47
1.0
171
     0
 49
0.0208333333333333
 49
0.0
 49
0.0
 49
0.0
 49
0.0
 49
0.0208333333333333
 49
0.0
 49
0.0
 49
0.0
 49
0.0
 49
1.0
 49
0.0
 49
0.0
 49
0.0
 49
0.0
 49
1.0
175
     0
142
0.0208333333333333
142
0.0
142
0.0
142
0.0
142
0.0
142
0.0208333333333333
142
0.0
142
0.0
142
0.0
142
0.0
142
1.0
142
0.0
142
0.0
142
0.0
142
0.0
142
1.0
179
     0
144
0.0208333333333333
144
0.0
144
0.0
144
0.0
144
0.0
144
0.0208333333333333
144
0.0
144
0.0
144
0.0
144
0.0
144
1.0
144
0.0
144
0.0
144
0.0
144
0.0
144
1.0
147
0.0208333333333333
147
0.0
147
0.0
147
0.0
147
0.0
147
0.0208333333333333
147
0.0
147
0.0
147
0.0
147
0.0
147
1.0
147
0.0
147
0.0
147
0.0
147
0.0
147
1.0
  0
MATERIAL
  5
A114
102
{ACAD_XDICTIONARY
360
A115
102
}
102
{ACAD_REACTORS
330
A103
102
}
330
A103
100
AcDbMaterial
  1
Global
 72
     0
 43
0.0208333333333333
 43
0.0
 43
0.0
 43
0.0
 43
0.0
 43
0.0208333333333333
 43
0.0
 43
0.0
 43
0.0
 43
0.0
 43
1.0
 43
0.0
 43
0.0
 43
0.0
 43
0.0
 43
1.0
 77
     0
 47
0.0208333333333333
 47
0.0
 47
0.0
 47
0.0
 47
0.0
 47
0.0208333333333333
 47
0.0
 47
0.0
 47
0.0
 47
0.0
 47
1.0
 47
0.0
 47
0.0
 47
0.0
 47
0.0
 47
1.0
171
     0
 49
0.0208333333333333
 49
0.0
 49
0.0
 49
0.0
 49
0.0
 49
0.0208333333333333
 49
0.0
 49
0.0
 49
0.0
 49
0.0
 49
1.0
 49
0.0
 49
0.0
 49
0.0
 49
0.0
 49
1.0
175
     0
142
0.0208333333333333
142
0.0
142
0.0
142
0.0
142
0.0
142
0.0208333333333333
142
0.0
142
0.0
142
0.0
142
0.0
142
1.0
142
0.0
142
0.0
142
0.0
142
0.0
142
1.0
179
     0
144
0.0208333333333333
144
0.0
144
0.0
144
0.0
144
0.0
144
0.0208333333333333
144
0.0
144
0.0
144
0.0
144
0.0
144
1.0
144
0.0
144
0.0
144
0.0
144
0.0
144
1.0
147
0.0208333333333333
147
0.0
147
0.0
147
0.0
147
0.0
147
0.0208333333333333
147
0.0
147
0.0
147
0.0
147
0.0
147
1.0
147
0.0
147
0.0
147
0.0
147
0.0
147
1.0
  0
MLEADERSTYLE
  5
A131
102
{ACAD_REACTORS
330
A130
102
}
330
A130
100
AcDbMLeaderStyle
170
     2
171
     1
172
     0
 90
        2
 40
0.0
 41
0.0
173
     1
 91
-1056964608
340
12
 92
       -2
290
     1
 42
2.0
291
     1
 43
0.36
  3
Standard
 44
4.0
300

342
10
174
     1
178
     6
175
     1
176
     0
 93
-1056964608
 45
4.0
292
     0
297
     0
 46
4.0
 94
-1056964608
 47
1.0
 49
1.0
140
1.0
293
     1
141
0.0
294
     1
177
     0
142
1.0
295
     0
296
     0
143
0.125
1001
ACAD_MLEADERVER
1070
     2
  0
MLINESTYLE
  5
1B
102
{ACAD_REACTORS
330
E
102
}
330
E
100
AcDbMlineStyle
  2
STANDARD
 70
     0
  3

 62
     0
 51
90.0
 52
90.0
 71
     2
 49
0.5
 62
   256
  6
BYLAYER
 49
-0.5
 62
   256
  6
BYLAYER
  0
ACDBPLACEHOLDER
  5
1C61
102
{ACAD_REACTORS
330
1C60
102
}
330
1C60
  0
SCALE
  5
9FA8
102
{ACAD_REACTORS
330
9FA7
102
}
330
9FA7
100
AcDbScale
 70
     0
300
1:1
140
1.0
141
1.0
290
     1
  0
SCALE
  5
9FA9
102
{ACAD_REACTORS
330
9FA7
102
}
330
9FA7
100
AcDbScale
 70
     0
300
1:2
140
1.0
141
2.0
290
     0
  0
SCALE
  5
9FAA
102
{ACAD_REACTORS
330
9FA7
102
}
330
9FA7
100
AcDbScale
 70
     0
300
1:4
140
1.0
141
4.0
290
     0
  0
SCALE
  5
9FAB
102
{ACAD_REACTORS
330
9FA7
102
}
330
9FA7
100
AcDbScale
 70
     0
300
1:5
140
1.0
141
5.0
290
     0
  0
SCALE
  5
9FAC
102
{ACAD_REACTORS
330
9FA7
102
}
330
9FA7
100
AcDbScale
 70
     0
300
1:8
140
1.0
141
8.0
290
     0
  0
SCALE
  5
9FAD
102
{ACAD_REACTORS
330
9FA7
102
}
330
9FA7
100
AcDbScale
 70
     0
300
1:10
140
1.0
141
10.0
290
     0
  0
SCALE
  5
9FAE
102
{ACAD_REACTORS
330
9FA7
102
}
330
9FA7
100
AcDbScale
 70
     0
300
1:16
140
1.0
141
16.0
290
     0
  0
SCALE
  5
9FAF
102
{ACAD_REACTORS
330
9FA7
102
}
330
9FA7
100
AcDbScale
 70
     0
300
1:20
140
1.0
141
20.0
290
     0
  0
SCALE
  5
9FB0
102
{ACAD_REACTORS
330
9FA7
102
}
330
9FA7
100
AcDbScale
 70
     0
300
1:30
140
1.0
141
30.0
290
     0
  0
SCALE
  5
9FB1
102
{ACAD_REACTORS
330
9FA7
102
}
330
9FA7
100
AcDbScale
 70
     0
300
1:40
140
1.0
141
40.0
290
     0
  0
SCALE
  5
9FB2
102
{ACAD_REACTORS
330
9FA7
102
}
330
9FA7
100
AcDbScale
 70
     0
300
1:50
140
1.0
141
50.0
290
     0
  0
SCALE
  5
9FB3
102
{ACAD_REACTORS
330
9FA7
102
}
330
9FA7
100
AcDbScale
 70
     0
300
1:100
140
1.0
141
100.0
290
     0
  0
SCALE
  5
9FB4
102
{ACAD_REACTORS
330
9FA7
102
}
330
9FA7
100
AcDbScale
 70
     0
300
2:1
140
2.0
141
1.0
290
     0
  0
SCALE
  5
9FB5
102
{ACAD_REACTORS
330
9FA7
102
}
330
9FA7
100
AcDbScale
 70
     0
300
4:1
140
4.0
141
1.0
290
     0
  0
SCALE
  5
9FB6
102
{ACAD_REACTORS
330
9FA7
102
}
330
9FA7
100
AcDbScale
 70
     0
300
8:1
140
8.0
141
1.0
290
     0
  0
SCALE
  5
9FB7
102
{ACAD_REACTORS
330
9FA7
102
}
330
9FA7
100
AcDbScale
 70
     0
300
10:1
140
10.0
141
1.0
290
     0
  0
SCALE
  5
9FB8
102
{ACAD_REACTORS
330
9FA7
102
}
330
9FA7
100
AcDbScale
 70
     0
300
100:1
140
100.0
141
1.0
290
     0
  0
SCALE
  5
9FB9
102
{ACAD_REACTORS
330
9FA7
102
}
330
9FA7
100
AcDbScale
 70
     0
300
1/128" = 1'-0"
140
0.0078125
141
12.0
290
     0
  0
SCALE
  5
9FBA
102
{ACAD_REACTORS
330
9FA7
102
}
330
9FA7
100
AcDbScale
 70
     0
300
1/64" = 1'-0"
140
0.015625
141
12.0
290
     0
  0
SCALE
  5
9FBB
102
{ACAD_REACTORS
330
9FA7
102
}
330
9FA7
100
AcDbScale
 70
     0
300
1/32" = 1'-0"
140
0.03125
141
12.0
290
     0
  0
SCALE
  5
9FBC
102
{ACAD_REACTORS
330
9FA7
102
}
330
9FA7
100
AcDbScale
 70
     0
300
1/16" = 1'-0"
140
0.0625
141
12.0
290
     0
  0
SCALE
  5
9FBD
102
{ACAD_REACTORS
330
9FA7
102
}
330
9FA7
100
AcDbScale
 70
     0
300
3/32" = 1'-0"
140
0.09375
141
12.0
290
     0
  0
SCALE
  5
9FBE
102
{ACAD_REACTORS
330
9FA7
102
}
330
9FA7
100
AcDbScale
 70
     0
300
1/8" = 1'-0"
140
0.125
141
12.0
290
     0
  0
SCALE
  5
9FBF
102
{ACAD_REACTORS
330
9FA7
102
}
330
9FA7
100
AcDbScale
 70
     0
300
3/16" = 1'-0"
140
0.1875
141
12.0
290
     0
  0
SCALE
  5
9FC0
102
{ACAD_REACTORS
330
9FA7
102
}
330
9FA7
100
AcDbScale
 70
     0
300
1/4" = 1'-0"
140
0.25
141
12.0
290
     0
  0
SCALE
  5
9FC1
102
{ACAD_REACTORS
330
9FA7
102
}
330
9FA7
100
AcDbScale
 70
     0
300
3/8" = 1'-0"
140
0.375
141
12.0
290
     0
  0
SCALE
  5
9FC2
102
{ACAD_REACTORS
330
9FA7
102
}
330
9FA7
100
AcDbScale
 70
     0
300
1/2" = 1'-0"
140
0.5
141
12.0
290
     0
  0
SCALE
  5
9FC3
102
{ACAD_REACTORS
330
9FA7
102
}
330
9FA7
100
AcDbScale
 70
     0
300
3/4" = 1'-0"
140
0.75
141
12.0
290
     0
  0
SCALE
  5
9FC4
102
{ACAD_REACTORS
330
9FA7
102
}
330
9FA7
100
AcDbScale
 70
     0
300
1" = 1'-0"
140
1.0
141
12.0
290
     0
  0
SCALE
  5
9FC5
102
{ACAD_REACTORS
330
9FA7
102
}
330
9FA7
100
AcDbScale
 70
     0
300
1-1/2" = 1'-0"
140
1.5
141
12.0
290
     0
  0
SCALE
  5
9FC6
102
{ACAD_REACTORS
330
9FA7
102
}
330
9FA7
100
AcDbScale
 70
     0
300
3" = 1'-0"
140
3.0
141
12.0
290
     0
  0
SCALE
  5
9FC7
102
{ACAD_REACTORS
330
9FA7
102
}
330
9FA7
100
AcDbScale
 70
     0
300
6" = 1'-0"
140
6.0
141
12.0
290
     0
  0
SCALE
  5
9FC8
102
{ACAD_REACTORS
330
9FA7
102
}
330
9FA7
100
AcDbScale
 70
     0
300
1'-0" = 1'-0"
140
12.0
141
12.0
290
     0
  0
ACDBSECTIONVIEWSTYLE
  5
FA7E
102
{ACAD_XDICTIONARY
360
FBFA
102
}
102
{ACAD_REACTORS
330
FA7D
102
}
330
FA7D
100
AcDbModelDocViewStyle
 70
     0
  3
Metric50
290
     0
100
AcDbSectionViewStyle
 70
     0
 71
     0
 90
      102
 71
     1
340
10
 40
5.0
340
0
340
0
 40
5.0
300
I, O, Q, S, X, Z
 40
10.0
 90
        0
 40
2.5
 90
        0
 71
     2
340
14
 90
       25
340
14
 90
       50
 40
5.0
 40
2.5
 40
5.0
 71
     3
340
10
 40
5.0
 90
        0
 40
15.0
 90
        1
300
%<\AcVar ViewSectionStartId>%-%<\AcVar ViewSectionEndId>% (%<\AcVar ViewScale \f "%sn">%)
 71
     4
300
ANSI31
 40
1.0
 90
        0
290
     0
290
     0
 90
        6
 40
0.0
 40
1.570796326794896
 40
0.2617993877991494
 40
1.308996938995747
 40
-0.2617993877991494
 40
1.832595714594046
  0
TABLESTYLE
  5
A12F
102
{ACAD_XDICTIONARY
360
A2B5
102
}
102
{ACAD_REACTORS
330
A12E
102
}
330
A12E
100
AcDbTableStyle
  3
Standard
 70
     0
 71
     0
 40
1.5
 41
1.5
280
     0
281
     0
  7
STANDARD
140
4.5
170
     2
 62
     0
 63
     7
283
     0
274
    -2
284
     1
 64
     0
275
    -2
285
     1
 65
     0
276
    -2
286
     1
 66
     0
277
    -2
287
     1
 67
     0
278
    -2
288
     1
 68
     0
279
    -2
289
     1
 69
     0
  7
STANDARD
140
6.0
170
     5
 62
     0
 63
     7
283
     0
274
    -2
284
     1
 64
     0
275
    -2
285
     1
 65
     0
276
    -2
286
     1
 66
     0
277
    -2
287
     1
 67
     0
278
    -2
288
     1
 68
     0
279
    -2
289
     1
 69
     0
  7
STANDARD
140
4.5
170
     5
 62
     0
 63
     7
283
     0
274
    -2
284
     1
 64
     0
275
    -2
285
     1
 65
     0
276
    -2
286
     1
 66
     0
277
    -2
287
     1
 67
     0
278
    -2
288
     1
 68
     0
279
    -2
289
     1
 69
     0
  0
VISUALSTYLE
  5
A122
102
{ACAD_XDICTIONARY
360
FBCF
102
}
102
{ACAD_REACTORS
330
A11C
102
}
330
A11C
100
AcDbVisualStyle
  2

 70
     4
 71
     0
 72
     2
 73
     0
 90
        0
 40
-0.6
 41
-30.0
 62
     5
 63
     7
 74
     1
 91
        4
 64
     7
 65
   257
 75
     1
175
     1
 42
1.0
 92
        0
 66
   257
 43
1.0
 76
     1
 77
     6
 78
     2
 67
     7
 79
     5
170
     0
171
     0
290
     0
174
     0
 93
        1
 44
0.0
173
     0
291
     0
 45
0.0
1001
ACAD
1000
AcDbSavedByObjectVersion
1070
     0
  0
VISUALSTYLE
  5
A124
102
{ACAD_XDICTIONARY
360
FBD3
102
}
102
{ACAD_REACTORS
330
A11C
102
}
330
A11C
100
AcDbVisualStyle
  2

 70
     6
 71
     1
 72
     2
 73
     2
 90
        0
 40
-0.6
 41
-30.0
 62
     5
 63
     7
 74
     2
 91
        2
 64
     7
 65
   257
 75
     2
175
     1
 42
40.0
 92
        0
 66
   257
 43
1.0
 76
     1
 77
     6
 78
     2
 67
     7
 79
     3
170
     0
171
     0
290
     0
174
     0
 93
        1
 44
0.0
173
     0
291
     0
 45
0.0
1001
ACAD
1000
AcDbSavedByObjectVersion
1070
     0
  0
VISUALSTYLE
  5
A123
102
{ACAD_XDICTIONARY
360
FBD1
102
}
102
{ACAD_REACTORS
330
A11C
102
}
330
A11C
100
AcDbVisualStyle
  2

 70
     5
 71
     0
 72
     2
 73
     0
 90
        0
 40
-0.6
 41
-30.0
 62
     5
 63
     7
 74
     1
 91
        4
 64
     7
 65
   257
 75
     1
175
     1
 42
1.0
 92
        0
 66
   257
 43
1.0
 76
     1
 77
     6
 78
     2
 67
     7
 79
     5
170
     0
171
     0
290
     0
174
     0
 93
        1
 44
0.0
173
     0
291
     0
 45
0.0
1001
ACAD
1000
AcDbSavedByObjectVersion
1070
     0
  0
VISUALSTYLE
  5
A121
102
{ACAD_XDICTIONARY
360
FBCD
102
}
102
{ACAD_REACTORS
330
A11C
102
}
330
A11C
100
AcDbVisualStyle
  2

 70
     7
 71
     1
 72
     0
 73
     1
 90
        0
 40
-0.6
 41
-30.0
 62
     5
 63
     7
 74
     0
 91
        4
 64
     7
 65
   257
 75
     1
175
     1
 42
1.0
 92
        8
 66
     7
 43
1.0
 76
     1
 77
     6
 78
     2
 67
     7
 79
     5
170
     0
171
     0
290
     0
174
     0
 93
        1
 44
0.0
173
     0
291
     1
 45
0.0
1001
ACAD
1000
AcDbSavedByObjectVersion
1070
     0
  0
VISUALSTYLE
  5
A128
102
{ACAD_XDICTIONARY
360
FBDB
102
}
102
{ACAD_REACTORS
330
A11C
102
}
330
A11C
100
AcDbVisualStyle
  2

 70
    12
 71
     2
 72
     2
 73
     0
 90
        0
 40
-0.6
 41
-30.0
 62
     5
 63
     7
 74
     1
 91
        4
 64
     7
 65
   257
 75
     1
175
     1
 42
1.0
 92
        8
 66
     7
 43
1.0
 76
     1
 77
     6
 78
     2
 67
     7
 79
     5
170
     0
171
     0
290
     0
174
     0
 93
        1
 44
50.0
173
     0
291
     1
 45
0.0
1001
ACAD
1000
AcDbSavedByObjectVersion
1070
     0
  0
VISUALSTYLE
  5
A12C
102
{ACAD_XDICTIONARY
360
FBE3
102
}
102
{ACAD_REACTORS
330
A11C
102
}
330
A11C
100
AcDbVisualStyle
  2

 70
    16
 71
     2
 72
     2
 73
     3
 90
        0
 40
-0.6
 41
-30.0
 62
     5
 63
     8
 74
     1
 91
        4
 64
     7
 65
   257
 75
     1
175
     1
 42
1.0
 92
        8
 66
     8
 43
1.0
 76
     1
 77
     6
 78
     2
 67
     7
 79
     5
170
     0
171
     0
290
     0
174
     0
 93
        1
 44
0.0
173
     0
291
     1
 45
0.0
1001
ACAD
1000
AcDbSavedByObjectVersion
1070
     0
  0
VISUALSTYLE
  5
A125
102
{ACAD_XDICTIONARY
360
FBD5
102
}
102
{ACAD_REACTORS
330
A11C
102
}
330
A11C
100
AcDbVisualStyle
  2

 70
     9
 71
     3
 72
     2
 73
     0
 90
        0
 40
-0.6
 41
-30.0
 62
     5
 63
     7
 74
     2
 91
        2
 64
     7
 65
   257
 75
     1
175
     1
 42
40.0
 92
        8
 66
     7
 43
1.0
 76
     1
 77
     6
 78
     2
 67
     7
 79
     3
170
     0
171
     0
290
     0
174
     0
 93
        1
 44
0.0
173
     0
291
     0
 45
0.0
1001
ACAD
1000
AcDbSavedByObjectVersion
1070
     0
  0
VISUALSTYLE
  5
A127
102
{ACAD_XDICTIONARY
360
FBD9
102
}
102
{ACAD_REACTORS
330
A11C
102
}
330
A11C
100
AcDbVisualStyle
  2

 70
    11
 71
     2
 72
     2
 73
     0
 90
        0
 40
-0.6
 41
-30.0
 62
     5
 63
     7
 74
     1
 91
        4
 64
     7
 65
   257
 75
     1
175
     1
 42
1.0
 92
        8
 66
     7
 43
1.0
 76
     1
 77
     6
 78
     2
 67
     7
 79
     5
170
     0
171
     0
290
     0
174
     0
 93
        1
 44
-50.0
173
     0
291
     1
 45
0.0
1001
ACAD
1000
AcDbSavedByObjectVersion
1070
     0
  0
VISUALSTYLE
  5
FA7C
102
{ACAD_XDICTIONARY
360
FBF8
102
}
102
{ACAD_REACTORS
330
A11C
102
}
330
A11C
100
AcDbVisualStyle
  2
EdgeColorOff
 70
    22
 71
     2
 72
     2
 73
     0
 90
        0
 40
-0.6
 41
-30.0
 62
     5
 63
     7
 74
     1
 91
        4
 64
     7
 65
   257
 75
     1
175
     1
 42
1.0
 92
        8
 66
     7
 43
1.0
 76
     1
 77
     6
 78
     2
 67
     7
 79
     5
170
     0
171
     0
290
     0
174
     0
 93
        1
 44
0.0
173
     0
291
     1
 45
0.0
1001
ACAD
1000
AcDbSavedByObjectVersion
1070
     0
  0
VISUALSTYLE
  5
A12B
102
{ACAD_XDICTIONARY
360
FBE1
102
}
102
{ACAD_REACTORS
330
A11C
102
}
330
A11C
100
AcDbVisualStyle
  2

 70
    15
 71
     2
 72
     2
 73
     0
 90
        0
 40
-0.6
 41
-30.0
 62
     5
 63
     7
 74
     1
 91
        4
 64
     7
 65
   257
 75
     1
175
     1
 42
1.0
 92
        8
 66
     7
 43
1.0
 76
     1
 77
     6
 78
     2
 67
     7
 79
     5
170
     0
171
     0
290
     0
174
     0
 93
        1
 44
0.0
173
     0
291
     1
 45
0.0
1001
ACAD
1000
AcDbSavedByObjectVersion
1070
     0
  0
VISUALSTYLE
  5
A11D
102
{ACAD_XDICTIONARY
360
FBC5
102
}
102
{ACAD_REACTORS
330
A11C
102
}
330
A11C
100
AcDbVisualStyle
  2

 70
     0
 71
     2
 72
     1
 73
     1
 90
        2
 40
-0.6
 41
30.0
 62
     5
 63
     7
 74
     0
 91
        4
 64
     7
 65
   257
 75
     1
175
     1
 42
1.0
 92
        8
 66
     7
 43
1.0
 76
     1
 77
     6
 78
     2
 67
     7
 79
     5
170
     0
171
     0
290
     0
174
     0
 93
       13
 44
0.0
173
     0
291
     1
 45
0.0
1001
ACAD
1000
AcDbSavedByObjectVersion
1070
     0
  0
VISUALSTYLE
  5
A11E
102
{ACAD_XDICTIONARY
360
FBC7
102
}
102
{ACAD_REACTORS
330
A11C
102
}
330
A11C
100
AcDbVisualStyle
  2

 70
     1
 71
     2
 72
     1
 73
     1
 90
        2
 40
-0.6
 41
30.0
 62
     5
 63
     7
 74
     1
 91
        4
 64
     7
 65
   257
 75
     1
175
     1
 42
1.0
 92
        0
 66
   257
 43
1.0
 76
     1
 77
     6
 78
     2
 67
     7
 79
     5
170
     0
171
     0
290
     0
174
     0
 93
       13
 44
0.0
173
     0
291
     1
 45
0.0
1001
ACAD
1000
AcDbSavedByObjectVersion
1070
     0
  0
VISUALSTYLE
  5
A11F
102
{ACAD_XDICTIONARY
360
FBC9
102
}
102
{ACAD_REACTORS
330
A11C
102
}
330
A11C
100
AcDbVisualStyle
  2

 70
     2
 71
     2
 72
     2
 73
     1
 90
        2
 40
-0.6
 41
30.0
 62
     5
 63
     7
 74
     0
 91
        4
 64
     7
 65
   257
 75
     1
175
     1
 42
1.0
 92
        0
 66
     7
 43
1.0
 76
     1
 77
     6
 78
     2
 67
     7
 79
     5
170
     0
171
     0
290
     0
174
     0
 93
       13
 44
0.0
173
     0
291
     1
 45
0.0
1001
ACAD
1000
AcDbSavedByObjectVersion
1070
     0
  0
VISUALSTYLE
  5
A120
102
{ACAD_XDICTIONARY
360
FBCB
102
}
102
{ACAD_REACTORS
330
A11C
102
}
330
A11C
100
AcDbVisualStyle
  2

 70
     3
 71
     2
 72
     2
 73
     1
 90
        2
 40
-0.6
 41
30.0
 62
     5
 63
     7
 74
     1
 91
        4
 64
     7
 65
   257
 75
     1
175
     1
 42
1.0
 92
        0
 66
   257
 43
1.0
 76
     1
 77
     6
 78
     2
 67
     7
 79
     5
170
     0
171
     0
290
     0
174
     0
 93
       13
 44
0.0
173
     0
291
     1
 45
0.0
1001
ACAD
1000
AcDbSavedByObjectVersion
1070
     0
  0
VISUALSTYLE
  5
FA74
102
{ACAD_XDICTIONARY
360
FBE8
102
}
102
{ACAD_REACTORS
330
A11C
102
}
330
A11C
100
AcDbVisualStyle
  2
Hidden
 70
     6
 71
     1
 72
     2
 73
     2
 90
        0
 40
-0.6
 41
-30.0
 62
     5
 63
     7
 74
     2
 91
        2
 64
     7
 65
   257
 75
     2
175
     1
 42
40.0
 92
        0
 66
   257
 43
1.0
 76
     1
 77
     6
 78
     2
 67
     7
 79
     3
170
     0
171
     0
290
     0
174
     0
 93
        1
 44
0.0
173
     0
291
     0
 45
0.0
1001
ACAD
1000
AcDbSavedByObjectVersion
1070
     0
  0
VISUALSTYLE
  5
FA7A
102
{ACAD_XDICTIONARY
360
FBF4
102
}
102
{ACAD_REACTORS
330
A11C
102
}
330
A11C
100
AcDbVisualStyle
  2
JitterOff
 70
    20
 71
     2
 72
     2
 73
     0
 90
        0
 40
-0.6
 41
-30.0
 62
     5
 63
     7
 74
     1
 91
        4
 64
     7
 65
   257
 75
     1
175
     1
 42
1.0
 92
       10
 66
     7
 43
1.0
 76
     1
 77
     6
 78
     2
 67
     7
 79
     5
170
     0
171
     0
290
     0
174
     0
 93
        1
 44
0.0
173
     0
291
     1
 45
0.0
1001
ACAD
1000
AcDbSavedByObjectVersion
1070
     0
  0
VISUALSTYLE
  5
A12A
102
{ACAD_XDICTIONARY
360
FBDF
102
}
102
{ACAD_REACTORS
330
A11C
102
}
330
A11C
100
AcDbVisualStyle
  2

 70
    14
 71
     2
 72
     2
 73
     0
 90
        0
 40
-0.6
 41
-30.0
 62
     5
 63
     7
 74
     1
 91
        4
 64
     7
 65
   257
 75
     7
175
     7
 42
1.0
 92
        8
 66
     7
 43
1.0
 76
     1
 77
     6
 78
     2
 67
     7
 79
     5
170
     0
171
     0
290
     0
174
     0
 93
        1
 44
0.0
173
     0
291
     1
 45
0.0
1001
ACAD
1000
AcDbSavedByObjectVersion
1070
     0
  0
VISUALSTYLE
  5
FA7B
102
{ACAD_XDICTIONARY
360
FBF6
102
}
102
{ACAD_REACTORS
330
A11C
102
}
330
A11C
100
AcDbVisualStyle
  2
OverhangOff
 70
    21
 71
     2
 72
     2
 73
     0
 90
        0
 40
-0.6
 41
-30.0
 62
     5
 63
     7
 74
     1
 91
        4
 64
     7
 65
   257
 75
     1
175
     1
 42
1.0
 92
        9
 66
     7
 43
1.0
 76
     1
 77
     6
 78
     2
 67
     7
 79
     5
170
     0
171
     0
290
     0
174
     0
 93
        1
 44
0.0
173
     0
291
     1
 45
0.0
1001
ACAD
1000
AcDbSavedByObjectVersion
1070
     0
  0
VISUALSTYLE
  5
A126
102
{ACAD_XDICTIONARY
360
FBD7
102
}
102
{ACAD_REACTORS
330
A11C
102
}
330
A11C
100
AcDbVisualStyle
  2

 70
     8
 71
     2
 72
     2
 73
     0
 90
        0
 40
-0.6
 41
-30.0
 62
     5
 63
     7
 74
     1
 91
        0
 64
     7
 65
   257
 75
     1
175
     1
 42
1.0
 92
        8
 66
     8
 43
1.0
 76
     1
 77
     6
 78
     2
 67
     7
 79
     5
170
     0
171
     0
290
     0
174
     0
 93
       13
 44
0.0
173
     0
291
     0
 45
0.0
1001
ACAD
1000
AcDbSavedByObjectVersion
1070
     0
  0
VISUALSTYLE
  5
FA79
102
{ACAD_XDICTIONARY
360
FBF2
102
}
102
{ACAD_REACTORS
330
A11C
102
}
330
A11C
100
AcDbVisualStyle
  2
Shaded
 70
    27
 71
     2
 72
     2
 73
     1
 90
        2
 40
-0.6
 41
30.0
 62
     5
 63
     7
 74
     0
 91
        4
 64
     7
 65
   257
 75
     1
175
     1
 42
1.0
 92
        8
 66
   257
 43
1.0
 76
     1
 77
     6
 78
     2
 67
     8
 79
     3
170
     0
171
     0
290
     0
174
     0
 93
        5
 44
0.0
173
     0
291
     0
 45
0.0
1001
ACAD
1000
AcDbSavedByObjectVersion
1070
     0
  0
VISUALSTYLE
  5
FA78
102
{ACAD_XDICTIONARY
360
FBF0
102
}
102
{ACAD_REACTORS
330
A11C
102
}
330
A11C
100
AcDbVisualStyle
  2
Shaded with edges
 70
    26
 71
     2
 72
     2
 73
     1
 90
        2
 40
-0.6
 41
30.0
 62
     5
 63
     7
 74
     1
 91
       10
 64
     7
 65
   257
 75
     2
175
     1
 42
1.0
 92
        8
 66
   257
 43
1.0
 76
     1
 77
     6
 78
     2
 67
     7
 79
     3
170
     0
171
     0
290
     0
174
     0
 93
        5
 44
0.0
173
     0
291
     0
 45
0.0
1001
ACAD
1000
AcDbSavedByObjectVersion
1070
     0
  0
VISUALSTYLE
  5
FA75
102
{ACAD_XDICTIONARY
360
FBEA
102
}
102
{ACAD_REACTORS
330
A11C
102
}
330
A11C
100
AcDbVisualStyle
  2
Shades of Gray
 70
    23
 71
     2
 72
     2
 73
     3
 90
        0
 40
-0.6
 41
-30.0
 62
     5
 63
     7
 74
     2
 91
        2
 64
     7
 65
     7
 75
     1
175
     1
 42
40.0
 92
        8
 66
     7
 43
1.0
 76
     1
 77
     6
 78
     2
 67
     7
 79
     3
170
     0
171
     0
290
     0
174
     0
 93
        1
 44
0.0
173
     0
291
     0
 45
0.0
1001
ACAD
1000
AcDbSavedByObjectVersion
1070
     0
  0
VISUALSTYLE
  5
FA76
102
{ACAD_XDICTIONARY
360
FBEC
102
}
102
{ACAD_REACTORS
330
A11C
102
}
330
A11C
100
AcDbVisualStyle
  2
Sketchy
 70
    24
 71
     1
 72
     2
 73
     2
 90
        0
 40
-0.6
 41
-30.0
 62
     5
 63
     7
 74
     2
 91
        2
 64
     7
 65
     7
 75
     1
175
     1
 42
40.0
 92
       11
 66
     7
 43
1.0
 76
     1
 77
     6
 78
     2
 67
     7
 79
     6
170
     0
171
     0
290
     0
174
     0
 93
        1
 44
0.0
173
     0
291
     0
 45
0.0
1001
ACAD
1000
AcDbSavedByObjectVersion
1070
     0
  0
VISUALSTYLE
  5
A129
102
{ACAD_XDICTIONARY
360
FBDD
102
}
102
{ACAD_REACTORS
330
A11C
102
}
330
A11C
100
AcDbVisualStyle
  2

 70
    13
 71
     2
 72
     2
 73
     0
 90
        0
 40
-0.6
 41
-30.0
 62
     5
 63
     7
 74
     1
 91
        4
 64
     7
 65
   257
 75
     1
175
     1
 42
1.0
 92
       12
 66
     7
 43
1.0
 76
     1
 77
     6
 78
     2
 67
     7
 79
     5
170
     0
171
     0
290
     0
174
     0
 93
        1
 44
0.0
173
     0
291
     1
 45
0.0
1001
ACAD
1000
AcDbSavedByObjectVersion
1070
     0
  0
VISUALSTYLE
  5
FA73
102
{ACAD_XDICTIONARY
360
FBE6
102
}
102
{ACAD_REACTORS
330
A11C
102
}
330
A11C
100
AcDbVisualStyle
  2
Wireframe
 70
     5
 71
     0
 72
     2
 73
     0
 90
        0
 40
-0.6
 41
-30.0
 62
     5
 63
     7
 74
     1
 91
        4
 64
     7
 65
   257
 75
     1
175
     1
 42
1.0
 92
        0
 66
   257
 43
1.0
 76
     1
 77
     6
 78
     2
 67
     7
 79
     3
170
     0
171
     0
290
     0
174
     0
 93
        1
 44
0.0
173
     0
291
     0
 45
0.0
1001
ACAD
1000
AcDbSavedByObjectVersion
1070
     0
  0
VISUALSTYLE
  5
FA77
102
{ACAD_XDICTIONARY
360
FBEE
102
}
102
{ACAD_REACTORS
330
A11C
102
}
330
A11C
100
AcDbVisualStyle
  2
X-Ray
 70
    25
 71
     2
 72
     2
 73
     1
 90
        1
 40
0.5
 41
-30.0
 62
     5
 63
     7
 74
     1
 91
        0
 64
     7
 65
   257
 75
     1
175
     1
 42
1.0
 92
        8
 66
     7
 43
1.0
 76
     1
 77
     6
 78
     2
 67
     7
 79
     3
170
     0
171
     0
290
     0
174
     0
 93
       13
 44
0.0
173
     0
291
     0
 45
0.0
1001
ACAD
1000
AcDbSavedByObjectVersion
1070
     0
  0
DICTIONARYVAR
  5
A101
102
{ACAD_REACTORS
330
1237
102
}
330
1237
100
DictionaryVariables
280
     0
  1
1:1
  0
DICTIONARYVAR
  5
A2B4
102
{ACAD_REACTORS
330
1237
102
}
330
1237
100
DictionaryVariables
280
     0
  1
STANDARD
  0
DICTIONARYVAR
  5
A2B3
102
{ACAD_REACTORS
330
1237
102
}
330
1237
100
DictionaryVariables
280
     0
  1
STANDARD
  0
DICTIONARYVAR
  5
FBBB
102
{ACAD_REACTORS
330
1237
102
}
330
1237
100
DictionaryVariables
280
     0
  1
Metric50
  0
DICTIONARYVAR
  5
FBBC
102
{ACAD_REACTORS
330
1237
102
}
330
1237
100
DictionaryVariables
280
     0
  1
Metric50
  0
DICTIONARYVAR
  5
9CC6
102
{ACAD_REACTORS
330
1237
102
}
330
1237
100
DictionaryVariables
280
     0
  1
1
  0
DICTIONARYVAR
  5
9CC5
102
{ACAD_REACTORS
330
1237
102
}
330
1237
100
DictionaryVariables
280
     0
  1
0
  0
DICTIONARYVAR
  5
1238
102
{ACAD_REACTORS
330
1237
102
}
330
1237
100
DictionaryVariables
280
     0
  1
96
  0
DICTIONARYVAR
  5
FBBD
102
{ACAD_REACTORS
330
1237
102
}
330
1237
100
DictionaryVariables
280
     0
  1
2
  0
XRECORD
  5
A0EE
102
{ACAD_REACTORS
330
A0ED
102
}
330
A0ED
100
AcDbXrecord
280
     1
 91
     1023
301

290
     0
302
1
330
F
 90
        8
 62
     2
370
    -3
331
14
  1
Color_2
330
30
 90
        0
 62
     7
370
    -3
331
14
  1
Color_7
330
526
 90
        8
 62
     1
370
    -3
331
14
  1
Color_1
330
138F
 90
        8
 62
     6
370
    -3
331
C0D
  1
Color_6
330
1390
 90
        8
 62
     7
370
    -3
331
14
  1
Color_7
  0
DICTIONARY
  5
FBFC
330
FA80
100
AcDbDictionary
280
     1
281
     1
  3
ACAD_XREC_ROUNDTRIP
360
FBFD
  0
DICTIONARY
  5
FBC1
330
1C64
100
AcDbDictionary
280
     1
281
     1
  3
ACAD_XREC_ROUNDTRIP
360
FBC2
  0
DICTIONARY
  5
FBC3
330
1C65
100
AcDbDictionary
280
     1
281
     1
  3
ACAD_XREC_ROUNDTRIP
360
FBC4
  0
DICTIONARY
  5
A10D
330
A10C
100
AcDbDictionary
280
     1
281
     1
  3
ACAD_XREC_ROUNDTRIP
360
A2BF
  3
BUMPTILE
360
A10F
  3
DIFFUSETILE
360
A10E
  3
OPACITYTILE
360
A112
  3
REFLECTIONTILE
360
A111
  3
REFRACTIONTILE
360
A113
  3
SPECULARTILE
360
A110
  0
DICTIONARY
  5
A105
330
A104
100
AcDbDictionary
280
     1
281
     1
  3
ACAD_XREC_ROUNDTRIP
360
A2BE
  3
BUMPTILE
360
A107
  3
DIFFUSETILE
360
A106
  3
OPACITYTILE
360
A10A
  3
REFLECTIONTILE
360
A109
  3
REFRACTIONTILE
360
A10B
  3
SPECULARTILE
360
A108
  0
DICTIONARY
  5
A115
330
A114
100
AcDbDictionary
280
     1
281
     1
  3
ACAD_XREC_ROUNDTRIP
360
A2C0
  3
BUMPTILE
360
A117
  3
DIFFUSETILE
360
A116
  3
OPACITYTILE
360
A11A
  3
REFLECTIONTILE
360
A119
  3
REFRACTIONTILE
360
A11B
  3
SPECULARTILE
360
A118
  0
DICTIONARY
  5
FBFA
330
FA7E
100
AcDbDictionary
280
     1
281
     1
  3
ACAD_XREC_ROUNDTRIP
360
FBFB
  0
DICTIONARY
  5
A2B5
330
A12F
100
AcDbDictionary
280
     1
281
     1
  3
ACAD_ROUNDTRIP_2008_TABLESTYLE_CELLSTYLEMAP
360
FBBE
  3
ACAD_XREC_ROUNDTRIP
360
FBE5
  0
DICTIONARY
  5
FBCF
330
A122
100
AcDbDictionary
280
     1
281
     1
  3
ACAD_XREC_ROUNDTRIP
360
FBD0
  0
DICTIONARY
  5
FBD3
330
A124
100
AcDbDictionary
280
     1
281
     1
  3
ACAD_XREC_ROUNDTRIP
360
FBD4
  0
DICTIONARY
  5
FBD1
330
A123
100
AcDbDictionary
280
     1
281
     1
  3
ACAD_XREC_ROUNDTRIP
360
FBD2
  0
DICTIONARY
  5
FBCD
330
A121
100
AcDbDictionary
280
     1
281
     1
  3
ACAD_XREC_ROUNDTRIP
360
FBCE
  0
DICTIONARY
  5
FBDB
330
A128
100
AcDbDictionary
280
     1
281
     1
  3
ACAD_XREC_ROUNDTRIP
360
FBDC
  0
DICTIONARY
  5
FBE3
330
A12C
100
AcDbDictionary
280
     1
281
     1
  3
ACAD_XREC_ROUNDTRIP
360
FBE4
  0
DICTIONARY
  5
FBD5
330
A125
100
AcDbDictionary
280
     1
281
     1
  3
ACAD_XREC_ROUNDTRIP
360
FBD6
  0
DICTIONARY
  5
FBD9
330
A127
100
AcDbDictionary
280
     1
281
     1
  3
ACAD_XREC_ROUNDTRIP
360
FBDA
  0
DICTIONARY
  5
FBF8
330
FA7C
100
AcDbDictionary
280
     1
281
     1
  3
ACAD_XREC_ROUNDTRIP
360
FBF9
  0
DICTIONARY
  5
FBE1
330
A12B
100
AcDbDictionary
280
     1
281
     1
  3
ACAD_XREC_ROUNDTRIP
360
FBE2
  0
DICTIONARY
  5
FBC5
330
A11D
100
AcDbDictionary
280
     1
281
     1
  3
ACAD_XREC_ROUNDTRIP
360
FBC6
  0
DICTIONARY
  5
FBC7
330
A11E
100
AcDbDictionary
280
     1
281
     1
  3
ACAD_XREC_ROUNDTRIP
360
FBC8
  0
DICTIONARY
  5
FBC9
330
A11F
100
AcDbDictionary
280
     1
281
     1
  3
ACAD_XREC_ROUNDTRIP
360
FBCA
  0
DICTIONARY
  5
FBCB
330
A120
100
AcDbDictionary
280
     1
281
     1
  3
ACAD_XREC_ROUNDTRIP
360
FBCC
  0
DICTIONARY
  5
FBE8
330
FA74
100
AcDbDictionary
280
     1
281
     1
  3
ACAD_XREC_ROUNDTRIP
360
FBE9
  0
DICTIONARY
  5
FBF4
330
FA7A
100
AcDbDictionary
280
     1
281
     1
  3
ACAD_XREC_ROUNDTRIP
360
FBF5
  0
DICTIONARY
  5
FBDF
330
A12A
100
AcDbDictionary
280
     1
281
     1
  3
ACAD_XREC_ROUNDTRIP
360
FBE0
  0
DICTIONARY
  5
FBF6
330
FA7B
100
AcDbDictionary
280
     1
281
     1
  3
ACAD_XREC_ROUNDTRIP
360
FBF7
  0
DICTIONARY
  5
FBD7
330
A126
100
AcDbDictionary
280
     1
281
     1
  3
ACAD_XREC_ROUNDTRIP
360
FBD8
  0
DICTIONARY
  5
FBF2
330
FA79
100
AcDbDictionary
280
     1
281
     1
  3
ACAD_XREC_ROUNDTRIP
360
FBF3
  0
DICTIONARY
  5
FBF0
330
FA78
100
AcDbDictionary
280
     1
281
     1
  3
ACAD_XREC_ROUNDTRIP
360
FBF1
  0
DICTIONARY
  5
FBEA
330
FA75
100
AcDbDictionary
280
     1
281
     1
  3
ACAD_XREC_ROUNDTRIP
360
FBEB
  0
DICTIONARY
  5
FBEC
330
FA76
100
AcDbDictionary
280
     1
281
     1
  3
ACAD_XREC_ROUNDTRIP
360
FBED
  0
DICTIONARY
  5
FBDD
330
A129
100
AcDbDictionary
280
     1
281
     1
  3
ACAD_XREC_ROUNDTRIP
360
FBDE
  0
DICTIONARY
  5
FBE6
330
FA73
100
AcDbDictionary
280
     1
281
     1
  3
ACAD_XREC_ROUNDTRIP
360
FBE7
  0
DICTIONARY
  5
FBEE
330
FA77
100
AcDbDictionary
280
     1
281
     1
  3
ACAD_XREC_ROUNDTRIP
360
FBEF
  0
XRECORD
  5
FBFD
102
{ACAD_REACTORS
330
FBFC
102
}
330
FBFC
100
AcDbXrecord
280
     1
102
DISPLAYNAME
  1
Metric50
102
FLAGS
 90
        0
  0
XRECORD
  5
FBC2
102
{ACAD_REACTORS
330
FBC1
102
}
330
FBC1
100
AcDbXrecord
280
     1
102
SHADEPLOT
 70
     0
102
SHADEPLOTRESLEVEL
 70
     2
102
SHADEPLOTCUSTOMDPI
 70
   300
  0
XRECORD
  5
FBC4
102
{ACAD_REACTORS
330
FBC3
102
}
330
FBC3
100
AcDbXrecord
280
     1
102
SHADEPLOT
 70
     0
102
SHADEPLOTRESLEVEL
 70
     2
102
SHADEPLOTCUSTOMDPI
 70
   300
  0
XRECORD
  5
A2BF
102
{ACAD_REACTORS
330
A10D
102
}
330
A10D
100
AcDbXrecord
280
     1
102
MATERIAL
148
0.0
149
0.0
149
0.0
 93
        0
 94
      127
282
     0
 72
     0
 77
     0
171
     0
175
     0
179
     0
273
     0
  0
XRECORD
  5
A10F
102
{ACAD_REACTORS
330
A10D
102
}
330
A10D
100
AcDbXrecord
280
     1
270
     1
271
     1
  0
XRECORD
  5
A10E
102
{ACAD_REACTORS
330
A10D
102
}
330
A10D
100
AcDbXrecord
280
     1
270
     1
271
     1
  0
XRECORD
  5
A112
102
{ACAD_REACTORS
330
A10D
102
}
330
A10D
100
AcDbXrecord
280
     1
270
     1
271
     1
  0
XRECORD
  5
A111
102
{ACAD_REACTORS
330
A10D
102
}
330
A10D
100
AcDbXrecord
280
     1
270
     1
271
     1
  0
XRECORD
  5
A113
102
{ACAD_REACTORS
330
A10D
102
}
330
A10D
100
AcDbXrecord
280
     1
270
     1
271
     1
  0
XRECORD
  5
A110
102
{ACAD_REACTORS
330
A10D
102
}
330
A10D
100
AcDbXrecord
280
     1
270
     1
271
     1
  0
XRECORD
  5
A2BE
102
{ACAD_REACTORS
330
A105
102
}
330
A105
100
AcDbXrecord
280
     1
102
MATERIAL
148
0.0
149
0.0
149
0.0
 93
        0
 94
      127
282
     0
 72
     0
 77
     0
171
     0
175
     0
179
     0
273
     0
  0
XRECORD
  5
A107
102
{ACAD_REACTORS
330
A105
102
}
330
A105
100
AcDbXrecord
280
     1
270
     1
271
     1
  0
XRECORD
  5
A106
102
{ACAD_REACTORS
330
A105
102
}
330
A105
100
AcDbXrecord
280
     1
270
     1
271
     1
  0
XRECORD
  5
A10A
102
{ACAD_REACTORS
330
A105
102
}
330
A105
100
AcDbXrecord
280
     1
270
     1
271
     1
  0
XRECORD
  5
A109
102
{ACAD_REACTORS
330
A105
102
}
330
A105
100
AcDbXrecord
280
     1
270
     1
271
     1
  0
XRECORD
  5
A10B
102
{ACAD_REACTORS
330
A105
102
}
330
A105
100
AcDbXrecord
280
     1
270
     1
271
     1
  0
XRECORD
  5
A108
102
{ACAD_REACTORS
330
A105
102
}
330
A105
100
AcDbXrecord
280
     1
270
     1
271
     1
  0
XRECORD
  5
A2C0
102
{ACAD_REACTORS
330
A115
102
}
330
A115
100
AcDbXrecord
280
     1
102
MATERIAL
148
0.0
149
0.0
149
0.0
 93
        0
 94
      127
282
     0
 72
     0
 77
     0
171
     0
175
     0
179
     0
273
     0
  0
XRECORD
  5
A117
102
{ACAD_REACTORS
330
A115
102
}
330
A115
100
AcDbXrecord
280
     1
270
     1
271
     1
  0
XRECORD
  5
A116
102
{ACAD_REACTORS
330
A115
102
}
330
A115
100
AcDbXrecord
280
     1
270
     1
271
     1
  0
XRECORD
  5
A11A
102
{ACAD_REACTORS
330
A115
102
}
330
A115
100
AcDbXrecord
280
     1
270
     1
271
     1
  0
XRECORD
  5
A119
102
{ACAD_REACTORS
330
A115
102
}
330
A115
100
AcDbXrecord
280
     1
270
     1
271
     1
  0
XRECORD
  5
A11B
102
{ACAD_REACTORS
330
A115
102
}
330
A115
100
AcDbXrecord
280
     1
270
     1
271
     1
  0
XRECORD
  5
A118
102
{ACAD_REACTORS
330
A115
102
}
330
A115
100
AcDbXrecord
280
     1
270
     1
271
     1
  0
XRECORD
  5
FBFB
102
{ACAD_REACTORS
330
FBFA
102
}
330
FBFA
100
AcDbXrecord
280
     1
102
DISPLAYNAME
  1
Metric50
102
FLAGS
 90
        0
  0
CELLSTYLEMAP
  5
FBBE
102
{ACAD_REACTORS
330
A2B5
102
}
330
A2B5
100
AcDbCellStyleMap
 90
        3
300
CELLSTYLE
  1
TABLEFORMAT_BEGIN
 90
        5
170
     1
 91
        0
 92
    32768
 62
   257
 93
        1
300
CONTENTFORMAT
  1
CONTENTFORMAT_BEGIN
 90
        0
 91
        0
 92
      512
 93
        0
300

 40
0.0
140
1.0
 94
        5
 62
     0
340
10
144
6.0
309
CONTENTFORMAT_END
171
     1
301
MARGIN
  1
CELLMARGIN_BEGIN
 40
1.5
 40
1.5
 40
1.5
 40
1.5
 40
0.18
 40
0.18
309
CELLMARGIN_END
 94
        6
 95
        1
302
GRIDFORMAT
  1
GRIDFORMAT_BEGIN
 90
        0
 91
        1
 62
     0
 92
       -2
340
0
 93
        0
 40
1.125
309
GRIDFORMAT_END
 95
        2
302
GRIDFORMAT
  1
GRIDFORMAT_BEGIN
 90
        0
 91
        1
 62
     0
 92
       -2
340
0
 93
        0
 40
1.125
309
GRIDFORMAT_END
 95
        4
302
GRIDFORMAT
  1
GRIDFORMAT_BEGIN
 90
        0
 91
        1
 62
     0
 92
       -2
340
0
 93
        0
 40
1.125
309
GRIDFORMAT_END
 95
        8
302
GRIDFORMAT
  1
GRIDFORMAT_BEGIN
 90
        0
 91
        1
 62
     0
 92
       -2
340
0
 93
        0
 40
1.125
309
GRIDFORMAT_END
 95
       16
302
GRIDFORMAT
  1
GRIDFORMAT_BEGIN
 90
        0
 91
        1
 62
     0
 92
       -2
340
0
 93
        0
 40
1.125
309
GRIDFORMAT_END
 95
       32
302
GRIDFORMAT
  1
GRIDFORMAT_BEGIN
 90
        0
 91
        1
 62
     0
 92
       -2
340
0
 93
        0
 40
1.125
309
GRIDFORMAT_END
309
TABLEFORMAT_END
  1
CELLSTYLE_BEGIN
 90
        1
 91
        1
300
_TITLE
309
CELLSTYLE_END
300
CELLSTYLE
  1
TABLEFORMAT_BEGIN
 90
        5
170
     1
 91
        0
 92
        0
 62
   257
 93
        1
300
CONTENTFORMAT
  1
CONTENTFORMAT_BEGIN
 90
        0
 91
        0
 92
      512
 93
        0
300

 40
0.0
140
1.0
 94
        5
 62
     0
340
10
144
4.5
309
CONTENTFORMAT_END
171
     1
301
MARGIN
  1
CELLMARGIN_BEGIN
 40
1.5
 40
1.5
 40
1.5
 40
1.5
 40
0.18
 40
0.18
309
CELLMARGIN_END
 94
        6
 95
        1
302
GRIDFORMAT
  1
GRIDFORMAT_BEGIN
 90
        0
 91
        1
 62
     0
 92
       -2
340
0
 93
        0
 40
1.125
309
GRIDFORMAT_END
 95
        2
302
GRIDFORMAT
  1
GRIDFORMAT_BEGIN
 90
        0
 91
        1
 62
     0
 92
       -2
340
0
 93
        0
 40
1.125
309
GRIDFORMAT_END
 95
        4
302
GRIDFORMAT
  1
GRIDFORMAT_BEGIN
 90
        0
 91
        1
 62
     0
 92
       -2
340
0
 93
        0
 40
1.125
309
GRIDFORMAT_END
 95
        8
302
GRIDFORMAT
  1
GRIDFORMAT_BEGIN
 90
        0
 91
        1
 62
     0
 92
       -2
340
0
 93
        0
 40
1.125
309
GRIDFORMAT_END
 95
       16
302
GRIDFORMAT
  1
GRIDFORMAT_BEGIN
 90
        0
 91
        1
 62
     0
 92
       -2
340
0
 93
        0
 40
1.125
309
GRIDFORMAT_END
 95
       32
302
GRIDFORMAT
  1
GRIDFORMAT_BEGIN
 90
        0
 91
        1
 62
     0
 92
       -2
340
0
 93
        0
 40
1.125
309
GRIDFORMAT_END
309
TABLEFORMAT_END
  1
CELLSTYLE_BEGIN
 90
        2
 91
        1
300
_HEADER
309
CELLSTYLE_END
300
CELLSTYLE
  1
TABLEFORMAT_BEGIN
 90
        5
170
     1
 91
        0
 92
        0
 62
   257
 93
        1
300
CONTENTFORMAT
  1
CONTENTFORMAT_BEGIN
 90
        0
 91
        0
 92
      512
 93
        0
300

 40
0.0
140
1.0
 94
        2
 62
     0
340
10
144
4.5
309
CONTENTFORMAT_END
171
     1
301
MARGIN
  1
CELLMARGIN_BEGIN
 40
1.5
 40
1.5
 40
1.5
 40
1.5
 40
0.18
 40
0.18
309
CELLMARGIN_END
 94
        6
 95
        1
302
GRIDFORMAT
  1
GRIDFORMAT_BEGIN
 90
        0
 91
        1
 62
     0
 92
       -2
340
0
 93
        0
 40
1.125
309
GRIDFORMAT_END
 95
        2
302
GRIDFORMAT
  1
GRIDFORMAT_BEGIN
 90
        0
 91
        1
 62
     0
 92
       -2
340
0
 93
        0
 40
1.125
309
GRIDFORMAT_END
 95
        4
302
GRIDFORMAT
  1
GRIDFORMAT_BEGIN
 90
        0
 91
        1
 62
     0
 92
       -2
340
0
 93
        0
 40
1.125
309
GRIDFORMAT_END
 95
        8
302
GRIDFORMAT
  1
GRIDFORMAT_BEGIN
 90
        0
 91
        1
 62
     0
 92
       -2
340
0
 93
        0
 40
1.125
309
GRIDFORMAT_END
 95
       16
302
GRIDFORMAT
  1
GRIDFORMAT_BEGIN
 90
        0
 91
        1
 62
     0
 92
       -2
340
0
 93
        0
 40
1.125
309
GRIDFORMAT_END
 95
       32
302
GRIDFORMAT
  1
GRIDFORMAT_BEGIN
 90
        0
 91
        1
 62
     0
 92
       -2
340
0
 93
        0
 40
1.125
309
GRIDFORMAT_END
309
TABLEFORMAT_END
  1
CELLSTYLE_BEGIN
 90
        3
 91
        2
300
_DATA
309
CELLSTYLE_END
  0
XRECORD
  5
FBE5
102
{ACAD_REACTORS
330
A2B5
102
}
330
A2B5
100
AcDbXrecord
280
     1
102
ACAD_ROUNDTRIP_PRE2007_TABLESTYLE
 90
      512
 91
        0
  1

 92
      512
 93
        0
  2

 94
      512
 95
        0
  3

  0
XRECORD
  5
FBD0
102
{ACAD_REACTORS
330
FBCF
102
}
330
FBCF
100
AcDbXrecord
280
     1
102
RTVSPost2010Prop28
280
     1
102
RTVSPost2010PropOp28
 70
     1
102
RTVSPost2010Prop29
280
     1
102
RTVSPost2010PropOp29
 70
     1
102
RTVSPost2010Prop30
280
     0
102
RTVSPost2010PropOp30
 70
     1
102
RTVSPost2010Prop31
280
     0
102
RTVSPost2010PropOp31
 70
     1
102
RTVSPost2010Prop32
280
     0
102
RTVSPost2010PropOp32
 70
     1
102
RTVSPost2010Prop33
280
     0
102
RTVSPost2010PropOp33
 70
     1
102
RTVSPost2010Prop34
280
     0
102
RTVSPost2010PropOp34
 70
     1
102
RTVSPost2010Prop35
280
     0
102
RTVSPost2010PropOp35
 70
     1
102
RTVSPost2010Prop36
280
     0
102
RTVSPost2010PropOp36
 70
     1
102
RTVSPost2010Prop37
 90
       50
102
RTVSPost2010PropOp37
 70
     1
102
RTVSPost2010Prop38
140
0.0
102
RTVSPost2010PropOp38
 70
     1
102
RTVSPost2010Prop39
140
1.0
102
RTVSPost2010PropOp39
 70
     1
102
RTVSPost2010Prop40
 90
        0
102
RTVSPost2010PropOp40
 70
     1
102
RTVSPost2010Prop41ColorIndex
 90
       18
102
RTVSPost2010Prop41ColorRGB
 90
        0
102
RTVSPost2010PropOp41
 70
     1
102
RTVSPost2010Prop42
 90
       50
102
RTVSPost2010PropOp42
 70
     1
102
RTVSPost2010Prop43
 90
        3
102
RTVSPost2010PropOp43
 70
     1
102
RTVSPost2010Prop44ColorIndex
 90
        5
102
RTVSPost2010Prop44ColorRGB
 90
      255
102
RTVSPost2010PropOp44
 70
     1
102
RTVSPost2010Prop45
280
     0
102
RTVSPost2010PropOp45
 70
     1
102
RTVSPost2010Prop46
 90
       50
102
RTVSPost2010PropOp46
 70
     1
102
RTVSPost2010Prop47
 90
       50
102
RTVSPost2010PropOp47
 70
     1
102
RTVSPost2010Prop48
 90
       50
102
RTVSPost2010PropOp48
 70
     1
102
RTVSPost2010Prop49
280
     0
102
RTVSPost2010PropOp49
 70
     1
102
RTVSPost2010Prop50
 90
       50
102
RTVSPost2010PropOp50
 70
     1
102
RTVSPost2010Prop51ColorIndex
 90
      256
102
RTVSPost2010Prop51ColorRGB
 90
-16777216
102
RTVSPost2010PropOp51
 70
     0
102
RTVSPost2010Prop52
140
1.0
102
RTVSPost2010PropOp52
 70
     0
102
RTVSPost2010Prop53
 90
        2
102
RTVSPost2010PropOp53
 70
     1
102
RTVSPost2010Prop54
  1
strokes_ogs.tif
102
RTVSPost2010PropOp54
 70
     1
102
RTVSPost2010Prop55
280
     0
102
RTVSPost2010PropOp55
 70
     1
102
RTVSPost2010Prop56
140
1.0
102
RTVSPost2010PropOp56
 70
     1
102
RTVSPost2010Prop57
140
1.0
102
RTVSPost2010PropOp57
 70
     1
102
RTVSPropertyOp0
 70
     1
102
RTVSPropertyOp1
 70
     1
102
RTVSPropertyOp2
 70
     1
102
RTVSPropertyOp3
 70
     1
102
RTVSPropertyOp4
 70
     1
102
RTVSPropertyOp5
 70
     1
102
RTVSPropertyOp6
 70
     1
102
RTVSPropertyOp7
 70
     1
102
RTVSPropertyOp8
 70
     1
102
RTVSPropertyOp9
 70
     1
102
RTVSPropertyOp10
 70
     1
102
RTVSPropertyOp11
 70
     1
102
RTVSPropertyOp12
 70
     1
102
RTVSPropertyOp13
 70
     1
102
RTVSPropertyOp14
 70
     1
102
RTVSPropertyOp15
 70
     1
102
RTVSPropertyOp16
 70
     1
102
RTVSPropertyOp17
 70
     1
102
RTVSPropertyOp18
 70
     1
102
RTVSPropertyOp19
 70
     1
102
RTVSPropertyOp20
 70
     1
102
RTVSPropertyOp21
 70
     1
102
RTVSPropertyOp22
 70
     1
102
RTVSPropertyOp23
 70
     1
102
RTVSPropertyOp24
 70
     1
102
RTVSPropertyOp25
 70
     1
102
RTVSPropertyOp26
 70
     1
102
RTVSPropertyOp27
 70
     1
102
RTVSPropertyOp28
 70
     1
102
RTVSPropertyOp29
 70
     1
102
RTVSPropertyOp30
 70
     1
102
RTVSPropertyOp31
 70
     1
102
RTVSPropertyOp32
 70
     1
102
RTVSPropertyOp33
 70
     1
102
RTVSPropertyOp34
 70
     1
102
RTVSPropertyOp35
 70
     1
102
RTVSPropertyOp36
 70
     1
102
RTVSPropertyOp37
 70
     1
102
RTVSPropertyOp38
 70
     1
102
RTVSPropertyOp39
 70
     1
102
RTVSPropertyOp40
 70
     1
102
RTVSPropertyOp41
 70
     1
102
RTVSPropertyOp42
 70
     1
102
RTVSPropertyOp43
 70
     1
102
RTVSPropertyOp44
 70
     1
102
RTVSPropertyOp45
 70
     1
102
RTVSPropertyOp46
 70
     1
102
RTVSPropertyOp47
 70
     1
102
RTVSPropertyOp48
 70
     1
102
RTVSPropertyOp49
 70
     1
102
RTVSPropertyOp50
 70
     1
102
RTVSPropertyOp51
 70
     0
102
RTVSPropertyOp52
 70
     0
102
RTVSPropertyOp53
 70
     1
102
RTVSPropertyOp54
 70
     1
102
RTVSPropertyOp55
 70
     1
102
RTVSPropertyOp56
 70
     1
102
RTVSPropertyOp57
 70
     1
102
RTVSPropertyOp58
 70
     1
102
RTVSPropertyOp59
 70
     1
102
RTVSPropertyOp60
 70
     1
102
RTVSPropertyOp61
 70
     1
102
RTVSPropertyOp62
 70
     1
  0
XRECORD
  5
FBD4
102
{ACAD_REACTORS
330
FBD3
102
}
330
FBD3
100
AcDbXrecord
280
     1
102
RTVSPost2010Prop28
280
     0
102
RTVSPost2010PropOp28
 70
     1
102
RTVSPost2010Prop29
280
     1
102
RTVSPost2010PropOp29
 70
     1
102
RTVSPost2010Prop30
280
     1
102
RTVSPost2010PropOp30
 70
     1
102
RTVSPost2010Prop31
280
     0
102
RTVSPost2010PropOp31
 70
     1
102
RTVSPost2010Prop32
280
     0
102
RTVSPost2010PropOp32
 70
     1
102
RTVSPost2010Prop33
280
     0
102
RTVSPost2010PropOp33
 70
     1
102
RTVSPost2010Prop34
280
     0
102
RTVSPost2010PropOp34
 70
     1
102
RTVSPost2010Prop35
280
     0
102
RTVSPost2010PropOp35
 70
     1
102
RTVSPost2010Prop36
280
     0
102
RTVSPost2010PropOp36
 70
     1
102
RTVSPost2010Prop37
 90
       50
102
RTVSPost2010PropOp37
 70
     1
102
RTVSPost2010Prop38
140
0.0
102
RTVSPost2010PropOp38
 70
     1
102
RTVSPost2010Prop39
140
1.0
102
RTVSPost2010PropOp39
 70
     1
102
RTVSPost2010Prop40
 90
        0
102
RTVSPost2010PropOp40
 70
     1
102
RTVSPost2010Prop41ColorIndex
 90
       18
102
RTVSPost2010Prop41ColorRGB
 90
        0
102
RTVSPost2010PropOp41
 70
     1
102
RTVSPost2010Prop42
 90
       50
102
RTVSPost2010PropOp42
 70
     1
102
RTVSPost2010Prop43
 90
        3
102
RTVSPost2010PropOp43
 70
     1
102
RTVSPost2010Prop44ColorIndex
 90
        5
102
RTVSPost2010Prop44ColorRGB
 90
      255
102
RTVSPost2010PropOp44
 70
     1
102
RTVSPost2010Prop45
280
     0
102
RTVSPost2010PropOp45
 70
     1
102
RTVSPost2010Prop46
 90
       50
102
RTVSPost2010PropOp46
 70
     1
102
RTVSPost2010Prop47
 90
       50
102
RTVSPost2010PropOp47
 70
     1
102
RTVSPost2010Prop48
 90
       50
102
RTVSPost2010PropOp48
 70
     1
102
RTVSPost2010Prop49
280
     0
102
RTVSPost2010PropOp49
 70
     1
102
RTVSPost2010Prop50
 90
       50
102
RTVSPost2010PropOp50
 70
     1
102
RTVSPost2010Prop51ColorIndex
 90
      256
102
RTVSPost2010Prop51ColorRGB
 90
-16777216
102
RTVSPost2010PropOp51
 70
     0
102
RTVSPost2010Prop52
140
1.0
102
RTVSPost2010PropOp52
 70
     0
102
RTVSPost2010Prop53
 90
        2
102
RTVSPost2010PropOp53
 70
     1
102
RTVSPost2010Prop54
  1
strokes_ogs.tif
102
RTVSPost2010PropOp54
 70
     1
102
RTVSPost2010Prop55
280
     0
102
RTVSPost2010PropOp55
 70
     1
102
RTVSPost2010Prop56
140
1.0
102
RTVSPost2010PropOp56
 70
     1
102
RTVSPost2010Prop57
140
1.0
102
RTVSPost2010PropOp57
 70
     1
102
RTVSPropertyOp0
 70
     1
102
RTVSPropertyOp1
 70
     1
102
RTVSPropertyOp2
 70
     1
102
RTVSPropertyOp3
 70
     1
102
RTVSPropertyOp4
 70
     1
102
RTVSPropertyOp5
 70
     1
102
RTVSPropertyOp6
 70
     1
102
RTVSPropertyOp7
 70
     1
102
RTVSPropertyOp8
 70
     1
102
RTVSPropertyOp9
 70
     1
102
RTVSPropertyOp10
 70
     1
102
RTVSPropertyOp11
 70
     1
102
RTVSPropertyOp12
 70
     1
102
RTVSPropertyOp13
 70
     1
102
RTVSPropertyOp14
 70
     1
102
RTVSPropertyOp15
 70
     1
102
RTVSPropertyOp16
 70
     1
102
RTVSPropertyOp17
 70
     1
102
RTVSPropertyOp18
 70
     1
102
RTVSPropertyOp19
 70
     1
102
RTVSPropertyOp20
 70
     1
102
RTVSPropertyOp21
 70
     1
102
RTVSPropertyOp22
 70
     1
102
RTVSPropertyOp23
 70
     1
102
RTVSPropertyOp24
 70
     1
102
RTVSPropertyOp25
 70
     1
102
RTVSPropertyOp26
 70
     1
102
RTVSPropertyOp27
 70
     1
102
RTVSPropertyOp28
 70
     1
102
RTVSPropertyOp29
 70
     1
102
RTVSPropertyOp30
 70
     1
102
RTVSPropertyOp31
 70
     1
102
RTVSPropertyOp32
 70
     1
102
RTVSPropertyOp33
 70
     1
102
RTVSPropertyOp34
 70
     1
102
RTVSPropertyOp35
 70
     1
102
RTVSPropertyOp36
 70
     1
102
RTVSPropertyOp37
 70
     1
102
RTVSPropertyOp38
 70
     1
102
RTVSPropertyOp39
 70
     1
102
RTVSPropertyOp40
 70
     1
102
RTVSPropertyOp41
 70
     1
102
RTVSPropertyOp42
 70
     1
102
RTVSPropertyOp43
 70
     1
102
RTVSPropertyOp44
 70
     1
102
RTVSPropertyOp45
 70
     1
102
RTVSPropertyOp46
 70
     1
102
RTVSPropertyOp47
 70
     1
102
RTVSPropertyOp48
 70
     1
102
RTVSPropertyOp49
 70
     1
102
RTVSPropertyOp50
 70
     1
102
RTVSPropertyOp51
 70
     0
102
RTVSPropertyOp52
 70
     0
102
RTVSPropertyOp53
 70
     1
102
RTVSPropertyOp54
 70
     1
102
RTVSPropertyOp55
 70
     1
102
RTVSPropertyOp56
 70
     1
102
RTVSPropertyOp57
 70
     1
102
RTVSPropertyOp58
 70
     1
102
RTVSPropertyOp59
 70
     1
102
RTVSPropertyOp60
 70
     1
102
RTVSPropertyOp61
 70
     1
102
RTVSPropertyOp62
 70
     1
  0
XRECORD
  5
FBD2
102
{ACAD_REACTORS
330
FBD1
102
}
330
FBD1
100
AcDbXrecord
280
     1
102
RTVSPost2010Prop28
280
     0
102
RTVSPost2010PropOp28
 70
     1
102
RTVSPost2010Prop29
280
     1
102
RTVSPost2010PropOp29
 70
     1
102
RTVSPost2010Prop30
280
     1
102
RTVSPost2010PropOp30
 70
     1
102
RTVSPost2010Prop31
280
     0
102
RTVSPost2010PropOp31
 70
     1
102
RTVSPost2010Prop32
280
     0
102
RTVSPost2010PropOp32
 70
     1
102
RTVSPost2010Prop33
280
     0
102
RTVSPost2010PropOp33
 70
     1
102
RTVSPost2010Prop34
280
     0
102
RTVSPost2010PropOp34
 70
     1
102
RTVSPost2010Prop35
280
     0
102
RTVSPost2010PropOp35
 70
     1
102
RTVSPost2010Prop36
280
     0
102
RTVSPost2010PropOp36
 70
     1
102
RTVSPost2010Prop37
 90
       50
102
RTVSPost2010PropOp37
 70
     1
102
RTVSPost2010Prop38
140
0.0
102
RTVSPost2010PropOp38
 70
     1
102
RTVSPost2010Prop39
140
1.0
102
RTVSPost2010PropOp39
 70
     1
102
RTVSPost2010Prop40
 90
        0
102
RTVSPost2010PropOp40
 70
     1
102
RTVSPost2010Prop41ColorIndex
 90
       18
102
RTVSPost2010Prop41ColorRGB
 90
        0
102
RTVSPost2010PropOp41
 70
     1
102
RTVSPost2010Prop42
 90
       50
102
RTVSPost2010PropOp42
 70
     1
102
RTVSPost2010Prop43
 90
        3
102
RTVSPost2010PropOp43
 70
     1
102
RTVSPost2010Prop44ColorIndex
 90
        5
102
RTVSPost2010Prop44ColorRGB
 90
      255
102
RTVSPost2010PropOp44
 70
     1
102
RTVSPost2010Prop45
280
     0
102
RTVSPost2010PropOp45
 70
     1
102
RTVSPost2010Prop46
 90
       50
102
RTVSPost2010PropOp46
 70
     1
102
RTVSPost2010Prop47
 90
       50
102
RTVSPost2010PropOp47
 70
     1
102
RTVSPost2010Prop48
 90
       50
102
RTVSPost2010PropOp48
 70
     1
102
RTVSPost2010Prop49
280
     0
102
RTVSPost2010PropOp49
 70
     1
102
RTVSPost2010Prop50
 90
       50
102
RTVSPost2010PropOp50
 70
     1
102
RTVSPost2010Prop51ColorIndex
 90
      256
102
RTVSPost2010Prop51ColorRGB
 90
-16777216
102
RTVSPost2010PropOp51
 70
     0
102
RTVSPost2010Prop52
140
1.0
102
RTVSPost2010PropOp52
 70
     0
102
RTVSPost2010Prop53
 90
        2
102
RTVSPost2010PropOp53
 70
     1
102
RTVSPost2010Prop54
  1
strokes_ogs.tif
102
RTVSPost2010PropOp54
 70
     1
102
RTVSPost2010Prop55
280
     0
102
RTVSPost2010PropOp55
 70
     1
102
RTVSPost2010Prop56
140
1.0
102
RTVSPost2010PropOp56
 70
     1
102
RTVSPost2010Prop57
140
1.0
102
RTVSPost2010PropOp57
 70
     1
102
RTVSPropertyOp0
 70
     1
102
RTVSPropertyOp1
 70
     1
102
RTVSPropertyOp2
 70
     1
102
RTVSPropertyOp3
 70
     1
102
RTVSPropertyOp4
 70
     1
102
RTVSPropertyOp5
 70
     1
102
RTVSPropertyOp6
 70
     1
102
RTVSPropertyOp7
 70
     1
102
RTVSPropertyOp8
 70
     1
102
RTVSPropertyOp9
 70
     1
102
RTVSPropertyOp10
 70
     1
102
RTVSPropertyOp11
 70
     1
102
RTVSPropertyOp12
 70
     1
102
RTVSPropertyOp13
 70
     1
102
RTVSPropertyOp14
 70
     1
102
RTVSPropertyOp15
 70
     1
102
RTVSPropertyOp16
 70
     1
102
RTVSPropertyOp17
 70
     1
102
RTVSPropertyOp18
 70
     1
102
RTVSPropertyOp19
 70
     1
102
RTVSPropertyOp20
 70
     1
102
RTVSPropertyOp21
 70
     1
102
RTVSPropertyOp22
 70
     1
102
RTVSPropertyOp23
 70
     1
102
RTVSPropertyOp24
 70
     1
102
RTVSPropertyOp25
 70
     1
102
RTVSPropertyOp26
 70
     1
102
RTVSPropertyOp27
 70
     1
102
RTVSPropertyOp28
 70
     1
102
RTVSPropertyOp29
 70
     1
102
RTVSPropertyOp30
 70
     1
102
RTVSPropertyOp31
 70
     1
102
RTVSPropertyOp32
 70
     1
102
RTVSPropertyOp33
 70
     1
102
RTVSPropertyOp34
 70
     1
102
RTVSPropertyOp35
 70
     1
102
RTVSPropertyOp36
 70
     1
102
RTVSPropertyOp37
 70
     1
102
RTVSPropertyOp38
 70
     1
102
RTVSPropertyOp39
 70
     1
102
RTVSPropertyOp40
 70
     1
102
RTVSPropertyOp41
 70
     1
102
RTVSPropertyOp42
 70
     1
102
RTVSPropertyOp43
 70
     1
102
RTVSPropertyOp44
 70
     1
102
RTVSPropertyOp45
 70
     1
102
RTVSPropertyOp46
 70
     1
102
RTVSPropertyOp47
 70
     1
102
RTVSPropertyOp48
 70
     1
102
RTVSPropertyOp49
 70
     1
102
RTVSPropertyOp50
 70
     1
102
RTVSPropertyOp51
 70
     0
102
RTVSPropertyOp52
 70
     0
102
RTVSPropertyOp53
 70
     1
102
RTVSPropertyOp54
 70
     1
102
RTVSPropertyOp55
 70
     1
102
RTVSPropertyOp56
 70
     1
102
RTVSPropertyOp57
 70
     1
102
RTVSPropertyOp58
 70
     1
102
RTVSPropertyOp59
 70
     1
102
RTVSPropertyOp60
 70
     1
102
RTVSPropertyOp61
 70
     1
102
RTVSPropertyOp62
 70
     1
  0
XRECORD
  5
FBCE
102
{ACAD_REACTORS
330
FBCD
102
}
330
FBCD
100
AcDbXrecord
280
     1
102
RTVSPost2010Prop28
280
     0
102
RTVSPost2010PropOp28
 70
     1
102
RTVSPost2010Prop29
280
     1
102
RTVSPost2010PropOp29
 70
     1
102
RTVSPost2010Prop30
280
     1
102
RTVSPost2010PropOp30
 70
     1
102
RTVSPost2010Prop31
280
     0
102
RTVSPost2010PropOp31
 70
     1
102
RTVSPost2010Prop32
280
     0
102
RTVSPost2010PropOp32
 70
     1
102
RTVSPost2010Prop33
280
     0
102
RTVSPost2010PropOp33
 70
     1
102
RTVSPost2010Prop34
280
     0
102
RTVSPost2010PropOp34
 70
     1
102
RTVSPost2010Prop35
280
     0
102
RTVSPost2010PropOp35
 70
     1
102
RTVSPost2010Prop36
280
     0
102
RTVSPost2010PropOp36
 70
     1
102
RTVSPost2010Prop37
 90
       50
102
RTVSPost2010PropOp37
 70
     1
102
RTVSPost2010Prop38
140
0.0
102
RTVSPost2010PropOp38
 70
     1
102
RTVSPost2010Prop39
140
1.0
102
RTVSPost2010PropOp39
 70
     1
102
RTVSPost2010Prop40
 90
        0
102
RTVSPost2010PropOp40
 70
     1
102
RTVSPost2010Prop41ColorIndex
 90
       18
102
RTVSPost2010Prop41ColorRGB
 90
        0
102
RTVSPost2010PropOp41
 70
     1
102
RTVSPost2010Prop42
 90
       50
102
RTVSPost2010PropOp42
 70
     1
102
RTVSPost2010Prop43
 90
        3
102
RTVSPost2010PropOp43
 70
     1
102
RTVSPost2010Prop44ColorIndex
 90
        5
102
RTVSPost2010Prop44ColorRGB
 90
      255
102
RTVSPost2010PropOp44
 70
     1
102
RTVSPost2010Prop45
280
     0
102
RTVSPost2010PropOp45
 70
     1
102
RTVSPost2010Prop46
 90
       50
102
RTVSPost2010PropOp46
 70
     1
102
RTVSPost2010Prop47
 90
       50
102
RTVSPost2010PropOp47
 70
     1
102
RTVSPost2010Prop48
 90
       50
102
RTVSPost2010PropOp48
 70
     1
102
RTVSPost2010Prop49
280
     0
102
RTVSPost2010PropOp49
 70
     1
102
RTVSPost2010Prop50
 90
       50
102
RTVSPost2010PropOp50
 70
     1
102
RTVSPost2010Prop51ColorIndex
 90
      256
102
RTVSPost2010Prop51ColorRGB
 90
-16777216
102
RTVSPost2010PropOp51
 70
     0
102
RTVSPost2010Prop52
140
1.0
102
RTVSPost2010PropOp52
 70
     0
102
RTVSPost2010Prop53
 90
        2
102
RTVSPost2010PropOp53
 70
     1
102
RTVSPost2010Prop54
  1
strokes_ogs.tif
102
RTVSPost2010PropOp54
 70
     1
102
RTVSPost2010Prop55
280
     0
102
RTVSPost2010PropOp55
 70
     1
102
RTVSPost2010Prop56
140
1.0
102
RTVSPost2010PropOp56
 70
     1
102
RTVSPost2010Prop57
140
1.0
102
RTVSPost2010PropOp57
 70
     1
102
RTVSPropertyOp0
 70
     1
102
RTVSPropertyOp1
 70
     1
102
RTVSPropertyOp2
 70
     1
102
RTVSPropertyOp3
 70
     1
102
RTVSPropertyOp4
 70
     1
102
RTVSPropertyOp5
 70
     1
102
RTVSPropertyOp6
 70
     1
102
RTVSPropertyOp7
 70
     1
102
RTVSPropertyOp8
 70
     1
102
RTVSPropertyOp9
 70
     1
102
RTVSPropertyOp10
 70
     1
102
RTVSPropertyOp11
 70
     1
102
RTVSPropertyOp12
 70
     1
102
RTVSPropertyOp13
 70
     1
102
RTVSPropertyOp14
 70
     1
102
RTVSPropertyOp15
 70
     1
102
RTVSPropertyOp16
 70
     1
102
RTVSPropertyOp17
 70
     1
102
RTVSPropertyOp18
 70
     1
102
RTVSPropertyOp19
 70
     1
102
RTVSPropertyOp20
 70
     1
102
RTVSPropertyOp21
 70
     1
102
RTVSPropertyOp22
 70
     1
102
RTVSPropertyOp23
 70
     1
102
RTVSPropertyOp24
 70
     1
102
RTVSPropertyOp25
 70
     1
102
RTVSPropertyOp26
 70
     1
102
RTVSPropertyOp27
 70
     1
102
RTVSPropertyOp28
 70
     1
102
RTVSPropertyOp29
 70
     1
102
RTVSPropertyOp30
 70
     1
102
RTVSPropertyOp31
 70
     1
102
RTVSPropertyOp32
 70
     1
102
RTVSPropertyOp33
 70
     1
102
RTVSPropertyOp34
 70
     1
102
RTVSPropertyOp35
 70
     1
102
RTVSPropertyOp36
 70
     1
102
RTVSPropertyOp37
 70
     1
102
RTVSPropertyOp38
 70
     1
102
RTVSPropertyOp39
 70
     1
102
RTVSPropertyOp40
 70
     1
102
RTVSPropertyOp41
 70
     1
102
RTVSPropertyOp42
 70
     1
102
RTVSPropertyOp43
 70
     1
102
RTVSPropertyOp44
 70
     1
102
RTVSPropertyOp45
 70
     1
102
RTVSPropertyOp46
 70
     1
102
RTVSPropertyOp47
 70
     1
102
RTVSPropertyOp48
 70
     1
102
RTVSPropertyOp49
 70
     1
102
RTVSPropertyOp50
 70
     1
102
RTVSPropertyOp51
 70
     0
102
RTVSPropertyOp52
 70
     0
102
RTVSPropertyOp53
 70
     1
102
RTVSPropertyOp54
 70
     1
102
RTVSPropertyOp55
 70
     1
102
RTVSPropertyOp56
 70
     1
102
RTVSPropertyOp57
 70
     1
102
RTVSPropertyOp58
 70
     1
102
RTVSPropertyOp59
 70
     1
102
RTVSPropertyOp60
 70
     1
102
RTVSPropertyOp61
 70
     1
102
RTVSPropertyOp62
 70
     1
  0
XRECORD
  5
FBDC
102
{ACAD_REACTORS
330
FBDB
102
}
330
FBDB
100
AcDbXrecord
280
     1
102
RTVSPost2010Prop28
280
     0
102
RTVSPost2010PropOp28
 70
     1
102
RTVSPost2010Prop29
280
     1
102
RTVSPost2010PropOp29
 70
     1
102
RTVSPost2010Prop30
280
     1
102
RTVSPost2010PropOp30
 70
     1
102
RTVSPost2010Prop31
280
     0
102
RTVSPost2010PropOp31
 70
     1
102
RTVSPost2010Prop32
280
     0
102
RTVSPost2010PropOp32
 70
     1
102
RTVSPost2010Prop33
280
     0
102
RTVSPost2010PropOp33
 70
     1
102
RTVSPost2010Prop34
280
     0
102
RTVSPost2010PropOp34
 70
     1
102
RTVSPost2010Prop35
280
     0
102
RTVSPost2010PropOp35
 70
     1
102
RTVSPost2010Prop36
280
     0
102
RTVSPost2010PropOp36
 70
     1
102
RTVSPost2010Prop37
 90
       50
102
RTVSPost2010PropOp37
 70
     1
102
RTVSPost2010Prop38
140
0.0
102
RTVSPost2010PropOp38
 70
     1
102
RTVSPost2010Prop39
140
1.0
102
RTVSPost2010PropOp39
 70
     1
102
RTVSPost2010Prop40
 90
        0
102
RTVSPost2010PropOp40
 70
     1
102
RTVSPost2010Prop41ColorIndex
 90
       18
102
RTVSPost2010Prop41ColorRGB
 90
        0
102
RTVSPost2010PropOp41
 70
     1
102
RTVSPost2010Prop42
 90
       50
102
RTVSPost2010PropOp42
 70
     1
102
RTVSPost2010Prop43
 90
        3
102
RTVSPost2010PropOp43
 70
     1
102
RTVSPost2010Prop44ColorIndex
 90
        5
102
RTVSPost2010Prop44ColorRGB
 90
      255
102
RTVSPost2010PropOp44
 70
     1
102
RTVSPost2010Prop45
280
     0
102
RTVSPost2010PropOp45
 70
     1
102
RTVSPost2010Prop46
 90
       50
102
RTVSPost2010PropOp46
 70
     1
102
RTVSPost2010Prop47
 90
       50
102
RTVSPost2010PropOp47
 70
     1
102
RTVSPost2010Prop48
 90
       50
102
RTVSPost2010PropOp48
 70
     1
102
RTVSPost2010Prop49
280
     0
102
RTVSPost2010PropOp49
 70
     1
102
RTVSPost2010Prop50
 90
       50
102
RTVSPost2010PropOp50
 70
     1
102
RTVSPost2010Prop51ColorIndex
 90
      256
102
RTVSPost2010Prop51ColorRGB
 90
-16777216
102
RTVSPost2010PropOp51
 70
     0
102
RTVSPost2010Prop52
140
1.0
102
RTVSPost2010PropOp52
 70
     0
102
RTVSPost2010Prop53
 90
        2
102
RTVSPost2010PropOp53
 70
     1
102
RTVSPost2010Prop54
  1
strokes_ogs.tif
102
RTVSPost2010PropOp54
 70
     1
102
RTVSPost2010Prop55
280
     0
102
RTVSPost2010PropOp55
 70
     1
102
RTVSPost2010Prop56
140
1.0
102
RTVSPost2010PropOp56
 70
     1
102
RTVSPost2010Prop57
140
1.0
102
RTVSPost2010PropOp57
 70
     1
102
RTVSPropertyOp0
 70
     1
102
RTVSPropertyOp1
 70
     1
102
RTVSPropertyOp2
 70
     1
102
RTVSPropertyOp3
 70
     1
102
RTVSPropertyOp4
 70
     1
102
RTVSPropertyOp5
 70
     1
102
RTVSPropertyOp6
 70
     1
102
RTVSPropertyOp7
 70
     1
102
RTVSPropertyOp8
 70
     1
102
RTVSPropertyOp9
 70
     1
102
RTVSPropertyOp10
 70
     1
102
RTVSPropertyOp11
 70
     1
102
RTVSPropertyOp12
 70
     1
102
RTVSPropertyOp13
 70
     1
102
RTVSPropertyOp14
 70
     1
102
RTVSPropertyOp15
 70
     1
102
RTVSPropertyOp16
 70
     1
102
RTVSPropertyOp17
 70
     1
102
RTVSPropertyOp18
 70
     1
102
RTVSPropertyOp19
 70
     1
102
RTVSPropertyOp20
 70
     1
102
RTVSPropertyOp21
 70
     1
102
RTVSPropertyOp22
 70
     1
102
RTVSPropertyOp23
 70
     1
102
RTVSPropertyOp24
 70
     1
102
RTVSPropertyOp25
 70
     1
102
RTVSPropertyOp26
 70
     1
102
RTVSPropertyOp27
 70
     1
102
RTVSPropertyOp28
 70
     1
102
RTVSPropertyOp29
 70
     1
102
RTVSPropertyOp30
 70
     1
102
RTVSPropertyOp31
 70
     1
102
RTVSPropertyOp32
 70
     1
102
RTVSPropertyOp33
 70
     1
102
RTVSPropertyOp34
 70
     1
102
RTVSPropertyOp35
 70
     1
102
RTVSPropertyOp36
 70
     1
102
RTVSPropertyOp37
 70
     1
102
RTVSPropertyOp38
 70
     1
102
RTVSPropertyOp39
 70
     1
102
RTVSPropertyOp40
 70
     1
102
RTVSPropertyOp41
 70
     1
102
RTVSPropertyOp42
 70
     1
102
RTVSPropertyOp43
 70
     1
102
RTVSPropertyOp44
 70
     1
102
RTVSPropertyOp45
 70
     1
102
RTVSPropertyOp46
 70
     1
102
RTVSPropertyOp47
 70
     1
102
RTVSPropertyOp48
 70
     1
102
RTVSPropertyOp49
 70
     1
102
RTVSPropertyOp50
 70
     1
102
RTVSPropertyOp51
 70
     0
102
RTVSPropertyOp52
 70
     0
102
RTVSPropertyOp53
 70
     1
102
RTVSPropertyOp54
 70
     1
102
RTVSPropertyOp55
 70
     1
102
RTVSPropertyOp56
 70
     1
102
RTVSPropertyOp57
 70
     1
102
RTVSPropertyOp58
 70
     1
102
RTVSPropertyOp59
 70
     1
102
RTVSPropertyOp60
 70
     1
102
RTVSPropertyOp61
 70
     1
102
RTVSPropertyOp62
 70
     1
  0
XRECORD
  5
FBE4
102
{ACAD_REACTORS
330
FBE3
102
}
330
FBE3
100
AcDbXrecord
280
     1
102
RTVSPost2010Prop28
280
     0
102
RTVSPost2010PropOp28
 70
     1
102
RTVSPost2010Prop29
280
     1
102
RTVSPost2010PropOp29
 70
     1
102
RTVSPost2010Prop30
280
     1
102
RTVSPost2010PropOp30
 70
     1
102
RTVSPost2010Prop31
280
     0
102
RTVSPost2010PropOp31
 70
     1
102
RTVSPost2010Prop32
280
     0
102
RTVSPost2010PropOp32
 70
     1
102
RTVSPost2010Prop33
280
     0
102
RTVSPost2010PropOp33
 70
     1
102
RTVSPost2010Prop34
280
     0
102
RTVSPost2010PropOp34
 70
     1
102
RTVSPost2010Prop35
280
     0
102
RTVSPost2010PropOp35
 70
     1
102
RTVSPost2010Prop36
280
     0
102
RTVSPost2010PropOp36
 70
     1
102
RTVSPost2010Prop37
 90
       50
102
RTVSPost2010PropOp37
 70
     1
102
RTVSPost2010Prop38
140
0.0
102
RTVSPost2010PropOp38
 70
     1
102
RTVSPost2010Prop39
140
1.0
102
RTVSPost2010PropOp39
 70
     1
102
RTVSPost2010Prop40
 90
        0
102
RTVSPost2010PropOp40
 70
     1
102
RTVSPost2010Prop41ColorIndex
 90
       18
102
RTVSPost2010Prop41ColorRGB
 90
        0
102
RTVSPost2010PropOp41
 70
     1
102
RTVSPost2010Prop42
 90
       50
102
RTVSPost2010PropOp42
 70
     1
102
RTVSPost2010Prop43
 90
        3
102
RTVSPost2010PropOp43
 70
     1
102
RTVSPost2010Prop44ColorIndex
 90
        5
102
RTVSPost2010Prop44ColorRGB
 90
      255
102
RTVSPost2010PropOp44
 70
     1
102
RTVSPost2010Prop45
280
     0
102
RTVSPost2010PropOp45
 70
     1
102
RTVSPost2010Prop46
 90
       50
102
RTVSPost2010PropOp46
 70
     1
102
RTVSPost2010Prop47
 90
       50
102
RTVSPost2010PropOp47
 70
     1
102
RTVSPost2010Prop48
 90
       50
102
RTVSPost2010PropOp48
 70
     1
102
RTVSPost2010Prop49
280
     0
102
RTVSPost2010PropOp49
 70
     1
102
RTVSPost2010Prop50
 90
       50
102
RTVSPost2010PropOp50
 70
     1
102
RTVSPost2010Prop51ColorIndex
 90
      256
102
RTVSPost2010Prop51ColorRGB
 90
-16777216
102
RTVSPost2010PropOp51
 70
     0
102
RTVSPost2010Prop52
140
1.0
102
RTVSPost2010PropOp52
 70
     0
102
RTVSPost2010Prop53
 90
        2
102
RTVSPost2010PropOp53
 70
     1
102
RTVSPost2010Prop54
  1
strokes_ogs.tif
102
RTVSPost2010PropOp54
 70
     1
102
RTVSPost2010Prop55
280
     0
102
RTVSPost2010PropOp55
 70
     1
102
RTVSPost2010Prop56
140
1.0
102
RTVSPost2010PropOp56
 70
     1
102
RTVSPost2010Prop57
140
1.0
102
RTVSPost2010PropOp57
 70
     1
102
RTVSPropertyOp0
 70
     1
102
RTVSPropertyOp1
 70
     1
102
RTVSPropertyOp2
 70
     1
102
RTVSPropertyOp3
 70
     1
102
RTVSPropertyOp4
 70
     1
102
RTVSPropertyOp5
 70
     1
102
RTVSPropertyOp6
 70
     1
102
RTVSPropertyOp7
 70
     1
102
RTVSPropertyOp8
 70
     1
102
RTVSPropertyOp9
 70
     1
102
RTVSPropertyOp10
 70
     1
102
RTVSPropertyOp11
 70
     1
102
RTVSPropertyOp12
 70
     1
102
RTVSPropertyOp13
 70
     1
102
RTVSPropertyOp14
 70
     1
102
RTVSPropertyOp15
 70
     1
102
RTVSPropertyOp16
 70
     1
102
RTVSPropertyOp17
 70
     1
102
RTVSPropertyOp18
 70
     1
102
RTVSPropertyOp19
 70
     1
102
RTVSPropertyOp20
 70
     1
102
RTVSPropertyOp21
 70
     1
102
RTVSPropertyOp22
 70
     1
102
RTVSPropertyOp23
 70
     1
102
RTVSPropertyOp24
 70
     1
102
RTVSPropertyOp25
 70
     1
102
RTVSPropertyOp26
 70
     1
102
RTVSPropertyOp27
 70
     1
102
RTVSPropertyOp28
 70
     1
102
RTVSPropertyOp29
 70
     1
102
RTVSPropertyOp30
 70
     1
102
RTVSPropertyOp31
 70
     1
102
RTVSPropertyOp32
 70
     1
102
RTVSPropertyOp33
 70
     1
102
RTVSPropertyOp34
 70
     1
102
RTVSPropertyOp35
 70
     1
102
RTVSPropertyOp36
 70
     1
102
RTVSPropertyOp37
 70
     1
102
RTVSPropertyOp38
 70
     1
102
RTVSPropertyOp39
 70
     1
102
RTVSPropertyOp40
 70
     1
102
RTVSPropertyOp41
 70
     1
102
RTVSPropertyOp42
 70
     1
102
RTVSPropertyOp43
 70
     1
102
RTVSPropertyOp44
 70
     1
102
RTVSPropertyOp45
 70
     1
102
RTVSPropertyOp46
 70
     1
102
RTVSPropertyOp47
 70
     1
102
RTVSPropertyOp48
 70
     1
102
RTVSPropertyOp49
 70
     1
102
RTVSPropertyOp50
 70
     1
102
RTVSPropertyOp51
 70
     0
102
RTVSPropertyOp52
 70
     0
102
RTVSPropertyOp53
 70
     1
102
RTVSPropertyOp54
 70
     1
102
RTVSPropertyOp55
 70
     1
102
RTVSPropertyOp56
 70
     1
102
RTVSPropertyOp57
 70
     1
102
RTVSPropertyOp58
 70
     1
102
RTVSPropertyOp59
 70
     1
102
RTVSPropertyOp60
 70
     1
102
RTVSPropertyOp61
 70
     1
102
RTVSPropertyOp62
 70
     1
  0
XRECORD
  5
FBD6
102
{ACAD_REACTORS
330
FBD5
102
}
330
FBD5
100
AcDbXrecord
280
     1
102
RTVSPost2010Prop28
280
     0
102
RTVSPost2010PropOp28
 70
     1
102
RTVSPost2010Prop29
280
     1
102
RTVSPost2010PropOp29
 70
     1
102
RTVSPost2010Prop30
280
     1
102
RTVSPost2010PropOp30
 70
     1
102
RTVSPost2010Prop31
280
     0
102
RTVSPost2010PropOp31
 70
     1
102
RTVSPost2010Prop32
280
     0
102
RTVSPost2010PropOp32
 70
     1
102
RTVSPost2010Prop33
280
     0
102
RTVSPost2010PropOp33
 70
     1
102
RTVSPost2010Prop34
280
     0
102
RTVSPost2010PropOp34
 70
     1
102
RTVSPost2010Prop35
280
     0
102
RTVSPost2010PropOp35
 70
     1
102
RTVSPost2010Prop36
280
     0
102
RTVSPost2010PropOp36
 70
     1
102
RTVSPost2010Prop37
 90
       50
102
RTVSPost2010PropOp37
 70
     1
102
RTVSPost2010Prop38
140
0.0
102
RTVSPost2010PropOp38
 70
     1
102
RTVSPost2010Prop39
140
1.0
102
RTVSPost2010PropOp39
 70
     1
102
RTVSPost2010Prop40
 90
        0
102
RTVSPost2010PropOp40
 70
     1
102
RTVSPost2010Prop41ColorIndex
 90
       18
102
RTVSPost2010Prop41ColorRGB
 90
        0
102
RTVSPost2010PropOp41
 70
     1
102
RTVSPost2010Prop42
 90
       50
102
RTVSPost2010PropOp42
 70
     1
102
RTVSPost2010Prop43
 90
        3
102
RTVSPost2010PropOp43
 70
     1
102
RTVSPost2010Prop44ColorIndex
 90
        5
102
RTVSPost2010Prop44ColorRGB
 90
      255
102
RTVSPost2010PropOp44
 70
     1
102
RTVSPost2010Prop45
280
     0
102
RTVSPost2010PropOp45
 70
     1
102
RTVSPost2010Prop46
 90
       50
102
RTVSPost2010PropOp46
 70
     1
102
RTVSPost2010Prop47
 90
       50
102
RTVSPost2010PropOp47
 70
     1
102
RTVSPost2010Prop48
 90
       50
102
RTVSPost2010PropOp48
 70
     1
102
RTVSPost2010Prop49
280
     0
102
RTVSPost2010PropOp49
 70
     1
102
RTVSPost2010Prop50
 90
       50
102
RTVSPost2010PropOp50
 70
     1
102
RTVSPost2010Prop51ColorIndex
 90
      256
102
RTVSPost2010Prop51ColorRGB
 90
-16777216
102
RTVSPost2010PropOp51
 70
     0
102
RTVSPost2010Prop52
140
1.0
102
RTVSPost2010PropOp52
 70
     0
102
RTVSPost2010Prop53
 90
        2
102
RTVSPost2010PropOp53
 70
     1
102
RTVSPost2010Prop54
  1
strokes_ogs.tif
102
RTVSPost2010PropOp54
 70
     1
102
RTVSPost2010Prop55
280
     0
102
RTVSPost2010PropOp55
 70
     1
102
RTVSPost2010Prop56
140
1.0
102
RTVSPost2010PropOp56
 70
     1
102
RTVSPost2010Prop57
140
1.0
102
RTVSPost2010PropOp57
 70
     1
102
RTVSPropertyOp0
 70
     1
102
RTVSPropertyOp1
 70
     1
102
RTVSPropertyOp2
 70
     1
102
RTVSPropertyOp3
 70
     1
102
RTVSPropertyOp4
 70
     1
102
RTVSPropertyOp5
 70
     1
102
RTVSPropertyOp6
 70
     1
102
RTVSPropertyOp7
 70
     1
102
RTVSPropertyOp8
 70
     1
102
RTVSPropertyOp9
 70
     1
102
RTVSPropertyOp10
 70
     1
102
RTVSPropertyOp11
 70
     1
102
RTVSPropertyOp12
 70
     1
102
RTVSPropertyOp13
 70
     1
102
RTVSPropertyOp14
 70
     1
102
RTVSPropertyOp15
 70
     1
102
RTVSPropertyOp16
 70
     1
102
RTVSPropertyOp17
 70
     1
102
RTVSPropertyOp18
 70
     1
102
RTVSPropertyOp19
 70
     1
102
RTVSPropertyOp20
 70
     1
102
RTVSPropertyOp21
 70
     1
102
RTVSPropertyOp22
 70
     1
102
RTVSPropertyOp23
 70
     1
102
RTVSPropertyOp24
 70
     1
102
RTVSPropertyOp25
 70
     1
102
RTVSPropertyOp26
 70
     1
102
RTVSPropertyOp27
 70
     1
102
RTVSPropertyOp28
 70
     1
102
RTVSPropertyOp29
 70
     1
102
RTVSPropertyOp30
 70
     1
102
RTVSPropertyOp31
 70
     1
102
RTVSPropertyOp32
 70
     1
102
RTVSPropertyOp33
 70
     1
102
RTVSPropertyOp34
 70
     1
102
RTVSPropertyOp35
 70
     1
102
RTVSPropertyOp36
 70
     1
102
RTVSPropertyOp37
 70
     1
102
RTVSPropertyOp38
 70
     1
102
RTVSPropertyOp39
 70
     1
102
RTVSPropertyOp40
 70
     1
102
RTVSPropertyOp41
 70
     1
102
RTVSPropertyOp42
 70
     1
102
RTVSPropertyOp43
 70
     1
102
RTVSPropertyOp44
 70
     1
102
RTVSPropertyOp45
 70
     1
102
RTVSPropertyOp46
 70
     1
102
RTVSPropertyOp47
 70
     1
102
RTVSPropertyOp48
 70
     1
102
RTVSPropertyOp49
 70
     1
102
RTVSPropertyOp50
 70
     1
102
RTVSPropertyOp51
 70
     0
102
RTVSPropertyOp52
 70
     0
102
RTVSPropertyOp53
 70
     1
102
RTVSPropertyOp54
 70
     1
102
RTVSPropertyOp55
 70
     1
102
RTVSPropertyOp56
 70
     1
102
RTVSPropertyOp57
 70
     1
102
RTVSPropertyOp58
 70
     1
102
RTVSPropertyOp59
 70
     1
102
RTVSPropertyOp60
 70
     1
102
RTVSPropertyOp61
 70
     1
102
RTVSPropertyOp62
 70
     1
  0
XRECORD
  5
FBDA
102
{ACAD_REACTORS
330
FBD9
102
}
330
FBD9
100
AcDbXrecord
280
     1
102
RTVSPost2010Prop28
280
     0
102
RTVSPost2010PropOp28
 70
     1
102
RTVSPost2010Prop29
280
     1
102
RTVSPost2010PropOp29
 70
     1
102
RTVSPost2010Prop30
280
     1
102
RTVSPost2010PropOp30
 70
     1
102
RTVSPost2010Prop31
280
     0
102
RTVSPost2010PropOp31
 70
     1
102
RTVSPost2010Prop32
280
     0
102
RTVSPost2010PropOp32
 70
     1
102
RTVSPost2010Prop33
280
     0
102
RTVSPost2010PropOp33
 70
     1
102
RTVSPost2010Prop34
280
     0
102
RTVSPost2010PropOp34
 70
     1
102
RTVSPost2010Prop35
280
     0
102
RTVSPost2010PropOp35
 70
     1
102
RTVSPost2010Prop36
280
     0
102
RTVSPost2010PropOp36
 70
     1
102
RTVSPost2010Prop37
 90
       50
102
RTVSPost2010PropOp37
 70
     1
102
RTVSPost2010Prop38
140
0.0
102
RTVSPost2010PropOp38
 70
     1
102
RTVSPost2010Prop39
140
1.0
102
RTVSPost2010PropOp39
 70
     1
102
RTVSPost2010Prop40
 90
        0
102
RTVSPost2010PropOp40
 70
     1
102
RTVSPost2010Prop41ColorIndex
 90
       18
102
RTVSPost2010Prop41ColorRGB
 90
        0
102
RTVSPost2010PropOp41
 70
     1
102
RTVSPost2010Prop42
 90
       50
102
RTVSPost2010PropOp42
 70
     1
102
RTVSPost2010Prop43
 90
        3
102
RTVSPost2010PropOp43
 70
     1
102
RTVSPost2010Prop44ColorIndex
 90
        5
102
RTVSPost2010Prop44ColorRGB
 90
      255
102
RTVSPost2010PropOp44
 70
     1
102
RTVSPost2010Prop45
280
     0
102
RTVSPost2010PropOp45
 70
     1
102
RTVSPost2010Prop46
 90
       50
102
RTVSPost2010PropOp46
 70
     1
102
RTVSPost2010Prop47
 90
       50
102
RTVSPost2010PropOp47
 70
     1
102
RTVSPost2010Prop48
 90
       50
102
RTVSPost2010PropOp48
 70
     1
102
RTVSPost2010Prop49
280
     0
102
RTVSPost2010PropOp49
 70
     1
102
RTVSPost2010Prop50
 90
       50
102
RTVSPost2010PropOp50
 70
     1
102
RTVSPost2010Prop51ColorIndex
 90
      256
102
RTVSPost2010Prop51ColorRGB
 90
-16777216
102
RTVSPost2010PropOp51
 70
     0
102
RTVSPost2010Prop52
140
1.0
102
RTVSPost2010PropOp52
 70
     0
102
RTVSPost2010Prop53
 90
        2
102
RTVSPost2010PropOp53
 70
     1
102
RTVSPost2010Prop54
  1
strokes_ogs.tif
102
RTVSPost2010PropOp54
 70
     1
102
RTVSPost2010Prop55
280
     0
102
RTVSPost2010PropOp55
 70
     1
102
RTVSPost2010Prop56
140
1.0
102
RTVSPost2010PropOp56
 70
     1
102
RTVSPost2010Prop57
140
1.0
102
RTVSPost2010PropOp57
 70
     1
102
RTVSPropertyOp0
 70
     1
102
RTVSPropertyOp1
 70
     1
102
RTVSPropertyOp2
 70
     1
102
RTVSPropertyOp3
 70
     1
102
RTVSPropertyOp4
 70
     1
102
RTVSPropertyOp5
 70
     1
102
RTVSPropertyOp6
 70
     1
102
RTVSPropertyOp7
 70
     1
102
RTVSPropertyOp8
 70
     1
102
RTVSPropertyOp9
 70
     1
102
RTVSPropertyOp10
 70
     1
102
RTVSPropertyOp11
 70
     1
102
RTVSPropertyOp12
 70
     1
102
RTVSPropertyOp13
 70
     1
102
RTVSPropertyOp14
 70
     1
102
RTVSPropertyOp15
 70
     1
102
RTVSPropertyOp16
 70
     1
102
RTVSPropertyOp17
 70
     1
102
RTVSPropertyOp18
 70
     1
102
RTVSPropertyOp19
 70
     1
102
RTVSPropertyOp20
 70
     1
102
RTVSPropertyOp21
 70
     1
102
RTVSPropertyOp22
 70
     1
102
RTVSPropertyOp23
 70
     1
102
RTVSPropertyOp24
 70
     1
102
RTVSPropertyOp25
 70
     1
102
RTVSPropertyOp26
 70
     1
102
RTVSPropertyOp27
 70
     1
102
RTVSPropertyOp28
 70
     1
102
RTVSPropertyOp29
 70
     1
102
RTVSPropertyOp30
 70
     1
102
RTVSPropertyOp31
 70
     1
102
RTVSPropertyOp32
 70
     1
102
RTVSPropertyOp33
 70
     1
102
RTVSPropertyOp34
 70
     1
102
RTVSPropertyOp35
 70
     1
102
RTVSPropertyOp36
 70
     1
102
RTVSPropertyOp37
 70
     1
102
RTVSPropertyOp38
 70
     1
102
RTVSPropertyOp39
 70
     1
102
RTVSPropertyOp40
 70
     1
102
RTVSPropertyOp41
 70
     1
102
RTVSPropertyOp42
 70
     1
102
RTVSPropertyOp43
 70
     1
102
RTVSPropertyOp44
 70
     1
102
RTVSPropertyOp45
 70
     1
102
RTVSPropertyOp46
 70
     1
102
RTVSPropertyOp47
 70
     1
102
RTVSPropertyOp48
 70
     1
102
RTVSPropertyOp49
 70
     1
102
RTVSPropertyOp50
 70
     1
102
RTVSPropertyOp51
 70
     0
102
RTVSPropertyOp52
 70
     0
102
RTVSPropertyOp53
 70
     1
102
RTVSPropertyOp54
 70
     1
102
RTVSPropertyOp55
 70
     1
102
RTVSPropertyOp56
 70
     1
102
RTVSPropertyOp57
 70
     1
102
RTVSPropertyOp58
 70
     1
102
RTVSPropertyOp59
 70
     1
102
RTVSPropertyOp60
 70
     1
102
RTVSPropertyOp61
 70
     1
102
RTVSPropertyOp62
 70
     1
  0
XRECORD
  5
FBF9
102
{ACAD_REACTORS
330
FBF8
102
}
330
FBF8
100
AcDbXrecord
280
     1
102
RTVSPost2010Prop28
280
     0
102
RTVSPost2010PropOp28
 70
     1
102
RTVSPost2010Prop29
280
     1
102
RTVSPost2010PropOp29
 70
     1
102
RTVSPost2010Prop30
280
     1
102
RTVSPost2010PropOp30
 70
     1
102
RTVSPost2010Prop31
280
     0
102
RTVSPost2010PropOp31
 70
     1
102
RTVSPost2010Prop32
280
     0
102
RTVSPost2010PropOp32
 70
     1
102
RTVSPost2010Prop33
280
     0
102
RTVSPost2010PropOp33
 70
     1
102
RTVSPost2010Prop34
280
     0
102
RTVSPost2010PropOp34
 70
     1
102
RTVSPost2010Prop35
280
     0
102
RTVSPost2010PropOp35
 70
     1
102
RTVSPost2010Prop36
280
     0
102
RTVSPost2010PropOp36
 70
     1
102
RTVSPost2010Prop37
 90
       50
102
RTVSPost2010PropOp37
 70
     0
102
RTVSPost2010Prop38
140
0.0
102
RTVSPost2010PropOp38
 70
     0
102
RTVSPost2010Prop39
140
1.0
102
RTVSPost2010PropOp39
 70
     0
102
RTVSPost2010Prop40
 90
        0
102
RTVSPost2010PropOp40
 70
     0
102
RTVSPost2010Prop41ColorIndex
 90
       18
102
RTVSPost2010Prop41ColorRGB
 90
        0
102
RTVSPost2010PropOp41
 70
     0
102
RTVSPost2010Prop42
 90
       50
102
RTVSPost2010PropOp42
 70
     0
102
RTVSPost2010Prop43
 90
        3
102
RTVSPost2010PropOp43
 70
     0
102
RTVSPost2010Prop44ColorIndex
 90
        5
102
RTVSPost2010Prop44ColorRGB
 90
      255
102
RTVSPost2010PropOp44
 70
     0
102
RTVSPost2010Prop45
280
     0
102
RTVSPost2010PropOp45
 70
     1
102
RTVSPost2010Prop46
 90
       50
102
RTVSPost2010PropOp46
 70
     0
102
RTVSPost2010Prop47
 90
       50
102
RTVSPost2010PropOp47
 70
     0
102
RTVSPost2010Prop48
 90
       50
102
RTVSPost2010PropOp48
 70
     0
102
RTVSPost2010Prop49
280
     0
102
RTVSPost2010PropOp49
 70
     1
102
RTVSPost2010Prop50
 90
       50
102
RTVSPost2010PropOp50
 70
     0
102
RTVSPost2010Prop51ColorIndex
 90
      256
102
RTVSPost2010Prop51ColorRGB
 90
-16777216
102
RTVSPost2010PropOp51
 70
     0
102
RTVSPost2010Prop52
140
1.0
102
RTVSPost2010PropOp52
 70
     0
102
RTVSPost2010Prop53
 90
        2
102
RTVSPost2010PropOp53
 70
     0
102
RTVSPost2010Prop54
  1
strokes_ogs.tif
102
RTVSPost2010PropOp54
 70
     0
102
RTVSPost2010Prop55
280
     0
102
RTVSPost2010PropOp55
 70
     1
102
RTVSPost2010Prop56
140
1.0
102
RTVSPost2010PropOp56
 70
     0
102
RTVSPost2010Prop57
140
1.0
102
RTVSPost2010PropOp57
 70
     0
102
RTVSPropertyOp0
 70
     0
102
RTVSPropertyOp1
 70
     0
102
RTVSPropertyOp2
 70
     0
102
RTVSPropertyOp3
 70
     0
102
RTVSPropertyOp4
 70
     0
102
RTVSPropertyOp5
 70
     0
102
RTVSPropertyOp6
 70
     0
102
RTVSPropertyOp7
 70
     0
102
RTVSPropertyOp8
 70
     0
102
RTVSPropertyOp9
 70
     0
102
RTVSPropertyOp10
 70
     0
102
RTVSPropertyOp11
 70
     0
102
RTVSPropertyOp12
 70
     0
102
RTVSPropertyOp13
 70
     0
102
RTVSPropertyOp14
 70
     2
102
RTVSPropertyOp15
 70
     0
102
RTVSPropertyOp16
 70
     0
102
RTVSPropertyOp17
 70
     0
102
RTVSPropertyOp18
 70
     0
102
RTVSPropertyOp19
 70
     0
102
RTVSPropertyOp20
 70
     0
102
RTVSPropertyOp21
 70
     0
102
RTVSPropertyOp22
 70
     0
102
RTVSPropertyOp23
 70
     0
102
RTVSPropertyOp24
 70
     0
102
RTVSPropertyOp25
 70
     0
102
RTVSPropertyOp26
 70
     0
102
RTVSPropertyOp27
 70
     0
102
RTVSPropertyOp28
 70
     1
102
RTVSPropertyOp29
 70
     1
102
RTVSPropertyOp30
 70
     1
102
RTVSPropertyOp31
 70
     1
102
RTVSPropertyOp32
 70
     1
102
RTVSPropertyOp33
 70
     1
102
RTVSPropertyOp34
 70
     1
102
RTVSPropertyOp35
 70
     1
102
RTVSPropertyOp36
 70
     1
102
RTVSPropertyOp37
 70
     0
102
RTVSPropertyOp38
 70
     0
102
RTVSPropertyOp39
 70
     0
102
RTVSPropertyOp40
 70
     0
102
RTVSPropertyOp41
 70
     0
102
RTVSPropertyOp42
 70
     0
102
RTVSPropertyOp43
 70
     0
102
RTVSPropertyOp44
 70
     0
102
RTVSPropertyOp45
 70
     1
102
RTVSPropertyOp46
 70
     0
102
RTVSPropertyOp47
 70
     0
102
RTVSPropertyOp48
 70
     0
102
RTVSPropertyOp49
 70
     1
102
RTVSPropertyOp50
 70
     0
102
RTVSPropertyOp51
 70
     0
102
RTVSPropertyOp52
 70
     0
102
RTVSPropertyOp53
 70
     0
102
RTVSPropertyOp54
 70
     0
102
RTVSPropertyOp55
 70
     1
102
RTVSPropertyOp56
 70
     0
102
RTVSPropertyOp57
 70
     0
102
RTVSPropertyOp58
 70
     0
102
RTVSPropertyOp59
 70
     0
102
RTVSPropertyOp60
 70
     0
102
RTVSPropertyOp61
 70
     0
102
RTVSPropertyOp62
 70
     0
  0
XRECORD
  5
FBE2
102
{ACAD_REACTORS
330
FBE1
102
}
330
FBE1
100
AcDbXrecord
280
     1
102
RTVSPost2010Prop28
280
     0
102
RTVSPost2010PropOp28
 70
     1
102
RTVSPost2010Prop29
280
     1
102
RTVSPost2010PropOp29
 70
     1
102
RTVSPost2010Prop30
280
     1
102
RTVSPost2010PropOp30
 70
     1
102
RTVSPost2010Prop31
280
     0
102
RTVSPost2010PropOp31
 70
     1
102
RTVSPost2010Prop32
280
     0
102
RTVSPost2010PropOp32
 70
     1
102
RTVSPost2010Prop33
280
     0
102
RTVSPost2010PropOp33
 70
     1
102
RTVSPost2010Prop34
280
     0
102
RTVSPost2010PropOp34
 70
     1
102
RTVSPost2010Prop35
280
     0
102
RTVSPost2010PropOp35
 70
     1
102
RTVSPost2010Prop36
280
     0
102
RTVSPost2010PropOp36
 70
     1
102
RTVSPost2010Prop37
 90
       50
102
RTVSPost2010PropOp37
 70
     1
102
RTVSPost2010Prop38
140
0.0
102
RTVSPost2010PropOp38
 70
     1
102
RTVSPost2010Prop39
140
1.0
102
RTVSPost2010PropOp39
 70
     1
102
RTVSPost2010Prop40
 90
        0
102
RTVSPost2010PropOp40
 70
     1
102
RTVSPost2010Prop41ColorIndex
 90
       18
102
RTVSPost2010Prop41ColorRGB
 90
        0
102
RTVSPost2010PropOp41
 70
     1
102
RTVSPost2010Prop42
 90
       50
102
RTVSPost2010PropOp42
 70
     1
102
RTVSPost2010Prop43
 90
        3
102
RTVSPost2010PropOp43
 70
     1
102
RTVSPost2010Prop44ColorIndex
 90
        5
102
RTVSPost2010Prop44ColorRGB
 90
      255
102
RTVSPost2010PropOp44
 70
     1
102
RTVSPost2010Prop45
280
     0
102
RTVSPost2010PropOp45
 70
     1
102
RTVSPost2010Prop46
 90
       50
102
RTVSPost2010PropOp46
 70
     1
102
RTVSPost2010Prop47
 90
       50
102
RTVSPost2010PropOp47
 70
     1
102
RTVSPost2010Prop48
 90
       50
102
RTVSPost2010PropOp48
 70
     1
102
RTVSPost2010Prop49
280
     0
102
RTVSPost2010PropOp49
 70
     1
102
RTVSPost2010Prop50
 90
       50
102
RTVSPost2010PropOp50
 70
     1
102
RTVSPost2010Prop51ColorIndex
 90
      256
102
RTVSPost2010Prop51ColorRGB
 90
-16777216
102
RTVSPost2010PropOp51
 70
     0
102
RTVSPost2010Prop52
140
1.0
102
RTVSPost2010PropOp52
 70
     0
102
RTVSPost2010Prop53
 90
        2
102
RTVSPost2010PropOp53
 70
     1
102
RTVSPost2010Prop54
  1
strokes_ogs.tif
102
RTVSPost2010PropOp54
 70
     1
102
RTVSPost2010Prop55
280
     0
102
RTVSPost2010PropOp55
 70
     1
102
RTVSPost2010Prop56
140
1.0
102
RTVSPost2010PropOp56
 70
     1
102
RTVSPost2010Prop57
140
1.0
102
RTVSPost2010PropOp57
 70
     1
102
RTVSPropertyOp0
 70
     1
102
RTVSPropertyOp1
 70
     1
102
RTVSPropertyOp2
 70
     1
102
RTVSPropertyOp3
 70
     1
102
RTVSPropertyOp4
 70
     1
102
RTVSPropertyOp5
 70
     1
102
RTVSPropertyOp6
 70
     1
102
RTVSPropertyOp7
 70
     1
102
RTVSPropertyOp8
 70
     1
102
RTVSPropertyOp9
 70
     1
102
RTVSPropertyOp10
 70
     1
102
RTVSPropertyOp11
 70
     1
102
RTVSPropertyOp12
 70
     1
102
RTVSPropertyOp13
 70
     1
102
RTVSPropertyOp14
 70
     1
102
RTVSPropertyOp15
 70
     1
102
RTVSPropertyOp16
 70
     1
102
RTVSPropertyOp17
 70
     1
102
RTVSPropertyOp18
 70
     1
102
RTVSPropertyOp19
 70
     1
102
RTVSPropertyOp20
 70
     1
102
RTVSPropertyOp21
 70
     1
102
RTVSPropertyOp22
 70
     1
102
RTVSPropertyOp23
 70
     1
102
RTVSPropertyOp24
 70
     1
102
RTVSPropertyOp25
 70
     1
102
RTVSPropertyOp26
 70
     1
102
RTVSPropertyOp27
 70
     1
102
RTVSPropertyOp28
 70
     1
102
RTVSPropertyOp29
 70
     1
102
RTVSPropertyOp30
 70
     1
102
RTVSPropertyOp31
 70
     1
102
RTVSPropertyOp32
 70
     1
102
RTVSPropertyOp33
 70
     1
102
RTVSPropertyOp34
 70
     1
102
RTVSPropertyOp35
 70
     1
102
RTVSPropertyOp36
 70
     1
102
RTVSPropertyOp37
 70
     1
102
RTVSPropertyOp38
 70
     1
102
RTVSPropertyOp39
 70
     1
102
RTVSPropertyOp40
 70
     1
102
RTVSPropertyOp41
 70
     1
102
RTVSPropertyOp42
 70
     1
102
RTVSPropertyOp43
 70
     1
102
RTVSPropertyOp44
 70
     1
102
RTVSPropertyOp45
 70
     1
102
RTVSPropertyOp46
 70
     1
102
RTVSPropertyOp47
 70
     1
102
RTVSPropertyOp48
 70
     1
102
RTVSPropertyOp49
 70
     1
102
RTVSPropertyOp50
 70
     1
102
RTVSPropertyOp51
 70
     0
102
RTVSPropertyOp52
 70
     0
102
RTVSPropertyOp53
 70
     1
102
RTVSPropertyOp54
 70
     1
102
RTVSPropertyOp55
 70
     1
102
RTVSPropertyOp56
 70
     1
102
RTVSPropertyOp57
 70
     1
102
RTVSPropertyOp58
 70
     1
102
RTVSPropertyOp59
 70
     1
102
RTVSPropertyOp60
 70
     1
102
RTVSPropertyOp61
 70
     1
102
RTVSPropertyOp62
 70
     1
  0
XRECORD
  5
FBC6
102
{ACAD_REACTORS
330
FBC5
102
}
330
FBC5
100
AcDbXrecord
280
     1
102
RTVSPost2010Prop28
280
     0
102
RTVSPost2010PropOp28
 70
     1
102
RTVSPost2010Prop29
280
     1
102
RTVSPost2010PropOp29
 70
     1
102
RTVSPost2010Prop30
280
     1
102
RTVSPost2010PropOp30
 70
     1
102
RTVSPost2010Prop31
280
     0
102
RTVSPost2010PropOp31
 70
     1
102
RTVSPost2010Prop32
280
     0
102
RTVSPost2010PropOp32
 70
     1
102
RTVSPost2010Prop33
280
     0
102
RTVSPost2010PropOp33
 70
     1
102
RTVSPost2010Prop34
280
     0
102
RTVSPost2010PropOp34
 70
     1
102
RTVSPost2010Prop35
280
     0
102
RTVSPost2010PropOp35
 70
     1
102
RTVSPost2010Prop36
280
     0
102
RTVSPost2010PropOp36
 70
     1
102
RTVSPost2010Prop37
 90
       50
102
RTVSPost2010PropOp37
 70
     1
102
RTVSPost2010Prop38
140
0.0
102
RTVSPost2010PropOp38
 70
     1
102
RTVSPost2010Prop39
140
1.0
102
RTVSPost2010PropOp39
 70
     1
102
RTVSPost2010Prop40
 90
        0
102
RTVSPost2010PropOp40
 70
     1
102
RTVSPost2010Prop41ColorIndex
 90
       18
102
RTVSPost2010Prop41ColorRGB
 90
        0
102
RTVSPost2010PropOp41
 70
     1
102
RTVSPost2010Prop42
 90
       50
102
RTVSPost2010PropOp42
 70
     1
102
RTVSPost2010Prop43
 90
        3
102
RTVSPost2010PropOp43
 70
     1
102
RTVSPost2010Prop44ColorIndex
 90
        5
102
RTVSPost2010Prop44ColorRGB
 90
      255
102
RTVSPost2010PropOp44
 70
     1
102
RTVSPost2010Prop45
280
     0
102
RTVSPost2010PropOp45
 70
     1
102
RTVSPost2010Prop46
 90
       50
102
RTVSPost2010PropOp46
 70
     1
102
RTVSPost2010Prop47
 90
       50
102
RTVSPost2010PropOp47
 70
     1
102
RTVSPost2010Prop48
 90
       50
102
RTVSPost2010PropOp48
 70
     1
102
RTVSPost2010Prop49
280
     0
102
RTVSPost2010PropOp49
 70
     1
102
RTVSPost2010Prop50
 90
       50
102
RTVSPost2010PropOp50
 70
     1
102
RTVSPost2010Prop51ColorIndex
 90
      256
102
RTVSPost2010Prop51ColorRGB
 90
-16777216
102
RTVSPost2010PropOp51
 70
     0
102
RTVSPost2010Prop52
140
1.0
102
RTVSPost2010PropOp52
 70
     0
102
RTVSPost2010Prop53
 90
        2
102
RTVSPost2010PropOp53
 70
     1
102
RTVSPost2010Prop54
  1
strokes_ogs.tif
102
RTVSPost2010PropOp54
 70
     1
102
RTVSPost2010Prop55
280
     0
102
RTVSPost2010PropOp55
 70
     1
102
RTVSPost2010Prop56
140
1.0
102
RTVSPost2010PropOp56
 70
     1
102
RTVSPost2010Prop57
140
1.0
102
RTVSPost2010PropOp57
 70
     1
102
RTVSPropertyOp0
 70
     1
102
RTVSPropertyOp1
 70
     1
102
RTVSPropertyOp2
 70
     1
102
RTVSPropertyOp3
 70
     1
102
RTVSPropertyOp4
 70
     1
102
RTVSPropertyOp5
 70
     1
102
RTVSPropertyOp6
 70
     1
102
RTVSPropertyOp7
 70
     1
102
RTVSPropertyOp8
 70
     1
102
RTVSPropertyOp9
 70
     1
102
RTVSPropertyOp10
 70
     1
102
RTVSPropertyOp11
 70
     1
102
RTVSPropertyOp12
 70
     1
102
RTVSPropertyOp13
 70
     1
102
RTVSPropertyOp14
 70
     1
102
RTVSPropertyOp15
 70
     1
102
RTVSPropertyOp16
 70
     1
102
RTVSPropertyOp17
 70
     1
102
RTVSPropertyOp18
 70
     1
102
RTVSPropertyOp19
 70
     1
102
RTVSPropertyOp20
 70
     1
102
RTVSPropertyOp21
 70
     1
102
RTVSPropertyOp22
 70
     1
102
RTVSPropertyOp23
 70
     1
102
RTVSPropertyOp24
 70
     1
102
RTVSPropertyOp25
 70
     1
102
RTVSPropertyOp26
 70
     1
102
RTVSPropertyOp27
 70
     1
102
RTVSPropertyOp28
 70
     1
102
RTVSPropertyOp29
 70
     1
102
RTVSPropertyOp30
 70
     1
102
RTVSPropertyOp31
 70
     1
102
RTVSPropertyOp32
 70
     1
102
RTVSPropertyOp33
 70
     1
102
RTVSPropertyOp34
 70
     1
102
RTVSPropertyOp35
 70
     1
102
RTVSPropertyOp36
 70
     1
102
RTVSPropertyOp37
 70
     1
102
RTVSPropertyOp38
 70
     1
102
RTVSPropertyOp39
 70
     1
102
RTVSPropertyOp40
 70
     1
102
RTVSPropertyOp41
 70
     1
102
RTVSPropertyOp42
 70
     1
102
RTVSPropertyOp43
 70
     1
102
RTVSPropertyOp44
 70
     1
102
RTVSPropertyOp45
 70
     1
102
RTVSPropertyOp46
 70
     1
102
RTVSPropertyOp47
 70
     1
102
RTVSPropertyOp48
 70
     1
102
RTVSPropertyOp49
 70
     1
102
RTVSPropertyOp50
 70
     1
102
RTVSPropertyOp51
 70
     0
102
RTVSPropertyOp52
 70
     0
102
RTVSPropertyOp53
 70
     1
102
RTVSPropertyOp54
 70
     1
102
RTVSPropertyOp55
 70
     1
102
RTVSPropertyOp56
 70
     1
102
RTVSPropertyOp57
 70
     1
102
RTVSPropertyOp58
 70
     1
102
RTVSPropertyOp59
 70
     1
102
RTVSPropertyOp60
 70
     1
102
RTVSPropertyOp61
 70
     1
102
RTVSPropertyOp62
 70
     1
  0
XRECORD
  5
FBC8
102
{ACAD_REACTORS
330
FBC7
102
}
330
FBC7
100
AcDbXrecord
280
     1
102
RTVSPost2010Prop28
280
     0
102
RTVSPost2010PropOp28
 70
     1
102
RTVSPost2010Prop29
280
     1
102
RTVSPost2010PropOp29
 70
     1
102
RTVSPost2010Prop30
280
     1
102
RTVSPost2010PropOp30
 70
     1
102
RTVSPost2010Prop31
280
     0
102
RTVSPost2010PropOp31
 70
     1
102
RTVSPost2010Prop32
280
     0
102
RTVSPost2010PropOp32
 70
     1
102
RTVSPost2010Prop33
280
     0
102
RTVSPost2010PropOp33
 70
     1
102
RTVSPost2010Prop34
280
     0
102
RTVSPost2010PropOp34
 70
     1
102
RTVSPost2010Prop35
280
     0
102
RTVSPost2010PropOp35
 70
     1
102
RTVSPost2010Prop36
280
     0
102
RTVSPost2010PropOp36
 70
     1
102
RTVSPost2010Prop37
 90
       50
102
RTVSPost2010PropOp37
 70
     1
102
RTVSPost2010Prop38
140
0.0
102
RTVSPost2010PropOp38
 70
     1
102
RTVSPost2010Prop39
140
1.0
102
RTVSPost2010PropOp39
 70
     1
102
RTVSPost2010Prop40
 90
        0
102
RTVSPost2010PropOp40
 70
     1
102
RTVSPost2010Prop41ColorIndex
 90
       18
102
RTVSPost2010Prop41ColorRGB
 90
        0
102
RTVSPost2010PropOp41
 70
     1
102
RTVSPost2010Prop42
 90
       50
102
RTVSPost2010PropOp42
 70
     1
102
RTVSPost2010Prop43
 90
        3
102
RTVSPost2010PropOp43
 70
     1
102
RTVSPost2010Prop44ColorIndex
 90
        5
102
RTVSPost2010Prop44ColorRGB
 90
      255
102
RTVSPost2010PropOp44
 70
     1
102
RTVSPost2010Prop45
280
     0
102
RTVSPost2010PropOp45
 70
     1
102
RTVSPost2010Prop46
 90
       50
102
RTVSPost2010PropOp46
 70
     1
102
RTVSPost2010Prop47
 90
       50
102
RTVSPost2010PropOp47
 70
     1
102
RTVSPost2010Prop48
 90
       50
102
RTVSPost2010PropOp48
 70
     1
102
RTVSPost2010Prop49
280
     0
102
RTVSPost2010PropOp49
 70
     1
102
RTVSPost2010Prop50
 90
       50
102
RTVSPost2010PropOp50
 70
     1
102
RTVSPost2010Prop51ColorIndex
 90
      256
102
RTVSPost2010Prop51ColorRGB
 90
-16777216
102
RTVSPost2010PropOp51
 70
     0
102
RTVSPost2010Prop52
140
1.0
102
RTVSPost2010PropOp52
 70
     0
102
RTVSPost2010Prop53
 90
        2
102
RTVSPost2010PropOp53
 70
     1
102
RTVSPost2010Prop54
  1
strokes_ogs.tif
102
RTVSPost2010PropOp54
 70
     1
102
RTVSPost2010Prop55
280
     0
102
RTVSPost2010PropOp55
 70
     1
102
RTVSPost2010Prop56
140
1.0
102
RTVSPost2010PropOp56
 70
     1
102
RTVSPost2010Prop57
140
1.0
102
RTVSPost2010PropOp57
 70
     1
102
RTVSPropertyOp0
 70
     1
102
RTVSPropertyOp1
 70
     1
102
RTVSPropertyOp2
 70
     1
102
RTVSPropertyOp3
 70
     1
102
RTVSPropertyOp4
 70
     1
102
RTVSPropertyOp5
 70
     1
102
RTVSPropertyOp6
 70
     1
102
RTVSPropertyOp7
 70
     1
102
RTVSPropertyOp8
 70
     1
102
RTVSPropertyOp9
 70
     1
102
RTVSPropertyOp10
 70
     1
102
RTVSPropertyOp11
 70
     1
102
RTVSPropertyOp12
 70
     1
102
RTVSPropertyOp13
 70
     1
102
RTVSPropertyOp14
 70
     1
102
RTVSPropertyOp15
 70
     1
102
RTVSPropertyOp16
 70
     1
102
RTVSPropertyOp17
 70
     1
102
RTVSPropertyOp18
 70
     1
102
RTVSPropertyOp19
 70
     1
102
RTVSPropertyOp20
 70
     1
102
RTVSPropertyOp21
 70
     1
102
RTVSPropertyOp22
 70
     1
102
RTVSPropertyOp23
 70
     1
102
RTVSPropertyOp24
 70
     1
102
RTVSPropertyOp25
 70
     1
102
RTVSPropertyOp26
 70
     1
102
RTVSPropertyOp27
 70
     1
102
RTVSPropertyOp28
 70
     1
102
RTVSPropertyOp29
 70
     1
102
RTVSPropertyOp30
 70
     1
102
RTVSPropertyOp31
 70
     1
102
RTVSPropertyOp32
 70
     1
102
RTVSPropertyOp33
 70
     1
102
RTVSPropertyOp34
 70
     1
102
RTVSPropertyOp35
 70
     1
102
RTVSPropertyOp36
 70
     1
102
RTVSPropertyOp37
 70
     1
102
RTVSPropertyOp38
 70
     1
102
RTVSPropertyOp39
 70
     1
102
RTVSPropertyOp40
 70
     1
102
RTVSPropertyOp41
 70
     1
102
RTVSPropertyOp42
 70
     1
102
RTVSPropertyOp43
 70
     1
102
RTVSPropertyOp44
 70
     1
102
RTVSPropertyOp45
 70
     1
102
RTVSPropertyOp46
 70
     1
102
RTVSPropertyOp47
 70
     1
102
RTVSPropertyOp48
 70
     1
102
RTVSPropertyOp49
 70
     1
102
RTVSPropertyOp50
 70
     1
102
RTVSPropertyOp51
 70
     0
102
RTVSPropertyOp52
 70
     0
102
RTVSPropertyOp53
 70
     1
102
RTVSPropertyOp54
 70
     1
102
RTVSPropertyOp55
 70
     1
102
RTVSPropertyOp56
 70
     1
102
RTVSPropertyOp57
 70
     1
102
RTVSPropertyOp58
 70
     1
102
RTVSPropertyOp59
 70
     1
102
RTVSPropertyOp60
 70
     1
102
RTVSPropertyOp61
 70
     1
102
RTVSPropertyOp62
 70
     1
  0
XRECORD
  5
FBCA
102
{ACAD_REACTORS
330
FBC9
102
}
330
FBC9
100
AcDbXrecord
280
     1
102
RTVSPost2010Prop28
280
     0
102
RTVSPost2010PropOp28
 70
     1
102
RTVSPost2010Prop29
280
     1
102
RTVSPost2010PropOp29
 70
     1
102
RTVSPost2010Prop30
280
     1
102
RTVSPost2010PropOp30
 70
     1
102
RTVSPost2010Prop31
280
     0
102
RTVSPost2010PropOp31
 70
     1
102
RTVSPost2010Prop32
280
     0
102
RTVSPost2010PropOp32
 70
     1
102
RTVSPost2010Prop33
280
     0
102
RTVSPost2010PropOp33
 70
     1
102
RTVSPost2010Prop34
280
     0
102
RTVSPost2010PropOp34
 70
     1
102
RTVSPost2010Prop35
280
     0
102
RTVSPost2010PropOp35
 70
     1
102
RTVSPost2010Prop36
280
     0
102
RTVSPost2010PropOp36
 70
     1
102
RTVSPost2010Prop37
 90
       50
102
RTVSPost2010PropOp37
 70
     1
102
RTVSPost2010Prop38
140
0.0
102
RTVSPost2010PropOp38
 70
     1
102
RTVSPost2010Prop39
140
1.0
102
RTVSPost2010PropOp39
 70
     1
102
RTVSPost2010Prop40
 90
        0
102
RTVSPost2010PropOp40
 70
     1
102
RTVSPost2010Prop41ColorIndex
 90
       18
102
RTVSPost2010Prop41ColorRGB
 90
        0
102
RTVSPost2010PropOp41
 70
     1
102
RTVSPost2010Prop42
 90
       50
102
RTVSPost2010PropOp42
 70
     1
102
RTVSPost2010Prop43
 90
        3
102
RTVSPost2010PropOp43
 70
     1
102
RTVSPost2010Prop44ColorIndex
 90
        5
102
RTVSPost2010Prop44ColorRGB
 90
      255
102
RTVSPost2010PropOp44
 70
     1
102
RTVSPost2010Prop45
280
     0
102
RTVSPost2010PropOp45
 70
     1
102
RTVSPost2010Prop46
 90
       50
102
RTVSPost2010PropOp46
 70
     1
102
RTVSPost2010Prop47
 90
       50
102
RTVSPost2010PropOp47
 70
     1
102
RTVSPost2010Prop48
 90
       50
102
RTVSPost2010PropOp48
 70
     1
102
RTVSPost2010Prop49
280
     0
102
RTVSPost2010PropOp49
 70
     1
102
RTVSPost2010Prop50
 90
       50
102
RTVSPost2010PropOp50
 70
     1
102
RTVSPost2010Prop51ColorIndex
 90
      256
102
RTVSPost2010Prop51ColorRGB
 90
-16777216
102
RTVSPost2010PropOp51
 70
     0
102
RTVSPost2010Prop52
140
1.0
102
RTVSPost2010PropOp52
 70
     0
102
RTVSPost2010Prop53
 90
        2
102
RTVSPost2010PropOp53
 70
     1
102
RTVSPost2010Prop54
  1
strokes_ogs.tif
102
RTVSPost2010PropOp54
 70
     1
102
RTVSPost2010Prop55
280
     0
102
RTVSPost2010PropOp55
 70
     1
102
RTVSPost2010Prop56
140
1.0
102
RTVSPost2010PropOp56
 70
     1
102
RTVSPost2010Prop57
140
1.0
102
RTVSPost2010PropOp57
 70
     1
102
RTVSPropertyOp0
 70
     1
102
RTVSPropertyOp1
 70
     1
102
RTVSPropertyOp2
 70
     1
102
RTVSPropertyOp3
 70
     1
102
RTVSPropertyOp4
 70
     1
102
RTVSPropertyOp5
 70
     1
102
RTVSPropertyOp6
 70
     1
102
RTVSPropertyOp7
 70
     1
102
RTVSPropertyOp8
 70
     1
102
RTVSPropertyOp9
 70
     1
102
RTVSPropertyOp10
 70
     1
102
RTVSPropertyOp11
 70
     1
102
RTVSPropertyOp12
 70
     1
102
RTVSPropertyOp13
 70
     1
102
RTVSPropertyOp14
 70
     1
102
RTVSPropertyOp15
 70
     1
102
RTVSPropertyOp16
 70
     1
102
RTVSPropertyOp17
 70
     1
102
RTVSPropertyOp18
 70
     1
102
RTVSPropertyOp19
 70
     1
102
RTVSPropertyOp20
 70
     1
102
RTVSPropertyOp21
 70
     1
102
RTVSPropertyOp22
 70
     1
102
RTVSPropertyOp23
 70
     1
102
RTVSPropertyOp24
 70
     1
102
RTVSPropertyOp25
 70
     1
102
RTVSPropertyOp26
 70
     1
102
RTVSPropertyOp27
 70
     1
102
RTVSPropertyOp28
 70
     1
102
RTVSPropertyOp29
 70
     1
102
RTVSPropertyOp30
 70
     1
102
RTVSPropertyOp31
 70
     1
102
RTVSPropertyOp32
 70
     1
102
RTVSPropertyOp33
 70
     1
102
RTVSPropertyOp34
 70
     1
102
RTVSPropertyOp35
 70
     1
102
RTVSPropertyOp36
 70
     1
102
RTVSPropertyOp37
 70
     1
102
RTVSPropertyOp38
 70
     1
102
RTVSPropertyOp39
 70
     1
102
RTVSPropertyOp40
 70
     1
102
RTVSPropertyOp41
 70
     1
102
RTVSPropertyOp42
 70
     1
102
RTVSPropertyOp43
 70
     1
102
RTVSPropertyOp44
 70
     1
102
RTVSPropertyOp45
 70
     1
102
RTVSPropertyOp46
 70
     1
102
RTVSPropertyOp47
 70
     1
102
RTVSPropertyOp48
 70
     1
102
RTVSPropertyOp49
 70
     1
102
RTVSPropertyOp50
 70
     1
102
RTVSPropertyOp51
 70
     0
102
RTVSPropertyOp52
 70
     0
102
RTVSPropertyOp53
 70
     1
102
RTVSPropertyOp54
 70
     1
102
RTVSPropertyOp55
 70
     1
102
RTVSPropertyOp56
 70
     1
102
RTVSPropertyOp57
 70
     1
102
RTVSPropertyOp58
 70
     1
102
RTVSPropertyOp59
 70
     1
102
RTVSPropertyOp60
 70
     1
102
RTVSPropertyOp61
 70
     1
102
RTVSPropertyOp62
 70
     1
  0
XRECORD
  5
FBCC
102
{ACAD_REACTORS
330
FBCB
102
}
330
FBCB
100
AcDbXrecord
280
     1
102
RTVSPost2010Prop28
280
     0
102
RTVSPost2010PropOp28
 70
     1
102
RTVSPost2010Prop29
280
     1
102
RTVSPost2010PropOp29
 70
     1
102
RTVSPost2010Prop30
280
     1
102
RTVSPost2010PropOp30
 70
     1
102
RTVSPost2010Prop31
280
     0
102
RTVSPost2010PropOp31
 70
     1
102
RTVSPost2010Prop32
280
     0
102
RTVSPost2010PropOp32
 70
     1
102
RTVSPost2010Prop33
280
     0
102
RTVSPost2010PropOp33
 70
     1
102
RTVSPost2010Prop34
280
     0
102
RTVSPost2010PropOp34
 70
     1
102
RTVSPost2010Prop35
280
     0
102
RTVSPost2010PropOp35
 70
     1
102
RTVSPost2010Prop36
280
     0
102
RTVSPost2010PropOp36
 70
     1
102
RTVSPost2010Prop37
 90
       50
102
RTVSPost2010PropOp37
 70
     1
102
RTVSPost2010Prop38
140
0.0
102
RTVSPost2010PropOp38
 70
     1
102
RTVSPost2010Prop39
140
1.0
102
RTVSPost2010PropOp39
 70
     1
102
RTVSPost2010Prop40
 90
        0
102
RTVSPost2010PropOp40
 70
     1
102
RTVSPost2010Prop41ColorIndex
 90
       18
102
RTVSPost2010Prop41ColorRGB
 90
        0
102
RTVSPost2010PropOp41
 70
     1
102
RTVSPost2010Prop42
 90
       50
102
RTVSPost2010PropOp42
 70
     1
102
RTVSPost2010Prop43
 90
        3
102
RTVSPost2010PropOp43
 70
     1
102
RTVSPost2010Prop44ColorIndex
 90
        5
102
RTVSPost2010Prop44ColorRGB
 90
      255
102
RTVSPost2010PropOp44
 70
     1
102
RTVSPost2010Prop45
280
     0
102
RTVSPost2010PropOp45
 70
     1
102
RTVSPost2010Prop46
 90
       50
102
RTVSPost2010PropOp46
 70
     1
102
RTVSPost2010Prop47
 90
       50
102
RTVSPost2010PropOp47
 70
     1
102
RTVSPost2010Prop48
 90
       50
102
RTVSPost2010PropOp48
 70
     1
102
RTVSPost2010Prop49
280
     0
102
RTVSPost2010PropOp49
 70
     1
102
RTVSPost2010Prop50
 90
       50
102
RTVSPost2010PropOp50
 70
     1
102
RTVSPost2010Prop51ColorIndex
 90
      256
102
RTVSPost2010Prop51ColorRGB
 90
-16777216
102
RTVSPost2010PropOp51
 70
     0
102
RTVSPost2010Prop52
140
1.0
102
RTVSPost2010PropOp52
 70
     0
102
RTVSPost2010Prop53
 90
        2
102
RTVSPost2010PropOp53
 70
     1
102
RTVSPost2010Prop54
  1
strokes_ogs.tif
102
RTVSPost2010PropOp54
 70
     1
102
RTVSPost2010Prop55
280
     0
102
RTVSPost2010PropOp55
 70
     1
102
RTVSPost2010Prop56
140
1.0
102
RTVSPost2010PropOp56
 70
     1
102
RTVSPost2010Prop57
140
1.0
102
RTVSPost2010PropOp57
 70
     1
102
RTVSPropertyOp0
 70
     1
102
RTVSPropertyOp1
 70
     1
102
RTVSPropertyOp2
 70
     1
102
RTVSPropertyOp3
 70
     1
102
RTVSPropertyOp4
 70
     1
102
RTVSPropertyOp5
 70
     1
102
RTVSPropertyOp6
 70
     1
102
RTVSPropertyOp7
 70
     1
102
RTVSPropertyOp8
 70
     1
102
RTVSPropertyOp9
 70
     1
102
RTVSPropertyOp10
 70
     1
102
RTVSPropertyOp11
 70
     1
102
RTVSPropertyOp12
 70
     1
102
RTVSPropertyOp13
 70
     1
102
RTVSPropertyOp14
 70
     1
102
RTVSPropertyOp15
 70
     1
102
RTVSPropertyOp16
 70
     1
102
RTVSPropertyOp17
 70
     1
102
RTVSPropertyOp18
 70
     1
102
RTVSPropertyOp19
 70
     1
102
RTVSPropertyOp20
 70
     1
102
RTVSPropertyOp21
 70
     1
102
RTVSPropertyOp22
 70
     1
102
RTVSPropertyOp23
 70
     1
102
RTVSPropertyOp24
 70
     1
102
RTVSPropertyOp25
 70
     1
102
RTVSPropertyOp26
 70
     1
102
RTVSPropertyOp27
 70
     1
102
RTVSPropertyOp28
 70
     1
102
RTVSPropertyOp29
 70
     1
102
RTVSPropertyOp30
 70
     1
102
RTVSPropertyOp31
 70
     1
102
RTVSPropertyOp32
 70
     1
102
RTVSPropertyOp33
 70
     1
102
RTVSPropertyOp34
 70
     1
102
RTVSPropertyOp35
 70
     1
102
RTVSPropertyOp36
 70
     1
102
RTVSPropertyOp37
 70
     1
102
RTVSPropertyOp38
 70
     1
102
RTVSPropertyOp39
 70
     1
102
RTVSPropertyOp40
 70
     1
102
RTVSPropertyOp41
 70
     1
102
RTVSPropertyOp42
 70
     1
102
RTVSPropertyOp43
 70
     1
102
RTVSPropertyOp44
 70
     1
102
RTVSPropertyOp45
 70
     1
102
RTVSPropertyOp46
 70
     1
102
RTVSPropertyOp47
 70
     1
102
RTVSPropertyOp48
 70
     1
102
RTVSPropertyOp49
 70
     1
102
RTVSPropertyOp50
 70
     1
102
RTVSPropertyOp51
 70
     0
102
RTVSPropertyOp52
 70
     0
102
RTVSPropertyOp53
 70
     1
102
RTVSPropertyOp54
 70
     1
102
RTVSPropertyOp55
 70
     1
102
RTVSPropertyOp56
 70
     1
102
RTVSPropertyOp57
 70
     1
102
RTVSPropertyOp58
 70
     1
102
RTVSPropertyOp59
 70
     1
102
RTVSPropertyOp60
 70
     1
102
RTVSPropertyOp61
 70
     1
102
RTVSPropertyOp62
 70
     1
  0
XRECORD
  5
FBE9
102
{ACAD_REACTORS
330
FBE8
102
}
330
FBE8
100
AcDbXrecord
280
     1
102
RTVSPost2010Prop28
280
     0
102
RTVSPost2010PropOp28
 70
     1
102
RTVSPost2010Prop29
280
     1
102
RTVSPost2010PropOp29
 70
     1
102
RTVSPost2010Prop30
280
     1
102
RTVSPost2010PropOp30
 70
     1
102
RTVSPost2010Prop31
280
     0
102
RTVSPost2010PropOp31
 70
     1
102
RTVSPost2010Prop32
280
     0
102
RTVSPost2010PropOp32
 70
     1
102
RTVSPost2010Prop33
280
     0
102
RTVSPost2010PropOp33
 70
     1
102
RTVSPost2010Prop34
280
     0
102
RTVSPost2010PropOp34
 70
     1
102
RTVSPost2010Prop35
280
     0
102
RTVSPost2010PropOp35
 70
     1
102
RTVSPost2010Prop36
280
     0
102
RTVSPost2010PropOp36
 70
     1
102
RTVSPost2010Prop37
 90
       50
102
RTVSPost2010PropOp37
 70
     1
102
RTVSPost2010Prop38
140
0.0
102
RTVSPost2010PropOp38
 70
     1
102
RTVSPost2010Prop39
140
1.0
102
RTVSPost2010PropOp39
 70
     1
102
RTVSPost2010Prop40
 90
        0
102
RTVSPost2010PropOp40
 70
     1
102
RTVSPost2010Prop41ColorIndex
 90
       18
102
RTVSPost2010Prop41ColorRGB
 90
        0
102
RTVSPost2010PropOp41
 70
     1
102
RTVSPost2010Prop42
 90
       50
102
RTVSPost2010PropOp42
 70
     1
102
RTVSPost2010Prop43
 90
        3
102
RTVSPost2010PropOp43
 70
     1
102
RTVSPost2010Prop44ColorIndex
 90
        5
102
RTVSPost2010Prop44ColorRGB
 90
      255
102
RTVSPost2010PropOp44
 70
     1
102
RTVSPost2010Prop45
280
     0
102
RTVSPost2010PropOp45
 70
     1
102
RTVSPost2010Prop46
 90
       50
102
RTVSPost2010PropOp46
 70
     1
102
RTVSPost2010Prop47
 90
       50
102
RTVSPost2010PropOp47
 70
     1
102
RTVSPost2010Prop48
 90
       50
102
RTVSPost2010PropOp48
 70
     1
102
RTVSPost2010Prop49
280
     0
102
RTVSPost2010PropOp49
 70
     1
102
RTVSPost2010Prop50
 90
       50
102
RTVSPost2010PropOp50
 70
     1
102
RTVSPost2010Prop51ColorIndex
 90
      256
102
RTVSPost2010Prop51ColorRGB
 90
-16777216
102
RTVSPost2010PropOp51
 70
     0
102
RTVSPost2010Prop52
140
1.0
102
RTVSPost2010PropOp52
 70
     0
102
RTVSPost2010Prop53
 90
        2
102
RTVSPost2010PropOp53
 70
     1
102
RTVSPost2010Prop54
  1
strokes_ogs.tif
102
RTVSPost2010PropOp54
 70
     1
102
RTVSPost2010Prop55
280
     0
102
RTVSPost2010PropOp55
 70
     1
102
RTVSPost2010Prop56
140
1.0
102
RTVSPost2010PropOp56
 70
     1
102
RTVSPost2010Prop57
140
1.0
102
RTVSPost2010PropOp57
 70
     1
102
RTVSPropertyOp0
 70
     1
102
RTVSPropertyOp1
 70
     1
102
RTVSPropertyOp2
 70
     1
102
RTVSPropertyOp3
 70
     1
102
RTVSPropertyOp4
 70
     1
102
RTVSPropertyOp5
 70
     1
102
RTVSPropertyOp6
 70
     1
102
RTVSPropertyOp7
 70
     1
102
RTVSPropertyOp8
 70
     1
102
RTVSPropertyOp9
 70
     1
102
RTVSPropertyOp10
 70
     1
102
RTVSPropertyOp11
 70
     1
102
RTVSPropertyOp12
 70
     1
102
RTVSPropertyOp13
 70
     1
102
RTVSPropertyOp14
 70
     1
102
RTVSPropertyOp15
 70
     1
102
RTVSPropertyOp16
 70
     1
102
RTVSPropertyOp17
 70
     1
102
RTVSPropertyOp18
 70
     1
102
RTVSPropertyOp19
 70
     1
102
RTVSPropertyOp20
 70
     1
102
RTVSPropertyOp21
 70
     1
102
RTVSPropertyOp22
 70
     1
102
RTVSPropertyOp23
 70
     1
102
RTVSPropertyOp24
 70
     1
102
RTVSPropertyOp25
 70
     1
102
RTVSPropertyOp26
 70
     1
102
RTVSPropertyOp27
 70
     1
102
RTVSPropertyOp28
 70
     1
102
RTVSPropertyOp29
 70
     1
102
RTVSPropertyOp30
 70
     1
102
RTVSPropertyOp31
 70
     1
102
RTVSPropertyOp32
 70
     1
102
RTVSPropertyOp33
 70
     1
102
RTVSPropertyOp34
 70
     1
102
RTVSPropertyOp35
 70
     1
102
RTVSPropertyOp36
 70
     1
102
RTVSPropertyOp37
 70
     1
102
RTVSPropertyOp38
 70
     1
102
RTVSPropertyOp39
 70
     1
102
RTVSPropertyOp40
 70
     1
102
RTVSPropertyOp41
 70
     1
102
RTVSPropertyOp42
 70
     1
102
RTVSPropertyOp43
 70
     1
102
RTVSPropertyOp44
 70
     1
102
RTVSPropertyOp45
 70
     1
102
RTVSPropertyOp46
 70
     1
102
RTVSPropertyOp47
 70
     1
102
RTVSPropertyOp48
 70
     1
102
RTVSPropertyOp49
 70
     1
102
RTVSPropertyOp50
 70
     1
102
RTVSPropertyOp51
 70
     0
102
RTVSPropertyOp52
 70
     0
102
RTVSPropertyOp53
 70
     1
102
RTVSPropertyOp54
 70
     1
102
RTVSPropertyOp55
 70
     1
102
RTVSPropertyOp56
 70
     1
102
RTVSPropertyOp57
 70
     1
102
RTVSPropertyOp58
 70
     1
102
RTVSPropertyOp59
 70
     1
102
RTVSPropertyOp60
 70
     1
102
RTVSPropertyOp61
 70
     1
102
RTVSPropertyOp62
 70
     1
  0
XRECORD
  5
FBF5
102
{ACAD_REACTORS
330
FBF4
102
}
330
FBF4
100
AcDbXrecord
280
     1
102
RTVSPost2010Prop28
280
     0
102
RTVSPost2010PropOp28
 70
     1
102
RTVSPost2010Prop29
280
     1
102
RTVSPost2010PropOp29
 70
     1
102
RTVSPost2010Prop30
280
     1
102
RTVSPost2010PropOp30
 70
     1
102
RTVSPost2010Prop31
280
     0
102
RTVSPost2010PropOp31
 70
     1
102
RTVSPost2010Prop32
280
     0
102
RTVSPost2010PropOp32
 70
     1
102
RTVSPost2010Prop33
280
     0
102
RTVSPost2010PropOp33
 70
     1
102
RTVSPost2010Prop34
280
     0
102
RTVSPost2010PropOp34
 70
     1
102
RTVSPost2010Prop35
280
     0
102
RTVSPost2010PropOp35
 70
     1
102
RTVSPost2010Prop36
280
     0
102
RTVSPost2010PropOp36
 70
     1
102
RTVSPost2010Prop37
 90
       50
102
RTVSPost2010PropOp37
 70
     0
102
RTVSPost2010Prop38
140
0.0
102
RTVSPost2010PropOp38
 70
     0
102
RTVSPost2010Prop39
140
1.0
102
RTVSPost2010PropOp39
 70
     0
102
RTVSPost2010Prop40
 90
        0
102
RTVSPost2010PropOp40
 70
     0
102
RTVSPost2010Prop41ColorIndex
 90
       18
102
RTVSPost2010Prop41ColorRGB
 90
        0
102
RTVSPost2010PropOp41
 70
     0
102
RTVSPost2010Prop42
 90
       50
102
RTVSPost2010PropOp42
 70
     0
102
RTVSPost2010Prop43
 90
        3
102
RTVSPost2010PropOp43
 70
     0
102
RTVSPost2010Prop44ColorIndex
 90
        5
102
RTVSPost2010Prop44ColorRGB
 90
      255
102
RTVSPost2010PropOp44
 70
     0
102
RTVSPost2010Prop45
280
     0
102
RTVSPost2010PropOp45
 70
     1
102
RTVSPost2010Prop46
 90
       50
102
RTVSPost2010PropOp46
 70
     0
102
RTVSPost2010Prop47
 90
       50
102
RTVSPost2010PropOp47
 70
     0
102
RTVSPost2010Prop48
 90
       50
102
RTVSPost2010PropOp48
 70
     0
102
RTVSPost2010Prop49
280
     0
102
RTVSPost2010PropOp49
 70
     1
102
RTVSPost2010Prop50
 90
       50
102
RTVSPost2010PropOp50
 70
     0
102
RTVSPost2010Prop51ColorIndex
 90
      256
102
RTVSPost2010Prop51ColorRGB
 90
-16777216
102
RTVSPost2010PropOp51
 70
     0
102
RTVSPost2010Prop52
140
1.0
102
RTVSPost2010PropOp52
 70
     0
102
RTVSPost2010Prop53
 90
        2
102
RTVSPost2010PropOp53
 70
     0
102
RTVSPost2010Prop54
  1
strokes_ogs.tif
102
RTVSPost2010PropOp54
 70
     0
102
RTVSPost2010Prop55
280
     0
102
RTVSPost2010PropOp55
 70
     1
102
RTVSPost2010Prop56
140
1.0
102
RTVSPost2010PropOp56
 70
     0
102
RTVSPost2010Prop57
140
1.0
102
RTVSPost2010PropOp57
 70
     0
102
RTVSPropertyOp0
 70
     0
102
RTVSPropertyOp1
 70
     0
102
RTVSPropertyOp2
 70
     0
102
RTVSPropertyOp3
 70
     0
102
RTVSPropertyOp4
 70
     0
102
RTVSPropertyOp5
 70
     0
102
RTVSPropertyOp6
 70
     0
102
RTVSPropertyOp7
 70
     0
102
RTVSPropertyOp8
 70
     0
102
RTVSPropertyOp9
 70
     0
102
RTVSPropertyOp10
 70
     0
102
RTVSPropertyOp11
 70
     0
102
RTVSPropertyOp12
 70
     0
102
RTVSPropertyOp13
 70
     0
102
RTVSPropertyOp14
 70
     2
102
RTVSPropertyOp15
 70
     0
102
RTVSPropertyOp16
 70
     0
102
RTVSPropertyOp17
 70
     0
102
RTVSPropertyOp18
 70
     0
102
RTVSPropertyOp19
 70
     0
102
RTVSPropertyOp20
 70
     0
102
RTVSPropertyOp21
 70
     0
102
RTVSPropertyOp22
 70
     0
102
RTVSPropertyOp23
 70
     0
102
RTVSPropertyOp24
 70
     0
102
RTVSPropertyOp25
 70
     0
102
RTVSPropertyOp26
 70
     0
102
RTVSPropertyOp27
 70
     0
102
RTVSPropertyOp28
 70
     1
102
RTVSPropertyOp29
 70
     1
102
RTVSPropertyOp30
 70
     1
102
RTVSPropertyOp31
 70
     1
102
RTVSPropertyOp32
 70
     1
102
RTVSPropertyOp33
 70
     1
102
RTVSPropertyOp34
 70
     1
102
RTVSPropertyOp35
 70
     1
102
RTVSPropertyOp36
 70
     1
102
RTVSPropertyOp37
 70
     0
102
RTVSPropertyOp38
 70
     0
102
RTVSPropertyOp39
 70
     0
102
RTVSPropertyOp40
 70
     0
102
RTVSPropertyOp41
 70
     0
102
RTVSPropertyOp42
 70
     0
102
RTVSPropertyOp43
 70
     0
102
RTVSPropertyOp44
 70
     0
102
RTVSPropertyOp45
 70
     1
102
RTVSPropertyOp46
 70
     0
102
RTVSPropertyOp47
 70
     0
102
RTVSPropertyOp48
 70
     0
102
RTVSPropertyOp49
 70
     1
102
RTVSPropertyOp50
 70
     0
102
RTVSPropertyOp51
 70
     0
102
RTVSPropertyOp52
 70
     0
102
RTVSPropertyOp53
 70
     0
102
RTVSPropertyOp54
 70
     0
102
RTVSPropertyOp55
 70
     1
102
RTVSPropertyOp56
 70
     0
102
RTVSPropertyOp57
 70
     0
102
RTVSPropertyOp58
 70
     0
102
RTVSPropertyOp59
 70
     0
102
RTVSPropertyOp60
 70
     0
102
RTVSPropertyOp61
 70
     0
102
RTVSPropertyOp62
 70
     0
  0
XRECORD
  5
FBE0
102
{ACAD_REACTORS
330
FBDF
102
}
330
FBDF
100
AcDbXrecord
280
     1
102
RTVSPost2010Prop28
280
     0
102
RTVSPost2010PropOp28
 70
     1
102
RTVSPost2010Prop29
280
     1
102
RTVSPost2010PropOp29
 70
     1
102
RTVSPost2010Prop30
280
     1
102
RTVSPost2010PropOp30
 70
     1
102
RTVSPost2010Prop31
280
     0
102
RTVSPost2010PropOp31
 70
     1
102
RTVSPost2010Prop32
280
     0
102
RTVSPost2010PropOp32
 70
     1
102
RTVSPost2010Prop33
280
     0
102
RTVSPost2010PropOp33
 70
     1
102
RTVSPost2010Prop34
280
     0
102
RTVSPost2010PropOp34
 70
     1
102
RTVSPost2010Prop35
280
     0
102
RTVSPost2010PropOp35
 70
     1
102
RTVSPost2010Prop36
280
     0
102
RTVSPost2010PropOp36
 70
     1
102
RTVSPost2010Prop37
 90
       50
102
RTVSPost2010PropOp37
 70
     1
102
RTVSPost2010Prop38
140
0.0
102
RTVSPost2010PropOp38
 70
     1
102
RTVSPost2010Prop39
140
1.0
102
RTVSPost2010PropOp39
 70
     1
102
RTVSPost2010Prop40
 90
        0
102
RTVSPost2010PropOp40
 70
     1
102
RTVSPost2010Prop41ColorIndex
 90
       18
102
RTVSPost2010Prop41ColorRGB
 90
        0
102
RTVSPost2010PropOp41
 70
     1
102
RTVSPost2010Prop42
 90
       50
102
RTVSPost2010PropOp42
 70
     1
102
RTVSPost2010Prop43
 90
        3
102
RTVSPost2010PropOp43
 70
     1
102
RTVSPost2010Prop44ColorIndex
 90
        5
102
RTVSPost2010Prop44ColorRGB
 90
      255
102
RTVSPost2010PropOp44
 70
     1
102
RTVSPost2010Prop45
280
     0
102
RTVSPost2010PropOp45
 70
     1
102
RTVSPost2010Prop46
 90
       50
102
RTVSPost2010PropOp46
 70
     1
102
RTVSPost2010Prop47
 90
       50
102
RTVSPost2010PropOp47
 70
     1
102
RTVSPost2010Prop48
 90
       50
102
RTVSPost2010PropOp48
 70
     1
102
RTVSPost2010Prop49
280
     0
102
RTVSPost2010PropOp49
 70
     1
102
RTVSPost2010Prop50
 90
       50
102
RTVSPost2010PropOp50
 70
     1
102
RTVSPost2010Prop51ColorIndex
 90
      256
102
RTVSPost2010Prop51ColorRGB
 90
-16777216
102
RTVSPost2010PropOp51
 70
     0
102
RTVSPost2010Prop52
140
1.0
102
RTVSPost2010PropOp52
 70
     0
102
RTVSPost2010Prop53
 90
        2
102
RTVSPost2010PropOp53
 70
     1
102
RTVSPost2010Prop54
  1
strokes_ogs.tif
102
RTVSPost2010PropOp54
 70
     1
102
RTVSPost2010Prop55
280
     0
102
RTVSPost2010PropOp55
 70
     1
102
RTVSPost2010Prop56
140
1.0
102
RTVSPost2010PropOp56
 70
     1
102
RTVSPost2010Prop57
140
1.0
102
RTVSPost2010PropOp57
 70
     1
102
RTVSPropertyOp0
 70
     1
102
RTVSPropertyOp1
 70
     1
102
RTVSPropertyOp2
 70
     1
102
RTVSPropertyOp3
 70
     1
102
RTVSPropertyOp4
 70
     1
102
RTVSPropertyOp5
 70
     1
102
RTVSPropertyOp6
 70
     1
102
RTVSPropertyOp7
 70
     1
102
RTVSPropertyOp8
 70
     1
102
RTVSPropertyOp9
 70
     1
102
RTVSPropertyOp10
 70
     1
102
RTVSPropertyOp11
 70
     1
102
RTVSPropertyOp12
 70
     1
102
RTVSPropertyOp13
 70
     1
102
RTVSPropertyOp14
 70
     1
102
RTVSPropertyOp15
 70
     1
102
RTVSPropertyOp16
 70
     1
102
RTVSPropertyOp17
 70
     1
102
RTVSPropertyOp18
 70
     1
102
RTVSPropertyOp19
 70
     1
102
RTVSPropertyOp20
 70
     1
102
RTVSPropertyOp21
 70
     1
102
RTVSPropertyOp22
 70
     1
102
RTVSPropertyOp23
 70
     1
102
RTVSPropertyOp24
 70
     1
102
RTVSPropertyOp25
 70
     1
102
RTVSPropertyOp26
 70
     1
102
RTVSPropertyOp27
 70
     1
102
RTVSPropertyOp28
 70
     1
102
RTVSPropertyOp29
 70
     1
102
RTVSPropertyOp30
 70
     1
102
RTVSPropertyOp31
 70
     1
102
RTVSPropertyOp32
 70
     1
102
RTVSPropertyOp33
 70
     1
102
RTVSPropertyOp34
 70
     1
102
RTVSPropertyOp35
 70
     1
102
RTVSPropertyOp36
 70
     1
102
RTVSPropertyOp37
 70
     1
102
RTVSPropertyOp38
 70
     1
102
RTVSPropertyOp39
 70
     1
102
RTVSPropertyOp40
 70
     1
102
RTVSPropertyOp41
 70
     1
102
RTVSPropertyOp42
 70
     1
102
RTVSPropertyOp43
 70
     1
102
RTVSPropertyOp44
 70
     1
102
RTVSPropertyOp45
 70
     1
102
RTVSPropertyOp46
 70
     1
102
RTVSPropertyOp47
 70
     1
102
RTVSPropertyOp48
 70
     1
102
RTVSPropertyOp49
 70
     1
102
RTVSPropertyOp50
 70
     1
102
RTVSPropertyOp51
 70
     0
102
RTVSPropertyOp52
 70
     0
102
RTVSPropertyOp53
 70
     1
102
RTVSPropertyOp54
 70
     1
102
RTVSPropertyOp55
 70
     1
102
RTVSPropertyOp56
 70
     1
102
RTVSPropertyOp57
 70
     1
102
RTVSPropertyOp58
 70
     1
102
RTVSPropertyOp59
 70
     1
102
RTVSPropertyOp60
 70
     1
102
RTVSPropertyOp61
 70
     1
102
RTVSPropertyOp62
 70
     1
  0
XRECORD
  5
FBF7
102
{ACAD_REACTORS
330
FBF6
102
}
330
FBF6
100
AcDbXrecord
280
     1
102
RTVSPost2010Prop28
280
     0
102
RTVSPost2010PropOp28
 70
     1
102
RTVSPost2010Prop29
280
     1
102
RTVSPost2010PropOp29
 70
     1
102
RTVSPost2010Prop30
280
     1
102
RTVSPost2010PropOp30
 70
     1
102
RTVSPost2010Prop31
280
     0
102
RTVSPost2010PropOp31
 70
     1
102
RTVSPost2010Prop32
280
     0
102
RTVSPost2010PropOp32
 70
     1
102
RTVSPost2010Prop33
280
     0
102
RTVSPost2010PropOp33
 70
     1
102
RTVSPost2010Prop34
280
     0
102
RTVSPost2010PropOp34
 70
     1
102
RTVSPost2010Prop35
280
     0
102
RTVSPost2010PropOp35
 70
     1
102
RTVSPost2010Prop36
280
     0
102
RTVSPost2010PropOp36
 70
     1
102
RTVSPost2010Prop37
 90
       50
102
RTVSPost2010PropOp37
 70
     0
102
RTVSPost2010Prop38
140
0.0
102
RTVSPost2010PropOp38
 70
     0
102
RTVSPost2010Prop39
140
1.0
102
RTVSPost2010PropOp39
 70
     0
102
RTVSPost2010Prop40
 90
        0
102
RTVSPost2010PropOp40
 70
     0
102
RTVSPost2010Prop41ColorIndex
 90
       18
102
RTVSPost2010Prop41ColorRGB
 90
        0
102
RTVSPost2010PropOp41
 70
     0
102
RTVSPost2010Prop42
 90
       50
102
RTVSPost2010PropOp42
 70
     0
102
RTVSPost2010Prop43
 90
        3
102
RTVSPost2010PropOp43
 70
     0
102
RTVSPost2010Prop44ColorIndex
 90
        5
102
RTVSPost2010Prop44ColorRGB
 90
      255
102
RTVSPost2010PropOp44
 70
     0
102
RTVSPost2010Prop45
280
     0
102
RTVSPost2010PropOp45
 70
     1
102
RTVSPost2010Prop46
 90
       50
102
RTVSPost2010PropOp46
 70
     0
102
RTVSPost2010Prop47
 90
       50
102
RTVSPost2010PropOp47
 70
     0
102
RTVSPost2010Prop48
 90
       50
102
RTVSPost2010PropOp48
 70
     0
102
RTVSPost2010Prop49
280
     0
102
RTVSPost2010PropOp49
 70
     1
102
RTVSPost2010Prop50
 90
       50
102
RTVSPost2010PropOp50
 70
     0
102
RTVSPost2010Prop51ColorIndex
 90
      256
102
RTVSPost2010Prop51ColorRGB
 90
-16777216
102
RTVSPost2010PropOp51
 70
     0
102
RTVSPost2010Prop52
140
1.0
102
RTVSPost2010PropOp52
 70
     0
102
RTVSPost2010Prop53
 90
        2
102
RTVSPost2010PropOp53
 70
     0
102
RTVSPost2010Prop54
  1
strokes_ogs.tif
102
RTVSPost2010PropOp54
 70
     0
102
RTVSPost2010Prop55
280
     0
102
RTVSPost2010PropOp55
 70
     1
102
RTVSPost2010Prop56
140
1.0
102
RTVSPost2010PropOp56
 70
     0
102
RTVSPost2010Prop57
140
1.0
102
RTVSPost2010PropOp57
 70
     0
102
RTVSPropertyOp0
 70
     0
102
RTVSPropertyOp1
 70
     0
102
RTVSPropertyOp2
 70
     0
102
RTVSPropertyOp3
 70
     0
102
RTVSPropertyOp4
 70
     0
102
RTVSPropertyOp5
 70
     0
102
RTVSPropertyOp6
 70
     0
102
RTVSPropertyOp7
 70
     0
102
RTVSPropertyOp8
 70
     0
102
RTVSPropertyOp9
 70
     0
102
RTVSPropertyOp10
 70
     0
102
RTVSPropertyOp11
 70
     0
102
RTVSPropertyOp12
 70
     0
102
RTVSPropertyOp13
 70
     0
102
RTVSPropertyOp14
 70
     2
102
RTVSPropertyOp15
 70
     0
102
RTVSPropertyOp16
 70
     0
102
RTVSPropertyOp17
 70
     0
102
RTVSPropertyOp18
 70
     0
102
RTVSPropertyOp19
 70
     0
102
RTVSPropertyOp20
 70
     0
102
RTVSPropertyOp21
 70
     0
102
RTVSPropertyOp22
 70
     0
102
RTVSPropertyOp23
 70
     0
102
RTVSPropertyOp24
 70
     0
102
RTVSPropertyOp25
 70
     0
102
RTVSPropertyOp26
 70
     0
102
RTVSPropertyOp27
 70
     0
102
RTVSPropertyOp28
 70
     1
102
RTVSPropertyOp29
 70
     1
102
RTVSPropertyOp30
 70
     1
102
RTVSPropertyOp31
 70
     1
102
RTVSPropertyOp32
 70
     1
102
RTVSPropertyOp33
 70
     1
102
RTVSPropertyOp34
 70
     1
102
RTVSPropertyOp35
 70
     1
102
RTVSPropertyOp36
 70
     1
102
RTVSPropertyOp37
 70
     0
102
RTVSPropertyOp38
 70
     0
102
RTVSPropertyOp39
 70
     0
102
RTVSPropertyOp40
 70
     0
102
RTVSPropertyOp41
 70
     0
102
RTVSPropertyOp42
 70
     0
102
RTVSPropertyOp43
 70
     0
102
RTVSPropertyOp44
 70
     0
102
RTVSPropertyOp45
 70
     1
102
RTVSPropertyOp46
 70
     0
102
RTVSPropertyOp47
 70
     0
102
RTVSPropertyOp48
 70
     0
102
RTVSPropertyOp49
 70
     1
102
RTVSPropertyOp50
 70
     0
102
RTVSPropertyOp51
 70
     0
102
RTVSPropertyOp52
 70
     0
102
RTVSPropertyOp53
 70
     0
102
RTVSPropertyOp54
 70
     0
102
RTVSPropertyOp55
 70
     1
102
RTVSPropertyOp56
 70
     0
102
RTVSPropertyOp57
 70
     0
102
RTVSPropertyOp58
 70
     0
102
RTVSPropertyOp59
 70
     0
102
RTVSPropertyOp60
 70
     0
102
RTVSPropertyOp61
 70
     0
102
RTVSPropertyOp62
 70
     0
  0
XRECORD
  5
FBD8
102
{ACAD_REACTORS
330
FBD7
102
}
330
FBD7
100
AcDbXrecord
280
     1
102
RTVSPost2010Prop28
280
     0
102
RTVSPost2010PropOp28
 70
     1
102
RTVSPost2010Prop29
280
     1
102
RTVSPost2010PropOp29
 70
     1
102
RTVSPost2010Prop30
280
     1
102
RTVSPost2010PropOp30
 70
     1
102
RTVSPost2010Prop31
280
     0
102
RTVSPost2010PropOp31
 70
     1
102
RTVSPost2010Prop32
280
     0
102
RTVSPost2010PropOp32
 70
     1
102
RTVSPost2010Prop33
280
     0
102
RTVSPost2010PropOp33
 70
     1
102
RTVSPost2010Prop34
280
     0
102
RTVSPost2010PropOp34
 70
     1
102
RTVSPost2010Prop35
280
     0
102
RTVSPost2010PropOp35
 70
     1
102
RTVSPost2010Prop36
280
     0
102
RTVSPost2010PropOp36
 70
     1
102
RTVSPost2010Prop37
 90
       50
102
RTVSPost2010PropOp37
 70
     1
102
RTVSPost2010Prop38
140
0.0
102
RTVSPost2010PropOp38
 70
     1
102
RTVSPost2010Prop39
140
1.0
102
RTVSPost2010PropOp39
 70
     1
102
RTVSPost2010Prop40
 90
        0
102
RTVSPost2010PropOp40
 70
     1
102
RTVSPost2010Prop41ColorIndex
 90
       18
102
RTVSPost2010Prop41ColorRGB
 90
        0
102
RTVSPost2010PropOp41
 70
     1
102
RTVSPost2010Prop42
 90
       50
102
RTVSPost2010PropOp42
 70
     1
102
RTVSPost2010Prop43
 90
        3
102
RTVSPost2010PropOp43
 70
     1
102
RTVSPost2010Prop44ColorIndex
 90
        5
102
RTVSPost2010Prop44ColorRGB
 90
      255
102
RTVSPost2010PropOp44
 70
     1
102
RTVSPost2010Prop45
280
     0
102
RTVSPost2010PropOp45
 70
     1
102
RTVSPost2010Prop46
 90
       50
102
RTVSPost2010PropOp46
 70
     1
102
RTVSPost2010Prop47
 90
       50
102
RTVSPost2010PropOp47
 70
     1
102
RTVSPost2010Prop48
 90
       50
102
RTVSPost2010PropOp48
 70
     1
102
RTVSPost2010Prop49
280
     0
102
RTVSPost2010PropOp49
 70
     1
102
RTVSPost2010Prop50
 90
       50
102
RTVSPost2010PropOp50
 70
     1
102
RTVSPost2010Prop51ColorIndex
 90
      256
102
RTVSPost2010Prop51ColorRGB
 90
-16777216
102
RTVSPost2010PropOp51
 70
     0
102
RTVSPost2010Prop52
140
1.0
102
RTVSPost2010PropOp52
 70
     0
102
RTVSPost2010Prop53
 90
        2
102
RTVSPost2010PropOp53
 70
     1
102
RTVSPost2010Prop54
  1
strokes_ogs.tif
102
RTVSPost2010PropOp54
 70
     1
102
RTVSPost2010Prop55
280
     0
102
RTVSPost2010PropOp55
 70
     1
102
RTVSPost2010Prop56
140
1.0
102
RTVSPost2010PropOp56
 70
     1
102
RTVSPost2010Prop57
140
1.0
102
RTVSPost2010PropOp57
 70
     1
102
RTVSPropertyOp0
 70
     1
102
RTVSPropertyOp1
 70
     1
102
RTVSPropertyOp2
 70
     1
102
RTVSPropertyOp3
 70
     1
102
RTVSPropertyOp4
 70
     1
102
RTVSPropertyOp5
 70
     1
102
RTVSPropertyOp6
 70
     1
102
RTVSPropertyOp7
 70
     1
102
RTVSPropertyOp8
 70
     1
102
RTVSPropertyOp9
 70
     1
102
RTVSPropertyOp10
 70
     1
102
RTVSPropertyOp11
 70
     1
102
RTVSPropertyOp12
 70
     1
102
RTVSPropertyOp13
 70
     1
102
RTVSPropertyOp14
 70
     1
102
RTVSPropertyOp15
 70
     1
102
RTVSPropertyOp16
 70
     1
102
RTVSPropertyOp17
 70
     1
102
RTVSPropertyOp18
 70
     1
102
RTVSPropertyOp19
 70
     1
102
RTVSPropertyOp20
 70
     1
102
RTVSPropertyOp21
 70
     1
102
RTVSPropertyOp22
 70
     1
102
RTVSPropertyOp23
 70
     1
102
RTVSPropertyOp24
 70
     1
102
RTVSPropertyOp25
 70
     1
102
RTVSPropertyOp26
 70
     1
102
RTVSPropertyOp27
 70
     1
102
RTVSPropertyOp28
 70
     1
102
RTVSPropertyOp29
 70
     1
102
RTVSPropertyOp30
 70
     1
102
RTVSPropertyOp31
 70
     1
102
RTVSPropertyOp32
 70
     1
102
RTVSPropertyOp33
 70
     1
102
RTVSPropertyOp34
 70
     1
102
RTVSPropertyOp35
 70
     1
102
RTVSPropertyOp36
 70
     1
102
RTVSPropertyOp37
 70
     1
102
RTVSPropertyOp38
 70
     1
102
RTVSPropertyOp39
 70
     1
102
RTVSPropertyOp40
 70
     1
102
RTVSPropertyOp41
 70
     1
102
RTVSPropertyOp42
 70
     1
102
RTVSPropertyOp43
 70
     1
102
RTVSPropertyOp44
 70
     1
102
RTVSPropertyOp45
 70
     1
102
RTVSPropertyOp46
 70
     1
102
RTVSPropertyOp47
 70
     1
102
RTVSPropertyOp48
 70
     1
102
RTVSPropertyOp49
 70
     1
102
RTVSPropertyOp50
 70
     1
102
RTVSPropertyOp51
 70
     0
102
RTVSPropertyOp52
 70
     0
102
RTVSPropertyOp53
 70
     1
102
RTVSPropertyOp54
 70
     1
102
RTVSPropertyOp55
 70
     1
102
RTVSPropertyOp56
 70
     1
102
RTVSPropertyOp57
 70
     1
102
RTVSPropertyOp58
 70
     1
102
RTVSPropertyOp59
 70
     1
102
RTVSPropertyOp60
 70
     1
102
RTVSPropertyOp61
 70
     1
102
RTVSPropertyOp62
 70
     1
  0
XRECORD
  5
FBF3
102
{ACAD_REACTORS
330
FBF2
102
}
330
FBF2
100
AcDbXrecord
280
     1
102
RTVSPost2010Prop28
280
     0
102
RTVSPost2010PropOp28
 70
     1
102
RTVSPost2010Prop29
280
     1
102
RTVSPost2010PropOp29
 70
     1
102
RTVSPost2010Prop30
280
     1
102
RTVSPost2010PropOp30
 70
     1
102
RTVSPost2010Prop31
280
     0
102
RTVSPost2010PropOp31
 70
     1
102
RTVSPost2010Prop32
280
     0
102
RTVSPost2010PropOp32
 70
     1
102
RTVSPost2010Prop33
280
     0
102
RTVSPost2010PropOp33
 70
     1
102
RTVSPost2010Prop34
280
     0
102
RTVSPost2010PropOp34
 70
     1
102
RTVSPost2010Prop35
280
     0
102
RTVSPost2010PropOp35
 70
     1
102
RTVSPost2010Prop36
280
     0
102
RTVSPost2010PropOp36
 70
     1
102
RTVSPost2010Prop37
 90
       50
102
RTVSPost2010PropOp37
 70
     1
102
RTVSPost2010Prop38
140
0.0
102
RTVSPost2010PropOp38
 70
     1
102
RTVSPost2010Prop39
140
1.0
102
RTVSPost2010PropOp39
 70
     1
102
RTVSPost2010Prop40
 90
        0
102
RTVSPost2010PropOp40
 70
     1
102
RTVSPost2010Prop41ColorIndex
 90
       18
102
RTVSPost2010Prop41ColorRGB
 90
        0
102
RTVSPost2010PropOp41
 70
     1
102
RTVSPost2010Prop42
 90
       50
102
RTVSPost2010PropOp42
 70
     1
102
RTVSPost2010Prop43
 90
        3
102
RTVSPost2010PropOp43
 70
     1
102
RTVSPost2010Prop44ColorIndex
 90
        5
102
RTVSPost2010Prop44ColorRGB
 90
      255
102
RTVSPost2010PropOp44
 70
     1
102
RTVSPost2010Prop45
280
     0
102
RTVSPost2010PropOp45
 70
     1
102
RTVSPost2010Prop46
 90
       50
102
RTVSPost2010PropOp46
 70
     1
102
RTVSPost2010Prop47
 90
       50
102
RTVSPost2010PropOp47
 70
     1
102
RTVSPost2010Prop48
 90
       50
102
RTVSPost2010PropOp48
 70
     1
102
RTVSPost2010Prop49
280
     0
102
RTVSPost2010PropOp49
 70
     1
102
RTVSPost2010Prop50
 90
       50
102
RTVSPost2010PropOp50
 70
     1
102
RTVSPost2010Prop51ColorIndex
 90
      256
102
RTVSPost2010Prop51ColorRGB
 90
-16777216
102
RTVSPost2010PropOp51
 70
     0
102
RTVSPost2010Prop52
140
1.0
102
RTVSPost2010PropOp52
 70
     0
102
RTVSPost2010Prop53
 90
        2
102
RTVSPost2010PropOp53
 70
     1
102
RTVSPost2010Prop54
  1
strokes_ogs.tif
102
RTVSPost2010PropOp54
 70
     1
102
RTVSPost2010Prop55
280
     0
102
RTVSPost2010PropOp55
 70
     1
102
RTVSPost2010Prop56
140
1.0
102
RTVSPost2010PropOp56
 70
     1
102
RTVSPost2010Prop57
140
1.0
102
RTVSPost2010PropOp57
 70
     1
102
RTVSPropertyOp0
 70
     1
102
RTVSPropertyOp1
 70
     1
102
RTVSPropertyOp2
 70
     1
102
RTVSPropertyOp3
 70
     1
102
RTVSPropertyOp4
 70
     1
102
RTVSPropertyOp5
 70
     1
102
RTVSPropertyOp6
 70
     1
102
RTVSPropertyOp7
 70
     1
102
RTVSPropertyOp8
 70
     1
102
RTVSPropertyOp9
 70
     1
102
RTVSPropertyOp10
 70
     1
102
RTVSPropertyOp11
 70
     1
102
RTVSPropertyOp12
 70
     1
102
RTVSPropertyOp13
 70
     1
102
RTVSPropertyOp14
 70
     1
102
RTVSPropertyOp15
 70
     1
102
RTVSPropertyOp16
 70
     1
102
RTVSPropertyOp17
 70
     1
102
RTVSPropertyOp18
 70
     1
102
RTVSPropertyOp19
 70
     1
102
RTVSPropertyOp20
 70
     1
102
RTVSPropertyOp21
 70
     1
102
RTVSPropertyOp22
 70
     1
102
RTVSPropertyOp23
 70
     1
102
RTVSPropertyOp24
 70
     1
102
RTVSPropertyOp25
 70
     1
102
RTVSPropertyOp26
 70
     1
102
RTVSPropertyOp27
 70
     1
102
RTVSPropertyOp28
 70
     1
102
RTVSPropertyOp29
 70
     1
102
RTVSPropertyOp30
 70
     1
102
RTVSPropertyOp31
 70
     1
102
RTVSPropertyOp32
 70
     1
102
RTVSPropertyOp33
 70
     1
102
RTVSPropertyOp34
 70
     1
102
RTVSPropertyOp35
 70
     1
102
RTVSPropertyOp36
 70
     1
102
RTVSPropertyOp37
 70
     1
102
RTVSPropertyOp38
 70
     1
102
RTVSPropertyOp39
 70
     1
102
RTVSPropertyOp40
 70
     1
102
RTVSPropertyOp41
 70
     1
102
RTVSPropertyOp42
 70
     1
102
RTVSPropertyOp43
 70
     1
102
RTVSPropertyOp44
 70
     1
102
RTVSPropertyOp45
 70
     1
102
RTVSPropertyOp46
 70
     1
102
RTVSPropertyOp47
 70
     1
102
RTVSPropertyOp48
 70
     1
102
RTVSPropertyOp49
 70
     1
102
RTVSPropertyOp50
 70
     1
102
RTVSPropertyOp51
 70
     0
102
RTVSPropertyOp52
 70
     0
102
RTVSPropertyOp53
 70
     1
102
RTVSPropertyOp54
 70
     1
102
RTVSPropertyOp55
 70
     1
102
RTVSPropertyOp56
 70
     1
102
RTVSPropertyOp57
 70
     1
102
RTVSPropertyOp58
 70
     1
102
RTVSPropertyOp59
 70
     1
102
RTVSPropertyOp60
 70
     1
102
RTVSPropertyOp61
 70
     1
102
RTVSPropertyOp62
 70
     1
  0
XRECORD
  5
FBF1
102
{ACAD_REACTORS
330
FBF0
102
}
330
FBF0
100
AcDbXrecord
280
     1
102
RTVSPost2010Prop28
280
     0
102
RTVSPost2010PropOp28
 70
     1
102
RTVSPost2010Prop29
280
     1
102
RTVSPost2010PropOp29
 70
     1
102
RTVSPost2010Prop30
280
     1
102
RTVSPost2010PropOp30
 70
     1
102
RTVSPost2010Prop31
280
     0
102
RTVSPost2010PropOp31
 70
     1
102
RTVSPost2010Prop32
280
     0
102
RTVSPost2010PropOp32
 70
     1
102
RTVSPost2010Prop33
280
     0
102
RTVSPost2010PropOp33
 70
     1
102
RTVSPost2010Prop34
280
     0
102
RTVSPost2010PropOp34
 70
     1
102
RTVSPost2010Prop35
280
     0
102
RTVSPost2010PropOp35
 70
     1
102
RTVSPost2010Prop36
280
     0
102
RTVSPost2010PropOp36
 70
     1
102
RTVSPost2010Prop37
 90
       50
102
RTVSPost2010PropOp37
 70
     1
102
RTVSPost2010Prop38
140
0.0
102
RTVSPost2010PropOp38
 70
     1
102
RTVSPost2010Prop39
140
1.0
102
RTVSPost2010PropOp39
 70
     1
102
RTVSPost2010Prop40
 90
        0
102
RTVSPost2010PropOp40
 70
     1
102
RTVSPost2010Prop41ColorIndex
 90
       18
102
RTVSPost2010Prop41ColorRGB
 90
        0
102
RTVSPost2010PropOp41
 70
     1
102
RTVSPost2010Prop42
 90
       50
102
RTVSPost2010PropOp42
 70
     1
102
RTVSPost2010Prop43
 90
        3
102
RTVSPost2010PropOp43
 70
     1
102
RTVSPost2010Prop44ColorIndex
 90
        5
102
RTVSPost2010Prop44ColorRGB
 90
      255
102
RTVSPost2010PropOp44
 70
     1
102
RTVSPost2010Prop45
280
     0
102
RTVSPost2010PropOp45
 70
     1
102
RTVSPost2010Prop46
 90
       50
102
RTVSPost2010PropOp46
 70
     1
102
RTVSPost2010Prop47
 90
       50
102
RTVSPost2010PropOp47
 70
     1
102
RTVSPost2010Prop48
 90
       50
102
RTVSPost2010PropOp48
 70
     1
102
RTVSPost2010Prop49
280
     0
102
RTVSPost2010PropOp49
 70
     1
102
RTVSPost2010Prop50
 90
       50
102
RTVSPost2010PropOp50
 70
     1
102
RTVSPost2010Prop51ColorIndex
 90
      256
102
RTVSPost2010Prop51ColorRGB
 90
-16777216
102
RTVSPost2010PropOp51
 70
     0
102
RTVSPost2010Prop52
140
1.0
102
RTVSPost2010PropOp52
 70
     0
102
RTVSPost2010Prop53
 90
        2
102
RTVSPost2010PropOp53
 70
     1
102
RTVSPost2010Prop54
  1
strokes_ogs.tif
102
RTVSPost2010PropOp54
 70
     1
102
RTVSPost2010Prop55
280
     0
102
RTVSPost2010PropOp55
 70
     1
102
RTVSPost2010Prop56
140
1.0
102
RTVSPost2010PropOp56
 70
     1
102
RTVSPost2010Prop57
140
1.0
102
RTVSPost2010PropOp57
 70
     1
102
RTVSPropertyOp0
 70
     1
102
RTVSPropertyOp1
 70
     1
102
RTVSPropertyOp2
 70
     1
102
RTVSPropertyOp3
 70
     1
102
RTVSPropertyOp4
 70
     1
102
RTVSPropertyOp5
 70
     1
102
RTVSPropertyOp6
 70
     1
102
RTVSPropertyOp7
 70
     1
102
RTVSPropertyOp8
 70
     1
102
RTVSPropertyOp9
 70
     1
102
RTVSPropertyOp10
 70
     1
102
RTVSPropertyOp11
 70
     1
102
RTVSPropertyOp12
 70
     1
102
RTVSPropertyOp13
 70
     1
102
RTVSPropertyOp14
 70
     1
102
RTVSPropertyOp15
 70
     1
102
RTVSPropertyOp16
 70
     1
102
RTVSPropertyOp17
 70
     1
102
RTVSPropertyOp18
 70
     1
102
RTVSPropertyOp19
 70
     1
102
RTVSPropertyOp20
 70
     1
102
RTVSPropertyOp21
 70
     1
102
RTVSPropertyOp22
 70
     1
102
RTVSPropertyOp23
 70
     1
102
RTVSPropertyOp24
 70
     1
102
RTVSPropertyOp25
 70
     1
102
RTVSPropertyOp26
 70
     1
102
RTVSPropertyOp27
 70
     1
102
RTVSPropertyOp28
 70
     1
102
RTVSPropertyOp29
 70
     1
102
RTVSPropertyOp30
 70
     1
102
RTVSPropertyOp31
 70
     1
102
RTVSPropertyOp32
 70
     1
102
RTVSPropertyOp33
 70
     1
102
RTVSPropertyOp34
 70
     1
102
RTVSPropertyOp35
 70
     1
102
RTVSPropertyOp36
 70
     1
102
RTVSPropertyOp37
 70
     1
102
RTVSPropertyOp38
 70
     1
102
RTVSPropertyOp39
 70
     1
102
RTVSPropertyOp40
 70
     1
102
RTVSPropertyOp41
 70
     1
102
RTVSPropertyOp42
 70
     1
102
RTVSPropertyOp43
 70
     1
102
RTVSPropertyOp44
 70
     1
102
RTVSPropertyOp45
 70
     1
102
RTVSPropertyOp46
 70
     1
102
RTVSPropertyOp47
 70
     1
102
RTVSPropertyOp48
 70
     1
102
RTVSPropertyOp49
 70
     1
102
RTVSPropertyOp50
 70
     1
102
RTVSPropertyOp51
 70
     0
102
RTVSPropertyOp52
 70
     0
102
RTVSPropertyOp53
 70
     1
102
RTVSPropertyOp54
 70
     1
102
RTVSPropertyOp55
 70
     1
102
RTVSPropertyOp56
 70
     1
102
RTVSPropertyOp57
 70
     1
102
RTVSPropertyOp58
 70
     1
102
RTVSPropertyOp59
 70
     1
102
RTVSPropertyOp60
 70
     1
102
RTVSPropertyOp61
 70
     1
102
RTVSPropertyOp62
 70
     1
  0
XRECORD
  5
FBEB
102
{ACAD_REACTORS
330
FBEA
102
}
330
FBEA
100
AcDbXrecord
280
     1
102
RTVSPost2010Prop28
280
     0
102
RTVSPost2010PropOp28
 70
     1
102
RTVSPost2010Prop29
280
     1
102
RTVSPost2010PropOp29
 70
     1
102
RTVSPost2010Prop30
280
     1
102
RTVSPost2010PropOp30
 70
     1
102
RTVSPost2010Prop31
280
     0
102
RTVSPost2010PropOp31
 70
     1
102
RTVSPost2010Prop32
280
     0
102
RTVSPost2010PropOp32
 70
     1
102
RTVSPost2010Prop33
280
     0
102
RTVSPost2010PropOp33
 70
     1
102
RTVSPost2010Prop34
280
     0
102
RTVSPost2010PropOp34
 70
     1
102
RTVSPost2010Prop35
280
     0
102
RTVSPost2010PropOp35
 70
     1
102
RTVSPost2010Prop36
280
     0
102
RTVSPost2010PropOp36
 70
     1
102
RTVSPost2010Prop37
 90
       50
102
RTVSPost2010PropOp37
 70
     1
102
RTVSPost2010Prop38
140
0.0
102
RTVSPost2010PropOp38
 70
     1
102
RTVSPost2010Prop39
140
1.0
102
RTVSPost2010PropOp39
 70
     1
102
RTVSPost2010Prop40
 90
        0
102
RTVSPost2010PropOp40
 70
     1
102
RTVSPost2010Prop41ColorIndex
 90
       18
102
RTVSPost2010Prop41ColorRGB
 90
        0
102
RTVSPost2010PropOp41
 70
     1
102
RTVSPost2010Prop42
 90
       50
102
RTVSPost2010PropOp42
 70
     1
102
RTVSPost2010Prop43
 90
        3
102
RTVSPost2010PropOp43
 70
     1
102
RTVSPost2010Prop44ColorIndex
 90
        5
102
RTVSPost2010Prop44ColorRGB
 90
      255
102
RTVSPost2010PropOp44
 70
     1
102
RTVSPost2010Prop45
280
     0
102
RTVSPost2010PropOp45
 70
     1
102
RTVSPost2010Prop46
 90
       50
102
RTVSPost2010PropOp46
 70
     1
102
RTVSPost2010Prop47
 90
       50
102
RTVSPost2010PropOp47
 70
     1
102
RTVSPost2010Prop48
 90
       50
102
RTVSPost2010PropOp48
 70
     1
102
RTVSPost2010Prop49
280
     0
102
RTVSPost2010PropOp49
 70
     1
102
RTVSPost2010Prop50
 90
       50
102
RTVSPost2010PropOp50
 70
     1
102
RTVSPost2010Prop51ColorIndex
 90
      256
102
RTVSPost2010Prop51ColorRGB
 90
-16777216
102
RTVSPost2010PropOp51
 70
     0
102
RTVSPost2010Prop52
140
1.0
102
RTVSPost2010PropOp52
 70
     0
102
RTVSPost2010Prop53
 90
        2
102
RTVSPost2010PropOp53
 70
     1
102
RTVSPost2010Prop54
  1
strokes_ogs.tif
102
RTVSPost2010PropOp54
 70
     1
102
RTVSPost2010Prop55
280
     0
102
RTVSPost2010PropOp55
 70
     1
102
RTVSPost2010Prop56
140
1.0
102
RTVSPost2010PropOp56
 70
     1
102
RTVSPost2010Prop57
140
1.0
102
RTVSPost2010PropOp57
 70
     1
102
RTVSPropertyOp0
 70
     1
102
RTVSPropertyOp1
 70
     1
102
RTVSPropertyOp2
 70
     1
102
RTVSPropertyOp3
 70
     1
102
RTVSPropertyOp4
 70
     1
102
RTVSPropertyOp5
 70
     1
102
RTVSPropertyOp6
 70
     1
102
RTVSPropertyOp7
 70
     1
102
RTVSPropertyOp8
 70
     1
102
RTVSPropertyOp9
 70
     1
102
RTVSPropertyOp10
 70
     1
102
RTVSPropertyOp11
 70
     1
102
RTVSPropertyOp12
 70
     1
102
RTVSPropertyOp13
 70
     1
102
RTVSPropertyOp14
 70
     1
102
RTVSPropertyOp15
 70
     1
102
RTVSPropertyOp16
 70
     1
102
RTVSPropertyOp17
 70
     1
102
RTVSPropertyOp18
 70
     1
102
RTVSPropertyOp19
 70
     1
102
RTVSPropertyOp20
 70
     1
102
RTVSPropertyOp21
 70
     1
102
RTVSPropertyOp22
 70
     1
102
RTVSPropertyOp23
 70
     1
102
RTVSPropertyOp24
 70
     1
102
RTVSPropertyOp25
 70
     1
102
RTVSPropertyOp26
 70
     1
102
RTVSPropertyOp27
 70
     1
102
RTVSPropertyOp28
 70
     1
102
RTVSPropertyOp29
 70
     1
102
RTVSPropertyOp30
 70
     1
102
RTVSPropertyOp31
 70
     1
102
RTVSPropertyOp32
 70
     1
102
RTVSPropertyOp33
 70
     1
102
RTVSPropertyOp34
 70
     1
102
RTVSPropertyOp35
 70
     1
102
RTVSPropertyOp36
 70
     1
102
RTVSPropertyOp37
 70
     1
102
RTVSPropertyOp38
 70
     1
102
RTVSPropertyOp39
 70
     1
102
RTVSPropertyOp40
 70
     1
102
RTVSPropertyOp41
 70
     1
102
RTVSPropertyOp42
 70
     1
102
RTVSPropertyOp43
 70
     1
102
RTVSPropertyOp44
 70
     1
102
RTVSPropertyOp45
 70
     1
102
RTVSPropertyOp46
 70
     1
102
RTVSPropertyOp47
 70
     1
102
RTVSPropertyOp48
 70
     1
102
RTVSPropertyOp49
 70
     1
102
RTVSPropertyOp50
 70
     1
102
RTVSPropertyOp51
 70
     0
102
RTVSPropertyOp52
 70
     0
102
RTVSPropertyOp53
 70
     1
102
RTVSPropertyOp54
 70
     1
102
RTVSPropertyOp55
 70
     1
102
RTVSPropertyOp56
 70
     1
102
RTVSPropertyOp57
 70
     1
102
RTVSPropertyOp58
 70
     1
102
RTVSPropertyOp59
 70
     1
102
RTVSPropertyOp60
 70
     1
102
RTVSPropertyOp61
 70
     1
102
RTVSPropertyOp62
 70
     1
  0
XRECORD
  5
FBED
102
{ACAD_REACTORS
330
FBEC
102
}
330
FBEC
100
AcDbXrecord
280
     1
102
RTVSPost2010Prop28
280
     0
102
RTVSPost2010PropOp28
 70
     1
102
RTVSPost2010Prop29
280
     1
102
RTVSPost2010PropOp29
 70
     1
102
RTVSPost2010Prop30
280
     1
102
RTVSPost2010PropOp30
 70
     1
102
RTVSPost2010Prop31
280
     0
102
RTVSPost2010PropOp31
 70
     1
102
RTVSPost2010Prop32
280
     0
102
RTVSPost2010PropOp32
 70
     1
102
RTVSPost2010Prop33
280
     0
102
RTVSPost2010PropOp33
 70
     1
102
RTVSPost2010Prop34
280
     0
102
RTVSPost2010PropOp34
 70
     1
102
RTVSPost2010Prop35
280
     0
102
RTVSPost2010PropOp35
 70
     1
102
RTVSPost2010Prop36
280
     0
102
RTVSPost2010PropOp36
 70
     1
102
RTVSPost2010Prop37
 90
       50
102
RTVSPost2010PropOp37
 70
     1
102
RTVSPost2010Prop38
140
0.0
102
RTVSPost2010PropOp38
 70
     1
102
RTVSPost2010Prop39
140
1.0
102
RTVSPost2010PropOp39
 70
     1
102
RTVSPost2010Prop40
 90
        0
102
RTVSPost2010PropOp40
 70
     1
102
RTVSPost2010Prop41ColorIndex
 90
       18
102
RTVSPost2010Prop41ColorRGB
 90
        0
102
RTVSPost2010PropOp41
 70
     1
102
RTVSPost2010Prop42
 90
       50
102
RTVSPost2010PropOp42
 70
     1
102
RTVSPost2010Prop43
 90
        3
102
RTVSPost2010PropOp43
 70
     1
102
RTVSPost2010Prop44ColorIndex
 90
        5
102
RTVSPost2010Prop44ColorRGB
 90
      255
102
RTVSPost2010PropOp44
 70
     1
102
RTVSPost2010Prop45
280
     0
102
RTVSPost2010PropOp45
 70
     1
102
RTVSPost2010Prop46
 90
       50
102
RTVSPost2010PropOp46
 70
     1
102
RTVSPost2010Prop47
 90
       50
102
RTVSPost2010PropOp47
 70
     1
102
RTVSPost2010Prop48
 90
       50
102
RTVSPost2010PropOp48
 70
     1
102
RTVSPost2010Prop49
280
     0
102
RTVSPost2010PropOp49
 70
     1
102
RTVSPost2010Prop50
 90
       50
102
RTVSPost2010PropOp50
 70
     1
102
RTVSPost2010Prop51ColorIndex
 90
      256
102
RTVSPost2010Prop51ColorRGB
 90
-16777216
102
RTVSPost2010PropOp51
 70
     0
102
RTVSPost2010Prop52
140
1.0
102
RTVSPost2010PropOp52
 70
     0
102
RTVSPost2010Prop53
 90
        2
102
RTVSPost2010PropOp53
 70
     1
102
RTVSPost2010Prop54
  1
strokes_ogs.tif
102
RTVSPost2010PropOp54
 70
     1
102
RTVSPost2010Prop55
280
     0
102
RTVSPost2010PropOp55
 70
     1
102
RTVSPost2010Prop56
140
1.0
102
RTVSPost2010PropOp56
 70
     1
102
RTVSPost2010Prop57
140
1.0
102
RTVSPost2010PropOp57
 70
     1
102
RTVSPropertyOp0
 70
     1
102
RTVSPropertyOp1
 70
     1
102
RTVSPropertyOp2
 70
     1
102
RTVSPropertyOp3
 70
     1
102
RTVSPropertyOp4
 70
     1
102
RTVSPropertyOp5
 70
     1
102
RTVSPropertyOp6
 70
     1
102
RTVSPropertyOp7
 70
     1
102
RTVSPropertyOp8
 70
     1
102
RTVSPropertyOp9
 70
     1
102
RTVSPropertyOp10
 70
     1
102
RTVSPropertyOp11
 70
     1
102
RTVSPropertyOp12
 70
     1
102
RTVSPropertyOp13
 70
     1
102
RTVSPropertyOp14
 70
     1
102
RTVSPropertyOp15
 70
     1
102
RTVSPropertyOp16
 70
     1
102
RTVSPropertyOp17
 70
     1
102
RTVSPropertyOp18
 70
     1
102
RTVSPropertyOp19
 70
     1
102
RTVSPropertyOp20
 70
     1
102
RTVSPropertyOp21
 70
     1
102
RTVSPropertyOp22
 70
     1
102
RTVSPropertyOp23
 70
     1
102
RTVSPropertyOp24
 70
     1
102
RTVSPropertyOp25
 70
     1
102
RTVSPropertyOp26
 70
     1
102
RTVSPropertyOp27
 70
     1
102
RTVSPropertyOp28
 70
     1
102
RTVSPropertyOp29
 70
     1
102
RTVSPropertyOp30
 70
     1
102
RTVSPropertyOp31
 70
     1
102
RTVSPropertyOp32
 70
     1
102
RTVSPropertyOp33
 70
     1
102
RTVSPropertyOp34
 70
     1
102
RTVSPropertyOp35
 70
     1
102
RTVSPropertyOp36
 70
     1
102
RTVSPropertyOp37
 70
     1
102
RTVSPropertyOp38
 70
     1
102
RTVSPropertyOp39
 70
     1
102
RTVSPropertyOp40
 70
     1
102
RTVSPropertyOp41
 70
     1
102
RTVSPropertyOp42
 70
     1
102
RTVSPropertyOp43
 70
     1
102
RTVSPropertyOp44
 70
     1
102
RTVSPropertyOp45
 70
     1
102
RTVSPropertyOp46
 70
     1
102
RTVSPropertyOp47
 70
     1
102
RTVSPropertyOp48
 70
     1
102
RTVSPropertyOp49
 70
     1
102
RTVSPropertyOp50
 70
     1
102
RTVSPropertyOp51
 70
     0
102
RTVSPropertyOp52
 70
     0
102
RTVSPropertyOp53
 70
     1
102
RTVSPropertyOp54
 70
     1
102
RTVSPropertyOp55
 70
     1
102
RTVSPropertyOp56
 70
     1
102
RTVSPropertyOp57
 70
     1
102
RTVSPropertyOp58
 70
     1
102
RTVSPropertyOp59
 70
     1
102
RTVSPropertyOp60
 70
     1
102
RTVSPropertyOp61
 70
     1
102
RTVSPropertyOp62
 70
     1
  0
XRECORD
  5
FBDE
102
{ACAD_REACTORS
330
FBDD
102
}
330
FBDD
100
AcDbXrecord
280
     1
102
RTVSPost2010Prop28
280
     0
102
RTVSPost2010PropOp28
 70
     1
102
RTVSPost2010Prop29
280
     1
102
RTVSPost2010PropOp29
 70
     1
102
RTVSPost2010Prop30
280
     1
102
RTVSPost2010PropOp30
 70
     1
102
RTVSPost2010Prop31
280
     0
102
RTVSPost2010PropOp31
 70
     1
102
RTVSPost2010Prop32
280
     0
102
RTVSPost2010PropOp32
 70
     1
102
RTVSPost2010Prop33
280
     0
102
RTVSPost2010PropOp33
 70
     1
102
RTVSPost2010Prop34
280
     0
102
RTVSPost2010PropOp34
 70
     1
102
RTVSPost2010Prop35
280
     0
102
RTVSPost2010PropOp35
 70
     1
102
RTVSPost2010Prop36
280
     0
102
RTVSPost2010PropOp36
 70
     1
102
RTVSPost2010Prop37
 90
       50
102
RTVSPost2010PropOp37
 70
     1
102
RTVSPost2010Prop38
140
0.0
102
RTVSPost2010PropOp38
 70
     1
102
RTVSPost2010Prop39
140
1.0
102
RTVSPost2010PropOp39
 70
     1
102
RTVSPost2010Prop40
 90
        0
102
RTVSPost2010PropOp40
 70
     1
102
RTVSPost2010Prop41ColorIndex
 90
       18
102
RTVSPost2010Prop41ColorRGB
 90
        0
102
RTVSPost2010PropOp41
 70
     1
102
RTVSPost2010Prop42
 90
       50
102
RTVSPost2010PropOp42
 70
     1
102
RTVSPost2010Prop43
 90
        3
102
RTVSPost2010PropOp43
 70
     1
102
RTVSPost2010Prop44ColorIndex
 90
        5
102
RTVSPost2010Prop44ColorRGB
 90
      255
102
RTVSPost2010PropOp44
 70
     1
102
RTVSPost2010Prop45
280
     0
102
RTVSPost2010PropOp45
 70
     1
102
RTVSPost2010Prop46
 90
       50
102
RTVSPost2010PropOp46
 70
     1
102
RTVSPost2010Prop47
 90
       50
102
RTVSPost2010PropOp47
 70
     1
102
RTVSPost2010Prop48
 90
       50
102
RTVSPost2010PropOp48
 70
     1
102
RTVSPost2010Prop49
280
     0
102
RTVSPost2010PropOp49
 70
     1
102
RTVSPost2010Prop50
 90
       50
102
RTVSPost2010PropOp50
 70
     1
102
RTVSPost2010Prop51ColorIndex
 90
      256
102
RTVSPost2010Prop51ColorRGB
 90
-16777216
102
RTVSPost2010PropOp51
 70
     0
102
RTVSPost2010Prop52
140
1.0
102
RTVSPost2010PropOp52
 70
     0
102
RTVSPost2010Prop53
 90
        2
102
RTVSPost2010PropOp53
 70
     1
102
RTVSPost2010Prop54
  1
strokes_ogs.tif
102
RTVSPost2010PropOp54
 70
     1
102
RTVSPost2010Prop55
280
     0
102
RTVSPost2010PropOp55
 70
     1
102
RTVSPost2010Prop56
140
1.0
102
RTVSPost2010PropOp56
 70
     1
102
RTVSPost2010Prop57
140
1.0
102
RTVSPost2010PropOp57
 70
     1
102
RTVSPropertyOp0
 70
     1
102
RTVSPropertyOp1
 70
     1
102
RTVSPropertyOp2
 70
     1
102
RTVSPropertyOp3
 70
     1
102
RTVSPropertyOp4
 70
     1
102
RTVSPropertyOp5
 70
     1
102
RTVSPropertyOp6
 70
     1
102
RTVSPropertyOp7
 70
     1
102
RTVSPropertyOp8
 70
     1
102
RTVSPropertyOp9
 70
     1
102
RTVSPropertyOp10
 70
     1
102
RTVSPropertyOp11
 70
     1
102
RTVSPropertyOp12
 70
     1
102
RTVSPropertyOp13
 70
     1
102
RTVSPropertyOp14
 70
     1
102
RTVSPropertyOp15
 70
     1
102
RTVSPropertyOp16
 70
     1
102
RTVSPropertyOp17
 70
     1
102
RTVSPropertyOp18
 70
     1
102
RTVSPropertyOp19
 70
     1
102
RTVSPropertyOp20
 70
     1
102
RTVSPropertyOp21
 70
     1
102
RTVSPropertyOp22
 70
     1
102
RTVSPropertyOp23
 70
     1
102
RTVSPropertyOp24
 70
     1
102
RTVSPropertyOp25
 70
     1
102
RTVSPropertyOp26
 70
     1
102
RTVSPropertyOp27
 70
     1
102
RTVSPropertyOp28
 70
     1
102
RTVSPropertyOp29
 70
     1
102
RTVSPropertyOp30
 70
     1
102
RTVSPropertyOp31
 70
     1
102
RTVSPropertyOp32
 70
     1
102
RTVSPropertyOp33
 70
     1
102
RTVSPropertyOp34
 70
     1
102
RTVSPropertyOp35
 70
     1
102
RTVSPropertyOp36
 70
     1
102
RTVSPropertyOp37
 70
     1
102
RTVSPropertyOp38
 70
     1
102
RTVSPropertyOp39
 70
     1
102
RTVSPropertyOp40
 70
     1
102
RTVSPropertyOp41
 70
     1
102
RTVSPropertyOp42
 70
     1
102
RTVSPropertyOp43
 70
     1
102
RTVSPropertyOp44
 70
     1
102
RTVSPropertyOp45
 70
     1
102
RTVSPropertyOp46
 70
     1
102
RTVSPropertyOp47
 70
     1
102
RTVSPropertyOp48
 70
     1
102
RTVSPropertyOp49
 70
     1
102
RTVSPropertyOp50
 70
     1
102
RTVSPropertyOp51
 70
     0
102
RTVSPropertyOp52
 70
     0
102
RTVSPropertyOp53
 70
     1
102
RTVSPropertyOp54
 70
     1
102
RTVSPropertyOp55
 70
     1
102
RTVSPropertyOp56
 70
     1
102
RTVSPropertyOp57
 70
     1
102
RTVSPropertyOp58
 70
     1
102
RTVSPropertyOp59
 70
     1
102
RTVSPropertyOp60
 70
     1
102
RTVSPropertyOp61
 70
     1
102
RTVSPropertyOp62
 70
     1
  0
XRECORD
  5
FBE7
102
{ACAD_REACTORS
330
FBE6
102
}
330
FBE6
100
AcDbXrecord
280
     1
102
RTVSPost2010Prop28
280
     0
102
RTVSPost2010PropOp28
 70
     1
102
RTVSPost2010Prop29
280
     1
102
RTVSPost2010PropOp29
 70
     1
102
RTVSPost2010Prop30
280
     1
102
RTVSPost2010PropOp30
 70
     1
102
RTVSPost2010Prop31
280
     0
102
RTVSPost2010PropOp31
 70
     1
102
RTVSPost2010Prop32
280
     0
102
RTVSPost2010PropOp32
 70
     1
102
RTVSPost2010Prop33
280
     0
102
RTVSPost2010PropOp33
 70
     1
102
RTVSPost2010Prop34
280
     0
102
RTVSPost2010PropOp34
 70
     1
102
RTVSPost2010Prop35
280
     0
102
RTVSPost2010PropOp35
 70
     1
102
RTVSPost2010Prop36
280
     0
102
RTVSPost2010PropOp36
 70
     1
102
RTVSPost2010Prop37
 90
       50
102
RTVSPost2010PropOp37
 70
     1
102
RTVSPost2010Prop38
140
0.0
102
RTVSPost2010PropOp38
 70
     1
102
RTVSPost2010Prop39
140
1.0
102
RTVSPost2010PropOp39
 70
     1
102
RTVSPost2010Prop40
 90
        0
102
RTVSPost2010PropOp40
 70
     1
102
RTVSPost2010Prop41ColorIndex
 90
       18
102
RTVSPost2010Prop41ColorRGB
 90
        0
102
RTVSPost2010PropOp41
 70
     1
102
RTVSPost2010Prop42
 90
       50
102
RTVSPost2010PropOp42
 70
     1
102
RTVSPost2010Prop43
 90
        3
102
RTVSPost2010PropOp43
 70
     1
102
RTVSPost2010Prop44ColorIndex
 90
        5
102
RTVSPost2010Prop44ColorRGB
 90
      255
102
RTVSPost2010PropOp44
 70
     1
102
RTVSPost2010Prop45
280
     0
102
RTVSPost2010PropOp45
 70
     1
102
RTVSPost2010Prop46
 90
       50
102
RTVSPost2010PropOp46
 70
     1
102
RTVSPost2010Prop47
 90
       50
102
RTVSPost2010PropOp47
 70
     1
102
RTVSPost2010Prop48
 90
       50
102
RTVSPost2010PropOp48
 70
     1
102
RTVSPost2010Prop49
280
     0
102
RTVSPost2010PropOp49
 70
     1
102
RTVSPost2010Prop50
 90
       50
102
RTVSPost2010PropOp50
 70
     1
102
RTVSPost2010Prop51ColorIndex
 90
      256
102
RTVSPost2010Prop51ColorRGB
 90
-16777216
102
RTVSPost2010PropOp51
 70
     0
102
RTVSPost2010Prop52
140
1.0
102
RTVSPost2010PropOp52
 70
     0
102
RTVSPost2010Prop53
 90
        2
102
RTVSPost2010PropOp53
 70
     1
102
RTVSPost2010Prop54
  1
strokes_ogs.tif
102
RTVSPost2010PropOp54
 70
     1
102
RTVSPost2010Prop55
280
     0
102
RTVSPost2010PropOp55
 70
     1
102
RTVSPost2010Prop56
140
1.0
102
RTVSPost2010PropOp56
 70
     1
102
RTVSPost2010Prop57
140
1.0
102
RTVSPost2010PropOp57
 70
     1
102
RTVSPropertyOp0
 70
     1
102
RTVSPropertyOp1
 70
     1
102
RTVSPropertyOp2
 70
     1
102
RTVSPropertyOp3
 70
     1
102
RTVSPropertyOp4
 70
     1
102
RTVSPropertyOp5
 70
     1
102
RTVSPropertyOp6
 70
     1
102
RTVSPropertyOp7
 70
     1
102
RTVSPropertyOp8
 70
     1
102
RTVSPropertyOp9
 70
     1
102
RTVSPropertyOp10
 70
     1
102
RTVSPropertyOp11
 70
     1
102
RTVSPropertyOp12
 70
     1
102
RTVSPropertyOp13
 70
     1
102
RTVSPropertyOp14
 70
     1
102
RTVSPropertyOp15
 70
     1
102
RTVSPropertyOp16
 70
     1
102
RTVSPropertyOp17
 70
     1
102
RTVSPropertyOp18
 70
     1
102
RTVSPropertyOp19
 70
     1
102
RTVSPropertyOp20
 70
     1
102
RTVSPropertyOp21
 70
     1
102
RTVSPropertyOp22
 70
     1
102
RTVSPropertyOp23
 70
     1
102
RTVSPropertyOp24
 70
     1
102
RTVSPropertyOp25
 70
     1
102
RTVSPropertyOp26
 70
     1
102
RTVSPropertyOp27
 70
     1
102
RTVSPropertyOp28
 70
     1
102
RTVSPropertyOp29
 70
     1
102
RTVSPropertyOp30
 70
     1
102
RTVSPropertyOp31
 70
     1
102
RTVSPropertyOp32
 70
     1
102
RTVSPropertyOp33
 70
     1
102
RTVSPropertyOp34
 70
     1
102
RTVSPropertyOp35
 70
     1
102
RTVSPropertyOp36
 70
     1
102
RTVSPropertyOp37
 70
     1
102
RTVSPropertyOp38
 70
     1
102
RTVSPropertyOp39
 70
     1
102
RTVSPropertyOp40
 70
     1
102
RTVSPropertyOp41
 70
     1
102
RTVSPropertyOp42
 70
     1
102
RTVSPropertyOp43
 70
     1
102
RTVSPropertyOp44
 70
     1
102
RTVSPropertyOp45
 70
     1
102
RTVSPropertyOp46
 70
     1
102
RTVSPropertyOp47
 70
     1
102
RTVSPropertyOp48
 70
     1
102
RTVSPropertyOp49
 70
     1
102
RTVSPropertyOp50
 70
     1
102
RTVSPropertyOp51
 70
     0
102
RTVSPropertyOp52
 70
     0
102
RTVSPropertyOp53
 70
     1
102
RTVSPropertyOp54
 70
     1
102
RTVSPropertyOp55
 70
     1
102
RTVSPropertyOp56
 70
     1
102
RTVSPropertyOp57
 70
     1
102
RTVSPropertyOp58
 70
     1
102
RTVSPropertyOp59
 70
     1
102
RTVSPropertyOp60
 70
     1
102
RTVSPropertyOp61
 70
     1
102
RTVSPropertyOp62
 70
     1
  0
XRECORD
  5
FBEF
102
{ACAD_REACTORS
330
FBEE
102
}
330
FBEE
100
AcDbXrecord
280
     1
102
RTVSPost2010Prop28
280
     0
102
RTVSPost2010PropOp28
 70
     1
102
RTVSPost2010Prop29
280
     1
102
RTVSPost2010PropOp29
 70
     1
102
RTVSPost2010Prop30
280
     1
102
RTVSPost2010PropOp30
 70
     1
102
RTVSPost2010Prop31
280
     0
102
RTVSPost2010PropOp31
 70
     1
102
RTVSPost2010Prop32
280
     0
102
RTVSPost2010PropOp32
 70
     1
102
RTVSPost2010Prop33
280
     0
102
RTVSPost2010PropOp33
 70
     1
102
RTVSPost2010Prop34
280
     0
102
RTVSPost2010PropOp34
 70
     1
102
RTVSPost2010Prop35
280
     0
102
RTVSPost2010PropOp35
 70
     1
102
RTVSPost2010Prop36
280
     0
102
RTVSPost2010PropOp36
 70
     1
102
RTVSPost2010Prop37
 90
       50
102
RTVSPost2010PropOp37
 70
     1
102
RTVSPost2010Prop38
140
0.0
102
RTVSPost2010PropOp38
 70
     1
102
RTVSPost2010Prop39
140
1.0
102
RTVSPost2010PropOp39
 70
     1
102
RTVSPost2010Prop40
 90
        0
102
RTVSPost2010PropOp40
 70
     1
102
RTVSPost2010Prop41ColorIndex
 90
       18
102
RTVSPost2010Prop41ColorRGB
 90
        0
102
RTVSPost2010PropOp41
 70
     1
102
RTVSPost2010Prop42
 90
       50
102
RTVSPost2010PropOp42
 70
     1
102
RTVSPost2010Prop43
 90
        3
102
RTVSPost2010PropOp43
 70
     1
102
RTVSPost2010Prop44ColorIndex
 90
        5
102
RTVSPost2010Prop44ColorRGB
 90
      255
102
RTVSPost2010PropOp44
 70
     1
102
RTVSPost2010Prop45
280
     0
102
RTVSPost2010PropOp45
 70
     1
102
RTVSPost2010Prop46
 90
       50
102
RTVSPost2010PropOp46
 70
     1
102
RTVSPost2010Prop47
 90
       50
102
RTVSPost2010PropOp47
 70
     1
102
RTVSPost2010Prop48
 90
       50
102
RTVSPost2010PropOp48
 70
     1
102
RTVSPost2010Prop49
280
     0
102
RTVSPost2010PropOp49
 70
     1
102
RTVSPost2010Prop50
 90
       50
102
RTVSPost2010PropOp50
 70
     1
102
RTVSPost2010Prop51ColorIndex
 90
      256
102
RTVSPost2010Prop51ColorRGB
 90
-16777216
102
RTVSPost2010PropOp51
 70
     0
102
RTVSPost2010Prop52
140
1.0
102
RTVSPost2010PropOp52
 70
     0
102
RTVSPost2010Prop53
 90
        2
102
RTVSPost2010PropOp53
 70
     1
102
RTVSPost2010Prop54
  1
strokes_ogs.tif
102
RTVSPost2010PropOp54
 70
     1
102
RTVSPost2010Prop55
280
     0
102
RTVSPost2010PropOp55
 70
     1
102
RTVSPost2010Prop56
140
1.0
102
RTVSPost2010PropOp56
 70
     1
102
RTVSPost2010Prop57
140
1.0
102
RTVSPost2010PropOp57
 70
     1
102
RTVSPropertyOp0
 70
     1
102
RTVSPropertyOp1
 70
     1
102
RTVSPropertyOp2
 70
     1
102
RTVSPropertyOp3
 70
     1
102
RTVSPropertyOp4
 70
     1
102
RTVSPropertyOp5
 70
     1
102
RTVSPropertyOp6
 70
     1
102
RTVSPropertyOp7
 70
     1
102
RTVSPropertyOp8
 70
     1
102
RTVSPropertyOp9
 70
     1
102
RTVSPropertyOp10
 70
     1
102
RTVSPropertyOp11
 70
     1
102
RTVSPropertyOp12
 70
     1
102
RTVSPropertyOp13
 70
     1
102
RTVSPropertyOp14
 70
     1
102
RTVSPropertyOp15
 70
     1
102
RTVSPropertyOp16
 70
     1
102
RTVSPropertyOp17
 70
     1
102
RTVSPropertyOp18
 70
     1
102
RTVSPropertyOp19
 70
     1
102
RTVSPropertyOp20
 70
     1
102
RTVSPropertyOp21
 70
     1
102
RTVSPropertyOp22
 70
     1
102
RTVSPropertyOp23
 70
     1
102
RTVSPropertyOp24
 70
     1
102
RTVSPropertyOp25
 70
     1
102
RTVSPropertyOp26
 70
     1
102
RTVSPropertyOp27
 70
     1
102
RTVSPropertyOp28
 70
     1
102
RTVSPropertyOp29
 70
     1
102
RTVSPropertyOp30
 70
     1
102
RTVSPropertyOp31
 70
     1
102
RTVSPropertyOp32
 70
     1
102
RTVSPropertyOp33
 70
     1
102
RTVSPropertyOp34
 70
     1
102
RTVSPropertyOp35
 70
     1
102
RTVSPropertyOp36
 70
     1
102
RTVSPropertyOp37
 70
     1
102
RTVSPropertyOp38
 70
     1
102
RTVSPropertyOp39
 70
     1
102
RTVSPropertyOp40
 70
     1
102
RTVSPropertyOp41
 70
     1
102
RTVSPropertyOp42
 70
     1
102
RTVSPropertyOp43
 70
     1
102
RTVSPropertyOp44
 70
     1
102
RTVSPropertyOp45
 70
     1
102
RTVSPropertyOp46
 70
     1
102
RTVSPropertyOp47
 70
     1
102
RTVSPropertyOp48
 70
     1
102
RTVSPropertyOp49
 70
     1
102
RTVSPropertyOp50
 70
     1
102
RTVSPropertyOp51
 70
     0
102
RTVSPropertyOp52
 70
     0
102
RTVSPropertyOp53
 70
     1
102
RTVSPropertyOp54
 70
     1
102
RTVSPropertyOp55
 70
     1
102
RTVSPropertyOp56
 70
     1
102
RTVSPropertyOp57
 70
     1
102
RTVSPropertyOp58
 70
     1
102
RTVSPropertyOp59
 70
     1
102
RTVSPropertyOp60
 70
     1
102
RTVSPropertyOp61
 70
     1
102
RTVSPropertyOp62
 70
     1
  0
ENDSEC
  0
EOF
