  0
SECTION
  2
HEADER
  9
$ACADVER
  1
AC1015
  9
$ACADMAINTVER
 70
    20
  9
$DWGCODEPAGE
  3
ANSI_932
  9
$INSBASE
 10
0.0
 20
0.0
 30
0.0
  9
$EXTMIN
 10
1822.878940115757
 20
-553.1350784821873
 30
-0.0015258207003583
  9
$EXTMAX
 10
2049.694362494806
 20
-417.7760576075391
 30
0.0000000349246037
  9
$LIMMIN
 10
0.0
 20
0.0
  9
$LIMMAX
 10
420.0
 20
297.0
  9
$ORTHOMODE
 70
     1
  9
$REGENMODE
 70
     1
  9
$FILLMODE
 70
     1
  9
$QTEXTMODE
 70
     0
  9
$MIRRTEXT
 70
     0
  9
$LTSCALE
 40
1.0
  9
$ATTMODE
 70
     1
  9
$TEXTSIZE
 40
3.5
  9
$TRACEWID
 40
1.0
  9
$TEXTSTYLE
  7
BIGFONT
  9
$CLAYER
  8
1
  9
$CELTYPE
  6
BYLAYER
  9
$CECOLOR
 62
     7
  9
$CELTSCALE
 40
1.0
  9
$DISPSILH
 70
     0
  9
$DIMSCALE
 40
1.0
  9
$DIMASZ
 40
2.5
  9
$DIMEXO
 40
0.0625
  9
$DIMDLI
 40
0.38
  9
$DIMRND
 40
0.0
  9
$DIMDLE
 40
0.0
  9
$DIMEXE
 40
0.18
  9
$DIMTP
 40
0.0
  9
$DIMTM
 40
0.0
  9
$DIMTXT
 40
3.0
  9
$DIMCEN
 40
-1.0
  9
$DIMTSZ
 40
0.0
  9
$DIMTOL
 70
     0
  9
$DIMLIM
 70
     0
  9
$DIMTIH
 70
     0
  9
$DIMTOH
 70
     0
  9
$DIMSE1
 70
     0
  9
$DIMSE2
 70
     0
  9
$DIMTAD
 70
     1
  9
$DIMZIN
 70
    12
  9
$DIMBLK
  1

  9
$DIMASO
 70
     1
  9
$DIMSHO
 70
     1
  9
$DIMPOST
  1

  9
$DIMAPOST
  1

  9
$DIMALT
 70
     0
  9
$DIMALTD
 70
     2
  9
$DIMALTF
 40
25.4
  9
$DIMLFAC
 40
1.0
  9
$DIMTOFL
 70
     1
  9
$DIMTVP
 40
0.0
  9
$DIMTIX
 70
     0
  9
$DIMSOXD
 70
     0
  9
$DIMSAH
 70
     0
  9
$DIMBLK1
  1

  9
$DIMBLK2
  1

  9
$DIMSTYLE
  2
STANDARD
  9
$DIMCLRD
 70
     0
  9
$DIMCLRE
 70
     0
  9
$DIMCLRT
 70
     0
  9
$DIMTFAC
 40
1.0
  9
$DIMGAP
 40
1.0
  9
$DIMJUST
 70
     0
  9
$DIMSD1
 70
     0
  9
$DIMSD2
 70
     0
  9
$DIMTOLJ
 70
     1
  9
$DIMTZIN
 70
    12
  9
$DIMALTZ
 70
     0
  9
$DIMALTTZ
 70
     0
  9
$DIMUPT
 70
     0
  9
$DIMDEC
 70
     2
  9
$DIMTDEC
 70
     2
  9
$DIMALTU
 70
     2
  9
$DIMALTTD
 70
     2
  9
$DIMTXSTY
  7
BIGFONT
  9
$DIMAUNIT
 70
     0
  9
$DIMADEC
 70
     0
  9
$DIMALTRND
 40
0.0
  9
$DIMAZIN
 70
     0
  9
$DIMDSEP
 70
    46
  9
$DIMATFIT
 70
     3
  9
$DIMFRAC
 70
     0
  9
$DIMLDRBLK
  1

  9
$DIMLUNIT
 70
     2
  9
$DIMLWD
 70
    -2
  9
$DIMLWE
 70
    -2
  9
$DIMTMOVE
 70
     0
  9
$LUNITS
 70
     2
  9
$LUPREC
 70
     2
  9
$SKETCHINC
 40
1.0
  9
$FILLETRAD
 40
0.0
  9
$AUNITS
 70
     0
  9
$AUPREC
 70
     0
  9
$MENU
  1
acad
  9
$ELEVATION
 40
0.0
  9
$PELEVATION
 40
0.0
  9
$THICKNESS
 40
0.0
  9
$LIMCHECK
 70
     0
  9
$CHAMFERA
 40
0.0
  9
$CHAMFERB
 40
0.0
  9
$CHAMFERC
 40
0.0
  9
$CHAMFERD
 40
0.0
  9
$SKPOLY
 70
     0
  9
$TDCREATE
 40
2452836.755208334
  9
$TDUCREATE
 40
2452836.380218414
  9
$TDUPDATE
 40
2458976.765706019
  9
$TDUUPDATE
 40
2458976.390706018
  9
$TDINDWG
 40
0.6677730093
  9
$TDUSRTIMER
 40
2456006.094891783
  9
$USRTIMER
 70
     1
  9
$ANGBASE
 50
0.0
  9
$ANGDIR
 70
     0
  9
$PDMODE
 70
     0
  9
$PDSIZE
 40
0.0
  9
$PLINEWID
 40
0.0
  9
$SPLFRAME
 70
     0
  9
$SPLINETYPE
 70
     6
  9
$SPLINESEGS
 70
     8
  9
$HANDSEED
  5
D18E
  9
$SURFTAB1
 70
     6
  9
$SURFTAB2
 70
     6
  9
$SURFTYPE
 70
     6
  9
$SURFU
 70
     6
  9
$SURFV
 70
     6
  9
$UCSBASE
  2

  9
$UCSNAME
  2

  9
$UCSORG
 10
0.0
 20
0.0
 30
0.0
  9
$UCSXDIR
 10
1.0
 20
0.0
 30
0.0
  9
$UCSYDIR
 10
0.0
 20
1.0
 30
0.0
  9
$UCSORTHOREF
  2

  9
$UCSORTHOVIEW
 70
     0
  9
$UCSORGTOP
 10
0.0
 20
0.0
 30
0.0
  9
$UCSORGBOTTOM
 10
0.0
 20
0.0
 30
0.0
  9
$UCSORGLEFT
 10
0.0
 20
0.0
 30
0.0
  9
$UCSORGRIGHT
 10
0.0
 20
0.0
 30
0.0
  9
$UCSORGFRONT
 10
0.0
 20
0.0
 30
0.0
  9
$UCSORGBACK
 10
0.0
 20
0.0
 30
0.0
  9
$PUCSBASE
  2

  9
$PUCSNAME
  2

  9
$PUCSORG
 10
0.0
 20
0.0
 30
0.0
  9
$PUCSXDIR
 10
1.0
 20
0.0
 30
0.0
  9
$PUCSYDIR
 10
0.0
 20
1.0
 30
0.0
  9
$PUCSORTHOREF
  2

  9
$PUCSORTHOVIEW
 70
     0
  9
$PUCSORGTOP
 10
0.0
 20
0.0
 30
0.0
  9
$PUCSORGBOTTOM
 10
0.0
 20
0.0
 30
0.0
  9
$PUCSORGLEFT
 10
0.0
 20
0.0
 30
0.0
  9
$PUCSORGRIGHT
 10
0.0
 20
0.0
 30
0.0
  9
$PUCSORGFRONT
 10
0.0
 20
0.0
 30
0.0
  9
$PUCSORGBACK
 10
0.0
 20
0.0
 30
0.0
  9
$USERI1
 70
     0
  9
$USERI2
 70
     0
  9
$USERI3
 70
     0
  9
$USERI4
 70
     0
  9
$USERI5
 70
     0
  9
$USERR1
 40
0.0
  9
$USERR2
 40
0.0
  9
$USERR3
 40
0.0
  9
$USERR4
 40
0.0
  9
$USERR5
 40
0.0
  9
$WORLDVIEW
 70
     1
  9
$SHADEDGE
 70
     3
  9
$SHADEDIF
 70
    70
  9
$TILEMODE
 70
     1
  9
$MAXACTVP
 70
    16
  9
$PINSBASE
 10
0.0
 20
0.0
 30
0.0
  9
$PLIMCHECK
 70
     0
  9
$PEXTMIN
 10
1.000000000000000E+20
 20
1.000000000000000E+20
 30
1.000000000000000E+20
  9
$PEXTMAX
 10
-1.000000000000000E+20
 20
-1.000000000000000E+20
 30
-1.000000000000000E+20
  9
$PLIMMIN
 10
0.0
 20
0.0
  9
$PLIMMAX
 10
420.0
 20
297.0
  9
$UNITMODE
 70
     0
  9
$VISRETAIN
 70
     0
  9
$PLINEGEN
 70
     0
  9
$PSLTSCALE
 70
     1
  9
$TREEDEPTH
 70
  3020
  9
$CMLSTYLE
  2
STANDARD
  9
$CMLJUST
 70
     0
  9
$CMLSCALE
 40
1.0
  9
$PROXYGRAPHICS
 70
     1
  9
$MEASUREMENT
 70
     1
  9
$CELWEIGHT
370
    -1
  9
$ENDCAPS
280
     0
  9
$JOINSTYLE
280
     0
  9
$LWDISPLAY
290
     0
  9
$INSUNITS
 70
     0
  9
$HYPERLINKBASE
  1

  9
$STYLESHEET
  1
CANON00.CTB
  9
$XEDIT
290
     1
  9
$CEPSNTYPE
380
     0
  9
$PSTYLEMODE
290
     1
  9
$FINGERPRINTGUID
  2
{7545F8F0-0B94-11D4-9EDF-0040266A266F}
  9
$VERSIONGUID
  2
{F9F5C6AF-00B0-6A40-9962-B23485555BC7}
  9
$EXTNAMES
290
     1
  9
$PSVPSCALE
 40
0.0
  9
$OLESTARTUP
290
     0
  0
ENDSEC
  0
SECTION
  2
CLASSES
  0
CLASS
  1
DICTIONARYVAR
  2
AcDbDictionaryVar
  3
ObjectDBX Classes
 90
        0
280
     0
281
     0
  0
CLASS
  1
ACDBDICTIONARYWDFLT
  2
AcDbDictionaryWithDefault
  3
ObjectDBX Classes
 90
        0
280
     0
281
     0
  0
CLASS
  1
ACDBPLACEHOLDER
  2
AcDbPlaceHolder
  3
ObjectDBX Classes
 90
        0
280
     0
281
     0
  0
CLASS
  1
LAYOUT
  2
AcDbLayout
  3
ObjectDBX Classes
 90
        0
280
     0
281
     0
  0
CLASS
  1
MATERIAL
  2
AcDbMaterial
  3
ObjectDBX Classes
 90
     1153
280
     0
281
     0
  0
CLASS
  1
VISUALSTYLE
  2
AcDbVisualStyle
  3
ObjectDBX Classes
 90
     4095
280
     0
281
     0
  0
CLASS
  1
TABLESTYLE
  2
AcDbTableStyle
  3
ObjectDBX Classes
 90
     4095
280
     0
281
     0
  0
CLASS
  1
EXACXREFPANELOBJECT
  2
ExAcXREFPanelObject
  3
EXAC_ESW
 90
     1025
280
     1
281
     0
  0
CLASS
  1
NPOCOLLECTION
  2
AcDbImpNonPersistentObjectsCollection
  3
ObjectDBX Classes
 90
     1153
280
     1
281
     0
  0
CLASS
  1
SORTENTSTABLE
  2
AcDbSortentsTable
  3
ObjectDBX Classes
 90
        0
280
     0
281
     0
  0
CLASS
  1
SCALE
  2
AcDbScale
  3
ObjectDBX Classes
 90
     1153
280
     0
281
     0
  0
CLASS
  1
MLEADERSTYLE
  2
AcDbMLeaderStyle
  3
ACDB_MLEADERSTYLE_CLASS
 90
     4095
280
     0
281
     0
  0
CLASS
  1
CELLSTYLEMAP
  2
AcDbCellStyleMap
  3
ObjectDBX Classes
 90
     1152
280
     0
281
     0
  0
CLASS
  1
RASTERVARIABLES
  2
AcDbRasterVariables
  3
ISM
 90
        0
280
     0
281
     0
  0
CLASS
  1
IMAGEDEF
  2
AcDbRasterImageDef
  3
ISM
 90
        0
280
     0
281
     0
  0
CLASS
  1
IMAGE
  2
AcDbRasterImage
  3
ISM
 90
    34943
280
     0
281
     1
  0
CLASS
  1
IMAGEDEF_REACTOR
  2
AcDbRasterImageDefReactor
  3
ISM
 90
    32769
280
     0
281
     0
  0
CLASS
  1
ACDBSECTIONVIEWSTYLE
  2
AcDbSectionViewStyle
  3
ObjectDBX Classes
 90
     1025
280
     0
281
     0
  0
CLASS
  1
ACDBDETAILVIEWSTYLE
  2
AcDbDetailViewStyle
  3
ObjectDBX Classes
 90
     1025
280
     0
281
     0
  0
ENDSEC
  0
SECTION
  2
TABLES
  0
TABLE
  2
VPORT
  5
8
330
0
100
AcDbSymbolTable
 70
     1
  0
VPORT
  5
8F41
330
8
100
AcDbSymbolTableRecord
100
AcDbViewportTableRecord
  2
*Active
 70
     0
 10
0.0
 20
0.0
 11
1.0
 21
1.0
 12
1936.286651305282
 22
-485.4555680448632
 13
0.0
 23
0.0
 14
1.0
 24
1.0
 15
10.0
 25
10.0
 16
0.0
 26
0.0
 36
1.0
 17
0.0
 27
0.0
 37
0.0
 40
136.9672468652381
 41
2.099206349206349
 42
50.0
 43
0.0
 44
0.0
 50
0.0
 51
0.0
 71
    16
 72
   100
 73
     1
 74
     0
 75
     0
 76
     0
 77
     0
 78
     0
281
     0
 65
     1
110
0.0
120
0.0
130
0.0
111
1.0
121
0.0
131
0.0
112
0.0
122
1.0
132
0.0
 79
     0
146
0.0
1001
ACAD_NAV_VCDISPLAY
1070
     3
  0
ENDTAB
  0
TABLE
  2
LTYPE
  5
5
330
0
100
AcDbSymbolTable
 70
     3
  0
LTYPE
  5
12
330
5
100
AcDbSymbolTableRecord
100
AcDbLinetypeTableRecord
  2
BYBLOCK
 70
     0
  3

 72
    65
 73
     0
 40
0.0
  0
LTYPE
  5
13
330
5
100
AcDbSymbolTableRecord
100
AcDbLinetypeTableRecord
  2
BYLAYER
 70
     0
  3

 72
    65
 73
     0
 40
0.0
  0
LTYPE
  5
14
330
5
100
AcDbSymbolTableRecord
100
AcDbLinetypeTableRecord
  2
CONTINUOUS
 70
     0
  3
Solid line
 72
    65
 73
     0
 40
0.0
  0
LTYPE
  5
C0D
330
5
100
AcDbSymbolTableRecord
100
AcDbLinetypeTableRecord
  2
CENTER2
 70
     0
  3
___ _ ___ _ ___ _ ___ _ ___ _ ___ _ ___ _ ___ _
 72
    65
 73
     4
 40
28.575
 49
19.05
 74
     0
 49
-3.174999999999998
 74
     0
 49
3.174999999999998
 74
     0
 49
-3.174999999999998
 74
     0
  0
ENDTAB
  0
TABLE
  2
LAYER
  5
2
102
{ACAD_XDICTIONARY
360
A0A3
102
}
330
0
100
AcDbSymbolTable
 70
     5
  0
LAYER
  5
F
102
{ACAD_XDICTIONARY
360
9FD1
102
}
330
2
100
AcDbSymbolTableRecord
100
AcDbLayerTableRecord
  2
0
 70
     0
 62
     2
  6
CONTINUOUS
370
    -3
390
1C61
  0
LAYER
  5
30
330
2
100
AcDbSymbolTableRecord
100
AcDbLayerTableRecord
  2
DEFPOINTS
 70
     0
 62
     7
  6
CONTINUOUS
290
     0
370
    -3
390
1C61
  0
LAYER
  5
526
102
{ACAD_XDICTIONARY
360
9FD3
102
}
330
2
100
AcDbSymbolTableRecord
100
AcDbLayerTableRecord
  2
2
 70
     0
 62
     1
  6
CONTINUOUS
370
    -3
390
1C61
  0
LAYER
  5
138F
102
{ACAD_XDICTIONARY
360
9FD5
102
}
330
2
100
AcDbSymbolTableRecord
100
AcDbLayerTableRecord
  2
3
 70
     0
 62
     6
  6
CENTER2
370
    -3
390
1C61
  0
LAYER
  5
1390
102
{ACAD_XDICTIONARY
360
9FD7
102
}
330
2
100
AcDbSymbolTableRecord
100
AcDbLayerTableRecord
  2
1
 70
     0
 62
     7
  6
CONTINUOUS
370
    -3
390
1C61
  0
ENDTAB
  0
TABLE
  2
STYLE
  5
3
330
0
100
AcDbSymbolTable
 70
     2
  0
STYLE
  5
10
330
3
100
AcDbSymbolTableRecord
100
AcDbTextStyleTableRecord
  2
STANDARD
 70
     0
 40
0.0
 41
1.0
 50
0.0
 71
     0
 42
3.5
  3
ISOCP.SHX
  4
extfont.shx
  0
STYLE
  5
52A
330
3
100
AcDbSymbolTableRecord
100
AcDbTextStyleTableRecord
  2
BIGFONT
 70
     0
 40
0.0
 41
1.0
 50
0.0
 71
     0
 42
3.5
  3
txt
  4
bigfont
  0
ENDTAB
  0
TABLE
  2
VIEW
  5
6
330
0
100
AcDbSymbolTable
 70
     0
  0
ENDTAB
  0
TABLE
  2
UCS
  5
7
330
0
100
AcDbSymbolTable
 70
     0
  0
ENDTAB
  0
TABLE
  2
APPID
  5
9
330
0
100
AcDbSymbolTable
 70
     9
  0
APPID
  5
11
330
9
100
AcDbSymbolTableRecord
100
AcDbRegAppTableRecord
  2
ACAD
 70
     0
  0
APPID
  5
323
330
9
100
AcDbSymbolTableRecord
100
AcDbRegAppTableRecord
  2
CONTENTTABDATA
 70
     0
  0
APPID
  5
324
330
9
100
AcDbSymbolTableRecord
100
AcDbRegAppTableRecord
  2
CONTENTCURRENTTAB
 70
     0
  0
APPID
  5
9A86
330
9
100
AcDbSymbolTableRecord
100
AcDbRegAppTableRecord
  2
ACAD_EXEMPT_FROM_CAD_STANDARDS
 70
     0
  0
APPID
  5
9FCB
330
9
100
AcDbSymbolTableRecord
100
AcDbRegAppTableRecord
  2
ACAD_MLEADERVER
 70
     0
  0
APPID
  5
A3BF
330
9
100
AcDbSymbolTableRecord
100
AcDbRegAppTableRecord
  2
ACAD_PSEXT
 70
     0
  0
APPID
  5
C28D
330
9
100
AcDbSymbolTableRecord
100
AcDbRegAppTableRecord
  2
GENIUS_GENODEF_13
 70
     0
  0
APPID
  5
C28E
330
9
100
AcDbSymbolTableRecord
100
AcDbRegAppTableRecord
  2
GENIUS_GENOBJ-N-FIL_13
 70
     0
  0
APPID
  5
CFEB
330
9
100
AcDbSymbolTableRecord
100
AcDbRegAppTableRecord
  2
ACAD_NAV_VCDISPLAY
 70
     0
  0
ENDTAB
  0
TABLE
  2
DIMSTYLE
  5
A
330
0
100
AcDbSymbolTable
 70
     1
100
AcDbDimStyleTable
 71
     1
340
117
  0
DIMSTYLE
105
117
102
{ACAD_REACTORS
330
CB4C
330
CB7C
330
CBA1
330
CBD2
330
CBDF
330
CBF5
330
CC0F
330
CC3D
330
CC4A
330
CC59
330
CC66
102
}
330
A
100
AcDbSymbolTableRecord
100
AcDbDimStyleTableRecord
  2
STANDARD
 70
     0
 41
2.5
 73
     0
 74
     0
 77
     1
 78
    12
140
3.0
141
-1.0
147
1.0
172
     1
271
     2
272
     2
284
    12
340
52A
  0
ENDTAB
  0
TABLE
  2
BLOCK_RECORD
  5
1
330
0
100
AcDbSymbolTable
 70
    17
  0
BLOCK_RECORD
  5
18
102
{ACAD_XDICTIONARY
360
9ACC
102
}
330
1
100
AcDbSymbolTableRecord
100
AcDbBlockTableRecord
  2
*MODEL_SPACE
340
1C64
  0
BLOCK_RECORD
  5
15
330
1
100
AcDbSymbolTableRecord
100
AcDbBlockTableRecord
  2
*PAPER_SPACE
340
1C65
  0
BLOCK_RECORD
  5
CB4D
330
1
100
AcDbSymbolTableRecord
100
AcDbBlockTableRecord
  2
*D0
340
0
  0
BLOCK_RECORD
  5
CB7D
330
1
100
AcDbSymbolTableRecord
100
AcDbBlockTableRecord
  2
*D1
340
0
  0
BLOCK_RECORD
  5
CBA2
330
1
100
AcDbSymbolTableRecord
100
AcDbBlockTableRecord
  2
*D2
340
0
  0
BLOCK_RECORD
  5
CBD3
330
1
100
AcDbSymbolTableRecord
100
AcDbBlockTableRecord
  2
*D3
340
0
  0
BLOCK_RECORD
  5
CBE0
330
1
100
AcDbSymbolTableRecord
100
AcDbBlockTableRecord
  2
*D4
340
0
  0
BLOCK_RECORD
  5
CBF6
330
1
100
AcDbSymbolTableRecord
100
AcDbBlockTableRecord
  2
*D5
340
0
  0
BLOCK_RECORD
  5
CC10
330
1
100
AcDbSymbolTableRecord
100
AcDbBlockTableRecord
  2
*D6
340
0
  0
BLOCK_RECORD
  5
CC3E
330
1
100
AcDbSymbolTableRecord
100
AcDbBlockTableRecord
  2
*D7
340
0
  0
BLOCK_RECORD
  5
CC4B
330
1
100
AcDbSymbolTableRecord
100
AcDbBlockTableRecord
  2
*D8
340
0
  0
BLOCK_RECORD
  5
CC5A
330
1
100
AcDbSymbolTableRecord
100
AcDbBlockTableRecord
  2
*D9
340
0
  0
BLOCK_RECORD
  5
CC67
330
1
100
AcDbSymbolTableRecord
100
AcDbBlockTableRecord
  2
*D10
340
0
  0
ENDTAB
  0
ENDSEC
  0
SECTION
  2
BLOCKS
  0
BLOCK
  5
44
330
18
100
AcDbEntity
  8
0
100
AcDbBlockBegin
  2
*MODEL_SPACE
 70
     2
 10
0.0
 20
0.0
 30
0.0
  3
*MODEL_SPACE
  1

  0
ENDBLK
  5
45
330
18
100
AcDbEntity
  8
0
100
AcDbBlockEnd
  0
BLOCK
  5
42
330
15
100
AcDbEntity
 67
     1
  8
0
100
AcDbBlockBegin
  2
*PAPER_SPACE
 70
     0
 10
0.0
 20
0.0
 30
0.0
  3
*PAPER_SPACE
  1

  0
ENDBLK
  5
43
330
15
100
AcDbEntity
 67
     1
  8
0
100
AcDbBlockEnd
  0
BLOCK
  5
CB4E
330
CB4D
100
AcDbEntity
  8
0
 62
     7
100
AcDbBlockBegin
  2
*D0
 70
     1
 10
0.0
 20
0.0
 30
0.0
  3
*D0
  1

  0
LINE
  5
CB73
330
CB4D
100
AcDbEntity
  8
2
 62
     0
370
    -2
100
AcDbLine
 10
2016.399848365146
 20
-454.7902863992649
 30
0.0
 11
2033.884235350106
 21
-454.7902863992649
 31
0.0
  0
LINE
  5
CB74
330
CB4D
100
AcDbEntity
  8
2
 62
     0
370
    -2
100
AcDbLine
 10
2015.881383680976
 20
-439.790286399265
 30
0.0
 11
2033.884235350106
 21
-439.790286399265
 31
0.0
  0
LINE
  5
CB75
330
CB4D
100
AcDbEntity
  8
2
 62
     0
370
    -2
100
AcDbLine
 10
2033.704235350106
 20
-452.290286399265
 30
0.0
 11
2033.704235350106
 21
-442.2902863992649
 31
0.0
  0
SOLID
  5
CB76
330
CB4D
100
AcDbEntity
  8
2
 62
     0
100
AcDbTrace
 10
2033.287568683439
 20
-452.290286399265
 30
0.0
 11
2034.120902016773
 21
-452.290286399265
 31
0.0
 12
2033.704235350106
 22
-454.7902863992649
 32
0.0
 13
2033.704235350106
 23
-454.7902863992649
 33
0.0
  0
SOLID
  5
CB77
330
CB4D
100
AcDbEntity
  8
2
 62
     0
100
AcDbTrace
 10
2033.287568683439
 20
-442.2902863992649
 30
0.0
 11
2034.120902016773
 21
-442.2902863992649
 31
0.0
 12
2033.704235350106
 22
-439.790286399265
 32
0.0
 13
2033.704235350106
 23
-439.790286399265
 33
0.0
  0
MTEXT
  5
CB78
330
CB4D
100
AcDbEntity
  8
2
 62
     0
100
AcDbMText
 10
2031.204235350106
 20
-447.2902863992646
 30
0.0
 40
3.0
 41
0.0
 71
     5
 72
     1
  1
\A1;15
  7
BIGFONT
 11
0.0000000000000001
 21
1.0
 31
0.0
 73
     1
 44
1.0
1001
ACAD
1000
MTEXTBEGIN
1070
    73
1070
     1
1070
    44
1040
1.0
1070
    74
1070
     0
1000
MTEXTEND
  0
POINT
  5
CB79
330
CB4D
100
AcDbEntity
  8
DEFPOINTS
 62
     0
100
AcDbPoint
 10
2016.337348365146
 20
-454.7902863992649
 30
0.0
  0
POINT
  5
CB7A
330
CB4D
100
AcDbEntity
  8
DEFPOINTS
 62
     0
100
AcDbPoint
 10
2015.818883680976
 20
-439.790286399265
 30
0.0
  0
POINT
  5
CB7B
330
CB4D
100
AcDbEntity
  8
DEFPOINTS
 62
     0
100
AcDbPoint
 10
2033.704235350106
 20
-439.790286399265
 30
0.0
  0
ENDBLK
  5
CB4F
330
CB4D
100
AcDbEntity
  8
0
 62
     7
100
AcDbBlockEnd
  0
BLOCK
  5
CB7E
330
CB7D
100
AcDbEntity
  8
0
 62
     1
100
AcDbBlockBegin
  2
*D1
 70
     1
 10
0.0
 20
0.0
 30
0.0
  3
*D1
  1

  0
LINE
  5
CCD5
330
CB7D
100
AcDbEntity
  8
2
 62
     0
370
    -2
100
AcDbLine
 10
1892.532824712479
 20
-527.0420836281154
 30
0.0
 11
1892.532824712479
 21
-541.1602977680868
 31
0.0
  0
LINE
  5
CCD6
330
CB7D
100
AcDbEntity
  8
2
 62
     0
370
    -2
100
AcDbLine
 10
1943.332824712478
 20
-527.0420836281154
 30
0.0
 11
1943.332824712478
 21
-541.1602977680868
 31
0.0
  0
LINE
  5
CCD7
330
CB7D
100
AcDbEntity
  8
2
 62
     0
370
    -2
100
AcDbLine
 10
1895.032824712479
 20
-540.9802977680867
 30
0.0
 11
1940.832824712478
 21
-540.9802977680867
 31
0.0
  0
SOLID
  5
CCD8
330
CB7D
100
AcDbEntity
  8
2
 62
     0
100
AcDbTrace
 10
1895.032824712479
 20
-540.5636311014202
 30
0.0
 11
1895.032824712479
 21
-541.3969644347535
 31
0.0
 12
1892.532824712479
 22
-540.9802977680867
 32
0.0
 13
1892.532824712479
 23
-540.9802977680867
 33
0.0
  0
SOLID
  5
CCD9
330
CB7D
100
AcDbEntity
  8
2
 62
     0
100
AcDbTrace
 10
1940.832824712478
 20
-540.5636311014202
 30
0.0
 11
1940.832824712478
 21
-541.3969644347535
 31
0.0
 12
1943.332824712478
 22
-540.9802977680867
 32
0.0
 13
1943.332824712478
 23
-540.9802977680867
 33
0.0
  0
MTEXT
  5
CCDA
330
CB7D
100
AcDbEntity
  8
2
 62
     0
100
AcDbMText
 10
1917.932824712478
 20
-538.4802977680869
 30
0.0
 40
3.0
 41
0.0
 71
     5
 72
     1
  1
\A1;50.8
  7
BIGFONT
 73
     1
 44
1.0
1001
ACAD
1000
MTEXTBEGIN
1070
    73
1070
     1
1070
    44
1040
1.0
1070
    74
1070
     0
1000
MTEXTEND
  0
POINT
  5
CCDB
330
CB7D
100
AcDbEntity
  8
DEFPOINTS
 62
     0
100
AcDbPoint
 10
1892.532824712479
 20
-526.9795836281153
 30
0.0
  0
POINT
  5
CCDC
330
CB7D
100
AcDbEntity
  8
DEFPOINTS
 62
     0
100
AcDbPoint
 10
1943.332824712478
 20
-526.9795836281153
 30
0.0
  0
POINT
  5
CCDD
330
CB7D
100
AcDbEntity
  8
DEFPOINTS
 62
     0
100
AcDbPoint
 10
1943.332824712478
 20
-540.9802977680867
 30
0.0
  0
ENDBLK
  5
CB7F
330
CB7D
100
AcDbEntity
  8
0
 62
     1
100
AcDbBlockEnd
  0
BLOCK
  5
CBA3
330
CBA2
100
AcDbEntity
  8
0
 62
     1
100
AcDbBlockBegin
  2
*D2
 70
     1
 10
0.0
 20
0.0
 30
0.0
  3
*D2
  1

  0
LINE
  5
CCDE
330
CBA2
100
AcDbEntity
  8
2
 62
     0
370
    -2
100
AcDbLine
 10
1897.232824712478
 20
-527.0420836281154
 30
0.0
 11
1897.232824712478
 21
-534.1602977680868
 31
0.0
  0
LINE
  5
CCDF
330
CBA2
100
AcDbEntity
  8
2
 62
     0
370
    -2
100
AcDbLine
 10
1938.632824712479
 20
-527.043511908058
 30
0.0
 11
1938.632824712479
 21
-534.1602977680868
 31
0.0
  0
LINE
  5
CCE0
330
CBA2
100
AcDbEntity
  8
2
 62
     0
370
    -2
100
AcDbLine
 10
1899.732824712478
 20
-533.9802977680867
 30
0.0
 11
1936.132824712479
 21
-533.9802977680867
 31
0.0
  0
SOLID
  5
CCE1
330
CBA2
100
AcDbEntity
  8
2
 62
     0
100
AcDbTrace
 10
1899.732824712478
 20
-533.5636311014202
 30
0.0
 11
1899.732824712478
 21
-534.3969644347533
 31
0.0
 12
1897.232824712478
 22
-533.9802977680867
 32
0.0
 13
1897.232824712478
 23
-533.9802977680867
 33
0.0
  0
SOLID
  5
CCE2
330
CBA2
100
AcDbEntity
  8
2
 62
     0
100
AcDbTrace
 10
1936.132824712479
 20
-533.5636311014202
 30
0.0
 11
1936.132824712479
 21
-534.3969644347533
 31
0.0
 12
1938.632824712479
 22
-533.9802977680867
 32
0.0
 13
1938.632824712479
 23
-533.9802977680867
 33
0.0
  0
MTEXT
  5
CCE3
330
CBA2
100
AcDbEntity
  8
2
 62
     0
100
AcDbMText
 10
1917.932824712479
 20
-531.4802977680868
 30
0.0
 40
3.0
 41
0.0
 71
     5
 72
     1
  1
\A1;41.4
  7
BIGFONT
 73
     1
 44
1.0
1001
ACAD
1000
MTEXTBEGIN
1070
    73
1070
     1
1070
    44
1040
1.0
1070
    74
1070
     0
1000
MTEXTEND
  0
POINT
  5
CCE4
330
CBA2
100
AcDbEntity
  8
DEFPOINTS
 62
     0
100
AcDbPoint
 10
1897.232824712478
 20
-526.9795836281153
 30
0.0
  0
POINT
  5
CCE5
330
CBA2
100
AcDbEntity
  8
DEFPOINTS
 62
     0
100
AcDbPoint
 10
1938.632824712479
 20
-526.9810119080581
 30
0.0
  0
POINT
  5
CCE6
330
CBA2
100
AcDbEntity
  8
DEFPOINTS
 62
     0
100
AcDbPoint
 10
1938.632824712479
 20
-533.9802977680867
 30
0.0
  0
ENDBLK
  5
CBA4
330
CBA2
100
AcDbEntity
  8
0
 62
     1
100
AcDbBlockEnd
  0
BLOCK
  5
CBD4
330
CBD3
100
AcDbEntity
  8
0
 62
     1
100
AcDbBlockBegin
  2
*D3
 70
     1
 10
0.0
 20
0.0
 30
0.0
  3
*D3
  1

  0
LINE
  5
CCE7
330
CBD3
100
AcDbEntity
  8
2
 62
     0
370
    -2
100
AcDbLine
 10
1892.532824712479
 20
-527.0420836281154
 30
0.0
 11
1892.532824712479
 21
-541.1602977680868
 31
0.0
  0
LINE
  5
CCE8
330
CBD3
100
AcDbEntity
  8
2
 62
     0
370
    -2
100
AcDbLine
 10
1851.436277319421
 20
-520.0420836281153
 30
0.0
 11
1851.436277319421
 21
-541.1602977680868
 31
0.0
  0
LINE
  5
CCE9
330
CBD3
100
AcDbEntity
  8
2
 62
     0
370
    -2
100
AcDbLine
 10
1890.032824712478
 20
-540.9802977680867
 30
0.0
 11
1853.93627731942
 21
-540.9802977680867
 31
0.0
  0
SOLID
  5
CCEA
330
CBD3
100
AcDbEntity
  8
2
 62
     0
100
AcDbTrace
 10
1890.032824712478
 20
-540.5636311014202
 30
0.0
 11
1890.032824712478
 21
-541.3969644347535
 31
0.0
 12
1892.532824712479
 22
-540.9802977680867
 32
0.0
 13
1892.532824712479
 23
-540.9802977680867
 33
0.0
  0
SOLID
  5
CCEB
330
CBD3
100
AcDbEntity
  8
2
 62
     0
100
AcDbTrace
 10
1853.93627731942
 20
-540.5636311014202
 30
0.0
 11
1853.93627731942
 21
-541.3969644347535
 31
0.0
 12
1851.436277319421
 22
-540.9802977680867
 32
0.0
 13
1851.436277319421
 23
-540.9802977680867
 33
0.0
  0
MTEXT
  5
CCEC
330
CBD3
100
AcDbEntity
  8
2
 62
     0
100
AcDbMText
 10
1871.98455101595
 20
-538.4802977680869
 30
0.0
 40
3.0
 41
0.0
 71
     5
 72
     1
  1
\A1;41.1
  7
BIGFONT
 73
     1
 44
1.0
1001
ACAD
1000
MTEXTBEGIN
1070
    73
1070
     1
1070
    44
1040
1.0
1070
    74
1070
     0
1000
MTEXTEND
  0
POINT
  5
CCED
330
CBD3
100
AcDbEntity
  8
DEFPOINTS
 62
     0
100
AcDbPoint
 10
1892.532824712479
 20
-526.9795836281153
 30
0.0
  0
POINT
  5
CCEE
330
CBD3
100
AcDbEntity
  8
DEFPOINTS
 62
     0
100
AcDbPoint
 10
1851.436277319421
 20
-519.9795836281151
 30
0.0
  0
POINT
  5
CCEF
330
CBD3
100
AcDbEntity
  8
DEFPOINTS
 62
     0
100
AcDbPoint
 10
1851.436277319421
 20
-540.9802977680867
 30
0.0
  0
ENDBLK
  5
CBD5
330
CBD3
100
AcDbEntity
  8
0
 62
     1
100
AcDbBlockEnd
  0
BLOCK
  5
CBE1
330
CBE0
100
AcDbEntity
  8
0
 62
     1
100
AcDbBlockBegin
  2
*D4
 70
     1
 10
0.0
 20
0.0
 30
0.0
  3
*D4
  1

  0
LINE
  5
CCF0
330
CBE0
100
AcDbEntity
  8
2
 62
     0
370
    -2
100
AcDbLine
 10
1943.332824712478
 20
-527.0420836281154
 30
0.0
 11
1943.332824712478
 21
-541.1602977680868
 31
0.0
  0
LINE
  5
CCF1
330
CBE0
100
AcDbEntity
  8
2
 62
     0
370
    -2
100
AcDbLine
 10
1984.432824712479
 20
-519.4420836281151
 30
0.0
 11
1984.432824712479
 21
-541.1602977680868
 31
0.0
  0
LINE
  5
CCF2
330
CBE0
100
AcDbEntity
  8
2
 62
     0
370
    -2
100
AcDbLine
 10
1945.832824712478
 20
-540.9802977680867
 30
0.0
 11
1981.932824712479
 21
-540.9802977680867
 31
0.0
  0
SOLID
  5
CCF3
330
CBE0
100
AcDbEntity
  8
2
 62
     0
100
AcDbTrace
 10
1945.832824712478
 20
-540.5636311014202
 30
0.0
 11
1945.832824712478
 21
-541.3969644347535
 31
0.0
 12
1943.332824712478
 22
-540.9802977680867
 32
0.0
 13
1943.332824712478
 23
-540.9802977680867
 33
0.0
  0
SOLID
  5
CCF4
330
CBE0
100
AcDbEntity
  8
2
 62
     0
100
AcDbTrace
 10
1981.932824712479
 20
-540.5636311014202
 30
0.0
 11
1981.932824712479
 21
-541.3969644347535
 31
0.0
 12
1984.432824712479
 22
-540.9802977680867
 32
0.0
 13
1984.432824712479
 23
-540.9802977680867
 33
0.0
  0
MTEXT
  5
CCF5
330
CBE0
100
AcDbEntity
  8
2
 62
     0
100
AcDbMText
 10
1963.882824712479
 20
-538.4802977680869
 30
0.0
 40
3.0
 41
0.0
 71
     5
 72
     1
  1
\A1;41.1
  7
BIGFONT
 73
     1
 44
1.0
1001
ACAD
1000
MTEXTBEGIN
1070
    73
1070
     1
1070
    44
1040
1.0
1070
    74
1070
     0
1000
MTEXTEND
  0
POINT
  5
CCF6
330
CBE0
100
AcDbEntity
  8
DEFPOINTS
 62
     0
100
AcDbPoint
 10
1943.332824712478
 20
-526.9795836281153
 30
0.0
  0
POINT
  5
CCF7
330
CBE0
100
AcDbEntity
  8
DEFPOINTS
 62
     0
100
AcDbPoint
 10
1984.432824712479
 20
-519.3795836281155
 30
0.0
  0
POINT
  5
CCF8
330
CBE0
100
AcDbEntity
  8
DEFPOINTS
 62
     0
100
AcDbPoint
 10
1984.432824712479
 20
-540.9802977680867
 30
0.0
  0
ENDBLK
  5
CBE2
330
CBE0
100
AcDbEntity
  8
0
 62
     1
100
AcDbBlockEnd
  0
BLOCK
  5
CBF7
330
CBF6
100
AcDbEntity
  8
0
 62
     1
100
AcDbBlockBegin
  2
*D5
 70
     1
 10
0.0
 20
0.0
 30
0.0
  3
*D5
  1

  0
LINE
  5
CCB6
330
CBF6
100
AcDbEntity
  8
2
 62
     0
370
    -2
100
AcDbLine
 10
1824.432824712479
 20
-438.5020824747958
 30
0.0
 11
1824.432824712479
 21
-428.6602863992649
 31
0.0
  0
LINE
  5
CCB7
330
CBF6
100
AcDbEntity
  8
2
 62
     0
370
    -2
100
AcDbLine
 10
1917.932824712479
 20
-436.2152863992649
 30
0.0
 11
1917.932824712479
 21
-428.6602863992649
 31
0.0
  0
LINE
  5
CCB8
330
CBF6
100
AcDbEntity
  8
2
 62
     0
370
    -2
100
AcDbLine
 10
1826.932824712479
 20
-428.8402863992649
 30
0.0
 11
1915.432824712479
 21
-428.8402863992649
 31
0.0
  0
SOLID
  5
CCB9
330
CBF6
100
AcDbEntity
  8
2
 62
     0
100
AcDbTrace
 10
1826.932824712479
 20
-428.4236197325982
 30
0.0
 11
1826.932824712479
 21
-429.2569530659315
 31
0.0
 12
1824.432824712479
 22
-428.8402863992649
 32
0.0
 13
1824.432824712479
 23
-428.8402863992649
 33
0.0
  0
SOLID
  5
CCBA
330
CBF6
100
AcDbEntity
  8
2
 62
     0
100
AcDbTrace
 10
1915.432824712479
 20
-428.4236197325982
 30
0.0
 11
1915.432824712479
 21
-429.2569530659315
 31
0.0
 12
1917.932824712479
 22
-428.8402863992649
 32
0.0
 13
1917.932824712479
 23
-428.8402863992649
 33
0.0
  0
MTEXT
  5
CCBB
330
CBF6
100
AcDbEntity
  8
2
 62
     0
100
AcDbMText
 10
1871.182824712479
 20
-426.3402863992649
 30
0.0
 40
3.0
 41
0.0
 71
     5
 72
     1
  1
\A1;93.5
  7
BIGFONT
 73
     1
 44
1.0
1001
ACAD
1000
MTEXTBEGIN
1070
    73
1070
     1
1070
    44
1040
1.0
1070
    74
1070
     0
1000
MTEXTEND
  0
POINT
  5
CCBC
330
CBF6
100
AcDbEntity
  8
DEFPOINTS
 62
     0
100
AcDbPoint
 10
1824.432824712479
 20
-438.5645824747958
 30
0.0
  0
POINT
  5
CCBD
330
CBF6
100
AcDbEntity
  8
DEFPOINTS
 62
     0
100
AcDbPoint
 10
1917.932824712479
 20
-436.277786399265
 30
0.0
  0
POINT
  5
CCBE
330
CBF6
100
AcDbEntity
  8
DEFPOINTS
 62
     0
100
AcDbPoint
 10
1917.932824712479
 20
-428.8402863992649
 30
0.0
  0
ENDBLK
  5
CBF8
330
CBF6
100
AcDbEntity
  8
0
 62
     1
100
AcDbBlockEnd
  0
BLOCK
  5
CC11
330
CC10
100
AcDbEntity
  8
0
 62
     1
100
AcDbBlockBegin
  2
*D6
 70
     1
 10
0.0
 20
0.0
 30
0.0
  3
*D6
  1

  0
LINE
  5
CCA3
330
CC10
100
AcDbEntity
  8
2
 62
     0
370
    -2
100
AcDbLine
 10
1984.432824712479
 20
-442.6915757299793
 30
0.0
 11
1984.432824712479
 21
-428.6602863992649
 31
0.0
  0
LINE
  5
CCA4
330
CC10
100
AcDbEntity
  8
2
 62
     0
370
    -2
100
AcDbLine
 10
1917.932824712479
 20
-436.2152863992649
 30
0.0
 11
1917.932824712479
 21
-428.6602863992649
 31
0.0
  0
LINE
  5
CCA5
330
CC10
100
AcDbEntity
  8
2
 62
     0
370
    -2
100
AcDbLine
 10
1981.932824712479
 20
-428.8402863992649
 30
0.0
 11
1920.432824712479
 21
-428.8402863992649
 31
0.0
  0
SOLID
  5
CCA6
330
CC10
100
AcDbEntity
  8
2
 62
     0
100
AcDbTrace
 10
1981.932824712479
 20
-428.4236197325982
 30
0.0
 11
1981.932824712479
 21
-429.2569530659315
 31
0.0
 12
1984.432824712479
 22
-428.8402863992649
 32
0.0
 13
1984.432824712479
 23
-428.8402863992649
 33
0.0
  0
SOLID
  5
CCA7
330
CC10
100
AcDbEntity
  8
2
 62
     0
100
AcDbTrace
 10
1920.432824712479
 20
-428.4236197325982
 30
0.0
 11
1920.432824712479
 21
-429.2569530659315
 31
0.0
 12
1917.932824712479
 22
-428.8402863992649
 32
0.0
 13
1917.932824712479
 23
-428.8402863992649
 33
0.0
  0
MTEXT
  5
CCA8
330
CC10
100
AcDbEntity
  8
2
 62
     0
100
AcDbMText
 10
1951.182824712479
 20
-426.3402863992649
 30
0.0
 40
3.0
 41
0.0
 71
     5
 72
     1
  1
\A1;66.5
  7
BIGFONT
 73
     1
 44
1.0
1001
ACAD
1000
MTEXTBEGIN
1070
    73
1070
     1
1070
    44
1040
1.0
1070
    74
1070
     0
1000
MTEXTEND
  0
POINT
  5
CCA9
330
CC10
100
AcDbEntity
  8
DEFPOINTS
 62
     0
100
AcDbPoint
 10
1984.432824712479
 20
-442.7540757299793
 30
0.0
  0
POINT
  5
CCAA
330
CC10
100
AcDbEntity
  8
DEFPOINTS
 62
     0
100
AcDbPoint
 10
1917.932824712479
 20
-436.277786399265
 30
0.0
  0
POINT
  5
CCAB
330
CC10
100
AcDbEntity
  8
DEFPOINTS
 62
     0
100
AcDbPoint
 10
1917.932824712479
 20
-428.8402863992649
 30
0.0
  0
ENDBLK
  5
CC12
330
CC10
100
AcDbEntity
  8
0
 62
     1
100
AcDbBlockEnd
  0
BLOCK
  5
CC3F
330
CC3E
100
AcDbEntity
  8
0
 62
     1
100
AcDbBlockBegin
  2
*D7
 70
     1
 10
0.0
 20
0.0
 30
0.0
  3
*D7
  1

  0
LINE
  5
CCAD
330
CC3E
100
AcDbEntity
  8
2
 62
     0
370
    -2
100
AcDbLine
 10
1824.432824712479
 20
-438.5020824747958
 30
0.0
 11
1824.432824712479
 21
-421.6602863992648
 31
0.0
  0
LINE
  5
CCAE
330
CC3E
100
AcDbEntity
  8
2
 62
     0
370
    -2
100
AcDbLine
 10
1984.432824712479
 20
-442.6915757299793
 30
0.0
 11
1984.432824712479
 21
-421.6602863992648
 31
0.0
  0
LINE
  5
CCAF
330
CC3E
100
AcDbEntity
  8
2
 62
     0
370
    -2
100
AcDbLine
 10
1826.932824712479
 20
-421.8402863992649
 30
0.0
 11
1981.932824712479
 21
-421.8402863992649
 31
0.0
  0
SOLID
  5
CCB0
330
CC3E
100
AcDbEntity
  8
2
 62
     0
100
AcDbTrace
 10
1826.932824712479
 20
-421.423619732598
 30
0.0
 11
1826.932824712479
 21
-422.2569530659316
 31
0.0
 12
1824.432824712479
 22
-421.8402863992649
 32
0.0
 13
1824.432824712479
 23
-421.8402863992649
 33
0.0
  0
SOLID
  5
CCB1
330
CC3E
100
AcDbEntity
  8
2
 62
     0
100
AcDbTrace
 10
1981.932824712479
 20
-421.423619732598
 30
0.0
 11
1981.932824712479
 21
-422.2569530659316
 31
0.0
 12
1984.432824712479
 22
-421.8402863992649
 32
0.0
 13
1984.432824712479
 23
-421.8402863992649
 33
0.0
  0
MTEXT
  5
CCB2
330
CC3E
100
AcDbEntity
  8
2
 62
     0
100
AcDbMText
 10
1904.432824712479
 20
-419.3402863992649
 30
0.0
 40
3.0
 41
0.0
 71
     5
 72
     1
  1
\A1;160
  7
BIGFONT
 73
     1
 44
1.0
1001
ACAD
1000
MTEXTBEGIN
1070
    73
1070
     1
1070
    44
1040
1.0
1070
    74
1070
     0
1000
MTEXTEND
  0
POINT
  5
CCB3
330
CC3E
100
AcDbEntity
  8
DEFPOINTS
 62
     0
100
AcDbPoint
 10
1824.432824712479
 20
-438.5645824747958
 30
0.0
  0
POINT
  5
CCB4
330
CC3E
100
AcDbEntity
  8
DEFPOINTS
 62
     0
100
AcDbPoint
 10
1984.432824712479
 20
-442.7540757299793
 30
0.0
  0
POINT
  5
CCB5
330
CC3E
100
AcDbEntity
  8
DEFPOINTS
 62
     0
100
AcDbPoint
 10
1984.432824712479
 20
-421.8402863992649
 30
0.0
  0
ENDBLK
  5
CC40
330
CC3E
100
AcDbEntity
  8
0
 62
     1
100
AcDbBlockEnd
  0
BLOCK
  5
CC4C
330
CC4B
100
AcDbEntity
  8
0
 62
     1
100
AcDbBlockBegin
  2
*D8
 70
     1
 10
0.0
 20
0.0
 30
0.0
  3
*D8
  1

  0
LINE
  5
CCC0
330
CC4B
100
AcDbEntity
  8
2
 62
     0
370
    -2
100
AcDbLine
 10
2010.968883680976
 20
-475.4847312436868
 30
0.0
 11
2010.968883680976
 21
-480.9202863992648
 31
0.0
  0
LINE
  5
CCC1
330
CC4B
100
AcDbEntity
  8
2
 62
     0
370
    -2
100
AcDbLine
 10
2015.818883680976
 20
-471.452786399265
 30
0.0
 11
2015.818883680976
 21
-480.9202863992648
 31
0.0
  0
LINE
  5
CCC2
330
CC4B
100
AcDbEntity
  8
2
 62
     0
370
    -2
100
AcDbLine
 10
2008.468883680976
 20
-480.7402863992648
 30
0.0
 11
2005.968883680976
 21
-480.7402863992648
 31
0.0
  0
LINE
  5
CCC3
330
CC4B
100
AcDbEntity
  8
2
 62
     0
370
    -2
100
AcDbLine
 10
2018.318883680976
 20
-480.7402863992648
 30
0.0
 11
2031.818883680976
 21
-480.7402863992648
 31
0.0
  0
LINE
  5
CCC4
330
CC4B
100
AcDbEntity
  8
2
 62
     0
370
    -2
100
AcDbLine
 10
2010.968883680976
 20
-480.7402863992648
 30
0.0
 11
2015.818883680976
 21
-480.7402863992648
 31
0.0
  0
SOLID
  5
CCC5
330
CC4B
100
AcDbEntity
  8
2
 62
     0
100
AcDbTrace
 10
2008.468883680976
 20
-480.3236197325983
 30
0.0
 11
2008.468883680976
 21
-481.1569530659316
 31
0.0
 12
2010.968883680976
 22
-480.7402863992648
 32
0.0
 13
2010.968883680976
 23
-480.7402863992648
 33
0.0
  0
SOLID
  5
CCC6
330
CC4B
100
AcDbEntity
  8
2
 62
     0
100
AcDbTrace
 10
2018.318883680976
 20
-480.3236197325983
 30
0.0
 11
2018.318883680976
 21
-481.1569530659316
 31
0.0
 12
2015.818883680976
 22
-480.7402863992648
 32
0.0
 13
2015.818883680976
 23
-480.7402863992648
 33
0.0
  0
MTEXT
  5
CCC7
330
CC4B
100
AcDbEntity
  8
2
 62
     0
100
AcDbMText
 10
2026.318883680976
 20
-478.240286399265
 30
0.0
 40
3.0
 41
0.0
 71
     5
 72
     1
  1
\A1;4.85
  7
BIGFONT
 73
     1
 44
1.0
1001
ACAD
1000
MTEXTBEGIN
1070
    73
1070
     1
1070
    44
1040
1.0
1070
    74
1070
     0
1000
MTEXTEND
  0
POINT
  5
CCC8
330
CC4B
100
AcDbEntity
  8
DEFPOINTS
 62
     0
100
AcDbPoint
 10
2010.968883680976
 20
-475.4222312436866
 30
0.0
  0
POINT
  5
CCC9
330
CC4B
100
AcDbEntity
  8
DEFPOINTS
 62
     0
100
AcDbPoint
 10
2015.818883680976
 20
-471.3902863992649
 30
0.0
  0
POINT
  5
CCCA
330
CC4B
100
AcDbEntity
  8
DEFPOINTS
 62
     0
100
AcDbPoint
 10
2015.818883680976
 20
-480.7402863992648
 30
0.0
  0
ENDBLK
  5
CC4D
330
CC4B
100
AcDbEntity
  8
0
 62
     1
100
AcDbBlockEnd
  0
BLOCK
  5
CC5B
330
CC5A
100
AcDbEntity
  8
0
 62
     1
100
AcDbBlockBegin
  2
*D9
 70
     1
 10
0.0
 20
0.0
 30
0.0
  3
*D9
  1

  0
LINE
  5
CCCC
330
CC5A
100
AcDbEntity
  8
2
 62
     0
370
    -2
100
AcDbLine
 10
2007.018883680976
 20
-469.852786399265
 30
0.0
 11
2007.018883680976
 21
-487.920286399265
 31
0.0
  0
LINE
  5
CCCD
330
CC5A
100
AcDbEntity
  8
2
 62
     0
370
    -2
100
AcDbLine
 10
2015.818883680976
 20
-471.5152863992648
 30
0.0
 11
2015.818883680976
 21
-487.920286399265
 31
0.0
  0
LINE
  5
CCCE
330
CC5A
100
AcDbEntity
  8
2
 62
     0
370
    -2
100
AcDbLine
 10
2009.518883680976
 20
-487.7402863992648
 30
0.0
 11
2013.318883680976
 21
-487.7402863992648
 31
0.0
  0
SOLID
  5
CCCF
330
CC5A
100
AcDbEntity
  8
2
 62
     0
100
AcDbTrace
 10
2009.518883680976
 20
-487.3236197325983
 30
0.0
 11
2009.518883680976
 21
-488.1569530659317
 31
0.0
 12
2007.018883680976
 22
-487.7402863992648
 32
0.0
 13
2007.018883680976
 23
-487.7402863992648
 33
0.0
  0
SOLID
  5
CCD0
330
CC5A
100
AcDbEntity
  8
2
 62
     0
100
AcDbTrace
 10
2013.318883680976
 20
-487.3236197325983
 30
0.0
 11
2013.318883680976
 21
-488.1569530659317
 31
0.0
 12
2015.818883680976
 22
-487.7402863992648
 32
0.0
 13
2015.818883680976
 23
-487.7402863992648
 33
0.0
  0
MTEXT
  5
CCD1
330
CC5A
100
AcDbEntity
  8
2
 62
     0
100
AcDbMText
 10
2011.418883680976
 20
-485.2402863992649
 30
0.0
 40
3.0
 41
0.0
 71
     5
 72
     1
  1
\A1;8.8
  7
BIGFONT
 73
     1
 44
1.0
1001
ACAD
1000
MTEXTBEGIN
1070
    73
1070
     1
1070
    44
1040
1.0
1070
    74
1070
     0
1000
MTEXTEND
  0
POINT
  5
CCD2
330
CC5A
100
AcDbEntity
  8
DEFPOINTS
 62
     0
100
AcDbPoint
 10
2007.018883680976
 20
-469.7902863992649
 30
0.0
  0
POINT
  5
CCD3
330
CC5A
100
AcDbEntity
  8
DEFPOINTS
 62
     0
100
AcDbPoint
 10
2015.818883680976
 20
-471.452786399265
 30
0.0
  0
POINT
  5
CCD4
330
CC5A
100
AcDbEntity
  8
DEFPOINTS
 62
     0
100
AcDbPoint
 10
2015.818883680976
 20
-487.7402863992648
 30
0.0
  0
ENDBLK
  5
CC5C
330
CC5A
100
AcDbEntity
  8
0
 62
     1
100
AcDbBlockEnd
  0
BLOCK
  5
CC68
330
CC67
100
AcDbEntity
  8
0
 62
     1
100
AcDbBlockBegin
  2
*D10
 70
     1
 10
0.0
 20
0.0
 30
0.0
  3
*D10
  1

  0
LINE
  5
CC9A
330
CC67
100
AcDbEntity
  8
2
 62
     0
370
    -2
100
AcDbLine
 10
2007.018883680976
 20
-439.827786399265
 30
0.0
 11
2007.018883680976
 21
-428.6602863992649
 31
0.0
  0
LINE
  5
CC9B
330
CC67
100
AcDbEntity
  8
2
 62
     0
370
    -2
100
AcDbLine
 10
2022.818883680976
 20
-442.5156484451059
 30
0.0
 11
2022.818883680976
 21
-428.6602863992649
 31
0.0
  0
LINE
  5
CC9C
330
CC67
100
AcDbEntity
  8
2
 62
     0
370
    -2
100
AcDbLine
 10
2009.518883680977
 20
-428.8402863992649
 30
0.0
 11
2020.318883680976
 21
-428.8402863992649
 31
0.0
  0
SOLID
  5
CC9D
330
CC67
100
AcDbEntity
  8
2
 62
     0
100
AcDbTrace
 10
2009.518883680977
 20
-428.4236197325982
 30
0.0
 11
2009.518883680977
 21
-429.2569530659315
 31
0.0
 12
2007.018883680976
 22
-428.8402863992649
 32
0.0
 13
2007.018883680976
 23
-428.8402863992649
 33
0.0
  0
SOLID
  5
CC9E
330
CC67
100
AcDbEntity
  8
2
 62
     0
100
AcDbTrace
 10
2020.318883680976
 20
-428.4236197325982
 30
0.0
 11
2020.318883680976
 21
-429.2569530659315
 31
0.0
 12
2022.818883680976
 22
-428.8402863992649
 32
0.0
 13
2022.818883680976
 23
-428.8402863992649
 33
0.0
  0
MTEXT
  5
CC9F
330
CC67
100
AcDbEntity
  8
2
 62
     0
100
AcDbMText
 10
2014.918883680976
 20
-426.3402863992649
 30
0.0
 40
3.0
 41
0.0
 71
     5
 72
     1
  1
\A1;15.8
  7
BIGFONT
 73
     1
 44
1.0
1001
ACAD
1000
MTEXTBEGIN
1070
    73
1070
     1
1070
    44
1040
1.0
1070
    74
1070
     0
1000
MTEXTEND
  0
POINT
  5
CCA0
330
CC67
100
AcDbEntity
  8
DEFPOINTS
 62
     0
100
AcDbPoint
 10
2007.018883680976
 20
-439.890286399265
 30
0.0
  0
POINT
  5
CCA1
330
CC67
100
AcDbEntity
  8
DEFPOINTS
 62
     0
100
AcDbPoint
 10
2022.818883680976
 20
-442.5781484451059
 30
0.0
  0
POINT
  5
CCA2
330
CC67
100
AcDbEntity
  8
DEFPOINTS
 62
     0
100
AcDbPoint
 10
2022.818883680976
 20
-428.8402863992649
 30
0.0
  0
ENDBLK
  5
CC69
330
CC67
100
AcDbEntity
  8
0
 62
     1
100
AcDbBlockEnd
  0
ENDSEC
  0
SECTION
  2
ENTITIES
  0
TEXT
  5
FDF
330
18
100
AcDbEntity
  8
2
100
AcDbText
 10
61.80397887142635
 20
115.9153310921788
 30
0.0
 40
3.5
  1

  7
BIGFONT
100
AcDbText
  0
TEXT
  5
FE2
330
18
100
AcDbEntity
  8
2
100
AcDbText
 10
203.8957585163355
 20
143.31043555714
 30
0.0
 40
3.5
  1

  7
BIGFONT
100
AcDbText
  0
TEXT
  5
218A
330
18
100
AcDbEntity
  8
2
  6
Continuous
 48
3.0
100
AcDbText
 10
345.2872429042694
 20
59.92647845586116
 30
0.0
 40
3.5
  1

 50
359.780436223055
 41
0.6085702442471829
  7
BIGFONT
 72
     5
 11
360.1971044114504
 21
59.8693419344833
 31
0.0
100
AcDbText
  0
LINE
  5
C79D
330
18
100
AcDbEntity
  8
3
  6
CENTER2
 48
0.5
100
AcDbLine
 10
1985.833047430446
 20
-439.790286399265
 30
0.0
 11
1823.032601994512
 21
-439.790286399265
 31
0.0
  0
LINE
  5
C79E
330
18
100
AcDbEntity
  8
3
  6
CENTER2
 48
0.5
100
AcDbLine
 10
1985.833047430446
 20
-454.7902863992649
 30
0.0
 11
1823.032601994512
 21
-454.7902863992649
 31
0.0
  0
LINE
  5
C79F
330
18
100
AcDbEntity
  8
1
100
AcDbLine
 10
1898.832824712478
 20
-519.9795836281151
 30
0.0
 11
1897.232824712479
 21
-519.9795836281151
 31
0.0
  0
LINE
  5
C7A0
330
18
100
AcDbEntity
  8
1
100
AcDbLine
 10
1892.532824712479
 20
-519.9795836281151
 30
0.0
 11
1891.132824712478
 21
-519.9795836281151
 31
0.0
  0
ARC
  5
C7A1
330
18
100
AcDbEntity
  8
1
100
AcDbCircle
 10
1891.132824712478
 20
-519.3795836281151
 30
0.0
 40
0.6
100
AcDbArc
 50
180.0
 51
270.0
1001
GENIUS_GENOBJ-N-FIL_13
1002
{
1000
OWNER
1000
GEN
1002
}
1001
GENIUS_GENODEF_13
1002
{
1000
HIER
1070
     0
1002
}
1002
{
1000
MANEDIT
1070
     0
1002
}
1002
{
1000
NOSEL
1070
     0
1002
}
1002
{
1000
BEHIND
1070
     0
1002
}
1002
{
1000
OTHER
1070
     0
1002
}
1002
{
1000
REACTOR
1002
}
  0
LINE
  5
C7A2
330
18
100
AcDbEntity
  8
1
100
AcDbLine
 10
1983.432824712479
 20
-511.1795836281153
 30
0.0
 11
1825.032824712479
 21
-511.1795836281153
 31
0.0
  0
ARC
  5
C7A3
330
18
100
AcDbEntity
  8
1
100
AcDbCircle
 10
1825.032824712479
 20
-511.7795836281151
 30
0.0
 40
0.6
100
AcDbArc
 50
90.0
 51
180.0
1001
GENIUS_GENOBJ-N-FIL_13
1002
{
1000
OWNER
1000
GEN
1002
}
1001
GENIUS_GENODEF_13
1002
{
1000
HIER
1070
     0
1002
}
1002
{
1000
MANEDIT
1070
     0
1002
}
1002
{
1000
NOSEL
1070
     0
1002
}
1002
{
1000
BEHIND
1070
     0
1002
}
1002
{
1000
OTHER
1070
     0
1002
}
1002
{
1000
REACTOR
1002
}
  0
LINE
  5
C7A4
330
18
100
AcDbEntity
  8
3
  6
CENTER2
 48
0.5
100
AcDbLine
 10
1985.833047430446
 20
-515.1295836281151
 30
0.0
 11
1836.631655306331
 21
-515.1295836281151
 31
0.0
  0
LINE
  5
C7A5
330
18
100
AcDbEntity
  8
1
100
AcDbLine
 10
1860.932824712479
 20
-513.1795836281154
 30
0.0
 11
1831.058739204964
 21
-513.1795836281154
 31
0.0
  0
LINE
  5
C7A6
330
18
100
AcDbEntity
  8
1
100
AcDbLine
 10
1860.932824712479
 20
-518.1795836281154
 30
0.0
 11
1847.416931883681
 21
-518.1795836281154
 31
0.0
  0
LINE
  5
C7A7
330
18
100
AcDbEntity
  8
1
100
AcDbLine
 10
1860.932824712479
 20
-511.1795836281153
 30
0.0
 11
1860.932824712479
 21
-519.3795836281151
 31
0.0
  0
ARC
  5
C7A8
330
18
100
AcDbEntity
  8
1
100
AcDbCircle
 10
1861.532824712479
 20
-519.3795836281151
 30
0.0
 40
0.6
100
AcDbArc
 50
180.0
 51
270.0
1001
GENIUS_GENODEF_13
1002
{
1000
HIER
1070
     0
1002
}
1002
{
1000
MANEDIT
1070
     0
1002
}
1002
{
1000
NOSEL
1070
     0
1002
}
1002
{
1000
BEHIND
1070
     0
1002
}
1002
{
1000
OTHER
1070
     0
1002
}
1002
{
1000
REACTOR
1002
}
1001
GENIUS_GENOBJ-N-FIL_13
1002
{
1000
OWNER
1000
GEN
1002
}
  0
LINE
  5
C7A9
330
18
100
AcDbEntity
  8
1
100
AcDbLine
 10
1919.632824712478
 20
-519.9795836281151
 30
0.0
 11
1918.632824712479
 21
-519.9795836281151
 31
0.0
  0
ARC
  5
C7AA
330
18
100
AcDbEntity
  8
1
100
AcDbCircle
 10
1919.632824712478
 20
-519.3795836281155
 30
0.0
 40
0.6
100
AcDbArc
 50
270.0
 51
0.0
1001
GENIUS_GENOBJ-N-FIL_13
1002
{
1000
OWNER
1000
GEN
1002
}
1001
GENIUS_GENODEF_13
1002
{
1000
HIER
1070
     0
1002
}
1002
{
1000
MANEDIT
1070
     0
1002
}
1002
{
1000
NOSEL
1070
     0
1002
}
1002
{
1000
BEHIND
1070
     0
1002
}
1002
{
1000
OTHER
1070
     0
1002
}
1002
{
1000
REACTOR
1002
}
  0
LINE
  5
C7AB
330
18
100
AcDbEntity
  8
1
100
AcDbLine
 10
1917.232824712479
 20
-519.9795836281151
 30
0.0
 11
1916.232824712479
 21
-519.9795836281151
 31
0.0
  0
LINE
  5
C7AC
330
18
100
AcDbEntity
  8
1
100
AcDbLine
 10
1910.132824712478
 20
-519.9795836281151
 30
0.0
 11
1909.132824712478
 21
-519.9795836281151
 31
0.0
  0
ARC
  5
C7AD
330
18
100
AcDbEntity
  8
1
100
AcDbCircle
 10
1910.132824712478
 20
-519.3795836281155
 30
0.0
 40
0.6
100
AcDbArc
 50
270.0
 51
0.0
1001
GENIUS_GENOBJ-N-FIL_13
1002
{
1000
OWNER
1000
GEN
1002
}
1001
GENIUS_GENODEF_13
1002
{
1000
HIER
1070
     0
1002
}
1002
{
1000
MANEDIT
1070
     0
1002
}
1002
{
1000
NOSEL
1070
     0
1002
}
1002
{
1000
BEHIND
1070
     0
1002
}
1002
{
1000
OTHER
1070
     0
1002
}
1002
{
1000
REACTOR
1002
}
  0
LINE
  5
C7AE
330
18
100
AcDbEntity
  8
1
100
AcDbLine
 10
1907.732824712479
 20
-519.9795836281151
 30
0.0
 11
1900.232824712479
 21
-519.9795836281151
 31
0.0
  0
ARC
  5
C7AF
330
18
100
AcDbEntity
  8
1
100
AcDbCircle
 10
1907.732824712479
 20
-519.3795836281155
 30
0.0
 40
0.6
100
AcDbArc
 50
270.0
 51
0.0
1001
GENIUS_GENOBJ-N-FIL_13
1002
{
1000
OWNER
1000
GEN
1002
}
1001
GENIUS_GENODEF_13
1002
{
1000
HIER
1070
     0
1002
}
1002
{
1000
MANEDIT
1070
     0
1002
}
1002
{
1000
NOSEL
1070
     0
1002
}
1002
{
1000
BEHIND
1070
     0
1002
}
1002
{
1000
OTHER
1070
     0
1002
}
1002
{
1000
REACTOR
1002
}
  0
LINE
  5
C7B0
330
18
100
AcDbEntity
  8
1
100
AcDbLine
 10
1879.932824712479
 20
-511.8795836281154
 30
0.0
 11
1870.232824712479
 21
-511.8795836281154
 31
0.0
  0
LINE
  5
C7B1
330
18
100
AcDbEntity
  8
1
100
AcDbLine
 10
1879.932824712479
 20
-513.1795836281154
 30
0.0
 11
1870.232824712479
 21
-513.1795836281154
 31
0.0
  0
LINE
  5
C7B2
330
18
100
AcDbEntity
  8
1
100
AcDbLine
 10
1879.932824712479
 20
-518.1795836281154
 30
0.0
 11
1870.232824712479
 21
-518.1795836281154
 31
0.0
  0
LINE
  5
C7B3
330
18
100
AcDbEntity
  8
1
100
AcDbLine
 10
1870.232824712479
 20
-511.1795836281153
 30
0.0
 11
1870.232824712479
 21
-519.3795836281158
 31
0.0
  0
ARC
  5
C7B4
330
18
100
AcDbEntity
  8
1
100
AcDbCircle
 10
1869.632824712478
 20
-519.3795836281158
 30
0.0
 40
0.6
100
AcDbArc
 50
270.0
 51
0.0
1001
GENIUS_GENOBJ-N-FIL_13
1002
{
1000
OWNER
1000
GEN
1002
}
1001
GENIUS_GENODEF_13
1002
{
1000
HIER
1070
     0
1002
}
1002
{
1000
MANEDIT
1070
     0
1002
}
1002
{
1000
NOSEL
1070
     0
1002
}
1002
{
1000
BEHIND
1070
     0
1002
}
1002
{
1000
OTHER
1070
     0
1002
}
1002
{
1000
REACTOR
1002
}
  0
LINE
  5
C7B5
330
18
100
AcDbEntity
  8
1
100
AcDbLine
 10
1879.932824712479
 20
-511.1795836281153
 30
0.0
 11
1879.932824712479
 21
-519.3795836281151
 31
0.0
  0
ARC
  5
C7B6
330
18
100
AcDbEntity
  8
1
100
AcDbCircle
 10
1880.532824712479
 20
-519.3795836281151
 30
0.0
 40
0.6
100
AcDbArc
 50
180.0
 51
270.0
1001
GENIUS_GENODEF_13
1002
{
1000
HIER
1070
     0
1002
}
1002
{
1000
MANEDIT
1070
     0
1002
}
1002
{
1000
NOSEL
1070
     0
1002
}
1002
{
1000
BEHIND
1070
     0
1002
}
1002
{
1000
OTHER
1070
     0
1002
}
1002
{
1000
REACTOR
1002
}
1001
GENIUS_GENOBJ-N-FIL_13
1002
{
1000
OWNER
1000
GEN
1002
}
  0
LINE
  5
C7B7
330
18
100
AcDbEntity
  8
1
100
AcDbLine
 10
1892.507110426764
 20
-518.1795836281154
 30
0.0
 11
1890.332824712478
 21
-518.1795836281154
 31
0.0
  0
LINE
  5
C7B8
330
18
100
AcDbEntity
  8
1
100
AcDbLine
 10
1899.632824712479
 20
-511.8795836281154
 30
0.0
 11
1890.332824712478
 21
-511.8795836281154
 31
0.0
  0
LINE
  5
C7B9
330
18
100
AcDbEntity
  8
1
100
AcDbLine
 10
1899.632824712479
 20
-513.1795836281154
 30
0.0
 11
1890.332824712478
 21
-513.1795836281154
 31
0.0
  0
LINE
  5
C7BA
330
18
100
AcDbEntity
  8
1
100
AcDbLine
 10
1890.332824712478
 20
-511.1795836281153
 30
0.0
 11
1890.332824712478
 21
-519.3795836281155
 31
0.0
  0
LINE
  5
C7BB
330
18
100
AcDbEntity
  8
1
100
AcDbLine
 10
1899.632824712479
 20
-518.1795836281154
 30
0.0
 11
1897.258538998193
 21
-518.1795836281154
 31
0.0
  0
LINE
  5
C7BC
330
18
100
AcDbEntity
  8
1
100
AcDbLine
 10
1899.632824712479
 20
-511.1795836281153
 30
0.0
 11
1899.632824712479
 21
-519.3795836281155
 31
0.0
  0
ARC
  5
C7BD
330
18
100
AcDbEntity
  8
1
100
AcDbCircle
 10
1900.232824712479
 20
-519.3795836281155
 30
0.0
 40
0.6
100
AcDbArc
 50
180.0
 51
270.0
1001
GENIUS_GENODEF_13
1002
{
1000
HIER
1070
     0
1002
}
1002
{
1000
MANEDIT
1070
     0
1002
}
1002
{
1000
NOSEL
1070
     0
1002
}
1002
{
1000
BEHIND
1070
     0
1002
}
1002
{
1000
OTHER
1070
     0
1002
}
1002
{
1000
REACTOR
1002
}
1001
GENIUS_GENOBJ-N-FIL_13
1002
{
1000
OWNER
1000
GEN
1002
}
  0
LINE
  5
C7BE
330
18
100
AcDbEntity
  8
1
100
AcDbLine
 10
1925.132824712478
 20
-519.0795836281154
 30
0.0
 11
1920.232824712479
 21
-519.0795836281154
 31
0.0
  0
LINE
  5
C7BF
330
18
100
AcDbEntity
  8
1
100
AcDbLine
 10
1918.032824712479
 20
-511.8795836281154
 30
0.0
 11
1908.332824712479
 21
-511.8795836281154
 31
0.0
  0
LINE
  5
C7C0
330
18
100
AcDbEntity
  8
1
100
AcDbLine
 10
1918.032824712479
 20
-513.1795836281154
 30
0.0
 11
1908.332824712479
 21
-513.1795836281154
 31
0.0
  0
LINE
  5
C7C1
330
18
100
AcDbEntity
  8
1
100
AcDbLine
 10
1910.732824712479
 20
-519.3795836281155
 30
0.0
 11
1910.732824712479
 21
-513.1795836281154
 31
0.0
  0
LINE
  5
C7C2
330
18
100
AcDbEntity
  8
1
100
AcDbLine
 10
1908.332824712479
 20
-511.1795836281153
 30
0.0
 11
1908.332824712479
 21
-519.3795836281155
 31
0.0
  0
LINE
  5
C7C3
330
18
100
AcDbEntity
  8
1
100
AcDbLine
 10
1920.232824712479
 20
-519.3795836281155
 30
0.0
 11
1920.232824712478
 21
-515.1295836281151
 31
0.0
  0
LINE
  5
C7C4
330
18
100
AcDbEntity
  8
1
100
AcDbLine
 10
1918.032824712479
 20
-511.1795836281153
 30
0.0
 11
1918.032824712479
 21
-519.3795836281155
 31
0.0
  0
ARC
  5
C7C5
330
18
100
AcDbEntity
  8
1
100
AcDbCircle
 10
1918.632824712479
 20
-519.3795836281155
 30
0.0
 40
0.6
100
AcDbArc
 50
180.0
 51
270.0
1001
GENIUS_GENOBJ-N-FIL_13
1002
{
1000
OWNER
1000
GEN
1002
}
1001
GENIUS_GENODEF_13
1002
{
1000
HIER
1070
     0
1002
}
1002
{
1000
MANEDIT
1070
     0
1002
}
1002
{
1000
NOSEL
1070
     0
1002
}
1002
{
1000
BEHIND
1070
     0
1002
}
1002
{
1000
OTHER
1070
     0
1002
}
1002
{
1000
REACTOR
1002
}
  0
LINE
  5
C7C6
330
18
100
AcDbEntity
  8
1
100
AcDbLine
 10
1915.632824712479
 20
-519.3795836281155
 30
0.0
 11
1915.632824712479
 21
-513.1795836281154
 31
0.0
  0
ARC
  5
C7C7
330
18
100
AcDbEntity
  8
1
100
AcDbCircle
 10
1916.232824712479
 20
-519.3795836281155
 30
0.0
 40
0.6
100
AcDbArc
 50
180.0
 51
270.0
1001
GENIUS_GENOBJ-N-FIL_13
1002
{
1000
OWNER
1000
GEN
1002
}
1001
GENIUS_GENODEF_13
1002
{
1000
HIER
1070
     0
1002
}
1002
{
1000
MANEDIT
1070
     0
1002
}
1002
{
1000
NOSEL
1070
     0
1002
}
1002
{
1000
BEHIND
1070
     0
1002
}
1002
{
1000
OTHER
1070
     0
1002
}
1002
{
1000
REACTOR
1002
}
  0
LINE
  5
C7C8
330
18
100
AcDbEntity
  8
1
100
AcDbLine
 10
1918.032824712479
 20
-518.1795836281154
 30
0.0
 11
1917.832824712479
 21
-518.1795836281154
 31
0.0
  0
LINE
  5
C7C9
330
18
100
AcDbEntity
  8
1
100
AcDbLine
 10
1915.632824712479
 20
-518.1795836281154
 30
0.0
 11
1910.732824712479
 21
-518.1795836281154
 31
0.0
  0
LINE
  5
C7CA
330
18
100
AcDbEntity
  8
1
100
AcDbLine
 10
1908.532824712478
 20
-518.1795836281154
 30
0.0
 11
1908.332824712479
 21
-518.1795836281154
 31
0.0
  0
LINE
  5
C7CB
330
18
100
AcDbEntity
  8
1
100
AcDbLine
 10
1936.532824712479
 20
-511.8795836281154
 30
0.0
 11
1927.332824712479
 21
-511.8795836281154
 31
0.0
  0
LINE
  5
C7CC
330
18
100
AcDbEntity
  8
1
100
AcDbLine
 10
1936.532824712479
 20
-513.1795836281154
 30
0.0
 11
1927.332824712479
 21
-513.1795836281154
 31
0.0
  0
ARC
  5
C7CD
330
18
100
AcDbEntity
  8
1
100
AcDbCircle
 10
1937.132824712479
 20
-519.3795836281155
 30
0.0
 40
0.6
100
AcDbArc
 50
180.0
 51
270.0
1001
GENIUS_GENOBJ-N-FIL_13
1002
{
1000
OWNER
1000
GEN
1002
}
1001
GENIUS_GENODEF_13
1002
{
1000
HIER
1070
     0
1002
}
1002
{
1000
MANEDIT
1070
     0
1002
}
1002
{
1000
NOSEL
1070
     0
1002
}
1002
{
1000
BEHIND
1070
     0
1002
}
1002
{
1000
OTHER
1070
     0
1002
}
1002
{
1000
REACTOR
1002
}
  0
LINE
  5
C7CE
330
18
100
AcDbEntity
  8
1
100
AcDbLine
 10
1926.732824712479
 20
-519.9795836281151
 30
0.0
 11
1925.732824712479
 21
-519.9795836281151
 31
0.0
  0
ARC
  5
C7CF
330
18
100
AcDbEntity
  8
1
100
AcDbCircle
 10
1925.732824712479
 20
-519.3795836281155
 30
0.0
 40
0.6
100
AcDbArc
 50
180.0
 51
270.0
1001
GENIUS_GENOBJ-N-FIL_13
1002
{
1000
OWNER
1000
GEN
1002
}
1001
GENIUS_GENODEF_13
1002
{
1000
HIER
1070
     0
1002
}
1002
{
1000
MANEDIT
1070
     0
1002
}
1002
{
1000
NOSEL
1070
     0
1002
}
1002
{
1000
BEHIND
1070
     0
1002
}
1002
{
1000
OTHER
1070
     0
1002
}
1002
{
1000
REACTOR
1002
}
  0
LINE
  5
C7D0
330
18
100
AcDbEntity
  8
1
100
AcDbLine
 10
1936.532824712479
 20
-518.1795836281154
 30
0.0
 11
1927.332824712479
 21
-518.1795836281154
 31
0.0
  0
LINE
  5
C7D1
330
18
100
AcDbEntity
  8
1
100
AcDbLine
 10
1925.132824712478
 20
-519.3795836281155
 30
0.0
 11
1925.132824712478
 21
-515.1295836281151
 31
0.0
  0
LINE
  5
C7D2
330
18
100
AcDbEntity
  8
1
100
AcDbLine
 10
1927.332824712479
 20
-511.1795836281153
 30
0.0
 11
1927.332824712479
 21
-519.3795836281155
 31
0.0
  0
ARC
  5
C7D3
330
18
100
AcDbEntity
  8
1
100
AcDbCircle
 10
1926.732824712479
 20
-519.3795836281155
 30
0.0
 40
0.6
100
AcDbArc
 50
270.0
 51
0.0
1001
GENIUS_GENODEF_13
1002
{
1000
HIER
1070
     0
1002
}
1002
{
1000
MANEDIT
1070
     0
1002
}
1002
{
1000
NOSEL
1070
     0
1002
}
1002
{
1000
BEHIND
1070
     0
1002
}
1002
{
1000
OTHER
1070
     0
1002
}
1002
{
1000
REACTOR
1002
}
1001
GENIUS_GENOBJ-N-FIL_13
1002
{
1000
OWNER
1000
GEN
1002
}
  0
LINE
  5
C7D4
330
18
100
AcDbEntity
  8
1
100
AcDbLine
 10
1936.532824712479
 20
-511.1795836281153
 30
0.0
 11
1936.532824712479
 21
-519.3795836281155
 31
0.0
  0
LINE
  5
C7D5
330
18
100
AcDbEntity
  8
1
100
AcDbLine
 10
1983.832824712479
 20
-519.9795836281151
 30
0.0
 11
1975.732824712479
 21
-519.9795836281151
 31
0.0
  0
ARC
  5
C7D6
330
18
100
AcDbEntity
  8
1
100
AcDbCircle
 10
1975.732824712479
 20
-519.3795836281155
 30
0.0
 40
0.6
100
AcDbArc
 50
180.0
 51
270.0
1001
GENIUS_GENODEF_13
1002
{
1000
HIER
1070
     0
1002
}
1002
{
1000
MANEDIT
1070
     0
1002
}
1002
{
1000
NOSEL
1070
     0
1002
}
1002
{
1000
BEHIND
1070
     0
1002
}
1002
{
1000
OTHER
1070
     0
1002
}
1002
{
1000
REACTOR
1002
}
1001
GENIUS_GENOBJ-N-FIL_13
1002
{
1000
OWNER
1000
GEN
1002
}
  0
LINE
  5
C7D7
330
18
100
AcDbEntity
  8
1
100
AcDbLine
 10
1964.832824712479
 20
-519.9795836281151
 30
0.0
 11
1956.732824712479
 21
-519.9795836281151
 31
0.0
  0
ARC
  5
C7D8
330
18
100
AcDbEntity
  8
1
100
AcDbCircle
 10
1964.832824712479
 20
-519.3795836281155
 30
0.0
 40
0.6
100
AcDbArc
 50
270.0
 51
0.0
1001
GENIUS_GENODEF_13
1002
{
1000
HIER
1070
     0
1002
}
1002
{
1000
MANEDIT
1070
     0
1002
}
1002
{
1000
NOSEL
1070
     0
1002
}
1002
{
1000
BEHIND
1070
     0
1002
}
1002
{
1000
OTHER
1070
     0
1002
}
1002
{
1000
REACTOR
1002
}
1001
GENIUS_GENOBJ-N-FIL_13
1002
{
1000
OWNER
1000
GEN
1002
}
  0
LINE
  5
C7D9
330
18
100
AcDbEntity
  8
1
100
AcDbLine
 10
1944.732824712479
 20
-519.9795836281151
 30
0.0
 11
1937.132824712479
 21
-519.9795836281151
 31
0.0
  0
LINE
  5
C7DA
330
18
100
AcDbEntity
  8
1
100
AcDbLine
 10
1943.332824712478
 20
-526.9795836281153
 30
0.0
 11
1938.632824712479
 21
-526.9810119080581
 31
0.0
  0
LINE
  5
C7DC
330
18
100
AcDbEntity
  8
1
100
AcDbLine
 10
1956.132824712479
 20
-511.8795836281154
 30
0.0
 11
1945.332824712479
 21
-511.8795836281154
 31
0.0
  0
LINE
  5
C7DD
330
18
100
AcDbEntity
  8
1
100
AcDbLine
 10
1956.132824712479
 20
-513.1795836281154
 30
0.0
 11
1945.332824712479
 21
-513.1795836281154
 31
0.0
  0
LINE
  5
C7DE
330
18
100
AcDbEntity
  8
1
100
AcDbLine
 10
1956.132824712479
 20
-518.1795836281154
 30
0.0
 11
1945.332824712479
 21
-518.1795836281154
 31
0.0
  0
LINE
  5
C7DF
330
18
100
AcDbEntity
  8
1
100
AcDbLine
 10
1956.132824712479
 20
-511.1795836281153
 30
0.0
 11
1956.132824712479
 21
-519.3795836281155
 31
0.0
  0
ARC
  5
C7E0
330
18
100
AcDbEntity
  8
1
100
AcDbCircle
 10
1956.732824712479
 20
-519.3795836281155
 30
0.0
 40
0.6
100
AcDbArc
 50
180.0
 51
270.0
1001
GENIUS_GENODEF_13
1002
{
1000
HIER
1070
     0
1002
}
1002
{
1000
MANEDIT
1070
     0
1002
}
1002
{
1000
NOSEL
1070
     0
1002
}
1002
{
1000
BEHIND
1070
     0
1002
}
1002
{
1000
OTHER
1070
     0
1002
}
1002
{
1000
REACTOR
1002
}
1001
GENIUS_GENOBJ-N-FIL_13
1002
{
1000
OWNER
1000
GEN
1002
}
  0
LINE
  5
C7E1
330
18
100
AcDbEntity
  8
1
100
AcDbLine
 10
1975.132824712478
 20
-513.1795836281154
 30
0.0
 11
1965.432824712479
 21
-513.1795836281154
 31
0.0
  0
LINE
  5
C7E2
330
18
100
AcDbEntity
  8
1
100
AcDbLine
 10
1975.132824712478
 20
-518.1795836281154
 30
0.0
 11
1965.432824712479
 21
-518.1795836281154
 31
0.0
  0
LINE
  5
C7E3
330
18
100
AcDbEntity
  8
1
100
AcDbLine
 10
1975.132824712478
 20
-511.8795836281154
 30
0.0
 11
1965.432824712479
 21
-511.8795836281154
 31
0.0
  0
LINE
  5
C7E4
330
18
100
AcDbEntity
  8
1
100
AcDbLine
 10
1965.432824712479
 20
-511.1795836281153
 30
0.0
 11
1965.432824712479
 21
-519.3795836281155
 31
0.0
  0
LINE
  5
C7E5
330
18
100
AcDbEntity
  8
1
100
AcDbLine
 10
1975.132824712478
 20
-511.1795836281153
 30
0.0
 11
1975.132824712478
 21
-519.3795836281155
 31
0.0
  0
ARC
  5
C7E6
330
18
100
AcDbEntity
  8
1
100
AcDbCircle
 10
1983.832824712479
 20
-519.3795836281155
 30
0.0
 40
0.6
100
AcDbArc
 50
270.0
 51
0.0
  0
LINE
  5
C7E7
330
18
100
AcDbEntity
  8
1
100
AcDbLine
 10
1984.432824712479
 20
-511.7616927935353
 30
0.0
 11
1984.432824712479
 21
-519.3795836281155
 31
0.0
  0
LINE
  5
C7EB
330
18
100
AcDbEntity
  8
1
100
AcDbLine
 10
1975.132824712478
 20
-457.0012893254783
 30
0.0
 11
1975.132824712478
 21
-453.0264970685506
 31
0.0
  0
ARC
  5
C7EC
330
18
100
AcDbEntity
  8
1
100
AcDbCircle
 10
1974.532824712479
 20
-453.0264970685506
 30
0.0
 40
0.6
100
AcDbArc
 50
0.0
 51
90.0
1001
GENIUS_GENOBJ-N-FIL_13
1002
{
1000
OWNER
1000
GEN
1002
}
1001
GENIUS_GENODEF_13
1002
{
1000
HIER
1070
     0
1002
}
1002
{
1000
MANEDIT
1070
     0
1002
}
1002
{
1000
NOSEL
1070
     0
1002
}
1002
{
1000
BEHIND
1070
     0
1002
}
1002
{
1000
OTHER
1070
     0
1002
}
1002
{
1000
REACTOR
1002
}
  0
LINE
  5
C7ED
330
18
100
AcDbEntity
  8
1
100
AcDbLine
 10
1974.532824712479
 20
-452.4264970685506
 30
0.0
 11
1966.032824712479
 21
-452.4264970685506
 31
0.0
  0
ARC
  5
C7EE
330
18
100
AcDbEntity
  8
1
100
AcDbCircle
 10
1966.032824712479
 20
-453.0264970685506
 30
0.0
 40
0.6
100
AcDbArc
 50
90.0
 51
180.0
1001
GENIUS_GENOBJ-N-FIL_13
1002
{
1000
OWNER
1000
GEN
1002
}
1001
GENIUS_GENODEF_13
1002
{
1000
HIER
1070
     0
1002
}
1002
{
1000
MANEDIT
1070
     0
1002
}
1002
{
1000
NOSEL
1070
     0
1002
}
1002
{
1000
BEHIND
1070
     0
1002
}
1002
{
1000
OTHER
1070
     0
1002
}
1002
{
1000
REACTOR
1002
}
  0
LINE
  5
C7EF
330
18
100
AcDbEntity
  8
1
100
AcDbLine
 10
1965.432824712479
 20
-453.0264970685506
 30
0.0
 11
1965.432824712479
 21
-457.0012893254798
 31
0.0
  0
LINE
  5
C7F3
330
18
100
AcDbEntity
  8
1
100
AcDbLine
 10
1956.132824712478
 20
-457.0012893254783
 30
0.0
 11
1956.132824712479
 21
-453.0264970685506
 31
0.0
  0
LINE
  5
C7F4
330
18
100
AcDbEntity
  8
1
100
AcDbLine
 10
1955.532824712478
 20
-452.4264970685504
 30
0.0
 11
1945.932824712478
 21
-452.4264970685504
 31
0.0
  0
ARC
  5
C7F5
330
18
100
AcDbEntity
  8
1
100
AcDbCircle
 10
1955.532824712478
 20
-453.0264970685506
 30
0.0
 40
0.6
100
AcDbArc
 50
0.0
 51
90.0
1001
GENIUS_GENODEF_13
1002
{
1000
HIER
1070
     0
1002
}
1002
{
1000
MANEDIT
1070
     0
1002
}
1002
{
1000
NOSEL
1070
     0
1002
}
1002
{
1000
BEHIND
1070
     0
1002
}
1002
{
1000
OTHER
1070
     0
1002
}
1002
{
1000
REACTOR
1002
}
1001
GENIUS_GENOBJ-N-FIL_13
1002
{
1000
OWNER
1000
GEN
1002
}
  0
ARC
  5
C7F6
330
18
100
AcDbEntity
  8
1
100
AcDbCircle
 10
1945.932824712478
 20
-453.0264970685506
 30
0.0
 40
0.6
100
AcDbArc
 50
90.0
 51
180.0
1001
GENIUS_GENODEF_13
1002
{
1000
HIER
1070
     0
1002
}
1002
{
1000
MANEDIT
1070
     0
1002
}
1002
{
1000
NOSEL
1070
     0
1002
}
1002
{
1000
BEHIND
1070
     0
1002
}
1002
{
1000
OTHER
1070
     0
1002
}
1002
{
1000
REACTOR
1002
}
1001
GENIUS_GENOBJ-N-FIL_13
1002
{
1000
OWNER
1000
GEN
1002
}
  0
LINE
  5
C7F7
330
18
100
AcDbEntity
  8
1
100
AcDbLine
 10
1945.332824712479
 20
-453.0264970685506
 30
0.0
 11
1945.332824712479
 21
-457.0012893254783
 31
0.0
  0
LINE
  5
C7FB
330
18
100
AcDbEntity
  8
1
100
AcDbLine
 10
1936.532824712479
 20
-457.0012893254796
 30
0.0
 11
1936.532824712479
 21
-453.0264970685503
 31
0.0
  0
ARC
  5
C7FC
330
18
100
AcDbEntity
  8
1
100
AcDbCircle
 10
1935.932824712479
 20
-453.0264970685503
 30
0.0
 40
0.6
100
AcDbArc
 50
0.0
 51
90.0
1001
GENIUS_GENOBJ-N-FIL_13
1002
{
1000
OWNER
1000
GEN
1002
}
1001
GENIUS_GENODEF_13
1002
{
1000
HIER
1070
     0
1002
}
1002
{
1000
MANEDIT
1070
     0
1002
}
1002
{
1000
NOSEL
1070
     0
1002
}
1002
{
1000
BEHIND
1070
     0
1002
}
1002
{
1000
OTHER
1070
     0
1002
}
1002
{
1000
REACTOR
1002
}
  0
LINE
  5
C7FD
330
18
100
AcDbEntity
  8
1
100
AcDbLine
 10
1935.932824712479
 20
-452.4264970685504
 30
0.0
 11
1927.932824712479
 21
-452.4264970685504
 31
0.0
  0
ARC
  5
C7FE
330
18
100
AcDbEntity
  8
1
100
AcDbCircle
 10
1927.932824712479
 20
-453.0264970685506
 30
0.0
 40
0.6
100
AcDbArc
 50
90.0
 51
180.0
1001
GENIUS_GENODEF_13
1002
{
1000
HIER
1070
     0
1002
}
1002
{
1000
MANEDIT
1070
     0
1002
}
1002
{
1000
NOSEL
1070
     0
1002
}
1002
{
1000
BEHIND
1070
     0
1002
}
1002
{
1000
OTHER
1070
     0
1002
}
1002
{
1000
REACTOR
1002
}
1001
GENIUS_GENOBJ-N-FIL_13
1002
{
1000
OWNER
1000
GEN
1002
}
  0
LINE
  5
C7FF
330
18
100
AcDbEntity
  8
1
100
AcDbLine
 10
1927.332824712479
 20
-453.0264970685506
 30
0.0
 11
1927.332824712479
 21
-457.0012893254789
 31
0.0
  0
LINE
  5
C803
330
18
100
AcDbEntity
  8
1
100
AcDbLine
 10
1918.032824712479
 20
-457.0012893254792
 30
0.0
 11
1918.032824712479
 21
-453.0264970685503
 31
0.0
  0
ARC
  5
C804
330
18
100
AcDbEntity
  8
1
100
AcDbCircle
 10
1917.432824712479
 20
-453.0264970685503
 30
0.0
 40
0.6
100
AcDbArc
 50
0.0
 51
90.0
1001
GENIUS_GENODEF_13
1002
{
1000
HIER
1070
     0
1002
}
1002
{
1000
MANEDIT
1070
     0
1002
}
1002
{
1000
NOSEL
1070
     0
1002
}
1002
{
1000
BEHIND
1070
     0
1002
}
1002
{
1000
OTHER
1070
     0
1002
}
1002
{
1000
REACTOR
1002
}
1001
GENIUS_GENOBJ-N-FIL_13
1002
{
1000
OWNER
1000
GEN
1002
}
  0
LINE
  5
C805
330
18
100
AcDbEntity
  8
1
100
AcDbLine
 10
1917.432824712479
 20
-452.4264970685504
 30
0.0
 11
1908.932824712479
 21
-452.4264970685506
 31
0.0
  0
ARC
  5
C806
330
18
100
AcDbEntity
  8
1
100
AcDbCircle
 10
1908.932824712479
 20
-453.0264970685506
 30
0.0
 40
0.6
100
AcDbArc
 50
90.0
 51
180.0
1001
GENIUS_GENODEF_13
1002
{
1000
HIER
1070
     0
1002
}
1002
{
1000
MANEDIT
1070
     0
1002
}
1002
{
1000
NOSEL
1070
     0
1002
}
1002
{
1000
BEHIND
1070
     0
1002
}
1002
{
1000
OTHER
1070
     0
1002
}
1002
{
1000
REACTOR
1002
}
1001
GENIUS_GENOBJ-N-FIL_13
1002
{
1000
OWNER
1000
GEN
1002
}
  0
LINE
  5
C807
330
18
100
AcDbEntity
  8
1
100
AcDbLine
 10
1908.332824712479
 20
-453.0264970685506
 30
0.0
 11
1908.33282471248
 21
-457.0012893254783
 31
0.0
  0
LINE
  5
C80B
330
18
100
AcDbEntity
  8
1
100
AcDbLine
 10
1899.632824712479
 20
-457.0012893254792
 30
0.0
 11
1899.632824712479
 21
-453.0264970685503
 31
0.0
  0
ARC
  5
C80C
330
18
100
AcDbEntity
  8
1
100
AcDbCircle
 10
1899.032824712478
 20
-453.0264970685503
 30
0.0
 40
0.6
100
AcDbArc
 50
0.0
 51
90.0
1001
GENIUS_GENODEF_13
1002
{
1000
HIER
1070
     0
1002
}
1002
{
1000
MANEDIT
1070
     0
1002
}
1002
{
1000
NOSEL
1070
     0
1002
}
1002
{
1000
BEHIND
1070
     0
1002
}
1002
{
1000
OTHER
1070
     0
1002
}
1002
{
1000
REACTOR
1002
}
1001
GENIUS_GENOBJ-N-FIL_13
1002
{
1000
OWNER
1000
GEN
1002
}
  0
LINE
  5
C80D
330
18
100
AcDbEntity
  8
1
100
AcDbLine
 10
1899.032824712478
 20
-452.4264970685504
 30
0.0
 11
1890.932824712479
 21
-452.4264970685504
 31
0.0
  0
ARC
  5
C80E
330
18
100
AcDbEntity
  8
1
100
AcDbCircle
 10
1890.932824712479
 20
-453.0264970685503
 30
0.0
 40
0.6
100
AcDbArc
 50
90.0
 51
180.0
1001
GENIUS_GENOBJ-N-FIL_13
1002
{
1000
OWNER
1000
GEN
1002
}
1001
GENIUS_GENODEF_13
1002
{
1000
HIER
1070
     0
1002
}
1002
{
1000
MANEDIT
1070
     0
1002
}
1002
{
1000
NOSEL
1070
     0
1002
}
1002
{
1000
BEHIND
1070
     0
1002
}
1002
{
1000
OTHER
1070
     0
1002
}
1002
{
1000
REACTOR
1002
}
  0
LINE
  5
C80F
330
18
100
AcDbEntity
  8
1
100
AcDbLine
 10
1890.332824712479
 20
-453.0264970685503
 30
0.0
 11
1890.332824712478
 21
-457.0012893254792
 31
0.0
  0
LINE
  5
C813
330
18
100
AcDbEntity
  8
1
100
AcDbLine
 10
1824.928635805879
 20
-437.9736978229886
 30
0.0
 11
1832.719837519959
 21
-436.5998987486543
 31
0.0
  0
ARC
  5
C814
330
18
100
AcDbEntity
  8
1
100
AcDbCircle
 10
1825.032824712479
 20
-438.5645824747958
 30
0.0
 40
0.6
100
AcDbArc
 50
100.0000000000049
 51
180.0
1001
GENIUS_GENOBJ-N-FIL_13
1002
{
1000
OWNER
1000
GEN
1002
}
1001
GENIUS_GENODEF_13
1002
{
1000
HIER
1070
     0
1002
}
1002
{
1000
MANEDIT
1070
     0
1002
}
1002
{
1000
NOSEL
1070
     0
1002
}
1002
{
1000
BEHIND
1070
     0
1002
}
1002
{
1000
OTHER
1070
     0
1002
}
1002
{
1000
REACTOR
1002
}
  0
ARC
  5
C815
330
18
100
AcDbEntity
  8
1
100
AcDbCircle
 10
1841.402246403305
 20
-485.8402863992654
 30
0.0
 40
50.00000000000067
100
AcDbArc
 50
90.0
 51
100.0000000000049
  0
LINE
  5
C816
330
18
100
AcDbEntity
  8
1
100
AcDbLine
 10
1841.402246403305
 20
-435.8402863992647
 30
0.0
 11
1860.232824712479
 21
-435.8402863992647
 31
0.0
  0
ARC
  5
C817
330
18
100
AcDbEntity
  8
1
100
AcDbCircle
 10
1860.232824712479
 20
-436.3402863992646
 30
0.0
 40
0.5
100
AcDbArc
 50
0.0
 51
90.0
  0
LINE
  5
C818
330
18
100
AcDbEntity
  8
1
100
AcDbLine
 10
1860.732824712479
 20
-436.3402863992646
 30
0.0
 11
1860.732824712479
 21
-441.5540757299787
 31
0.0
  0
ARC
  5
C819
330
18
100
AcDbEntity
  8
1
100
AcDbCircle
 10
1861.332824712479
 20
-441.5540757299787
 30
0.0
 40
0.6
100
AcDbArc
 50
180.0
 51
270.0
1001
GENIUS_GENOBJ-N-FIL_13
1002
{
1000
OWNER
1000
GEN
1002
}
1001
GENIUS_GENODEF_13
1002
{
1000
HIER
1070
     0
1002
}
1002
{
1000
MANEDIT
1070
     0
1002
}
1002
{
1000
NOSEL
1070
     0
1002
}
1002
{
1000
BEHIND
1070
     0
1002
}
1002
{
1000
OTHER
1070
     0
1002
}
1002
{
1000
REACTOR
1002
}
  0
LINE
  5
C81A
330
18
100
AcDbEntity
  8
1
100
AcDbLine
 10
1861.332824712479
 20
-442.1540757299787
 30
0.0
 11
1869.832824712479
 21
-442.1540757299787
 31
0.0
  0
ARC
  5
C81B
330
18
100
AcDbEntity
  8
1
100
AcDbCircle
 10
1869.832824712479
 20
-441.5540757299787
 30
0.0
 40
0.6
100
AcDbArc
 50
270.0
 51
0.0
1001
GENIUS_GENODEF_13
1002
{
1000
HIER
1070
     0
1002
}
1002
{
1000
MANEDIT
1070
     0
1002
}
1002
{
1000
NOSEL
1070
     0
1002
}
1002
{
1000
BEHIND
1070
     0
1002
}
1002
{
1000
OTHER
1070
     0
1002
}
1002
{
1000
REACTOR
1002
}
1001
GENIUS_GENOBJ-N-FIL_13
1002
{
1000
OWNER
1000
GEN
1002
}
  0
LINE
  5
C81C
330
18
100
AcDbEntity
  8
1
100
AcDbLine
 10
1870.432824712479
 20
-441.5540757299787
 30
0.0
 11
1870.432824712479
 21
-436.3402863992646
 31
0.0
  0
ARC
  5
C81D
330
18
100
AcDbEntity
  8
1
100
AcDbCircle
 10
1870.932824712479
 20
-436.3402863992646
 30
0.0
 40
0.5
100
AcDbArc
 50
90.0
 51
180.0
  0
LINE
  5
C81E
330
18
100
AcDbEntity
  8
1
100
AcDbLine
 10
1870.932824712479
 20
-435.8402863992647
 30
0.0
 11
1879.232824712479
 21
-435.8402863992647
 31
0.0
  0
ARC
  5
C81F
330
18
100
AcDbEntity
  8
1
100
AcDbCircle
 10
1879.232824712479
 20
-436.3402863992646
 30
0.0
 40
0.5
100
AcDbArc
 50
0.0
 51
90.0
  0
LINE
  5
C820
330
18
100
AcDbEntity
  8
1
100
AcDbLine
 10
1879.732824712479
 20
-436.3402863992646
 30
0.0
 11
1879.732824712479
 21
-441.554075729979
 31
0.0
  0
ARC
  5
C821
330
18
100
AcDbEntity
  8
1
100
AcDbCircle
 10
1880.332824712479
 20
-441.554075729979
 30
0.0
 40
0.6
100
AcDbArc
 50
180.0
 51
270.0
1001
GENIUS_GENODEF_13
1002
{
1000
HIER
1070
     0
1002
}
1002
{
1000
MANEDIT
1070
     0
1002
}
1002
{
1000
NOSEL
1070
     0
1002
}
1002
{
1000
BEHIND
1070
     0
1002
}
1002
{
1000
OTHER
1070
     0
1002
}
1002
{
1000
REACTOR
1002
}
1001
GENIUS_GENOBJ-N-FIL_13
1002
{
1000
OWNER
1000
GEN
1002
}
  0
LINE
  5
C822
330
18
100
AcDbEntity
  8
1
100
AcDbLine
 10
1880.332824712479
 20
-442.1540757299792
 30
0.0
 11
1889.932824712479
 21
-442.1540757299792
 31
0.0
  0
LINE
  5
C823
330
18
100
AcDbEntity
  8
1
100
AcDbLine
 10
1890.532824712479
 20
-441.554075729979
 30
0.0
 11
1890.532824712479
 21
-436.4402863992649
 31
0.0
  0
ARC
  5
C824
330
18
100
AcDbEntity
  8
1
100
AcDbCircle
 10
1889.932824712479
 20
-441.554075729979
 30
0.0
 40
0.6
100
AcDbArc
 50
270.0
 51
0.0
1001
GENIUS_GENODEF_13
1002
{
1000
HIER
1070
     0
1002
}
1002
{
1000
MANEDIT
1070
     0
1002
}
1002
{
1000
NOSEL
1070
     0
1002
}
1002
{
1000
BEHIND
1070
     0
1002
}
1002
{
1000
OTHER
1070
     0
1002
}
1002
{
1000
REACTOR
1002
}
1001
GENIUS_GENOBJ-N-FIL_13
1002
{
1000
OWNER
1000
GEN
1002
}
  0
ARC
  5
C825
330
18
100
AcDbEntity
  8
1
100
AcDbCircle
 10
1891.132824712478
 20
-436.4402863992649
 30
0.0
 40
0.5999999999999091
100
AcDbArc
 50
90.0
 51
180.0
  0
LINE
  5
C826
330
18
100
AcDbEntity
  8
1
100
AcDbLine
 10
1891.132824712478
 20
-435.8402863992649
 30
0.0
 11
1898.832824712478
 21
-435.8402863992649
 31
0.0
  0
ARC
  5
C827
330
18
100
AcDbEntity
  8
1
100
AcDbCircle
 10
1898.832824712478
 20
-436.4402863992649
 30
0.0
 40
0.6000000000000229
100
AcDbArc
 50
0.0
 51
90.0
  0
LINE
  5
C828
330
18
100
AcDbEntity
  8
1
100
AcDbLine
 10
1899.432824712478
 20
-436.4402863992649
 30
0.0
 11
1899.432824712478
 21
-441.554075729979
 31
0.0
  0
ARC
  5
C829
330
18
100
AcDbEntity
  8
1
100
AcDbCircle
 10
1900.032824712478
 20
-441.554075729979
 30
0.0
 40
0.6
100
AcDbArc
 50
180.0
 51
270.0
1001
GENIUS_GENOBJ-N-FIL_13
1002
{
1000
OWNER
1000
GEN
1002
}
1001
GENIUS_GENODEF_13
1002
{
1000
HIER
1070
     0
1002
}
1002
{
1000
MANEDIT
1070
     0
1002
}
1002
{
1000
NOSEL
1070
     0
1002
}
1002
{
1000
BEHIND
1070
     0
1002
}
1002
{
1000
OTHER
1070
     0
1002
}
1002
{
1000
REACTOR
1002
}
  0
LINE
  5
C82A
330
18
100
AcDbEntity
  8
1
100
AcDbLine
 10
1900.032824712478
 20
-442.1540757299792
 30
0.0
 11
1907.932824712479
 21
-442.1540757299792
 31
0.0
  0
ARC
  5
C82B
330
18
100
AcDbEntity
  8
1
100
AcDbCircle
 10
1907.932824712479
 20
-441.554075729979
 30
0.0
 40
0.6
100
AcDbArc
 50
270.0
 51
0.0
1001
GENIUS_GENODEF_13
1002
{
1000
HIER
1070
     0
1002
}
1002
{
1000
MANEDIT
1070
     0
1002
}
1002
{
1000
NOSEL
1070
     0
1002
}
1002
{
1000
BEHIND
1070
     0
1002
}
1002
{
1000
OTHER
1070
     0
1002
}
1002
{
1000
REACTOR
1002
}
1001
GENIUS_GENOBJ-N-FIL_13
1002
{
1000
OWNER
1000
GEN
1002
}
  0
LINE
  5
C82C
330
18
100
AcDbEntity
  8
1
100
AcDbLine
 10
1908.532824712479
 20
-441.554075729979
 30
0.0
 11
1908.532824712479
 21
-436.3402863992649
 31
0.0
  0
ARC
  5
C82D
330
18
100
AcDbEntity
  8
1
100
AcDbCircle
 10
1909.032824712479
 20
-436.3402863992649
 30
0.0
 40
0.5
100
AcDbArc
 50
90.0
 51
180.0
  0
LINE
  5
C82E
330
18
100
AcDbEntity
  8
1
100
AcDbLine
 10
1909.032824712479
 20
-435.8402863992649
 30
0.0
 11
1917.332824712479
 21
-435.8402863992649
 31
0.0
  0
ARC
  5
C82F
330
18
100
AcDbEntity
  8
1
100
AcDbCircle
 10
1917.332824712479
 20
-436.3402863992649
 30
0.0
 40
0.5
100
AcDbArc
 50
0.0
 51
90.0
  0
LINE
  5
C830
330
18
100
AcDbEntity
  8
1
100
AcDbLine
 10
1917.832824712479
 20
-436.3402863992649
 30
0.0
 11
1917.832824712479
 21
-441.554075729979
 31
0.0
  0
ARC
  5
C831
330
18
100
AcDbEntity
  8
1
100
AcDbCircle
 10
1918.432824712479
 20
-441.554075729979
 30
0.0
 40
0.6
100
AcDbArc
 50
180.0
 51
270.0
1001
GENIUS_GENOBJ-N-FIL_13
1002
{
1000
OWNER
1000
GEN
1002
}
1001
GENIUS_GENODEF_13
1002
{
1000
HIER
1070
     0
1002
}
1002
{
1000
MANEDIT
1070
     0
1002
}
1002
{
1000
NOSEL
1070
     0
1002
}
1002
{
1000
BEHIND
1070
     0
1002
}
1002
{
1000
OTHER
1070
     0
1002
}
1002
{
1000
REACTOR
1002
}
  0
LINE
  5
C832
330
18
100
AcDbEntity
  8
1
100
AcDbLine
 10
1918.432824712479
 20
-442.1540757299792
 30
0.0
 11
1926.932824712479
 21
-442.1540757299792
 31
0.0
  0
ARC
  5
C833
330
18
100
AcDbEntity
  8
1
100
AcDbCircle
 10
1926.932824712479
 20
-441.554075729979
 30
0.0
 40
0.6
100
AcDbArc
 50
270.0
 51
0.0
1001
GENIUS_GENOBJ-N-FIL_13
1002
{
1000
OWNER
1000
GEN
1002
}
1001
GENIUS_GENODEF_13
1002
{
1000
HIER
1070
     0
1002
}
1002
{
1000
MANEDIT
1070
     0
1002
}
1002
{
1000
NOSEL
1070
     0
1002
}
1002
{
1000
BEHIND
1070
     0
1002
}
1002
{
1000
OTHER
1070
     0
1002
}
1002
{
1000
REACTOR
1002
}
  0
LINE
  5
C834
330
18
100
AcDbEntity
  8
1
100
AcDbLine
 10
1927.532824712479
 20
-441.554075729979
 30
0.0
 11
1927.532824712479
 21
-436.3402863992649
 31
0.0
  0
ARC
  5
C835
330
18
100
AcDbEntity
  8
1
100
AcDbCircle
 10
1928.032824712479
 20
-436.3402863992649
 30
0.0
 40
0.5
100
AcDbArc
 50
90.0
 51
180.0
  0
LINE
  5
C836
330
18
100
AcDbEntity
  8
1
100
AcDbLine
 10
1928.032824712479
 20
-435.8402863992649
 30
0.0
 11
1935.732824712479
 21
-435.8402863992649
 31
0.0
  0
ARC
  5
C837
330
18
100
AcDbEntity
  8
1
100
AcDbCircle
 10
1935.732824712479
 20
-436.4402863992649
 30
0.0
 40
0.6000000000001366
100
AcDbArc
 50
0.0000000000130276
 51
90.0
  0
LINE
  5
C838
330
18
100
AcDbEntity
  8
1
100
AcDbLine
 10
1936.332824712479
 20
-436.4402863992649
 30
0.0
 11
1936.332824712479
 21
-441.554075729979
 31
0.0
  0
ARC
  5
C839
330
18
100
AcDbEntity
  8
1
100
AcDbCircle
 10
1936.932824712479
 20
-441.554075729979
 30
0.0
 40
0.6
100
AcDbArc
 50
180.0
 51
270.0
1001
GENIUS_GENODEF_13
1002
{
1000
HIER
1070
     0
1002
}
1002
{
1000
MANEDIT
1070
     0
1002
}
1002
{
1000
NOSEL
1070
     0
1002
}
1002
{
1000
BEHIND
1070
     0
1002
}
1002
{
1000
OTHER
1070
     0
1002
}
1002
{
1000
REACTOR
1002
}
1001
GENIUS_GENOBJ-N-FIL_13
1002
{
1000
OWNER
1000
GEN
1002
}
  0
LINE
  5
C83A
330
18
100
AcDbEntity
  8
1
100
AcDbLine
 10
1936.932824712479
 20
-442.1540757299792
 30
0.0
 11
1944.932824712479
 21
-442.1540757299792
 31
0.0
  0
LINE
  5
C83B
330
18
100
AcDbEntity
  8
1
100
AcDbLine
 10
1945.532824712479
 20
-441.554075729979
 30
0.0
 11
1945.532824712478
 21
-436.4402863992649
 31
0.0
  0
ARC
  5
C83C
330
18
100
AcDbEntity
  8
1
100
AcDbCircle
 10
1944.932824712479
 20
-441.554075729979
 30
0.0
 40
0.6
100
AcDbArc
 50
270.0
 51
0.0
1001
GENIUS_GENOBJ-N-FIL_13
1002
{
1000
OWNER
1000
GEN
1002
}
1001
GENIUS_GENODEF_13
1002
{
1000
HIER
1070
     0
1002
}
1002
{
1000
MANEDIT
1070
     0
1002
}
1002
{
1000
NOSEL
1070
     0
1002
}
1002
{
1000
BEHIND
1070
     0
1002
}
1002
{
1000
OTHER
1070
     0
1002
}
1002
{
1000
REACTOR
1002
}
  0
ARC
  5
C83D
330
18
100
AcDbEntity
  8
1
100
AcDbCircle
 10
1946.132824712478
 20
-436.4402863992649
 30
0.0
 40
0.6000000000000229
100
AcDbArc
 50
90.0
 51
179.999999999987
  0
LINE
  5
C83E
330
18
100
AcDbEntity
  8
1
100
AcDbLine
 10
1946.132824712478
 20
-435.8402863992649
 30
0.0
 11
1955.432824712479
 21
-435.8402863992649
 31
0.0
  0
ARC
  5
C83F
330
18
100
AcDbEntity
  8
1
100
AcDbCircle
 10
1955.432824712479
 20
-436.3402863992649
 30
0.0
 40
0.5
100
AcDbArc
 50
0.0
 51
90.0
  0
LINE
  5
C840
330
18
100
AcDbEntity
  8
1
100
AcDbLine
 10
1955.932824712479
 20
-436.3402863992649
 30
0.0
 11
1955.932824712479
 21
-441.554075729979
 31
0.0
  0
ARC
  5
C841
330
18
100
AcDbEntity
  8
1
100
AcDbCircle
 10
1956.532824712479
 20
-441.554075729979
 30
0.0
 40
0.6
100
AcDbArc
 50
180.0
 51
270.0
1001
GENIUS_GENOBJ-N-FIL_13
1002
{
1000
OWNER
1000
GEN
1002
}
1001
GENIUS_GENODEF_13
1002
{
1000
HIER
1070
     0
1002
}
1002
{
1000
MANEDIT
1070
     0
1002
}
1002
{
1000
NOSEL
1070
     0
1002
}
1002
{
1000
BEHIND
1070
     0
1002
}
1002
{
1000
OTHER
1070
     0
1002
}
1002
{
1000
REACTOR
1002
}
  0
LINE
  5
C842
330
18
100
AcDbEntity
  8
1
100
AcDbLine
 10
1956.532824712479
 20
-442.1540757299792
 30
0.0
 11
1965.032824712479
 21
-442.1540757299792
 31
0.0
  0
ARC
  5
C843
330
18
100
AcDbEntity
  8
1
100
AcDbCircle
 10
1965.032824712479
 20
-441.554075729979
 30
0.0
 40
0.6
100
AcDbArc
 50
270.0
 51
0.0
1001
GENIUS_GENOBJ-N-FIL_13
1002
{
1000
OWNER
1000
GEN
1002
}
1001
GENIUS_GENODEF_13
1002
{
1000
HIER
1070
     0
1002
}
1002
{
1000
MANEDIT
1070
     0
1002
}
1002
{
1000
NOSEL
1070
     0
1002
}
1002
{
1000
BEHIND
1070
     0
1002
}
1002
{
1000
OTHER
1070
     0
1002
}
1002
{
1000
REACTOR
1002
}
  0
LINE
  5
C844
330
18
100
AcDbEntity
  8
1
100
AcDbLine
 10
1965.632824712479
 20
-441.554075729979
 30
0.0
 11
1965.632824712479
 21
-436.3402863992649
 31
0.0
  0
ARC
  5
C845
330
18
100
AcDbEntity
  8
1
100
AcDbCircle
 10
1966.132824712478
 20
-436.3402863992649
 30
0.0
 40
0.5
100
AcDbArc
 50
90.0
 51
180.0
  0
LINE
  5
C846
330
18
100
AcDbEntity
  8
1
100
AcDbLine
 10
1966.132824712478
 20
-435.8402863992649
 30
0.0
 11
1974.432824712479
 21
-435.8402863992649
 31
0.0
  0
ARC
  5
C847
330
18
100
AcDbEntity
  8
1
100
AcDbCircle
 10
1974.432824712479
 20
-436.3402863992649
 30
0.0
 40
0.5
100
AcDbArc
 50
0.0
 51
90.0
  0
LINE
  5
C848
330
18
100
AcDbEntity
  8
1
100
AcDbLine
 10
1974.932824712479
 20
-436.3402863992649
 30
0.0
 11
1974.932824712479
 21
-441.554075729979
 31
0.0
  0
ARC
  5
C849
330
18
100
AcDbEntity
  8
1
100
AcDbCircle
 10
1975.532824712479
 20
-441.554075729979
 30
0.0
 40
0.6
100
AcDbArc
 50
180.0
 51
270.0
1001
GENIUS_GENODEF_13
1002
{
1000
HIER
1070
     0
1002
}
1002
{
1000
MANEDIT
1070
     0
1002
}
1002
{
1000
NOSEL
1070
     0
1002
}
1002
{
1000
BEHIND
1070
     0
1002
}
1002
{
1000
OTHER
1070
     0
1002
}
1002
{
1000
REACTOR
1002
}
1001
GENIUS_GENOBJ-N-FIL_13
1002
{
1000
OWNER
1000
GEN
1002
}
  0
LINE
  5
C84A
330
18
100
AcDbEntity
  8
1
100
AcDbLine
 10
1975.532824712479
 20
-442.1540757299792
 30
0.0
 11
1983.832824712479
 21
-442.1540757299792
 31
0.0
  0
ARC
  5
C84B
330
18
100
AcDbEntity
  8
1
100
AcDbCircle
 10
1983.832824712479
 20
-442.7540757299793
 30
0.0
 40
0.6
100
AcDbArc
 50
0.0
 51
90.0
1001
GENIUS_GENODEF_13
1002
{
1000
HIER
1070
     0
1002
}
1002
{
1000
MANEDIT
1070
     0
1002
}
1002
{
1000
NOSEL
1070
     0
1002
}
1002
{
1000
BEHIND
1070
     0
1002
}
1002
{
1000
OTHER
1070
     0
1002
}
1002
{
1000
REACTOR
1002
}
1001
GENIUS_GENOBJ-N-FIL_13
1002
{
1000
OWNER
1000
GEN
1002
}
  0
LINE
  5
C84C
330
18
100
AcDbEntity
  8
1
100
AcDbLine
 10
1984.432824712479
 20
-442.7540757299793
 30
0.0
 11
1984.432824712479
 21
-458.1402863992648
 31
0.0
  0
LINE
  5
C84D
330
18
100
AcDbEntity
  8
1
100
AcDbLine
 10
1879.932824712479
 20
-457.0012893254783
 30
0.0
 11
1879.932824712479
 21
-453.0264970685503
 31
0.0
  0
ARC
  5
C84E
330
18
100
AcDbEntity
  8
1
100
AcDbCircle
 10
1879.332824712478
 20
-453.0264970685503
 30
0.0
 40
0.6
100
AcDbArc
 50
0.0
 51
90.0
1001
GENIUS_GENOBJ-N-FIL_13
1002
{
1000
OWNER
1000
GEN
1002
}
1001
GENIUS_GENODEF_13
1002
{
1000
HIER
1070
     0
1002
}
1002
{
1000
MANEDIT
1070
     0
1002
}
1002
{
1000
NOSEL
1070
     0
1002
}
1002
{
1000
BEHIND
1070
     0
1002
}
1002
{
1000
OTHER
1070
     0
1002
}
1002
{
1000
REACTOR
1002
}
  0
LINE
  5
C84F
330
18
100
AcDbEntity
  8
1
100
AcDbLine
 10
1879.332824712478
 20
-452.4264970685504
 30
0.0
 11
1870.832824712479
 21
-452.4264970685504
 31
0.0
  0
ARC
  5
C850
330
18
100
AcDbEntity
  8
1
100
AcDbCircle
 10
1870.832824712479
 20
-453.0264970685502
 30
0.0
 40
0.6
100
AcDbArc
 50
90.0
 51
180.0
1001
GENIUS_GENOBJ-N-FIL_13
1002
{
1000
OWNER
1000
GEN
1002
}
1001
GENIUS_GENODEF_13
1002
{
1000
HIER
1070
     0
1002
}
1002
{
1000
MANEDIT
1070
     0
1002
}
1002
{
1000
NOSEL
1070
     0
1002
}
1002
{
1000
BEHIND
1070
     0
1002
}
1002
{
1000
OTHER
1070
     0
1002
}
1002
{
1000
REACTOR
1002
}
  0
LINE
  5
C851
330
18
100
AcDbEntity
  8
1
100
AcDbLine
 10
1870.232824712479
 20
-453.0264970685502
 30
0.0
 11
1870.232824712479
 21
-457.0012893254791
 31
0.0
  0
LINE
  5
C855
330
18
100
AcDbEntity
  8
1
100
AcDbLine
 10
1860.932824712478
 20
-457.0012893254781
 30
0.0
 11
1860.932824712479
 21
-453.0264970685502
 31
0.0
  0
ARC
  5
C856
330
18
100
AcDbEntity
  8
1
100
AcDbCircle
 10
1860.332824712479
 20
-453.0264970685502
 30
0.0
 40
0.6
100
AcDbArc
 50
0.0
 51
90.0
1001
GENIUS_GENOBJ-N-FIL_13
1002
{
1000
OWNER
1000
GEN
1002
}
1001
GENIUS_GENODEF_13
1002
{
1000
HIER
1070
     0
1002
}
1002
{
1000
MANEDIT
1070
     0
1002
}
1002
{
1000
NOSEL
1070
     0
1002
}
1002
{
1000
BEHIND
1070
     0
1002
}
1002
{
1000
OTHER
1070
     0
1002
}
1002
{
1000
REACTOR
1002
}
  0
LINE
  5
C857
330
18
100
AcDbEntity
  8
1
100
AcDbLine
 10
1860.332824712479
 20
-452.4264970685504
 30
0.0
 11
1825.032824712479
 21
-452.4264970685504
 31
0.0
  0
LINE
  5
C858
330
18
100
AcDbEntity
  8
1
100
AcDbLine
 10
1824.432824712479
 20
-451.8264970685505
 30
0.0
 11
1824.432824712479
 21
-438.5645824747958
 31
0.0
  0
ARC
  5
C859
330
18
100
AcDbEntity
  8
1
100
AcDbCircle
 10
1825.032824712479
 20
-451.8264970685505
 30
0.0
 40
0.6
100
AcDbArc
 50
180.0
 51
270.0
1001
GENIUS_GENODEF_13
1002
{
1000
HIER
1070
     0
1002
}
1002
{
1000
MANEDIT
1070
     0
1002
}
1002
{
1000
NOSEL
1070
     0
1002
}
1002
{
1000
BEHIND
1070
     0
1002
}
1002
{
1000
OTHER
1070
     0
1002
}
1002
{
1000
REACTOR
1002
}
1001
GENIUS_GENOBJ-N-FIL_13
1002
{
1000
OWNER
1000
GEN
1002
}
  0
LINE
  5
C85A
330
18
100
AcDbEntity
  8
1
100
AcDbLine
 10
2015.818883680976
 20
-452.9823861875672
 30
0.0
 11
2015.818883680976
 21
-456.4446393984518
 31
0.0
  0
LINE
  5
C85B
330
18
100
AcDbEntity
  8
1
100
AcDbLine
 10
2022.818883680976
 20
-450.4384528728071
 30
0.0
 11
2022.818883680976
 21
-452.002424353424
 31
0.0
  0
ARC
  5
C85C
330
18
100
AcDbEntity
  8
1
100
AcDbCircle
 10
2022.218883680976
 20
-452.002424353424
 30
0.0
 40
0.6
100
AcDbArc
 50
300.0000000000003
 51
0.0
1001
GENIUS_GENODEF_13
1002
{
1000
HIER
1070
     0
1002
}
1002
{
1000
MANEDIT
1070
     0
1002
}
1002
{
1000
NOSEL
1070
     0
1002
}
1002
{
1000
BEHIND
1070
     0
1002
}
1002
{
1000
OTHER
1070
     0
1002
}
1002
{
1000
REACTOR
1002
}
1001
GENIUS_GENOBJ-N-FIL_13
1002
{
1000
OWNER
1000
GEN
1002
}
  0
LINE
  5
C85D
330
18
100
AcDbEntity
  8
3
  6
CENTER2
 48
0.5
100
AcDbLine
 10
2010.968883680976
 20
-434.158341554843
 30
0.0
 11
2010.968883680976
 21
-460.4222312436866
 31
0.0
  0
ARC
  5
C85E
330
18
100
AcDbEntity
  8
1
100
AcDbCircle
 10
2010.968883680976
 20
-454.7902863992649
 30
0.0
 40
3.950000000000026
100
AcDbArc
 50
180.0
 51
295.9999999999944
  0
LINE
  5
C85F
330
18
100
AcDbEntity
  8
1
100
AcDbLine
 10
2009.468883680976
 20
-446.3902863992649
 30
0.0
 11
2013.426967789703
 21
-446.3902863992649
 31
0.0
  0
ARC
  5
C861
330
18
100
AcDbEntity
  8
1
100
AcDbCircle
 10
2015.218883680975
 20
-441.5981866109628
 30
0.0
 40
0.6
100
AcDbArc
 50
324.9031987724291
 51
0.0
1001
GENIUS_GENOBJ-N-FIL_13
1002
{
1000
OWNER
1000
GEN
1002
}
1001
GENIUS_GENODEF_13
1002
{
1000
HIER
1070
     0
1002
}
1002
{
1000
MANEDIT
1070
     0
1002
}
1002
{
1000
NOSEL
1070
     0
1002
}
1002
{
1000
BEHIND
1070
     0
1002
}
1002
{
1000
OTHER
1070
     0
1002
}
1002
{
1000
REACTOR
1002
}
  0
ARC
  5
C862
330
18
100
AcDbEntity
  8
1
100
AcDbCircle
 10
2015.218883680975
 20
-452.9823861875672
 30
0.0
 40
0.6
100
AcDbArc
 50
0.0
 51
35.09680122757089
1001
GENIUS_GENOBJ-N-FIL_13
1002
{
1000
OWNER
1000
GEN
1002
}
1001
GENIUS_GENODEF_13
1002
{
1000
HIER
1070
     0
1002
}
1002
{
1000
MANEDIT
1070
     0
1002
}
1002
{
1000
NOSEL
1070
     0
1002
}
1002
{
1000
BEHIND
1070
     0
1002
}
1002
{
1000
OTHER
1070
     0
1002
}
1002
{
1000
REACTOR
1002
}
  0
ARC
  5
C863
330
18
100
AcDbEntity
  8
1
100
AcDbCircle
 10
2014.790261984472
 20
-449.1086030051148
 30
0.0
 40
0.6
100
AcDbArc
 50
191.3912512370993
 51
269.0000000000243
1001
GENIUS_GENOBJ-N-FIL_13
1002
{
1000
OWNER
1000
GEN
1002
}
1001
GENIUS_GENODEF_13
1002
{
1000
HIER
1070
     0
1002
}
1002
{
1000
MANEDIT
1070
     0
1002
}
1002
{
1000
NOSEL
1070
     0
1002
}
1002
{
1000
BEHIND
1070
     0
1002
}
1002
{
1000
OTHER
1070
     0
1002
}
1002
{
1000
REACTOR
1002
}
  0
LINE
  5
C864
330
18
100
AcDbEntity
  8
1
100
AcDbLine
 10
2015.818883680976
 20
-438.1359334000776
 30
0.0
 11
2015.818883680976
 21
-441.5981866109628
 31
0.0
  0
ARC
  5
C865
330
18
100
AcDbEntity
  8
1
100
AcDbCircle
 10
2015.218883680976
 20
-438.1359334000776
 30
0.0
 40
0.6
100
AcDbArc
 50
0.0
 51
64.00000000000556
1001
GENIUS_GENOBJ-N-FIL_13
1002
{
1000
OWNER
1000
GEN
1002
}
1001
GENIUS_GENODEF_13
1002
{
1000
HIER
1070
     0
1002
}
1002
{
1000
MANEDIT
1070
     0
1002
}
1002
{
1000
NOSEL
1070
     0
1002
}
1002
{
1000
BEHIND
1070
     0
1002
}
1002
{
1000
OTHER
1070
     0
1002
}
1002
{
1000
REACTOR
1002
}
  0
LINE
  5
C866
330
18
100
AcDbEntity
  8
3
  6
CENTER2
 48
0.3
100
AcDbLine
 10
2005.600418996805
 20
-439.790286399265
 30
0.0
 11
2016.337348365146
 21
-439.790286399265
 31
0.0
  0
LINE
  5
C867
330
18
100
AcDbEntity
  8
1
100
AcDbLine
 10
2012.468883680976
 20
-446.3902863992649
 30
0.0
 11
2012.468883680976
 21
-453.0773370440853
 31
0.0
  0
ARC
  5
C868
330
18
100
AcDbEntity
  8
1
100
AcDbCircle
 10
2013.426967789703
 20
-446.9902863992648
 30
0.0
 40
0.5999999999999999
100
AcDbArc
 50
357.6843886838849
 51
90.0
  0
ARC
  5
C869
330
18
100
AcDbEntity
  8
1
100
AcDbCircle
 10
2010.968883680976
 20
-439.790286399265
 30
0.0
 40
4.099999999999996
100
AcDbArc
 50
215.2071288969204
 51
243.4608950672208
  0
LINE
  5
C86A
330
18
100
AcDbEntity
  8
1
100
AcDbLine
 10
2007.018883680976
 20
-454.6902863992649
 30
0.0
 11
2007.018883680976
 21
-439.7902863992732
 31
0.0
  0
ARC
  5
C86B
330
18
100
AcDbEntity
  8
1
100
AcDbCircle
 10
2007.618883680976
 20
-442.7540757299794
 30
0.0
 40
0.5999999999999999
100
AcDbArc
 50
90.0
 51
180.0
  0
LINE
  5
C86C
330
18
100
AcDbEntity
  8
1
100
AcDbLine
 10
2009.468883680976
 20
-443.9950456075903
 30
0.0
 11
2009.468883680976
 21
-453.0773370440846
 31
0.0
  0
ARC
  5
C86D
330
18
100
AcDbEntity
  8
1
100
AcDbCircle
 10
2008.868883680976
 20
-443.9950456075903
 30
0.0
 40
0.5999999999999999
100
AcDbArc
 50
0.0
 51
63.46089506722079
  0
LINE
  5
C86E
330
18
100
AcDbEntity
  8
3
  6
CENTER2
 48
0.3
100
AcDbLine
 10
2005.600418996805
 20
-454.7902863992649
 30
0.0
 11
2016.337348365146
 21
-454.7902863992649
 31
0.0
  0
CIRCLE
  5
C86F
330
18
100
AcDbEntity
  8
1
100
AcDbCircle
 10
2010.968883680976
 20
-439.790286399265
 30
0.0
 40
2.399999999999977
  0
ARC
  5
C870
330
18
100
AcDbEntity
  8
1
100
AcDbCircle
 10
2010.968883680976
 20
-454.7902863992649
 30
0.0
 40
2.399999999999977
100
AcDbArc
 50
128.6821874534827
 51
51.31781254651136
  0
LINE
  5
C871
330
18
100
AcDbEntity
  8
1
100
AcDbLine
 10
2022.518883680977
 20
-452.5220395956946
 30
0.0
 11
2015.818883680976
 21
-456.390286399265
 31
0.0
  0
LINE
  5
C872
330
18
100
AcDbEntity
  8
1
100
AcDbLine
 10
2014.779790540611
 20
-449.7085116222087
 30
0.0
 11
2022.229355124839
 21
-449.8385442557133
 31
0.0
  0
ARC
  5
C873
330
18
100
AcDbEntity
  8
1
100
AcDbCircle
 10
2022.218883680976
 20
-450.4384528728071
 30
0.0
 40
0.6
100
AcDbArc
 50
0.0
 51
89.0000000000243
1001
GENIUS_GENOBJ-N-FIL_13
1002
{
1000
OWNER
1000
GEN
1002
}
1001
GENIUS_GENODEF_13
1002
{
1000
HIER
1070
     0
1002
}
1002
{
1000
MANEDIT
1070
     0
1002
}
1002
{
1000
NOSEL
1070
     0
1002
}
1002
{
1000
BEHIND
1070
     0
1002
}
1002
{
1000
OTHER
1070
     0
1002
}
1002
{
1000
REACTOR
1002
}
  0
LINE
  5
C88D
330
18
100
AcDbEntity
  8
1
100
AcDbLine
 10
1824.432824712479
 20
-511.7795836281151
 30
0.0
 11
1824.432824712479
 21
-512.1464147902708
 31
0.0
  0
LINE
  5
C893
330
18
100
AcDbEntity
  8
1
100
AcDbLine
 10
1974.932824712479
 20
-519.3795836281155
 30
0.0
 11
1974.932824712479
 21
-518.1795836281154
 31
0.0
  0
ARC
  5
C894
330
18
100
AcDbEntity
  8
1
100
AcDbCircle
 10
1974.332824712479
 20
-519.3795836281155
 30
0.0
 40
0.6
100
AcDbArc
 50
270.0
 51
0.0
1001
GENIUS_GENOBJ-N-FIL_13
1002
{
1000
OWNER
1000
GEN
1002
}
1001
GENIUS_GENODEF_13
1002
{
1000
HIER
1070
     0
1002
}
1002
{
1000
MANEDIT
1070
     0
1002
}
1002
{
1000
NOSEL
1070
     0
1002
}
1002
{
1000
BEHIND
1070
     0
1002
}
1002
{
1000
OTHER
1070
     0
1002
}
1002
{
1000
REACTOR
1002
}
  0
LINE
  5
C895
330
18
100
AcDbEntity
  8
1
100
AcDbLine
 10
1965.632824712479
 20
-519.3795836281155
 30
0.0
 11
1965.632824712479
 21
-518.1795836281154
 31
0.0
  0
ARC
  5
C896
330
18
100
AcDbEntity
  8
1
100
AcDbCircle
 10
1966.232824712479
 20
-519.3795836281155
 30
0.0
 40
0.6
100
AcDbArc
 50
180.0
 51
270.0
1001
GENIUS_GENOBJ-N-FIL_13
1002
{
1000
OWNER
1000
GEN
1002
}
1001
GENIUS_GENODEF_13
1002
{
1000
HIER
1070
     0
1002
}
1002
{
1000
MANEDIT
1070
     0
1002
}
1002
{
1000
NOSEL
1070
     0
1002
}
1002
{
1000
BEHIND
1070
     0
1002
}
1002
{
1000
OTHER
1070
     0
1002
}
1002
{
1000
REACTOR
1002
}
  0
LINE
  5
C897
330
18
100
AcDbEntity
  8
1
100
AcDbLine
 10
1974.332824712479
 20
-519.9795836281158
 30
0.0
 11
1966.232824712479
 21
-519.9795836281151
 31
0.0
  0
LINE
  5
C898
330
18
100
AcDbEntity
  8
1
100
AcDbLine
 10
1967.832824712479
 20
-518.1795836281154
 30
0.0
 11
1967.832824712479
 21
-519.3795836281155
 31
0.0
  0
ARC
  5
C899
330
18
100
AcDbEntity
  8
1
100
AcDbCircle
 10
1967.232824712479
 20
-519.3795836281155
 30
0.0
 40
0.6
100
AcDbArc
 50
270.0
 51
0.0
1001
GENIUS_GENODEF_13
1002
{
1000
HIER
1070
     0
1002
}
1002
{
1000
MANEDIT
1070
     0
1002
}
1002
{
1000
NOSEL
1070
     0
1002
}
1002
{
1000
BEHIND
1070
     0
1002
}
1002
{
1000
OTHER
1070
     0
1002
}
1002
{
1000
REACTOR
1002
}
1001
GENIUS_GENOBJ-N-FIL_13
1002
{
1000
OWNER
1000
GEN
1002
}
  0
LINE
  5
C89A
330
18
100
AcDbEntity
  8
1
100
AcDbLine
 10
1972.732824712479
 20
-519.3795836281155
 30
0.0
 11
1972.732824712479
 21
-518.1795836281154
 31
0.0
  0
ARC
  5
C89B
330
18
100
AcDbEntity
  8
1
100
AcDbCircle
 10
1973.332824712479
 20
-519.3795836281155
 30
0.0
 40
0.6
100
AcDbArc
 50
180.0
 51
270.0
1001
GENIUS_GENODEF_13
1002
{
1000
HIER
1070
     0
1002
}
1002
{
1000
MANEDIT
1070
     0
1002
}
1002
{
1000
NOSEL
1070
     0
1002
}
1002
{
1000
BEHIND
1070
     0
1002
}
1002
{
1000
OTHER
1070
     0
1002
}
1002
{
1000
REACTOR
1002
}
1001
GENIUS_GENOBJ-N-FIL_13
1002
{
1000
OWNER
1000
GEN
1002
}
  0
LINE
  5
C89C
330
18
100
AcDbEntity
  8
1
100
AcDbLine
 10
1955.932824712479
 20
-519.3795836281155
 30
0.0
 11
1955.932824712479
 21
-518.1795836281154
 31
0.0
  0
ARC
  5
C89D
330
18
100
AcDbEntity
  8
1
100
AcDbCircle
 10
1955.332824712479
 20
-519.3795836281155
 30
0.0
 40
0.6
100
AcDbArc
 50
270.0
 51
0.0
1001
GENIUS_GENOBJ-N-FIL_13
1002
{
1000
OWNER
1000
GEN
1002
}
1001
GENIUS_GENODEF_13
1002
{
1000
HIER
1070
     0
1002
}
1002
{
1000
MANEDIT
1070
     0
1002
}
1002
{
1000
NOSEL
1070
     0
1002
}
1002
{
1000
BEHIND
1070
     0
1002
}
1002
{
1000
OTHER
1070
     0
1002
}
1002
{
1000
REACTOR
1002
}
  0
LINE
  5
C89E
330
18
100
AcDbEntity
  8
1
100
AcDbLine
 10
1945.532824712479
 20
-519.3795836281155
 30
0.0
 11
1945.532824712479
 21
-518.1795836281154
 31
0.0
  0
ARC
  5
C89F
330
18
100
AcDbEntity
  8
1
100
AcDbCircle
 10
1946.132824712478
 20
-519.3795836281155
 30
0.0
 40
0.6
100
AcDbArc
 50
180.0
 51
270.0
1001
GENIUS_GENOBJ-N-FIL_13
1002
{
1000
OWNER
1000
GEN
1002
}
1001
GENIUS_GENODEF_13
1002
{
1000
HIER
1070
     0
1002
}
1002
{
1000
MANEDIT
1070
     0
1002
}
1002
{
1000
NOSEL
1070
     0
1002
}
1002
{
1000
BEHIND
1070
     0
1002
}
1002
{
1000
OTHER
1070
     0
1002
}
1002
{
1000
REACTOR
1002
}
  0
LINE
  5
C8A0
330
18
100
AcDbEntity
  8
1
100
AcDbLine
 10
1955.332824712479
 20
-519.9795836281158
 30
0.0
 11
1946.132824712478
 21
-519.9795836281151
 31
0.0
  0
LINE
  5
C8A1
330
18
100
AcDbEntity
  8
1
100
AcDbLine
 10
1947.732824712479
 20
-518.1795836281154
 30
0.0
 11
1947.732824712479
 21
-519.3795836281155
 31
0.0
  0
ARC
  5
C8A2
330
18
100
AcDbEntity
  8
1
100
AcDbCircle
 10
1947.132824712479
 20
-519.3795836281155
 30
0.0
 40
0.6
100
AcDbArc
 50
270.0
 51
0.0
1001
GENIUS_GENODEF_13
1002
{
1000
HIER
1070
     0
1002
}
1002
{
1000
MANEDIT
1070
     0
1002
}
1002
{
1000
NOSEL
1070
     0
1002
}
1002
{
1000
BEHIND
1070
     0
1002
}
1002
{
1000
OTHER
1070
     0
1002
}
1002
{
1000
REACTOR
1002
}
1001
GENIUS_GENOBJ-N-FIL_13
1002
{
1000
OWNER
1000
GEN
1002
}
  0
LINE
  5
C8A3
330
18
100
AcDbEntity
  8
1
100
AcDbLine
 10
1953.732824712479
 20
-519.3795836281155
 30
0.0
 11
1953.732824712479
 21
-518.1795836281154
 31
0.0
  0
ARC
  5
C8A4
330
18
100
AcDbEntity
  8
1
100
AcDbCircle
 10
1954.332824712479
 20
-519.3795836281155
 30
0.0
 40
0.6
100
AcDbArc
 50
180.0
 51
270.0
1001
GENIUS_GENODEF_13
1002
{
1000
HIER
1070
     0
1002
}
1002
{
1000
MANEDIT
1070
     0
1002
}
1002
{
1000
NOSEL
1070
     0
1002
}
1002
{
1000
BEHIND
1070
     0
1002
}
1002
{
1000
OTHER
1070
     0
1002
}
1002
{
1000
REACTOR
1002
}
1001
GENIUS_GENOBJ-N-FIL_13
1002
{
1000
OWNER
1000
GEN
1002
}
  0
LINE
  5
C8A5
330
18
100
AcDbEntity
  8
1
100
AcDbLine
 10
1945.332824712479
 20
-519.3795836281155
 30
0.0
 11
1945.332824712479
 21
-511.1795836281153
 31
0.0
  0
ARC
  5
C8A6
330
18
100
AcDbEntity
  8
1
100
AcDbCircle
 10
1944.732824712479
 20
-519.3795836281155
 30
0.0
 40
0.6
100
AcDbArc
 50
270.0
 51
0.0
1001
GENIUS_GENOBJ-N-FIL_13
1002
{
1000
OWNER
1000
GEN
1002
}
1001
GENIUS_GENODEF_13
1002
{
1000
HIER
1070
     0
1002
}
1002
{
1000
MANEDIT
1070
     0
1002
}
1002
{
1000
NOSEL
1070
     0
1002
}
1002
{
1000
BEHIND
1070
     0
1002
}
1002
{
1000
OTHER
1070
     0
1002
}
1002
{
1000
REACTOR
1002
}
  0
LINE
  5
C8A7
330
18
100
AcDbEntity
  8
1
100
AcDbLine
 10
1936.332824712479
 20
-519.3795836281155
 30
0.0
 11
1936.332824712478
 21
-518.1795836281154
 31
0.0
  0
ARC
  5
C8A8
330
18
100
AcDbEntity
  8
1
100
AcDbCircle
 10
1935.732824712479
 20
-519.3795836281155
 30
0.0
 40
0.6
100
AcDbArc
 50
270.0
 51
0.0
1001
GENIUS_GENOBJ-N-FIL_13
1002
{
1000
OWNER
1000
GEN
1002
}
1001
GENIUS_GENODEF_13
1002
{
1000
HIER
1070
     0
1002
}
1002
{
1000
MANEDIT
1070
     0
1002
}
1002
{
1000
NOSEL
1070
     0
1002
}
1002
{
1000
BEHIND
1070
     0
1002
}
1002
{
1000
OTHER
1070
     0
1002
}
1002
{
1000
REACTOR
1002
}
  0
LINE
  5
C8A9
330
18
100
AcDbEntity
  8
1
100
AcDbLine
 10
1927.532824712479
 20
-519.3795836281155
 30
0.0
 11
1927.532824712479
 21
-518.1795836281154
 31
0.0
  0
ARC
  5
C8AA
330
18
100
AcDbEntity
  8
1
100
AcDbCircle
 10
1928.132824712479
 20
-519.3795836281155
 30
0.0
 40
0.6
100
AcDbArc
 50
180.0
 51
270.0
1001
GENIUS_GENOBJ-N-FIL_13
1002
{
1000
OWNER
1000
GEN
1002
}
1001
GENIUS_GENODEF_13
1002
{
1000
HIER
1070
     0
1002
}
1002
{
1000
MANEDIT
1070
     0
1002
}
1002
{
1000
NOSEL
1070
     0
1002
}
1002
{
1000
BEHIND
1070
     0
1002
}
1002
{
1000
OTHER
1070
     0
1002
}
1002
{
1000
REACTOR
1002
}
  0
LINE
  5
C8AB
330
18
100
AcDbEntity
  8
1
100
AcDbLine
 10
1935.732824712479
 20
-519.9795836281158
 30
0.0
 11
1928.132824712479
 21
-519.9795836281151
 31
0.0
  0
LINE
  5
C8AC
330
18
100
AcDbEntity
  8
1
100
AcDbLine
 10
1929.732824712479
 20
-518.1795836281154
 30
0.0
 11
1929.732824712479
 21
-519.3795836281155
 31
0.0
  0
ARC
  5
C8AD
330
18
100
AcDbEntity
  8
1
100
AcDbCircle
 10
1929.132824712478
 20
-519.3795836281155
 30
0.0
 40
0.6
100
AcDbArc
 50
270.0
 51
0.0
1001
GENIUS_GENODEF_13
1002
{
1000
HIER
1070
     0
1002
}
1002
{
1000
MANEDIT
1070
     0
1002
}
1002
{
1000
NOSEL
1070
     0
1002
}
1002
{
1000
BEHIND
1070
     0
1002
}
1002
{
1000
OTHER
1070
     0
1002
}
1002
{
1000
REACTOR
1002
}
1001
GENIUS_GENOBJ-N-FIL_13
1002
{
1000
OWNER
1000
GEN
1002
}
  0
LINE
  5
C8AE
330
18
100
AcDbEntity
  8
1
100
AcDbLine
 10
1934.132824712478
 20
-519.3795836281155
 30
0.0
 11
1934.132824712478
 21
-518.1795836281154
 31
0.0
  0
ARC
  5
C8AF
330
18
100
AcDbEntity
  8
1
100
AcDbCircle
 10
1934.732824712479
 20
-519.3795836281155
 30
0.0
 40
0.6
100
AcDbArc
 50
180.0
 51
270.0
1001
GENIUS_GENODEF_13
1002
{
1000
HIER
1070
     0
1002
}
1002
{
1000
MANEDIT
1070
     0
1002
}
1002
{
1000
NOSEL
1070
     0
1002
}
1002
{
1000
BEHIND
1070
     0
1002
}
1002
{
1000
OTHER
1070
     0
1002
}
1002
{
1000
REACTOR
1002
}
1001
GENIUS_GENOBJ-N-FIL_13
1002
{
1000
OWNER
1000
GEN
1002
}
  0
LINE
  5
C8B0
330
18
100
AcDbEntity
  8
1
100
AcDbLine
 10
1917.832824712479
 20
-519.3795836281155
 30
0.0
 11
1917.832824712479
 21
-518.1795836281154
 31
0.0
  0
ARC
  5
C8B1
330
18
100
AcDbEntity
  8
1
100
AcDbCircle
 10
1917.232824712479
 20
-519.3795836281155
 30
0.0
 40
0.6
100
AcDbArc
 50
270.0
 51
0.0
1001
GENIUS_GENODEF_13
1002
{
1000
HIER
1070
     0
1002
}
1002
{
1000
MANEDIT
1070
     0
1002
}
1002
{
1000
NOSEL
1070
     0
1002
}
1002
{
1000
BEHIND
1070
     0
1002
}
1002
{
1000
OTHER
1070
     0
1002
}
1002
{
1000
REACTOR
1002
}
1001
GENIUS_GENOBJ-N-FIL_13
1002
{
1000
OWNER
1000
GEN
1002
}
  0
LINE
  5
C8B2
330
18
100
AcDbEntity
  8
1
100
AcDbLine
 10
1908.532824712478
 20
-519.3795836281155
 30
0.0
 11
1908.532824712478
 21
-518.1795836281154
 31
0.0
  0
ARC
  5
C8B3
330
18
100
AcDbEntity
  8
1
100
AcDbCircle
 10
1909.132824712478
 20
-519.3795836281155
 30
0.0
 40
0.6
100
AcDbArc
 50
180.0
 51
270.0
1001
GENIUS_GENOBJ-N-FIL_13
1002
{
1000
OWNER
1000
GEN
1002
}
1001
GENIUS_GENODEF_13
1002
{
1000
HIER
1070
     0
1002
}
1002
{
1000
MANEDIT
1070
     0
1002
}
1002
{
1000
NOSEL
1070
     0
1002
}
1002
{
1000
BEHIND
1070
     0
1002
}
1002
{
1000
OTHER
1070
     0
1002
}
1002
{
1000
REACTOR
1002
}
  0
LINE
  5
C8B4
330
18
100
AcDbEntity
  8
1
100
AcDbLine
 10
1899.432824712478
 20
-519.3795836281155
 30
0.0
 11
1899.432824712478
 21
-518.1795836281154
 31
0.0
  0
ARC
  5
C8B5
330
18
100
AcDbEntity
  8
1
100
AcDbCircle
 10
1898.832824712478
 20
-519.3795836281155
 30
0.0
 40
0.6
100
AcDbArc
 50
270.0
 51
0.0
1001
GENIUS_GENOBJ-N-FIL_13
1002
{
1000
OWNER
1000
GEN
1002
}
1001
GENIUS_GENODEF_13
1002
{
1000
HIER
1070
     0
1002
}
1002
{
1000
MANEDIT
1070
     0
1002
}
1002
{
1000
NOSEL
1070
     0
1002
}
1002
{
1000
BEHIND
1070
     0
1002
}
1002
{
1000
OTHER
1070
     0
1002
}
1002
{
1000
REACTOR
1002
}
  0
LINE
  5
C8B6
330
18
100
AcDbEntity
  8
1
100
AcDbLine
 10
1890.532824712479
 20
-519.3795836281151
 30
0.0
 11
1890.532824712479
 21
-518.1795836281154
 31
0.0
  0
LINE
  5
C8B7
330
18
100
AcDbEntity
  8
1
100
AcDbLine
 10
1889.732824712479
 20
-519.9795836281151
 30
0.0
 11
1880.532824712479
 21
-519.9795836281151
 31
0.0
  0
ARC
  5
C8B8
330
18
100
AcDbEntity
  8
1
100
AcDbCircle
 10
1889.732824712479
 20
-519.3795836281155
 30
0.0
 40
0.6
100
AcDbArc
 50
270.0
 51
0.0
1001
GENIUS_GENOBJ-N-FIL_13
1002
{
1000
OWNER
1000
GEN
1002
}
1001
GENIUS_GENODEF_13
1002
{
1000
HIER
1070
     0
1002
}
1002
{
1000
MANEDIT
1070
     0
1002
}
1002
{
1000
NOSEL
1070
     0
1002
}
1002
{
1000
BEHIND
1070
     0
1002
}
1002
{
1000
OTHER
1070
     0
1002
}
1002
{
1000
REACTOR
1002
}
  0
LINE
  5
C8B9
330
18
100
AcDbEntity
  8
1
100
AcDbLine
 10
1879.732824712479
 20
-519.3795836281155
 30
0.0
 11
1879.732824712479
 21
-518.1795836281154
 31
0.0
  0
ARC
  5
C8BA
330
18
100
AcDbEntity
  8
1
100
AcDbCircle
 10
1879.132824712479
 20
-519.3795836281155
 30
0.0
 40
0.6
100
AcDbArc
 50
270.0
 51
0.0
1001
GENIUS_GENOBJ-N-FIL_13
1002
{
1000
OWNER
1000
GEN
1002
}
1001
GENIUS_GENODEF_13
1002
{
1000
HIER
1070
     0
1002
}
1002
{
1000
MANEDIT
1070
     0
1002
}
1002
{
1000
NOSEL
1070
     0
1002
}
1002
{
1000
BEHIND
1070
     0
1002
}
1002
{
1000
OTHER
1070
     0
1002
}
1002
{
1000
REACTOR
1002
}
  0
LINE
  5
C8BB
330
18
100
AcDbEntity
  8
1
100
AcDbLine
 10
1870.432824712479
 20
-519.3795836281155
 30
0.0
 11
1870.432824712479
 21
-518.1795836281154
 31
0.0
  0
ARC
  5
C8BC
330
18
100
AcDbEntity
  8
1
100
AcDbCircle
 10
1871.032824712479
 20
-519.3795836281155
 30
0.0
 40
0.6
100
AcDbArc
 50
180.0
 51
270.0
1001
GENIUS_GENOBJ-N-FIL_13
1002
{
1000
OWNER
1000
GEN
1002
}
1001
GENIUS_GENODEF_13
1002
{
1000
HIER
1070
     0
1002
}
1002
{
1000
MANEDIT
1070
     0
1002
}
1002
{
1000
NOSEL
1070
     0
1002
}
1002
{
1000
BEHIND
1070
     0
1002
}
1002
{
1000
OTHER
1070
     0
1002
}
1002
{
1000
REACTOR
1002
}
  0
LINE
  5
C8BD
330
18
100
AcDbEntity
  8
1
100
AcDbLine
 10
1879.132824712479
 20
-519.9795836281158
 30
0.0
 11
1871.032824712479
 21
-519.9795836281151
 31
0.0
  0
LINE
  5
C8BE
330
18
100
AcDbEntity
  8
1
100
AcDbLine
 10
1872.632824712479
 20
-518.1795836281154
 30
0.0
 11
1872.632824712479
 21
-519.3795836281155
 31
0.0
  0
ARC
  5
C8BF
330
18
100
AcDbEntity
  8
1
100
AcDbCircle
 10
1872.032824712479
 20
-519.3795836281155
 30
0.0
 40
0.6
100
AcDbArc
 50
270.0
 51
0.0
1001
GENIUS_GENODEF_13
1002
{
1000
HIER
1070
     0
1002
}
1002
{
1000
MANEDIT
1070
     0
1002
}
1002
{
1000
NOSEL
1070
     0
1002
}
1002
{
1000
BEHIND
1070
     0
1002
}
1002
{
1000
OTHER
1070
     0
1002
}
1002
{
1000
REACTOR
1002
}
1001
GENIUS_GENOBJ-N-FIL_13
1002
{
1000
OWNER
1000
GEN
1002
}
  0
LINE
  5
C8C0
330
18
100
AcDbEntity
  8
1
100
AcDbLine
 10
1877.532824712479
 20
-519.3795836281155
 30
0.0
 11
1877.532824712478
 21
-518.1795836281154
 31
0.0
  0
ARC
  5
C8C1
330
18
100
AcDbEntity
  8
1
100
AcDbCircle
 10
1878.132824712478
 20
-519.3795836281155
 30
0.0
 40
0.6
100
AcDbArc
 50
180.0
 51
270.0
1001
GENIUS_GENODEF_13
1002
{
1000
HIER
1070
     0
1002
}
1002
{
1000
MANEDIT
1070
     0
1002
}
1002
{
1000
NOSEL
1070
     0
1002
}
1002
{
1000
BEHIND
1070
     0
1002
}
1002
{
1000
OTHER
1070
     0
1002
}
1002
{
1000
REACTOR
1002
}
1001
GENIUS_GENOBJ-N-FIL_13
1002
{
1000
OWNER
1000
GEN
1002
}
  0
LINE
  5
C8C2
330
18
100
AcDbEntity
  8
1
100
AcDbLine
 10
1869.632824712478
 20
-519.9795836281158
 30
0.0
 11
1861.532824712479
 21
-519.9795836281151
 31
0.0
  0
LINE
  5
C8C3
330
18
100
AcDbEntity
  8
1
100
AcDbLine
 10
1860.732824712479
 20
-519.3795836281158
 30
0.0
 11
1860.732824712479
 21
-518.1795836281154
 31
0.0
  0
LINE
  5
C8C4
330
18
100
AcDbEntity
  8
1
100
AcDbLine
 10
1860.132824712479
 20
-519.9795836281158
 30
0.0
 11
1851.436277319421
 21
-519.9795836281151
 31
0.0
  0
ARC
  5
C8C5
330
18
100
AcDbEntity
  8
1
100
AcDbCircle
 10
1860.132824712479
 20
-519.3795836281158
 30
0.0
 40
0.6
100
AcDbArc
 50
270.0
 51
0.0
1001
GENIUS_GENOBJ-N-FIL_13
1002
{
1000
OWNER
1000
GEN
1002
}
1001
GENIUS_GENODEF_13
1002
{
1000
HIER
1070
     0
1002
}
1002
{
1000
MANEDIT
1070
     0
1002
}
1002
{
1000
NOSEL
1070
     0
1002
}
1002
{
1000
BEHIND
1070
     0
1002
}
1002
{
1000
OTHER
1070
     0
1002
}
1002
{
1000
REACTOR
1002
}
  0
LINE
  5
C8C6
330
18
100
AcDbEntity
  8
1
100
AcDbLine
 10
1854.232824712479
 20
-519.9795836281151
 30
0.0
 11
1854.232824712479
 21
-518.1795836281154
 31
0.0
  0
LINE
  5
C8C7
330
18
100
AcDbEntity
  8
1
100
AcDbLine
 10
2012.700449710793
 20
-458.3405228821465
 30
0.0
 11
2015.481906369049
 21
-456.9839158262314
 31
0.0
  0
ARC
  5
C8C8
330
18
100
AcDbEntity
  8
1
100
AcDbCircle
 10
2015.218883680976
 20
-456.4446393984518
 30
0.0
 40
0.6
100
AcDbArc
 50
295.9999999999944
 51
0.0
1001
GENIUS_GENOBJ-N-FIL_13
1002
{
1000
OWNER
1000
GEN
1002
}
1001
GENIUS_GENODEF_13
1002
{
1000
HIER
1070
     0
1002
}
1002
{
1000
MANEDIT
1070
     0
1002
}
1002
{
1000
NOSEL
1070
     0
1002
}
1002
{
1000
BEHIND
1070
     0
1002
}
1002
{
1000
OTHER
1070
     0
1002
}
1002
{
1000
REACTOR
1002
}
  0
ARC
  5
C8C9
330
18
100
AcDbEntity
  8
1
100
AcDbCircle
 10
2010.968883680976
 20
-439.790286399265
 30
0.0
 40
3.950000000000026
100
AcDbArc
 50
64.00000000000556
 51
180.0
  0
LINE
  5
C8CA
330
18
100
AcDbEntity
  8
1
100
AcDbLine
 10
2012.700449710793
 20
-436.2400499163832
 30
0.0
 11
2015.481906369049
 21
-437.5966569722985
 31
0.0
  0
ARC
  5
C8CB
330
18
100
AcDbEntity
  8
1
100
AcDbCircle
 10
2023.318883680976
 20
-447.2902863992651
 30
0.0
 40
9.3
100
AcDbArc
 50
144.903198772429
 51
215.0968012275709
  0
ARC
  5
C8D3
330
18
100
AcDbEntity
  8
1
100
AcDbCircle
 10
1814.756707940391
 20
-595.9644796928175
 30
0.0
 40
84.37473105020623
100
AcDbArc
 50
64.2323811405409
 51
83.41481625151443
  0
LINE
  5
C8D5
330
18
100
AcDbEntity
  8
1
100
AcDbLine
 10
1943.332824712478
 20
-526.9795836281153
 30
0.0
 11
1943.332824712479
 21
-519.9795836281151
 31
0.0
  0
LINE
  5
C8D7
330
18
100
AcDbEntity
  8
1
100
AcDbLine
 10
1938.632824712479
 20
-526.9795836281153
 30
0.0
 11
1938.632824712479
 21
-519.9795836281151
 31
0.0
  0
LINE
  5
C8D8
330
18
100
AcDbEntity
  8
1
100
AcDbLine
 10
1892.532824712479
 20
-526.9795836281153
 30
0.0
 11
1897.232823858631
 21
-526.9798758334125
 31
0.0
  0
LINE
  5
C8DA
330
18
100
AcDbEntity
  8
1
100
AcDbLine
 10
1892.532824712479
 20
-526.9795836281153
 30
0.0
 11
1892.507110426764
 21
-518.1795836281154
 31
0.0
  0
LINE
  5
C8DC
330
18
100
AcDbEntity
  8
1
100
AcDbLine
 10
1897.232824712478
 20
-526.9795836281153
 30
0.0
 11
1897.258538998193
 21
-518.1795836281154
 31
0.0
  0
ARC
  5
C8DD
330
18
100
AcDbEntity
  8
1
100
AcDbCircle
 10
1983.432824712479
 20
-512.3295836281154
 30
0.0
 40
1.149999999999999
100
AcDbArc
 50
29.59184579396371
 51
90.0
  0
LINE
  5
CA22
330
18
100
AcDbEntity
  8
3
  6
CENTER2
 48
0.5
100
AcDbLine
 10
1985.833047430446
 20
-469.7902863992649
 30
0.0
 11
1823.032601994512
 21
-469.7902863992649
 31
0.0
  0
ARC
  5
CA23
330
18
100
AcDbEntity
  8
1
100
AcDbCircle
 10
1983.832824712479
 20
-473.1402863992649
 30
0.0
 40
0.5999999999999091
100
AcDbArc
 50
270.0
 51
0.0
  0
LINE
  5
CA24
330
18
100
AcDbEntity
  8
1
100
AcDbLine
 10
1983.832824712479
 20
-473.7402863992648
 30
0.0
 11
1975.632824712478
 21
-473.7402863992648
 31
0.0
  0
ARC
  5
CA25
330
18
100
AcDbEntity
  8
1
100
AcDbCircle
 10
1975.632824712478
 20
-473.2402863992644
 30
0.0
 40
0.5
100
AcDbArc
 50
180.0
 51
270.0
  0
LINE
  5
CA26
330
18
100
AcDbEntity
  8
1
100
AcDbLine
 10
1975.132824712478
 20
-473.2402863992644
 30
0.0
 11
1975.132824712478
 21
-468.0264970685506
 31
0.0
  0
ARC
  5
CA27
330
18
100
AcDbEntity
  8
1
100
AcDbCircle
 10
1974.532824712479
 20
-468.0264970685506
 30
0.0
 40
0.6
100
AcDbArc
 50
0.0
 51
90.0
1001
GENIUS_GENOBJ-N-FIL_13
1002
{
1000
OWNER
1000
GEN
1002
}
1001
GENIUS_GENODEF_13
1002
{
1000
HIER
1070
     0
1002
}
1002
{
1000
MANEDIT
1070
     0
1002
}
1002
{
1000
NOSEL
1070
     0
1002
}
1002
{
1000
BEHIND
1070
     0
1002
}
1002
{
1000
OTHER
1070
     0
1002
}
1002
{
1000
REACTOR
1002
}
  0
LINE
  5
CA28
330
18
100
AcDbEntity
  8
1
100
AcDbLine
 10
1974.532824712479
 20
-467.4264970685507
 30
0.0
 11
1966.032824712479
 21
-467.4264970685506
 31
0.0
  0
ARC
  5
CA29
330
18
100
AcDbEntity
  8
1
100
AcDbCircle
 10
1966.032824712479
 20
-468.0264970685506
 30
0.0
 40
0.6
100
AcDbArc
 50
90.0
 51
180.0
1001
GENIUS_GENOBJ-N-FIL_13
1002
{
1000
OWNER
1000
GEN
1002
}
1001
GENIUS_GENODEF_13
1002
{
1000
HIER
1070
     0
1002
}
1002
{
1000
MANEDIT
1070
     0
1002
}
1002
{
1000
NOSEL
1070
     0
1002
}
1002
{
1000
BEHIND
1070
     0
1002
}
1002
{
1000
OTHER
1070
     0
1002
}
1002
{
1000
REACTOR
1002
}
  0
LINE
  5
CA2A
330
18
100
AcDbEntity
  8
1
100
AcDbLine
 10
1965.432824712479
 20
-468.0264970685506
 30
0.0
 11
1965.432824712479
 21
-473.2402863992649
 31
0.0
  0
ARC
  5
CA2B
330
18
100
AcDbEntity
  8
1
100
AcDbCircle
 10
1964.932824712479
 20
-473.2402863992649
 30
0.0
 40
0.5
100
AcDbArc
 50
270.0
 51
0.0
  0
LINE
  5
CA2C
330
18
100
AcDbEntity
  8
1
100
AcDbLine
 10
1964.932824712479
 20
-473.7402863992649
 30
0.0
 11
1956.632824712478
 21
-473.7402863992648
 31
0.0
  0
ARC
  5
CA2D
330
18
100
AcDbEntity
  8
1
100
AcDbCircle
 10
1956.632824712478
 20
-473.2402863992644
 30
0.0
 40
0.5
100
AcDbArc
 50
180.0
 51
270.0
  0
LINE
  5
CA2E
330
18
100
AcDbEntity
  8
1
100
AcDbLine
 10
1956.132824712479
 20
-473.2402863992644
 30
0.0
 11
1956.132824712479
 21
-468.0264970685505
 31
0.0
  0
LINE
  5
CA2F
330
18
100
AcDbEntity
  8
1
100
AcDbLine
 10
1955.532824712478
 20
-467.4264970685505
 30
0.0
 11
1945.932824712478
 21
-467.4264970685505
 31
0.0
  0
ARC
  5
CA30
330
18
100
AcDbEntity
  8
1
100
AcDbCircle
 10
1955.532824712478
 20
-468.0264970685505
 30
0.0
 40
0.6
100
AcDbArc
 50
0.0
 51
90.0
1001
GENIUS_GENODEF_13
1002
{
1000
HIER
1070
     0
1002
}
1002
{
1000
MANEDIT
1070
     0
1002
}
1002
{
1000
NOSEL
1070
     0
1002
}
1002
{
1000
BEHIND
1070
     0
1002
}
1002
{
1000
OTHER
1070
     0
1002
}
1002
{
1000
REACTOR
1002
}
1001
GENIUS_GENOBJ-N-FIL_13
1002
{
1000
OWNER
1000
GEN
1002
}
  0
ARC
  5
CA31
330
18
100
AcDbEntity
  8
1
100
AcDbCircle
 10
1945.932824712478
 20
-468.0264970685505
 30
0.0
 40
0.6
100
AcDbArc
 50
90.0
 51
180.0
1001
GENIUS_GENODEF_13
1002
{
1000
HIER
1070
     0
1002
}
1002
{
1000
MANEDIT
1070
     0
1002
}
1002
{
1000
NOSEL
1070
     0
1002
}
1002
{
1000
BEHIND
1070
     0
1002
}
1002
{
1000
OTHER
1070
     0
1002
}
1002
{
1000
REACTOR
1002
}
1001
GENIUS_GENOBJ-N-FIL_13
1002
{
1000
OWNER
1000
GEN
1002
}
  0
LINE
  5
CA32
330
18
100
AcDbEntity
  8
1
100
AcDbLine
 10
1945.332824712479
 20
-468.0264970685505
 30
0.0
 11
1945.332824712479
 21
-473.1402863992649
 31
0.0
  0
ARC
  5
CA33
330
18
100
AcDbEntity
  8
1
100
AcDbCircle
 10
1944.732824712479
 20
-473.1402863992649
 30
0.0
 40
0.5999999999999091
100
AcDbArc
 50
270.0
 51
0.0
  0
LINE
  5
CA34
330
18
100
AcDbEntity
  8
1
100
AcDbLine
 10
1944.732824712479
 20
-473.7402863992648
 30
0.0
 11
1937.132824712479
 21
-473.7402863992648
 31
0.0
  0
ARC
  5
CA35
330
18
100
AcDbEntity
  8
1
100
AcDbCircle
 10
1937.132824712479
 20
-473.1402863992649
 30
0.0
 40
0.5999999999999091
100
AcDbArc
 50
180.0
 51
270.0
  0
LINE
  5
CA36
330
18
100
AcDbEntity
  8
1
100
AcDbLine
 10
1936.532824712479
 20
-473.1402863992649
 30
0.0
 11
1936.532824712479
 21
-468.0264970685503
 31
0.0
  0
ARC
  5
CA37
330
18
100
AcDbEntity
  8
1
100
AcDbCircle
 10
1935.932824712479
 20
-468.0264970685503
 30
0.0
 40
0.6
100
AcDbArc
 50
0.0
 51
90.0
1001
GENIUS_GENOBJ-N-FIL_13
1002
{
1000
OWNER
1000
GEN
1002
}
1001
GENIUS_GENODEF_13
1002
{
1000
HIER
1070
     0
1002
}
1002
{
1000
MANEDIT
1070
     0
1002
}
1002
{
1000
NOSEL
1070
     0
1002
}
1002
{
1000
BEHIND
1070
     0
1002
}
1002
{
1000
OTHER
1070
     0
1002
}
1002
{
1000
REACTOR
1002
}
  0
LINE
  5
CA38
330
18
100
AcDbEntity
  8
1
100
AcDbLine
 10
1935.932824712479
 20
-467.4264970685505
 30
0.0
 11
1927.932824712479
 21
-467.4264970685505
 31
0.0
  0
ARC
  5
CA39
330
18
100
AcDbEntity
  8
1
100
AcDbCircle
 10
1927.932824712479
 20
-468.0264970685505
 30
0.0
 40
0.6
100
AcDbArc
 50
90.0
 51
180.0
1001
GENIUS_GENODEF_13
1002
{
1000
HIER
1070
     0
1002
}
1002
{
1000
MANEDIT
1070
     0
1002
}
1002
{
1000
NOSEL
1070
     0
1002
}
1002
{
1000
BEHIND
1070
     0
1002
}
1002
{
1000
OTHER
1070
     0
1002
}
1002
{
1000
REACTOR
1002
}
1001
GENIUS_GENOBJ-N-FIL_13
1002
{
1000
OWNER
1000
GEN
1002
}
  0
LINE
  5
CA3A
330
18
100
AcDbEntity
  8
1
100
AcDbLine
 10
1927.332824712479
 20
-468.0264970685505
 30
0.0
 11
1927.332824712479
 21
-473.2402863992649
 31
0.0
  0
ARC
  5
CA3B
330
18
100
AcDbEntity
  8
1
100
AcDbCircle
 10
1926.832824712479
 20
-473.2402863992649
 30
0.0
 40
0.5
100
AcDbArc
 50
270.0
 51
0.0
  0
LINE
  5
CA3C
330
18
100
AcDbEntity
  8
1
100
AcDbLine
 10
1926.832824712479
 20
-473.7402863992649
 30
0.0
 11
1918.532824712479
 21
-473.7402863992648
 31
0.0
  0
ARC
  5
CA3D
330
18
100
AcDbEntity
  8
1
100
AcDbCircle
 10
1918.532824712479
 20
-473.2402863992644
 30
0.0
 40
0.5
100
AcDbArc
 50
180.0
 51
270.0
  0
LINE
  5
CA3E
330
18
100
AcDbEntity
  8
1
100
AcDbLine
 10
1918.032824712479
 20
-473.2402863992644
 30
0.0
 11
1918.032824712479
 21
-468.0264970685503
 31
0.0
  0
ARC
  5
CA3F
330
18
100
AcDbEntity
  8
1
100
AcDbCircle
 10
1917.432824712479
 20
-468.0264970685503
 30
0.0
 40
0.6
100
AcDbArc
 50
0.0
 51
90.0
1001
GENIUS_GENODEF_13
1002
{
1000
HIER
1070
     0
1002
}
1002
{
1000
MANEDIT
1070
     0
1002
}
1002
{
1000
NOSEL
1070
     0
1002
}
1002
{
1000
BEHIND
1070
     0
1002
}
1002
{
1000
OTHER
1070
     0
1002
}
1002
{
1000
REACTOR
1002
}
1001
GENIUS_GENOBJ-N-FIL_13
1002
{
1000
OWNER
1000
GEN
1002
}
  0
LINE
  5
CA40
330
18
100
AcDbEntity
  8
1
100
AcDbLine
 10
1917.432824712479
 20
-467.4264970685505
 30
0.0
 11
1908.932824712479
 21
-467.4264970685506
 31
0.0
  0
ARC
  5
CA41
330
18
100
AcDbEntity
  8
1
100
AcDbCircle
 10
1908.932824712479
 20
-468.0264970685506
 30
0.0
 40
0.6
100
AcDbArc
 50
90.0
 51
180.0
1001
GENIUS_GENODEF_13
1002
{
1000
HIER
1070
     0
1002
}
1002
{
1000
MANEDIT
1070
     0
1002
}
1002
{
1000
NOSEL
1070
     0
1002
}
1002
{
1000
BEHIND
1070
     0
1002
}
1002
{
1000
OTHER
1070
     0
1002
}
1002
{
1000
REACTOR
1002
}
1001
GENIUS_GENOBJ-N-FIL_13
1002
{
1000
OWNER
1000
GEN
1002
}
  0
LINE
  5
CA42
330
18
100
AcDbEntity
  8
1
100
AcDbLine
 10
1908.332824712479
 20
-468.0264970685506
 30
0.0
 11
1908.332824712479
 21
-473.2402863992644
 31
0.0
  0
ARC
  5
CA43
330
18
100
AcDbEntity
  8
1
100
AcDbCircle
 10
1907.832824712479
 20
-473.2402863992644
 30
0.0
 40
0.5
100
AcDbArc
 50
270.0
 51
0.0
  0
LINE
  5
CA44
330
18
100
AcDbEntity
  8
1
100
AcDbLine
 10
1907.832824712479
 20
-473.7402863992648
 30
0.0
 11
1900.132824712478
 21
-473.7402863992648
 31
0.0
  0
ARC
  5
CA45
330
18
100
AcDbEntity
  8
1
100
AcDbCircle
 10
1900.132824712478
 20
-473.2402863992644
 30
0.0
 40
0.5
100
AcDbArc
 50
180.0
 51
270.0
  0
LINE
  5
CA46
330
18
100
AcDbEntity
  8
1
100
AcDbLine
 10
1899.632824712479
 20
-473.2402863992644
 30
0.0
 11
1899.632824712479
 21
-468.0264970685503
 31
0.0
  0
ARC
  5
CA47
330
18
100
AcDbEntity
  8
1
100
AcDbCircle
 10
1899.032824712478
 20
-468.0264970685503
 30
0.0
 40
0.6
100
AcDbArc
 50
0.0
 51
90.0
1001
GENIUS_GENODEF_13
1002
{
1000
HIER
1070
     0
1002
}
1002
{
1000
MANEDIT
1070
     0
1002
}
1002
{
1000
NOSEL
1070
     0
1002
}
1002
{
1000
BEHIND
1070
     0
1002
}
1002
{
1000
OTHER
1070
     0
1002
}
1002
{
1000
REACTOR
1002
}
1001
GENIUS_GENOBJ-N-FIL_13
1002
{
1000
OWNER
1000
GEN
1002
}
  0
LINE
  5
CA48
330
18
100
AcDbEntity
  8
1
100
AcDbLine
 10
1899.032824712478
 20
-467.4264970685503
 30
0.0
 11
1890.932824712479
 21
-467.4264970685503
 31
0.0
  0
ARC
  5
CA49
330
18
100
AcDbEntity
  8
1
100
AcDbCircle
 10
1890.932824712479
 20
-468.0264970685503
 30
0.0
 40
0.6
100
AcDbArc
 50
90.0
 51
180.0
1001
GENIUS_GENOBJ-N-FIL_13
1002
{
1000
OWNER
1000
GEN
1002
}
1001
GENIUS_GENODEF_13
1002
{
1000
HIER
1070
     0
1002
}
1002
{
1000
MANEDIT
1070
     0
1002
}
1002
{
1000
NOSEL
1070
     0
1002
}
1002
{
1000
BEHIND
1070
     0
1002
}
1002
{
1000
OTHER
1070
     0
1002
}
1002
{
1000
REACTOR
1002
}
  0
LINE
  5
CA4A
330
18
100
AcDbEntity
  8
1
100
AcDbLine
 10
1890.332824712479
 20
-468.0264970685503
 30
0.0
 11
1890.332824712478
 21
-473.2402863992644
 31
0.0
  0
ARC
  5
CA4B
330
18
100
AcDbEntity
  8
1
100
AcDbCircle
 10
1889.832824712478
 20
-473.2402863992644
 30
0.0
 40
0.5
100
AcDbArc
 50
270.0
 51
0.0
  0
LINE
  5
CA4C
330
18
100
AcDbEntity
  8
1
100
AcDbLine
 10
1889.832824712478
 20
-473.7402863992643
 30
0.0
 11
1880.532824712478
 21
-473.7402863992648
 31
0.0
  0
ARC
  5
CA4D
330
18
100
AcDbEntity
  8
1
100
AcDbCircle
 10
1880.532824712478
 20
-473.1402863992649
 30
0.0
 40
0.5999999999999091
100
AcDbArc
 50
179.999999999987
 51
270.0
  0
LINE
  5
CA4E
330
18
100
AcDbEntity
  8
1
100
AcDbLine
 10
1824.928635805879
 20
-452.9736978229886
 30
0.0
 11
1828.031965496205
 21
-452.4264970685504
 31
0.0
  0
ARC
  5
CA4F
330
18
100
AcDbEntity
  8
1
100
AcDbCircle
 10
1825.032824712479
 20
-453.5645824747958
 30
0.0
 40
0.6
100
AcDbArc
 50
100.0000000000049
 51
180.0
1001
GENIUS_GENOBJ-N-FIL_13
1002
{
1000
OWNER
1000
GEN
1002
}
1001
GENIUS_GENODEF_13
1002
{
1000
HIER
1070
     0
1002
}
1002
{
1000
MANEDIT
1070
     0
1002
}
1002
{
1000
NOSEL
1070
     0
1002
}
1002
{
1000
BEHIND
1070
     0
1002
}
1002
{
1000
OTHER
1070
     0
1002
}
1002
{
1000
REACTOR
1002
}
  0
LINE
  5
CA53
330
18
100
AcDbEntity
  8
1
100
AcDbLine
 10
1860.732824712479
 20
-452.5792834730498
 30
0.0
 11
1860.732824712479
 21
-456.5540757299786
 31
0.0
  0
ARC
  5
CA54
330
18
100
AcDbEntity
  8
1
100
AcDbCircle
 10
1861.332824712479
 20
-456.5540757299786
 30
0.0
 40
0.6
100
AcDbArc
 50
180.0
 51
270.0
1001
GENIUS_GENOBJ-N-FIL_13
1002
{
1000
OWNER
1000
GEN
1002
}
1001
GENIUS_GENODEF_13
1002
{
1000
HIER
1070
     0
1002
}
1002
{
1000
MANEDIT
1070
     0
1002
}
1002
{
1000
NOSEL
1070
     0
1002
}
1002
{
1000
BEHIND
1070
     0
1002
}
1002
{
1000
OTHER
1070
     0
1002
}
1002
{
1000
REACTOR
1002
}
  0
LINE
  5
CA55
330
18
100
AcDbEntity
  8
1
100
AcDbLine
 10
1861.332824712479
 20
-457.1540757299787
 30
0.0
 11
1869.832824712479
 21
-457.1540757299787
 31
0.0
  0
ARC
  5
CA56
330
18
100
AcDbEntity
  8
1
100
AcDbCircle
 10
1869.832824712479
 20
-456.5540757299786
 30
0.0
 40
0.6
100
AcDbArc
 50
270.0
 51
0.0
1001
GENIUS_GENODEF_13
1002
{
1000
HIER
1070
     0
1002
}
1002
{
1000
MANEDIT
1070
     0
1002
}
1002
{
1000
NOSEL
1070
     0
1002
}
1002
{
1000
BEHIND
1070
     0
1002
}
1002
{
1000
OTHER
1070
     0
1002
}
1002
{
1000
REACTOR
1002
}
1001
GENIUS_GENOBJ-N-FIL_13
1002
{
1000
OWNER
1000
GEN
1002
}
  0
LINE
  5
CA57
330
18
100
AcDbEntity
  8
1
100
AcDbLine
 10
1870.432824712479
 20
-456.5540757299786
 30
0.0
 11
1870.432824712479
 21
-452.5792834730506
 31
0.0
  0
LINE
  5
CA5B
330
18
100
AcDbEntity
  8
1
100
AcDbLine
 10
1879.732824712479
 20
-452.579283473051
 30
0.0
 11
1879.732824712479
 21
-456.5540757299792
 31
0.0
  0
ARC
  5
CA5C
330
18
100
AcDbEntity
  8
1
100
AcDbCircle
 10
1880.332824712479
 20
-456.5540757299792
 30
0.0
 40
0.6
100
AcDbArc
 50
180.0
 51
270.0
1001
GENIUS_GENODEF_13
1002
{
1000
HIER
1070
     0
1002
}
1002
{
1000
MANEDIT
1070
     0
1002
}
1002
{
1000
NOSEL
1070
     0
1002
}
1002
{
1000
BEHIND
1070
     0
1002
}
1002
{
1000
OTHER
1070
     0
1002
}
1002
{
1000
REACTOR
1002
}
1001
GENIUS_GENOBJ-N-FIL_13
1002
{
1000
OWNER
1000
GEN
1002
}
  0
LINE
  5
CA5D
330
18
100
AcDbEntity
  8
1
100
AcDbLine
 10
1880.332824712479
 20
-457.1540757299792
 30
0.0
 11
1889.932824712479
 21
-457.1540757299793
 31
0.0
  0
LINE
  5
CA5E
330
18
100
AcDbEntity
  8
1
100
AcDbLine
 10
1890.532824712479
 20
-456.5540757299793
 30
0.0
 11
1890.532824712479
 21
-452.5792834730498
 31
0.0
  0
ARC
  5
CA5F
330
18
100
AcDbEntity
  8
1
100
AcDbCircle
 10
1889.932824712479
 20
-456.5540757299793
 30
0.0
 40
0.6
100
AcDbArc
 50
270.0
 51
0.0
1001
GENIUS_GENODEF_13
1002
{
1000
HIER
1070
     0
1002
}
1002
{
1000
MANEDIT
1070
     0
1002
}
1002
{
1000
NOSEL
1070
     0
1002
}
1002
{
1000
BEHIND
1070
     0
1002
}
1002
{
1000
OTHER
1070
     0
1002
}
1002
{
1000
REACTOR
1002
}
1001
GENIUS_GENOBJ-N-FIL_13
1002
{
1000
OWNER
1000
GEN
1002
}
  0
LINE
  5
CA63
330
18
100
AcDbEntity
  8
1
100
AcDbLine
 10
1899.432824712478
 20
-452.5792834730508
 30
0.0
 11
1899.432824712478
 21
-456.5540757299792
 31
0.0
  0
ARC
  5
CA64
330
18
100
AcDbEntity
  8
1
100
AcDbCircle
 10
1900.032824712478
 20
-456.5540757299792
 30
0.0
 40
0.6
100
AcDbArc
 50
180.0
 51
270.0
1001
GENIUS_GENOBJ-N-FIL_13
1002
{
1000
OWNER
1000
GEN
1002
}
1001
GENIUS_GENODEF_13
1002
{
1000
HIER
1070
     0
1002
}
1002
{
1000
MANEDIT
1070
     0
1002
}
1002
{
1000
NOSEL
1070
     0
1002
}
1002
{
1000
BEHIND
1070
     0
1002
}
1002
{
1000
OTHER
1070
     0
1002
}
1002
{
1000
REACTOR
1002
}
  0
LINE
  5
CA65
330
18
100
AcDbEntity
  8
1
100
AcDbLine
 10
1900.032824712478
 20
-457.1540757299792
 30
0.0
 11
1907.932824712479
 21
-457.1540757299793
 31
0.0
  0
ARC
  5
CA66
330
18
100
AcDbEntity
  8
1
100
AcDbCircle
 10
1907.932824712479
 20
-456.5540757299793
 30
0.0
 40
0.6
100
AcDbArc
 50
270.0
 51
0.0
1001
GENIUS_GENODEF_13
1002
{
1000
HIER
1070
     0
1002
}
1002
{
1000
MANEDIT
1070
     0
1002
}
1002
{
1000
NOSEL
1070
     0
1002
}
1002
{
1000
BEHIND
1070
     0
1002
}
1002
{
1000
OTHER
1070
     0
1002
}
1002
{
1000
REACTOR
1002
}
1001
GENIUS_GENOBJ-N-FIL_13
1002
{
1000
OWNER
1000
GEN
1002
}
  0
LINE
  5
CA67
330
18
100
AcDbEntity
  8
1
100
AcDbLine
 10
1908.532824712479
 20
-456.5540757299793
 30
0.0
 11
1908.532824712479
 21
-452.5792834730504
 31
0.0
  0
LINE
  5
CA6B
330
18
100
AcDbEntity
  8
1
100
AcDbLine
 10
1917.832824712479
 20
-452.5792834730506
 30
0.0
 11
1917.832824712479
 21
-456.5540757299792
 31
0.0
  0
ARC
  5
CA6C
330
18
100
AcDbEntity
  8
1
100
AcDbCircle
 10
1918.432824712479
 20
-456.5540757299792
 30
0.0
 40
0.6
100
AcDbArc
 50
180.0
 51
270.0
1001
GENIUS_GENOBJ-N-FIL_13
1002
{
1000
OWNER
1000
GEN
1002
}
1001
GENIUS_GENODEF_13
1002
{
1000
HIER
1070
     0
1002
}
1002
{
1000
MANEDIT
1070
     0
1002
}
1002
{
1000
NOSEL
1070
     0
1002
}
1002
{
1000
BEHIND
1070
     0
1002
}
1002
{
1000
OTHER
1070
     0
1002
}
1002
{
1000
REACTOR
1002
}
  0
LINE
  5
CA6D
330
18
100
AcDbEntity
  8
1
100
AcDbLine
 10
1918.432824712479
 20
-457.1540757299792
 30
0.0
 11
1926.932824712479
 21
-457.1540757299793
 31
0.0
  0
ARC
  5
CA6E
330
18
100
AcDbEntity
  8
1
100
AcDbCircle
 10
1926.932824712479
 20
-456.5540757299793
 30
0.0
 40
0.6
100
AcDbArc
 50
270.0
 51
0.0
1001
GENIUS_GENOBJ-N-FIL_13
1002
{
1000
OWNER
1000
GEN
1002
}
1001
GENIUS_GENODEF_13
1002
{
1000
HIER
1070
     0
1002
}
1002
{
1000
MANEDIT
1070
     0
1002
}
1002
{
1000
NOSEL
1070
     0
1002
}
1002
{
1000
BEHIND
1070
     0
1002
}
1002
{
1000
OTHER
1070
     0
1002
}
1002
{
1000
REACTOR
1002
}
  0
LINE
  5
CA6F
330
18
100
AcDbEntity
  8
1
100
AcDbLine
 10
1927.532824712479
 20
-456.5540757299793
 30
0.0
 11
1927.532824712479
 21
-452.5792834730501
 31
0.0
  0
LINE
  5
CA73
330
18
100
AcDbEntity
  8
1
100
AcDbLine
 10
1936.332824712479
 20
-452.5792834730508
 30
0.0
 11
1936.332824712479
 21
-456.5540757299792
 31
0.0
  0
ARC
  5
CA74
330
18
100
AcDbEntity
  8
1
100
AcDbCircle
 10
1936.932824712479
 20
-456.5540757299792
 30
0.0
 40
0.6
100
AcDbArc
 50
180.0
 51
270.0
1001
GENIUS_GENODEF_13
1002
{
1000
HIER
1070
     0
1002
}
1002
{
1000
MANEDIT
1070
     0
1002
}
1002
{
1000
NOSEL
1070
     0
1002
}
1002
{
1000
BEHIND
1070
     0
1002
}
1002
{
1000
OTHER
1070
     0
1002
}
1002
{
1000
REACTOR
1002
}
1001
GENIUS_GENOBJ-N-FIL_13
1002
{
1000
OWNER
1000
GEN
1002
}
  0
LINE
  5
CA75
330
18
100
AcDbEntity
  8
1
100
AcDbLine
 10
1936.932824712479
 20
-457.1540757299792
 30
0.0
 11
1944.932824712479
 21
-457.1540757299793
 31
0.0
  0
LINE
  5
CA76
330
18
100
AcDbEntity
  8
1
100
AcDbLine
 10
1945.532824712479
 20
-456.5540757299793
 30
0.0
 11
1945.532824712478
 21
-452.5792834730508
 31
0.0
  0
ARC
  5
CA77
330
18
100
AcDbEntity
  8
1
100
AcDbCircle
 10
1944.932824712479
 20
-456.5540757299793
 30
0.0
 40
0.6
100
AcDbArc
 50
270.0
 51
0.0
1001
GENIUS_GENOBJ-N-FIL_13
1002
{
1000
OWNER
1000
GEN
1002
}
1001
GENIUS_GENODEF_13
1002
{
1000
HIER
1070
     0
1002
}
1002
{
1000
MANEDIT
1070
     0
1002
}
1002
{
1000
NOSEL
1070
     0
1002
}
1002
{
1000
BEHIND
1070
     0
1002
}
1002
{
1000
OTHER
1070
     0
1002
}
1002
{
1000
REACTOR
1002
}
  0
LINE
  5
CA7B
330
18
100
AcDbEntity
  8
1
100
AcDbLine
 10
1955.932824712478
 20
-452.5792834730508
 30
0.0
 11
1955.932824712479
 21
-456.5540757299793
 31
0.0
  0
ARC
  5
CA7C
330
18
100
AcDbEntity
  8
1
100
AcDbCircle
 10
1956.532824712479
 20
-456.5540757299793
 30
0.0
 40
0.6
100
AcDbArc
 50
180.0
 51
270.0
1001
GENIUS_GENOBJ-N-FIL_13
1002
{
1000
OWNER
1000
GEN
1002
}
1001
GENIUS_GENODEF_13
1002
{
1000
HIER
1070
     0
1002
}
1002
{
1000
MANEDIT
1070
     0
1002
}
1002
{
1000
NOSEL
1070
     0
1002
}
1002
{
1000
BEHIND
1070
     0
1002
}
1002
{
1000
OTHER
1070
     0
1002
}
1002
{
1000
REACTOR
1002
}
  0
LINE
  5
CA7D
330
18
100
AcDbEntity
  8
1
100
AcDbLine
 10
1956.532824712479
 20
-457.1540757299793
 30
0.0
 11
1965.032824712479
 21
-457.1540757299793
 31
0.0
  0
ARC
  5
CA7E
330
18
100
AcDbEntity
  8
1
100
AcDbCircle
 10
1965.032824712479
 20
-456.5540757299793
 30
0.0
 40
0.6
100
AcDbArc
 50
270.0
 51
0.0
1001
GENIUS_GENOBJ-N-FIL_13
1002
{
1000
OWNER
1000
GEN
1002
}
1001
GENIUS_GENODEF_13
1002
{
1000
HIER
1070
     0
1002
}
1002
{
1000
MANEDIT
1070
     0
1002
}
1002
{
1000
NOSEL
1070
     0
1002
}
1002
{
1000
BEHIND
1070
     0
1002
}
1002
{
1000
OTHER
1070
     0
1002
}
1002
{
1000
REACTOR
1002
}
  0
LINE
  5
CA7F
330
18
100
AcDbEntity
  8
1
100
AcDbLine
 10
1965.632824712479
 20
-456.5540757299793
 30
0.0
 11
1965.632824712478
 21
-452.5792834730514
 31
0.0
  0
LINE
  5
CA83
330
18
100
AcDbEntity
  8
1
100
AcDbLine
 10
1974.932824712479
 20
-452.5792834730504
 30
0.0
 11
1974.932824712479
 21
-456.5540757299793
 31
0.0
  0
ARC
  5
CA84
330
18
100
AcDbEntity
  8
1
100
AcDbCircle
 10
1975.532824712479
 20
-456.5540757299793
 30
0.0
 40
0.6
100
AcDbArc
 50
180.0
 51
270.0
1001
GENIUS_GENODEF_13
1002
{
1000
HIER
1070
     0
1002
}
1002
{
1000
MANEDIT
1070
     0
1002
}
1002
{
1000
NOSEL
1070
     0
1002
}
1002
{
1000
BEHIND
1070
     0
1002
}
1002
{
1000
OTHER
1070
     0
1002
}
1002
{
1000
REACTOR
1002
}
1001
GENIUS_GENOBJ-N-FIL_13
1002
{
1000
OWNER
1000
GEN
1002
}
  0
LINE
  5
CA85
330
18
100
AcDbEntity
  8
1
100
AcDbLine
 10
1975.532824712479
 20
-457.1540757299793
 30
0.0
 11
1983.832824712479
 21
-457.1540757299793
 31
0.0
  0
ARC
  5
CA86
330
18
100
AcDbEntity
  8
1
100
AcDbCircle
 10
1983.832824712479
 20
-457.7540757299793
 30
0.0
 40
0.6
100
AcDbArc
 50
0.0
 51
90.0
1001
GENIUS_GENODEF_13
1002
{
1000
HIER
1070
     0
1002
}
1002
{
1000
MANEDIT
1070
     0
1002
}
1002
{
1000
NOSEL
1070
     0
1002
}
1002
{
1000
BEHIND
1070
     0
1002
}
1002
{
1000
OTHER
1070
     0
1002
}
1002
{
1000
REACTOR
1002
}
1001
GENIUS_GENOBJ-N-FIL_13
1002
{
1000
OWNER
1000
GEN
1002
}
  0
LINE
  5
CA87
330
18
100
AcDbEntity
  8
1
100
AcDbLine
 10
1984.432824712479
 20
-457.7540757299793
 30
0.0
 11
1984.432824712479
 21
-473.1402863992649
 31
0.0
  0
LINE
  5
CA88
330
18
100
AcDbEntity
  8
1
100
AcDbLine
 10
1879.932824712479
 20
-473.1402863992648
 30
0.0
 11
1879.932824712479
 21
-468.0264970685503
 31
0.0
  0
ARC
  5
CA89
330
18
100
AcDbEntity
  8
1
100
AcDbCircle
 10
1879.332824712478
 20
-468.0264970685503
 30
0.0
 40
0.6
100
AcDbArc
 50
0.0
 51
90.0
1001
GENIUS_GENOBJ-N-FIL_13
1002
{
1000
OWNER
1000
GEN
1002
}
1001
GENIUS_GENODEF_13
1002
{
1000
HIER
1070
     0
1002
}
1002
{
1000
MANEDIT
1070
     0
1002
}
1002
{
1000
NOSEL
1070
     0
1002
}
1002
{
1000
BEHIND
1070
     0
1002
}
1002
{
1000
OTHER
1070
     0
1002
}
1002
{
1000
REACTOR
1002
}
  0
LINE
  5
CA8A
330
18
100
AcDbEntity
  8
1
100
AcDbLine
 10
1879.332824712478
 20
-467.4264970685503
 30
0.0
 11
1870.832824712479
 21
-467.4264970685503
 31
0.0
  0
ARC
  5
CA8B
330
18
100
AcDbEntity
  8
1
100
AcDbCircle
 10
1870.832824712479
 20
-468.0264970685501
 30
0.0
 40
0.6
100
AcDbArc
 50
90.0
 51
180.0
1001
GENIUS_GENOBJ-N-FIL_13
1002
{
1000
OWNER
1000
GEN
1002
}
1001
GENIUS_GENODEF_13
1002
{
1000
HIER
1070
     0
1002
}
1002
{
1000
MANEDIT
1070
     0
1002
}
1002
{
1000
NOSEL
1070
     0
1002
}
1002
{
1000
BEHIND
1070
     0
1002
}
1002
{
1000
OTHER
1070
     0
1002
}
1002
{
1000
REACTOR
1002
}
  0
LINE
  5
CA8C
330
18
100
AcDbEntity
  8
1
100
AcDbLine
 10
1870.232824712479
 20
-468.0264970685501
 30
0.0
 11
1870.232824712479
 21
-473.2402863992644
 31
0.0
  0
ARC
  5
CA8D
330
18
100
AcDbEntity
  8
1
100
AcDbCircle
 10
1869.732824712479
 20
-473.2402863992644
 30
0.0
 40
0.5
100
AcDbArc
 50
270.0
 51
0.0
  0
LINE
  5
CA8E
330
18
100
AcDbEntity
  8
1
100
AcDbLine
 10
1869.732824712479
 20
-473.7402863992643
 30
0.0
 11
1861.432824712479
 21
-473.7402863992643
 31
0.0
  0
ARC
  5
CA8F
330
18
100
AcDbEntity
  8
1
100
AcDbCircle
 10
1861.432824712479
 20
-473.2402863992644
 30
0.0
 40
0.5
100
AcDbArc
 50
180.0
 51
270.0
  0
LINE
  5
CA90
330
18
100
AcDbEntity
  8
1
100
AcDbLine
 10
1860.932824712479
 20
-473.2402863992644
 30
0.0
 11
1860.932824712479
 21
-468.0264970685501
 31
0.0
  0
ARC
  5
CA91
330
18
100
AcDbEntity
  8
1
100
AcDbCircle
 10
1860.332824712479
 20
-468.0264970685501
 30
0.0
 40
0.6
100
AcDbArc
 50
0.0
 51
90.0
1001
GENIUS_GENOBJ-N-FIL_13
1002
{
1000
OWNER
1000
GEN
1002
}
1001
GENIUS_GENODEF_13
1002
{
1000
HIER
1070
     0
1002
}
1002
{
1000
MANEDIT
1070
     0
1002
}
1002
{
1000
NOSEL
1070
     0
1002
}
1002
{
1000
BEHIND
1070
     0
1002
}
1002
{
1000
OTHER
1070
     0
1002
}
1002
{
1000
REACTOR
1002
}
  0
LINE
  5
CA92
330
18
100
AcDbEntity
  8
1
100
AcDbLine
 10
1860.332824712479
 20
-467.4264970685503
 30
0.0
 11
1825.032824712479
 21
-467.4264970685505
 31
0.0
  0
LINE
  5
CA93
330
18
100
AcDbEntity
  8
1
100
AcDbLine
 10
1824.432824712479
 20
-466.8264970685505
 30
0.0
 11
1824.432824712479
 21
-453.5645824747958
 31
0.0
  0
ARC
  5
CA94
330
18
100
AcDbEntity
  8
1
100
AcDbCircle
 10
1825.032824712479
 20
-466.8264970685505
 30
0.0
 40
0.6
100
AcDbArc
 50
180.0
 51
270.0
1001
GENIUS_GENODEF_13
1002
{
1000
HIER
1070
     0
1002
}
1002
{
1000
MANEDIT
1070
     0
1002
}
1002
{
1000
NOSEL
1070
     0
1002
}
1002
{
1000
BEHIND
1070
     0
1002
}
1002
{
1000
OTHER
1070
     0
1002
}
1002
{
1000
REACTOR
1002
}
1001
GENIUS_GENOBJ-N-FIL_13
1002
{
1000
OWNER
1000
GEN
1002
}
  0
LINE
  5
CB09
330
18
100
AcDbEntity
  8
1
100
AcDbLine
 10
2015.818883680976
 20
-467.9823861875672
 30
0.0
 11
2015.818883680976
 21
-471.4446393984518
 31
0.0
  0
LINE
  5
CB0A
330
18
100
AcDbEntity
  8
1
100
AcDbLine
 10
2022.818883680976
 20
-465.4384528728071
 30
0.0
 11
2022.818883680976
 21
-467.0024243534238
 31
0.0
  0
ARC
  5
CB0B
330
18
100
AcDbEntity
  8
1
100
AcDbCircle
 10
2022.218883680976
 20
-467.0024243534238
 30
0.0
 40
0.6
100
AcDbArc
 50
300.0000000000004
 51
0.0
1001
GENIUS_GENODEF_13
1002
{
1000
HIER
1070
     0
1002
}
1002
{
1000
MANEDIT
1070
     0
1002
}
1002
{
1000
NOSEL
1070
     0
1002
}
1002
{
1000
BEHIND
1070
     0
1002
}
1002
{
1000
OTHER
1070
     0
1002
}
1002
{
1000
REACTOR
1002
}
1001
GENIUS_GENOBJ-N-FIL_13
1002
{
1000
OWNER
1000
GEN
1002
}
  0
LINE
  5
CB0C
330
18
100
AcDbEntity
  8
3
  6
CENTER2
 62
     6
 48
0.5
100
AcDbLine
 10
2010.968883680976
 20
-449.1583415548429
 30
0.0
 11
2010.968883680976
 21
-475.4222312436866
 31
0.0
  0
ARC
  5
CB0D
330
18
100
AcDbEntity
  8
1
100
AcDbCircle
 10
2010.968883680976
 20
-469.7902863992649
 30
0.0
 40
3.950000000000026
100
AcDbArc
 50
180.0
 51
295.9999999999944
  0
LINE
  5
CB0E
330
18
100
AcDbEntity
  8
1
100
AcDbLine
 10
2009.468883680976
 20
-461.3902863992648
 30
0.0
 11
2013.426967789703
 21
-461.3902863992648
 31
0.0
  0
ARC
  5
CB10
330
18
100
AcDbEntity
  8
1
100
AcDbCircle
 10
2015.218883680975
 20
-456.598186610963
 30
0.0
 40
0.6
100
AcDbArc
 50
324.9031987724292
 51
0.0
1001
GENIUS_GENOBJ-N-FIL_13
1002
{
1000
OWNER
1000
GEN
1002
}
1001
GENIUS_GENODEF_13
1002
{
1000
HIER
1070
     0
1002
}
1002
{
1000
MANEDIT
1070
     0
1002
}
1002
{
1000
NOSEL
1070
     0
1002
}
1002
{
1000
BEHIND
1070
     0
1002
}
1002
{
1000
OTHER
1070
     0
1002
}
1002
{
1000
REACTOR
1002
}
  0
ARC
  5
CB11
330
18
100
AcDbEntity
  8
1
100
AcDbCircle
 10
2015.218883680975
 20
-467.9823861875672
 30
0.0
 40
0.6
100
AcDbArc
 50
0.0
 51
35.09680122757077
1001
GENIUS_GENOBJ-N-FIL_13
1002
{
1000
OWNER
1000
GEN
1002
}
1001
GENIUS_GENODEF_13
1002
{
1000
HIER
1070
     0
1002
}
1002
{
1000
MANEDIT
1070
     0
1002
}
1002
{
1000
NOSEL
1070
     0
1002
}
1002
{
1000
BEHIND
1070
     0
1002
}
1002
{
1000
OTHER
1070
     0
1002
}
1002
{
1000
REACTOR
1002
}
  0
ARC
  5
CB12
330
18
100
AcDbEntity
  8
1
100
AcDbCircle
 10
2014.790261984472
 20
-464.1086030051148
 30
0.0
 40
0.6
100
AcDbArc
 50
191.3912512370994
 51
269.0000000000243
1001
GENIUS_GENOBJ-N-FIL_13
1002
{
1000
OWNER
1000
GEN
1002
}
1001
GENIUS_GENODEF_13
1002
{
1000
HIER
1070
     0
1002
}
1002
{
1000
MANEDIT
1070
     0
1002
}
1002
{
1000
NOSEL
1070
     0
1002
}
1002
{
1000
BEHIND
1070
     0
1002
}
1002
{
1000
OTHER
1070
     0
1002
}
1002
{
1000
REACTOR
1002
}
  0
LINE
  5
CB13
330
18
100
AcDbEntity
  8
1
100
AcDbLine
 10
2015.818883680976
 20
-453.135933400078
 30
0.0
 11
2015.818883680976
 21
-456.598186610963
 31
0.0
  0
LINE
  5
CB15
330
18
100
AcDbEntity
  8
3
  6
CENTER2
 48
0.3
100
AcDbLine
 10
2005.600418996805
 20
-454.7902863992649
 30
0.0
 11
2016.337348365146
 21
-454.7902863992649
 31
0.0
  0
LINE
  5
CB16
330
18
100
AcDbEntity
  8
1
100
AcDbLine
 10
2012.468883680976
 20
-461.3902863992648
 30
0.0
 11
2012.468883680976
 21
-468.0773370440853
 31
0.0
  0
ARC
  5
CB17
330
18
100
AcDbEntity
  8
1
100
AcDbCircle
 10
2013.426967789703
 20
-461.9902863992646
 30
0.0
 40
0.5999999999999999
100
AcDbArc
 50
357.6843886838849
 51
90.0
  0
ARC
  5
CB18
330
18
100
AcDbEntity
  8
1
100
AcDbCircle
 10
2010.968883680976
 20
-454.7902863992649
 30
0.0
 40
4.099999999999996
100
AcDbArc
 50
215.2071288969203
 51
243.4608950672209
  0
LINE
  5
CB19
330
18
100
AcDbEntity
  8
1
100
AcDbLine
 10
2007.018883680976
 20
-469.7902863992566
 30
0.0
 11
2007.018883680976
 21
-454.8902863992648
 31
0.0
  0
ARC
  5
CB1A
330
18
100
AcDbEntity
  8
1
100
AcDbCircle
 10
2007.618883680976
 20
-457.7540757299793
 30
0.0
 40
0.5999999999999999
100
AcDbArc
 50
90.0
 51
180.0
  0
LINE
  5
CB1B
330
18
100
AcDbEntity
  8
1
100
AcDbLine
 10
2009.468883680976
 20
-458.9950456075905
 30
0.0
 11
2009.468883680976
 21
-468.0773370440847
 31
0.0
  0
ARC
  5
CB1C
330
18
100
AcDbEntity
  8
1
100
AcDbCircle
 10
2008.868883680976
 20
-458.9950456075905
 30
0.0
 40
0.5999999999999999
100
AcDbArc
 50
0.0
 51
63.46089506722084
  0
LINE
  5
CB1D
330
18
100
AcDbEntity
  8
3
  6
CENTER2
 48
0.3
100
AcDbLine
 10
2005.600418996805
 20
-469.7902863992649
 30
0.0
 11
2016.337348365146
 21
-469.7902863992649
 31
0.0
  0
ARC
  5
CB1E
330
18
100
AcDbEntity
  8
1
100
AcDbCircle
 10
2010.968883680976
 20
-454.7902863992649
 30
0.0
 40
2.399999999999977
100
AcDbArc
 50
128.6821874534827
 51
51.31781254651136
  0
ARC
  5
CB1F
330
18
100
AcDbEntity
  8
1
100
AcDbCircle
 10
2010.968883680976
 20
-469.7902863992649
 30
0.0
 40
2.399999999999977
100
AcDbArc
 50
128.6821874534835
 51
51.31781254651136
  0
LINE
  5
CB20
330
18
100
AcDbEntity
  8
1
100
AcDbLine
 10
2022.518883680977
 20
-467.5220395956946
 30
0.0
 11
2015.818883680976
 21
-471.3902863992649
 31
0.0
  0
LINE
  5
CB21
330
18
100
AcDbEntity
  8
1
100
AcDbLine
 10
2014.779790540611
 20
-464.7085116222087
 30
0.0
 11
2022.229355124839
 21
-464.8385442557134
 31
0.0
  0
ARC
  5
CB22
330
18
100
AcDbEntity
  8
1
100
AcDbCircle
 10
2022.218883680976
 20
-465.4384528728071
 30
0.0
 40
0.6
100
AcDbArc
 50
0.0
 51
89.0000000000243
1001
GENIUS_GENOBJ-N-FIL_13
1002
{
1000
OWNER
1000
GEN
1002
}
1001
GENIUS_GENODEF_13
1002
{
1000
HIER
1070
     0
1002
}
1002
{
1000
MANEDIT
1070
     0
1002
}
1002
{
1000
NOSEL
1070
     0
1002
}
1002
{
1000
BEHIND
1070
     0
1002
}
1002
{
1000
OTHER
1070
     0
1002
}
1002
{
1000
REACTOR
1002
}
  0
LINE
  5
CB23
330
18
100
AcDbEntity
  8
1
100
AcDbLine
 10
2012.700449710793
 20
-473.3405228821466
 30
0.0
 11
2015.481906369049
 21
-471.9839158262312
 31
0.0
  0
ARC
  5
CB24
330
18
100
AcDbEntity
  8
1
100
AcDbCircle
 10
2015.218883680976
 20
-471.4446393984518
 30
0.0
 40
0.6
100
AcDbArc
 50
295.9999999999944
 51
0.0
1001
GENIUS_GENOBJ-N-FIL_13
1002
{
1000
OWNER
1000
GEN
1002
}
1001
GENIUS_GENODEF_13
1002
{
1000
HIER
1070
     0
1002
}
1002
{
1000
MANEDIT
1070
     0
1002
}
1002
{
1000
NOSEL
1070
     0
1002
}
1002
{
1000
BEHIND
1070
     0
1002
}
1002
{
1000
OTHER
1070
     0
1002
}
1002
{
1000
REACTOR
1002
}
  0
ARC
  5
CB27
330
18
100
AcDbEntity
  8
1
100
AcDbCircle
 10
2023.318883680976
 20
-462.2902863992648
 30
0.0
 40
9.3
100
AcDbArc
 50
144.9031987724292
 51
215.0968012275708
  0
DIMENSION
  5
CB4C
330
18
100
AcDbEntity
  8
2
 62
     1
100
AcDbDimension
  2
*D0
 10
2033.704235350106
 20
-439.790286399265
 30
0.0
 11
2031.204235350106
 21
-447.2902863992646
 31
0.0
 70
    32
 71
     5
 42
15.0
  3
STANDARD
100
AcDbAlignedDimension
 13
2016.337348365146
 23
-454.7902863992649
 33
0.0
 14
2015.818883680976
 24
-439.790286399265
 34
0.0
 50
90.0
100
AcDbRotatedDimension
  0
LINE
  5
CB59
330
18
100
AcDbEntity
  8
1
100
AcDbLine
 10
2022.818883680976
 20
-444.1421199257226
 30
0.0
 11
2022.818883680976
 21
-442.5781484451059
 31
0.0
  0
ARC
  5
CB5A
330
18
100
AcDbEntity
  8
1
100
AcDbCircle
 10
2022.218883680976
 20
-442.5781484451059
 30
0.0
 40
0.6
100
AcDbArc
 50
0.0
 51
59.9999999999992
1001
GENIUS_GENODEF_13
1002
{
1000
HIER
1070
     0
1002
}
1002
{
1000
MANEDIT
1070
     0
1002
}
1002
{
1000
NOSEL
1070
     0
1002
}
1002
{
1000
BEHIND
1070
     0
1002
}
1002
{
1000
OTHER
1070
     0
1002
}
1002
{
1000
REACTOR
1002
}
1001
GENIUS_GENOBJ-N-FIL_13
1002
{
1000
OWNER
1000
GEN
1002
}
  0
ARC
  5
CB5B
330
18
100
AcDbEntity
  8
1
100
AcDbCircle
 10
2014.790261984472
 20
-445.4719697934151
 30
0.0
 40
0.6
100
AcDbArc
 50
90.99999999997571
 51
168.6087487629006
1001
GENIUS_GENOBJ-N-FIL_13
1002
{
1000
OWNER
1000
GEN
1002
}
1001
GENIUS_GENODEF_13
1002
{
1000
HIER
1070
     0
1002
}
1002
{
1000
MANEDIT
1070
     0
1002
}
1002
{
1000
NOSEL
1070
     0
1002
}
1002
{
1000
BEHIND
1070
     0
1002
}
1002
{
1000
OTHER
1070
     0
1002
}
1002
{
1000
REACTOR
1002
}
  0
LINE
  5
CB5C
330
18
100
AcDbEntity
  8
1
100
AcDbLine
 10
2022.518883680977
 20
-442.0585332028351
 30
0.0
 11
2015.818883680976
 21
-438.1902863992649
 31
0.0
  0
LINE
  5
CB5D
330
18
100
AcDbEntity
  8
1
100
AcDbLine
 10
2014.779790540611
 20
-444.8720611763212
 30
0.0
 11
2022.229355124839
 21
-444.7420285428166
 31
0.0
  0
ARC
  5
CB5E
330
18
100
AcDbEntity
  8
1
100
AcDbCircle
 10
2022.218883680976
 20
-444.1421199257226
 30
0.0
 40
0.6
100
AcDbArc
 50
270.9999999999757
 51
0.0
1001
GENIUS_GENOBJ-N-FIL_13
1002
{
1000
OWNER
1000
GEN
1002
}
1001
GENIUS_GENODEF_13
1002
{
1000
HIER
1070
     0
1002
}
1002
{
1000
MANEDIT
1070
     0
1002
}
1002
{
1000
NOSEL
1070
     0
1002
}
1002
{
1000
BEHIND
1070
     0
1002
}
1002
{
1000
OTHER
1070
     0
1002
}
1002
{
1000
REACTOR
1002
}
  0
LINE
  5
CB62
330
18
100
AcDbEntity
  8
1
100
AcDbLine
 10
2022.818883680975
 20
-459.1421199257228
 30
0.0
 11
2022.818883680975
 21
-457.5781484451058
 31
0.0
  0
ARC
  5
CB63
330
18
100
AcDbEntity
  8
1
100
AcDbCircle
 10
2022.218883680976
 20
-457.5781484451058
 30
0.0
 40
0.6
100
AcDbArc
 50
0.0
 51
59.9999999999992
1001
GENIUS_GENODEF_13
1002
{
1000
HIER
1070
     0
1002
}
1002
{
1000
MANEDIT
1070
     0
1002
}
1002
{
1000
NOSEL
1070
     0
1002
}
1002
{
1000
BEHIND
1070
     0
1002
}
1002
{
1000
OTHER
1070
     0
1002
}
1002
{
1000
REACTOR
1002
}
1001
GENIUS_GENOBJ-N-FIL_13
1002
{
1000
OWNER
1000
GEN
1002
}
  0
ARC
  5
CB64
330
18
100
AcDbEntity
  8
1
100
AcDbCircle
 10
2014.790261984472
 20
-460.4719697934148
 30
0.0
 40
0.6
100
AcDbArc
 50
90.99999999997569
 51
168.6087487629006
1001
GENIUS_GENOBJ-N-FIL_13
1002
{
1000
OWNER
1000
GEN
1002
}
1001
GENIUS_GENODEF_13
1002
{
1000
HIER
1070
     0
1002
}
1002
{
1000
MANEDIT
1070
     0
1002
}
1002
{
1000
NOSEL
1070
     0
1002
}
1002
{
1000
BEHIND
1070
     0
1002
}
1002
{
1000
OTHER
1070
     0
1002
}
1002
{
1000
REACTOR
1002
}
  0
LINE
  5
CB65
330
18
100
AcDbEntity
  8
1
100
AcDbLine
 10
2022.518883680976
 20
-457.0585332028351
 30
0.0
 11
2018.590164973086
 21
-454.7902863992652
 31
0.0
  0
LINE
  5
CB66
330
18
100
AcDbEntity
  8
1
100
AcDbLine
 10
2014.77979054061
 20
-459.872061176321
 30
0.0
 11
2022.229355124838
 21
-459.7420285428166
 31
0.0
  0
ARC
  5
CB67
330
18
100
AcDbEntity
  8
1
100
AcDbCircle
 10
2022.218883680976
 20
-459.1421199257228
 30
0.0
 40
0.6
100
AcDbArc
 50
270.9999999999757
 51
0.0
1001
GENIUS_GENOBJ-N-FIL_13
1002
{
1000
OWNER
1000
GEN
1002
}
1001
GENIUS_GENODEF_13
1002
{
1000
HIER
1070
     0
1002
}
1002
{
1000
MANEDIT
1070
     0
1002
}
1002
{
1000
NOSEL
1070
     0
1002
}
1002
{
1000
BEHIND
1070
     0
1002
}
1002
{
1000
OTHER
1070
     0
1002
}
1002
{
1000
REACTOR
1002
}
  0
DIMENSION
  5
CB7C
330
18
100
AcDbEntity
  8
2
 62
     1
100
AcDbDimension
  2
*D1
 10
1943.332824712478
 20
-540.9802977680867
 30
0.0
 11
1917.932824712478
 21
-538.4802977680869
 31
0.0
 70
    32
 71
     5
 42
50.79999999999972
  3
STANDARD
100
AcDbAlignedDimension
 13
1892.532824712479
 23
-526.9795836281153
 33
0.0
 14
1943.332824712478
 24
-526.9795836281153
 34
0.0
100
AcDbRotatedDimension
  0
DIMENSION
  5
CBA1
330
18
100
AcDbEntity
  8
2
 62
     1
100
AcDbDimension
  2
*D2
 10
1938.632824712479
 20
-533.9802977680867
 30
0.0
 11
1917.932824712479
 21
-531.4802977680868
 31
0.0
 70
    32
 71
     5
 42
41.400000000001
  3
STANDARD
100
AcDbAlignedDimension
 13
1897.232824712478
 23
-526.9795836281153
 33
0.0
 14
1938.632824712479
 24
-526.9810119080581
 34
0.0
100
AcDbRotatedDimension
  0
DIMENSION
  5
CBD2
330
18
100
AcDbEntity
  8
2
 62
     1
100
AcDbDimension
  2
*D3
 10
1851.436277319421
 20
-540.9802977680867
 30
0.0
 11
1871.98455101595
 21
-538.4802977680869
 31
0.0
 70
    32
 71
     5
 42
41.09654739305802
  3
STANDARD
100
AcDbAlignedDimension
 13
1892.532824712479
 23
-526.9795836281153
 33
0.0
 14
1851.436277319421
 24
-519.9795836281151
 34
0.0
100
AcDbRotatedDimension
  0
DIMENSION
  5
CBDF
330
18
100
AcDbEntity
  8
2
 62
     1
100
AcDbDimension
  2
*D4
 10
1984.432824712479
 20
-540.9802977680867
 30
0.0
 11
1963.882824712479
 21
-538.4802977680869
 31
0.0
 70
    32
 71
     5
 42
41.10000000000082
  3
STANDARD
100
AcDbAlignedDimension
 13
1943.332824712478
 23
-526.9795836281153
 33
0.0
 14
1984.432824712479
 24
-519.3795836281155
 34
0.0
100
AcDbRotatedDimension
  0
DIMENSION
  5
CBF5
330
18
100
AcDbEntity
  8
2
 62
     1
100
AcDbDimension
  2
*D5
 10
1917.932824712479
 20
-428.8402863992649
 30
0.0
 11
1871.182824712479
 21
-426.3402863992649
 31
0.0
 70
    32
 71
     5
 42
93.49999999999999
  3
STANDARD
100
AcDbAlignedDimension
 13
1824.432824712479
 23
-438.5645824747958
 33
0.0
 14
1917.932824712479
 24
-436.277786399265
 34
0.0
100
AcDbRotatedDimension
  0
DIMENSION
  5
CC0F
330
18
100
AcDbEntity
  8
2
 62
     1
100
AcDbDimension
  2
*D6
 10
1917.932824712479
 20
-428.8402863992649
 30
0.0
 11
1951.182824712479
 21
-426.3402863992649
 31
0.0
 70
    32
 71
     5
 42
66.5
  3
STANDARD
100
AcDbAlignedDimension
 13
1984.432824712479
 23
-442.7540757299793
 33
0.0
 14
1917.932824712479
 24
-436.277786399265
 34
0.0
100
AcDbRotatedDimension
  0
LINE
  5
CC1C
330
18
100
AcDbEntity
  8
3
 62
     6
100
AcDbLine
 10
1917.932824712479
 20
-436.277786399265
 30
0.0
 11
1917.932824712479
 21
-477.9099152583709
 31
0.0
  0
LINE
  5
CC2F
330
18
100
AcDbEntity
  8
3
 62
     6
100
AcDbLine
 10
1917.932824712479
 20
-508.0085187521913
 30
0.0
 11
1917.932824712479
 21
-522.2506485040391
 31
0.0
  0
DIMENSION
  5
CC3D
330
18
100
AcDbEntity
  8
2
 62
     1
100
AcDbDimension
  2
*D7
 10
1984.432824712479
 20
-421.8402863992649
 30
0.0
 11
1904.432824712479
 21
-419.3402863992649
 31
0.0
 70
    32
 71
     5
 42
160.0
  3
STANDARD
100
AcDbAlignedDimension
 13
1824.432824712479
 23
-438.5645824747958
 33
0.0
 14
1984.432824712479
 24
-442.7540757299793
 34
0.0
100
AcDbRotatedDimension
  0
DIMENSION
  5
CC4A
330
18
100
AcDbEntity
  8
2
 62
     1
100
AcDbDimension
  2
*D8
 10
2015.818883680976
 20
-480.7402863992648
 30
0.0
 11
2026.318883680976
 21
-478.240286399265
 31
0.0
 70
    32
 71
     5
 42
4.849999999999454
  3
STANDARD
100
AcDbAlignedDimension
 13
2010.968883680976
 23
-475.4222312436866
 33
0.0
 14
2015.818883680976
 24
-471.3902863992649
 34
0.0
100
AcDbRotatedDimension
  0
DIMENSION
  5
CC59
330
18
100
AcDbEntity
  8
2
 62
     1
100
AcDbDimension
  2
*D9
 10
2015.818883680976
 20
-487.7402863992648
 30
0.0
 11
2011.418883680976
 21
-485.2402863992649
 31
0.0
 70
    32
 71
     5
 42
8.799999999999498
  3
STANDARD
100
AcDbAlignedDimension
 13
2007.018883680976
 23
-469.7902863992649
 33
0.0
 14
2015.818883680976
 24
-471.452786399265
 34
0.0
100
AcDbRotatedDimension
  0
DIMENSION
  5
CC66
330
18
100
AcDbEntity
  8
2
 62
     1
100
AcDbDimension
  2
*D10
 10
2022.818883680976
 20
-428.8402863992649
 30
0.0
 11
2014.918883680976
 21
-426.3402863992649
 31
0.0
 70
    32
 71
     5
 42
15.79999999999927
  3
STANDARD
100
AcDbAlignedDimension
 13
2007.018883680976
 23
-439.890286399265
 33
0.0
 14
2022.818883680976
 24
-442.5781484451059
 34
0.0
100
AcDbRotatedDimension
  0
TEXT
  5
CF7C
330
18
100
AcDbEntity
  8
2
100
AcDbText
 10
2008.762466229579
 20
-553.1069939455277
 30
0.0
 40
3.5
  1
DATE.2020.05.01
  7
BIGFONT
100
AcDbText
  0
ARC
  5
D0E7
330
18
100
AcDbEntity
  8
1
 62
     7
100
AcDbCircle
 10
2012.068883680976
 20
-470.221584570165
 30
0.0
 40
0.3000000000000007
100
AcDbArc
 50
270.0
 51
0.0
  0
LINE
  5
D0E8
330
18
100
AcDbEntity
  8
1
 62
     7
100
AcDbLine
 10
2009.868883680976
 20
-470.521584570165
 30
0.0
 11
2012.068883680976
 21
-470.521584570165
 31
0.0
  0
ARC
  5
D0E9
330
18
100
AcDbEntity
  8
1
 62
     7
100
AcDbCircle
 10
2009.868883680976
 20
-470.221584570165
 30
0.0
 40
0.3000000000000007
100
AcDbArc
 50
180.0
 51
270.0
  0
LINE
  5
D0EA
330
18
100
AcDbEntity
  8
1
 62
     7
100
AcDbLine
 10
2009.568883680975
 20
-470.221584570165
 30
0.0
 11
2009.568883680975
 21
-469.8208966215012
 31
0.0
  0
LINE
  5
D0EB
330
18
100
AcDbEntity
  8
1
 62
     7
100
AcDbLine
 10
2009.568883680975
 20
-469.8208966215012
 30
0.0
 11
2008.768883680976
 21
-469.8208966215012
 31
0.0
  0
LINE
  5
D0EC
330
18
100
AcDbEntity
  8
1
 62
     7
100
AcDbLine
 10
2008.768883680976
 20
-469.149667333505
 30
0.0
 11
2008.768883680976
 21
-469.8208966215012
 31
0.0
  0
LINE
  5
D0ED
330
18
100
AcDbEntity
  8
1
 62
     7
100
AcDbLine
 10
2013.168883680975
 20
-469.8208966215013
 30
0.0
 11
2013.168883680975
 21
-469.149667333505
 31
0.0
  0
LINE
  5
D0EE
330
18
100
AcDbEntity
  8
1
 62
     7
100
AcDbLine
 10
2013.168883680975
 20
-469.8208966215013
 30
0.0
 11
2012.368883680975
 21
-469.8208966215012
 31
0.0
  0
LINE
  5
D0EF
330
18
100
AcDbEntity
  8
1
 62
     7
100
AcDbLine
 10
2012.368883680975
 20
-470.221584570165
 30
0.0
 11
2012.368883680975
 21
-469.8208966215012
 31
0.0
  0
ARC
  5
D0F0
330
18
100
AcDbEntity
  8
1
 62
     7
100
AcDbCircle
 10
2010.968883680976
 20
-469.8208966215013
 30
0.0
 40
2.299999999999998
100
AcDbArc
 50
16.95742629417781
 51
49.2942931689441
  0
ARC
  5
D0F1
330
18
100
AcDbEntity
  8
1
 62
     7
100
AcDbCircle
 10
2010.968883680976
 20
-469.8208966215013
 30
0.0
 40
2.299999999999998
100
AcDbArc
 50
130.7057068310249
 51
163.0425737058096
  0
LINE
  5
D0F2
330
18
100
AcDbEntity
  8
1
 62
     7
100
AcDbLine
 10
2012.468883680976
 20
-461.5366092812283
 30
0.0
 11
2009.468883680976
 21
-461.5366092812283
 31
0.0
  0
ARC
  5
D0F3
330
18
100
AcDbEntity
  8
1
 62
     7
100
AcDbCircle
 10
2012.068883680976
 20
-455.2215845701652
 30
0.0
 40
0.3000000000000007
100
AcDbArc
 50
270.0
 51
0.0
  0
LINE
  5
D0F4
330
18
100
AcDbEntity
  8
1
 62
     7
100
AcDbLine
 10
2009.868883680976
 20
-455.5215845701651
 30
0.0
 11
2012.068883680976
 21
-455.5215845701651
 31
0.0
  0
ARC
  5
D0F5
330
18
100
AcDbEntity
  8
1
 62
     7
100
AcDbCircle
 10
2009.868883680976
 20
-455.2215845701652
 30
0.0
 40
0.3000000000000007
100
AcDbArc
 50
180.0
 51
270.0
  0
LINE
  5
D0F6
330
18
100
AcDbEntity
  8
1
 62
     7
100
AcDbLine
 10
2009.568883680975
 20
-455.2215845701652
 30
0.0
 11
2009.568883680975
 21
-454.8208966215011
 31
0.0
  0
LINE
  5
D0F7
330
18
100
AcDbEntity
  8
1
 62
     7
100
AcDbLine
 10
2009.568883680975
 20
-454.8208966215011
 30
0.0
 11
2008.768883680976
 21
-454.820896621501
 31
0.0
  0
LINE
  5
D0F8
330
18
100
AcDbEntity
  8
1
 62
     7
100
AcDbLine
 10
2008.768883680976
 20
-454.149667333505
 30
0.0
 11
2008.768883680976
 21
-454.820896621501
 31
0.0
  0
LINE
  5
D0F9
330
18
100
AcDbEntity
  8
1
 62
     7
100
AcDbLine
 10
2013.168883680975
 20
-454.8208966215013
 30
0.0
 11
2013.168883680975
 21
-454.149667333505
 31
0.0
  0
LINE
  5
D0FA
330
18
100
AcDbEntity
  8
1
 62
     7
100
AcDbLine
 10
2013.168883680975
 20
-454.8208966215013
 30
0.0
 11
2012.368883680975
 21
-454.8208966215011
 31
0.0
  0
LINE
  5
D0FB
330
18
100
AcDbEntity
  8
1
 62
     7
100
AcDbLine
 10
2012.368883680975
 20
-455.2215845701652
 30
0.0
 11
2012.368883680975
 21
-454.8208966215011
 31
0.0
  0
ARC
  5
D0FC
330
18
100
AcDbEntity
  8
1
 62
     7
100
AcDbCircle
 10
2010.968883680976
 20
-454.8208966215013
 30
0.0
 40
2.299999999999998
100
AcDbArc
 50
16.95742629417784
 51
49.2942931689441
  0
ARC
  5
D0FD
330
18
100
AcDbEntity
  8
1
 62
     7
100
AcDbCircle
 10
2010.968883680976
 20
-454.8208966215013
 30
0.0
 40
2.299999999999998
100
AcDbArc
 50
130.7057068310249
 51
163.0425737058096
  0
LINE
  5
D0FE
330
18
100
AcDbEntity
  8
1
 62
     7
100
AcDbLine
 10
2012.468883680976
 20
-446.5366092812281
 30
0.0
 11
2009.468883680976
 21
-446.5366092812281
 31
0.0
  0
ENDSEC
  0
SECTION
  2
OBJECTS
  0
DICTIONARY
  5
C
330
0
100
AcDbDictionary
281
     1
  3
ACAD_CIP_PREVIOUS_PRODUCT_INFO
350
CFC4
  3
ACAD_COLOR
350
A12D
  3
ACAD_DETAILVIEWSTYLE
350
CFBF
  3
ACAD_GROUP
350
D
  3
ACAD_IMAGE_DICT
350
A0F4
  3
ACAD_IMAGE_VARS
350
A0EC
  3
ACAD_LAYOUT
350
1C62
  3
ACAD_MATERIAL
350
A103
  3
ACAD_MLEADERSTYLE
350
A130
  3
ACAD_MLINESTYLE
350
E
  3
ACAD_PLOTSETTINGS
350
1C63
  3
ACAD_PLOTSTYLENAME
350
1C60
  3
ACAD_SCALELIST
350
9FA7
  3
ACAD_SECTIONVIEWSTYLE
350
CFBD
  3
ACAD_TABLESTYLE
350
A12E
  3
ACAD_VISUALSTYLE
350
A11C
  3
AcadDim
350
2219
  3
ACDB_RECOMPOSE_DATA
350
D14F
  3
AcDbVariableDictionary
350
1237
  3
APPDATA
350
A0EB
  3
CONTENTDICTIONARY
350
322
  3
DWGPROPS
350
D150
  0
DICTIONARY
  5
A0A3
330
2
100
AcDbDictionary
280
     1
281
     1
  3
ACAD_LAYERFILTERS
360
A0DF
  3
ACAD_LAYERSTATES
360
A0ED
  3
ACLYDICTIONARY
360
A0DE
  0
DICTIONARY
  5
9FD1
330
F
100
AcDbDictionary
280
     1
281
     1
  3
ADSK_XREC_LAYER_RECONCILED
360
9FD2
  0
DICTIONARY
  5
9FD3
330
526
100
AcDbDictionary
280
     1
281
     1
  3
ADSK_XREC_LAYER_RECONCILED
360
9FD4
  0
DICTIONARY
  5
9FD5
330
138F
100
AcDbDictionary
280
     1
281
     1
  3
ADSK_XREC_LAYER_RECONCILED
360
9FD6
  0
DICTIONARY
  5
9FD7
330
1390
100
AcDbDictionary
280
     1
281
     1
  3
ADSK_XREC_LAYER_RECONCILED
360
9FD8
  0
DICTIONARY
  5
9ACC
330
18
100
AcDbDictionary
280
     1
281
     1
  3
ACAD_SORTENTS
360
9ACD
  0
XRECORD
  5
CFC4
102
{ACAD_REACTORS
330
C
102
}
330
C
100
AcDbXrecord
280
     1
300
ACDLT
300
2020
300
ACDLT_F_S
  0
DICTIONARY
  5
A12D
102
{ACAD_REACTORS
330
C
102
}
330
C
100
AcDbDictionary
281
     1
  0
DICTIONARY
  5
CFBF
102
{ACAD_REACTORS
330
C
102
}
330
C
100
AcDbDictionary
281
     1
  3
Metric50
350
CFC0
  0
DICTIONARY
  5
D
102
{ACAD_REACTORS
330
C
102
}
330
C
100
AcDbDictionary
281
     1
  0
DICTIONARY
  5
A0F4
102
{ACAD_REACTORS
330
C
102
}
330
C
100
AcDbDictionary
281
     1
  3
新しい画像 (7)
350
A0F6
  0
RASTERVARIABLES
  5
A0EC
102
{ACAD_REACTORS
330
C
102
}
330
C
100
AcDbRasterVariables
 90
        0
 70
     1
 71
     1
 72
     0
  0
DICTIONARY
  5
1C62
102
{ACAD_REACTORS
330
C
102
}
330
C
100
AcDbDictionary
281
     1
  3
Model
350
1C64
  3
\U+FF9A\U+FF72\U+FF71\U+FF73\U+FF841
350
1C65
  0
DICTIONARY
  5
A103
102
{ACAD_REACTORS
330
C
102
}
330
C
100
AcDbDictionary
281
     1
  3
ByBlock
350
A10C
  3
ByLayer
350
A104
  3
Global
350
A114
  0
DICTIONARY
  5
A130
102
{ACAD_REACTORS
330
C
102
}
330
C
100
AcDbDictionary
281
     1
  3
Standard
350
A131
  0
DICTIONARY
  5
E
102
{ACAD_REACTORS
330
C
102
}
330
C
100
AcDbDictionary
281
     1
  3
STANDARD
350
1B
  0
DICTIONARY
  5
1C63
102
{ACAD_REACTORS
330
C
102
}
330
C
100
AcDbDictionary
281
     1
  0
ACDBDICTIONARYWDFLT
  5
1C60
102
{ACAD_REACTORS
330
C
102
}
330
C
100
AcDbDictionary
281
     1
  3
Normal
350
1C61
100
AcDbDictionaryWithDefault
340
1C61
  0
DICTIONARY
  5
9FA7
102
{ACAD_REACTORS
330
C
102
}
330
C
100
AcDbDictionary
281
     1
  3
A0
350
9FA8
  3
A1
350
9FA9
  3
A2
350
9FAA
  3
A3
350
9FAB
  3
A4
350
9FAC
  3
A5
350
9FAD
  3
A6
350
9FAE
  3
A7
350
9FAF
  3
A8
350
9FB0
  3
A9
350
9FB1
  3
B0
350
9FB2
  3
B1
350
9FB3
  3
B2
350
9FB4
  3
B3
350
9FB5
  3
B4
350
9FB6
  3
B5
350
9FB7
  3
B6
350
9FB8
  3
B7
350
9FB9
  3
B8
350
9FBA
  3
B9
350
9FBB
  3
C0
350
9FBC
  3
C1
350
9FBD
  3
C2
350
9FBE
  3
C3
350
9FBF
  3
C4
350
9FC0
  3
C5
350
9FC1
  3
C6
350
9FC2
  3
C7
350
9FC3
  3
C8
350
9FC4
  3
C9
350
9FC5
  3
D0
350
9FC6
  3
D1
350
9FC7
  3
D2
350
9FC8
  0
DICTIONARY
  5
CFBD
102
{ACAD_REACTORS
330
C
102
}
330
C
100
AcDbDictionary
281
     1
  3
Metric50
350
CFBE
  0
DICTIONARY
  5
A12E
102
{ACAD_REACTORS
330
C
102
}
330
C
100
AcDbDictionary
281
     1
  3
Standard
350
A12F
  0
DICTIONARY
  5
A11C
102
{ACAD_REACTORS
330
C
102
}
330
C
100
AcDbDictionary
281
     1
  3
2dWireframe
350
A122
  3
3D Hidden
350
A124
  3
3dWireframe
350
A123
  3
Basic
350
A121
  3
Brighten
350
A128
  3
ColorChange
350
A12C
  3
Conceptual
350
A125
  3
Dim
350
A127
  3
EdgeColorOff
350
CFBC
  3
Facepattern
350
A12B
  3
Flat
350
A11D
  3
FlatWithEdges
350
A11E
  3
Gouraud
350
A11F
  3
GouraudWithEdges
350
A120
  3
Hidden
350
CFB4
  3
JitterOff
350
CFBA
  3
Linepattern
350
A12A
  3
OverhangOff
350
CFBB
  3
Realistic
350
A126
  3
Shaded
350
CFB9
  3
Shaded with edges
350
CFB8
  3
Shades of Gray
350
CFB5
  3
Sketchy
350
CFB6
  3
Thicken
350
A129
  3
Wireframe
350
CFB3
  3
X-Ray
350
CFB7
  0
XRECORD
  5
2219
102
{ACAD_REACTORS
330
C
102
}
330
C
100
AcDbXrecord
280
     1
 90
   990106
  3

 60
     4
 61
     0
 62
     1
 63
     3
 64
     0
 65
     0
 66
     1
 67
     3
 68
     1
 69
     0
 70
     0
 71
     0
 72
     0
 40
0.0
170
     1
  0
XRECORD
  5
D14F
102
{ACAD_REACTORS
330
C
102
}
330
C
100
AcDbXrecord
280
     1
 90
        1
330
A12F
  0
DICTIONARY
  5
1237
102
{ACAD_REACTORS
330
C
102
}
330
C
100
AcDbDictionary
281
     1
  3
CANNOSCALE
350
A101
  3
CMLEADERSTYLE
350
A2B4
  3
CTABLESTYLE
350
A2B3
  3
CVIEWDETAILSTYLE
350
D100
  3
CVIEWSECTIONSTYLE
350
D101
  3
DIMASSOC
350
9CC6
  3
INDEXCTL
350
9CC5
  3
SORTENTS
350
1238
  3
XCLIPFRAME
350
D14D
  0
DICTIONARY
  5
A0EB
102
{ACAD_REACTORS
330
C
102
}
330
C
100
AcDbDictionary
281
     1
  0
DICTIONARY
  5
322
102
{ACAD_REACTORS
330
C
102
}
330
C
100
AcDbDictionary
281
     1
  0
XRECORD
  5
D150
102
{ACAD_REACTORS
330
C
102
}
330
C
100
AcDbXrecord
280
     1
  1
DWGPROPS COOKIE
  2

  3

  4

  6

  7

  8
hiroaki.shimizu
  9

300
=
301
=
302
=
303
=
304
=
305
=
306
=
307
=
308
=
309
=
 40
0.6677614351851852
 41
2452836.755208334
 42
2458976.765706019
  1

 90
        0
  0
DICTIONARY
  5
A0DF
102
{ACAD_REACTORS
330
A0A3
102
}
330
A0A3
100
AcDbDictionary
281
     1
  0
DICTIONARY
  5
A0ED
102
{ACAD_REACTORS
330
A0A3
102
}
330
A0A3
100
AcDbDictionary
281
     1
  3
ARGON_LAYERP_1
350
A0EE
  0
DICTIONARY
  5
A0DE
102
{ACAD_REACTORS
330
A0A3
102
}
330
A0A3
100
AcDbDictionary
281
     1
1001
ACAD
1000
<All
  0
XRECORD
  5
9FD2
102
{ACAD_REACTORS
330
9FD1
102
}
330
9FD1
100
AcDbXrecord
280
     1
290
     1
  0
XRECORD
  5
9FD4
102
{ACAD_REACTORS
330
9FD3
102
}
330
9FD3
100
AcDbXrecord
280
     1
290
     1
  0
XRECORD
  5
9FD6
102
{ACAD_REACTORS
330
9FD5
102
}
330
9FD5
100
AcDbXrecord
280
     1
290
     1
  0
XRECORD
  5
9FD8
102
{ACAD_REACTORS
330
9FD7
102
}
330
9FD7
100
AcDbXrecord
280
     1
290
     1
  0
SORTENTSTABLE
  5
9ACD
102
{ACAD_REACTORS
330
9ACC
102
}
330
9ACC
100
AcDbSortentsTable
330
18
  0
ACDBDETAILVIEWSTYLE
  5
CFC0
102
{ACAD_XDICTIONARY
360
D18C
102
}
102
{ACAD_REACTORS
330
CFBF
102
}
330
CFBF
100
AcDbModelDocViewStyle
 70
     0
  3
Metric50
290
     0
100
AcDbDetailViewStyle
 70
     0
 71
     0
 90
        3
 71
     1
340
10
 40
5.0
340
0
 40
5.0
300

 40
0.0
280
     1
 71
     2
340
14
 90
       25
 71
     3
340
10
 40
5.0
 90
        0
 40
15.0
 90
        1
300
%<\AcVar ViewDetailId>% (%<\AcVar ViewScale \f "%sn">%)
 71
     4
340
14
 90
       25
340
14
 90
       25
280
     0
  0
IMAGEDEF
  5
A0F6
102
{ACAD_REACTORS
330
A0F4
102
}
330
A0F4
100
AcDbRasterImageDef
 90
        0
  1
D:\My Documents\My Pictures\新しい画像 (7).bmp
 10
736.0
 20
463.0
 11
0.0013586956521739
 21
0.0013586956521739
280
     1
281
     0
  0
LAYOUT
  5
1C64
102
{ACAD_XDICTIONARY
360
D151
102
}
102
{ACAD_REACTORS
330
1C62
102
}
330
1C62
100
AcDbPlotSettings
  1

  2
EPSON LP-8900.pc3
  4
A3
  6

 40
5.873749732971191
 41
5.873747825622557
 42
5.873748779296875
 43
5.873748779296875
 44
297.0106506347656
 45
419.9466552734373
 46
-10.64
 47
0.51
 48
190.4169537375563
 49
284.6621781964941
140
597.6008585168202
141
591.2146139738211
142
1.0
143
1.0
 70
 11956
 72
     1
 73
     1
 74
     4
  7
canon00.ctb
 75
    16
147
1.0
148
-190.4169537375563
149
-284.6621781964941
100
AcDbLayout
  1
Model
 70
     1
 71
     0
 10
0.0
 20
0.0
 11
12.0
 21
9.0
 12
0.0
 22
0.0
 32
0.0
 14
0.0
 24
0.0
 34
0.0
 15
0.0
 25
0.0
 35
0.0
146
0.0
 13
0.0
 23
0.0
 33
0.0
 16
1.0
 26
0.0
 36
0.0
 17
0.0
 27
1.0
 37
0.0
 76
     0
330
18
331
8F41
  0
LAYOUT
  5
1C65
102
{ACAD_XDICTIONARY
360
D153
102
}
102
{ACAD_REACTORS
330
1C62
102
}
330
1C62
100
AcDbPlotSettings
  1

  2
\\TECH-SERVER\Canon
  4

  6

 40
0.0
 41
0.0
 42
0.0
 43
0.0
 44
0.0
 45
0.0
 46
0.0
 47
0.0
 48
0.0
 49
0.0
140
0.0
141
0.0
142
1.0
143
1.0
 70
   688
 72
     0
 73
     0
 74
     5
  7
030127.ctb
 75
    16
147
1.0
148
0.0
149
0.0
100
AcDbLayout
  1
\U+FF9A\U+FF72\U+FF71\U+FF73\U+FF841
 70
     1
 71
     1
 10
0.0
 20
0.0
 11
420.0
 21
297.0
 12
0.0
 22
0.0
 32
0.0
 14
1.000000000000000E+20
 24
1.000000000000000E+20
 34
1.000000000000000E+20
 15
-1.000000000000000E+20
 25
-1.000000000000000E+20
 35
-1.000000000000000E+20
146
0.0
 13
0.0
 23
0.0
 33
0.0
 16
1.0
 26
0.0
 36
0.0
 17
0.0
 27
1.0
 37
0.0
 76
     0
330
15
  0
MATERIAL
  5
A10C
102
{ACAD_XDICTIONARY
360
A10D
102
}
102
{ACAD_REACTORS
330
A103
102
}
330
A103
100
AcDbMaterial
  1
ByBlock
 72
     0
 43
0.0208333333333333
 43
0.0
 43
0.0
 43
0.0
 43
0.0
 43
0.0208333333333333
 43
0.0
 43
0.0
 43
0.0
 43
0.0
 43
1.0
 43
0.0
 43
0.0
 43
0.0
 43
0.0
 43
1.0
 77
     0
 47
0.0208333333333333
 47
0.0
 47
0.0
 47
0.0
 47
0.0
 47
0.0208333333333333
 47
0.0
 47
0.0
 47
0.0
 47
0.0
 47
1.0
 47
0.0
 47
0.0
 47
0.0
 47
0.0
 47
1.0
171
     0
 49
0.0208333333333333
 49
0.0
 49
0.0
 49
0.0
 49
0.0
 49
0.0208333333333333
 49
0.0
 49
0.0
 49
0.0
 49
0.0
 49
1.0
 49
0.0
 49
0.0
 49
0.0
 49
0.0
 49
1.0
175
     0
142
0.0208333333333333
142
0.0
142
0.0
142
0.0
142
0.0
142
0.0208333333333333
142
0.0
142
0.0
142
0.0
142
0.0
142
1.0
142
0.0
142
0.0
142
0.0
142
0.0
142
1.0
179
     0
144
0.0208333333333333
144
0.0
144
0.0
144
0.0
144
0.0
144
0.0208333333333333
144
0.0
144
0.0
144
0.0
144
0.0
144
1.0
144
0.0
144
0.0
144
0.0
144
0.0
144
1.0
147
0.0208333333333333
147
0.0
147
0.0
147
0.0
147
0.0
147
0.0208333333333333
147
0.0
147
0.0
147
0.0
147
0.0
147
1.0
147
0.0
147
0.0
147
0.0
147
0.0
147
1.0
  0
MATERIAL
  5
A104
102
{ACAD_XDICTIONARY
360
A105
102
}
102
{ACAD_REACTORS
330
A103
102
}
330
A103
100
AcDbMaterial
  1
ByLayer
 72
     0
 43
0.0208333333333333
 43
0.0
 43
0.0
 43
0.0
 43
0.0
 43
0.0208333333333333
 43
0.0
 43
0.0
 43
0.0
 43
0.0
 43
1.0
 43
0.0
 43
0.0
 43
0.0
 43
0.0
 43
1.0
 77
     0
 47
0.0208333333333333
 47
0.0
 47
0.0
 47
0.0
 47
0.0
 47
0.0208333333333333
 47
0.0
 47
0.0
 47
0.0
 47
0.0
 47
1.0
 47
0.0
 47
0.0
 47
0.0
 47
0.0
 47
1.0
171
     0
 49
0.0208333333333333
 49
0.0
 49
0.0
 49
0.0
 49
0.0
 49
0.0208333333333333
 49
0.0
 49
0.0
 49
0.0
 49
0.0
 49
1.0
 49
0.0
 49
0.0
 49
0.0
 49
0.0
 49
1.0
175
     0
142
0.0208333333333333
142
0.0
142
0.0
142
0.0
142
0.0
142
0.0208333333333333
142
0.0
142
0.0
142
0.0
142
0.0
142
1.0
142
0.0
142
0.0
142
0.0
142
0.0
142
1.0
179
     0
144
0.0208333333333333
144
0.0
144
0.0
144
0.0
144
0.0
144
0.0208333333333333
144
0.0
144
0.0
144
0.0
144
0.0
144
1.0
144
0.0
144
0.0
144
0.0
144
0.0
144
1.0
147
0.0208333333333333
147
0.0
147
0.0
147
0.0
147
0.0
147
0.0208333333333333
147
0.0
147
0.0
147
0.0
147
0.0
147
1.0
147
0.0
147
0.0
147
0.0
147
0.0
147
1.0
  0
MATERIAL
  5
A114
102
{ACAD_XDICTIONARY
360
A115
102
}
102
{ACAD_REACTORS
330
A103
102
}
330
A103
100
AcDbMaterial
  1
Global
 72
     0
 43
0.0208333333333333
 43
0.0
 43
0.0
 43
0.0
 43
0.0
 43
0.0208333333333333
 43
0.0
 43
0.0
 43
0.0
 43
0.0
 43
1.0
 43
0.0
 43
0.0
 43
0.0
 43
0.0
 43
1.0
 77
     0
 47
0.0208333333333333
 47
0.0
 47
0.0
 47
0.0
 47
0.0
 47
0.0208333333333333
 47
0.0
 47
0.0
 47
0.0
 47
0.0
 47
1.0
 47
0.0
 47
0.0
 47
0.0
 47
0.0
 47
1.0
171
     0
 49
0.0208333333333333
 49
0.0
 49
0.0
 49
0.0
 49
0.0
 49
0.0208333333333333
 49
0.0
 49
0.0
 49
0.0
 49
0.0
 49
1.0
 49
0.0
 49
0.0
 49
0.0
 49
0.0
 49
1.0
175
     0
142
0.0208333333333333
142
0.0
142
0.0
142
0.0
142
0.0
142
0.0208333333333333
142
0.0
142
0.0
142
0.0
142
0.0
142
1.0
142
0.0
142
0.0
142
0.0
142
0.0
142
1.0
179
     0
144
0.0208333333333333
144
0.0
144
0.0
144
0.0
144
0.0
144
0.0208333333333333
144
0.0
144
0.0
144
0.0
144
0.0
144
1.0
144
0.0
144
0.0
144
0.0
144
0.0
144
1.0
147
0.0208333333333333
147
0.0
147
0.0
147
0.0
147
0.0
147
0.0208333333333333
147
0.0
147
0.0
147
0.0
147
0.0
147
1.0
147
0.0
147
0.0
147
0.0
147
0.0
147
1.0
  0
MLEADERSTYLE
  5
A131
102
{ACAD_REACTORS
330
A130
102
}
330
A130
100
AcDbMLeaderStyle
170
     2
171
     1
172
     0
 90
        2
 40
0.0
 41
0.0
173
     1
 91
-1056964608
340
12
 92
       -2
290
     1
 42
2.0
291
     1
 43
0.36
  3
Standard
 44
4.0
300

342
10
174
     1
178
     6
175
     1
176
     0
 93
-1056964608
 45
4.0
292
     0
297
     0
 46
4.0
 94
-1056964608
 47
1.0
 49
1.0
140
1.0
293
     1
141
0.0
294
     1
177
     0
142
1.0
295
     0
296
     0
143
0.125
1001
ACAD_MLEADERVER
1070
     2
  0
MLINESTYLE
  5
1B
102
{ACAD_REACTORS
330
E
102
}
330
E
100
AcDbMlineStyle
  2
STANDARD
 70
     0
  3

 62
     0
 51
90.0
 52
90.0
 71
     2
 49
0.5
 62
   256
  6
BYLAYER
 49
-0.5
 62
   256
  6
BYLAYER
  0
ACDBPLACEHOLDER
  5
1C61
102
{ACAD_REACTORS
330
1C60
102
}
330
1C60
  0
SCALE
  5
9FA8
102
{ACAD_REACTORS
330
9FA7
102
}
330
9FA7
100
AcDbScale
 70
     0
300
1:1
140
1.0
141
1.0
290
     1
  0
SCALE
  5
9FA9
102
{ACAD_REACTORS
330
9FA7
102
}
330
9FA7
100
AcDbScale
 70
     0
300
1:2
140
1.0
141
2.0
290
     0
  0
SCALE
  5
9FAA
102
{ACAD_REACTORS
330
9FA7
102
}
330
9FA7
100
AcDbScale
 70
     0
300
1:4
140
1.0
141
4.0
290
     0
  0
SCALE
  5
9FAB
102
{ACAD_REACTORS
330
9FA7
102
}
330
9FA7
100
AcDbScale
 70
     0
300
1:5
140
1.0
141
5.0
290
     0
  0
SCALE
  5
9FAC
102
{ACAD_REACTORS
330
9FA7
102
}
330
9FA7
100
AcDbScale
 70
     0
300
1:8
140
1.0
141
8.0
290
     0
  0
SCALE
  5
9FAD
102
{ACAD_REACTORS
330
9FA7
102
}
330
9FA7
100
AcDbScale
 70
     0
300
1:10
140
1.0
141
10.0
290
     0
  0
SCALE
  5
9FAE
102
{ACAD_REACTORS
330
9FA7
102
}
330
9FA7
100
AcDbScale
 70
     0
300
1:16
140
1.0
141
16.0
290
     0
  0
SCALE
  5
9FAF
102
{ACAD_REACTORS
330
9FA7
102
}
330
9FA7
100
AcDbScale
 70
     0
300
1:20
140
1.0
141
20.0
290
     0
  0
SCALE
  5
9FB0
102
{ACAD_REACTORS
330
9FA7
102
}
330
9FA7
100
AcDbScale
 70
     0
300
1:30
140
1.0
141
30.0
290
     0
  0
SCALE
  5
9FB1
102
{ACAD_REACTORS
330
9FA7
102
}
330
9FA7
100
AcDbScale
 70
     0
300
1:40
140
1.0
141
40.0
290
     0
  0
SCALE
  5
9FB2
102
{ACAD_REACTORS
330
9FA7
102
}
330
9FA7
100
AcDbScale
 70
     0
300
1:50
140
1.0
141
50.0
290
     0
  0
SCALE
  5
9FB3
102
{ACAD_REACTORS
330
9FA7
102
}
330
9FA7
100
AcDbScale
 70
     0
300
1:100
140
1.0
141
100.0
290
     0
  0
SCALE
  5
9FB4
102
{ACAD_REACTORS
330
9FA7
102
}
330
9FA7
100
AcDbScale
 70
     0
300
2:1
140
2.0
141
1.0
290
     0
  0
SCALE
  5
9FB5
102
{ACAD_REACTORS
330
9FA7
102
}
330
9FA7
100
AcDbScale
 70
     0
300
4:1
140
4.0
141
1.0
290
     0
  0
SCALE
  5
9FB6
102
{ACAD_REACTORS
330
9FA7
102
}
330
9FA7
100
AcDbScale
 70
     0
300
8:1
140
8.0
141
1.0
290
     0
  0
SCALE
  5
9FB7
102
{ACAD_REACTORS
330
9FA7
102
}
330
9FA7
100
AcDbScale
 70
     0
300
10:1
140
10.0
141
1.0
290
     0
  0
SCALE
  5
9FB8
102
{ACAD_REACTORS
330
9FA7
102
}
330
9FA7
100
AcDbScale
 70
     0
300
100:1
140
100.0
141
1.0
290
     0
  0
SCALE
  5
9FB9
102
{ACAD_REACTORS
330
9FA7
102
}
330
9FA7
100
AcDbScale
 70
     0
300
1/128" = 1'-0"
140
0.0078125
141
12.0
290
     0
  0
SCALE
  5
9FBA
102
{ACAD_REACTORS
330
9FA7
102
}
330
9FA7
100
AcDbScale
 70
     0
300
1/64" = 1'-0"
140
0.015625
141
12.0
290
     0
  0
SCALE
  5
9FBB
102
{ACAD_REACTORS
330
9FA7
102
}
330
9FA7
100
AcDbScale
 70
     0
300
1/32" = 1'-0"
140
0.03125
141
12.0
290
     0
  0
SCALE
  5
9FBC
102
{ACAD_REACTORS
330
9FA7
102
}
330
9FA7
100
AcDbScale
 70
     0
300
1/16" = 1'-0"
140
0.0625
141
12.0
290
     0
  0
SCALE
  5
9FBD
102
{ACAD_REACTORS
330
9FA7
102
}
330
9FA7
100
AcDbScale
 70
     0
300
3/32" = 1'-0"
140
0.09375
141
12.0
290
     0
  0
SCALE
  5
9FBE
102
{ACAD_REACTORS
330
9FA7
102
}
330
9FA7
100
AcDbScale
 70
     0
300
1/8" = 1'-0"
140
0.125
141
12.0
290
     0
  0
SCALE
  5
9FBF
102
{ACAD_REACTORS
330
9FA7
102
}
330
9FA7
100
AcDbScale
 70
     0
300
3/16" = 1'-0"
140
0.1875
141
12.0
290
     0
  0
SCALE
  5
9FC0
102
{ACAD_REACTORS
330
9FA7
102
}
330
9FA7
100
AcDbScale
 70
     0
300
1/4" = 1'-0"
140
0.25
141
12.0
290
     0
  0
SCALE
  5
9FC1
102
{ACAD_REACTORS
330
9FA7
102
}
330
9FA7
100
AcDbScale
 70
     0
300
3/8" = 1'-0"
140
0.375
141
12.0
290
     0
  0
SCALE
  5
9FC2
102
{ACAD_REACTORS
330
9FA7
102
}
330
9FA7
100
AcDbScale
 70
     0
300
1/2" = 1'-0"
140
0.5
141
12.0
290
     0
  0
SCALE
  5
9FC3
102
{ACAD_REACTORS
330
9FA7
102
}
330
9FA7
100
AcDbScale
 70
     0
300
3/4" = 1'-0"
140
0.75
141
12.0
290
     0
  0
SCALE
  5
9FC4
102
{ACAD_REACTORS
330
9FA7
102
}
330
9FA7
100
AcDbScale
 70
     0
300
1" = 1'-0"
140
1.0
141
12.0
290
     0
  0
SCALE
  5
9FC5
102
{ACAD_REACTORS
330
9FA7
102
}
330
9FA7
100
AcDbScale
 70
     0
300
1-1/2" = 1'-0"
140
1.5
141
12.0
290
     0
  0
SCALE
  5
9FC6
102
{ACAD_REACTORS
330
9FA7
102
}
330
9FA7
100
AcDbScale
 70
     0
300
3" = 1'-0"
140
3.0
141
12.0
290
     0
  0
SCALE
  5
9FC7
102
{ACAD_REACTORS
330
9FA7
102
}
330
9FA7
100
AcDbScale
 70
     0
300
6" = 1'-0"
140
6.0
141
12.0
290
     0
  0
SCALE
  5
9FC8
102
{ACAD_REACTORS
330
9FA7
102
}
330
9FA7
100
AcDbScale
 70
     0
300
1'-0" = 1'-0"
140
12.0
141
12.0
290
     0
  0
ACDBSECTIONVIEWSTYLE
  5
CFBE
102
{ACAD_XDICTIONARY
360
D18A
102
}
102
{ACAD_REACTORS
330
CFBD
102
}
330
CFBD
100
AcDbModelDocViewStyle
 70
     0
  3
Metric50
290
     0
100
AcDbSectionViewStyle
 70
     0
 71
     0
 90
      102
 71
     1
340
10
 40
5.0
340
0
340
0
 40
5.0
300
I, O, Q, S, X, Z
 40
10.0
 90
        0
 40
2.5
 90
        0
 71
     2
340
14
 90
       25
340
14
 90
       50
 40
5.0
 40
2.5
 40
5.0
 71
     3
340
10
 40
5.0
 90
        0
 40
15.0
 90
        1
300
%<\AcVar ViewSectionStartId>%-%<\AcVar ViewSectionEndId>% (%<\AcVar ViewScale \f "%sn">%)
 71
     4
300
ANSI31
 40
1.0
 90
        0
290
     0
290
     0
 90
        6
 40
0.0
 40
1.570796326794896
 40
0.2617993877991494
 40
1.308996938995747
 40
-0.2617993877991494
 40
1.832595714594045
  0
TABLESTYLE
  5
A12F
102
{ACAD_XDICTIONARY
360
A2B5
102
}
102
{ACAD_REACTORS
330
A12E
102
}
330
A12E
100
AcDbTableStyle
  3
Standard
 70
     0
 71
     0
 40
1.5
 41
1.5
280
     0
281
     0
  7
STANDARD
140
4.5
170
     2
 62
     0
 63
     7
283
     0
274
    -2
284
     1
 64
     0
275
    -2
285
     1
 65
     0
276
    -2
286
     1
 66
     0
277
    -2
287
     1
 67
     0
278
    -2
288
     1
 68
     0
279
    -2
289
     1
 69
     0
  7
STANDARD
140
6.0
170
     5
 62
     0
 63
     7
283
     0
274
    -2
284
     1
 64
     0
275
    -2
285
     1
 65
     0
276
    -2
286
     1
 66
     0
277
    -2
287
     1
 67
     0
278
    -2
288
     1
 68
     0
279
    -2
289
     1
 69
     0
  7
STANDARD
140
4.5
170
     5
 62
     0
 63
     7
283
     0
274
    -2
284
     1
 64
     0
275
    -2
285
     1
 65
     0
276
    -2
286
     1
 66
     0
277
    -2
287
     1
 67
     0
278
    -2
288
     1
 68
     0
279
    -2
289
     1
 69
     0
  0
VISUALSTYLE
  5
A122
102
{ACAD_XDICTIONARY
360
D15F
102
}
102
{ACAD_REACTORS
330
A11C
102
}
330
A11C
100
AcDbVisualStyle
  2

 70
     4
 71
     0
 72
     2
 73
     0
 90
        0
 40
-0.6
 41
-30.0
 62
     5
 63
     7
 74
     1
 91
        4
 64
     7
 65
   257
 75
     1
175
     1
 42
1.0
 92
        0
 66
   257
 43
1.0
 76
     1
 77
     6
 78
     2
 67
     7
 79
     5
170
     0
171
     0
290
     0
174
     0
 93
        1
 44
0.0
173
     0
291
     0
 45
0.0
1001
ACAD
1000
AcDbSavedByObjectVersion
1070
     0
  0
VISUALSTYLE
  5
A124
102
{ACAD_XDICTIONARY
360
D163
102
}
102
{ACAD_REACTORS
330
A11C
102
}
330
A11C
100
AcDbVisualStyle
  2

 70
     6
 71
     1
 72
     2
 73
     2
 90
        0
 40
-0.6
 41
-30.0
 62
     5
 63
     7
 74
     2
 91
        2
 64
     7
 65
   257
 75
     2
175
     1
 42
40.0
 92
        0
 66
   257
 43
1.0
 76
     1
 77
     6
 78
     2
 67
     7
 79
     3
170
     0
171
     0
290
     0
174
     0
 93
        1
 44
0.0
173
     0
291
     0
 45
0.0
1001
ACAD
1000
AcDbSavedByObjectVersion
1070
     0
  0
VISUALSTYLE
  5
A123
102
{ACAD_XDICTIONARY
360
D161
102
}
102
{ACAD_REACTORS
330
A11C
102
}
330
A11C
100
AcDbVisualStyle
  2

 70
     5
 71
     0
 72
     2
 73
     0
 90
        0
 40
-0.6
 41
-30.0
 62
     5
 63
     7
 74
     1
 91
        4
 64
     7
 65
   257
 75
     1
175
     1
 42
1.0
 92
        0
 66
   257
 43
1.0
 76
     1
 77
     6
 78
     2
 67
     7
 79
     5
170
     0
171
     0
290
     0
174
     0
 93
        1
 44
0.0
173
     0
291
     0
 45
0.0
1001
ACAD
1000
AcDbSavedByObjectVersion
1070
     0
  0
VISUALSTYLE
  5
A121
102
{ACAD_XDICTIONARY
360
D15D
102
}
102
{ACAD_REACTORS
330
A11C
102
}
330
A11C
100
AcDbVisualStyle
  2

 70
     7
 71
     1
 72
     0
 73
     1
 90
        0
 40
-0.6
 41
-30.0
 62
     5
 63
     7
 74
     0
 91
        4
 64
     7
 65
   257
 75
     1
175
     1
 42
1.0
 92
        8
 66
     7
 43
1.0
 76
     1
 77
     6
 78
     2
 67
     7
 79
     5
170
     0
171
     0
290
     0
174
     0
 93
        1
 44
0.0
173
     0
291
     1
 45
0.0
1001
ACAD
1000
AcDbSavedByObjectVersion
1070
     0
  0
VISUALSTYLE
  5
A128
102
{ACAD_XDICTIONARY
360
D16B
102
}
102
{ACAD_REACTORS
330
A11C
102
}
330
A11C
100
AcDbVisualStyle
  2

 70
    12
 71
     2
 72
     2
 73
     0
 90
        0
 40
-0.6
 41
-30.0
 62
     5
 63
     7
 74
     1
 91
        4
 64
     7
 65
   257
 75
     1
175
     1
 42
1.0
 92
        8
 66
     7
 43
1.0
 76
     1
 77
     6
 78
     2
 67
     7
 79
     5
170
     0
171
     0
290
     0
174
     0
 93
        1
 44
50.0
173
     0
291
     1
 45
0.0
1001
ACAD
1000
AcDbSavedByObjectVersion
1070
     0
  0
VISUALSTYLE
  5
A12C
102
{ACAD_XDICTIONARY
360
D173
102
}
102
{ACAD_REACTORS
330
A11C
102
}
330
A11C
100
AcDbVisualStyle
  2

 70
    16
 71
     2
 72
     2
 73
     3
 90
        0
 40
-0.6
 41
-30.0
 62
     5
 63
     8
 74
     1
 91
        4
 64
     7
 65
   257
 75
     1
175
     1
 42
1.0
 92
        8
 66
     8
 43
1.0
 76
     1
 77
     6
 78
     2
 67
     7
 79
     5
170
     0
171
     0
290
     0
174
     0
 93
        1
 44
0.0
173
     0
291
     1
 45
0.0
1001
ACAD
1000
AcDbSavedByObjectVersion
1070
     0
  0
VISUALSTYLE
  5
A125
102
{ACAD_XDICTIONARY
360
D165
102
}
102
{ACAD_REACTORS
330
A11C
102
}
330
A11C
100
AcDbVisualStyle
  2

 70
     9
 71
     3
 72
     2
 73
     0
 90
        0
 40
-0.6
 41
-30.0
 62
     5
 63
     7
 74
     2
 91
        2
 64
     7
 65
   257
 75
     1
175
     1
 42
40.0
 92
        8
 66
     7
 43
1.0
 76
     1
 77
     6
 78
     2
 67
     7
 79
     3
170
     0
171
     0
290
     0
174
     0
 93
        1
 44
0.0
173
     0
291
     0
 45
0.0
1001
ACAD
1000
AcDbSavedByObjectVersion
1070
     0
  0
VISUALSTYLE
  5
A127
102
{ACAD_XDICTIONARY
360
D169
102
}
102
{ACAD_REACTORS
330
A11C
102
}
330
A11C
100
AcDbVisualStyle
  2

 70
    11
 71
     2
 72
     2
 73
     0
 90
        0
 40
-0.6
 41
-30.0
 62
     5
 63
     7
 74
     1
 91
        4
 64
     7
 65
   257
 75
     1
175
     1
 42
1.0
 92
        8
 66
     7
 43
1.0
 76
     1
 77
     6
 78
     2
 67
     7
 79
     5
170
     0
171
     0
290
     0
174
     0
 93
        1
 44
-50.0
173
     0
291
     1
 45
0.0
1001
ACAD
1000
AcDbSavedByObjectVersion
1070
     0
  0
VISUALSTYLE
  5
CFBC
102
{ACAD_XDICTIONARY
360
D188
102
}
102
{ACAD_REACTORS
330
A11C
102
}
330
A11C
100
AcDbVisualStyle
  2

 70
    22
 71
     2
 72
     2
 73
     0
 90
        0
 40
-0.6
 41
-30.0
 62
     5
 63
     7
 74
     1
 91
        4
 64
     7
 65
   257
 75
     1
175
     1
 42
1.0
 92
        8
 66
     7
 43
1.0
 76
     1
 77
     6
 78
     2
 67
     7
 79
     5
170
     0
171
     0
290
     0
174
     0
 93
        1
 44
0.0
173
     0
291
     1
 45
0.0
1001
ACAD
1000
AcDbSavedByObjectVersion
1070
     0
  0
VISUALSTYLE
  5
A12B
102
{ACAD_XDICTIONARY
360
D171
102
}
102
{ACAD_REACTORS
330
A11C
102
}
330
A11C
100
AcDbVisualStyle
  2

 70
    15
 71
     2
 72
     2
 73
     0
 90
        0
 40
-0.6
 41
-30.0
 62
     5
 63
     7
 74
     1
 91
        4
 64
     7
 65
   257
 75
     1
175
     1
 42
1.0
 92
        8
 66
     7
 43
1.0
 76
     1
 77
     6
 78
     2
 67
     7
 79
     5
170
     0
171
     0
290
     0
174
     0
 93
        1
 44
0.0
173
     0
291
     1
 45
0.0
1001
ACAD
1000
AcDbSavedByObjectVersion
1070
     0
  0
VISUALSTYLE
  5
A11D
102
{ACAD_XDICTIONARY
360
D155
102
}
102
{ACAD_REACTORS
330
A11C
102
}
330
A11C
100
AcDbVisualStyle
  2

 70
     0
 71
     2
 72
     1
 73
     1
 90
        2
 40
-0.6
 41
30.0
 62
     5
 63
     7
 74
     0
 91
        4
 64
     7
 65
   257
 75
     1
175
     1
 42
1.0
 92
        8
 66
     7
 43
1.0
 76
     1
 77
     6
 78
     2
 67
     7
 79
     5
170
     0
171
     0
290
     0
174
     0
 93
       13
 44
0.0
173
     0
291
     1
 45
0.0
1001
ACAD
1000
AcDbSavedByObjectVersion
1070
     0
  0
VISUALSTYLE
  5
A11E
102
{ACAD_XDICTIONARY
360
D157
102
}
102
{ACAD_REACTORS
330
A11C
102
}
330
A11C
100
AcDbVisualStyle
  2

 70
     1
 71
     2
 72
     1
 73
     1
 90
        2
 40
-0.6
 41
30.0
 62
     5
 63
     7
 74
     1
 91
        4
 64
     7
 65
   257
 75
     1
175
     1
 42
1.0
 92
        0
 66
   257
 43
1.0
 76
     1
 77
     6
 78
     2
 67
     7
 79
     5
170
     0
171
     0
290
     0
174
     0
 93
       13
 44
0.0
173
     0
291
     1
 45
0.0
1001
ACAD
1000
AcDbSavedByObjectVersion
1070
     0
  0
VISUALSTYLE
  5
A11F
102
{ACAD_XDICTIONARY
360
D159
102
}
102
{ACAD_REACTORS
330
A11C
102
}
330
A11C
100
AcDbVisualStyle
  2

 70
     2
 71
     2
 72
     2
 73
     1
 90
        2
 40
-0.6
 41
30.0
 62
     5
 63
     7
 74
     0
 91
        4
 64
     7
 65
   257
 75
     1
175
     1
 42
1.0
 92
        0
 66
     7
 43
1.0
 76
     1
 77
     6
 78
     2
 67
     7
 79
     5
170
     0
171
     0
290
     0
174
     0
 93
       13
 44
0.0
173
     0
291
     1
 45
0.0
1001
ACAD
1000
AcDbSavedByObjectVersion
1070
     0
  0
VISUALSTYLE
  5
A120
102
{ACAD_XDICTIONARY
360
D15B
102
}
102
{ACAD_REACTORS
330
A11C
102
}
330
A11C
100
AcDbVisualStyle
  2

 70
     3
 71
     2
 72
     2
 73
     1
 90
        2
 40
-0.6
 41
30.0
 62
     5
 63
     7
 74
     1
 91
        4
 64
     7
 65
   257
 75
     1
175
     1
 42
1.0
 92
        0
 66
   257
 43
1.0
 76
     1
 77
     6
 78
     2
 67
     7
 79
     5
170
     0
171
     0
290
     0
174
     0
 93
       13
 44
0.0
173
     0
291
     1
 45
0.0
1001
ACAD
1000
AcDbSavedByObjectVersion
1070
     0
  0
VISUALSTYLE
  5
CFB4
102
{ACAD_XDICTIONARY
360
D178
102
}
102
{ACAD_REACTORS
330
A11C
102
}
330
A11C
100
AcDbVisualStyle
  2

 70
     6
 71
     1
 72
     2
 73
     2
 90
        0
 40
-0.6
 41
-30.0
 62
     5
 63
     7
 74
     2
 91
        2
 64
     7
 65
   257
 75
     2
175
     1
 42
40.0
 92
        0
 66
   257
 43
1.0
 76
     1
 77
     6
 78
     2
 67
     7
 79
     3
170
     0
171
     0
290
     0
174
     0
 93
        1
 44
0.0
173
     0
291
     0
 45
0.0
1001
ACAD
1000
AcDbSavedByObjectVersion
1070
     0
  0
VISUALSTYLE
  5
CFBA
102
{ACAD_XDICTIONARY
360
D184
102
}
102
{ACAD_REACTORS
330
A11C
102
}
330
A11C
100
AcDbVisualStyle
  2

 70
    20
 71
     2
 72
     2
 73
     0
 90
        0
 40
-0.6
 41
-30.0
 62
     5
 63
     7
 74
     1
 91
        4
 64
     7
 65
   257
 75
     1
175
     1
 42
1.0
 92
       10
 66
     7
 43
1.0
 76
     1
 77
     6
 78
     2
 67
     7
 79
     5
170
     0
171
     0
290
     0
174
     0
 93
        1
 44
0.0
173
     0
291
     1
 45
0.0
1001
ACAD
1000
AcDbSavedByObjectVersion
1070
     0
  0
VISUALSTYLE
  5
A12A
102
{ACAD_XDICTIONARY
360
D16F
102
}
102
{ACAD_REACTORS
330
A11C
102
}
330
A11C
100
AcDbVisualStyle
  2

 70
    14
 71
     2
 72
     2
 73
     0
 90
        0
 40
-0.6
 41
-30.0
 62
     5
 63
     7
 74
     1
 91
        4
 64
     7
 65
   257
 75
     7
175
     7
 42
1.0
 92
        8
 66
     7
 43
1.0
 76
     1
 77
     6
 78
     2
 67
     7
 79
     5
170
     0
171
     0
290
     0
174
     0
 93
        1
 44
0.0
173
     0
291
     1
 45
0.0
1001
ACAD
1000
AcDbSavedByObjectVersion
1070
     0
  0
VISUALSTYLE
  5
CFBB
102
{ACAD_XDICTIONARY
360
D186
102
}
102
{ACAD_REACTORS
330
A11C
102
}
330
A11C
100
AcDbVisualStyle
  2

 70
    21
 71
     2
 72
     2
 73
     0
 90
        0
 40
-0.6
 41
-30.0
 62
     5
 63
     7
 74
     1
 91
        4
 64
     7
 65
   257
 75
     1
175
     1
 42
1.0
 92
        9
 66
     7
 43
1.0
 76
     1
 77
     6
 78
     2
 67
     7
 79
     5
170
     0
171
     0
290
     0
174
     0
 93
        1
 44
0.0
173
     0
291
     1
 45
0.0
1001
ACAD
1000
AcDbSavedByObjectVersion
1070
     0
  0
VISUALSTYLE
  5
A126
102
{ACAD_XDICTIONARY
360
D167
102
}
102
{ACAD_REACTORS
330
A11C
102
}
330
A11C
100
AcDbVisualStyle
  2

 70
     8
 71
     2
 72
     2
 73
     0
 90
        0
 40
-0.6
 41
-30.0
 62
     5
 63
     7
 74
     1
 91
        0
 64
     7
 65
   257
 75
     1
175
     1
 42
1.0
 92
        8
 66
     8
 43
1.0
 76
     1
 77
     6
 78
     2
 67
     7
 79
     5
170
     0
171
     0
290
     0
174
     0
 93
       13
 44
0.0
173
     0
291
     0
 45
0.0
1001
ACAD
1000
AcDbSavedByObjectVersion
1070
     0
  0
VISUALSTYLE
  5
CFB9
102
{ACAD_XDICTIONARY
360
D182
102
}
102
{ACAD_REACTORS
330
A11C
102
}
330
A11C
100
AcDbVisualStyle
  2

 70
    27
 71
     2
 72
     2
 73
     1
 90
        2
 40
-0.6
 41
30.0
 62
     5
 63
     7
 74
     0
 91
        4
 64
     7
 65
   257
 75
     1
175
     1
 42
1.0
 92
        8
 66
   257
 43
1.0
 76
     1
 77
     6
 78
     2
 67
     8
 79
     3
170
     0
171
     0
290
     0
174
     0
 93
        5
 44
0.0
173
     0
291
     0
 45
0.0
1001
ACAD
1000
AcDbSavedByObjectVersion
1070
     0
  0
VISUALSTYLE
  5
CFB8
102
{ACAD_XDICTIONARY
360
D180
102
}
102
{ACAD_REACTORS
330
A11C
102
}
330
A11C
100
AcDbVisualStyle
  2

 70
    26
 71
     2
 72
     2
 73
     1
 90
        2
 40
-0.6
 41
30.0
 62
     5
 63
     7
 74
     1
 91
       10
 64
     7
 65
   257
 75
     2
175
     1
 42
1.0
 92
        8
 66
   257
 43
1.0
 76
     1
 77
     6
 78
     2
 67
     7
 79
     3
170
     0
171
     0
290
     0
174
     0
 93
        5
 44
0.0
173
     0
291
     0
 45
0.0
1001
ACAD
1000
AcDbSavedByObjectVersion
1070
     0
  0
VISUALSTYLE
  5
CFB5
102
{ACAD_XDICTIONARY
360
D17A
102
}
102
{ACAD_REACTORS
330
A11C
102
}
330
A11C
100
AcDbVisualStyle
  2

 70
    23
 71
     2
 72
     2
 73
     3
 90
        0
 40
-0.6
 41
-30.0
 62
     5
 63
     7
 74
     2
 91
        2
 64
     7
 65
     7
 75
     1
175
     1
 42
40.0
 92
        8
 66
     7
 43
1.0
 76
     1
 77
     6
 78
     2
 67
     7
 79
     3
170
     0
171
     0
290
     0
174
     0
 93
        1
 44
0.0
173
     0
291
     0
 45
0.0
1001
ACAD
1000
AcDbSavedByObjectVersion
1070
     0
  0
VISUALSTYLE
  5
CFB6
102
{ACAD_XDICTIONARY
360
D17C
102
}
102
{ACAD_REACTORS
330
A11C
102
}
330
A11C
100
AcDbVisualStyle
  2

 70
    24
 71
     1
 72
     2
 73
     2
 90
        0
 40
-0.6
 41
-30.0
 62
     5
 63
     7
 74
     2
 91
        2
 64
     7
 65
     7
 75
     1
175
     1
 42
40.0
 92
       11
 66
     7
 43
1.0
 76
     1
 77
     6
 78
     2
 67
     7
 79
     6
170
     0
171
     0
290
     0
174
     0
 93
        1
 44
0.0
173
     0
291
     0
 45
0.0
1001
ACAD
1000
AcDbSavedByObjectVersion
1070
     0
  0
VISUALSTYLE
  5
A129
102
{ACAD_XDICTIONARY
360
D16D
102
}
102
{ACAD_REACTORS
330
A11C
102
}
330
A11C
100
AcDbVisualStyle
  2

 70
    13
 71
     2
 72
     2
 73
     0
 90
        0
 40
-0.6
 41
-30.0
 62
     5
 63
     7
 74
     1
 91
        4
 64
     7
 65
   257
 75
     1
175
     1
 42
1.0
 92
       12
 66
     7
 43
1.0
 76
     1
 77
     6
 78
     2
 67
     7
 79
     5
170
     0
171
     0
290
     0
174
     0
 93
        1
 44
0.0
173
     0
291
     1
 45
0.0
1001
ACAD
1000
AcDbSavedByObjectVersion
1070
     0
  0
VISUALSTYLE
  5
CFB3
102
{ACAD_XDICTIONARY
360
D176
102
}
102
{ACAD_REACTORS
330
A11C
102
}
330
A11C
100
AcDbVisualStyle
  2

 70
     5
 71
     0
 72
     2
 73
     0
 90
        0
 40
-0.6
 41
-30.0
 62
     5
 63
     7
 74
     1
 91
        4
 64
     7
 65
   257
 75
     1
175
     1
 42
1.0
 92
        0
 66
   257
 43
1.0
 76
     1
 77
     6
 78
     2
 67
     7
 79
     3
170
     0
171
     0
290
     0
174
     0
 93
        1
 44
0.0
173
     0
291
     0
 45
0.0
1001
ACAD
1000
AcDbSavedByObjectVersion
1070
     0
  0
VISUALSTYLE
  5
CFB7
102
{ACAD_XDICTIONARY
360
D17E
102
}
102
{ACAD_REACTORS
330
A11C
102
}
330
A11C
100
AcDbVisualStyle
  2

 70
    25
 71
     2
 72
     2
 73
     1
 90
        1
 40
0.5
 41
-30.0
 62
     5
 63
     7
 74
     1
 91
        0
 64
     7
 65
   257
 75
     1
175
     1
 42
1.0
 92
        8
 66
     7
 43
1.0
 76
     1
 77
     6
 78
     2
 67
     7
 79
     3
170
     0
171
     0
290
     0
174
     0
 93
       13
 44
0.0
173
     0
291
     0
 45
0.0
1001
ACAD
1000
AcDbSavedByObjectVersion
1070
     0
  0
DICTIONARYVAR
  5
A101
102
{ACAD_REACTORS
330
1237
102
}
330
1237
100
DictionaryVariables
280
     0
  1
1:1
  0
DICTIONARYVAR
  5
A2B4
102
{ACAD_REACTORS
330
1237
102
}
330
1237
100
DictionaryVariables
280
     0
  1
STANDARD
  0
DICTIONARYVAR
  5
A2B3
102
{ACAD_REACTORS
330
1237
102
}
330
1237
100
DictionaryVariables
280
     0
  1
STANDARD
  0
DICTIONARYVAR
  5
D100
102
{ACAD_REACTORS
330
1237
102
}
330
1237
100
DictionaryVariables
280
     0
  1
Metric50
  0
DICTIONARYVAR
  5
D101
102
{ACAD_REACTORS
330
1237
102
}
330
1237
100
DictionaryVariables
280
     0
  1
Metric50
  0
DICTIONARYVAR
  5
9CC6
102
{ACAD_REACTORS
330
1237
102
}
330
1237
100
DictionaryVariables
280
     0
  1
1
  0
DICTIONARYVAR
  5
9CC5
102
{ACAD_REACTORS
330
1237
102
}
330
1237
100
DictionaryVariables
280
     0
  1
0
  0
DICTIONARYVAR
  5
1238
102
{ACAD_REACTORS
330
1237
102
}
330
1237
100
DictionaryVariables
280
     0
  1
96
  0
DICTIONARYVAR
  5
D14D
102
{ACAD_REACTORS
330
1237
102
}
330
1237
100
DictionaryVariables
280
     0
  1
2
  0
XRECORD
  5
A0EE
102
{ACAD_REACTORS
330
A0ED
102
}
330
A0ED
100
AcDbXrecord
280
     1
 91
     1023
301

290
     0
302
1
330
F
 90
        8
 62
     2
370
    -3
331
14
  1
Color_2
330
30
 90
        0
 62
     7
370
    -3
331
14
  1
Color_7
330
526
 90
        8
 62
     1
370
    -3
331
14
  1
Color_1
330
138F
 90
        8
 62
     6
370
    -3
331
C0D
  1
Color_6
330
1390
 90
        8
 62
     7
370
    -3
331
14
  1
Color_7
  0
DICTIONARY
  5
D18C
330
CFC0
100
AcDbDictionary
280
     1
281
     1
  3
ACAD_XREC_ROUNDTRIP
360
D18D
  0
DICTIONARY
  5
D151
330
1C64
100
AcDbDictionary
280
     1
281
     1
  3
ACAD_XREC_ROUNDTRIP
360
D152
  0
DICTIONARY
  5
D153
330
1C65
100
AcDbDictionary
280
     1
281
     1
  3
ACAD_XREC_ROUNDTRIP
360
D154
  0
DICTIONARY
  5
A10D
330
A10C
100
AcDbDictionary
280
     1
281
     1
  3
ACAD_XREC_ROUNDTRIP
360
A2BF
  3
BUMPTILE
360
A10F
  3
DIFFUSETILE
360
A10E
  3
OPACITYTILE
360
A112
  3
REFLECTIONTILE
360
A111
  3
REFRACTIONTILE
360
A113
  3
SPECULARTILE
360
A110
  0
DICTIONARY
  5
A105
330
A104
100
AcDbDictionary
280
     1
281
     1
  3
ACAD_XREC_ROUNDTRIP
360
A2BE
  3
BUMPTILE
360
A107
  3
DIFFUSETILE
360
A106
  3
OPACITYTILE
360
A10A
  3
REFLECTIONTILE
360
A109
  3
REFRACTIONTILE
360
A10B
  3
SPECULARTILE
360
A108
  0
DICTIONARY
  5
A115
330
A114
100
AcDbDictionary
280
     1
281
     1
  3
ACAD_XREC_ROUNDTRIP
360
A2C0
  3
BUMPTILE
360
A117
  3
DIFFUSETILE
360
A116
  3
OPACITYTILE
360
A11A
  3
REFLECTIONTILE
360
A119
  3
REFRACTIONTILE
360
A11B
  3
SPECULARTILE
360
A118
  0
DICTIONARY
  5
D18A
330
CFBE
100
AcDbDictionary
280
     1
281
     1
  3
ACAD_XREC_ROUNDTRIP
360
D18B
  0
DICTIONARY
  5
A2B5
330
A12F
100
AcDbDictionary
280
     1
281
     1
  3
ACAD_ROUNDTRIP_2008_TABLESTYLE_CELLSTYLEMAP
360
D14E
  3
ACAD_XREC_ROUNDTRIP
360
D175
  0
DICTIONARY
  5
D15F
330
A122
100
AcDbDictionary
280
     1
281
     1
  3
ACAD_XREC_ROUNDTRIP
360
D160
  0
DICTIONARY
  5
D163
330
A124
100
AcDbDictionary
280
     1
281
     1
  3
ACAD_XREC_ROUNDTRIP
360
D164
  0
DICTIONARY
  5
D161
330
A123
100
AcDbDictionary
280
     1
281
     1
  3
ACAD_XREC_ROUNDTRIP
360
D162
  0
DICTIONARY
  5
D15D
330
A121
100
AcDbDictionary
280
     1
281
     1
  3
ACAD_XREC_ROUNDTRIP
360
D15E
  0
DICTIONARY
  5
D16B
330
A128
100
AcDbDictionary
280
     1
281
     1
  3
ACAD_XREC_ROUNDTRIP
360
D16C
  0
DICTIONARY
  5
D173
330
A12C
100
AcDbDictionary
280
     1
281
     1
  3
ACAD_XREC_ROUNDTRIP
360
D174
  0
DICTIONARY
  5
D165
330
A125
100
AcDbDictionary
280
     1
281
     1
  3
ACAD_XREC_ROUNDTRIP
360
D166
  0
DICTIONARY
  5
D169
330
A127
100
AcDbDictionary
280
     1
281
     1
  3
ACAD_XREC_ROUNDTRIP
360
D16A
  0
DICTIONARY
  5
D188
330
CFBC
100
AcDbDictionary
280
     1
281
     1
  3
ACAD_XREC_ROUNDTRIP
360
D189
  0
DICTIONARY
  5
D171
330
A12B
100
AcDbDictionary
280
     1
281
     1
  3
ACAD_XREC_ROUNDTRIP
360
D172
  0
DICTIONARY
  5
D155
330
A11D
100
AcDbDictionary
280
     1
281
     1
  3
ACAD_XREC_ROUNDTRIP
360
D156
  0
DICTIONARY
  5
D157
330
A11E
100
AcDbDictionary
280
     1
281
     1
  3
ACAD_XREC_ROUNDTRIP
360
D158
  0
DICTIONARY
  5
D159
330
A11F
100
AcDbDictionary
280
     1
281
     1
  3
ACAD_XREC_ROUNDTRIP
360
D15A
  0
DICTIONARY
  5
D15B
330
A120
100
AcDbDictionary
280
     1
281
     1
  3
ACAD_XREC_ROUNDTRIP
360
D15C
  0
DICTIONARY
  5
D178
330
CFB4
100
AcDbDictionary
280
     1
281
     1
  3
ACAD_XREC_ROUNDTRIP
360
D179
  0
DICTIONARY
  5
D184
330
CFBA
100
AcDbDictionary
280
     1
281
     1
  3
ACAD_XREC_ROUNDTRIP
360
D185
  0
DICTIONARY
  5
D16F
330
A12A
100
AcDbDictionary
280
     1
281
     1
  3
ACAD_XREC_ROUNDTRIP
360
D170
  0
DICTIONARY
  5
D186
330
CFBB
100
AcDbDictionary
280
     1
281
     1
  3
ACAD_XREC_ROUNDTRIP
360
D187
  0
DICTIONARY
  5
D167
330
A126
100
AcDbDictionary
280
     1
281
     1
  3
ACAD_XREC_ROUNDTRIP
360
D168
  0
DICTIONARY
  5
D182
330
CFB9
100
AcDbDictionary
280
     1
281
     1
  3
ACAD_XREC_ROUNDTRIP
360
D183
  0
DICTIONARY
  5
D180
330
CFB8
100
AcDbDictionary
280
     1
281
     1
  3
ACAD_XREC_ROUNDTRIP
360
D181
  0
DICTIONARY
  5
D17A
330
CFB5
100
AcDbDictionary
280
     1
281
     1
  3
ACAD_XREC_ROUNDTRIP
360
D17B
  0
DICTIONARY
  5
D17C
330
CFB6
100
AcDbDictionary
280
     1
281
     1
  3
ACAD_XREC_ROUNDTRIP
360
D17D
  0
DICTIONARY
  5
D16D
330
A129
100
AcDbDictionary
280
     1
281
     1
  3
ACAD_XREC_ROUNDTRIP
360
D16E
  0
DICTIONARY
  5
D176
330
CFB3
100
AcDbDictionary
280
     1
281
     1
  3
ACAD_XREC_ROUNDTRIP
360
D177
  0
DICTIONARY
  5
D17E
330
CFB7
100
AcDbDictionary
280
     1
281
     1
  3
ACAD_XREC_ROUNDTRIP
360
D17F
  0
XRECORD
  5
D18D
102
{ACAD_REACTORS
330
D18C
102
}
330
D18C
100
AcDbXrecord
280
     1
102
DISPLAYNAME
  1
Metric50
102
FLAGS
 90
        0
  0
XRECORD
  5
D152
102
{ACAD_REACTORS
330
D151
102
}
330
D151
100
AcDbXrecord
280
     1
102
SHADEPLOT
 70
     0
102
SHADEPLOTRESLEVEL
 70
     2
102
SHADEPLOTCUSTOMDPI
 70
   300
  0
XRECORD
  5
D154
102
{ACAD_REACTORS
330
D153
102
}
330
D153
100
AcDbXrecord
280
     1
102
SHADEPLOT
 70
     0
102
SHADEPLOTRESLEVEL
 70
     2
102
SHADEPLOTCUSTOMDPI
 70
   300
  0
XRECORD
  5
A2BF
102
{ACAD_REACTORS
330
A10D
102
}
330
A10D
100
AcDbXrecord
280
     1
102
MATERIAL
148
0.0
149
0.0
149
0.0
 93
        0
 94
      127
282
     0
 72
     0
 77
     0
171
     0
175
     0
179
     0
273
     0
  0
XRECORD
  5
A10F
102
{ACAD_REACTORS
330
A10D
102
}
330
A10D
100
AcDbXrecord
280
     1
270
     1
271
     1
  0
XRECORD
  5
A10E
102
{ACAD_REACTORS
330
A10D
102
}
330
A10D
100
AcDbXrecord
280
     1
270
     1
271
     1
  0
XRECORD
  5
A112
102
{ACAD_REACTORS
330
A10D
102
}
330
A10D
100
AcDbXrecord
280
     1
270
     1
271
     1
  0
XRECORD
  5
A111
102
{ACAD_REACTORS
330
A10D
102
}
330
A10D
100
AcDbXrecord
280
     1
270
     1
271
     1
  0
XRECORD
  5
A113
102
{ACAD_REACTORS
330
A10D
102
}
330
A10D
100
AcDbXrecord
280
     1
270
     1
271
     1
  0
XRECORD
  5
A110
102
{ACAD_REACTORS
330
A10D
102
}
330
A10D
100
AcDbXrecord
280
     1
270
     1
271
     1
  0
XRECORD
  5
A2BE
102
{ACAD_REACTORS
330
A105
102
}
330
A105
100
AcDbXrecord
280
     1
102
MATERIAL
148
0.0
149
0.0
149
0.0
 93
        0
 94
      127
282
     0
 72
     0
 77
     0
171
     0
175
     0
179
     0
273
     0
  0
XRECORD
  5
A107
102
{ACAD_REACTORS
330
A105
102
}
330
A105
100
AcDbXrecord
280
     1
270
     1
271
     1
  0
XRECORD
  5
A106
102
{ACAD_REACTORS
330
A105
102
}
330
A105
100
AcDbXrecord
280
     1
270
     1
271
     1
  0
XRECORD
  5
A10A
102
{ACAD_REACTORS
330
A105
102
}
330
A105
100
AcDbXrecord
280
     1
270
     1
271
     1
  0
XRECORD
  5
A109
102
{ACAD_REACTORS
330
A105
102
}
330
A105
100
AcDbXrecord
280
     1
270
     1
271
     1
  0
XRECORD
  5
A10B
102
{ACAD_REACTORS
330
A105
102
}
330
A105
100
AcDbXrecord
280
     1
270
     1
271
     1
  0
XRECORD
  5
A108
102
{ACAD_REACTORS
330
A105
102
}
330
A105
100
AcDbXrecord
280
     1
270
     1
271
     1
  0
XRECORD
  5
A2C0
102
{ACAD_REACTORS
330
A115
102
}
330
A115
100
AcDbXrecord
280
     1
102
MATERIAL
148
0.0
149
0.0
149
0.0
 93
        0
 94
      127
282
     0
 72
     0
 77
     0
171
     0
175
     0
179
     0
273
     0
  0
XRECORD
  5
A117
102
{ACAD_REACTORS
330
A115
102
}
330
A115
100
AcDbXrecord
280
     1
270
     1
271
     1
  0
XRECORD
  5
A116
102
{ACAD_REACTORS
330
A115
102
}
330
A115
100
AcDbXrecord
280
     1
270
     1
271
     1
  0
XRECORD
  5
A11A
102
{ACAD_REACTORS
330
A115
102
}
330
A115
100
AcDbXrecord
280
     1
270
     1
271
     1
  0
XRECORD
  5
A119
102
{ACAD_REACTORS
330
A115
102
}
330
A115
100
AcDbXrecord
280
     1
270
     1
271
     1
  0
XRECORD
  5
A11B
102
{ACAD_REACTORS
330
A115
102
}
330
A115
100
AcDbXrecord
280
     1
270
     1
271
     1
  0
XRECORD
  5
A118
102
{ACAD_REACTORS
330
A115
102
}
330
A115
100
AcDbXrecord
280
     1
270
     1
271
     1
  0
XRECORD
  5
D18B
102
{ACAD_REACTORS
330
D18A
102
}
330
D18A
100
AcDbXrecord
280
     1
102
DISPLAYNAME
  1
Metric50
102
FLAGS
 90
        0
  0
CELLSTYLEMAP
  5
D14E
102
{ACAD_REACTORS
330
A2B5
102
}
330
A2B5
100
AcDbCellStyleMap
 90
        3
300
CELLSTYLE
  1
TABLEFORMAT_BEGIN
 90
        5
170
     1
 91
        0
 92
    32768
 62
   257
 93
        1
300
CONTENTFORMAT
  1
CONTENTFORMAT_BEGIN
 90
        0
 91
        0
 92
      512
 93
        0
300

 40
0.0
140
1.0
 94
        5
 62
     0
340
10
144
6.0
309
CONTENTFORMAT_END
171
     1
301
MARGIN
  1
CELLMARGIN_BEGIN
 40
1.5
 40
1.5
 40
1.5
 40
1.5
 40
0.18
 40
0.18
309
CELLMARGIN_END
 94
        6
 95
        1
302
GRIDFORMAT
  1
GRIDFORMAT_BEGIN
 90
        0
 91
        1
 62
     0
 92
       -2
340
0
 93
        0
 40
1.125
309
GRIDFORMAT_END
 95
        2
302
GRIDFORMAT
  1
GRIDFORMAT_BEGIN
 90
        0
 91
        1
 62
     0
 92
       -2
340
0
 93
        0
 40
1.125
309
GRIDFORMAT_END
 95
        4
302
GRIDFORMAT
  1
GRIDFORMAT_BEGIN
 90
        0
 91
        1
 62
     0
 92
       -2
340
0
 93
        0
 40
1.125
309
GRIDFORMAT_END
 95
        8
302
GRIDFORMAT
  1
GRIDFORMAT_BEGIN
 90
        0
 91
        1
 62
     0
 92
       -2
340
0
 93
        0
 40
1.125
309
GRIDFORMAT_END
 95
       16
302
GRIDFORMAT
  1
GRIDFORMAT_BEGIN
 90
        0
 91
        1
 62
     0
 92
       -2
340
0
 93
        0
 40
1.125
309
GRIDFORMAT_END
 95
       32
302
GRIDFORMAT
  1
GRIDFORMAT_BEGIN
 90
        0
 91
        1
 62
     0
 92
       -2
340
0
 93
        0
 40
1.125
309
GRIDFORMAT_END
309
TABLEFORMAT_END
  1
CELLSTYLE_BEGIN
 90
        1
 91
        1
300
_TITLE
309
CELLSTYLE_END
300
CELLSTYLE
  1
TABLEFORMAT_BEGIN
 90
        5
170
     1
 91
        0
 92
        0
 62
   257
 93
        1
300
CONTENTFORMAT
  1
CONTENTFORMAT_BEGIN
 90
        0
 91
        0
 92
      512
 93
        0
300

 40
0.0
140
1.0
 94
        5
 62
     0
340
10
144
4.5
309
CONTENTFORMAT_END
171
     1
301
MARGIN
  1
CELLMARGIN_BEGIN
 40
1.5
 40
1.5
 40
1.5
 40
1.5
 40
0.18
 40
0.18
309
CELLMARGIN_END
 94
        6
 95
        1
302
GRIDFORMAT
  1
GRIDFORMAT_BEGIN
 90
        0
 91
        1
 62
     0
 92
       -2
340
0
 93
        0
 40
1.125
309
GRIDFORMAT_END
 95
        2
302
GRIDFORMAT
  1
GRIDFORMAT_BEGIN
 90
        0
 91
        1
 62
     0
 92
       -2
340
0
 93
        0
 40
1.125
309
GRIDFORMAT_END
 95
        4
302
GRIDFORMAT
  1
GRIDFORMAT_BEGIN
 90
        0
 91
        1
 62
     0
 92
       -2
340
0
 93
        0
 40
1.125
309
GRIDFORMAT_END
 95
        8
302
GRIDFORMAT
  1
GRIDFORMAT_BEGIN
 90
        0
 91
        1
 62
     0
 92
       -2
340
0
 93
        0
 40
1.125
309
GRIDFORMAT_END
 95
       16
302
GRIDFORMAT
  1
GRIDFORMAT_BEGIN
 90
        0
 91
        1
 62
     0
 92
       -2
340
0
 93
        0
 40
1.125
309
GRIDFORMAT_END
 95
       32
302
GRIDFORMAT
  1
GRIDFORMAT_BEGIN
 90
        0
 91
        1
 62
     0
 92
       -2
340
0
 93
        0
 40
1.125
309
GRIDFORMAT_END
309
TABLEFORMAT_END
  1
CELLSTYLE_BEGIN
 90
        2
 91
        1
300
_HEADER
309
CELLSTYLE_END
300
CELLSTYLE
  1
TABLEFORMAT_BEGIN
 90
        5
170
     1
 91
        0
 92
        0
 62
   257
 93
        1
300
CONTENTFORMAT
  1
CONTENTFORMAT_BEGIN
 90
        0
 91
        0
 92
      512
 93
        0
300

 40
0.0
140
1.0
 94
        2
 62
     0
340
10
144
4.5
309
CONTENTFORMAT_END
171
     1
301
MARGIN
  1
CELLMARGIN_BEGIN
 40
1.5
 40
1.5
 40
1.5
 40
1.5
 40
0.18
 40
0.18
309
CELLMARGIN_END
 94
        6
 95
        1
302
GRIDFORMAT
  1
GRIDFORMAT_BEGIN
 90
        0
 91
        1
 62
     0
 92
       -2
340
0
 93
        0
 40
1.125
309
GRIDFORMAT_END
 95
        2
302
GRIDFORMAT
  1
GRIDFORMAT_BEGIN
 90
        0
 91
        1
 62
     0
 92
       -2
340
0
 93
        0
 40
1.125
309
GRIDFORMAT_END
 95
        4
302
GRIDFORMAT
  1
GRIDFORMAT_BEGIN
 90
        0
 91
        1
 62
     0
 92
       -2
340
0
 93
        0
 40
1.125
309
GRIDFORMAT_END
 95
        8
302
GRIDFORMAT
  1
GRIDFORMAT_BEGIN
 90
        0
 91
        1
 62
     0
 92
       -2
340
0
 93
        0
 40
1.125
309
GRIDFORMAT_END
 95
       16
302
GRIDFORMAT
  1
GRIDFORMAT_BEGIN
 90
        0
 91
        1
 62
     0
 92
       -2
340
0
 93
        0
 40
1.125
309
GRIDFORMAT_END
 95
       32
302
GRIDFORMAT
  1
GRIDFORMAT_BEGIN
 90
        0
 91
        1
 62
     0
 92
       -2
340
0
 93
        0
 40
1.125
309
GRIDFORMAT_END
309
TABLEFORMAT_END
  1
CELLSTYLE_BEGIN
 90
        3
 91
        2
300
_DATA
309
CELLSTYLE_END
  0
XRECORD
  5
D175
102
{ACAD_REACTORS
330
A2B5
102
}
330
A2B5
100
AcDbXrecord
280
     1
102
ACAD_ROUNDTRIP_PRE2007_TABLESTYLE
 90
      512
 91
        0
  1

 92
      512
 93
        0
  2

 94
      512
 95
        0
  3

  0
XRECORD
  5
D160
102
{ACAD_REACTORS
330
D15F
102
}
330
D15F
100
AcDbXrecord
280
     1
102
RTVSPost2010Prop28
280
     1
102
RTVSPost2010PropOp28
 70
     1
102
RTVSPost2010Prop29
280
     1
102
RTVSPost2010PropOp29
 70
     1
102
RTVSPost2010Prop30
280
     0
102
RTVSPost2010PropOp30
 70
     1
102
RTVSPost2010Prop31
280
     0
102
RTVSPost2010PropOp31
 70
     1
102
RTVSPost2010Prop32
280
     0
102
RTVSPost2010PropOp32
 70
     1
102
RTVSPost2010Prop33
280
     0
102
RTVSPost2010PropOp33
 70
     1
102
RTVSPost2010Prop34
280
     0
102
RTVSPost2010PropOp34
 70
     1
102
RTVSPost2010Prop35
280
     0
102
RTVSPost2010PropOp35
 70
     1
102
RTVSPost2010Prop36
280
     0
102
RTVSPost2010PropOp36
 70
     1
102
RTVSPost2010Prop37
 90
       50
102
RTVSPost2010PropOp37
 70
     1
102
RTVSPost2010Prop38
140
0.0
102
RTVSPost2010PropOp38
 70
     1
102
RTVSPost2010Prop39
140
1.0
102
RTVSPost2010PropOp39
 70
     1
102
RTVSPost2010Prop40
 90
        0
102
RTVSPost2010PropOp40
 70
     1
102
RTVSPost2010Prop41ColorIndex
 90
       18
102
RTVSPost2010Prop41ColorRGB
 90
        0
102
RTVSPost2010PropOp41
 70
     1
102
RTVSPost2010Prop42
 90
       50
102
RTVSPost2010PropOp42
 70
     1
102
RTVSPost2010Prop43
 90
        3
102
RTVSPost2010PropOp43
 70
     1
102
RTVSPost2010Prop44ColorIndex
 90
        5
102
RTVSPost2010Prop44ColorRGB
 90
      255
102
RTVSPost2010PropOp44
 70
     1
102
RTVSPost2010Prop45
280
     0
102
RTVSPost2010PropOp45
 70
     1
102
RTVSPost2010Prop46
 90
       50
102
RTVSPost2010PropOp46
 70
     1
102
RTVSPost2010Prop47
 90
       50
102
RTVSPost2010PropOp47
 70
     1
102
RTVSPost2010Prop48
 90
       50
102
RTVSPost2010PropOp48
 70
     1
102
RTVSPost2010Prop49
280
     0
102
RTVSPost2010PropOp49
 70
     1
102
RTVSPost2010Prop50
 90
       50
102
RTVSPost2010PropOp50
 70
     1
102
RTVSPost2010Prop51ColorIndex
 90
      256
102
RTVSPost2010Prop51ColorRGB
 90
-16777216
102
RTVSPost2010PropOp51
 70
     0
102
RTVSPost2010Prop52
140
1.0
102
RTVSPost2010PropOp52
 70
     0
102
RTVSPost2010Prop53
 90
        2
102
RTVSPost2010PropOp53
 70
     1
102
RTVSPost2010Prop54
  1
strokes_ogs.tif
102
RTVSPost2010PropOp54
 70
     1
102
RTVSPost2010Prop55
280
     0
102
RTVSPost2010PropOp55
 70
     1
102
RTVSPost2010Prop56
140
1.0
102
RTVSPost2010PropOp56
 70
     1
102
RTVSPost2010Prop57
140
1.0
102
RTVSPost2010PropOp57
 70
     1
102
RTVSPropertyOp0
 70
     1
102
RTVSPropertyOp1
 70
     1
102
RTVSPropertyOp2
 70
     1
102
RTVSPropertyOp3
 70
     1
102
RTVSPropertyOp4
 70
     1
102
RTVSPropertyOp5
 70
     1
102
RTVSPropertyOp6
 70
     1
102
RTVSPropertyOp7
 70
     1
102
RTVSPropertyOp8
 70
     1
102
RTVSPropertyOp9
 70
     1
102
RTVSPropertyOp10
 70
     1
102
RTVSPropertyOp11
 70
     1
102
RTVSPropertyOp12
 70
     1
102
RTVSPropertyOp13
 70
     1
102
RTVSPropertyOp14
 70
     1
102
RTVSPropertyOp15
 70
     1
102
RTVSPropertyOp16
 70
     1
102
RTVSPropertyOp17
 70
     1
102
RTVSPropertyOp18
 70
     1
102
RTVSPropertyOp19
 70
     1
102
RTVSPropertyOp20
 70
     1
102
RTVSPropertyOp21
 70
     1
102
RTVSPropertyOp22
 70
     1
102
RTVSPropertyOp23
 70
     1
102
RTVSPropertyOp24
 70
     1
102
RTVSPropertyOp25
 70
     1
102
RTVSPropertyOp26
 70
     1
102
RTVSPropertyOp27
 70
     1
102
RTVSPropertyOp28
 70
     1
102
RTVSPropertyOp29
 70
     1
102
RTVSPropertyOp30
 70
     1
102
RTVSPropertyOp31
 70
     1
102
RTVSPropertyOp32
 70
     1
102
RTVSPropertyOp33
 70
     1
102
RTVSPropertyOp34
 70
     1
102
RTVSPropertyOp35
 70
     1
102
RTVSPropertyOp36
 70
     1
102
RTVSPropertyOp37
 70
     1
102
RTVSPropertyOp38
 70
     1
102
RTVSPropertyOp39
 70
     1
102
RTVSPropertyOp40
 70
     1
102
RTVSPropertyOp41
 70
     1
102
RTVSPropertyOp42
 70
     1
102
RTVSPropertyOp43
 70
     1
102
RTVSPropertyOp44
 70
     1
102
RTVSPropertyOp45
 70
     1
102
RTVSPropertyOp46
 70
     1
102
RTVSPropertyOp47
 70
     1
102
RTVSPropertyOp48
 70
     1
102
RTVSPropertyOp49
 70
     1
102
RTVSPropertyOp50
 70
     1
102
RTVSPropertyOp51
 70
     0
102
RTVSPropertyOp52
 70
     0
102
RTVSPropertyOp53
 70
     1
102
RTVSPropertyOp54
 70
     1
102
RTVSPropertyOp55
 70
     1
102
RTVSPropertyOp56
 70
     1
102
RTVSPropertyOp57
 70
     1
102
RTVSPropertyOp58
 70
     1
102
RTVSPropertyOp59
 70
     1
102
RTVSPropertyOp60
 70
     1
102
RTVSPropertyOp61
 70
     1
102
RTVSPropertyOp62
 70
     1
  0
XRECORD
  5
D164
102
{ACAD_REACTORS
330
D163
102
}
330
D163
100
AcDbXrecord
280
     1
102
RTVSPost2010Prop28
280
     0
102
RTVSPost2010PropOp28
 70
     1
102
RTVSPost2010Prop29
280
     1
102
RTVSPost2010PropOp29
 70
     1
102
RTVSPost2010Prop30
280
     1
102
RTVSPost2010PropOp30
 70
     1
102
RTVSPost2010Prop31
280
     0
102
RTVSPost2010PropOp31
 70
     1
102
RTVSPost2010Prop32
280
     0
102
RTVSPost2010PropOp32
 70
     1
102
RTVSPost2010Prop33
280
     0
102
RTVSPost2010PropOp33
 70
     1
102
RTVSPost2010Prop34
280
     0
102
RTVSPost2010PropOp34
 70
     1
102
RTVSPost2010Prop35
280
     0
102
RTVSPost2010PropOp35
 70
     1
102
RTVSPost2010Prop36
280
     0
102
RTVSPost2010PropOp36
 70
     1
102
RTVSPost2010Prop37
 90
       50
102
RTVSPost2010PropOp37
 70
     1
102
RTVSPost2010Prop38
140
0.0
102
RTVSPost2010PropOp38
 70
     1
102
RTVSPost2010Prop39
140
1.0
102
RTVSPost2010PropOp39
 70
     1
102
RTVSPost2010Prop40
 90
        0
102
RTVSPost2010PropOp40
 70
     1
102
RTVSPost2010Prop41ColorIndex
 90
       18
102
RTVSPost2010Prop41ColorRGB
 90
        0
102
RTVSPost2010PropOp41
 70
     1
102
RTVSPost2010Prop42
 90
       50
102
RTVSPost2010PropOp42
 70
     1
102
RTVSPost2010Prop43
 90
        3
102
RTVSPost2010PropOp43
 70
     1
102
RTVSPost2010Prop44ColorIndex
 90
        5
102
RTVSPost2010Prop44ColorRGB
 90
      255
102
RTVSPost2010PropOp44
 70
     1
102
RTVSPost2010Prop45
280
     0
102
RTVSPost2010PropOp45
 70
     1
102
RTVSPost2010Prop46
 90
       50
102
RTVSPost2010PropOp46
 70
     1
102
RTVSPost2010Prop47
 90
       50
102
RTVSPost2010PropOp47
 70
     1
102
RTVSPost2010Prop48
 90
       50
102
RTVSPost2010PropOp48
 70
     1
102
RTVSPost2010Prop49
280
     0
102
RTVSPost2010PropOp49
 70
     1
102
RTVSPost2010Prop50
 90
       50
102
RTVSPost2010PropOp50
 70
     1
102
RTVSPost2010Prop51ColorIndex
 90
      256
102
RTVSPost2010Prop51ColorRGB
 90
-16777216
102
RTVSPost2010PropOp51
 70
     0
102
RTVSPost2010Prop52
140
1.0
102
RTVSPost2010PropOp52
 70
     0
102
RTVSPost2010Prop53
 90
        2
102
RTVSPost2010PropOp53
 70
     1
102
RTVSPost2010Prop54
  1
strokes_ogs.tif
102
RTVSPost2010PropOp54
 70
     1
102
RTVSPost2010Prop55
280
     0
102
RTVSPost2010PropOp55
 70
     1
102
RTVSPost2010Prop56
140
1.0
102
RTVSPost2010PropOp56
 70
     1
102
RTVSPost2010Prop57
140
1.0
102
RTVSPost2010PropOp57
 70
     1
102
RTVSPropertyOp0
 70
     1
102
RTVSPropertyOp1
 70
     1
102
RTVSPropertyOp2
 70
     1
102
RTVSPropertyOp3
 70
     1
102
RTVSPropertyOp4
 70
     1
102
RTVSPropertyOp5
 70
     1
102
RTVSPropertyOp6
 70
     1
102
RTVSPropertyOp7
 70
     1
102
RTVSPropertyOp8
 70
     1
102
RTVSPropertyOp9
 70
     1
102
RTVSPropertyOp10
 70
     1
102
RTVSPropertyOp11
 70
     1
102
RTVSPropertyOp12
 70
     1
102
RTVSPropertyOp13
 70
     1
102
RTVSPropertyOp14
 70
     1
102
RTVSPropertyOp15
 70
     1
102
RTVSPropertyOp16
 70
     1
102
RTVSPropertyOp17
 70
     1
102
RTVSPropertyOp18
 70
     1
102
RTVSPropertyOp19
 70
     1
102
RTVSPropertyOp20
 70
     1
102
RTVSPropertyOp21
 70
     1
102
RTVSPropertyOp22
 70
     1
102
RTVSPropertyOp23
 70
     1
102
RTVSPropertyOp24
 70
     1
102
RTVSPropertyOp25
 70
     1
102
RTVSPropertyOp26
 70
     1
102
RTVSPropertyOp27
 70
     1
102
RTVSPropertyOp28
 70
     1
102
RTVSPropertyOp29
 70
     1
102
RTVSPropertyOp30
 70
     1
102
RTVSPropertyOp31
 70
     1
102
RTVSPropertyOp32
 70
     1
102
RTVSPropertyOp33
 70
     1
102
RTVSPropertyOp34
 70
     1
102
RTVSPropertyOp35
 70
     1
102
RTVSPropertyOp36
 70
     1
102
RTVSPropertyOp37
 70
     1
102
RTVSPropertyOp38
 70
     1
102
RTVSPropertyOp39
 70
     1
102
RTVSPropertyOp40
 70
     1
102
RTVSPropertyOp41
 70
     1
102
RTVSPropertyOp42
 70
     1
102
RTVSPropertyOp43
 70
     1
102
RTVSPropertyOp44
 70
     1
102
RTVSPropertyOp45
 70
     1
102
RTVSPropertyOp46
 70
     1
102
RTVSPropertyOp47
 70
     1
102
RTVSPropertyOp48
 70
     1
102
RTVSPropertyOp49
 70
     1
102
RTVSPropertyOp50
 70
     1
102
RTVSPropertyOp51
 70
     0
102
RTVSPropertyOp52
 70
     0
102
RTVSPropertyOp53
 70
     1
102
RTVSPropertyOp54
 70
     1
102
RTVSPropertyOp55
 70
     1
102
RTVSPropertyOp56
 70
     1
102
RTVSPropertyOp57
 70
     1
102
RTVSPropertyOp58
 70
     1
102
RTVSPropertyOp59
 70
     1
102
RTVSPropertyOp60
 70
     1
102
RTVSPropertyOp61
 70
     1
102
RTVSPropertyOp62
 70
     1
  0
XRECORD
  5
D162
102
{ACAD_REACTORS
330
D161
102
}
330
D161
100
AcDbXrecord
280
     1
102
RTVSPost2010Prop28
280
     0
102
RTVSPost2010PropOp28
 70
     1
102
RTVSPost2010Prop29
280
     1
102
RTVSPost2010PropOp29
 70
     1
102
RTVSPost2010Prop30
280
     1
102
RTVSPost2010PropOp30
 70
     1
102
RTVSPost2010Prop31
280
     0
102
RTVSPost2010PropOp31
 70
     1
102
RTVSPost2010Prop32
280
     0
102
RTVSPost2010PropOp32
 70
     1
102
RTVSPost2010Prop33
280
     0
102
RTVSPost2010PropOp33
 70
     1
102
RTVSPost2010Prop34
280
     0
102
RTVSPost2010PropOp34
 70
     1
102
RTVSPost2010Prop35
280
     0
102
RTVSPost2010PropOp35
 70
     1
102
RTVSPost2010Prop36
280
     0
102
RTVSPost2010PropOp36
 70
     1
102
RTVSPost2010Prop37
 90
       50
102
RTVSPost2010PropOp37
 70
     1
102
RTVSPost2010Prop38
140
0.0
102
RTVSPost2010PropOp38
 70
     1
102
RTVSPost2010Prop39
140
1.0
102
RTVSPost2010PropOp39
 70
     1
102
RTVSPost2010Prop40
 90
        0
102
RTVSPost2010PropOp40
 70
     1
102
RTVSPost2010Prop41ColorIndex
 90
       18
102
RTVSPost2010Prop41ColorRGB
 90
        0
102
RTVSPost2010PropOp41
 70
     1
102
RTVSPost2010Prop42
 90
       50
102
RTVSPost2010PropOp42
 70
     1
102
RTVSPost2010Prop43
 90
        3
102
RTVSPost2010PropOp43
 70
     1
102
RTVSPost2010Prop44ColorIndex
 90
        5
102
RTVSPost2010Prop44ColorRGB
 90
      255
102
RTVSPost2010PropOp44
 70
     1
102
RTVSPost2010Prop45
280
     0
102
RTVSPost2010PropOp45
 70
     1
102
RTVSPost2010Prop46
 90
       50
102
RTVSPost2010PropOp46
 70
     1
102
RTVSPost2010Prop47
 90
       50
102
RTVSPost2010PropOp47
 70
     1
102
RTVSPost2010Prop48
 90
       50
102
RTVSPost2010PropOp48
 70
     1
102
RTVSPost2010Prop49
280
     0
102
RTVSPost2010PropOp49
 70
     1
102
RTVSPost2010Prop50
 90
       50
102
RTVSPost2010PropOp50
 70
     1
102
RTVSPost2010Prop51ColorIndex
 90
      256
102
RTVSPost2010Prop51ColorRGB
 90
-16777216
102
RTVSPost2010PropOp51
 70
     0
102
RTVSPost2010Prop52
140
1.0
102
RTVSPost2010PropOp52
 70
     0
102
RTVSPost2010Prop53
 90
        2
102
RTVSPost2010PropOp53
 70
     1
102
RTVSPost2010Prop54
  1
strokes_ogs.tif
102
RTVSPost2010PropOp54
 70
     1
102
RTVSPost2010Prop55
280
     0
102
RTVSPost2010PropOp55
 70
     1
102
RTVSPost2010Prop56
140
1.0
102
RTVSPost2010PropOp56
 70
     1
102
RTVSPost2010Prop57
140
1.0
102
RTVSPost2010PropOp57
 70
     1
102
RTVSPropertyOp0
 70
     1
102
RTVSPropertyOp1
 70
     1
102
RTVSPropertyOp2
 70
     1
102
RTVSPropertyOp3
 70
     1
102
RTVSPropertyOp4
 70
     1
102
RTVSPropertyOp5
 70
     1
102
RTVSPropertyOp6
 70
     1
102
RTVSPropertyOp7
 70
     1
102
RTVSPropertyOp8
 70
     1
102
RTVSPropertyOp9
 70
     1
102
RTVSPropertyOp10
 70
     1
102
RTVSPropertyOp11
 70
     1
102
RTVSPropertyOp12
 70
     1
102
RTVSPropertyOp13
 70
     1
102
RTVSPropertyOp14
 70
     1
102
RTVSPropertyOp15
 70
     1
102
RTVSPropertyOp16
 70
     1
102
RTVSPropertyOp17
 70
     1
102
RTVSPropertyOp18
 70
     1
102
RTVSPropertyOp19
 70
     1
102
RTVSPropertyOp20
 70
     1
102
RTVSPropertyOp21
 70
     1
102
RTVSPropertyOp22
 70
     1
102
RTVSPropertyOp23
 70
     1
102
RTVSPropertyOp24
 70
     1
102
RTVSPropertyOp25
 70
     1
102
RTVSPropertyOp26
 70
     1
102
RTVSPropertyOp27
 70
     1
102
RTVSPropertyOp28
 70
     1
102
RTVSPropertyOp29
 70
     1
102
RTVSPropertyOp30
 70
     1
102
RTVSPropertyOp31
 70
     1
102
RTVSPropertyOp32
 70
     1
102
RTVSPropertyOp33
 70
     1
102
RTVSPropertyOp34
 70
     1
102
RTVSPropertyOp35
 70
     1
102
RTVSPropertyOp36
 70
     1
102
RTVSPropertyOp37
 70
     1
102
RTVSPropertyOp38
 70
     1
102
RTVSPropertyOp39
 70
     1
102
RTVSPropertyOp40
 70
     1
102
RTVSPropertyOp41
 70
     1
102
RTVSPropertyOp42
 70
     1
102
RTVSPropertyOp43
 70
     1
102
RTVSPropertyOp44
 70
     1
102
RTVSPropertyOp45
 70
     1
102
RTVSPropertyOp46
 70
     1
102
RTVSPropertyOp47
 70
     1
102
RTVSPropertyOp48
 70
     1
102
RTVSPropertyOp49
 70
     1
102
RTVSPropertyOp50
 70
     1
102
RTVSPropertyOp51
 70
     0
102
RTVSPropertyOp52
 70
     0
102
RTVSPropertyOp53
 70
     1
102
RTVSPropertyOp54
 70
     1
102
RTVSPropertyOp55
 70
     1
102
RTVSPropertyOp56
 70
     1
102
RTVSPropertyOp57
 70
     1
102
RTVSPropertyOp58
 70
     1
102
RTVSPropertyOp59
 70
     1
102
RTVSPropertyOp60
 70
     1
102
RTVSPropertyOp61
 70
     1
102
RTVSPropertyOp62
 70
     1
  0
XRECORD
  5
D15E
102
{ACAD_REACTORS
330
D15D
102
}
330
D15D
100
AcDbXrecord
280
     1
102
RTVSPost2010Prop28
280
     0
102
RTVSPost2010PropOp28
 70
     1
102
RTVSPost2010Prop29
280
     1
102
RTVSPost2010PropOp29
 70
     1
102
RTVSPost2010Prop30
280
     1
102
RTVSPost2010PropOp30
 70
     1
102
RTVSPost2010Prop31
280
     0
102
RTVSPost2010PropOp31
 70
     1
102
RTVSPost2010Prop32
280
     0
102
RTVSPost2010PropOp32
 70
     1
102
RTVSPost2010Prop33
280
     0
102
RTVSPost2010PropOp33
 70
     1
102
RTVSPost2010Prop34
280
     0
102
RTVSPost2010PropOp34
 70
     1
102
RTVSPost2010Prop35
280
     0
102
RTVSPost2010PropOp35
 70
     1
102
RTVSPost2010Prop36
280
     0
102
RTVSPost2010PropOp36
 70
     1
102
RTVSPost2010Prop37
 90
       50
102
RTVSPost2010PropOp37
 70
     1
102
RTVSPost2010Prop38
140
0.0
102
RTVSPost2010PropOp38
 70
     1
102
RTVSPost2010Prop39
140
1.0
102
RTVSPost2010PropOp39
 70
     1
102
RTVSPost2010Prop40
 90
        0
102
RTVSPost2010PropOp40
 70
     1
102
RTVSPost2010Prop41ColorIndex
 90
       18
102
RTVSPost2010Prop41ColorRGB
 90
        0
102
RTVSPost2010PropOp41
 70
     1
102
RTVSPost2010Prop42
 90
       50
102
RTVSPost2010PropOp42
 70
     1
102
RTVSPost2010Prop43
 90
        3
102
RTVSPost2010PropOp43
 70
     1
102
RTVSPost2010Prop44ColorIndex
 90
        5
102
RTVSPost2010Prop44ColorRGB
 90
      255
102
RTVSPost2010PropOp44
 70
     1
102
RTVSPost2010Prop45
280
     0
102
RTVSPost2010PropOp45
 70
     1
102
RTVSPost2010Prop46
 90
       50
102
RTVSPost2010PropOp46
 70
     1
102
RTVSPost2010Prop47
 90
       50
102
RTVSPost2010PropOp47
 70
     1
102
RTVSPost2010Prop48
 90
       50
102
RTVSPost2010PropOp48
 70
     1
102
RTVSPost2010Prop49
280
     0
102
RTVSPost2010PropOp49
 70
     1
102
RTVSPost2010Prop50
 90
       50
102
RTVSPost2010PropOp50
 70
     1
102
RTVSPost2010Prop51ColorIndex
 90
      256
102
RTVSPost2010Prop51ColorRGB
 90
-16777216
102
RTVSPost2010PropOp51
 70
     0
102
RTVSPost2010Prop52
140
1.0
102
RTVSPost2010PropOp52
 70
     0
102
RTVSPost2010Prop53
 90
        2
102
RTVSPost2010PropOp53
 70
     1
102
RTVSPost2010Prop54
  1
strokes_ogs.tif
102
RTVSPost2010PropOp54
 70
     1
102
RTVSPost2010Prop55
280
     0
102
RTVSPost2010PropOp55
 70
     1
102
RTVSPost2010Prop56
140
1.0
102
RTVSPost2010PropOp56
 70
     1
102
RTVSPost2010Prop57
140
1.0
102
RTVSPost2010PropOp57
 70
     1
102
RTVSPropertyOp0
 70
     1
102
RTVSPropertyOp1
 70
     1
102
RTVSPropertyOp2
 70
     1
102
RTVSPropertyOp3
 70
     1
102
RTVSPropertyOp4
 70
     1
102
RTVSPropertyOp5
 70
     1
102
RTVSPropertyOp6
 70
     1
102
RTVSPropertyOp7
 70
     1
102
RTVSPropertyOp8
 70
     1
102
RTVSPropertyOp9
 70
     1
102
RTVSPropertyOp10
 70
     1
102
RTVSPropertyOp11
 70
     1
102
RTVSPropertyOp12
 70
     1
102
RTVSPropertyOp13
 70
     1
102
RTVSPropertyOp14
 70
     1
102
RTVSPropertyOp15
 70
     1
102
RTVSPropertyOp16
 70
     1
102
RTVSPropertyOp17
 70
     1
102
RTVSPropertyOp18
 70
     1
102
RTVSPropertyOp19
 70
     1
102
RTVSPropertyOp20
 70
     1
102
RTVSPropertyOp21
 70
     1
102
RTVSPropertyOp22
 70
     1
102
RTVSPropertyOp23
 70
     1
102
RTVSPropertyOp24
 70
     1
102
RTVSPropertyOp25
 70
     1
102
RTVSPropertyOp26
 70
     1
102
RTVSPropertyOp27
 70
     1
102
RTVSPropertyOp28
 70
     1
102
RTVSPropertyOp29
 70
     1
102
RTVSPropertyOp30
 70
     1
102
RTVSPropertyOp31
 70
     1
102
RTVSPropertyOp32
 70
     1
102
RTVSPropertyOp33
 70
     1
102
RTVSPropertyOp34
 70
     1
102
RTVSPropertyOp35
 70
     1
102
RTVSPropertyOp36
 70
     1
102
RTVSPropertyOp37
 70
     1
102
RTVSPropertyOp38
 70
     1
102
RTVSPropertyOp39
 70
     1
102
RTVSPropertyOp40
 70
     1
102
RTVSPropertyOp41
 70
     1
102
RTVSPropertyOp42
 70
     1
102
RTVSPropertyOp43
 70
     1
102
RTVSPropertyOp44
 70
     1
102
RTVSPropertyOp45
 70
     1
102
RTVSPropertyOp46
 70
     1
102
RTVSPropertyOp47
 70
     1
102
RTVSPropertyOp48
 70
     1
102
RTVSPropertyOp49
 70
     1
102
RTVSPropertyOp50
 70
     1
102
RTVSPropertyOp51
 70
     0
102
RTVSPropertyOp52
 70
     0
102
RTVSPropertyOp53
 70
     1
102
RTVSPropertyOp54
 70
     1
102
RTVSPropertyOp55
 70
     1
102
RTVSPropertyOp56
 70
     1
102
RTVSPropertyOp57
 70
     1
102
RTVSPropertyOp58
 70
     1
102
RTVSPropertyOp59
 70
     1
102
RTVSPropertyOp60
 70
     1
102
RTVSPropertyOp61
 70
     1
102
RTVSPropertyOp62
 70
     1
  0
XRECORD
  5
D16C
102
{ACAD_REACTORS
330
D16B
102
}
330
D16B
100
AcDbXrecord
280
     1
102
RTVSPost2010Prop28
280
     0
102
RTVSPost2010PropOp28
 70
     1
102
RTVSPost2010Prop29
280
     1
102
RTVSPost2010PropOp29
 70
     1
102
RTVSPost2010Prop30
280
     1
102
RTVSPost2010PropOp30
 70
     1
102
RTVSPost2010Prop31
280
     0
102
RTVSPost2010PropOp31
 70
     1
102
RTVSPost2010Prop32
280
     0
102
RTVSPost2010PropOp32
 70
     1
102
RTVSPost2010Prop33
280
     0
102
RTVSPost2010PropOp33
 70
     1
102
RTVSPost2010Prop34
280
     0
102
RTVSPost2010PropOp34
 70
     1
102
RTVSPost2010Prop35
280
     0
102
RTVSPost2010PropOp35
 70
     1
102
RTVSPost2010Prop36
280
     0
102
RTVSPost2010PropOp36
 70
     1
102
RTVSPost2010Prop37
 90
       50
102
RTVSPost2010PropOp37
 70
     1
102
RTVSPost2010Prop38
140
0.0
102
RTVSPost2010PropOp38
 70
     1
102
RTVSPost2010Prop39
140
1.0
102
RTVSPost2010PropOp39
 70
     1
102
RTVSPost2010Prop40
 90
        0
102
RTVSPost2010PropOp40
 70
     1
102
RTVSPost2010Prop41ColorIndex
 90
       18
102
RTVSPost2010Prop41ColorRGB
 90
        0
102
RTVSPost2010PropOp41
 70
     1
102
RTVSPost2010Prop42
 90
       50
102
RTVSPost2010PropOp42
 70
     1
102
RTVSPost2010Prop43
 90
        3
102
RTVSPost2010PropOp43
 70
     1
102
RTVSPost2010Prop44ColorIndex
 90
        5
102
RTVSPost2010Prop44ColorRGB
 90
      255
102
RTVSPost2010PropOp44
 70
     1
102
RTVSPost2010Prop45
280
     0
102
RTVSPost2010PropOp45
 70
     1
102
RTVSPost2010Prop46
 90
       50
102
RTVSPost2010PropOp46
 70
     1
102
RTVSPost2010Prop47
 90
       50
102
RTVSPost2010PropOp47
 70
     1
102
RTVSPost2010Prop48
 90
       50
102
RTVSPost2010PropOp48
 70
     1
102
RTVSPost2010Prop49
280
     0
102
RTVSPost2010PropOp49
 70
     1
102
RTVSPost2010Prop50
 90
       50
102
RTVSPost2010PropOp50
 70
     1
102
RTVSPost2010Prop51ColorIndex
 90
      256
102
RTVSPost2010Prop51ColorRGB
 90
-16777216
102
RTVSPost2010PropOp51
 70
     0
102
RTVSPost2010Prop52
140
1.0
102
RTVSPost2010PropOp52
 70
     0
102
RTVSPost2010Prop53
 90
        2
102
RTVSPost2010PropOp53
 70
     1
102
RTVSPost2010Prop54
  1
strokes_ogs.tif
102
RTVSPost2010PropOp54
 70
     1
102
RTVSPost2010Prop55
280
     0
102
RTVSPost2010PropOp55
 70
     1
102
RTVSPost2010Prop56
140
1.0
102
RTVSPost2010PropOp56
 70
     1
102
RTVSPost2010Prop57
140
1.0
102
RTVSPost2010PropOp57
 70
     1
102
RTVSPropertyOp0
 70
     1
102
RTVSPropertyOp1
 70
     1
102
RTVSPropertyOp2
 70
     1
102
RTVSPropertyOp3
 70
     1
102
RTVSPropertyOp4
 70
     1
102
RTVSPropertyOp5
 70
     1
102
RTVSPropertyOp6
 70
     1
102
RTVSPropertyOp7
 70
     1
102
RTVSPropertyOp8
 70
     1
102
RTVSPropertyOp9
 70
     1
102
RTVSPropertyOp10
 70
     1
102
RTVSPropertyOp11
 70
     1
102
RTVSPropertyOp12
 70
     1
102
RTVSPropertyOp13
 70
     1
102
RTVSPropertyOp14
 70
     1
102
RTVSPropertyOp15
 70
     1
102
RTVSPropertyOp16
 70
     1
102
RTVSPropertyOp17
 70
     1
102
RTVSPropertyOp18
 70
     1
102
RTVSPropertyOp19
 70
     1
102
RTVSPropertyOp20
 70
     1
102
RTVSPropertyOp21
 70
     1
102
RTVSPropertyOp22
 70
     1
102
RTVSPropertyOp23
 70
     1
102
RTVSPropertyOp24
 70
     1
102
RTVSPropertyOp25
 70
     1
102
RTVSPropertyOp26
 70
     1
102
RTVSPropertyOp27
 70
     1
102
RTVSPropertyOp28
 70
     1
102
RTVSPropertyOp29
 70
     1
102
RTVSPropertyOp30
 70
     1
102
RTVSPropertyOp31
 70
     1
102
RTVSPropertyOp32
 70
     1
102
RTVSPropertyOp33
 70
     1
102
RTVSPropertyOp34
 70
     1
102
RTVSPropertyOp35
 70
     1
102
RTVSPropertyOp36
 70
     1
102
RTVSPropertyOp37
 70
     1
102
RTVSPropertyOp38
 70
     1
102
RTVSPropertyOp39
 70
     1
102
RTVSPropertyOp40
 70
     1
102
RTVSPropertyOp41
 70
     1
102
RTVSPropertyOp42
 70
     1
102
RTVSPropertyOp43
 70
     1
102
RTVSPropertyOp44
 70
     1
102
RTVSPropertyOp45
 70
     1
102
RTVSPropertyOp46
 70
     1
102
RTVSPropertyOp47
 70
     1
102
RTVSPropertyOp48
 70
     1
102
RTVSPropertyOp49
 70
     1
102
RTVSPropertyOp50
 70
     1
102
RTVSPropertyOp51
 70
     0
102
RTVSPropertyOp52
 70
     0
102
RTVSPropertyOp53
 70
     1
102
RTVSPropertyOp54
 70
     1
102
RTVSPropertyOp55
 70
     1
102
RTVSPropertyOp56
 70
     1
102
RTVSPropertyOp57
 70
     1
102
RTVSPropertyOp58
 70
     1
102
RTVSPropertyOp59
 70
     1
102
RTVSPropertyOp60
 70
     1
102
RTVSPropertyOp61
 70
     1
102
RTVSPropertyOp62
 70
     1
  0
XRECORD
  5
D174
102
{ACAD_REACTORS
330
D173
102
}
330
D173
100
AcDbXrecord
280
     1
102
RTVSPost2010Prop28
280
     0
102
RTVSPost2010PropOp28
 70
     1
102
RTVSPost2010Prop29
280
     1
102
RTVSPost2010PropOp29
 70
     1
102
RTVSPost2010Prop30
280
     1
102
RTVSPost2010PropOp30
 70
     1
102
RTVSPost2010Prop31
280
     0
102
RTVSPost2010PropOp31
 70
     1
102
RTVSPost2010Prop32
280
     0
102
RTVSPost2010PropOp32
 70
     1
102
RTVSPost2010Prop33
280
     0
102
RTVSPost2010PropOp33
 70
     1
102
RTVSPost2010Prop34
280
     0
102
RTVSPost2010PropOp34
 70
     1
102
RTVSPost2010Prop35
280
     0
102
RTVSPost2010PropOp35
 70
     1
102
RTVSPost2010Prop36
280
     0
102
RTVSPost2010PropOp36
 70
     1
102
RTVSPost2010Prop37
 90
       50
102
RTVSPost2010PropOp37
 70
     1
102
RTVSPost2010Prop38
140
0.0
102
RTVSPost2010PropOp38
 70
     1
102
RTVSPost2010Prop39
140
1.0
102
RTVSPost2010PropOp39
 70
     1
102
RTVSPost2010Prop40
 90
        0
102
RTVSPost2010PropOp40
 70
     1
102
RTVSPost2010Prop41ColorIndex
 90
       18
102
RTVSPost2010Prop41ColorRGB
 90
        0
102
RTVSPost2010PropOp41
 70
     1
102
RTVSPost2010Prop42
 90
       50
102
RTVSPost2010PropOp42
 70
     1
102
RTVSPost2010Prop43
 90
        3
102
RTVSPost2010PropOp43
 70
     1
102
RTVSPost2010Prop44ColorIndex
 90
        5
102
RTVSPost2010Prop44ColorRGB
 90
      255
102
RTVSPost2010PropOp44
 70
     1
102
RTVSPost2010Prop45
280
     0
102
RTVSPost2010PropOp45
 70
     1
102
RTVSPost2010Prop46
 90
       50
102
RTVSPost2010PropOp46
 70
     1
102
RTVSPost2010Prop47
 90
       50
102
RTVSPost2010PropOp47
 70
     1
102
RTVSPost2010Prop48
 90
       50
102
RTVSPost2010PropOp48
 70
     1
102
RTVSPost2010Prop49
280
     0
102
RTVSPost2010PropOp49
 70
     1
102
RTVSPost2010Prop50
 90
       50
102
RTVSPost2010PropOp50
 70
     1
102
RTVSPost2010Prop51ColorIndex
 90
      256
102
RTVSPost2010Prop51ColorRGB
 90
-16777216
102
RTVSPost2010PropOp51
 70
     0
102
RTVSPost2010Prop52
140
1.0
102
RTVSPost2010PropOp52
 70
     0
102
RTVSPost2010Prop53
 90
        2
102
RTVSPost2010PropOp53
 70
     1
102
RTVSPost2010Prop54
  1
strokes_ogs.tif
102
RTVSPost2010PropOp54
 70
     1
102
RTVSPost2010Prop55
280
     0
102
RTVSPost2010PropOp55
 70
     1
102
RTVSPost2010Prop56
140
1.0
102
RTVSPost2010PropOp56
 70
     1
102
RTVSPost2010Prop57
140
1.0
102
RTVSPost2010PropOp57
 70
     1
102
RTVSPropertyOp0
 70
     1
102
RTVSPropertyOp1
 70
     1
102
RTVSPropertyOp2
 70
     1
102
RTVSPropertyOp3
 70
     1
102
RTVSPropertyOp4
 70
     1
102
RTVSPropertyOp5
 70
     1
102
RTVSPropertyOp6
 70
     1
102
RTVSPropertyOp7
 70
     1
102
RTVSPropertyOp8
 70
     1
102
RTVSPropertyOp9
 70
     1
102
RTVSPropertyOp10
 70
     1
102
RTVSPropertyOp11
 70
     1
102
RTVSPropertyOp12
 70
     1
102
RTVSPropertyOp13
 70
     1
102
RTVSPropertyOp14
 70
     1
102
RTVSPropertyOp15
 70
     1
102
RTVSPropertyOp16
 70
     1
102
RTVSPropertyOp17
 70
     1
102
RTVSPropertyOp18
 70
     1
102
RTVSPropertyOp19
 70
     1
102
RTVSPropertyOp20
 70
     1
102
RTVSPropertyOp21
 70
     1
102
RTVSPropertyOp22
 70
     1
102
RTVSPropertyOp23
 70
     1
102
RTVSPropertyOp24
 70
     1
102
RTVSPropertyOp25
 70
     1
102
RTVSPropertyOp26
 70
     1
102
RTVSPropertyOp27
 70
     1
102
RTVSPropertyOp28
 70
     1
102
RTVSPropertyOp29
 70
     1
102
RTVSPropertyOp30
 70
     1
102
RTVSPropertyOp31
 70
     1
102
RTVSPropertyOp32
 70
     1
102
RTVSPropertyOp33
 70
     1
102
RTVSPropertyOp34
 70
     1
102
RTVSPropertyOp35
 70
     1
102
RTVSPropertyOp36
 70
     1
102
RTVSPropertyOp37
 70
     1
102
RTVSPropertyOp38
 70
     1
102
RTVSPropertyOp39
 70
     1
102
RTVSPropertyOp40
 70
     1
102
RTVSPropertyOp41
 70
     1
102
RTVSPropertyOp42
 70
     1
102
RTVSPropertyOp43
 70
     1
102
RTVSPropertyOp44
 70
     1
102
RTVSPropertyOp45
 70
     1
102
RTVSPropertyOp46
 70
     1
102
RTVSPropertyOp47
 70
     1
102
RTVSPropertyOp48
 70
     1
102
RTVSPropertyOp49
 70
     1
102
RTVSPropertyOp50
 70
     1
102
RTVSPropertyOp51
 70
     0
102
RTVSPropertyOp52
 70
     0
102
RTVSPropertyOp53
 70
     1
102
RTVSPropertyOp54
 70
     1
102
RTVSPropertyOp55
 70
     1
102
RTVSPropertyOp56
 70
     1
102
RTVSPropertyOp57
 70
     1
102
RTVSPropertyOp58
 70
     1
102
RTVSPropertyOp59
 70
     1
102
RTVSPropertyOp60
 70
     1
102
RTVSPropertyOp61
 70
     1
102
RTVSPropertyOp62
 70
     1
  0
XRECORD
  5
D166
102
{ACAD_REACTORS
330
D165
102
}
330
D165
100
AcDbXrecord
280
     1
102
RTVSPost2010Prop28
280
     0
102
RTVSPost2010PropOp28
 70
     1
102
RTVSPost2010Prop29
280
     1
102
RTVSPost2010PropOp29
 70
     1
102
RTVSPost2010Prop30
280
     1
102
RTVSPost2010PropOp30
 70
     1
102
RTVSPost2010Prop31
280
     0
102
RTVSPost2010PropOp31
 70
     1
102
RTVSPost2010Prop32
280
     0
102
RTVSPost2010PropOp32
 70
     1
102
RTVSPost2010Prop33
280
     0
102
RTVSPost2010PropOp33
 70
     1
102
RTVSPost2010Prop34
280
     0
102
RTVSPost2010PropOp34
 70
     1
102
RTVSPost2010Prop35
280
     0
102
RTVSPost2010PropOp35
 70
     1
102
RTVSPost2010Prop36
280
     0
102
RTVSPost2010PropOp36
 70
     1
102
RTVSPost2010Prop37
 90
       50
102
RTVSPost2010PropOp37
 70
     1
102
RTVSPost2010Prop38
140
0.0
102
RTVSPost2010PropOp38
 70
     1
102
RTVSPost2010Prop39
140
1.0
102
RTVSPost2010PropOp39
 70
     1
102
RTVSPost2010Prop40
 90
        0
102
RTVSPost2010PropOp40
 70
     1
102
RTVSPost2010Prop41ColorIndex
 90
       18
102
RTVSPost2010Prop41ColorRGB
 90
        0
102
RTVSPost2010PropOp41
 70
     1
102
RTVSPost2010Prop42
 90
       50
102
RTVSPost2010PropOp42
 70
     1
102
RTVSPost2010Prop43
 90
        3
102
RTVSPost2010PropOp43
 70
     1
102
RTVSPost2010Prop44ColorIndex
 90
        5
102
RTVSPost2010Prop44ColorRGB
 90
      255
102
RTVSPost2010PropOp44
 70
     1
102
RTVSPost2010Prop45
280
     0
102
RTVSPost2010PropOp45
 70
     1
102
RTVSPost2010Prop46
 90
       50
102
RTVSPost2010PropOp46
 70
     1
102
RTVSPost2010Prop47
 90
       50
102
RTVSPost2010PropOp47
 70
     1
102
RTVSPost2010Prop48
 90
       50
102
RTVSPost2010PropOp48
 70
     1
102
RTVSPost2010Prop49
280
     0
102
RTVSPost2010PropOp49
 70
     1
102
RTVSPost2010Prop50
 90
       50
102
RTVSPost2010PropOp50
 70
     1
102
RTVSPost2010Prop51ColorIndex
 90
      256
102
RTVSPost2010Prop51ColorRGB
 90
-16777216
102
RTVSPost2010PropOp51
 70
     0
102
RTVSPost2010Prop52
140
1.0
102
RTVSPost2010PropOp52
 70
     0
102
RTVSPost2010Prop53
 90
        2
102
RTVSPost2010PropOp53
 70
     1
102
RTVSPost2010Prop54
  1
strokes_ogs.tif
102
RTVSPost2010PropOp54
 70
     1
102
RTVSPost2010Prop55
280
     0
102
RTVSPost2010PropOp55
 70
     1
102
RTVSPost2010Prop56
140
1.0
102
RTVSPost2010PropOp56
 70
     1
102
RTVSPost2010Prop57
140
1.0
102
RTVSPost2010PropOp57
 70
     1
102
RTVSPropertyOp0
 70
     1
102
RTVSPropertyOp1
 70
     1
102
RTVSPropertyOp2
 70
     1
102
RTVSPropertyOp3
 70
     1
102
RTVSPropertyOp4
 70
     1
102
RTVSPropertyOp5
 70
     1
102
RTVSPropertyOp6
 70
     1
102
RTVSPropertyOp7
 70
     1
102
RTVSPropertyOp8
 70
     1
102
RTVSPropertyOp9
 70
     1
102
RTVSPropertyOp10
 70
     1
102
RTVSPropertyOp11
 70
     1
102
RTVSPropertyOp12
 70
     1
102
RTVSPropertyOp13
 70
     1
102
RTVSPropertyOp14
 70
     1
102
RTVSPropertyOp15
 70
     1
102
RTVSPropertyOp16
 70
     1
102
RTVSPropertyOp17
 70
     1
102
RTVSPropertyOp18
 70
     1
102
RTVSPropertyOp19
 70
     1
102
RTVSPropertyOp20
 70
     1
102
RTVSPropertyOp21
 70
     1
102
RTVSPropertyOp22
 70
     1
102
RTVSPropertyOp23
 70
     1
102
RTVSPropertyOp24
 70
     1
102
RTVSPropertyOp25
 70
     1
102
RTVSPropertyOp26
 70
     1
102
RTVSPropertyOp27
 70
     1
102
RTVSPropertyOp28
 70
     1
102
RTVSPropertyOp29
 70
     1
102
RTVSPropertyOp30
 70
     1
102
RTVSPropertyOp31
 70
     1
102
RTVSPropertyOp32
 70
     1
102
RTVSPropertyOp33
 70
     1
102
RTVSPropertyOp34
 70
     1
102
RTVSPropertyOp35
 70
     1
102
RTVSPropertyOp36
 70
     1
102
RTVSPropertyOp37
 70
     1
102
RTVSPropertyOp38
 70
     1
102
RTVSPropertyOp39
 70
     1
102
RTVSPropertyOp40
 70
     1
102
RTVSPropertyOp41
 70
     1
102
RTVSPropertyOp42
 70
     1
102
RTVSPropertyOp43
 70
     1
102
RTVSPropertyOp44
 70
     1
102
RTVSPropertyOp45
 70
     1
102
RTVSPropertyOp46
 70
     1
102
RTVSPropertyOp47
 70
     1
102
RTVSPropertyOp48
 70
     1
102
RTVSPropertyOp49
 70
     1
102
RTVSPropertyOp50
 70
     1
102
RTVSPropertyOp51
 70
     0
102
RTVSPropertyOp52
 70
     0
102
RTVSPropertyOp53
 70
     1
102
RTVSPropertyOp54
 70
     1
102
RTVSPropertyOp55
 70
     1
102
RTVSPropertyOp56
 70
     1
102
RTVSPropertyOp57
 70
     1
102
RTVSPropertyOp58
 70
     1
102
RTVSPropertyOp59
 70
     1
102
RTVSPropertyOp60
 70
     1
102
RTVSPropertyOp61
 70
     1
102
RTVSPropertyOp62
 70
     1
  0
XRECORD
  5
D16A
102
{ACAD_REACTORS
330
D169
102
}
330
D169
100
AcDbXrecord
280
     1
102
RTVSPost2010Prop28
280
     0
102
RTVSPost2010PropOp28
 70
     1
102
RTVSPost2010Prop29
280
     1
102
RTVSPost2010PropOp29
 70
     1
102
RTVSPost2010Prop30
280
     1
102
RTVSPost2010PropOp30
 70
     1
102
RTVSPost2010Prop31
280
     0
102
RTVSPost2010PropOp31
 70
     1
102
RTVSPost2010Prop32
280
     0
102
RTVSPost2010PropOp32
 70
     1
102
RTVSPost2010Prop33
280
     0
102
RTVSPost2010PropOp33
 70
     1
102
RTVSPost2010Prop34
280
     0
102
RTVSPost2010PropOp34
 70
     1
102
RTVSPost2010Prop35
280
     0
102
RTVSPost2010PropOp35
 70
     1
102
RTVSPost2010Prop36
280
     0
102
RTVSPost2010PropOp36
 70
     1
102
RTVSPost2010Prop37
 90
       50
102
RTVSPost2010PropOp37
 70
     1
102
RTVSPost2010Prop38
140
0.0
102
RTVSPost2010PropOp38
 70
     1
102
RTVSPost2010Prop39
140
1.0
102
RTVSPost2010PropOp39
 70
     1
102
RTVSPost2010Prop40
 90
        0
102
RTVSPost2010PropOp40
 70
     1
102
RTVSPost2010Prop41ColorIndex
 90
       18
102
RTVSPost2010Prop41ColorRGB
 90
        0
102
RTVSPost2010PropOp41
 70
     1
102
RTVSPost2010Prop42
 90
       50
102
RTVSPost2010PropOp42
 70
     1
102
RTVSPost2010Prop43
 90
        3
102
RTVSPost2010PropOp43
 70
     1
102
RTVSPost2010Prop44ColorIndex
 90
        5
102
RTVSPost2010Prop44ColorRGB
 90
      255
102
RTVSPost2010PropOp44
 70
     1
102
RTVSPost2010Prop45
280
     0
102
RTVSPost2010PropOp45
 70
     1
102
RTVSPost2010Prop46
 90
       50
102
RTVSPost2010PropOp46
 70
     1
102
RTVSPost2010Prop47
 90
       50
102
RTVSPost2010PropOp47
 70
     1
102
RTVSPost2010Prop48
 90
       50
102
RTVSPost2010PropOp48
 70
     1
102
RTVSPost2010Prop49
280
     0
102
RTVSPost2010PropOp49
 70
     1
102
RTVSPost2010Prop50
 90
       50
102
RTVSPost2010PropOp50
 70
     1
102
RTVSPost2010Prop51ColorIndex
 90
      256
102
RTVSPost2010Prop51ColorRGB
 90
-16777216
102
RTVSPost2010PropOp51
 70
     0
102
RTVSPost2010Prop52
140
1.0
102
RTVSPost2010PropOp52
 70
     0
102
RTVSPost2010Prop53
 90
        2
102
RTVSPost2010PropOp53
 70
     1
102
RTVSPost2010Prop54
  1
strokes_ogs.tif
102
RTVSPost2010PropOp54
 70
     1
102
RTVSPost2010Prop55
280
     0
102
RTVSPost2010PropOp55
 70
     1
102
RTVSPost2010Prop56
140
1.0
102
RTVSPost2010PropOp56
 70
     1
102
RTVSPost2010Prop57
140
1.0
102
RTVSPost2010PropOp57
 70
     1
102
RTVSPropertyOp0
 70
     1
102
RTVSPropertyOp1
 70
     1
102
RTVSPropertyOp2
 70
     1
102
RTVSPropertyOp3
 70
     1
102
RTVSPropertyOp4
 70
     1
102
RTVSPropertyOp5
 70
     1
102
RTVSPropertyOp6
 70
     1
102
RTVSPropertyOp7
 70
     1
102
RTVSPropertyOp8
 70
     1
102
RTVSPropertyOp9
 70
     1
102
RTVSPropertyOp10
 70
     1
102
RTVSPropertyOp11
 70
     1
102
RTVSPropertyOp12
 70
     1
102
RTVSPropertyOp13
 70
     1
102
RTVSPropertyOp14
 70
     1
102
RTVSPropertyOp15
 70
     1
102
RTVSPropertyOp16
 70
     1
102
RTVSPropertyOp17
 70
     1
102
RTVSPropertyOp18
 70
     1
102
RTVSPropertyOp19
 70
     1
102
RTVSPropertyOp20
 70
     1
102
RTVSPropertyOp21
 70
     1
102
RTVSPropertyOp22
 70
     1
102
RTVSPropertyOp23
 70
     1
102
RTVSPropertyOp24
 70
     1
102
RTVSPropertyOp25
 70
     1
102
RTVSPropertyOp26
 70
     1
102
RTVSPropertyOp27
 70
     1
102
RTVSPropertyOp28
 70
     1
102
RTVSPropertyOp29
 70
     1
102
RTVSPropertyOp30
 70
     1
102
RTVSPropertyOp31
 70
     1
102
RTVSPropertyOp32
 70
     1
102
RTVSPropertyOp33
 70
     1
102
RTVSPropertyOp34
 70
     1
102
RTVSPropertyOp35
 70
     1
102
RTVSPropertyOp36
 70
     1
102
RTVSPropertyOp37
 70
     1
102
RTVSPropertyOp38
 70
     1
102
RTVSPropertyOp39
 70
     1
102
RTVSPropertyOp40
 70
     1
102
RTVSPropertyOp41
 70
     1
102
RTVSPropertyOp42
 70
     1
102
RTVSPropertyOp43
 70
     1
102
RTVSPropertyOp44
 70
     1
102
RTVSPropertyOp45
 70
     1
102
RTVSPropertyOp46
 70
     1
102
RTVSPropertyOp47
 70
     1
102
RTVSPropertyOp48
 70
     1
102
RTVSPropertyOp49
 70
     1
102
RTVSPropertyOp50
 70
     1
102
RTVSPropertyOp51
 70
     0
102
RTVSPropertyOp52
 70
     0
102
RTVSPropertyOp53
 70
     1
102
RTVSPropertyOp54
 70
     1
102
RTVSPropertyOp55
 70
     1
102
RTVSPropertyOp56
 70
     1
102
RTVSPropertyOp57
 70
     1
102
RTVSPropertyOp58
 70
     1
102
RTVSPropertyOp59
 70
     1
102
RTVSPropertyOp60
 70
     1
102
RTVSPropertyOp61
 70
     1
102
RTVSPropertyOp62
 70
     1
  0
XRECORD
  5
D189
102
{ACAD_REACTORS
330
D188
102
}
330
D188
100
AcDbXrecord
280
     1
102
RTVSPost2010Prop28
280
     0
102
RTVSPost2010PropOp28
 70
     1
102
RTVSPost2010Prop29
280
     1
102
RTVSPost2010PropOp29
 70
     1
102
RTVSPost2010Prop30
280
     1
102
RTVSPost2010PropOp30
 70
     1
102
RTVSPost2010Prop31
280
     0
102
RTVSPost2010PropOp31
 70
     1
102
RTVSPost2010Prop32
280
     0
102
RTVSPost2010PropOp32
 70
     1
102
RTVSPost2010Prop33
280
     0
102
RTVSPost2010PropOp33
 70
     1
102
RTVSPost2010Prop34
280
     0
102
RTVSPost2010PropOp34
 70
     1
102
RTVSPost2010Prop35
280
     0
102
RTVSPost2010PropOp35
 70
     1
102
RTVSPost2010Prop36
280
     0
102
RTVSPost2010PropOp36
 70
     1
102
RTVSPost2010Prop37
 90
       50
102
RTVSPost2010PropOp37
 70
     0
102
RTVSPost2010Prop38
140
0.0
102
RTVSPost2010PropOp38
 70
     0
102
RTVSPost2010Prop39
140
1.0
102
RTVSPost2010PropOp39
 70
     0
102
RTVSPost2010Prop40
 90
        0
102
RTVSPost2010PropOp40
 70
     0
102
RTVSPost2010Prop41ColorIndex
 90
       18
102
RTVSPost2010Prop41ColorRGB
 90
        0
102
RTVSPost2010PropOp41
 70
     0
102
RTVSPost2010Prop42
 90
       50
102
RTVSPost2010PropOp42
 70
     0
102
RTVSPost2010Prop43
 90
        3
102
RTVSPost2010PropOp43
 70
     0
102
RTVSPost2010Prop44ColorIndex
 90
        5
102
RTVSPost2010Prop44ColorRGB
 90
      255
102
RTVSPost2010PropOp44
 70
     0
102
RTVSPost2010Prop45
280
     0
102
RTVSPost2010PropOp45
 70
     1
102
RTVSPost2010Prop46
 90
       50
102
RTVSPost2010PropOp46
 70
     0
102
RTVSPost2010Prop47
 90
       50
102
RTVSPost2010PropOp47
 70
     0
102
RTVSPost2010Prop48
 90
       50
102
RTVSPost2010PropOp48
 70
     0
102
RTVSPost2010Prop49
280
     0
102
RTVSPost2010PropOp49
 70
     1
102
RTVSPost2010Prop50
 90
       50
102
RTVSPost2010PropOp50
 70
     0
102
RTVSPost2010Prop51ColorIndex
 90
      256
102
RTVSPost2010Prop51ColorRGB
 90
-16777216
102
RTVSPost2010PropOp51
 70
     0
102
RTVSPost2010Prop52
140
1.0
102
RTVSPost2010PropOp52
 70
     0
102
RTVSPost2010Prop53
 90
        2
102
RTVSPost2010PropOp53
 70
     0
102
RTVSPost2010Prop54
  1
strokes_ogs.tif
102
RTVSPost2010PropOp54
 70
     0
102
RTVSPost2010Prop55
280
     0
102
RTVSPost2010PropOp55
 70
     1
102
RTVSPost2010Prop56
140
1.0
102
RTVSPost2010PropOp56
 70
     0
102
RTVSPost2010Prop57
140
1.0
102
RTVSPost2010PropOp57
 70
     0
102
RTVSPropertyOp0
 70
     0
102
RTVSPropertyOp1
 70
     0
102
RTVSPropertyOp2
 70
     0
102
RTVSPropertyOp3
 70
     0
102
RTVSPropertyOp4
 70
     0
102
RTVSPropertyOp5
 70
     0
102
RTVSPropertyOp6
 70
     0
102
RTVSPropertyOp7
 70
     0
102
RTVSPropertyOp8
 70
     0
102
RTVSPropertyOp9
 70
     0
102
RTVSPropertyOp10
 70
     0
102
RTVSPropertyOp11
 70
     0
102
RTVSPropertyOp12
 70
     0
102
RTVSPropertyOp13
 70
     0
102
RTVSPropertyOp14
 70
     2
102
RTVSPropertyOp15
 70
     0
102
RTVSPropertyOp16
 70
     0
102
RTVSPropertyOp17
 70
     0
102
RTVSPropertyOp18
 70
     0
102
RTVSPropertyOp19
 70
     0
102
RTVSPropertyOp20
 70
     0
102
RTVSPropertyOp21
 70
     0
102
RTVSPropertyOp22
 70
     0
102
RTVSPropertyOp23
 70
     0
102
RTVSPropertyOp24
 70
     0
102
RTVSPropertyOp25
 70
     0
102
RTVSPropertyOp26
 70
     0
102
RTVSPropertyOp27
 70
     0
102
RTVSPropertyOp28
 70
     1
102
RTVSPropertyOp29
 70
     1
102
RTVSPropertyOp30
 70
     1
102
RTVSPropertyOp31
 70
     1
102
RTVSPropertyOp32
 70
     1
102
RTVSPropertyOp33
 70
     1
102
RTVSPropertyOp34
 70
     1
102
RTVSPropertyOp35
 70
     1
102
RTVSPropertyOp36
 70
     1
102
RTVSPropertyOp37
 70
     0
102
RTVSPropertyOp38
 70
     0
102
RTVSPropertyOp39
 70
     0
102
RTVSPropertyOp40
 70
     0
102
RTVSPropertyOp41
 70
     0
102
RTVSPropertyOp42
 70
     0
102
RTVSPropertyOp43
 70
     0
102
RTVSPropertyOp44
 70
     0
102
RTVSPropertyOp45
 70
     1
102
RTVSPropertyOp46
 70
     0
102
RTVSPropertyOp47
 70
     0
102
RTVSPropertyOp48
 70
     0
102
RTVSPropertyOp49
 70
     1
102
RTVSPropertyOp50
 70
     0
102
RTVSPropertyOp51
 70
     0
102
RTVSPropertyOp52
 70
     0
102
RTVSPropertyOp53
 70
     0
102
RTVSPropertyOp54
 70
     0
102
RTVSPropertyOp55
 70
     1
102
RTVSPropertyOp56
 70
     0
102
RTVSPropertyOp57
 70
     0
102
RTVSPropertyOp58
 70
     0
102
RTVSPropertyOp59
 70
     0
102
RTVSPropertyOp60
 70
     0
102
RTVSPropertyOp61
 70
     0
102
RTVSPropertyOp62
 70
     0
  0
XRECORD
  5
D172
102
{ACAD_REACTORS
330
D171
102
}
330
D171
100
AcDbXrecord
280
     1
102
RTVSPost2010Prop28
280
     0
102
RTVSPost2010PropOp28
 70
     1
102
RTVSPost2010Prop29
280
     1
102
RTVSPost2010PropOp29
 70
     1
102
RTVSPost2010Prop30
280
     1
102
RTVSPost2010PropOp30
 70
     1
102
RTVSPost2010Prop31
280
     0
102
RTVSPost2010PropOp31
 70
     1
102
RTVSPost2010Prop32
280
     0
102
RTVSPost2010PropOp32
 70
     1
102
RTVSPost2010Prop33
280
     0
102
RTVSPost2010PropOp33
 70
     1
102
RTVSPost2010Prop34
280
     0
102
RTVSPost2010PropOp34
 70
     1
102
RTVSPost2010Prop35
280
     0
102
RTVSPost2010PropOp35
 70
     1
102
RTVSPost2010Prop36
280
     0
102
RTVSPost2010PropOp36
 70
     1
102
RTVSPost2010Prop37
 90
       50
102
RTVSPost2010PropOp37
 70
     1
102
RTVSPost2010Prop38
140
0.0
102
RTVSPost2010PropOp38
 70
     1
102
RTVSPost2010Prop39
140
1.0
102
RTVSPost2010PropOp39
 70
     1
102
RTVSPost2010Prop40
 90
        0
102
RTVSPost2010PropOp40
 70
     1
102
RTVSPost2010Prop41ColorIndex
 90
       18
102
RTVSPost2010Prop41ColorRGB
 90
        0
102
RTVSPost2010PropOp41
 70
     1
102
RTVSPost2010Prop42
 90
       50
102
RTVSPost2010PropOp42
 70
     1
102
RTVSPost2010Prop43
 90
        3
102
RTVSPost2010PropOp43
 70
     1
102
RTVSPost2010Prop44ColorIndex
 90
        5
102
RTVSPost2010Prop44ColorRGB
 90
      255
102
RTVSPost2010PropOp44
 70
     1
102
RTVSPost2010Prop45
280
     0
102
RTVSPost2010PropOp45
 70
     1
102
RTVSPost2010Prop46
 90
       50
102
RTVSPost2010PropOp46
 70
     1
102
RTVSPost2010Prop47
 90
       50
102
RTVSPost2010PropOp47
 70
     1
102
RTVSPost2010Prop48
 90
       50
102
RTVSPost2010PropOp48
 70
     1
102
RTVSPost2010Prop49
280
     0
102
RTVSPost2010PropOp49
 70
     1
102
RTVSPost2010Prop50
 90
       50
102
RTVSPost2010PropOp50
 70
     1
102
RTVSPost2010Prop51ColorIndex
 90
      256
102
RTVSPost2010Prop51ColorRGB
 90
-16777216
102
RTVSPost2010PropOp51
 70
     0
102
RTVSPost2010Prop52
140
1.0
102
RTVSPost2010PropOp52
 70
     0
102
RTVSPost2010Prop53
 90
        2
102
RTVSPost2010PropOp53
 70
     1
102
RTVSPost2010Prop54
  1
strokes_ogs.tif
102
RTVSPost2010PropOp54
 70
     1
102
RTVSPost2010Prop55
280
     0
102
RTVSPost2010PropOp55
 70
     1
102
RTVSPost2010Prop56
140
1.0
102
RTVSPost2010PropOp56
 70
     1
102
RTVSPost2010Prop57
140
1.0
102
RTVSPost2010PropOp57
 70
     1
102
RTVSPropertyOp0
 70
     1
102
RTVSPropertyOp1
 70
     1
102
RTVSPropertyOp2
 70
     1
102
RTVSPropertyOp3
 70
     1
102
RTVSPropertyOp4
 70
     1
102
RTVSPropertyOp5
 70
     1
102
RTVSPropertyOp6
 70
     1
102
RTVSPropertyOp7
 70
     1
102
RTVSPropertyOp8
 70
     1
102
RTVSPropertyOp9
 70
     1
102
RTVSPropertyOp10
 70
     1
102
RTVSPropertyOp11
 70
     1
102
RTVSPropertyOp12
 70
     1
102
RTVSPropertyOp13
 70
     1
102
RTVSPropertyOp14
 70
     1
102
RTVSPropertyOp15
 70
     1
102
RTVSPropertyOp16
 70
     1
102
RTVSPropertyOp17
 70
     1
102
RTVSPropertyOp18
 70
     1
102
RTVSPropertyOp19
 70
     1
102
RTVSPropertyOp20
 70
     1
102
RTVSPropertyOp21
 70
     1
102
RTVSPropertyOp22
 70
     1
102
RTVSPropertyOp23
 70
     1
102
RTVSPropertyOp24
 70
     1
102
RTVSPropertyOp25
 70
     1
102
RTVSPropertyOp26
 70
     1
102
RTVSPropertyOp27
 70
     1
102
RTVSPropertyOp28
 70
     1
102
RTVSPropertyOp29
 70
     1
102
RTVSPropertyOp30
 70
     1
102
RTVSPropertyOp31
 70
     1
102
RTVSPropertyOp32
 70
     1
102
RTVSPropertyOp33
 70
     1
102
RTVSPropertyOp34
 70
     1
102
RTVSPropertyOp35
 70
     1
102
RTVSPropertyOp36
 70
     1
102
RTVSPropertyOp37
 70
     1
102
RTVSPropertyOp38
 70
     1
102
RTVSPropertyOp39
 70
     1
102
RTVSPropertyOp40
 70
     1
102
RTVSPropertyOp41
 70
     1
102
RTVSPropertyOp42
 70
     1
102
RTVSPropertyOp43
 70
     1
102
RTVSPropertyOp44
 70
     1
102
RTVSPropertyOp45
 70
     1
102
RTVSPropertyOp46
 70
     1
102
RTVSPropertyOp47
 70
     1
102
RTVSPropertyOp48
 70
     1
102
RTVSPropertyOp49
 70
     1
102
RTVSPropertyOp50
 70
     1
102
RTVSPropertyOp51
 70
     0
102
RTVSPropertyOp52
 70
     0
102
RTVSPropertyOp53
 70
     1
102
RTVSPropertyOp54
 70
     1
102
RTVSPropertyOp55
 70
     1
102
RTVSPropertyOp56
 70
     1
102
RTVSPropertyOp57
 70
     1
102
RTVSPropertyOp58
 70
     1
102
RTVSPropertyOp59
 70
     1
102
RTVSPropertyOp60
 70
     1
102
RTVSPropertyOp61
 70
     1
102
RTVSPropertyOp62
 70
     1
  0
XRECORD
  5
D156
102
{ACAD_REACTORS
330
D155
102
}
330
D155
100
AcDbXrecord
280
     1
102
RTVSPost2010Prop28
280
     0
102
RTVSPost2010PropOp28
 70
     1
102
RTVSPost2010Prop29
280
     1
102
RTVSPost2010PropOp29
 70
     1
102
RTVSPost2010Prop30
280
     1
102
RTVSPost2010PropOp30
 70
     1
102
RTVSPost2010Prop31
280
     0
102
RTVSPost2010PropOp31
 70
     1
102
RTVSPost2010Prop32
280
     0
102
RTVSPost2010PropOp32
 70
     1
102
RTVSPost2010Prop33
280
     0
102
RTVSPost2010PropOp33
 70
     1
102
RTVSPost2010Prop34
280
     0
102
RTVSPost2010PropOp34
 70
     1
102
RTVSPost2010Prop35
280
     0
102
RTVSPost2010PropOp35
 70
     1
102
RTVSPost2010Prop36
280
     0
102
RTVSPost2010PropOp36
 70
     1
102
RTVSPost2010Prop37
 90
       50
102
RTVSPost2010PropOp37
 70
     1
102
RTVSPost2010Prop38
140
0.0
102
RTVSPost2010PropOp38
 70
     1
102
RTVSPost2010Prop39
140
1.0
102
RTVSPost2010PropOp39
 70
     1
102
RTVSPost2010Prop40
 90
        0
102
RTVSPost2010PropOp40
 70
     1
102
RTVSPost2010Prop41ColorIndex
 90
       18
102
RTVSPost2010Prop41ColorRGB
 90
        0
102
RTVSPost2010PropOp41
 70
     1
102
RTVSPost2010Prop42
 90
       50
102
RTVSPost2010PropOp42
 70
     1
102
RTVSPost2010Prop43
 90
        3
102
RTVSPost2010PropOp43
 70
     1
102
RTVSPost2010Prop44ColorIndex
 90
        5
102
RTVSPost2010Prop44ColorRGB
 90
      255
102
RTVSPost2010PropOp44
 70
     1
102
RTVSPost2010Prop45
280
     0
102
RTVSPost2010PropOp45
 70
     1
102
RTVSPost2010Prop46
 90
       50
102
RTVSPost2010PropOp46
 70
     1
102
RTVSPost2010Prop47
 90
       50
102
RTVSPost2010PropOp47
 70
     1
102
RTVSPost2010Prop48
 90
       50
102
RTVSPost2010PropOp48
 70
     1
102
RTVSPost2010Prop49
280
     0
102
RTVSPost2010PropOp49
 70
     1
102
RTVSPost2010Prop50
 90
       50
102
RTVSPost2010PropOp50
 70
     1
102
RTVSPost2010Prop51ColorIndex
 90
      256
102
RTVSPost2010Prop51ColorRGB
 90
-16777216
102
RTVSPost2010PropOp51
 70
     0
102
RTVSPost2010Prop52
140
1.0
102
RTVSPost2010PropOp52
 70
     0
102
RTVSPost2010Prop53
 90
        2
102
RTVSPost2010PropOp53
 70
     1
102
RTVSPost2010Prop54
  1
strokes_ogs.tif
102
RTVSPost2010PropOp54
 70
     1
102
RTVSPost2010Prop55
280
     0
102
RTVSPost2010PropOp55
 70
     1
102
RTVSPost2010Prop56
140
1.0
102
RTVSPost2010PropOp56
 70
     1
102
RTVSPost2010Prop57
140
1.0
102
RTVSPost2010PropOp57
 70
     1
102
RTVSPropertyOp0
 70
     1
102
RTVSPropertyOp1
 70
     1
102
RTVSPropertyOp2
 70
     1
102
RTVSPropertyOp3
 70
     1
102
RTVSPropertyOp4
 70
     1
102
RTVSPropertyOp5
 70
     1
102
RTVSPropertyOp6
 70
     1
102
RTVSPropertyOp7
 70
     1
102
RTVSPropertyOp8
 70
     1
102
RTVSPropertyOp9
 70
     1
102
RTVSPropertyOp10
 70
     1
102
RTVSPropertyOp11
 70
     1
102
RTVSPropertyOp12
 70
     1
102
RTVSPropertyOp13
 70
     1
102
RTVSPropertyOp14
 70
     1
102
RTVSPropertyOp15
 70
     1
102
RTVSPropertyOp16
 70
     1
102
RTVSPropertyOp17
 70
     1
102
RTVSPropertyOp18
 70
     1
102
RTVSPropertyOp19
 70
     1
102
RTVSPropertyOp20
 70
     1
102
RTVSPropertyOp21
 70
     1
102
RTVSPropertyOp22
 70
     1
102
RTVSPropertyOp23
 70
     1
102
RTVSPropertyOp24
 70
     1
102
RTVSPropertyOp25
 70
     1
102
RTVSPropertyOp26
 70
     1
102
RTVSPropertyOp27
 70
     1
102
RTVSPropertyOp28
 70
     1
102
RTVSPropertyOp29
 70
     1
102
RTVSPropertyOp30
 70
     1
102
RTVSPropertyOp31
 70
     1
102
RTVSPropertyOp32
 70
     1
102
RTVSPropertyOp33
 70
     1
102
RTVSPropertyOp34
 70
     1
102
RTVSPropertyOp35
 70
     1
102
RTVSPropertyOp36
 70
     1
102
RTVSPropertyOp37
 70
     1
102
RTVSPropertyOp38
 70
     1
102
RTVSPropertyOp39
 70
     1
102
RTVSPropertyOp40
 70
     1
102
RTVSPropertyOp41
 70
     1
102
RTVSPropertyOp42
 70
     1
102
RTVSPropertyOp43
 70
     1
102
RTVSPropertyOp44
 70
     1
102
RTVSPropertyOp45
 70
     1
102
RTVSPropertyOp46
 70
     1
102
RTVSPropertyOp47
 70
     1
102
RTVSPropertyOp48
 70
     1
102
RTVSPropertyOp49
 70
     1
102
RTVSPropertyOp50
 70
     1
102
RTVSPropertyOp51
 70
     0
102
RTVSPropertyOp52
 70
     0
102
RTVSPropertyOp53
 70
     1
102
RTVSPropertyOp54
 70
     1
102
RTVSPropertyOp55
 70
     1
102
RTVSPropertyOp56
 70
     1
102
RTVSPropertyOp57
 70
     1
102
RTVSPropertyOp58
 70
     1
102
RTVSPropertyOp59
 70
     1
102
RTVSPropertyOp60
 70
     1
102
RTVSPropertyOp61
 70
     1
102
RTVSPropertyOp62
 70
     1
  0
XRECORD
  5
D158
102
{ACAD_REACTORS
330
D157
102
}
330
D157
100
AcDbXrecord
280
     1
102
RTVSPost2010Prop28
280
     0
102
RTVSPost2010PropOp28
 70
     1
102
RTVSPost2010Prop29
280
     1
102
RTVSPost2010PropOp29
 70
     1
102
RTVSPost2010Prop30
280
     1
102
RTVSPost2010PropOp30
 70
     1
102
RTVSPost2010Prop31
280
     0
102
RTVSPost2010PropOp31
 70
     1
102
RTVSPost2010Prop32
280
     0
102
RTVSPost2010PropOp32
 70
     1
102
RTVSPost2010Prop33
280
     0
102
RTVSPost2010PropOp33
 70
     1
102
RTVSPost2010Prop34
280
     0
102
RTVSPost2010PropOp34
 70
     1
102
RTVSPost2010Prop35
280
     0
102
RTVSPost2010PropOp35
 70
     1
102
RTVSPost2010Prop36
280
     0
102
RTVSPost2010PropOp36
 70
     1
102
RTVSPost2010Prop37
 90
       50
102
RTVSPost2010PropOp37
 70
     1
102
RTVSPost2010Prop38
140
0.0
102
RTVSPost2010PropOp38
 70
     1
102
RTVSPost2010Prop39
140
1.0
102
RTVSPost2010PropOp39
 70
     1
102
RTVSPost2010Prop40
 90
        0
102
RTVSPost2010PropOp40
 70
     1
102
RTVSPost2010Prop41ColorIndex
 90
       18
102
RTVSPost2010Prop41ColorRGB
 90
        0
102
RTVSPost2010PropOp41
 70
     1
102
RTVSPost2010Prop42
 90
       50
102
RTVSPost2010PropOp42
 70
     1
102
RTVSPost2010Prop43
 90
        3
102
RTVSPost2010PropOp43
 70
     1
102
RTVSPost2010Prop44ColorIndex
 90
        5
102
RTVSPost2010Prop44ColorRGB
 90
      255
102
RTVSPost2010PropOp44
 70
     1
102
RTVSPost2010Prop45
280
     0
102
RTVSPost2010PropOp45
 70
     1
102
RTVSPost2010Prop46
 90
       50
102
RTVSPost2010PropOp46
 70
     1
102
RTVSPost2010Prop47
 90
       50
102
RTVSPost2010PropOp47
 70
     1
102
RTVSPost2010Prop48
 90
       50
102
RTVSPost2010PropOp48
 70
     1
102
RTVSPost2010Prop49
280
     0
102
RTVSPost2010PropOp49
 70
     1
102
RTVSPost2010Prop50
 90
       50
102
RTVSPost2010PropOp50
 70
     1
102
RTVSPost2010Prop51ColorIndex
 90
      256
102
RTVSPost2010Prop51ColorRGB
 90
-16777216
102
RTVSPost2010PropOp51
 70
     0
102
RTVSPost2010Prop52
140
1.0
102
RTVSPost2010PropOp52
 70
     0
102
RTVSPost2010Prop53
 90
        2
102
RTVSPost2010PropOp53
 70
     1
102
RTVSPost2010Prop54
  1
strokes_ogs.tif
102
RTVSPost2010PropOp54
 70
     1
102
RTVSPost2010Prop55
280
     0
102
RTVSPost2010PropOp55
 70
     1
102
RTVSPost2010Prop56
140
1.0
102
RTVSPost2010PropOp56
 70
     1
102
RTVSPost2010Prop57
140
1.0
102
RTVSPost2010PropOp57
 70
     1
102
RTVSPropertyOp0
 70
     1
102
RTVSPropertyOp1
 70
     1
102
RTVSPropertyOp2
 70
     1
102
RTVSPropertyOp3
 70
     1
102
RTVSPropertyOp4
 70
     1
102
RTVSPropertyOp5
 70
     1
102
RTVSPropertyOp6
 70
     1
102
RTVSPropertyOp7
 70
     1
102
RTVSPropertyOp8
 70
     1
102
RTVSPropertyOp9
 70
     1
102
RTVSPropertyOp10
 70
     1
102
RTVSPropertyOp11
 70
     1
102
RTVSPropertyOp12
 70
     1
102
RTVSPropertyOp13
 70
     1
102
RTVSPropertyOp14
 70
     1
102
RTVSPropertyOp15
 70
     1
102
RTVSPropertyOp16
 70
     1
102
RTVSPropertyOp17
 70
     1
102
RTVSPropertyOp18
 70
     1
102
RTVSPropertyOp19
 70
     1
102
RTVSPropertyOp20
 70
     1
102
RTVSPropertyOp21
 70
     1
102
RTVSPropertyOp22
 70
     1
102
RTVSPropertyOp23
 70
     1
102
RTVSPropertyOp24
 70
     1
102
RTVSPropertyOp25
 70
     1
102
RTVSPropertyOp26
 70
     1
102
RTVSPropertyOp27
 70
     1
102
RTVSPropertyOp28
 70
     1
102
RTVSPropertyOp29
 70
     1
102
RTVSPropertyOp30
 70
     1
102
RTVSPropertyOp31
 70
     1
102
RTVSPropertyOp32
 70
     1
102
RTVSPropertyOp33
 70
     1
102
RTVSPropertyOp34
 70
     1
102
RTVSPropertyOp35
 70
     1
102
RTVSPropertyOp36
 70
     1
102
RTVSPropertyOp37
 70
     1
102
RTVSPropertyOp38
 70
     1
102
RTVSPropertyOp39
 70
     1
102
RTVSPropertyOp40
 70
     1
102
RTVSPropertyOp41
 70
     1
102
RTVSPropertyOp42
 70
     1
102
RTVSPropertyOp43
 70
     1
102
RTVSPropertyOp44
 70
     1
102
RTVSPropertyOp45
 70
     1
102
RTVSPropertyOp46
 70
     1
102
RTVSPropertyOp47
 70
     1
102
RTVSPropertyOp48
 70
     1
102
RTVSPropertyOp49
 70
     1
102
RTVSPropertyOp50
 70
     1
102
RTVSPropertyOp51
 70
     0
102
RTVSPropertyOp52
 70
     0
102
RTVSPropertyOp53
 70
     1
102
RTVSPropertyOp54
 70
     1
102
RTVSPropertyOp55
 70
     1
102
RTVSPropertyOp56
 70
     1
102
RTVSPropertyOp57
 70
     1
102
RTVSPropertyOp58
 70
     1
102
RTVSPropertyOp59
 70
     1
102
RTVSPropertyOp60
 70
     1
102
RTVSPropertyOp61
 70
     1
102
RTVSPropertyOp62
 70
     1
  0
XRECORD
  5
D15A
102
{ACAD_REACTORS
330
D159
102
}
330
D159
100
AcDbXrecord
280
     1
102
RTVSPost2010Prop28
280
     0
102
RTVSPost2010PropOp28
 70
     1
102
RTVSPost2010Prop29
280
     1
102
RTVSPost2010PropOp29
 70
     1
102
RTVSPost2010Prop30
280
     1
102
RTVSPost2010PropOp30
 70
     1
102
RTVSPost2010Prop31
280
     0
102
RTVSPost2010PropOp31
 70
     1
102
RTVSPost2010Prop32
280
     0
102
RTVSPost2010PropOp32
 70
     1
102
RTVSPost2010Prop33
280
     0
102
RTVSPost2010PropOp33
 70
     1
102
RTVSPost2010Prop34
280
     0
102
RTVSPost2010PropOp34
 70
     1
102
RTVSPost2010Prop35
280
     0
102
RTVSPost2010PropOp35
 70
     1
102
RTVSPost2010Prop36
280
     0
102
RTVSPost2010PropOp36
 70
     1
102
RTVSPost2010Prop37
 90
       50
102
RTVSPost2010PropOp37
 70
     1
102
RTVSPost2010Prop38
140
0.0
102
RTVSPost2010PropOp38
 70
     1
102
RTVSPost2010Prop39
140
1.0
102
RTVSPost2010PropOp39
 70
     1
102
RTVSPost2010Prop40
 90
        0
102
RTVSPost2010PropOp40
 70
     1
102
RTVSPost2010Prop41ColorIndex
 90
       18
102
RTVSPost2010Prop41ColorRGB
 90
        0
102
RTVSPost2010PropOp41
 70
     1
102
RTVSPost2010Prop42
 90
       50
102
RTVSPost2010PropOp42
 70
     1
102
RTVSPost2010Prop43
 90
        3
102
RTVSPost2010PropOp43
 70
     1
102
RTVSPost2010Prop44ColorIndex
 90
        5
102
RTVSPost2010Prop44ColorRGB
 90
      255
102
RTVSPost2010PropOp44
 70
     1
102
RTVSPost2010Prop45
280
     0
102
RTVSPost2010PropOp45
 70
     1
102
RTVSPost2010Prop46
 90
       50
102
RTVSPost2010PropOp46
 70
     1
102
RTVSPost2010Prop47
 90
       50
102
RTVSPost2010PropOp47
 70
     1
102
RTVSPost2010Prop48
 90
       50
102
RTVSPost2010PropOp48
 70
     1
102
RTVSPost2010Prop49
280
     0
102
RTVSPost2010PropOp49
 70
     1
102
RTVSPost2010Prop50
 90
       50
102
RTVSPost2010PropOp50
 70
     1
102
RTVSPost2010Prop51ColorIndex
 90
      256
102
RTVSPost2010Prop51ColorRGB
 90
-16777216
102
RTVSPost2010PropOp51
 70
     0
102
RTVSPost2010Prop52
140
1.0
102
RTVSPost2010PropOp52
 70
     0
102
RTVSPost2010Prop53
 90
        2
102
RTVSPost2010PropOp53
 70
     1
102
RTVSPost2010Prop54
  1
strokes_ogs.tif
102
RTVSPost2010PropOp54
 70
     1
102
RTVSPost2010Prop55
280
     0
102
RTVSPost2010PropOp55
 70
     1
102
RTVSPost2010Prop56
140
1.0
102
RTVSPost2010PropOp56
 70
     1
102
RTVSPost2010Prop57
140
1.0
102
RTVSPost2010PropOp57
 70
     1
102
RTVSPropertyOp0
 70
     1
102
RTVSPropertyOp1
 70
     1
102
RTVSPropertyOp2
 70
     1
102
RTVSPropertyOp3
 70
     1
102
RTVSPropertyOp4
 70
     1
102
RTVSPropertyOp5
 70
     1
102
RTVSPropertyOp6
 70
     1
102
RTVSPropertyOp7
 70
     1
102
RTVSPropertyOp8
 70
     1
102
RTVSPropertyOp9
 70
     1
102
RTVSPropertyOp10
 70
     1
102
RTVSPropertyOp11
 70
     1
102
RTVSPropertyOp12
 70
     1
102
RTVSPropertyOp13
 70
     1
102
RTVSPropertyOp14
 70
     1
102
RTVSPropertyOp15
 70
     1
102
RTVSPropertyOp16
 70
     1
102
RTVSPropertyOp17
 70
     1
102
RTVSPropertyOp18
 70
     1
102
RTVSPropertyOp19
 70
     1
102
RTVSPropertyOp20
 70
     1
102
RTVSPropertyOp21
 70
     1
102
RTVSPropertyOp22
 70
     1
102
RTVSPropertyOp23
 70
     1
102
RTVSPropertyOp24
 70
     1
102
RTVSPropertyOp25
 70
     1
102
RTVSPropertyOp26
 70
     1
102
RTVSPropertyOp27
 70
     1
102
RTVSPropertyOp28
 70
     1
102
RTVSPropertyOp29
 70
     1
102
RTVSPropertyOp30
 70
     1
102
RTVSPropertyOp31
 70
     1
102
RTVSPropertyOp32
 70
     1
102
RTVSPropertyOp33
 70
     1
102
RTVSPropertyOp34
 70
     1
102
RTVSPropertyOp35
 70
     1
102
RTVSPropertyOp36
 70
     1
102
RTVSPropertyOp37
 70
     1
102
RTVSPropertyOp38
 70
     1
102
RTVSPropertyOp39
 70
     1
102
RTVSPropertyOp40
 70
     1
102
RTVSPropertyOp41
 70
     1
102
RTVSPropertyOp42
 70
     1
102
RTVSPropertyOp43
 70
     1
102
RTVSPropertyOp44
 70
     1
102
RTVSPropertyOp45
 70
     1
102
RTVSPropertyOp46
 70
     1
102
RTVSPropertyOp47
 70
     1
102
RTVSPropertyOp48
 70
     1
102
RTVSPropertyOp49
 70
     1
102
RTVSPropertyOp50
 70
     1
102
RTVSPropertyOp51
 70
     0
102
RTVSPropertyOp52
 70
     0
102
RTVSPropertyOp53
 70
     1
102
RTVSPropertyOp54
 70
     1
102
RTVSPropertyOp55
 70
     1
102
RTVSPropertyOp56
 70
     1
102
RTVSPropertyOp57
 70
     1
102
RTVSPropertyOp58
 70
     1
102
RTVSPropertyOp59
 70
     1
102
RTVSPropertyOp60
 70
     1
102
RTVSPropertyOp61
 70
     1
102
RTVSPropertyOp62
 70
     1
  0
XRECORD
  5
D15C
102
{ACAD_REACTORS
330
D15B
102
}
330
D15B
100
AcDbXrecord
280
     1
102
RTVSPost2010Prop28
280
     0
102
RTVSPost2010PropOp28
 70
     1
102
RTVSPost2010Prop29
280
     1
102
RTVSPost2010PropOp29
 70
     1
102
RTVSPost2010Prop30
280
     1
102
RTVSPost2010PropOp30
 70
     1
102
RTVSPost2010Prop31
280
     0
102
RTVSPost2010PropOp31
 70
     1
102
RTVSPost2010Prop32
280
     0
102
RTVSPost2010PropOp32
 70
     1
102
RTVSPost2010Prop33
280
     0
102
RTVSPost2010PropOp33
 70
     1
102
RTVSPost2010Prop34
280
     0
102
RTVSPost2010PropOp34
 70
     1
102
RTVSPost2010Prop35
280
     0
102
RTVSPost2010PropOp35
 70
     1
102
RTVSPost2010Prop36
280
     0
102
RTVSPost2010PropOp36
 70
     1
102
RTVSPost2010Prop37
 90
       50
102
RTVSPost2010PropOp37
 70
     1
102
RTVSPost2010Prop38
140
0.0
102
RTVSPost2010PropOp38
 70
     1
102
RTVSPost2010Prop39
140
1.0
102
RTVSPost2010PropOp39
 70
     1
102
RTVSPost2010Prop40
 90
        0
102
RTVSPost2010PropOp40
 70
     1
102
RTVSPost2010Prop41ColorIndex
 90
       18
102
RTVSPost2010Prop41ColorRGB
 90
        0
102
RTVSPost2010PropOp41
 70
     1
102
RTVSPost2010Prop42
 90
       50
102
RTVSPost2010PropOp42
 70
     1
102
RTVSPost2010Prop43
 90
        3
102
RTVSPost2010PropOp43
 70
     1
102
RTVSPost2010Prop44ColorIndex
 90
        5
102
RTVSPost2010Prop44ColorRGB
 90
      255
102
RTVSPost2010PropOp44
 70
     1
102
RTVSPost2010Prop45
280
     0
102
RTVSPost2010PropOp45
 70
     1
102
RTVSPost2010Prop46
 90
       50
102
RTVSPost2010PropOp46
 70
     1
102
RTVSPost2010Prop47
 90
       50
102
RTVSPost2010PropOp47
 70
     1
102
RTVSPost2010Prop48
 90
       50
102
RTVSPost2010PropOp48
 70
     1
102
RTVSPost2010Prop49
280
     0
102
RTVSPost2010PropOp49
 70
     1
102
RTVSPost2010Prop50
 90
       50
102
RTVSPost2010PropOp50
 70
     1
102
RTVSPost2010Prop51ColorIndex
 90
      256
102
RTVSPost2010Prop51ColorRGB
 90
-16777216
102
RTVSPost2010PropOp51
 70
     0
102
RTVSPost2010Prop52
140
1.0
102
RTVSPost2010PropOp52
 70
     0
102
RTVSPost2010Prop53
 90
        2
102
RTVSPost2010PropOp53
 70
     1
102
RTVSPost2010Prop54
  1
strokes_ogs.tif
102
RTVSPost2010PropOp54
 70
     1
102
RTVSPost2010Prop55
280
     0
102
RTVSPost2010PropOp55
 70
     1
102
RTVSPost2010Prop56
140
1.0
102
RTVSPost2010PropOp56
 70
     1
102
RTVSPost2010Prop57
140
1.0
102
RTVSPost2010PropOp57
 70
     1
102
RTVSPropertyOp0
 70
     1
102
RTVSPropertyOp1
 70
     1
102
RTVSPropertyOp2
 70
     1
102
RTVSPropertyOp3
 70
     1
102
RTVSPropertyOp4
 70
     1
102
RTVSPropertyOp5
 70
     1
102
RTVSPropertyOp6
 70
     1
102
RTVSPropertyOp7
 70
     1
102
RTVSPropertyOp8
 70
     1
102
RTVSPropertyOp9
 70
     1
102
RTVSPropertyOp10
 70
     1
102
RTVSPropertyOp11
 70
     1
102
RTVSPropertyOp12
 70
     1
102
RTVSPropertyOp13
 70
     1
102
RTVSPropertyOp14
 70
     1
102
RTVSPropertyOp15
 70
     1
102
RTVSPropertyOp16
 70
     1
102
RTVSPropertyOp17
 70
     1
102
RTVSPropertyOp18
 70
     1
102
RTVSPropertyOp19
 70
     1
102
RTVSPropertyOp20
 70
     1
102
RTVSPropertyOp21
 70
     1
102
RTVSPropertyOp22
 70
     1
102
RTVSPropertyOp23
 70
     1
102
RTVSPropertyOp24
 70
     1
102
RTVSPropertyOp25
 70
     1
102
RTVSPropertyOp26
 70
     1
102
RTVSPropertyOp27
 70
     1
102
RTVSPropertyOp28
 70
     1
102
RTVSPropertyOp29
 70
     1
102
RTVSPropertyOp30
 70
     1
102
RTVSPropertyOp31
 70
     1
102
RTVSPropertyOp32
 70
     1
102
RTVSPropertyOp33
 70
     1
102
RTVSPropertyOp34
 70
     1
102
RTVSPropertyOp35
 70
     1
102
RTVSPropertyOp36
 70
     1
102
RTVSPropertyOp37
 70
     1
102
RTVSPropertyOp38
 70
     1
102
RTVSPropertyOp39
 70
     1
102
RTVSPropertyOp40
 70
     1
102
RTVSPropertyOp41
 70
     1
102
RTVSPropertyOp42
 70
     1
102
RTVSPropertyOp43
 70
     1
102
RTVSPropertyOp44
 70
     1
102
RTVSPropertyOp45
 70
     1
102
RTVSPropertyOp46
 70
     1
102
RTVSPropertyOp47
 70
     1
102
RTVSPropertyOp48
 70
     1
102
RTVSPropertyOp49
 70
     1
102
RTVSPropertyOp50
 70
     1
102
RTVSPropertyOp51
 70
     0
102
RTVSPropertyOp52
 70
     0
102
RTVSPropertyOp53
 70
     1
102
RTVSPropertyOp54
 70
     1
102
RTVSPropertyOp55
 70
     1
102
RTVSPropertyOp56
 70
     1
102
RTVSPropertyOp57
 70
     1
102
RTVSPropertyOp58
 70
     1
102
RTVSPropertyOp59
 70
     1
102
RTVSPropertyOp60
 70
     1
102
RTVSPropertyOp61
 70
     1
102
RTVSPropertyOp62
 70
     1
  0
XRECORD
  5
D179
102
{ACAD_REACTORS
330
D178
102
}
330
D178
100
AcDbXrecord
280
     1
102
RTVSPost2010Prop28
280
     0
102
RTVSPost2010PropOp28
 70
     1
102
RTVSPost2010Prop29
280
     1
102
RTVSPost2010PropOp29
 70
     1
102
RTVSPost2010Prop30
280
     1
102
RTVSPost2010PropOp30
 70
     1
102
RTVSPost2010Prop31
280
     0
102
RTVSPost2010PropOp31
 70
     1
102
RTVSPost2010Prop32
280
     0
102
RTVSPost2010PropOp32
 70
     1
102
RTVSPost2010Prop33
280
     0
102
RTVSPost2010PropOp33
 70
     1
102
RTVSPost2010Prop34
280
     0
102
RTVSPost2010PropOp34
 70
     1
102
RTVSPost2010Prop35
280
     0
102
RTVSPost2010PropOp35
 70
     1
102
RTVSPost2010Prop36
280
     0
102
RTVSPost2010PropOp36
 70
     1
102
RTVSPost2010Prop37
 90
       50
102
RTVSPost2010PropOp37
 70
     1
102
RTVSPost2010Prop38
140
0.0
102
RTVSPost2010PropOp38
 70
     1
102
RTVSPost2010Prop39
140
1.0
102
RTVSPost2010PropOp39
 70
     1
102
RTVSPost2010Prop40
 90
        0
102
RTVSPost2010PropOp40
 70
     1
102
RTVSPost2010Prop41ColorIndex
 90
       18
102
RTVSPost2010Prop41ColorRGB
 90
        0
102
RTVSPost2010PropOp41
 70
     1
102
RTVSPost2010Prop42
 90
       50
102
RTVSPost2010PropOp42
 70
     1
102
RTVSPost2010Prop43
 90
        3
102
RTVSPost2010PropOp43
 70
     1
102
RTVSPost2010Prop44ColorIndex
 90
        5
102
RTVSPost2010Prop44ColorRGB
 90
      255
102
RTVSPost2010PropOp44
 70
     1
102
RTVSPost2010Prop45
280
     0
102
RTVSPost2010PropOp45
 70
     1
102
RTVSPost2010Prop46
 90
       50
102
RTVSPost2010PropOp46
 70
     1
102
RTVSPost2010Prop47
 90
       50
102
RTVSPost2010PropOp47
 70
     1
102
RTVSPost2010Prop48
 90
       50
102
RTVSPost2010PropOp48
 70
     1
102
RTVSPost2010Prop49
280
     0
102
RTVSPost2010PropOp49
 70
     1
102
RTVSPost2010Prop50
 90
       50
102
RTVSPost2010PropOp50
 70
     1
102
RTVSPost2010Prop51ColorIndex
 90
      256
102
RTVSPost2010Prop51ColorRGB
 90
-16777216
102
RTVSPost2010PropOp51
 70
     0
102
RTVSPost2010Prop52
140
1.0
102
RTVSPost2010PropOp52
 70
     0
102
RTVSPost2010Prop53
 90
        2
102
RTVSPost2010PropOp53
 70
     1
102
RTVSPost2010Prop54
  1
strokes_ogs.tif
102
RTVSPost2010PropOp54
 70
     1
102
RTVSPost2010Prop55
280
     0
102
RTVSPost2010PropOp55
 70
     1
102
RTVSPost2010Prop56
140
1.0
102
RTVSPost2010PropOp56
 70
     1
102
RTVSPost2010Prop57
140
1.0
102
RTVSPost2010PropOp57
 70
     1
102
RTVSPropertyOp0
 70
     1
102
RTVSPropertyOp1
 70
     1
102
RTVSPropertyOp2
 70
     1
102
RTVSPropertyOp3
 70
     1
102
RTVSPropertyOp4
 70
     1
102
RTVSPropertyOp5
 70
     1
102
RTVSPropertyOp6
 70
     1
102
RTVSPropertyOp7
 70
     1
102
RTVSPropertyOp8
 70
     1
102
RTVSPropertyOp9
 70
     1
102
RTVSPropertyOp10
 70
     1
102
RTVSPropertyOp11
 70
     1
102
RTVSPropertyOp12
 70
     1
102
RTVSPropertyOp13
 70
     1
102
RTVSPropertyOp14
 70
     1
102
RTVSPropertyOp15
 70
     1
102
RTVSPropertyOp16
 70
     1
102
RTVSPropertyOp17
 70
     1
102
RTVSPropertyOp18
 70
     1
102
RTVSPropertyOp19
 70
     1
102
RTVSPropertyOp20
 70
     1
102
RTVSPropertyOp21
 70
     1
102
RTVSPropertyOp22
 70
     1
102
RTVSPropertyOp23
 70
     1
102
RTVSPropertyOp24
 70
     1
102
RTVSPropertyOp25
 70
     1
102
RTVSPropertyOp26
 70
     1
102
RTVSPropertyOp27
 70
     1
102
RTVSPropertyOp28
 70
     1
102
RTVSPropertyOp29
 70
     1
102
RTVSPropertyOp30
 70
     1
102
RTVSPropertyOp31
 70
     1
102
RTVSPropertyOp32
 70
     1
102
RTVSPropertyOp33
 70
     1
102
RTVSPropertyOp34
 70
     1
102
RTVSPropertyOp35
 70
     1
102
RTVSPropertyOp36
 70
     1
102
RTVSPropertyOp37
 70
     1
102
RTVSPropertyOp38
 70
     1
102
RTVSPropertyOp39
 70
     1
102
RTVSPropertyOp40
 70
     1
102
RTVSPropertyOp41
 70
     1
102
RTVSPropertyOp42
 70
     1
102
RTVSPropertyOp43
 70
     1
102
RTVSPropertyOp44
 70
     1
102
RTVSPropertyOp45
 70
     1
102
RTVSPropertyOp46
 70
     1
102
RTVSPropertyOp47
 70
     1
102
RTVSPropertyOp48
 70
     1
102
RTVSPropertyOp49
 70
     1
102
RTVSPropertyOp50
 70
     1
102
RTVSPropertyOp51
 70
     0
102
RTVSPropertyOp52
 70
     0
102
RTVSPropertyOp53
 70
     1
102
RTVSPropertyOp54
 70
     1
102
RTVSPropertyOp55
 70
     1
102
RTVSPropertyOp56
 70
     1
102
RTVSPropertyOp57
 70
     1
102
RTVSPropertyOp58
 70
     1
102
RTVSPropertyOp59
 70
     1
102
RTVSPropertyOp60
 70
     1
102
RTVSPropertyOp61
 70
     1
102
RTVSPropertyOp62
 70
     1
  0
XRECORD
  5
D185
102
{ACAD_REACTORS
330
D184
102
}
330
D184
100
AcDbXrecord
280
     1
102
RTVSPost2010Prop28
280
     0
102
RTVSPost2010PropOp28
 70
     1
102
RTVSPost2010Prop29
280
     1
102
RTVSPost2010PropOp29
 70
     1
102
RTVSPost2010Prop30
280
     1
102
RTVSPost2010PropOp30
 70
     1
102
RTVSPost2010Prop31
280
     0
102
RTVSPost2010PropOp31
 70
     1
102
RTVSPost2010Prop32
280
     0
102
RTVSPost2010PropOp32
 70
     1
102
RTVSPost2010Prop33
280
     0
102
RTVSPost2010PropOp33
 70
     1
102
RTVSPost2010Prop34
280
     0
102
RTVSPost2010PropOp34
 70
     1
102
RTVSPost2010Prop35
280
     0
102
RTVSPost2010PropOp35
 70
     1
102
RTVSPost2010Prop36
280
     0
102
RTVSPost2010PropOp36
 70
     1
102
RTVSPost2010Prop37
 90
       50
102
RTVSPost2010PropOp37
 70
     0
102
RTVSPost2010Prop38
140
0.0
102
RTVSPost2010PropOp38
 70
     0
102
RTVSPost2010Prop39
140
1.0
102
RTVSPost2010PropOp39
 70
     0
102
RTVSPost2010Prop40
 90
        0
102
RTVSPost2010PropOp40
 70
     0
102
RTVSPost2010Prop41ColorIndex
 90
       18
102
RTVSPost2010Prop41ColorRGB
 90
        0
102
RTVSPost2010PropOp41
 70
     0
102
RTVSPost2010Prop42
 90
       50
102
RTVSPost2010PropOp42
 70
     0
102
RTVSPost2010Prop43
 90
        3
102
RTVSPost2010PropOp43
 70
     0
102
RTVSPost2010Prop44ColorIndex
 90
        5
102
RTVSPost2010Prop44ColorRGB
 90
      255
102
RTVSPost2010PropOp44
 70
     0
102
RTVSPost2010Prop45
280
     0
102
RTVSPost2010PropOp45
 70
     1
102
RTVSPost2010Prop46
 90
       50
102
RTVSPost2010PropOp46
 70
     0
102
RTVSPost2010Prop47
 90
       50
102
RTVSPost2010PropOp47
 70
     0
102
RTVSPost2010Prop48
 90
       50
102
RTVSPost2010PropOp48
 70
     0
102
RTVSPost2010Prop49
280
     0
102
RTVSPost2010PropOp49
 70
     1
102
RTVSPost2010Prop50
 90
       50
102
RTVSPost2010PropOp50
 70
     0
102
RTVSPost2010Prop51ColorIndex
 90
      256
102
RTVSPost2010Prop51ColorRGB
 90
-16777216
102
RTVSPost2010PropOp51
 70
     0
102
RTVSPost2010Prop52
140
1.0
102
RTVSPost2010PropOp52
 70
     0
102
RTVSPost2010Prop53
 90
        2
102
RTVSPost2010PropOp53
 70
     0
102
RTVSPost2010Prop54
  1
strokes_ogs.tif
102
RTVSPost2010PropOp54
 70
     0
102
RTVSPost2010Prop55
280
     0
102
RTVSPost2010PropOp55
 70
     1
102
RTVSPost2010Prop56
140
1.0
102
RTVSPost2010PropOp56
 70
     0
102
RTVSPost2010Prop57
140
1.0
102
RTVSPost2010PropOp57
 70
     0
102
RTVSPropertyOp0
 70
     0
102
RTVSPropertyOp1
 70
     0
102
RTVSPropertyOp2
 70
     0
102
RTVSPropertyOp3
 70
     0
102
RTVSPropertyOp4
 70
     0
102
RTVSPropertyOp5
 70
     0
102
RTVSPropertyOp6
 70
     0
102
RTVSPropertyOp7
 70
     0
102
RTVSPropertyOp8
 70
     0
102
RTVSPropertyOp9
 70
     0
102
RTVSPropertyOp10
 70
     0
102
RTVSPropertyOp11
 70
     0
102
RTVSPropertyOp12
 70
     0
102
RTVSPropertyOp13
 70
     0
102
RTVSPropertyOp14
 70
     2
102
RTVSPropertyOp15
 70
     0
102
RTVSPropertyOp16
 70
     0
102
RTVSPropertyOp17
 70
     0
102
RTVSPropertyOp18
 70
     0
102
RTVSPropertyOp19
 70
     0
102
RTVSPropertyOp20
 70
     0
102
RTVSPropertyOp21
 70
     0
102
RTVSPropertyOp22
 70
     0
102
RTVSPropertyOp23
 70
     0
102
RTVSPropertyOp24
 70
     0
102
RTVSPropertyOp25
 70
     0
102
RTVSPropertyOp26
 70
     0
102
RTVSPropertyOp27
 70
     0
102
RTVSPropertyOp28
 70
     1
102
RTVSPropertyOp29
 70
     1
102
RTVSPropertyOp30
 70
     1
102
RTVSPropertyOp31
 70
     1
102
RTVSPropertyOp32
 70
     1
102
RTVSPropertyOp33
 70
     1
102
RTVSPropertyOp34
 70
     1
102
RTVSPropertyOp35
 70
     1
102
RTVSPropertyOp36
 70
     1
102
RTVSPropertyOp37
 70
     0
102
RTVSPropertyOp38
 70
     0
102
RTVSPropertyOp39
 70
     0
102
RTVSPropertyOp40
 70
     0
102
RTVSPropertyOp41
 70
     0
102
RTVSPropertyOp42
 70
     0
102
RTVSPropertyOp43
 70
     0
102
RTVSPropertyOp44
 70
     0
102
RTVSPropertyOp45
 70
     1
102
RTVSPropertyOp46
 70
     0
102
RTVSPropertyOp47
 70
     0
102
RTVSPropertyOp48
 70
     0
102
RTVSPropertyOp49
 70
     1
102
RTVSPropertyOp50
 70
     0
102
RTVSPropertyOp51
 70
     0
102
RTVSPropertyOp52
 70
     0
102
RTVSPropertyOp53
 70
     0
102
RTVSPropertyOp54
 70
     0
102
RTVSPropertyOp55
 70
     1
102
RTVSPropertyOp56
 70
     0
102
RTVSPropertyOp57
 70
     0
102
RTVSPropertyOp58
 70
     0
102
RTVSPropertyOp59
 70
     0
102
RTVSPropertyOp60
 70
     0
102
RTVSPropertyOp61
 70
     0
102
RTVSPropertyOp62
 70
     0
  0
XRECORD
  5
D170
102
{ACAD_REACTORS
330
D16F
102
}
330
D16F
100
AcDbXrecord
280
     1
102
RTVSPost2010Prop28
280
     0
102
RTVSPost2010PropOp28
 70
     1
102
RTVSPost2010Prop29
280
     1
102
RTVSPost2010PropOp29
 70
     1
102
RTVSPost2010Prop30
280
     1
102
RTVSPost2010PropOp30
 70
     1
102
RTVSPost2010Prop31
280
     0
102
RTVSPost2010PropOp31
 70
     1
102
RTVSPost2010Prop32
280
     0
102
RTVSPost2010PropOp32
 70
     1
102
RTVSPost2010Prop33
280
     0
102
RTVSPost2010PropOp33
 70
     1
102
RTVSPost2010Prop34
280
     0
102
RTVSPost2010PropOp34
 70
     1
102
RTVSPost2010Prop35
280
     0
102
RTVSPost2010PropOp35
 70
     1
102
RTVSPost2010Prop36
280
     0
102
RTVSPost2010PropOp36
 70
     1
102
RTVSPost2010Prop37
 90
       50
102
RTVSPost2010PropOp37
 70
     1
102
RTVSPost2010Prop38
140
0.0
102
RTVSPost2010PropOp38
 70
     1
102
RTVSPost2010Prop39
140
1.0
102
RTVSPost2010PropOp39
 70
     1
102
RTVSPost2010Prop40
 90
        0
102
RTVSPost2010PropOp40
 70
     1
102
RTVSPost2010Prop41ColorIndex
 90
       18
102
RTVSPost2010Prop41ColorRGB
 90
        0
102
RTVSPost2010PropOp41
 70
     1
102
RTVSPost2010Prop42
 90
       50
102
RTVSPost2010PropOp42
 70
     1
102
RTVSPost2010Prop43
 90
        3
102
RTVSPost2010PropOp43
 70
     1
102
RTVSPost2010Prop44ColorIndex
 90
        5
102
RTVSPost2010Prop44ColorRGB
 90
      255
102
RTVSPost2010PropOp44
 70
     1
102
RTVSPost2010Prop45
280
     0
102
RTVSPost2010PropOp45
 70
     1
102
RTVSPost2010Prop46
 90
       50
102
RTVSPost2010PropOp46
 70
     1
102
RTVSPost2010Prop47
 90
       50
102
RTVSPost2010PropOp47
 70
     1
102
RTVSPost2010Prop48
 90
       50
102
RTVSPost2010PropOp48
 70
     1
102
RTVSPost2010Prop49
280
     0
102
RTVSPost2010PropOp49
 70
     1
102
RTVSPost2010Prop50
 90
       50
102
RTVSPost2010PropOp50
 70
     1
102
RTVSPost2010Prop51ColorIndex
 90
      256
102
RTVSPost2010Prop51ColorRGB
 90
-16777216
102
RTVSPost2010PropOp51
 70
     0
102
RTVSPost2010Prop52
140
1.0
102
RTVSPost2010PropOp52
 70
     0
102
RTVSPost2010Prop53
 90
        2
102
RTVSPost2010PropOp53
 70
     1
102
RTVSPost2010Prop54
  1
strokes_ogs.tif
102
RTVSPost2010PropOp54
 70
     1
102
RTVSPost2010Prop55
280
     0
102
RTVSPost2010PropOp55
 70
     1
102
RTVSPost2010Prop56
140
1.0
102
RTVSPost2010PropOp56
 70
     1
102
RTVSPost2010Prop57
140
1.0
102
RTVSPost2010PropOp57
 70
     1
102
RTVSPropertyOp0
 70
     1
102
RTVSPropertyOp1
 70
     1
102
RTVSPropertyOp2
 70
     1
102
RTVSPropertyOp3
 70
     1
102
RTVSPropertyOp4
 70
     1
102
RTVSPropertyOp5
 70
     1
102
RTVSPropertyOp6
 70
     1
102
RTVSPropertyOp7
 70
     1
102
RTVSPropertyOp8
 70
     1
102
RTVSPropertyOp9
 70
     1
102
RTVSPropertyOp10
 70
     1
102
RTVSPropertyOp11
 70
     1
102
RTVSPropertyOp12
 70
     1
102
RTVSPropertyOp13
 70
     1
102
RTVSPropertyOp14
 70
     1
102
RTVSPropertyOp15
 70
     1
102
RTVSPropertyOp16
 70
     1
102
RTVSPropertyOp17
 70
     1
102
RTVSPropertyOp18
 70
     1
102
RTVSPropertyOp19
 70
     1
102
RTVSPropertyOp20
 70
     1
102
RTVSPropertyOp21
 70
     1
102
RTVSPropertyOp22
 70
     1
102
RTVSPropertyOp23
 70
     1
102
RTVSPropertyOp24
 70
     1
102
RTVSPropertyOp25
 70
     1
102
RTVSPropertyOp26
 70
     1
102
RTVSPropertyOp27
 70
     1
102
RTVSPropertyOp28
 70
     1
102
RTVSPropertyOp29
 70
     1
102
RTVSPropertyOp30
 70
     1
102
RTVSPropertyOp31
 70
     1
102
RTVSPropertyOp32
 70
     1
102
RTVSPropertyOp33
 70
     1
102
RTVSPropertyOp34
 70
     1
102
RTVSPropertyOp35
 70
     1
102
RTVSPropertyOp36
 70
     1
102
RTVSPropertyOp37
 70
     1
102
RTVSPropertyOp38
 70
     1
102
RTVSPropertyOp39
 70
     1
102
RTVSPropertyOp40
 70
     1
102
RTVSPropertyOp41
 70
     1
102
RTVSPropertyOp42
 70
     1
102
RTVSPropertyOp43
 70
     1
102
RTVSPropertyOp44
 70
     1
102
RTVSPropertyOp45
 70
     1
102
RTVSPropertyOp46
 70
     1
102
RTVSPropertyOp47
 70
     1
102
RTVSPropertyOp48
 70
     1
102
RTVSPropertyOp49
 70
     1
102
RTVSPropertyOp50
 70
     1
102
RTVSPropertyOp51
 70
     0
102
RTVSPropertyOp52
 70
     0
102
RTVSPropertyOp53
 70
     1
102
RTVSPropertyOp54
 70
     1
102
RTVSPropertyOp55
 70
     1
102
RTVSPropertyOp56
 70
     1
102
RTVSPropertyOp57
 70
     1
102
RTVSPropertyOp58
 70
     1
102
RTVSPropertyOp59
 70
     1
102
RTVSPropertyOp60
 70
     1
102
RTVSPropertyOp61
 70
     1
102
RTVSPropertyOp62
 70
     1
  0
XRECORD
  5
D187
102
{ACAD_REACTORS
330
D186
102
}
330
D186
100
AcDbXrecord
280
     1
102
RTVSPost2010Prop28
280
     0
102
RTVSPost2010PropOp28
 70
     1
102
RTVSPost2010Prop29
280
     1
102
RTVSPost2010PropOp29
 70
     1
102
RTVSPost2010Prop30
280
     1
102
RTVSPost2010PropOp30
 70
     1
102
RTVSPost2010Prop31
280
     0
102
RTVSPost2010PropOp31
 70
     1
102
RTVSPost2010Prop32
280
     0
102
RTVSPost2010PropOp32
 70
     1
102
RTVSPost2010Prop33
280
     0
102
RTVSPost2010PropOp33
 70
     1
102
RTVSPost2010Prop34
280
     0
102
RTVSPost2010PropOp34
 70
     1
102
RTVSPost2010Prop35
280
     0
102
RTVSPost2010PropOp35
 70
     1
102
RTVSPost2010Prop36
280
     0
102
RTVSPost2010PropOp36
 70
     1
102
RTVSPost2010Prop37
 90
       50
102
RTVSPost2010PropOp37
 70
     0
102
RTVSPost2010Prop38
140
0.0
102
RTVSPost2010PropOp38
 70
     0
102
RTVSPost2010Prop39
140
1.0
102
RTVSPost2010PropOp39
 70
     0
102
RTVSPost2010Prop40
 90
        0
102
RTVSPost2010PropOp40
 70
     0
102
RTVSPost2010Prop41ColorIndex
 90
       18
102
RTVSPost2010Prop41ColorRGB
 90
        0
102
RTVSPost2010PropOp41
 70
     0
102
RTVSPost2010Prop42
 90
       50
102
RTVSPost2010PropOp42
 70
     0
102
RTVSPost2010Prop43
 90
        3
102
RTVSPost2010PropOp43
 70
     0
102
RTVSPost2010Prop44ColorIndex
 90
        5
102
RTVSPost2010Prop44ColorRGB
 90
      255
102
RTVSPost2010PropOp44
 70
     0
102
RTVSPost2010Prop45
280
     0
102
RTVSPost2010PropOp45
 70
     1
102
RTVSPost2010Prop46
 90
       50
102
RTVSPost2010PropOp46
 70
     0
102
RTVSPost2010Prop47
 90
       50
102
RTVSPost2010PropOp47
 70
     0
102
RTVSPost2010Prop48
 90
       50
102
RTVSPost2010PropOp48
 70
     0
102
RTVSPost2010Prop49
280
     0
102
RTVSPost2010PropOp49
 70
     1
102
RTVSPost2010Prop50
 90
       50
102
RTVSPost2010PropOp50
 70
     0
102
RTVSPost2010Prop51ColorIndex
 90
      256
102
RTVSPost2010Prop51ColorRGB
 90
-16777216
102
RTVSPost2010PropOp51
 70
     0
102
RTVSPost2010Prop52
140
1.0
102
RTVSPost2010PropOp52
 70
     0
102
RTVSPost2010Prop53
 90
        2
102
RTVSPost2010PropOp53
 70
     0
102
RTVSPost2010Prop54
  1
strokes_ogs.tif
102
RTVSPost2010PropOp54
 70
     0
102
RTVSPost2010Prop55
280
     0
102
RTVSPost2010PropOp55
 70
     1
102
RTVSPost2010Prop56
140
1.0
102
RTVSPost2010PropOp56
 70
     0
102
RTVSPost2010Prop57
140
1.0
102
RTVSPost2010PropOp57
 70
     0
102
RTVSPropertyOp0
 70
     0
102
RTVSPropertyOp1
 70
     0
102
RTVSPropertyOp2
 70
     0
102
RTVSPropertyOp3
 70
     0
102
RTVSPropertyOp4
 70
     0
102
RTVSPropertyOp5
 70
     0
102
RTVSPropertyOp6
 70
     0
102
RTVSPropertyOp7
 70
     0
102
RTVSPropertyOp8
 70
     0
102
RTVSPropertyOp9
 70
     0
102
RTVSPropertyOp10
 70
     0
102
RTVSPropertyOp11
 70
     0
102
RTVSPropertyOp12
 70
     0
102
RTVSPropertyOp13
 70
     0
102
RTVSPropertyOp14
 70
     2
102
RTVSPropertyOp15
 70
     0
102
RTVSPropertyOp16
 70
     0
102
RTVSPropertyOp17
 70
     0
102
RTVSPropertyOp18
 70
     0
102
RTVSPropertyOp19
 70
     0
102
RTVSPropertyOp20
 70
     0
102
RTVSPropertyOp21
 70
     0
102
RTVSPropertyOp22
 70
     0
102
RTVSPropertyOp23
 70
     0
102
RTVSPropertyOp24
 70
     0
102
RTVSPropertyOp25
 70
     0
102
RTVSPropertyOp26
 70
     0
102
RTVSPropertyOp27
 70
     0
102
RTVSPropertyOp28
 70
     1
102
RTVSPropertyOp29
 70
     1
102
RTVSPropertyOp30
 70
     1
102
RTVSPropertyOp31
 70
     1
102
RTVSPropertyOp32
 70
     1
102
RTVSPropertyOp33
 70
     1
102
RTVSPropertyOp34
 70
     1
102
RTVSPropertyOp35
 70
     1
102
RTVSPropertyOp36
 70
     1
102
RTVSPropertyOp37
 70
     0
102
RTVSPropertyOp38
 70
     0
102
RTVSPropertyOp39
 70
     0
102
RTVSPropertyOp40
 70
     0
102
RTVSPropertyOp41
 70
     0
102
RTVSPropertyOp42
 70
     0
102
RTVSPropertyOp43
 70
     0
102
RTVSPropertyOp44
 70
     0
102
RTVSPropertyOp45
 70
     1
102
RTVSPropertyOp46
 70
     0
102
RTVSPropertyOp47
 70
     0
102
RTVSPropertyOp48
 70
     0
102
RTVSPropertyOp49
 70
     1
102
RTVSPropertyOp50
 70
     0
102
RTVSPropertyOp51
 70
     0
102
RTVSPropertyOp52
 70
     0
102
RTVSPropertyOp53
 70
     0
102
RTVSPropertyOp54
 70
     0
102
RTVSPropertyOp55
 70
     1
102
RTVSPropertyOp56
 70
     0
102
RTVSPropertyOp57
 70
     0
102
RTVSPropertyOp58
 70
     0
102
RTVSPropertyOp59
 70
     0
102
RTVSPropertyOp60
 70
     0
102
RTVSPropertyOp61
 70
     0
102
RTVSPropertyOp62
 70
     0
  0
XRECORD
  5
D168
102
{ACAD_REACTORS
330
D167
102
}
330
D167
100
AcDbXrecord
280
     1
102
RTVSPost2010Prop28
280
     0
102
RTVSPost2010PropOp28
 70
     1
102
RTVSPost2010Prop29
280
     1
102
RTVSPost2010PropOp29
 70
     1
102
RTVSPost2010Prop30
280
     1
102
RTVSPost2010PropOp30
 70
     1
102
RTVSPost2010Prop31
280
     0
102
RTVSPost2010PropOp31
 70
     1
102
RTVSPost2010Prop32
280
     0
102
RTVSPost2010PropOp32
 70
     1
102
RTVSPost2010Prop33
280
     0
102
RTVSPost2010PropOp33
 70
     1
102
RTVSPost2010Prop34
280
     0
102
RTVSPost2010PropOp34
 70
     1
102
RTVSPost2010Prop35
280
     0
102
RTVSPost2010PropOp35
 70
     1
102
RTVSPost2010Prop36
280
     0
102
RTVSPost2010PropOp36
 70
     1
102
RTVSPost2010Prop37
 90
       50
102
RTVSPost2010PropOp37
 70
     1
102
RTVSPost2010Prop38
140
0.0
102
RTVSPost2010PropOp38
 70
     1
102
RTVSPost2010Prop39
140
1.0
102
RTVSPost2010PropOp39
 70
     1
102
RTVSPost2010Prop40
 90
        0
102
RTVSPost2010PropOp40
 70
     1
102
RTVSPost2010Prop41ColorIndex
 90
       18
102
RTVSPost2010Prop41ColorRGB
 90
        0
102
RTVSPost2010PropOp41
 70
     1
102
RTVSPost2010Prop42
 90
       50
102
RTVSPost2010PropOp42
 70
     1
102
RTVSPost2010Prop43
 90
        3
102
RTVSPost2010PropOp43
 70
     1
102
RTVSPost2010Prop44ColorIndex
 90
        5
102
RTVSPost2010Prop44ColorRGB
 90
      255
102
RTVSPost2010PropOp44
 70
     1
102
RTVSPost2010Prop45
280
     0
102
RTVSPost2010PropOp45
 70
     1
102
RTVSPost2010Prop46
 90
       50
102
RTVSPost2010PropOp46
 70
     1
102
RTVSPost2010Prop47
 90
       50
102
RTVSPost2010PropOp47
 70
     1
102
RTVSPost2010Prop48
 90
       50
102
RTVSPost2010PropOp48
 70
     1
102
RTVSPost2010Prop49
280
     0
102
RTVSPost2010PropOp49
 70
     1
102
RTVSPost2010Prop50
 90
       50
102
RTVSPost2010PropOp50
 70
     1
102
RTVSPost2010Prop51ColorIndex
 90
      256
102
RTVSPost2010Prop51ColorRGB
 90
-16777216
102
RTVSPost2010PropOp51
 70
     0
102
RTVSPost2010Prop52
140
1.0
102
RTVSPost2010PropOp52
 70
     0
102
RTVSPost2010Prop53
 90
        2
102
RTVSPost2010PropOp53
 70
     1
102
RTVSPost2010Prop54
  1
strokes_ogs.tif
102
RTVSPost2010PropOp54
 70
     1
102
RTVSPost2010Prop55
280
     0
102
RTVSPost2010PropOp55
 70
     1
102
RTVSPost2010Prop56
140
1.0
102
RTVSPost2010PropOp56
 70
     1
102
RTVSPost2010Prop57
140
1.0
102
RTVSPost2010PropOp57
 70
     1
102
RTVSPropertyOp0
 70
     1
102
RTVSPropertyOp1
 70
     1
102
RTVSPropertyOp2
 70
     1
102
RTVSPropertyOp3
 70
     1
102
RTVSPropertyOp4
 70
     1
102
RTVSPropertyOp5
 70
     1
102
RTVSPropertyOp6
 70
     1
102
RTVSPropertyOp7
 70
     1
102
RTVSPropertyOp8
 70
     1
102
RTVSPropertyOp9
 70
     1
102
RTVSPropertyOp10
 70
     1
102
RTVSPropertyOp11
 70
     1
102
RTVSPropertyOp12
 70
     1
102
RTVSPropertyOp13
 70
     1
102
RTVSPropertyOp14
 70
     1
102
RTVSPropertyOp15
 70
     1
102
RTVSPropertyOp16
 70
     1
102
RTVSPropertyOp17
 70
     1
102
RTVSPropertyOp18
 70
     1
102
RTVSPropertyOp19
 70
     1
102
RTVSPropertyOp20
 70
     1
102
RTVSPropertyOp21
 70
     1
102
RTVSPropertyOp22
 70
     1
102
RTVSPropertyOp23
 70
     1
102
RTVSPropertyOp24
 70
     1
102
RTVSPropertyOp25
 70
     1
102
RTVSPropertyOp26
 70
     1
102
RTVSPropertyOp27
 70
     1
102
RTVSPropertyOp28
 70
     1
102
RTVSPropertyOp29
 70
     1
102
RTVSPropertyOp30
 70
     1
102
RTVSPropertyOp31
 70
     1
102
RTVSPropertyOp32
 70
     1
102
RTVSPropertyOp33
 70
     1
102
RTVSPropertyOp34
 70
     1
102
RTVSPropertyOp35
 70
     1
102
RTVSPropertyOp36
 70
     1
102
RTVSPropertyOp37
 70
     1
102
RTVSPropertyOp38
 70
     1
102
RTVSPropertyOp39
 70
     1
102
RTVSPropertyOp40
 70
     1
102
RTVSPropertyOp41
 70
     1
102
RTVSPropertyOp42
 70
     1
102
RTVSPropertyOp43
 70
     1
102
RTVSPropertyOp44
 70
     1
102
RTVSPropertyOp45
 70
     1
102
RTVSPropertyOp46
 70
     1
102
RTVSPropertyOp47
 70
     1
102
RTVSPropertyOp48
 70
     1
102
RTVSPropertyOp49
 70
     1
102
RTVSPropertyOp50
 70
     1
102
RTVSPropertyOp51
 70
     0
102
RTVSPropertyOp52
 70
     0
102
RTVSPropertyOp53
 70
     1
102
RTVSPropertyOp54
 70
     1
102
RTVSPropertyOp55
 70
     1
102
RTVSPropertyOp56
 70
     1
102
RTVSPropertyOp57
 70
     1
102
RTVSPropertyOp58
 70
     1
102
RTVSPropertyOp59
 70
     1
102
RTVSPropertyOp60
 70
     1
102
RTVSPropertyOp61
 70
     1
102
RTVSPropertyOp62
 70
     1
  0
XRECORD
  5
D183
102
{ACAD_REACTORS
330
D182
102
}
330
D182
100
AcDbXrecord
280
     1
102
RTVSPost2010Prop28
280
     0
102
RTVSPost2010PropOp28
 70
     1
102
RTVSPost2010Prop29
280
     1
102
RTVSPost2010PropOp29
 70
     1
102
RTVSPost2010Prop30
280
     1
102
RTVSPost2010PropOp30
 70
     1
102
RTVSPost2010Prop31
280
     0
102
RTVSPost2010PropOp31
 70
     1
102
RTVSPost2010Prop32
280
     0
102
RTVSPost2010PropOp32
 70
     1
102
RTVSPost2010Prop33
280
     0
102
RTVSPost2010PropOp33
 70
     1
102
RTVSPost2010Prop34
280
     0
102
RTVSPost2010PropOp34
 70
     1
102
RTVSPost2010Prop35
280
     0
102
RTVSPost2010PropOp35
 70
     1
102
RTVSPost2010Prop36
280
     0
102
RTVSPost2010PropOp36
 70
     1
102
RTVSPost2010Prop37
 90
       50
102
RTVSPost2010PropOp37
 70
     1
102
RTVSPost2010Prop38
140
0.0
102
RTVSPost2010PropOp38
 70
     1
102
RTVSPost2010Prop39
140
1.0
102
RTVSPost2010PropOp39
 70
     1
102
RTVSPost2010Prop40
 90
        0
102
RTVSPost2010PropOp40
 70
     1
102
RTVSPost2010Prop41ColorIndex
 90
       18
102
RTVSPost2010Prop41ColorRGB
 90
        0
102
RTVSPost2010PropOp41
 70
     1
102
RTVSPost2010Prop42
 90
       50
102
RTVSPost2010PropOp42
 70
     1
102
RTVSPost2010Prop43
 90
        3
102
RTVSPost2010PropOp43
 70
     1
102
RTVSPost2010Prop44ColorIndex
 90
        5
102
RTVSPost2010Prop44ColorRGB
 90
      255
102
RTVSPost2010PropOp44
 70
     1
102
RTVSPost2010Prop45
280
     0
102
RTVSPost2010PropOp45
 70
     1
102
RTVSPost2010Prop46
 90
       50
102
RTVSPost2010PropOp46
 70
     1
102
RTVSPost2010Prop47
 90
       50
102
RTVSPost2010PropOp47
 70
     1
102
RTVSPost2010Prop48
 90
       50
102
RTVSPost2010PropOp48
 70
     1
102
RTVSPost2010Prop49
280
     0
102
RTVSPost2010PropOp49
 70
     1
102
RTVSPost2010Prop50
 90
       50
102
RTVSPost2010PropOp50
 70
     1
102
RTVSPost2010Prop51ColorIndex
 90
      256
102
RTVSPost2010Prop51ColorRGB
 90
-16777216
102
RTVSPost2010PropOp51
 70
     0
102
RTVSPost2010Prop52
140
1.0
102
RTVSPost2010PropOp52
 70
     0
102
RTVSPost2010Prop53
 90
        2
102
RTVSPost2010PropOp53
 70
     1
102
RTVSPost2010Prop54
  1
strokes_ogs.tif
102
RTVSPost2010PropOp54
 70
     1
102
RTVSPost2010Prop55
280
     0
102
RTVSPost2010PropOp55
 70
     1
102
RTVSPost2010Prop56
140
1.0
102
RTVSPost2010PropOp56
 70
     1
102
RTVSPost2010Prop57
140
1.0
102
RTVSPost2010PropOp57
 70
     1
102
RTVSPropertyOp0
 70
     1
102
RTVSPropertyOp1
 70
     1
102
RTVSPropertyOp2
 70
     1
102
RTVSPropertyOp3
 70
     1
102
RTVSPropertyOp4
 70
     1
102
RTVSPropertyOp5
 70
     1
102
RTVSPropertyOp6
 70
     1
102
RTVSPropertyOp7
 70
     1
102
RTVSPropertyOp8
 70
     1
102
RTVSPropertyOp9
 70
     1
102
RTVSPropertyOp10
 70
     1
102
RTVSPropertyOp11
 70
     1
102
RTVSPropertyOp12
 70
     1
102
RTVSPropertyOp13
 70
     1
102
RTVSPropertyOp14
 70
     1
102
RTVSPropertyOp15
 70
     1
102
RTVSPropertyOp16
 70
     1
102
RTVSPropertyOp17
 70
     1
102
RTVSPropertyOp18
 70
     1
102
RTVSPropertyOp19
 70
     1
102
RTVSPropertyOp20
 70
     1
102
RTVSPropertyOp21
 70
     1
102
RTVSPropertyOp22
 70
     1
102
RTVSPropertyOp23
 70
     1
102
RTVSPropertyOp24
 70
     1
102
RTVSPropertyOp25
 70
     1
102
RTVSPropertyOp26
 70
     1
102
RTVSPropertyOp27
 70
     1
102
RTVSPropertyOp28
 70
     1
102
RTVSPropertyOp29
 70
     1
102
RTVSPropertyOp30
 70
     1
102
RTVSPropertyOp31
 70
     1
102
RTVSPropertyOp32
 70
     1
102
RTVSPropertyOp33
 70
     1
102
RTVSPropertyOp34
 70
     1
102
RTVSPropertyOp35
 70
     1
102
RTVSPropertyOp36
 70
     1
102
RTVSPropertyOp37
 70
     1
102
RTVSPropertyOp38
 70
     1
102
RTVSPropertyOp39
 70
     1
102
RTVSPropertyOp40
 70
     1
102
RTVSPropertyOp41
 70
     1
102
RTVSPropertyOp42
 70
     1
102
RTVSPropertyOp43
 70
     1
102
RTVSPropertyOp44
 70
     1
102
RTVSPropertyOp45
 70
     1
102
RTVSPropertyOp46
 70
     1
102
RTVSPropertyOp47
 70
     1
102
RTVSPropertyOp48
 70
     1
102
RTVSPropertyOp49
 70
     1
102
RTVSPropertyOp50
 70
     1
102
RTVSPropertyOp51
 70
     0
102
RTVSPropertyOp52
 70
     0
102
RTVSPropertyOp53
 70
     1
102
RTVSPropertyOp54
 70
     1
102
RTVSPropertyOp55
 70
     1
102
RTVSPropertyOp56
 70
     1
102
RTVSPropertyOp57
 70
     1
102
RTVSPropertyOp58
 70
     1
102
RTVSPropertyOp59
 70
     1
102
RTVSPropertyOp60
 70
     1
102
RTVSPropertyOp61
 70
     1
102
RTVSPropertyOp62
 70
     1
  0
XRECORD
  5
D181
102
{ACAD_REACTORS
330
D180
102
}
330
D180
100
AcDbXrecord
280
     1
102
RTVSPost2010Prop28
280
     0
102
RTVSPost2010PropOp28
 70
     1
102
RTVSPost2010Prop29
280
     1
102
RTVSPost2010PropOp29
 70
     1
102
RTVSPost2010Prop30
280
     1
102
RTVSPost2010PropOp30
 70
     1
102
RTVSPost2010Prop31
280
     0
102
RTVSPost2010PropOp31
 70
     1
102
RTVSPost2010Prop32
280
     0
102
RTVSPost2010PropOp32
 70
     1
102
RTVSPost2010Prop33
280
     0
102
RTVSPost2010PropOp33
 70
     1
102
RTVSPost2010Prop34
280
     0
102
RTVSPost2010PropOp34
 70
     1
102
RTVSPost2010Prop35
280
     0
102
RTVSPost2010PropOp35
 70
     1
102
RTVSPost2010Prop36
280
     0
102
RTVSPost2010PropOp36
 70
     1
102
RTVSPost2010Prop37
 90
       50
102
RTVSPost2010PropOp37
 70
     1
102
RTVSPost2010Prop38
140
0.0
102
RTVSPost2010PropOp38
 70
     1
102
RTVSPost2010Prop39
140
1.0
102
RTVSPost2010PropOp39
 70
     1
102
RTVSPost2010Prop40
 90
        0
102
RTVSPost2010PropOp40
 70
     1
102
RTVSPost2010Prop41ColorIndex
 90
       18
102
RTVSPost2010Prop41ColorRGB
 90
        0
102
RTVSPost2010PropOp41
 70
     1
102
RTVSPost2010Prop42
 90
       50
102
RTVSPost2010PropOp42
 70
     1
102
RTVSPost2010Prop43
 90
        3
102
RTVSPost2010PropOp43
 70
     1
102
RTVSPost2010Prop44ColorIndex
 90
        5
102
RTVSPost2010Prop44ColorRGB
 90
      255
102
RTVSPost2010PropOp44
 70
     1
102
RTVSPost2010Prop45
280
     0
102
RTVSPost2010PropOp45
 70
     1
102
RTVSPost2010Prop46
 90
       50
102
RTVSPost2010PropOp46
 70
     1
102
RTVSPost2010Prop47
 90
       50
102
RTVSPost2010PropOp47
 70
     1
102
RTVSPost2010Prop48
 90
       50
102
RTVSPost2010PropOp48
 70
     1
102
RTVSPost2010Prop49
280
     0
102
RTVSPost2010PropOp49
 70
     1
102
RTVSPost2010Prop50
 90
       50
102
RTVSPost2010PropOp50
 70
     1
102
RTVSPost2010Prop51ColorIndex
 90
      256
102
RTVSPost2010Prop51ColorRGB
 90
-16777216
102
RTVSPost2010PropOp51
 70
     0
102
RTVSPost2010Prop52
140
1.0
102
RTVSPost2010PropOp52
 70
     0
102
RTVSPost2010Prop53
 90
        2
102
RTVSPost2010PropOp53
 70
     1
102
RTVSPost2010Prop54
  1
strokes_ogs.tif
102
RTVSPost2010PropOp54
 70
     1
102
RTVSPost2010Prop55
280
     0
102
RTVSPost2010PropOp55
 70
     1
102
RTVSPost2010Prop56
140
1.0
102
RTVSPost2010PropOp56
 70
     1
102
RTVSPost2010Prop57
140
1.0
102
RTVSPost2010PropOp57
 70
     1
102
RTVSPropertyOp0
 70
     1
102
RTVSPropertyOp1
 70
     1
102
RTVSPropertyOp2
 70
     1
102
RTVSPropertyOp3
 70
     1
102
RTVSPropertyOp4
 70
     1
102
RTVSPropertyOp5
 70
     1
102
RTVSPropertyOp6
 70
     1
102
RTVSPropertyOp7
 70
     1
102
RTVSPropertyOp8
 70
     1
102
RTVSPropertyOp9
 70
     1
102
RTVSPropertyOp10
 70
     1
102
RTVSPropertyOp11
 70
     1
102
RTVSPropertyOp12
 70
     1
102
RTVSPropertyOp13
 70
     1
102
RTVSPropertyOp14
 70
     1
102
RTVSPropertyOp15
 70
     1
102
RTVSPropertyOp16
 70
     1
102
RTVSPropertyOp17
 70
     1
102
RTVSPropertyOp18
 70
     1
102
RTVSPropertyOp19
 70
     1
102
RTVSPropertyOp20
 70
     1
102
RTVSPropertyOp21
 70
     1
102
RTVSPropertyOp22
 70
     1
102
RTVSPropertyOp23
 70
     1
102
RTVSPropertyOp24
 70
     1
102
RTVSPropertyOp25
 70
     1
102
RTVSPropertyOp26
 70
     1
102
RTVSPropertyOp27
 70
     1
102
RTVSPropertyOp28
 70
     1
102
RTVSPropertyOp29
 70
     1
102
RTVSPropertyOp30
 70
     1
102
RTVSPropertyOp31
 70
     1
102
RTVSPropertyOp32
 70
     1
102
RTVSPropertyOp33
 70
     1
102
RTVSPropertyOp34
 70
     1
102
RTVSPropertyOp35
 70
     1
102
RTVSPropertyOp36
 70
     1
102
RTVSPropertyOp37
 70
     1
102
RTVSPropertyOp38
 70
     1
102
RTVSPropertyOp39
 70
     1
102
RTVSPropertyOp40
 70
     1
102
RTVSPropertyOp41
 70
     1
102
RTVSPropertyOp42
 70
     1
102
RTVSPropertyOp43
 70
     1
102
RTVSPropertyOp44
 70
     1
102
RTVSPropertyOp45
 70
     1
102
RTVSPropertyOp46
 70
     1
102
RTVSPropertyOp47
 70
     1
102
RTVSPropertyOp48
 70
     1
102
RTVSPropertyOp49
 70
     1
102
RTVSPropertyOp50
 70
     1
102
RTVSPropertyOp51
 70
     0
102
RTVSPropertyOp52
 70
     0
102
RTVSPropertyOp53
 70
     1
102
RTVSPropertyOp54
 70
     1
102
RTVSPropertyOp55
 70
     1
102
RTVSPropertyOp56
 70
     1
102
RTVSPropertyOp57
 70
     1
102
RTVSPropertyOp58
 70
     1
102
RTVSPropertyOp59
 70
     1
102
RTVSPropertyOp60
 70
     1
102
RTVSPropertyOp61
 70
     1
102
RTVSPropertyOp62
 70
     1
  0
XRECORD
  5
D17B
102
{ACAD_REACTORS
330
D17A
102
}
330
D17A
100
AcDbXrecord
280
     1
102
RTVSPost2010Prop28
280
     0
102
RTVSPost2010PropOp28
 70
     1
102
RTVSPost2010Prop29
280
     1
102
RTVSPost2010PropOp29
 70
     1
102
RTVSPost2010Prop30
280
     1
102
RTVSPost2010PropOp30
 70
     1
102
RTVSPost2010Prop31
280
     0
102
RTVSPost2010PropOp31
 70
     1
102
RTVSPost2010Prop32
280
     0
102
RTVSPost2010PropOp32
 70
     1
102
RTVSPost2010Prop33
280
     0
102
RTVSPost2010PropOp33
 70
     1
102
RTVSPost2010Prop34
280
     0
102
RTVSPost2010PropOp34
 70
     1
102
RTVSPost2010Prop35
280
     0
102
RTVSPost2010PropOp35
 70
     1
102
RTVSPost2010Prop36
280
     0
102
RTVSPost2010PropOp36
 70
     1
102
RTVSPost2010Prop37
 90
       50
102
RTVSPost2010PropOp37
 70
     1
102
RTVSPost2010Prop38
140
0.0
102
RTVSPost2010PropOp38
 70
     1
102
RTVSPost2010Prop39
140
1.0
102
RTVSPost2010PropOp39
 70
     1
102
RTVSPost2010Prop40
 90
        0
102
RTVSPost2010PropOp40
 70
     1
102
RTVSPost2010Prop41ColorIndex
 90
       18
102
RTVSPost2010Prop41ColorRGB
 90
        0
102
RTVSPost2010PropOp41
 70
     1
102
RTVSPost2010Prop42
 90
       50
102
RTVSPost2010PropOp42
 70
     1
102
RTVSPost2010Prop43
 90
        3
102
RTVSPost2010PropOp43
 70
     1
102
RTVSPost2010Prop44ColorIndex
 90
        5
102
RTVSPost2010Prop44ColorRGB
 90
      255
102
RTVSPost2010PropOp44
 70
     1
102
RTVSPost2010Prop45
280
     0
102
RTVSPost2010PropOp45
 70
     1
102
RTVSPost2010Prop46
 90
       50
102
RTVSPost2010PropOp46
 70
     1
102
RTVSPost2010Prop47
 90
       50
102
RTVSPost2010PropOp47
 70
     1
102
RTVSPost2010Prop48
 90
       50
102
RTVSPost2010PropOp48
 70
     1
102
RTVSPost2010Prop49
280
     0
102
RTVSPost2010PropOp49
 70
     1
102
RTVSPost2010Prop50
 90
       50
102
RTVSPost2010PropOp50
 70
     1
102
RTVSPost2010Prop51ColorIndex
 90
      256
102
RTVSPost2010Prop51ColorRGB
 90
-16777216
102
RTVSPost2010PropOp51
 70
     0
102
RTVSPost2010Prop52
140
1.0
102
RTVSPost2010PropOp52
 70
     0
102
RTVSPost2010Prop53
 90
        2
102
RTVSPost2010PropOp53
 70
     1
102
RTVSPost2010Prop54
  1
strokes_ogs.tif
102
RTVSPost2010PropOp54
 70
     1
102
RTVSPost2010Prop55
280
     0
102
RTVSPost2010PropOp55
 70
     1
102
RTVSPost2010Prop56
140
1.0
102
RTVSPost2010PropOp56
 70
     1
102
RTVSPost2010Prop57
140
1.0
102
RTVSPost2010PropOp57
 70
     1
102
RTVSPropertyOp0
 70
     1
102
RTVSPropertyOp1
 70
     1
102
RTVSPropertyOp2
 70
     1
102
RTVSPropertyOp3
 70
     1
102
RTVSPropertyOp4
 70
     1
102
RTVSPropertyOp5
 70
     1
102
RTVSPropertyOp6
 70
     1
102
RTVSPropertyOp7
 70
     1
102
RTVSPropertyOp8
 70
     1
102
RTVSPropertyOp9
 70
     1
102
RTVSPropertyOp10
 70
     1
102
RTVSPropertyOp11
 70
     1
102
RTVSPropertyOp12
 70
     1
102
RTVSPropertyOp13
 70
     1
102
RTVSPropertyOp14
 70
     1
102
RTVSPropertyOp15
 70
     1
102
RTVSPropertyOp16
 70
     1
102
RTVSPropertyOp17
 70
     1
102
RTVSPropertyOp18
 70
     1
102
RTVSPropertyOp19
 70
     1
102
RTVSPropertyOp20
 70
     1
102
RTVSPropertyOp21
 70
     1
102
RTVSPropertyOp22
 70
     1
102
RTVSPropertyOp23
 70
     1
102
RTVSPropertyOp24
 70
     1
102
RTVSPropertyOp25
 70
     1
102
RTVSPropertyOp26
 70
     1
102
RTVSPropertyOp27
 70
     1
102
RTVSPropertyOp28
 70
     1
102
RTVSPropertyOp29
 70
     1
102
RTVSPropertyOp30
 70
     1
102
RTVSPropertyOp31
 70
     1
102
RTVSPropertyOp32
 70
     1
102
RTVSPropertyOp33
 70
     1
102
RTVSPropertyOp34
 70
     1
102
RTVSPropertyOp35
 70
     1
102
RTVSPropertyOp36
 70
     1
102
RTVSPropertyOp37
 70
     1
102
RTVSPropertyOp38
 70
     1
102
RTVSPropertyOp39
 70
     1
102
RTVSPropertyOp40
 70
     1
102
RTVSPropertyOp41
 70
     1
102
RTVSPropertyOp42
 70
     1
102
RTVSPropertyOp43
 70
     1
102
RTVSPropertyOp44
 70
     1
102
RTVSPropertyOp45
 70
     1
102
RTVSPropertyOp46
 70
     1
102
RTVSPropertyOp47
 70
     1
102
RTVSPropertyOp48
 70
     1
102
RTVSPropertyOp49
 70
     1
102
RTVSPropertyOp50
 70
     1
102
RTVSPropertyOp51
 70
     0
102
RTVSPropertyOp52
 70
     0
102
RTVSPropertyOp53
 70
     1
102
RTVSPropertyOp54
 70
     1
102
RTVSPropertyOp55
 70
     1
102
RTVSPropertyOp56
 70
     1
102
RTVSPropertyOp57
 70
     1
102
RTVSPropertyOp58
 70
     1
102
RTVSPropertyOp59
 70
     1
102
RTVSPropertyOp60
 70
     1
102
RTVSPropertyOp61
 70
     1
102
RTVSPropertyOp62
 70
     1
  0
XRECORD
  5
D17D
102
{ACAD_REACTORS
330
D17C
102
}
330
D17C
100
AcDbXrecord
280
     1
102
RTVSPost2010Prop28
280
     0
102
RTVSPost2010PropOp28
 70
     1
102
RTVSPost2010Prop29
280
     1
102
RTVSPost2010PropOp29
 70
     1
102
RTVSPost2010Prop30
280
     1
102
RTVSPost2010PropOp30
 70
     1
102
RTVSPost2010Prop31
280
     0
102
RTVSPost2010PropOp31
 70
     1
102
RTVSPost2010Prop32
280
     0
102
RTVSPost2010PropOp32
 70
     1
102
RTVSPost2010Prop33
280
     0
102
RTVSPost2010PropOp33
 70
     1
102
RTVSPost2010Prop34
280
     0
102
RTVSPost2010PropOp34
 70
     1
102
RTVSPost2010Prop35
280
     0
102
RTVSPost2010PropOp35
 70
     1
102
RTVSPost2010Prop36
280
     0
102
RTVSPost2010PropOp36
 70
     1
102
RTVSPost2010Prop37
 90
       50
102
RTVSPost2010PropOp37
 70
     1
102
RTVSPost2010Prop38
140
0.0
102
RTVSPost2010PropOp38
 70
     1
102
RTVSPost2010Prop39
140
1.0
102
RTVSPost2010PropOp39
 70
     1
102
RTVSPost2010Prop40
 90
        0
102
RTVSPost2010PropOp40
 70
     1
102
RTVSPost2010Prop41ColorIndex
 90
       18
102
RTVSPost2010Prop41ColorRGB
 90
        0
102
RTVSPost2010PropOp41
 70
     1
102
RTVSPost2010Prop42
 90
       50
102
RTVSPost2010PropOp42
 70
     1
102
RTVSPost2010Prop43
 90
        3
102
RTVSPost2010PropOp43
 70
     1
102
RTVSPost2010Prop44ColorIndex
 90
        5
102
RTVSPost2010Prop44ColorRGB
 90
      255
102
RTVSPost2010PropOp44
 70
     1
102
RTVSPost2010Prop45
280
     0
102
RTVSPost2010PropOp45
 70
     1
102
RTVSPost2010Prop46
 90
       50
102
RTVSPost2010PropOp46
 70
     1
102
RTVSPost2010Prop47
 90
       50
102
RTVSPost2010PropOp47
 70
     1
102
RTVSPost2010Prop48
 90
       50
102
RTVSPost2010PropOp48
 70
     1
102
RTVSPost2010Prop49
280
     0
102
RTVSPost2010PropOp49
 70
     1
102
RTVSPost2010Prop50
 90
       50
102
RTVSPost2010PropOp50
 70
     1
102
RTVSPost2010Prop51ColorIndex
 90
      256
102
RTVSPost2010Prop51ColorRGB
 90
-16777216
102
RTVSPost2010PropOp51
 70
     0
102
RTVSPost2010Prop52
140
1.0
102
RTVSPost2010PropOp52
 70
     0
102
RTVSPost2010Prop53
 90
        2
102
RTVSPost2010PropOp53
 70
     1
102
RTVSPost2010Prop54
  1
strokes_ogs.tif
102
RTVSPost2010PropOp54
 70
     1
102
RTVSPost2010Prop55
280
     0
102
RTVSPost2010PropOp55
 70
     1
102
RTVSPost2010Prop56
140
1.0
102
RTVSPost2010PropOp56
 70
     1
102
RTVSPost2010Prop57
140
1.0
102
RTVSPost2010PropOp57
 70
     1
102
RTVSPropertyOp0
 70
     1
102
RTVSPropertyOp1
 70
     1
102
RTVSPropertyOp2
 70
     1
102
RTVSPropertyOp3
 70
     1
102
RTVSPropertyOp4
 70
     1
102
RTVSPropertyOp5
 70
     1
102
RTVSPropertyOp6
 70
     1
102
RTVSPropertyOp7
 70
     1
102
RTVSPropertyOp8
 70
     1
102
RTVSPropertyOp9
 70
     1
102
RTVSPropertyOp10
 70
     1
102
RTVSPropertyOp11
 70
     1
102
RTVSPropertyOp12
 70
     1
102
RTVSPropertyOp13
 70
     1
102
RTVSPropertyOp14
 70
     1
102
RTVSPropertyOp15
 70
     1
102
RTVSPropertyOp16
 70
     1
102
RTVSPropertyOp17
 70
     1
102
RTVSPropertyOp18
 70
     1
102
RTVSPropertyOp19
 70
     1
102
RTVSPropertyOp20
 70
     1
102
RTVSPropertyOp21
 70
     1
102
RTVSPropertyOp22
 70
     1
102
RTVSPropertyOp23
 70
     1
102
RTVSPropertyOp24
 70
     1
102
RTVSPropertyOp25
 70
     1
102
RTVSPropertyOp26
 70
     1
102
RTVSPropertyOp27
 70
     1
102
RTVSPropertyOp28
 70
     1
102
RTVSPropertyOp29
 70
     1
102
RTVSPropertyOp30
 70
     1
102
RTVSPropertyOp31
 70
     1
102
RTVSPropertyOp32
 70
     1
102
RTVSPropertyOp33
 70
     1
102
RTVSPropertyOp34
 70
     1
102
RTVSPropertyOp35
 70
     1
102
RTVSPropertyOp36
 70
     1
102
RTVSPropertyOp37
 70
     1
102
RTVSPropertyOp38
 70
     1
102
RTVSPropertyOp39
 70
     1
102
RTVSPropertyOp40
 70
     1
102
RTVSPropertyOp41
 70
     1
102
RTVSPropertyOp42
 70
     1
102
RTVSPropertyOp43
 70
     1
102
RTVSPropertyOp44
 70
     1
102
RTVSPropertyOp45
 70
     1
102
RTVSPropertyOp46
 70
     1
102
RTVSPropertyOp47
 70
     1
102
RTVSPropertyOp48
 70
     1
102
RTVSPropertyOp49
 70
     1
102
RTVSPropertyOp50
 70
     1
102
RTVSPropertyOp51
 70
     0
102
RTVSPropertyOp52
 70
     0
102
RTVSPropertyOp53
 70
     1
102
RTVSPropertyOp54
 70
     1
102
RTVSPropertyOp55
 70
     1
102
RTVSPropertyOp56
 70
     1
102
RTVSPropertyOp57
 70
     1
102
RTVSPropertyOp58
 70
     1
102
RTVSPropertyOp59
 70
     1
102
RTVSPropertyOp60
 70
     1
102
RTVSPropertyOp61
 70
     1
102
RTVSPropertyOp62
 70
     1
  0
XRECORD
  5
D16E
102
{ACAD_REACTORS
330
D16D
102
}
330
D16D
100
AcDbXrecord
280
     1
102
RTVSPost2010Prop28
280
     0
102
RTVSPost2010PropOp28
 70
     1
102
RTVSPost2010Prop29
280
     1
102
RTVSPost2010PropOp29
 70
     1
102
RTVSPost2010Prop30
280
     1
102
RTVSPost2010PropOp30
 70
     1
102
RTVSPost2010Prop31
280
     0
102
RTVSPost2010PropOp31
 70
     1
102
RTVSPost2010Prop32
280
     0
102
RTVSPost2010PropOp32
 70
     1
102
RTVSPost2010Prop33
280
     0
102
RTVSPost2010PropOp33
 70
     1
102
RTVSPost2010Prop34
280
     0
102
RTVSPost2010PropOp34
 70
     1
102
RTVSPost2010Prop35
280
     0
102
RTVSPost2010PropOp35
 70
     1
102
RTVSPost2010Prop36
280
     0
102
RTVSPost2010PropOp36
 70
     1
102
RTVSPost2010Prop37
 90
       50
102
RTVSPost2010PropOp37
 70
     1
102
RTVSPost2010Prop38
140
0.0
102
RTVSPost2010PropOp38
 70
     1
102
RTVSPost2010Prop39
140
1.0
102
RTVSPost2010PropOp39
 70
     1
102
RTVSPost2010Prop40
 90
        0
102
RTVSPost2010PropOp40
 70
     1
102
RTVSPost2010Prop41ColorIndex
 90
       18
102
RTVSPost2010Prop41ColorRGB
 90
        0
102
RTVSPost2010PropOp41
 70
     1
102
RTVSPost2010Prop42
 90
       50
102
RTVSPost2010PropOp42
 70
     1
102
RTVSPost2010Prop43
 90
        3
102
RTVSPost2010PropOp43
 70
     1
102
RTVSPost2010Prop44ColorIndex
 90
        5
102
RTVSPost2010Prop44ColorRGB
 90
      255
102
RTVSPost2010PropOp44
 70
     1
102
RTVSPost2010Prop45
280
     0
102
RTVSPost2010PropOp45
 70
     1
102
RTVSPost2010Prop46
 90
       50
102
RTVSPost2010PropOp46
 70
     1
102
RTVSPost2010Prop47
 90
       50
102
RTVSPost2010PropOp47
 70
     1
102
RTVSPost2010Prop48
 90
       50
102
RTVSPost2010PropOp48
 70
     1
102
RTVSPost2010Prop49
280
     0
102
RTVSPost2010PropOp49
 70
     1
102
RTVSPost2010Prop50
 90
       50
102
RTVSPost2010PropOp50
 70
     1
102
RTVSPost2010Prop51ColorIndex
 90
      256
102
RTVSPost2010Prop51ColorRGB
 90
-16777216
102
RTVSPost2010PropOp51
 70
     0
102
RTVSPost2010Prop52
140
1.0
102
RTVSPost2010PropOp52
 70
     0
102
RTVSPost2010Prop53
 90
        2
102
RTVSPost2010PropOp53
 70
     1
102
RTVSPost2010Prop54
  1
strokes_ogs.tif
102
RTVSPost2010PropOp54
 70
     1
102
RTVSPost2010Prop55
280
     0
102
RTVSPost2010PropOp55
 70
     1
102
RTVSPost2010Prop56
140
1.0
102
RTVSPost2010PropOp56
 70
     1
102
RTVSPost2010Prop57
140
1.0
102
RTVSPost2010PropOp57
 70
     1
102
RTVSPropertyOp0
 70
     1
102
RTVSPropertyOp1
 70
     1
102
RTVSPropertyOp2
 70
     1
102
RTVSPropertyOp3
 70
     1
102
RTVSPropertyOp4
 70
     1
102
RTVSPropertyOp5
 70
     1
102
RTVSPropertyOp6
 70
     1
102
RTVSPropertyOp7
 70
     1
102
RTVSPropertyOp8
 70
     1
102
RTVSPropertyOp9
 70
     1
102
RTVSPropertyOp10
 70
     1
102
RTVSPropertyOp11
 70
     1
102
RTVSPropertyOp12
 70
     1
102
RTVSPropertyOp13
 70
     1
102
RTVSPropertyOp14
 70
     1
102
RTVSPropertyOp15
 70
     1
102
RTVSPropertyOp16
 70
     1
102
RTVSPropertyOp17
 70
     1
102
RTVSPropertyOp18
 70
     1
102
RTVSPropertyOp19
 70
     1
102
RTVSPropertyOp20
 70
     1
102
RTVSPropertyOp21
 70
     1
102
RTVSPropertyOp22
 70
     1
102
RTVSPropertyOp23
 70
     1
102
RTVSPropertyOp24
 70
     1
102
RTVSPropertyOp25
 70
     1
102
RTVSPropertyOp26
 70
     1
102
RTVSPropertyOp27
 70
     1
102
RTVSPropertyOp28
 70
     1
102
RTVSPropertyOp29
 70
     1
102
RTVSPropertyOp30
 70
     1
102
RTVSPropertyOp31
 70
     1
102
RTVSPropertyOp32
 70
     1
102
RTVSPropertyOp33
 70
     1
102
RTVSPropertyOp34
 70
     1
102
RTVSPropertyOp35
 70
     1
102
RTVSPropertyOp36
 70
     1
102
RTVSPropertyOp37
 70
     1
102
RTVSPropertyOp38
 70
     1
102
RTVSPropertyOp39
 70
     1
102
RTVSPropertyOp40
 70
     1
102
RTVSPropertyOp41
 70
     1
102
RTVSPropertyOp42
 70
     1
102
RTVSPropertyOp43
 70
     1
102
RTVSPropertyOp44
 70
     1
102
RTVSPropertyOp45
 70
     1
102
RTVSPropertyOp46
 70
     1
102
RTVSPropertyOp47
 70
     1
102
RTVSPropertyOp48
 70
     1
102
RTVSPropertyOp49
 70
     1
102
RTVSPropertyOp50
 70
     1
102
RTVSPropertyOp51
 70
     0
102
RTVSPropertyOp52
 70
     0
102
RTVSPropertyOp53
 70
     1
102
RTVSPropertyOp54
 70
     1
102
RTVSPropertyOp55
 70
     1
102
RTVSPropertyOp56
 70
     1
102
RTVSPropertyOp57
 70
     1
102
RTVSPropertyOp58
 70
     1
102
RTVSPropertyOp59
 70
     1
102
RTVSPropertyOp60
 70
     1
102
RTVSPropertyOp61
 70
     1
102
RTVSPropertyOp62
 70
     1
  0
XRECORD
  5
D177
102
{ACAD_REACTORS
330
D176
102
}
330
D176
100
AcDbXrecord
280
     1
102
RTVSPost2010Prop28
280
     0
102
RTVSPost2010PropOp28
 70
     1
102
RTVSPost2010Prop29
280
     1
102
RTVSPost2010PropOp29
 70
     1
102
RTVSPost2010Prop30
280
     1
102
RTVSPost2010PropOp30
 70
     1
102
RTVSPost2010Prop31
280
     0
102
RTVSPost2010PropOp31
 70
     1
102
RTVSPost2010Prop32
280
     0
102
RTVSPost2010PropOp32
 70
     1
102
RTVSPost2010Prop33
280
     0
102
RTVSPost2010PropOp33
 70
     1
102
RTVSPost2010Prop34
280
     0
102
RTVSPost2010PropOp34
 70
     1
102
RTVSPost2010Prop35
280
     0
102
RTVSPost2010PropOp35
 70
     1
102
RTVSPost2010Prop36
280
     0
102
RTVSPost2010PropOp36
 70
     1
102
RTVSPost2010Prop37
 90
       50
102
RTVSPost2010PropOp37
 70
     1
102
RTVSPost2010Prop38
140
0.0
102
RTVSPost2010PropOp38
 70
     1
102
RTVSPost2010Prop39
140
1.0
102
RTVSPost2010PropOp39
 70
     1
102
RTVSPost2010Prop40
 90
        0
102
RTVSPost2010PropOp40
 70
     1
102
RTVSPost2010Prop41ColorIndex
 90
       18
102
RTVSPost2010Prop41ColorRGB
 90
        0
102
RTVSPost2010PropOp41
 70
     1
102
RTVSPost2010Prop42
 90
       50
102
RTVSPost2010PropOp42
 70
     1
102
RTVSPost2010Prop43
 90
        3
102
RTVSPost2010PropOp43
 70
     1
102
RTVSPost2010Prop44ColorIndex
 90
        5
102
RTVSPost2010Prop44ColorRGB
 90
      255
102
RTVSPost2010PropOp44
 70
     1
102
RTVSPost2010Prop45
280
     0
102
RTVSPost2010PropOp45
 70
     1
102
RTVSPost2010Prop46
 90
       50
102
RTVSPost2010PropOp46
 70
     1
102
RTVSPost2010Prop47
 90
       50
102
RTVSPost2010PropOp47
 70
     1
102
RTVSPost2010Prop48
 90
       50
102
RTVSPost2010PropOp48
 70
     1
102
RTVSPost2010Prop49
280
     0
102
RTVSPost2010PropOp49
 70
     1
102
RTVSPost2010Prop50
 90
       50
102
RTVSPost2010PropOp50
 70
     1
102
RTVSPost2010Prop51ColorIndex
 90
      256
102
RTVSPost2010Prop51ColorRGB
 90
-16777216
102
RTVSPost2010PropOp51
 70
     0
102
RTVSPost2010Prop52
140
1.0
102
RTVSPost2010PropOp52
 70
     0
102
RTVSPost2010Prop53
 90
        2
102
RTVSPost2010PropOp53
 70
     1
102
RTVSPost2010Prop54
  1
strokes_ogs.tif
102
RTVSPost2010PropOp54
 70
     1
102
RTVSPost2010Prop55
280
     0
102
RTVSPost2010PropOp55
 70
     1
102
RTVSPost2010Prop56
140
1.0
102
RTVSPost2010PropOp56
 70
     1
102
RTVSPost2010Prop57
140
1.0
102
RTVSPost2010PropOp57
 70
     1
102
RTVSPropertyOp0
 70
     1
102
RTVSPropertyOp1
 70
     1
102
RTVSPropertyOp2
 70
     1
102
RTVSPropertyOp3
 70
     1
102
RTVSPropertyOp4
 70
     1
102
RTVSPropertyOp5
 70
     1
102
RTVSPropertyOp6
 70
     1
102
RTVSPropertyOp7
 70
     1
102
RTVSPropertyOp8
 70
     1
102
RTVSPropertyOp9
 70
     1
102
RTVSPropertyOp10
 70
     1
102
RTVSPropertyOp11
 70
     1
102
RTVSPropertyOp12
 70
     1
102
RTVSPropertyOp13
 70
     1
102
RTVSPropertyOp14
 70
     1
102
RTVSPropertyOp15
 70
     1
102
RTVSPropertyOp16
 70
     1
102
RTVSPropertyOp17
 70
     1
102
RTVSPropertyOp18
 70
     1
102
RTVSPropertyOp19
 70
     1
102
RTVSPropertyOp20
 70
     1
102
RTVSPropertyOp21
 70
     1
102
RTVSPropertyOp22
 70
     1
102
RTVSPropertyOp23
 70
     1
102
RTVSPropertyOp24
 70
     1
102
RTVSPropertyOp25
 70
     1
102
RTVSPropertyOp26
 70
     1
102
RTVSPropertyOp27
 70
     1
102
RTVSPropertyOp28
 70
     1
102
RTVSPropertyOp29
 70
     1
102
RTVSPropertyOp30
 70
     1
102
RTVSPropertyOp31
 70
     1
102
RTVSPropertyOp32
 70
     1
102
RTVSPropertyOp33
 70
     1
102
RTVSPropertyOp34
 70
     1
102
RTVSPropertyOp35
 70
     1
102
RTVSPropertyOp36
 70
     1
102
RTVSPropertyOp37
 70
     1
102
RTVSPropertyOp38
 70
     1
102
RTVSPropertyOp39
 70
     1
102
RTVSPropertyOp40
 70
     1
102
RTVSPropertyOp41
 70
     1
102
RTVSPropertyOp42
 70
     1
102
RTVSPropertyOp43
 70
     1
102
RTVSPropertyOp44
 70
     1
102
RTVSPropertyOp45
 70
     1
102
RTVSPropertyOp46
 70
     1
102
RTVSPropertyOp47
 70
     1
102
RTVSPropertyOp48
 70
     1
102
RTVSPropertyOp49
 70
     1
102
RTVSPropertyOp50
 70
     1
102
RTVSPropertyOp51
 70
     0
102
RTVSPropertyOp52
 70
     0
102
RTVSPropertyOp53
 70
     1
102
RTVSPropertyOp54
 70
     1
102
RTVSPropertyOp55
 70
     1
102
RTVSPropertyOp56
 70
     1
102
RTVSPropertyOp57
 70
     1
102
RTVSPropertyOp58
 70
     1
102
RTVSPropertyOp59
 70
     1
102
RTVSPropertyOp60
 70
     1
102
RTVSPropertyOp61
 70
     1
102
RTVSPropertyOp62
 70
     1
  0
XRECORD
  5
D17F
102
{ACAD_REACTORS
330
D17E
102
}
330
D17E
100
AcDbXrecord
280
     1
102
RTVSPost2010Prop28
280
     0
102
RTVSPost2010PropOp28
 70
     1
102
RTVSPost2010Prop29
280
     1
102
RTVSPost2010PropOp29
 70
     1
102
RTVSPost2010Prop30
280
     1
102
RTVSPost2010PropOp30
 70
     1
102
RTVSPost2010Prop31
280
     0
102
RTVSPost2010PropOp31
 70
     1
102
RTVSPost2010Prop32
280
     0
102
RTVSPost2010PropOp32
 70
     1
102
RTVSPost2010Prop33
280
     0
102
RTVSPost2010PropOp33
 70
     1
102
RTVSPost2010Prop34
280
     0
102
RTVSPost2010PropOp34
 70
     1
102
RTVSPost2010Prop35
280
     0
102
RTVSPost2010PropOp35
 70
     1
102
RTVSPost2010Prop36
280
     0
102
RTVSPost2010PropOp36
 70
     1
102
RTVSPost2010Prop37
 90
       50
102
RTVSPost2010PropOp37
 70
     1
102
RTVSPost2010Prop38
140
0.0
102
RTVSPost2010PropOp38
 70
     1
102
RTVSPost2010Prop39
140
1.0
102
RTVSPost2010PropOp39
 70
     1
102
RTVSPost2010Prop40
 90
        0
102
RTVSPost2010PropOp40
 70
     1
102
RTVSPost2010Prop41ColorIndex
 90
       18
102
RTVSPost2010Prop41ColorRGB
 90
        0
102
RTVSPost2010PropOp41
 70
     1
102
RTVSPost2010Prop42
 90
       50
102
RTVSPost2010PropOp42
 70
     1
102
RTVSPost2010Prop43
 90
        3
102
RTVSPost2010PropOp43
 70
     1
102
RTVSPost2010Prop44ColorIndex
 90
        5
102
RTVSPost2010Prop44ColorRGB
 90
      255
102
RTVSPost2010PropOp44
 70
     1
102
RTVSPost2010Prop45
280
     0
102
RTVSPost2010PropOp45
 70
     1
102
RTVSPost2010Prop46
 90
       50
102
RTVSPost2010PropOp46
 70
     1
102
RTVSPost2010Prop47
 90
       50
102
RTVSPost2010PropOp47
 70
     1
102
RTVSPost2010Prop48
 90
       50
102
RTVSPost2010PropOp48
 70
     1
102
RTVSPost2010Prop49
280
     0
102
RTVSPost2010PropOp49
 70
     1
102
RTVSPost2010Prop50
 90
       50
102
RTVSPost2010PropOp50
 70
     1
102
RTVSPost2010Prop51ColorIndex
 90
      256
102
RTVSPost2010Prop51ColorRGB
 90
-16777216
102
RTVSPost2010PropOp51
 70
     0
102
RTVSPost2010Prop52
140
1.0
102
RTVSPost2010PropOp52
 70
     0
102
RTVSPost2010Prop53
 90
        2
102
RTVSPost2010PropOp53
 70
     1
102
RTVSPost2010Prop54
  1
strokes_ogs.tif
102
RTVSPost2010PropOp54
 70
     1
102
RTVSPost2010Prop55
280
     0
102
RTVSPost2010PropOp55
 70
     1
102
RTVSPost2010Prop56
140
1.0
102
RTVSPost2010PropOp56
 70
     1
102
RTVSPost2010Prop57
140
1.0
102
RTVSPost2010PropOp57
 70
     1
102
RTVSPropertyOp0
 70
     1
102
RTVSPropertyOp1
 70
     1
102
RTVSPropertyOp2
 70
     1
102
RTVSPropertyOp3
 70
     1
102
RTVSPropertyOp4
 70
     1
102
RTVSPropertyOp5
 70
     1
102
RTVSPropertyOp6
 70
     1
102
RTVSPropertyOp7
 70
     1
102
RTVSPropertyOp8
 70
     1
102
RTVSPropertyOp9
 70
     1
102
RTVSPropertyOp10
 70
     1
102
RTVSPropertyOp11
 70
     1
102
RTVSPropertyOp12
 70
     1
102
RTVSPropertyOp13
 70
     1
102
RTVSPropertyOp14
 70
     1
102
RTVSPropertyOp15
 70
     1
102
RTVSPropertyOp16
 70
     1
102
RTVSPropertyOp17
 70
     1
102
RTVSPropertyOp18
 70
     1
102
RTVSPropertyOp19
 70
     1
102
RTVSPropertyOp20
 70
     1
102
RTVSPropertyOp21
 70
     1
102
RTVSPropertyOp22
 70
     1
102
RTVSPropertyOp23
 70
     1
102
RTVSPropertyOp24
 70
     1
102
RTVSPropertyOp25
 70
     1
102
RTVSPropertyOp26
 70
     1
102
RTVSPropertyOp27
 70
     1
102
RTVSPropertyOp28
 70
     1
102
RTVSPropertyOp29
 70
     1
102
RTVSPropertyOp30
 70
     1
102
RTVSPropertyOp31
 70
     1
102
RTVSPropertyOp32
 70
     1
102
RTVSPropertyOp33
 70
     1
102
RTVSPropertyOp34
 70
     1
102
RTVSPropertyOp35
 70
     1
102
RTVSPropertyOp36
 70
     1
102
RTVSPropertyOp37
 70
     1
102
RTVSPropertyOp38
 70
     1
102
RTVSPropertyOp39
 70
     1
102
RTVSPropertyOp40
 70
     1
102
RTVSPropertyOp41
 70
     1
102
RTVSPropertyOp42
 70
     1
102
RTVSPropertyOp43
 70
     1
102
RTVSPropertyOp44
 70
     1
102
RTVSPropertyOp45
 70
     1
102
RTVSPropertyOp46
 70
     1
102
RTVSPropertyOp47
 70
     1
102
RTVSPropertyOp48
 70
     1
102
RTVSPropertyOp49
 70
     1
102
RTVSPropertyOp50
 70
     1
102
RTVSPropertyOp51
 70
     0
102
RTVSPropertyOp52
 70
     0
102
RTVSPropertyOp53
 70
     1
102
RTVSPropertyOp54
 70
     1
102
RTVSPropertyOp55
 70
     1
102
RTVSPropertyOp56
 70
     1
102
RTVSPropertyOp57
 70
     1
102
RTVSPropertyOp58
 70
     1
102
RTVSPropertyOp59
 70
     1
102
RTVSPropertyOp60
 70
     1
102
RTVSPropertyOp61
 70
     1
102
RTVSPropertyOp62
 70
     1
  0
ENDSEC
  0
EOF
