  0
SECTION
  2
HEADER
  9
$ACADVER
  1
AC1018
  9
$ACADMAINTVER
 70
   104
  9
$DWGCODEPAGE
  3
ANSI_932
  9
$LASTSAVEDBY
  1
yoko.terajima
  9
$INSBASE
 10
0.0
 20
0.0
 30
0.0
  9
$EXTMIN
 10
446.4567966525201
 20
115.2797239076323
 30
0.0
  9
$EXTMAX
 10
752.3002148010722
 20
274.1212323400723
 30
0.0
  9
$LIMMIN
 10
0.0
 20
0.0
  9
$LIMMAX
 10
420.0
 20
297.0
  9
$ORTHOMODE
 70
     0
  9
$REGENMODE
 70
     1
  9
$FILLMODE
 70
     1
  9
$QTEXTMODE
 70
     0
  9
$MIRRTEXT
 70
     0
  9
$LTSCALE
 40
1.0
  9
$ATTMODE
 70
     1
  9
$TEXTSIZE
 40
3.5
  9
$TRACEWID
 40
1.0
  9
$TEXTSTYLE
  7
BIGFONT
  9
$CLAYER
  8
1
  9
$CELTYPE
  6
BYLAYER
  9
$CECOLOR
 62
   256
  9
$CELTSCALE
 40
1.0
  9
$DISPSILH
 70
     0
  9
$DIMSCALE
 40
1.0
  9
$DIMASZ
 40
2.5
  9
$DIMEXO
 40
0.0625
  9
$DIMDLI
 40
0.38
  9
$DIMRND
 40
0.0
  9
$DIMDLE
 40
0.0
  9
$DIMEXE
 40
0.18
  9
$DIMTP
 40
0.0
  9
$DIMTM
 40
0.0
  9
$DIMTXT
 40
3.0
  9
$DIMCEN
 40
-1.0
  9
$DIMTSZ
 40
0.0
  9
$DIMTOL
 70
     0
  9
$DIMLIM
 70
     0
  9
$DIMTIH
 70
     0
  9
$DIMTOH
 70
     0
  9
$DIMSE1
 70
     0
  9
$DIMSE2
 70
     0
  9
$DIMTAD
 70
     1
  9
$DIMZIN
 70
    12
  9
$DIMBLK
  1

  9
$DIMASO
 70
     1
  9
$DIMSHO
 70
     1
  9
$DIMPOST
  1

  9
$DIMAPOST
  1

  9
$DIMALT
 70
     0
  9
$DIMALTD
 70
     2
  9
$DIMALTF
 40
25.4
  9
$DIMLFAC
 40
1.0
  9
$DIMTOFL
 70
     1
  9
$DIMTVP
 40
0.0
  9
$DIMTIX
 70
     0
  9
$DIMSOXD
 70
     0
  9
$DIMSAH
 70
     0
  9
$DIMBLK1
  1

  9
$DIMBLK2
  1

  9
$DIMSTYLE
  2
STANDARD
  9
$DIMCLRD
 70
     0
  9
$DIMCLRE
 70
     0
  9
$DIMCLRT
 70
     0
  9
$DIMTFAC
 40
1.0
  9
$DIMGAP
 40
1.0
  9
$DIMJUST
 70
     0
  9
$DIMSD1
 70
     0
  9
$DIMSD2
 70
     0
  9
$DIMTOLJ
 70
     1
  9
$DIMTZIN
 70
    12
  9
$DIMALTZ
 70
     0
  9
$DIMALTTZ
 70
     0
  9
$DIMUPT
 70
     0
  9
$DIMDEC
 70
     2
  9
$DIMTDEC
 70
     2
  9
$DIMALTU
 70
     2
  9
$DIMALTTD
 70
     2
  9
$DIMTXSTY
  7
BIGFONT
  9
$DIMAUNIT
 70
     0
  9
$DIMADEC
 70
     0
  9
$DIMALTRND
 40
0.0
  9
$DIMAZIN
 70
     0
  9
$DIMDSEP
 70
    46
  9
$DIMATFIT
 70
     3
  9
$DIMFRAC
 70
     0
  9
$DIMLDRBLK
  1

  9
$DIMLUNIT
 70
     2
  9
$DIMLWD
 70
    -2
  9
$DIMLWE
 70
    -2
  9
$DIMTMOVE
 70
     0
  9
$LUNITS
 70
     2
  9
$LUPREC
 70
     2
  9
$SKETCHINC
 40
1.0
  9
$FILLETRAD
 40
0.0
  9
$AUNITS
 70
     0
  9
$AUPREC
 70
     0
  9
$MENU
  1
acad
  9
$ELEVATION
 40
0.0
  9
$PELEVATION
 40
0.0
  9
$THICKNESS
 40
0.0
  9
$LIMCHECK
 70
     0
  9
$CHAMFERA
 40
0.25
  9
$CHAMFERB
 40
0.25
  9
$CHAMFERC
 40
0.0
  9
$CHAMFERD
 40
0.0
  9
$SKPOLY
 70
     0
  9
$TDCREATE
 40
2452836.755218414
  9
$TDUCREATE
 40
2452836.380218414
  9
$TDUPDATE
 40
2457161.649482824
  9
$TDUUPDATE
 40
2457161.274482824
  9
$TDINDWG
 40
0.6493718171
  9
$TDUSRTIMER
 40
2456006.076490405
  9
$USRTIMER
 70
     1
  9
$ANGBASE
 50
0.0
  9
$ANGDIR
 70
     0
  9
$PDMODE
 70
     0
  9
$PDSIZE
 40
0.0
  9
$PLINEWID
 40
0.0
  9
$SPLFRAME
 70
     0
  9
$SPLINETYPE
 70
     6
  9
$SPLINESEGS
 70
     8
  9
$HANDSEED
  5
D4CB
  9
$SURFTAB1
 70
     6
  9
$SURFTAB2
 70
     6
  9
$SURFTYPE
 70
     6
  9
$SURFU
 70
     6
  9
$SURFV
 70
     6
  9
$UCSBASE
  2

  9
$UCSNAME
  2

  9
$UCSORG
 10
0.0
 20
0.0
 30
0.0
  9
$UCSXDIR
 10
1.0
 20
0.0
 30
0.0
  9
$UCSYDIR
 10
0.0
 20
1.0
 30
0.0
  9
$UCSORTHOREF
  2

  9
$UCSORTHOVIEW
 70
     0
  9
$UCSORGTOP
 10
0.0
 20
0.0
 30
0.0
  9
$UCSORGBOTTOM
 10
0.0
 20
0.0
 30
0.0
  9
$UCSORGLEFT
 10
0.0
 20
0.0
 30
0.0
  9
$UCSORGRIGHT
 10
0.0
 20
0.0
 30
0.0
  9
$UCSORGFRONT
 10
0.0
 20
0.0
 30
0.0
  9
$UCSORGBACK
 10
0.0
 20
0.0
 30
0.0
  9
$PUCSBASE
  2

  9
$PUCSNAME
  2

  9
$PUCSORG
 10
0.0
 20
0.0
 30
0.0
  9
$PUCSXDIR
 10
1.0
 20
0.0
 30
0.0
  9
$PUCSYDIR
 10
0.0
 20
1.0
 30
0.0
  9
$PUCSORTHOREF
  2

  9
$PUCSORTHOVIEW
 70
     0
  9
$PUCSORGTOP
 10
0.0
 20
0.0
 30
0.0
  9
$PUCSORGBOTTOM
 10
0.0
 20
0.0
 30
0.0
  9
$PUCSORGLEFT
 10
0.0
 20
0.0
 30
0.0
  9
$PUCSORGRIGHT
 10
0.0
 20
0.0
 30
0.0
  9
$PUCSORGFRONT
 10
0.0
 20
0.0
 30
0.0
  9
$PUCSORGBACK
 10
0.0
 20
0.0
 30
0.0
  9
$USERI1
 70
     0
  9
$USERI2
 70
     0
  9
$USERI3
 70
     0
  9
$USERI4
 70
     0
  9
$USERI5
 70
     0
  9
$USERR1
 40
0.0
  9
$USERR2
 40
0.0
  9
$USERR3
 40
0.0
  9
$USERR4
 40
0.0
  9
$USERR5
 40
0.0
  9
$WORLDVIEW
 70
     1
  9
$SHADEDGE
 70
     3
  9
$SHADEDIF
 70
    70
  9
$TILEMODE
 70
     1
  9
$MAXACTVP
 70
    16
  9
$PINSBASE
 10
0.0
 20
0.0
 30
0.0
  9
$PLIMCHECK
 70
     0
  9
$PEXTMIN
 10
1.000000000000000E+20
 20
1.000000000000000E+20
 30
1.000000000000000E+20
  9
$PEXTMAX
 10
-1.000000000000000E+20
 20
-1.000000000000000E+20
 30
-1.000000000000000E+20
  9
$PLIMMIN
 10
0.0
 20
0.0
  9
$PLIMMAX
 10
420.0
 20
297.0
  9
$UNITMODE
 70
     0
  9
$VISRETAIN
 70
     0
  9
$PLINEGEN
 70
     0
  9
$PSLTSCALE
 70
     1
  9
$TREEDEPTH
 70
  3020
  9
$CMLSTYLE
  2
STANDARD
  9
$CMLJUST
 70
     0
  9
$CMLSCALE
 40
1.0
  9
$PROXYGRAPHICS
 70
     1
  9
$MEASUREMENT
 70
     1
  9
$CELWEIGHT
370
    -1
  9
$ENDCAPS
280
     0
  9
$JOINSTYLE
280
     0
  9
$LWDISPLAY
290
     0
  9
$INSUNITS
 70
     0
  9
$HYPERLINKBASE
  1

  9
$STYLESHEET
  1
CANON00.CTB
  9
$XEDIT
290
     1
  9
$CEPSNTYPE
380
     0
  9
$PSTYLEMODE
290
     1
  9
$FINGERPRINTGUID
  2
{7545F8F0-0B94-11D4-9EDF-0040266A266F}
  9
$VERSIONGUID
  2
{974CD81F-9C4D-4001-83CC-45FCE931E5B5}
  9
$EXTNAMES
290
     1
  9
$PSVPSCALE
 40
0.0
  9
$OLESTARTUP
290
     0
  9
$SORTENTS
280
    96
  9
$INDEXCTL
280
     0
  9
$HIDETEXT
280
     0
  9
$XCLIPFRAME
290
     0
  9
$HALOGAP
280
     0
  9
$OBSCOLOR
 70
   257
  9
$OBSLTYPE
280
     0
  9
$INTERSECTIONDISPLAY
280
     0
  9
$INTERSECTIONCOLOR
 70
   257
  9
$DIMASSOC
280
     1
  9
$PROJECTNAME
  1

  0
ENDSEC
  0
SECTION
  2
CLASSES
  0
CLASS
  1
DICTIONARYVAR
  2
AcDbDictionaryVar
  3
ObjectDBX Classes
 90
        0
 91
       10
280
     0
281
     0
  0
CLASS
  1
ACDBDICTIONARYWDFLT
  2
AcDbDictionaryWithDefault
  3
ObjectDBX Classes
 90
        0
 91
        1
280
     0
281
     0
  0
CLASS
  1
MATERIAL
  2
AcDbMaterial
  3
ObjectDBX Classes
 90
     1153
 91
        3
280
     0
281
     0
  0
CLASS
  1
VISUALSTYLE
  2
AcDbVisualStyle
  3
ObjectDBX Classes
 90
     4095
 91
       26
280
     0
281
     0
  0
CLASS
  1
TABLESTYLE
  2
AcDbTableStyle
  3
ObjectDBX Classes
 90
     4095
 91
        1
280
     0
281
     0
  0
CLASS
  1
EXACXREFPANELOBJECT
  2
ExAcXREFPanelObject
  3
EXAC_ESW
 90
     1025
 91
        0
280
     1
281
     0
  0
CLASS
  1
NPOCOLLECTION
  2
AcDbImpNonPersistentObjectsCollection
  3
ObjectDBX Classes
 90
     1153
 91
        0
280
     1
281
     0
  0
CLASS
  1
SORTENTSTABLE
  2
AcDbSortentsTable
  3
ObjectDBX Classes
 90
        0
 91
        1
280
     0
281
     0
  0
CLASS
  1
SCALE
  2
AcDbScale
  3
ObjectDBX Classes
 90
     1153
 91
       33
280
     0
281
     0
  0
CLASS
  1
MLEADERSTYLE
  2
AcDbMLeaderStyle
  3
ACDB_MLEADERSTYLE_CLASS
 90
     4095
 91
        1
280
     0
281
     0
  0
CLASS
  1
CELLSTYLEMAP
  2
AcDbCellStyleMap
  3
ObjectDBX Classes
 90
     1152
 91
        2
280
     0
281
     0
  0
CLASS
  1
RASTERVARIABLES
  2
AcDbRasterVariables
  3
ISM
 90
        0
 91
        1
280
     0
281
     0
  0
CLASS
  1
IMAGEDEF
  2
AcDbRasterImageDef
  3
ISM
 90
        0
 91
        1
280
     0
281
     0
  0
CLASS
  1
IMAGE
  2
AcDbRasterImage
  3
ISM
 90
     2175
 91
        0
280
     0
281
     1
  0
CLASS
  1
IMAGEDEF_REACTOR
  2
AcDbRasterImageDefReactor
  3
ISM
 90
        1
 91
        0
280
     0
281
     0
  0
CLASS
  1
ACDBSECTIONVIEWSTYLE
  2
AcDbSectionViewStyle
  3
ObjectDBX Classes
 90
     1025
 91
        1
280
     0
281
     0
  0
CLASS
  1
ACDBDETAILVIEWSTYLE
  2
AcDbDetailViewStyle
  3
ObjectDBX Classes
 90
     1025
 91
        1
280
     0
281
     0
  0
ENDSEC
  0
SECTION
  2
TABLES
  0
TABLE
  2
VPORT
  5
8
102
{ACAD_XDICTIONARY
360
B130
102
}
330
0
100
AcDbSymbolTable
 70
     1
  0
VPORT
  5
D237
330
8
100
AcDbSymbolTableRecord
100
AcDbViewportTableRecord
  2
*Active
 70
     0
 10
0.0
 20
0.0
 11
1.0
 21
1.0
 12
608.7024820984729
 22
192.0922468628204
 13
0.0
 23
0.0
 14
1.0
 24
1.0
 15
10.0
 25
10.0
 16
0.0
 26
0.0
 36
1.0
 17
0.0
 27
0.0
 37
0.0
 40
207.2720245865049
 41
1.671978751660026
 42
50.0
 43
0.0
 44
0.0
 50
0.0
 51
0.0
 71
    16
 72
   100
 73
     1
 74
     0
 75
     0
 76
     0
 77
     0
 78
     0
281
     0
 65
     1
110
0.0
120
0.0
130
0.0
111
1.0
121
0.0
131
0.0
112
0.0
122
1.0
132
0.0
 79
     0
146
0.0
1001
ACAD_NAV_VCDISPLAY
1070
     3
  0
ENDTAB
  0
TABLE
  2
LTYPE
  5
5
330
0
100
AcDbSymbolTable
 70
     2
  0
LTYPE
  5
12
330
5
100
AcDbSymbolTableRecord
100
AcDbLinetypeTableRecord
  2
BYBLOCK
 70
     0
  3

 72
    65
 73
     0
 40
0.0
  0
LTYPE
  5
13
330
5
100
AcDbSymbolTableRecord
100
AcDbLinetypeTableRecord
  2
BYLAYER
 70
     0
  3

 72
    65
 73
     0
 40
0.0
  0
LTYPE
  5
14
330
5
100
AcDbSymbolTableRecord
100
AcDbLinetypeTableRecord
  2
CONTINUOUS
 70
     0
  3
Solid line
 72
    65
 73
     0
 40
0.0
  0
LTYPE
  5
C0D
330
5
100
AcDbSymbolTableRecord
100
AcDbLinetypeTableRecord
  2
CENTER2
 70
     0
  3
___ _ ___ _ ___ _ ___ _ ___ _ ___ _ ___ _ ___ _
 72
    65
 73
     4
 40
28.575
 49
19.05
 74
     0
 49
-3.174999999999998
 74
     0
 49
3.174999999999998
 74
     0
 49
-3.174999999999998
 74
     0
  0
ENDTAB
  0
TABLE
  2
LAYER
  5
2
102
{ACAD_XDICTIONARY
360
A0A3
102
}
330
0
100
AcDbSymbolTable
 70
     5
  0
LAYER
  5
F
102
{ACAD_XDICTIONARY
360
9FD1
102
}
330
2
100
AcDbSymbolTableRecord
100
AcDbLayerTableRecord
  2
0
 70
     0
 62
     2
  6
CONTINUOUS
370
    -3
390
1C61
  0
LAYER
  5
30
330
2
100
AcDbSymbolTableRecord
100
AcDbLayerTableRecord
  2
DEFPOINTS
 70
     0
 62
     7
  6
CONTINUOUS
290
     0
370
    -3
390
1C61
  0
LAYER
  5
526
102
{ACAD_XDICTIONARY
360
9FD3
102
}
330
2
100
AcDbSymbolTableRecord
100
AcDbLayerTableRecord
  2
2
 70
     0
 62
     1
  6
CONTINUOUS
370
    -3
390
1C61
  0
LAYER
  5
138F
102
{ACAD_XDICTIONARY
360
9FD5
102
}
330
2
100
AcDbSymbolTableRecord
100
AcDbLayerTableRecord
  2
3
 70
     0
 62
     6
  6
CENTER2
370
    -3
390
1C61
  0
LAYER
  5
1390
102
{ACAD_XDICTIONARY
360
9FD7
102
}
330
2
100
AcDbSymbolTableRecord
100
AcDbLayerTableRecord
  2
1
 70
     0
 62
     7
  6
CONTINUOUS
370
    -3
390
1C61
  0
ENDTAB
  0
TABLE
  2
STYLE
  5
3
330
0
100
AcDbSymbolTable
 70
     2
  0
STYLE
  5
10
330
3
100
AcDbSymbolTableRecord
100
AcDbTextStyleTableRecord
  2
STANDARD
 70
     0
 40
0.0
 41
1.0
 50
0.0
 71
     0
 42
3.5
  3
ISOCP.SHX
  4
extfont.shx
  0
STYLE
  5
52A
330
3
100
AcDbSymbolTableRecord
100
AcDbTextStyleTableRecord
  2
BIGFONT
 70
     0
 40
0.0
 41
1.0
 50
0.0
 71
     0
 42
3.5
  3
txt
  4
bigfont
  0
ENDTAB
  0
TABLE
  2
VIEW
  5
6
330
0
100
AcDbSymbolTable
 70
     0
  0
ENDTAB
  0
TABLE
  2
UCS
  5
7
330
0
100
AcDbSymbolTable
 70
     0
  0
ENDTAB
  0
TABLE
  2
APPID
  5
9
330
0
100
AcDbSymbolTable
 70
     9
  0
APPID
  5
11
330
9
100
AcDbSymbolTableRecord
100
AcDbRegAppTableRecord
  2
ACAD
 70
     0
  0
APPID
  5
323
330
9
100
AcDbSymbolTableRecord
100
AcDbRegAppTableRecord
  2
CONTENTTABDATA
 70
     0
  0
APPID
  5
324
330
9
100
AcDbSymbolTableRecord
100
AcDbRegAppTableRecord
  2
CONTENTCURRENTTAB
 70
     0
  0
APPID
  5
9A86
330
9
100
AcDbSymbolTableRecord
100
AcDbRegAppTableRecord
  2
ACAD_EXEMPT_FROM_CAD_STANDARDS
 70
     0
  0
APPID
  5
9FCB
330
9
100
AcDbSymbolTableRecord
100
AcDbRegAppTableRecord
  2
ACAD_MLEADERVER
 70
     0
  0
APPID
  5
A3BF
330
9
100
AcDbSymbolTableRecord
100
AcDbRegAppTableRecord
  2
ACAD_PSEXT
 70
     0
  0
APPID
  5
B109
330
9
100
AcDbSymbolTableRecord
100
AcDbRegAppTableRecord
  2
ACAD_DSTYLE_DIMRADIAL_EXTENSION
 70
     0
  0
APPID
  5
C434
330
9
100
AcDbSymbolTableRecord
100
AcDbRegAppTableRecord
  2
DCO15
 70
     0
  0
APPID
  5
D30E
330
9
100
AcDbSymbolTableRecord
100
AcDbRegAppTableRecord
  2
ACAD_NAV_VCDISPLAY
 70
     0
  0
ENDTAB
  0
TABLE
  2
DIMSTYLE
  5
A
330
0
100
AcDbSymbolTable
 70
     1
100
AcDbDimStyleTable
 71
     1
340
117
  0
DIMSTYLE
105
117
102
{ACAD_REACTORS
330
C380
330
D38C
330
D38D
330
D360
102
}
330
A
100
AcDbSymbolTableRecord
100
AcDbDimStyleTableRecord
  2
STANDARD
 70
     0
 41
2.5
 73
     0
 74
     0
 77
     1
 78
    12
140
3.0
141
-1.0
147
1.0
172
     1
271
     2
272
     2
284
    12
340
52A
  0
ENDTAB
  0
TABLE
  2
BLOCK_RECORD
  5
1
330
0
100
AcDbSymbolTable
 70
     4
  0
BLOCK_RECORD
  5
18
102
{ACAD_XDICTIONARY
360
9ACC
102
}
330
1
100
AcDbSymbolTableRecord
100
AcDbBlockTableRecord
  2
*MODEL_SPACE
340
1C64
  0
BLOCK_RECORD
  5
15
330
1
100
AcDbSymbolTableRecord
100
AcDbBlockTableRecord
  2
*PAPER_SPACE
340
1C65
  0
BLOCK_RECORD
  5
C381
330
1
100
AcDbSymbolTableRecord
100
AcDbBlockTableRecord
  2
*D0
340
0
  0
BLOCK_RECORD
  5
D3AA
330
1
100
AcDbSymbolTableRecord
100
AcDbBlockTableRecord
  2
*D1
340
0
  0
BLOCK_RECORD
  5
D3B8
330
1
100
AcDbSymbolTableRecord
100
AcDbBlockTableRecord
  2
*D2
340
0
  0
BLOCK_RECORD
  5
D3C4
330
1
100
AcDbSymbolTableRecord
100
AcDbBlockTableRecord
  2
*D3
340
0
  0
ENDTAB
  0
ENDSEC
  0
SECTION
  2
BLOCKS
  0
BLOCK
  5
44
330
18
100
AcDbEntity
  8
0
100
AcDbBlockBegin
  2
*MODEL_SPACE
 70
     2
 10
0.0
 20
0.0
 30
0.0
  3
*MODEL_SPACE
  1

  0
ENDBLK
  5
45
330
18
100
AcDbEntity
  8
0
100
AcDbBlockEnd
  0
BLOCK
  5
42
330
15
100
AcDbEntity
 67
     1
  8
0
100
AcDbBlockBegin
  2
*PAPER_SPACE
 70
     0
 10
0.0
 20
0.0
 30
0.0
  3
*PAPER_SPACE
  1

  0
ENDBLK
  5
43
330
15
100
AcDbEntity
 67
     1
  8
0
100
AcDbBlockEnd
  0
BLOCK
  5
C38B
330
C381
100
AcDbEntity
  8
0
 62
     7
100
AcDbBlockBegin
  2
*D0
 70
     1
 10
0.0
 20
0.0
 30
0.0
  3
*D0
  1

  0
LINE
  5
D22D
330
C381
100
AcDbEntity
  8
2
 62
     0
440
 16777216
370
    -2
100
AcDbLine
 10
511.2761279157411
 20
238.2023051759555
 30
0.0
 11
511.2761279157411
 21
250.614629687873
 31
0.0
  0
LINE
  5
D22E
330
C381
100
AcDbEntity
  8
2
 62
     0
440
 16777216
370
    -2
100
AcDbLine
 10
663.0761279157412
 20
231.851015845241
 30
0.0
 11
663.0761279157412
 21
250.614629687873
 31
0.0
  0
LINE
  5
D22F
330
C381
100
AcDbEntity
  8
2
 62
     0
440
 16777216
370
    -2
100
AcDbLine
 10
513.7761279157412
 20
250.434629687873
 30
0.0
 11
660.5761279157412
 21
250.434629687873
 31
0.0
  0
SOLID
  5
D230
330
C381
100
AcDbEntity
  8
2
 62
     0
440
 16777216
100
AcDbTrace
 10
513.7761279157412
 20
250.8512963545396
 30
0.0
 11
513.7761279157412
 21
250.0179630212063
 31
0.0
 12
511.2761279157411
 22
250.434629687873
 32
0.0
 13
511.2761279157411
 23
250.434629687873
 33
0.0
  0
SOLID
  5
D231
330
C381
100
AcDbEntity
  8
2
 62
     0
440
 16777216
100
AcDbTrace
 10
660.5761279157412
 20
250.8512963545396
 30
0.0
 11
660.5761279157412
 21
250.0179630212063
 31
0.0
 12
663.0761279157412
 22
250.434629687873
 32
0.0
 13
663.0761279157412
 23
250.434629687873
 33
0.0
  0
MTEXT
  5
D232
330
C381
100
AcDbEntity
  8
2
 62
     0
440
 16777216
100
AcDbMText
 10
587.1761279157412
 20
252.934629687873
 30
0.0
 40
3.0
 41
0.0
 71
     5
 72
     1
  1
\A1;151.8
  7
BIGFONT
 73
     1
 44
1.0
  0
POINT
  5
D233
330
C381
100
AcDbEntity
  8
DEFPOINTS
 62
     0
440
 16777216
100
AcDbPoint
 10
511.2761279157411
 20
238.1398051759555
 30
0.0
  0
POINT
  5
D234
330
C381
100
AcDbEntity
  8
DEFPOINTS
 62
     0
440
 16777216
100
AcDbPoint
 10
663.0761279157412
 20
231.788515845241
 30
0.0
  0
POINT
  5
D235
330
C381
100
AcDbEntity
  8
DEFPOINTS
 62
     0
440
 16777216
100
AcDbPoint
 10
663.0761279157412
 20
250.434629687873
 30
0.0
  0
ENDBLK
  5
C38C
330
C381
100
AcDbEntity
  8
0
 62
     7
100
AcDbBlockEnd
  0
BLOCK
  5
D3AB
330
D3AA
100
AcDbEntity
  8
0
100
AcDbBlockBegin
  2
*D1
 70
     1
 10
0.0
 20
0.0
 30
0.0
  3
*D1
  1

  0
LINE
  5
D3D0
330
D3AA
100
AcDbEntity
  8
2
 62
     0
440
 16777216
370
    -2
100
AcDbLine
 10
466.368557611601
 20
236.6003190066655
 30
0.0
 11
466.368557611601
 21
245.5313737969455
 31
0.0
  0
LINE
  5
D3D1
330
D3AA
100
AcDbEntity
  8
2
 62
     0
440
 16777216
370
    -2
100
AcDbLine
 10
471.2185576116008
 20
239.9642690314407
 30
0.0
 11
471.2185576116008
 21
245.5313737969455
 31
0.0
  0
LINE
  5
D3D2
330
D3AA
100
AcDbEntity
  8
2
 62
     0
440
 16777216
370
    -2
100
AcDbLine
 10
473.7185576116007
 20
245.3513737969455
 30
0.0
 11
476.2185576116007
 21
245.3513737969455
 31
0.0
  0
LINE
  5
D3D3
330
D3AA
100
AcDbEntity
  8
2
 62
     0
440
 16777216
370
    -2
100
AcDbLine
 10
463.868557611601
 20
245.3513737969455
 30
0.0
 11
450.368557611601
 21
245.3513737969455
 31
0.0
  0
LINE
  5
D3D4
330
D3AA
100
AcDbEntity
  8
2
 62
     0
440
 16777216
370
    -2
100
AcDbLine
 10
471.2185576116008
 20
245.3513737969455
 30
0.0
 11
466.368557611601
 21
245.3513737969455
 31
0.0
  0
SOLID
  5
D3D5
330
D3AA
100
AcDbEntity
  8
2
 62
     0
440
 16777216
100
AcDbTrace
 10
473.7185576116007
 20
245.7680404636121
 30
0.0
 11
473.7185576116007
 21
244.9347071302788
 31
0.0
 12
471.2185576116008
 22
245.3513737969455
 32
0.0
 13
471.2185576116008
 23
245.3513737969455
 33
0.0
  0
SOLID
  5
D3D6
330
D3AA
100
AcDbEntity
  8
2
 62
     0
440
 16777216
100
AcDbTrace
 10
463.868557611601
 20
245.7680404636121
 30
0.0
 11
463.868557611601
 21
244.9347071302788
 31
0.0
 12
466.368557611601
 22
245.3513737969455
 32
0.0
 13
466.368557611601
 23
245.3513737969455
 33
0.0
  0
MTEXT
  5
D3D7
330
D3AA
100
AcDbEntity
  8
2
 62
     0
440
 16777216
100
AcDbMText
 10
455.868557611601
 20
247.8513737969455
 30
0.0
 40
3.0
 41
0.0
 71
     5
 72
     1
  1
\A1;4.85
  7
BIGFONT
 73
     1
 44
1.0
  0
POINT
  5
D3D8
330
D3AA
100
AcDbEntity
  8
DEFPOINTS
 62
     0
440
 16777216
100
AcDbPoint
 10
466.368557611601
 20
236.5378190066655
 30
0.0
  0
POINT
  5
D3D9
330
D3AA
100
AcDbEntity
  8
DEFPOINTS
 62
     0
440
 16777216
100
AcDbPoint
 10
471.2185576116008
 20
239.9017690314407
 30
0.0
  0
POINT
  5
D3DA
330
D3AA
100
AcDbEntity
  8
DEFPOINTS
 62
     0
440
 16777216
100
AcDbPoint
 10
471.2185576116008
 20
245.3513737969455
 30
0.0
  0
ENDBLK
  5
D3AC
330
D3AA
100
AcDbEntity
  8
0
100
AcDbBlockEnd
  0
BLOCK
  5
D3B9
330
D3B8
100
AcDbEntity
  8
0
100
AcDbBlockBegin
  2
*D2
 70
     1
 10
0.0
 20
0.0
 30
0.0
  3
*D2
  1

  0
LINE
  5
D3DB
330
D3B8
100
AcDbEntity
  8
2
 62
     0
440
 16777216
370
    -2
100
AcDbLine
 10
466.368557611601
 20
236.6003190066655
 30
0.0
 11
466.368557611601
 21
250.614629687873
 31
0.0
  0
LINE
  5
D3DC
330
D3B8
100
AcDbEntity
  8
2
 62
     0
440
 16777216
370
    -2
100
AcDbLine
 10
475.168557611601
 20
234.8148051759556
 30
0.0
 11
475.168557611601
 21
250.614629687873
 31
0.0
  0
LINE
  5
D3DD
330
D3B8
100
AcDbEntity
  8
2
 62
     0
440
 16777216
370
    -2
100
AcDbLine
 10
468.868557611601
 20
250.434629687873
 30
0.0
 11
472.668557611601
 21
250.434629687873
 31
0.0
  0
SOLID
  5
D3DE
330
D3B8
100
AcDbEntity
  8
2
 62
     0
440
 16777216
100
AcDbTrace
 10
468.868557611601
 20
250.8512963545397
 30
0.0
 11
468.868557611601
 21
250.0179630212064
 31
0.0
 12
466.368557611601
 22
250.434629687873
 32
0.0
 13
466.368557611601
 23
250.434629687873
 33
0.0
  0
SOLID
  5
D3DF
330
D3B8
100
AcDbEntity
  8
2
 62
     0
440
 16777216
100
AcDbTrace
 10
472.668557611601
 20
250.8512963545397
 30
0.0
 11
472.668557611601
 21
250.0179630212064
 31
0.0
 12
475.168557611601
 22
250.434629687873
 32
0.0
 13
475.168557611601
 23
250.434629687873
 33
0.0
  0
MTEXT
  5
D3E0
330
D3B8
100
AcDbEntity
  8
2
 62
     0
440
 16777216
100
AcDbMText
 10
470.768557611601
 20
252.934629687873
 30
0.0
 40
3.0
 41
0.0
 71
     5
 72
     1
  1
\A1;8.8
  7
BIGFONT
 73
     1
 44
1.0
  0
POINT
  5
D3E1
330
D3B8
100
AcDbEntity
  8
DEFPOINTS
 62
     0
440
 16777216
100
AcDbPoint
 10
466.368557611601
 20
236.5378190066655
 30
0.0
  0
POINT
  5
D3E2
330
D3B8
100
AcDbEntity
  8
DEFPOINTS
 62
     0
440
 16777216
100
AcDbPoint
 10
475.168557611601
 20
234.7523051759556
 30
0.0
  0
POINT
  5
D3E3
330
D3B8
100
AcDbEntity
  8
DEFPOINTS
 62
     0
440
 16777216
100
AcDbPoint
 10
475.168557611601
 20
250.434629687873
 30
0.0
  0
ENDBLK
  5
D3BA
330
D3B8
100
AcDbEntity
  8
0
100
AcDbBlockEnd
  0
BLOCK
  5
D3C5
330
D3C4
100
AcDbEntity
  8
0
100
AcDbBlockBegin
  2
*D3
 70
     1
 10
0.0
 20
0.0
 30
0.0
  3
*D3
  1

  0
LINE
  5
D3E4
330
D3C4
100
AcDbEntity
  8
2
 62
     0
440
 16777216
370
    -2
100
AcDbLine
 10
465.1218217802601
 20
234.7523051759556
 30
0.0
 11
456.1735741514966
 21
234.7523051759556
 31
0.0
  0
LINE
  5
D3E5
330
D3C4
100
AcDbEntity
  8
2
 62
     0
440
 16777216
370
    -2
100
AcDbLine
 10
465.1218217802601
 20
219.7523051759557
 30
0.0
 11
456.1735741514966
 21
219.7523051759557
 31
0.0
  0
LINE
  5
D3E6
330
D3C4
100
AcDbEntity
  8
2
 62
     0
440
 16777216
370
    -2
100
AcDbLine
 10
456.3535741514966
 20
232.2523051759556
 30
0.0
 11
456.3535741514966
 21
222.2523051759557
 31
0.0
  0
SOLID
  5
D3E7
330
D3C4
100
AcDbEntity
  8
2
 62
     0
440
 16777216
100
AcDbTrace
 10
455.93690748483
 20
232.2523051759556
 30
0.0
 11
456.7702408181633
 21
232.2523051759556
 31
0.0
 12
456.3535741514966
 22
234.7523051759556
 32
0.0
 13
456.3535741514966
 23
234.7523051759556
 33
0.0
  0
SOLID
  5
D3E8
330
D3C4
100
AcDbEntity
  8
2
 62
     0
440
 16777216
100
AcDbTrace
 10
455.93690748483
 20
222.2523051759557
 30
0.0
 11
456.7702408181633
 21
222.2523051759557
 31
0.0
 12
456.3535741514966
 22
219.7523051759557
 32
0.0
 13
456.3535741514966
 23
219.7523051759557
 33
0.0
  0
MTEXT
  5
D3E9
330
D3C4
100
AcDbEntity
  8
2
 62
     0
440
 16777216
100
AcDbMText
 10
453.8535741514966
 20
227.2523051759557
 30
0.0
 40
3.0
 41
0.0
 71
     5
 72
     1
  1
\A1;15
  7
BIGFONT
 11
0.0000000000000001
 21
1.0
 31
0.0
 73
     1
 44
1.0
  0
POINT
  5
D3EA
330
D3C4
100
AcDbEntity
  8
DEFPOINTS
 62
     0
440
 16777216
100
AcDbPoint
 10
465.1843217802602
 20
234.7523051759556
 30
0.0
  0
POINT
  5
D3EB
330
D3C4
100
AcDbEntity
  8
DEFPOINTS
 62
     0
440
 16777216
100
AcDbPoint
 10
465.1843217802602
 20
219.7523051759557
 30
0.0
  0
POINT
  5
D3EC
330
D3C4
100
AcDbEntity
  8
DEFPOINTS
 62
     0
440
 16777216
100
AcDbPoint
 10
456.3535741514966
 20
219.7523051759557
 30
0.0
  0
ENDBLK
  5
D3C6
330
D3C4
100
AcDbEntity
  8
0
100
AcDbBlockEnd
  0
ENDSEC
  0
SECTION
  2
ENTITIES
  0
TEXT
  5
FDF
330
18
100
AcDbEntity
  8
2
100
AcDbText
 10
61.80397887142635
 20
115.9153310921788
 30
0.0
 40
3.5
  1

  7
BIGFONT
100
AcDbText
  0
TEXT
  5
FE2
330
18
100
AcDbEntity
  8
2
100
AcDbText
 10
203.8957585163355
 20
143.31043555714
 30
0.0
 40
3.5
  1

  7
BIGFONT
100
AcDbText
  0
TEXT
  5
218A
330
18
100
AcDbEntity
  8
2
  6
Continuous
 48
3.0
100
AcDbText
 10
345.2872429042694
 20
59.92647845586116
 30
0.0
 40
3.5
  1

 50
359.780436223055
 41
0.6085702442471829
  7
BIGFONT
 72
     5
 11
360.1971044114504
 21
59.8693419344833
 31
0.0
100
AcDbText
  0
TEXT
  5
B12C
330
18
100
AcDbEntity
  8
2
 62
     1
100
AcDbText
 10
446.4567966525201
 20
270.1212323400722
 30
0.0
 40
4.0
  1

  7
BIGFONT
100
AcDbText
  0
TEXT
  5
B12D
330
18
100
AcDbEntity
  8
2
 62
     1
100
AcDbText
 10
642.2363678629699
 20
143.2828115612091
 30
0.0
 40
3.5
  1
DATE2020.5.1
  7
BIGFONT
100
AcDbText
  0
DIMENSION
  5
C380
330
18
100
AcDbEntity
  8
2
100
AcDbDimension
  2
*D0
 10
663.0761279157412
 20
250.434629687873
 30
0.0
 11
587.1761279157412
 21
252.934629687873
 31
0.0
 70
    32
 71
     5
 42
151.8
  3
STANDARD
100
AcDbAlignedDimension
 13
511.2761279157411
 23
238.1398051759555
 33
0.0
 14
663.0761279157412
 24
231.788515845241
 34
0.0
100
AcDbRotatedDimension
  0
LINE
  5
D067
330
18
100
AcDbEntity
  8
3
  6
CENTER2
100
AcDbLine
 10
588.4763506337087
 20
165.5942578367269
 30
0.0
 11
509.8759051977736
 21
165.594257836727
 31
0.0
  0
LINE
  5
D068
330
18
100
AcDbEntity
  8
3
  6
CENTER2
100
AcDbLine
 10
664.7878746492148
 20
219.7523051759555
 30
0.0
 11
509.8759051977736
 21
219.7523051759555
 31
0.0
  0
LINE
  5
D069
330
18
100
AcDbEntity
  8
3
  6
CENTER2
100
AcDbLine
 10
655.5293174236468
 20
234.7523051759555
 30
0.0
 11
509.8759051977736
 21
234.7523051759555
 31
0.0
  0
LINE
  5
D06A
330
18
100
AcDbEntity
  8
1
 62
     7
100
AcDbLine
 10
661.0761279157411
 20
169.544257836727
 30
0.0
 11
513.2761279157413
 21
169.5442578367268
 31
0.0
  0
LINE
  5
D06C
330
18
100
AcDbEntity
  8
1
 62
     7
100
AcDbLine
 10
529.7261279157412
 20
232.2885158452408
 30
0.0
 11
521.1261279157411
 21
232.2885158452408
 31
0.0
  0
LINE
  5
D06D
330
18
100
AcDbEntity
  8
1
 62
     7
100
AcDbLine
 10
541.5261279157411
 20
160.744257836727
 30
0.0
 11
540.276127915741
 21
160.744257836727
 31
0.0
  0
LINE
  5
D06E
330
18
100
AcDbEntity
  8
1
 62
     7
100
AcDbLine
 10
529.526127915741
 20
160.744257836727
 30
0.0
 11
521.3261279157411
 21
160.744257836727
 31
0.0
  0
LINE
  5
D06F
330
18
100
AcDbEntity
  8
1
 62
     7
100
AcDbLine
 10
520.0261279157411
 20
160.744257836727
 30
0.0
 11
511.7761279157412
 21
160.744257836727
 31
0.0
  0
LINE
  5
D070
330
18
100
AcDbEntity
  8
1
 62
     7
100
AcDbLine
 10
520.8261279157409
 20
217.3689006029702
 30
0.0
 11
520.8261279157411
 21
221.7160945066699
 31
0.0
  0
LINE
  5
D071
330
18
100
AcDbEntity
  8
1
 62
     7
100
AcDbLine
 10
516.9761279157412
 20
167.0942578367269
 30
0.0
 11
511.2761279157411
 21
167.094257836727
 31
0.0
  0
LINE
  5
D072
330
18
100
AcDbEntity
  8
1
 62
     7
100
AcDbLine
 10
516.5645147920217
 20
164.0942578367271
 30
0.0
 11
511.2761279157411
 21
164.0942578367269
 31
0.0
  0
LINE
  5
D073
330
18
100
AcDbEntity
  8
1
 62
     7
100
AcDbLine
 10
511.2761279157411
 20
162.4949471515043
 30
0.0
 11
520.8261279157409
 21
162.4949471515043
 31
0.0
  0
LINE
  5
D074
330
18
100
AcDbEntity
  8
1
 62
     7
100
AcDbLine
 10
520.8261279157409
 20
167.5442578367269
 30
0.0
 11
511.2761279157411
 21
167.5442578367269
 31
0.0
  0
LINE
  5
D075
330
18
100
AcDbEntity
  8
1
 62
     7
100
AcDbLine
 10
520.8261279157411
 20
169.044257836727
 30
0.0
 11
511.2886903568501
 21
169.044257836727
 31
0.0
  0
LINE
  5
D076
330
18
100
AcDbEntity
  8
1
 62
     7
100
AcDbLine
 10
511.2761279157411
 20
168.9447986090986
 30
0.0
 11
511.2761279157411
 21
161.244257836727
 31
0.0
  0
LINE
  5
D077
330
18
100
AcDbEntity
  8
1
 62
     7
100
AcDbLine
 10
516.5645147920217
 20
167.094257836727
 30
0.0
 11
516.5645147920217
 21
164.0942578367269
 31
0.0
  0
ARC
  5
D078
330
18
100
AcDbEntity
  8
1
 62
     7
100
AcDbCircle
 10
511.7761279157412
 20
161.244257836727
 30
0.0
 40
0.5
100
AcDbArc
 50
180.0
 51
270.0
  0
LINE
  5
D079
330
18
100
AcDbEntity
  8
1
 62
     7
100
AcDbLine
 10
520.8261279157411
 20
169.044257836727
 30
0.0
 11
520.8261279157411
 21
161.244257836727
 31
0.0
  0
LINE
  5
D07A
330
18
100
AcDbEntity
  8
1
 62
     7
100
AcDbLine
 10
516.9761279157412
 20
162.4949471515042
 30
0.0
 11
516.9761279157412
 21
167.094257836727
 31
0.0
  0
LINE
  5
D07B
330
18
100
AcDbEntity
  8
1
 62
     7
100
AcDbLine
 10
516.1761279157412
 20
162.4949471515042
 30
0.0
 11
516.1761279157412
 21
164.094257836727
 31
0.0
  0
LINE
  5
D07C
330
18
100
AcDbEntity
  8
1
 62
     7
100
AcDbLine
 10
513.7761279157406
 20
162.4949471515043
 30
0.0
 11
513.7761279157406
 21
164.094257836727
 31
0.0
  0
ARC
  5
D07D
330
18
100
AcDbEntity
  8
1
 62
     7
100
AcDbCircle
 10
521.3261279157411
 20
161.244257836727
 30
0.0
 40
0.5
100
AcDbArc
 50
180.0
 51
270.0
  0
ARC
  5
D07E
330
18
100
AcDbEntity
  8
1
 62
     7
100
AcDbCircle
 10
521.3261279157411
 20
169.044257836727
 30
0.0
 40
0.5
100
AcDbArc
 50
90.0
 51
180.0
  0
LINE
  5
D080
330
18
100
AcDbEntity
  8
1
 62
     7
100
AcDbLine
 10
511.2761279157411
 20
222.7160945066699
 30
0.0
 11
511.2761279157411
 21
238.2023051759555
 31
0.0
  0
LINE
  5
D081
330
18
100
AcDbEntity
  8
1
 62
     7
100
AcDbLine
 10
511.7761279157412
 20
222.2160945066699
 30
0.0
 11
520.3261279157411
 21
222.2160945066699
 31
0.0
  0
ARC
  5
D082
330
18
100
AcDbEntity
  8
1
 62
     7
100
AcDbCircle
 10
511.7761279157412
 20
222.7160945066699
 30
0.0
 40
0.5
100
AcDbArc
 50
180.0
 51
270.0
  0
ARC
  5
D083
330
18
100
AcDbEntity
  8
1
 62
     7
100
AcDbCircle
 10
520.3261279157411
 20
221.7160945066699
 30
0.0
 40
0.5
100
AcDbArc
 50
0.0
 51
90.0
  0
LINE
  5
D084
330
18
100
AcDbEntity
  8
1
 62
     7
100
AcDbLine
 10
511.7761279157412
 20
238.7023051759555
 30
0.0
 11
520.0261279157412
 21
238.7023051759555
 31
0.0
  0
ARC
  5
D085
330
18
100
AcDbEntity
  8
1
 62
     7
100
AcDbCircle
 10
511.7761279157412
 20
238.2023051759555
 30
0.0
 40
0.5
100
AcDbArc
 50
90.0
 51
180.0
  0
LINE
  5
D086
330
18
100
AcDbEntity
  8
1
 62
     7
100
AcDbLine
 10
520.5261279157411
 20
238.2023051759555
 30
0.0
 11
520.5261279157411
 21
232.8885158452409
 31
0.0
  0
ARC
  5
D087
330
18
100
AcDbEntity
  8
1
 62
     7
100
AcDbCircle
 10
521.1261279157411
 20
232.8885158452409
 30
0.0
 40
0.6
100
AcDbArc
 50
180.0
 51
270.0
  0
ARC
  5
D088
330
18
100
AcDbEntity
  8
1
 62
     7
100
AcDbCircle
 10
520.0261279157412
 20
238.2023051759555
 30
0.0
 40
0.5
100
AcDbArc
 50
0.0
 51
90.0
  0
LINE
  5
D089
330
18
100
AcDbEntity
  8
1
 62
     7
100
AcDbLine
 10
558.7761279157412
 20
168.0442578367269
 30
0.0
 11
549.0761279157411
 21
168.0442578367269
 31
0.0
  0
LINE
  5
D08A
330
18
100
AcDbEntity
  8
1
 62
     7
100
AcDbLine
 10
549.5261279157412
 20
222.2160945066699
 30
0.0
 11
558.3261279157413
 21
222.2160945066699
 31
0.0
  0
LINE
  5
D08B
330
18
100
AcDbEntity
  8
1
 62
     7
100
AcDbLine
 10
557.9261279157414
 20
238.7023051759555
 30
0.0
 11
549.9261279157414
 21
238.7023051759555
 31
0.0
  0
LINE
  5
D08C
330
18
100
AcDbEntity
  8
1
 62
     7
100
AcDbLine
 10
551.5261279157413
 20
161.9982517254204
 30
0.0
 11
556.3261279157411
 21
161.9982517254205
 31
0.0
  0
LINE
  5
D08D
330
18
100
AcDbEntity
  8
1
 62
     7
100
AcDbLine
 10
549.0261279157412
 20
217.3689006029702
 30
0.0
 11
549.0261279157412
 21
221.7160945066699
 31
0.0
  0
LINE
  5
D08E
330
18
100
AcDbEntity
  8
1
 62
     7
100
AcDbLine
 10
539.8261279157411
 20
217.36890060297
 30
0.0
 11
539.8261279157411
 21
221.7160945066699
 31
0.0
  0
LINE
  5
D08F
330
18
100
AcDbEntity
  8
1
 62
     7
100
AcDbLine
 10
530.0261279157409
 20
217.3689006029702
 30
0.0
 11
530.0261279157409
 21
221.7160945066699
 31
0.0
  0
LINE
  5
D090
330
18
100
AcDbEntity
  8
1
 62
     7
100
AcDbLine
 10
530.0261279157409
 20
169.044257836727
 30
0.0
 11
539.776127915741
 21
169.044257836727
 31
0.0
  0
LINE
  5
D091
330
18
100
AcDbEntity
  8
1
 62
     7
100
AcDbLine
 10
549.0761279157411
 20
169.044257836727
 30
0.0
 11
558.8261279157413
 21
169.044257836727
 31
0.0
  0
LINE
  5
D092
330
18
100
AcDbEntity
  8
1
 62
     7
100
AcDbLine
 10
568.0261279157413
 20
169.044257836727
 30
0.0
 11
577.8261279157414
 21
169.044257836727
 31
0.0
  0
LINE
  5
D093
330
18
100
AcDbEntity
  8
1
 62
     7
100
AcDbLine
 10
530.0261279157409
 20
167.5442578367269
 30
0.0
 11
539.776127915741
 21
167.5442578367269
 31
0.0
  0
LINE
  5
D094
330
18
100
AcDbEntity
  8
1
 62
     7
100
AcDbLine
 10
530.0261279157409
 20
162.4949471515043
 30
0.0
 11
539.776127915741
 21
162.4949471515043
 31
0.0
  0
ARC
  5
D095
330
18
100
AcDbEntity
  8
1
 62
     7
100
AcDbCircle
 10
529.526127915741
 20
169.044257836727
 30
0.0
 40
0.5
100
AcDbArc
 50
0.0
 51
90.0
  0
ARC
  5
D096
330
18
100
AcDbEntity
  8
1
 62
     7
100
AcDbCircle
 10
529.526127915741
 20
161.244257836727
 30
0.0
 40
0.5
100
AcDbArc
 50
270.0
 51
0.0
  0
LINE
  5
D097
330
18
100
AcDbEntity
  8
1
 62
     7
100
AcDbLine
 10
530.0261279157409
 20
169.044257836727
 30
0.0
 11
530.0261279157409
 21
161.244257836727
 31
0.0
  0
LINE
  5
D099
330
18
100
AcDbEntity
  8
1
 62
     7
100
AcDbLine
 10
542.026127915741
 20
161.9982517254204
 30
0.0
 11
546.8261279157413
 21
161.9982517254205
 31
0.0
  0
LINE
  5
D09A
330
18
100
AcDbEntity
  8
1
 62
     7
100
AcDbLine
 10
539.776127915741
 20
169.044257836727
 30
0.0
 11
539.776127915741
 21
161.244257836727
 31
0.0
  0
ARC
  5
D09B
330
18
100
AcDbEntity
  8
1
 62
     7
100
AcDbCircle
 10
541.5261279157411
 20
161.244257836727
 30
0.0
 40
0.5
100
AcDbArc
 50
270.0
 51
0.0
  0
LINE
  5
D09C
330
18
100
AcDbEntity
  8
1
 62
     7
100
AcDbLine
 10
542.026127915741
 20
161.244257836727
 30
0.0
 11
542.026127915741
 21
163.5187131772743
 31
0.0
  0
ARC
  5
D09D
330
18
100
AcDbEntity
  8
1
 62
     7
100
AcDbCircle
 10
540.276127915741
 20
161.244257836727
 30
0.0
 40
0.5
100
AcDbArc
 50
180.0
 51
270.0
  0
ARC
  5
D09E
330
18
100
AcDbEntity
  8
1
 62
     7
100
AcDbCircle
 10
540.276127915741
 20
169.044257836727
 30
0.0
 40
0.5
100
AcDbArc
 50
90.0
 51
180.0
  0
LINE
  5
D09F
330
18
100
AcDbEntity
  8
1
 62
     7
100
AcDbLine
 10
549.0761279157411
 20
169.044257836727
 30
0.0
 11
549.0761279157411
 21
161.244257836727
 31
0.0
  0
LINE
  5
D0A0
330
18
100
AcDbEntity
  8
1
 62
     7
100
AcDbLine
 10
549.0761279157411
 20
162.4949471515042
 30
0.0
 11
551.5261279157413
 21
162.4949471515043
 31
0.0
  0
LINE
  5
D0A1
330
18
100
AcDbEntity
  8
1
 62
     7
100
AcDbLine
 10
551.0261279157413
 20
160.744257836727
 30
0.0
 11
549.8261279157411
 21
160.744257836727
 31
0.0
  0
LINE
  5
D0A2
330
18
100
AcDbEntity
  8
1
 62
     7
100
AcDbLine
 10
548.5761279157411
 20
160.744257836727
 30
0.0
 11
547.3261279157413
 21
160.744257836727
 31
0.0
  0
ARC
  5
D0A3
330
18
100
AcDbEntity
  8
1
 62
     7
100
AcDbCircle
 10
548.5761279157411
 20
161.244257836727
 30
0.0
 40
0.5
100
AcDbArc
 50
270.0
 51
0.0
  0
ARC
  5
D0A4
330
18
100
AcDbEntity
  8
1
 62
     7
100
AcDbCircle
 10
548.5761279157411
 20
169.044257836727
 30
0.0
 40
0.5
100
AcDbArc
 50
0.0
 51
90.0
  0
LINE
  5
D0A8
330
18
100
AcDbEntity
  8
1
 62
     7
100
AcDbLine
 10
539.3261279157411
 20
222.2160945066699
 30
0.0
 11
530.5261279157412
 21
222.2160945066699
 31
0.0
  0
LINE
  5
D0A9
330
18
100
AcDbEntity
  8
1
 62
     7
100
AcDbLine
 10
530.9261279157412
 20
238.7023051759555
 30
0.0
 11
538.9261279157412
 21
238.7023051759555
 31
0.0
  0
ARC
  5
D0AA
330
18
100
AcDbEntity
  8
1
 62
     7
100
AcDbCircle
 10
530.5261279157412
 20
221.7160945066699
 30
0.0
 40
0.5
100
AcDbArc
 50
90.0
 51
180.0
  0
ARC
  5
D0AB
330
18
100
AcDbEntity
  8
1
 62
     7
100
AcDbCircle
 10
529.7261279157412
 20
232.8885158452409
 30
0.0
 40
0.6
100
AcDbArc
 50
270.0
 51
0.0
  0
LINE
  5
D0AC
330
18
100
AcDbEntity
  8
1
 62
     7
100
AcDbLine
 10
530.3261279157411
 20
232.8885158452409
 30
0.0
 11
530.3261279157409
 21
238.1023051759556
 31
0.0
  0
ARC
  5
D0AD
330
18
100
AcDbEntity
  8
1
 62
     7
100
AcDbCircle
 10
530.9261279157412
 20
238.1023051759556
 30
0.0
 40
0.6
100
AcDbArc
 50
90.0
 51
180.0
  0
ARC
  5
D0AE
330
18
100
AcDbEntity
  8
1
 62
     7
100
AcDbCircle
 10
539.3261279157411
 20
221.7160945066699
 30
0.0
 40
0.5
100
AcDbArc
 50
0.0
 51
90.0
  0
ARC
  5
D0AF
330
18
100
AcDbEntity
  8
1
 62
     7
100
AcDbCircle
 10
549.5261279157412
 20
221.7160945066699
 30
0.0
 40
0.5
100
AcDbArc
 50
90.0
 51
180.0
  0
LINE
  5
D0B0
330
18
100
AcDbEntity
  8
1
 62
     7
100
AcDbLine
 10
540.1261279157409
 20
232.2885158452408
 30
0.0
 11
548.7261279157412
 21
232.2885158452408
 31
0.0
  0
LINE
  5
D0B1
330
18
100
AcDbEntity
  8
1
 62
     7
100
AcDbLine
 10
539.5261279157412
 20
232.8885158452409
 30
0.0
 11
539.5261279157412
 21
238.1023051759556
 31
0.0
  0
ARC
  5
D0B2
330
18
100
AcDbEntity
  8
1
 62
     7
100
AcDbCircle
 10
540.1261279157409
 20
232.8885158452409
 30
0.0
 40
0.6
100
AcDbArc
 50
180.0
 51
270.0
  0
ARC
  5
D0B3
330
18
100
AcDbEntity
  8
1
 62
     7
100
AcDbCircle
 10
538.9261279157412
 20
238.1023051759556
 30
0.0
 40
0.6
100
AcDbArc
 50
0.0
 51
90.0
  0
LINE
  5
D0B4
330
18
100
AcDbEntity
  8
1
 62
     7
100
AcDbLine
 10
549.3261279157411
 20
232.8885158452409
 30
0.0
 11
549.3261279157414
 21
238.1023051759556
 31
0.0
  0
ARC
  5
D0B5
330
18
100
AcDbEntity
  8
1
 62
     7
100
AcDbCircle
 10
549.9261279157414
 20
238.1023051759556
 30
0.0
 40
0.6
100
AcDbArc
 50
90.0
 51
180.0
  0
LINE
  5
D0B6
330
18
100
AcDbEntity
  8
1
 62
     7
100
AcDbLine
 10
653.8261279157413
 20
217.3689006029702
 30
0.0
 11
653.8261279157413
 21
221.71609450667
 31
0.0
  0
LINE
  5
D0B7
330
18
100
AcDbEntity
  8
1
 62
     7
100
AcDbLine
 10
663.0761279157412
 20
231.788515845241
 30
0.0
 11
663.0761279157412
 21
216.4023051759558
 31
0.0
  0
LINE
  5
D0B8
330
18
100
AcDbEntity
  8
1
 62
     7
100
AcDbLine
 10
568.0261279157413
 20
217.3689006029702
 30
0.0
 11
568.0261279157413
 21
221.7160945066699
 31
0.0
  0
LINE
  5
D0B9
330
18
100
AcDbEntity
  8
1
 62
     7
100
AcDbLine
 10
558.8261279157413
 20
217.36890060297
 30
0.0
 11
558.8261279157413
 21
221.7160945066699
 31
0.0
  0
LINE
  5
D0BA
330
18
100
AcDbEntity
  8
1
 62
     7
100
AcDbLine
 10
586.5761279157412
 20
160.744257836727
 30
0.0
 11
578.2761279157409
 21
160.744257836727
 31
0.0
  0
LINE
  5
D0BB
330
18
100
AcDbEntity
  8
1
 62
     7
100
AcDbLine
 10
577.0261279157413
 20
160.744257836727
 30
0.0
 11
568.8261279157411
 21
160.744257836727
 31
0.0
  0
LINE
  5
D0BC
330
18
100
AcDbEntity
  8
1
 62
     7
100
AcDbLine
 10
567.5761279157411
 20
160.744257836727
 30
0.0
 11
559.2761279157412
 21
160.744257836727
 31
0.0
  0
LINE
  5
D0BD
330
18
100
AcDbEntity
  8
1
 62
     7
100
AcDbLine
 10
558.026127915741
 20
160.744257836727
 30
0.0
 11
556.8261279157411
 21
160.744257836727
 31
0.0
  0
LINE
  5
D0BE
330
18
100
AcDbEntity
  8
1
 62
     7
100
AcDbLine
 10
568.0761279157411
 20
167.5442578367269
 30
0.0
 11
577.776127915741
 21
167.5442578367269
 31
0.0
  0
LINE
  5
D0BF
330
18
100
AcDbEntity
  8
1
 62
     7
100
AcDbLine
 10
568.0761279157411
 20
162.4949471515043
 30
0.0
 11
577.776127915741
 21
162.4949471515043
 31
0.0
  0
LINE
  5
D0C0
330
18
100
AcDbEntity
  8
1
 62
     7
100
AcDbLine
 10
558.8261279157413
 20
169.044257836727
 30
0.0
 11
558.8261279157413
 21
161.244257836727
 31
0.0
  0
LINE
  5
D0C1
330
18
100
AcDbEntity
  8
1
 62
     7
100
AcDbLine
 10
556.3261279157411
 20
161.244257836727
 30
0.0
 11
556.3261279157411
 21
168.0442578367269
 31
0.0
  0
ARC
  5
D0C2
330
18
100
AcDbEntity
  8
1
 62
     7
100
AcDbCircle
 10
559.3261279157413
 20
161.244257836727
 30
0.0
 40
0.5
100
AcDbArc
 50
180.0
 51
270.0
  0
LINE
  5
D0C3
330
18
100
AcDbEntity
  8
1
 62
     7
100
AcDbLine
 10
556.3261279157411
 20
162.4949471515043
 30
0.0
 11
558.7761279157412
 21
162.4949471515043
 31
0.0
  0
ARC
  5
D0C4
330
18
100
AcDbEntity
  8
1
 62
     7
100
AcDbCircle
 10
556.8261279157411
 20
161.244257836727
 30
0.0
 40
0.5
100
AcDbArc
 50
180.0
 51
270.0
  0
ARC
  5
D0C5
330
18
100
AcDbEntity
  8
1
 62
     7
100
AcDbCircle
 10
559.3261279157413
 20
169.044257836727
 30
0.0
 40
0.5
100
AcDbArc
 50
90.0
 51
180.0
  0
LINE
  5
D0C6
330
18
100
AcDbEntity
  8
1
 62
     7
100
AcDbLine
 10
568.0261279157413
 20
169.044257836727
 30
0.0
 11
568.0261279157413
 21
161.244257836727
 31
0.0
  0
ARC
  5
D0C7
330
18
100
AcDbEntity
  8
1
 62
     7
100
AcDbCircle
 10
567.5261279157409
 20
161.244257836727
 30
0.0
 40
0.5
100
AcDbArc
 50
270.0
 51
0.0
  0
ARC
  5
D0C8
330
18
100
AcDbEntity
  8
1
 62
     7
100
AcDbCircle
 10
567.5261279157409
 20
169.044257836727
 30
0.0
 40
0.5
100
AcDbArc
 50
0.0
 51
90.0
  0
LINE
  5
D0CC
330
18
100
AcDbEntity
  8
1
 62
     7
100
AcDbLine
 10
577.8261279157414
 20
169.044257836727
 30
0.0
 11
577.8261279157414
 21
161.244257836727
 31
0.0
  0
ARC
  5
D0CD
330
18
100
AcDbEntity
  8
1
 62
     7
100
AcDbCircle
 10
578.3261279157414
 20
161.244257836727
 30
0.0
 40
0.5
100
AcDbArc
 50
180.0
 51
270.0
  0
ARC
  5
D0CE
330
18
100
AcDbEntity
  8
1
 62
     7
100
AcDbCircle
 10
578.3261279157414
 20
169.044257836727
 30
0.0
 40
0.5
100
AcDbArc
 50
90.0
 51
180.0
  0
LINE
  5
D0D2
330
18
100
AcDbEntity
  8
1
 62
     7
100
AcDbLine
 10
568.9261279157412
 20
238.7023051759555
 30
0.0
 11
576.9261279157412
 21
238.7023051759555
 31
0.0
  0
LINE
  5
D0D3
330
18
100
AcDbEntity
  8
1
 62
     7
100
AcDbLine
 10
577.3261279157414
 20
222.2160945066699
 30
0.0
 11
568.5261279157413
 21
222.2160945066699
 31
0.0
  0
ARC
  5
D0D4
330
18
100
AcDbEntity
  8
1
 62
     7
100
AcDbCircle
 10
558.3261279157413
 20
221.7160945066699
 30
0.0
 40
0.5
100
AcDbArc
 50
0.0
 51
90.0
  0
ARC
  5
D0D5
330
18
100
AcDbEntity
  8
1
 62
     7
100
AcDbCircle
 10
568.5261279157413
 20
221.7160945066699
 30
0.0
 40
0.5
100
AcDbArc
 50
90.0
 51
180.0
  0
LINE
  5
D0D6
330
18
100
AcDbEntity
  8
1
 62
     7
100
AcDbLine
 10
567.7261279157412
 20
232.2885158452408
 30
0.0
 11
559.1261279157411
 21
232.2885158452408
 31
0.0
  0
LINE
  5
D0D7
330
18
100
AcDbEntity
  8
1
 62
     7
100
AcDbLine
 10
558.526127915741
 20
232.8885158452409
 30
0.0
 11
558.526127915741
 21
238.1023051759556
 31
0.0
  0
ARC
  5
D0D8
330
18
100
AcDbEntity
  8
1
 62
     7
100
AcDbCircle
 10
559.1261279157411
 20
232.8885158452409
 30
0.0
 40
0.6
100
AcDbArc
 50
180.0
 51
270.0
  0
ARC
  5
D0D9
330
18
100
AcDbEntity
  8
1
 62
     7
100
AcDbCircle
 10
557.9261279157414
 20
238.1023051759556
 30
0.0
 40
0.6
100
AcDbArc
 50
0.0
 51
90.0
  0
LINE
  5
D0DA
330
18
100
AcDbEntity
  8
1
 62
     7
100
AcDbLine
 10
568.3261279157411
 20
232.8885158452408
 30
0.0
 11
568.3261279157411
 21
238.1023051759556
 31
0.0
  0
ARC
  5
D0DB
330
18
100
AcDbEntity
  8
1
 62
     7
100
AcDbCircle
 10
568.9261279157412
 20
238.1023051759556
 30
0.0
 40
0.6
100
AcDbArc
 50
90.0
 51
180.0
  0
ARC
  5
D0DC
330
18
100
AcDbEntity
  8
1
 62
     7
100
AcDbCircle
 10
653.3261279157413
 20
221.71609450667
 30
0.0
 40
0.5
100
AcDbArc
 50
0.0
 51
90.0
  0
LINE
  5
D0DD
330
18
100
AcDbEntity
  8
1
 62
     7
100
AcDbLine
 10
662.5761279157412
 20
232.288515845241
 30
0.0
 11
654.1261279157412
 21
232.288515845241
 31
0.0
  0
LINE
  5
D0DE
330
18
100
AcDbEntity
  8
1
 62
     7
100
AcDbLine
 10
577.5261279157413
 20
232.8885158452409
 30
0.0
 11
577.5261279157413
 21
238.1023051759556
 31
0.0
  0
ARC
  5
D0DF
330
18
100
AcDbEntity
  8
1
 62
     7
100
AcDbCircle
 10
654.1261279157412
 20
232.8885158452409
 30
0.0
 40
0.6
100
AcDbArc
 50
180.0
 51
270.0
  0
ARC
  5
D0E0
330
18
100
AcDbEntity
  8
1
 62
     7
100
AcDbCircle
 10
576.9261279157412
 20
238.1023051759556
 30
0.0
 40
0.6
100
AcDbArc
 50
0.0
 51
90.0
  0
ARC
  5
D0E1
330
18
100
AcDbEntity
  8
1
 62
     7
100
AcDbCircle
 10
662.5761279157412
 20
231.788515845241
 30
0.0
 40
0.5
100
AcDbArc
 50
0.0
 51
90.0
  0
LINE
  5
D0E2
330
18
100
AcDbEntity
  8
1
 62
     7
100
AcDbLine
 10
556.3261279157411
 20
167.0442578367269
 30
0.0
 11
551.5261279157413
 21
167.0442578367269
 31
0.0
  0
LINE
  5
D0E3
330
18
100
AcDbEntity
  8
1
 62
     7
100
AcDbLine
 10
513.2761279157413
 20
169.5442578367268
 30
0.0
 11
511.627380178379
 21
169.3418170697551
 31
0.0
  0
ARC
  5
D0E4
330
18
100
AcDbEntity
  8
1
 62
     7
100
AcDbCircle
 10
511.6761279157413
 20
168.9447986090986
 30
0.0
 40
0.4
100
AcDbArc
 50
96.99999999999945
 51
180.0
  0
ARC
  5
D0E5
330
18
100
AcDbEntity
  8
1
 62
     7
100
AcDbCircle
 10
548.7261279157412
 20
232.8885158452409
 30
0.0
 40
0.6
100
AcDbArc
 50
270.0
 51
0.0
  0
ARC
  5
D0E6
330
18
100
AcDbEntity
  8
1
 62
     7
100
AcDbCircle
 10
567.7261279157412
 20
232.8885158452408
 30
0.0
 40
0.6
100
AcDbArc
 50
270.0
 51
0.0
  0
LINE
  5
D0E7
330
18
100
AcDbEntity
  8
1
 62
     7
100
AcDbLine
 10
577.5261279157413
 20
162.4949471515043
 30
0.0
 11
577.5261279157413
 21
161.244257836727
 31
0.0
  0
ARC
  5
D0E8
330
18
100
AcDbEntity
  8
1
 62
     7
100
AcDbCircle
 10
577.0261279157413
 20
161.244257836727
 30
0.0
 40
0.5
100
AcDbArc
 50
270.0
 51
0.0
  0
LINE
  5
D0E9
330
18
100
AcDbEntity
  8
1
 62
     7
100
AcDbLine
 10
575.1761279157412
 20
162.4949471515043
 30
0.0
 11
575.1761279157412
 21
161.244257836727
 31
0.0
  0
ARC
  5
D0EA
330
18
100
AcDbEntity
  8
1
 62
     7
100
AcDbCircle
 10
575.6761279157412
 20
161.244257836727
 30
0.0
 40
0.5
100
AcDbArc
 50
180.0
 51
270.0
  0
LINE
  5
D0EB
330
18
100
AcDbEntity
  8
1
 62
     7
100
AcDbLine
 10
568.3261279157411
 20
162.4949471515043
 30
0.0
 11
568.3261279157411
 21
161.244257836727
 31
0.0
  0
ARC
  5
D0EC
330
18
100
AcDbEntity
  8
1
 62
     7
100
AcDbCircle
 10
568.8261279157411
 20
161.244257836727
 30
0.0
 40
0.5
100
AcDbArc
 50
180.0
 51
270.0
  0
LINE
  5
D0ED
330
18
100
AcDbEntity
  8
1
 62
     7
100
AcDbLine
 10
570.6761279157412
 20
162.4949471515043
 30
0.0
 11
570.6761279157412
 21
161.244257836727
 31
0.0
  0
ARC
  5
D0EE
330
18
100
AcDbEntity
  8
1
 62
     7
100
AcDbCircle
 10
570.1761279157413
 20
161.244257836727
 30
0.0
 40
0.5
100
AcDbArc
 50
270.0
 51
0.0
  0
LINE
  5
D0EF
330
18
100
AcDbEntity
  8
1
 62
     7
100
AcDbLine
 10
539.0261279157412
 20
160.744257836727
 30
0.0
 11
530.8261279157411
 21
160.744257836727
 31
0.0
  0
LINE
  5
D0F0
330
18
100
AcDbEntity
  8
1
 62
     7
100
AcDbLine
 10
539.5261279157412
 20
162.4949471515043
 30
0.0
 11
539.5261279157412
 21
161.244257836727
 31
0.0
  0
ARC
  5
D0F1
330
18
100
AcDbEntity
  8
1
 62
     7
100
AcDbCircle
 10
539.0261279157412
 20
161.244257836727
 30
0.0
 40
0.5
100
AcDbArc
 50
270.0
 51
0.0
  0
LINE
  5
D0F2
330
18
100
AcDbEntity
  8
1
 62
     7
100
AcDbLine
 10
537.1761279157412
 20
162.4949471515043
 30
0.0
 11
537.1761279157412
 21
161.244257836727
 31
0.0
  0
ARC
  5
D0F3
330
18
100
AcDbEntity
  8
1
 62
     7
100
AcDbCircle
 10
537.6761279157411
 20
161.244257836727
 30
0.0
 40
0.5
100
AcDbArc
 50
180.0
 51
270.0
  0
LINE
  5
D0F4
330
18
100
AcDbEntity
  8
1
 62
     7
100
AcDbLine
 10
530.3261279157411
 20
162.4949471515043
 30
0.0
 11
530.3261279157411
 21
161.244257836727
 31
0.0
  0
ARC
  5
D0F5
330
18
100
AcDbEntity
  8
1
 62
     7
100
AcDbCircle
 10
530.8261279157411
 20
161.244257836727
 30
0.0
 40
0.5
100
AcDbArc
 50
180.0
 51
270.0
  0
LINE
  5
D0F6
330
18
100
AcDbEntity
  8
1
 62
     7
100
AcDbLine
 10
532.6761279157412
 20
162.4949471515043
 30
0.0
 11
532.6761279157412
 21
161.244257836727
 31
0.0
  0
ARC
  5
D0F7
330
18
100
AcDbEntity
  8
1
 62
     7
100
AcDbCircle
 10
532.1761279157412
 20
161.244257836727
 30
0.0
 40
0.5
100
AcDbArc
 50
270.0
 51
0.0
  0
LINE
  5
D0F8
330
18
100
AcDbEntity
  8
1
 62
     7
100
AcDbLine
 10
549.3261279157411
 20
162.4949471515042
 30
0.0
 11
549.3261279157411
 21
161.244257836727
 31
0.0
  0
ARC
  5
D0F9
330
18
100
AcDbEntity
  8
1
 62
     7
100
AcDbCircle
 10
549.8261279157411
 20
161.244257836727
 30
0.0
 40
0.5
100
AcDbArc
 50
180.0
 51
270.0
  0
LINE
  5
D0FA
330
18
100
AcDbEntity
  8
1
 62
     7
100
AcDbLine
 10
558.526127915741
 20
162.4949471515042
 30
0.0
 11
558.526127915741
 21
161.244257836727
 31
0.0
  0
ARC
  5
D0FB
330
18
100
AcDbEntity
  8
1
 62
     7
100
AcDbCircle
 10
558.026127915741
 20
161.244257836727
 30
0.0
 40
0.5
100
AcDbArc
 50
270.0
 51
0.0
  0
LINE
  5
D0FC
330
18
100
AcDbEntity
  8
1
 62
     7
100
AcDbLine
 10
549.8261279157416
 20
160.744257836727
 30
0.0
 11
551.0261279157413
 21
160.744257836727
 31
0.0
  0
LINE
  5
D0FD
330
18
100
AcDbEntity
  8
1
 62
     7
100
AcDbLine
 10
551.5261279157413
 20
161.244257836727
 30
0.0
 11
551.5261279157413
 21
168.0442578367269
 31
0.0
  0
ARC
  5
D0FE
330
18
100
AcDbEntity
  8
1
 62
     7
100
AcDbCircle
 10
551.0261279157413
 20
161.244257836727
 30
0.0
 40
0.5
100
AcDbArc
 50
270.0
 51
0.0
  0
ARC
  5
D0FF
330
18
100
AcDbEntity
  8
1
 62
     7
100
AcDbCircle
 10
547.3261279157413
 20
161.244257836727
 30
0.0
 40
0.5
100
AcDbArc
 50
180.0
 51
270.0
  0
LINE
  5
D100
330
18
100
AcDbEntity
  8
1
 62
     7
100
AcDbLine
 10
546.8261279157413
 20
161.244257836727
 30
0.0
 11
546.8261279157413
 21
163.5187131772743
 31
0.0
  0
LINE
  5
D101
330
18
100
AcDbEntity
  8
1
 62
     7
100
AcDbLine
 10
520.5261279157411
 20
162.4949471515043
 30
0.0
 11
520.5261279157411
 21
161.244257836727
 31
0.0
  0
ARC
  5
D102
330
18
100
AcDbEntity
  8
1
 62
     7
100
AcDbCircle
 10
520.0261279157411
 20
161.244257836727
 30
0.0
 40
0.5
100
AcDbArc
 50
270.0
 51
0.0
  0
LINE
  5
D103
330
18
100
AcDbEntity
  8
1
 62
     7
100
AcDbLine
 10
518.3761279157412
 20
162.4949471515043
 30
0.0
 11
518.3761279157412
 21
161.244257836727
 31
0.0
  0
ARC
  5
D104
330
18
100
AcDbEntity
  8
1
 62
     7
100
AcDbCircle
 10
518.8761279157412
 20
161.244257836727
 30
0.0
 40
0.5
100
AcDbArc
 50
180.0
 51
270.0
  0
LINE
  5
D105
330
18
100
AcDbEntity
  8
1
 62
     7
100
AcDbLine
 10
514.2761279157411
 20
162.4949471515043
 30
0.0
 11
514.2761279157411
 21
161.244257836727
 31
0.0
  0
ARC
  5
D106
330
18
100
AcDbEntity
  8
1
 62
     7
100
AcDbCircle
 10
513.7761279157412
 20
161.244257836727
 30
0.0
 40
0.5
100
AcDbArc
 50
270.0
 51
0.0
  0
LINE
  5
D107
330
18
100
AcDbEntity
  8
1
 62
     7
100
AcDbLine
 10
587.5261279157411
 20
222.2160945066699
 30
0.0
 11
596.3261279157412
 21
222.2160945066699
 31
0.0
  0
LINE
  5
D108
330
18
100
AcDbEntity
  8
1
 62
     7
100
AcDbLine
 10
595.9261279157413
 20
238.7023051759555
 30
0.0
 11
587.9261279157413
 21
238.7023051759555
 31
0.0
  0
LINE
  5
D109
330
18
100
AcDbEntity
  8
1
 62
     7
100
AcDbLine
 10
587.0261279157412
 20
217.3689006029702
 30
0.0
 11
587.0261279157412
 21
221.7160945066699
 31
0.0
  0
LINE
  5
D10A
330
18
100
AcDbEntity
  8
1
 62
     7
100
AcDbLine
 10
577.8261279157412
 20
217.3689006029701
 30
0.0
 11
577.8261279157412
 21
221.7160945066699
 31
0.0
  0
ARC
  5
D10E
330
18
100
AcDbEntity
  8
1
 62
     7
100
AcDbCircle
 10
577.3261279157412
 20
221.7160945066699
 30
0.0
 40
0.5
100
AcDbArc
 50
0.0
 51
90.0
  0
ARC
  5
D10F
330
18
100
AcDbEntity
  8
1
 62
     7
100
AcDbCircle
 10
587.5261279157411
 20
221.7160945066699
 30
0.0
 40
0.5
100
AcDbArc
 50
90.0
 51
180.0
  0
LINE
  5
D110
330
18
100
AcDbEntity
  8
1
 62
     7
100
AcDbLine
 10
578.1261279157411
 20
232.2885158452409
 30
0.0
 11
586.7261279157412
 21
232.2885158452409
 31
0.0
  0
ARC
  5
D111
330
18
100
AcDbEntity
  8
1
 62
     7
100
AcDbCircle
 10
578.1261279157411
 20
232.8885158452409
 30
0.0
 40
0.6
100
AcDbArc
 50
180.0
 51
270.0
  0
LINE
  5
D112
330
18
100
AcDbEntity
  8
1
 62
     7
100
AcDbLine
 10
587.3261279157411
 20
232.8885158452409
 30
0.0
 11
587.3261279157413
 21
238.1023051759556
 31
0.0
  0
ARC
  5
D113
330
18
100
AcDbEntity
  8
1
 62
     7
100
AcDbCircle
 10
587.9261279157413
 20
238.1023051759556
 30
0.0
 40
0.6
100
AcDbArc
 50
90.0
 51
180.0
  0
LINE
  5
D114
330
18
100
AcDbEntity
  8
1
 62
     7
100
AcDbLine
 10
606.0261279157413
 20
217.3689006029702
 30
0.0
 11
606.0261279157413
 21
221.7160945066699
 31
0.0
  0
LINE
  5
D115
330
18
100
AcDbEntity
  8
1
 62
     7
100
AcDbLine
 10
596.8261279157412
 20
217.36890060297
 30
0.0
 11
596.8261279157412
 21
221.7160945066699
 31
0.0
  0
LINE
  5
D119
330
18
100
AcDbEntity
  8
1
 62
     7
100
AcDbLine
 10
606.9261279157412
 20
238.7023051759556
 30
0.0
 11
614.9261279157412
 21
238.7023051759556
 31
0.0
  0
LINE
  5
D11A
330
18
100
AcDbEntity
  8
1
 62
     7
100
AcDbLine
 10
615.3261279157414
 20
222.2160945066699
 30
0.0
 11
606.5261279157413
 21
222.2160945066699
 31
0.0
  0
ARC
  5
D11B
330
18
100
AcDbEntity
  8
1
 62
     7
100
AcDbCircle
 10
596.3261279157412
 20
221.7160945066699
 30
0.0
 40
0.5
100
AcDbArc
 50
0.0
 51
90.0
  0
ARC
  5
D11C
330
18
100
AcDbEntity
  8
1
 62
     7
100
AcDbCircle
 10
606.5261279157413
 20
221.7160945066699
 30
0.0
 40
0.5
100
AcDbArc
 50
90.0
 51
180.0
  0
LINE
  5
D11D
330
18
100
AcDbEntity
  8
1
 62
     7
100
AcDbLine
 10
605.7261279157412
 20
232.2885158452408
 30
0.0
 11
597.1261279157411
 21
232.2885158452409
 31
0.0
  0
LINE
  5
D11E
330
18
100
AcDbEntity
  8
1
 62
     7
100
AcDbLine
 10
596.526127915741
 20
232.8885158452409
 30
0.0
 11
596.526127915741
 21
238.1023051759556
 31
0.0
  0
ARC
  5
D11F
330
18
100
AcDbEntity
  8
1
 62
     7
100
AcDbCircle
 10
597.1261279157411
 20
232.8885158452409
 30
0.0
 40
0.6
100
AcDbArc
 50
180.0
 51
270.0
  0
ARC
  5
D120
330
18
100
AcDbEntity
  8
1
 62
     7
100
AcDbCircle
 10
595.9261279157413
 20
238.1023051759556
 30
0.0
 40
0.6
100
AcDbArc
 50
0.0
 51
90.0
  0
LINE
  5
D121
330
18
100
AcDbEntity
  8
1
 62
     7
100
AcDbLine
 10
606.3261279157411
 20
232.8885158452409
 30
0.0
 11
606.3261279157411
 21
238.1023051759556
 31
0.0
  0
ARC
  5
D122
330
18
100
AcDbEntity
  8
1
 62
     7
100
AcDbCircle
 10
606.9261279157412
 20
238.1023051759556
 30
0.0
 40
0.6
100
AcDbArc
 50
90.0
 51
180.0
  0
LINE
  5
D123
330
18
100
AcDbEntity
  8
1
 62
     7
100
AcDbLine
 10
615.5261279157413
 20
232.8885158452409
 30
0.0
 11
615.5261279157413
 21
238.1023051759556
 31
0.0
  0
ARC
  5
D124
330
18
100
AcDbEntity
  8
1
 62
     7
100
AcDbCircle
 10
614.9261279157412
 20
238.1023051759556
 30
0.0
 40
0.6
100
AcDbArc
 50
0.0
 51
90.0
  0
ARC
  5
D125
330
18
100
AcDbEntity
  8
1
 62
     7
100
AcDbCircle
 10
586.7261279157412
 20
232.8885158452409
 30
0.0
 40
0.6
100
AcDbArc
 50
270.0
 51
0.0
  0
ARC
  5
D126
330
18
100
AcDbEntity
  8
1
 62
     7
100
AcDbCircle
 10
605.7261279157412
 20
232.8885158452409
 30
0.0
 40
0.6
100
AcDbArc
 50
270.0
 51
0.0
  0
LINE
  5
D127
330
18
100
AcDbEntity
  8
1
 62
     7
100
AcDbLine
 10
625.0261279157411
 20
217.3689006029702
 30
0.0
 11
625.0261279157411
 21
221.7160945066699
 31
0.0
  0
LINE
  5
D128
330
18
100
AcDbEntity
  8
1
 62
     7
100
AcDbLine
 10
615.8261279157414
 20
217.36890060297
 30
0.0
 11
615.8261279157414
 21
221.7160945066699
 31
0.0
  0
LINE
  5
D12C
330
18
100
AcDbEntity
  8
1
 62
     7
100
AcDbLine
 10
625.9261279157413
 20
238.7023051759556
 30
0.0
 11
633.9261279157413
 21
238.7023051759556
 31
0.0
  0
LINE
  5
D12D
330
18
100
AcDbEntity
  8
1
 62
     7
100
AcDbLine
 10
634.3261279157412
 20
222.2160945066701
 30
0.0
 11
625.526127915741
 21
222.2160945066701
 31
0.0
  0
ARC
  5
D12E
330
18
100
AcDbEntity
  8
1
 62
     7
100
AcDbCircle
 10
615.3261279157414
 20
221.7160945066699
 30
0.0
 40
0.5
100
AcDbArc
 50
0.0
 51
90.0
  0
ARC
  5
D12F
330
18
100
AcDbEntity
  8
1
 62
     7
100
AcDbCircle
 10
625.526127915741
 20
221.7160945066699
 30
0.0
 40
0.5
100
AcDbArc
 50
90.0
 51
180.0
  0
LINE
  5
D130
330
18
100
AcDbEntity
  8
1
 62
     7
100
AcDbLine
 10
624.7261279157412
 20
232.2885158452409
 30
0.0
 11
616.1261279157411
 21
232.2885158452409
 31
0.0
  0
ARC
  5
D131
330
18
100
AcDbEntity
  8
1
 62
     7
100
AcDbCircle
 10
616.1261279157411
 20
232.8885158452409
 30
0.0
 40
0.6
100
AcDbArc
 50
180.0
 51
270.0
  0
LINE
  5
D132
330
18
100
AcDbEntity
  8
1
 62
     7
100
AcDbLine
 10
625.3261279157412
 20
232.8885158452409
 30
0.0
 11
625.3261279157412
 21
238.1023051759556
 31
0.0
  0
ARC
  5
D133
330
18
100
AcDbEntity
  8
1
 62
     7
100
AcDbCircle
 10
625.9261279157413
 20
238.1023051759556
 30
0.0
 40
0.6
100
AcDbArc
 50
90.0
 51
180.0
  0
LINE
  5
D134
330
18
100
AcDbEntity
  8
1
 62
     7
100
AcDbLine
 10
634.5261279157413
 20
232.8885158452409
 30
0.0
 11
634.5261279157413
 21
238.1023051759556
 31
0.0
  0
ARC
  5
D135
330
18
100
AcDbEntity
  8
1
 62
     7
100
AcDbCircle
 10
633.9261279157413
 20
238.1023051759556
 30
0.0
 40
0.6
100
AcDbArc
 50
0.0
 51
90.0
  0
ARC
  5
D136
330
18
100
AcDbEntity
  8
1
 62
     7
100
AcDbCircle
 10
624.7261279157412
 20
232.8885158452409
 30
0.0
 40
0.6
100
AcDbArc
 50
270.0
 51
0.0
  0
LINE
  5
D137
330
18
100
AcDbEntity
  8
1
 62
     7
100
AcDbLine
 10
644.0261279157413
 20
217.3689006029702
 30
0.0
 11
644.0261279157413
 21
221.71609450667
 31
0.0
  0
LINE
  5
D138
330
18
100
AcDbEntity
  8
1
 62
     7
100
AcDbLine
 10
634.8261279157412
 20
217.3689006029701
 30
0.0
 11
634.8261279157412
 21
221.71609450667
 31
0.0
  0
LINE
  5
D13C
330
18
100
AcDbEntity
  8
1
 62
     7
100
AcDbLine
 10
644.9261279157412
 20
238.7023051759556
 30
0.0
 11
652.9261279157412
 21
238.7023051759556
 31
0.0
  0
LINE
  5
D13D
330
18
100
AcDbEntity
  8
1
 62
     7
100
AcDbLine
 10
653.3261279157414
 20
222.2160945066701
 30
0.0
 11
644.5261279157413
 21
222.2160945066701
 31
0.0
  0
ARC
  5
D13E
330
18
100
AcDbEntity
  8
1
 62
     7
100
AcDbCircle
 10
634.3261279157412
 20
221.71609450667
 30
0.0
 40
0.5
100
AcDbArc
 50
0.0
 51
90.0
  0
ARC
  5
D13F
330
18
100
AcDbEntity
  8
1
 62
     7
100
AcDbCircle
 10
644.5261279157413
 20
221.71609450667
 30
0.0
 40
0.5
100
AcDbArc
 50
90.0
 51
180.0
  0
LINE
  5
D140
330
18
100
AcDbEntity
  8
1
 62
     7
100
AcDbLine
 10
643.7261279157412
 20
232.2885158452409
 30
0.0
 11
635.1261279157411
 21
232.2885158452409
 31
0.0
  0
ARC
  5
D141
330
18
100
AcDbEntity
  8
1
 62
     7
100
AcDbCircle
 10
635.1261279157411
 20
232.8885158452409
 30
0.0
 40
0.6
100
AcDbArc
 50
180.0
 51
270.0
  0
LINE
  5
D142
330
18
100
AcDbEntity
  8
1
 62
     7
100
AcDbLine
 10
644.3261279157411
 20
232.8885158452409
 30
0.0
 11
644.3261279157411
 21
238.1023051759556
 31
0.0
  0
ARC
  5
D143
330
18
100
AcDbEntity
  8
1
 62
     7
100
AcDbCircle
 10
644.9261279157412
 20
238.1023051759556
 30
0.0
 40
0.6
100
AcDbArc
 50
90.0
 51
180.0
  0
LINE
  5
D144
330
18
100
AcDbEntity
  8
1
 62
     7
100
AcDbLine
 10
653.5261279157412
 20
232.8885158452409
 30
0.0
 11
653.5261279157412
 21
238.1023051759557
 31
0.0
  0
ARC
  5
D145
330
18
100
AcDbEntity
  8
1
 62
     7
100
AcDbCircle
 10
652.9261279157412
 20
238.1023051759557
 30
0.0
 40
0.6
100
AcDbArc
 50
0.0
 51
90.0
  0
ARC
  5
D146
330
18
100
AcDbEntity
  8
1
 62
     7
100
AcDbCircle
 10
643.7261279157412
 20
232.8885158452409
 30
0.0
 40
0.6
100
AcDbArc
 50
270.0
 51
0.0
  0
LINE
  5
D147
330
18
100
AcDbEntity
  8
3
  6
CENTER2
100
AcDbLine
 10
664.4763506337088
 20
165.594257836727
 30
0.0
 11
585.8759051977735
 21
165.594257836727
 31
0.0
  0
LINE
  5
D148
330
18
100
AcDbEntity
  8
1
 62
     7
100
AcDbLine
 10
617.5261279157409
 20
160.7442578367271
 30
0.0
 11
616.2761279157413
 21
160.7442578367271
 31
0.0
  0
LINE
  5
D149
330
18
100
AcDbEntity
  8
1
 62
     7
100
AcDbLine
 10
605.5261279157413
 20
160.7442578367271
 30
0.0
 11
597.3261279157411
 21
160.7442578367271
 31
0.0
  0
LINE
  5
D14A
330
18
100
AcDbEntity
  8
1
 62
     7
100
AcDbLine
 10
587.0761279157412
 20
162.4949471515044
 30
0.0
 11
596.8261279157409
 21
162.4949471515044
 31
0.0
  0
LINE
  5
D14B
330
18
100
AcDbEntity
  8
1
 62
     7
100
AcDbLine
 10
596.8261279157409
 20
167.5442578367269
 30
0.0
 11
587.0761279157412
 21
167.5442578367269
 31
0.0
  0
LINE
  5
D14C
330
18
100
AcDbEntity
  8
1
 62
     7
100
AcDbLine
 10
596.8261279157411
 20
169.044257836727
 30
0.0
 11
587.0761279157412
 21
169.044257836727
 31
0.0
  0
LINE
  5
D14D
330
18
100
AcDbEntity
  8
1
 62
     7
100
AcDbLine
 10
596.8261279157411
 20
169.044257836727
 30
0.0
 11
596.8261279157411
 21
161.244257836727
 31
0.0
  0
ARC
  5
D14E
330
18
100
AcDbEntity
  8
1
 62
     7
100
AcDbCircle
 10
597.3261279157411
 20
161.244257836727
 30
0.0
 40
0.5
100
AcDbArc
 50
180.0
 51
270.0
  0
ARC
  5
D14F
330
18
100
AcDbEntity
  8
1
 62
     7
100
AcDbCircle
 10
597.3261279157411
 20
169.044257836727
 30
0.0
 40
0.5
100
AcDbArc
 50
90.0
 51
180.0
  0
LINE
  5
D150
330
18
100
AcDbEntity
  8
1
 62
     7
100
AcDbLine
 10
634.7761279157412
 20
168.044257836727
 30
0.0
 11
625.0761279157411
 21
168.044257836727
 31
0.0
  0
LINE
  5
D151
330
18
100
AcDbEntity
  8
1
 62
     7
100
AcDbLine
 10
627.5261279157413
 20
161.9982517254205
 30
0.0
 11
632.3261279157411
 21
161.9982517254205
 31
0.0
  0
LINE
  5
D152
330
18
100
AcDbEntity
  8
1
 62
     7
100
AcDbLine
 10
606.0261279157413
 20
169.044257836727
 30
0.0
 11
615.7761279157413
 21
169.044257836727
 31
0.0
  0
LINE
  5
D153
330
18
100
AcDbEntity
  8
1
 62
     7
100
AcDbLine
 10
625.0761279157411
 20
169.044257836727
 30
0.0
 11
634.8261279157412
 21
169.044257836727
 31
0.0
  0
LINE
  5
D154
330
18
100
AcDbEntity
  8
1
 62
     7
100
AcDbLine
 10
644.0261279157413
 20
169.044257836727
 30
0.0
 11
653.8261279157413
 21
169.044257836727
 31
0.0
  0
LINE
  5
D155
330
18
100
AcDbEntity
  8
1
 62
     7
100
AcDbLine
 10
606.0261279157413
 20
167.544257836727
 30
0.0
 11
615.7761279157413
 21
167.544257836727
 31
0.0
  0
LINE
  5
D156
330
18
100
AcDbEntity
  8
1
 62
     7
100
AcDbLine
 10
606.0261279157413
 20
162.4949471515044
 30
0.0
 11
615.7761279157413
 21
162.4949471515044
 31
0.0
  0
ARC
  5
D157
330
18
100
AcDbEntity
  8
1
 62
     7
100
AcDbCircle
 10
605.5261279157413
 20
169.044257836727
 30
0.0
 40
0.5
100
AcDbArc
 50
0.0
 51
90.0
  0
ARC
  5
D158
330
18
100
AcDbEntity
  8
1
 62
     7
100
AcDbCircle
 10
605.5261279157413
 20
161.2442578367271
 30
0.0
 40
0.5
100
AcDbArc
 50
270.0
 51
0.0
  0
LINE
  5
D159
330
18
100
AcDbEntity
  8
1
 62
     7
100
AcDbLine
 10
606.0261279157413
 20
169.044257836727
 30
0.0
 11
606.0261279157413
 21
161.2442578367271
 31
0.0
  0
LINE
  5
D15A
330
18
100
AcDbEntity
  8
1
 62
     7
100
AcDbLine
 10
618.0261279157413
 20
161.9982517254205
 30
0.0
 11
622.8261279157414
 21
161.9982517254205
 31
0.0
  0
LINE
  5
D15B
330
18
100
AcDbEntity
  8
1
 62
     7
100
AcDbLine
 10
615.7761279157413
 20
169.044257836727
 30
0.0
 11
615.7761279157413
 21
161.2442578367271
 31
0.0
  0
ARC
  5
D15C
330
18
100
AcDbEntity
  8
1
 62
     7
100
AcDbCircle
 10
617.5261279157409
 20
161.2442578367271
 30
0.0
 40
0.5
100
AcDbArc
 50
270.0
 51
0.0
  0
LINE
  5
D15D
330
18
100
AcDbEntity
  8
1
 62
     7
100
AcDbLine
 10
618.0261279157413
 20
161.2442578367271
 30
0.0
 11
618.0261279157413
 21
163.5187131772743
 31
0.0
  0
ARC
  5
D15E
330
18
100
AcDbEntity
  8
1
 62
     7
100
AcDbCircle
 10
616.2761279157413
 20
161.2442578367271
 30
0.0
 40
0.5
100
AcDbArc
 50
180.0
 51
270.0
  0
ARC
  5
D15F
330
18
100
AcDbEntity
  8
1
 62
     7
100
AcDbCircle
 10
616.2761279157413
 20
169.044257836727
 30
0.0
 40
0.5
100
AcDbArc
 50
90.0
 51
180.0
  0
LINE
  5
D160
330
18
100
AcDbEntity
  8
1
 62
     7
100
AcDbLine
 10
625.0761279157411
 20
169.044257836727
 30
0.0
 11
625.0761279157411
 21
161.2442578367271
 31
0.0
  0
LINE
  5
D161
330
18
100
AcDbEntity
  8
1
 62
     7
100
AcDbLine
 10
625.0761279157411
 20
162.4949471515043
 30
0.0
 11
627.5261279157413
 21
162.4949471515044
 31
0.0
  0
LINE
  5
D162
330
18
100
AcDbEntity
  8
1
 62
     7
100
AcDbLine
 10
627.0261279157413
 20
160.7442578367271
 30
0.0
 11
625.8261279157411
 21
160.7442578367271
 31
0.0
  0
LINE
  5
D163
330
18
100
AcDbEntity
  8
1
 62
     7
100
AcDbLine
 10
624.5761279157411
 20
160.7442578367271
 30
0.0
 11
623.3261279157414
 21
160.7442578367271
 31
0.0
  0
ARC
  5
D164
330
18
100
AcDbEntity
  8
1
 62
     7
100
AcDbCircle
 10
624.5761279157411
 20
161.2442578367271
 30
0.0
 40
0.5
100
AcDbArc
 50
270.0
 51
0.0
  0
ARC
  5
D165
330
18
100
AcDbEntity
  8
1
 62
     7
100
AcDbCircle
 10
624.5761279157411
 20
169.044257836727
 30
0.0
 40
0.5
100
AcDbArc
 50
0.0
 51
90.0
  0
LINE
  5
D166
330
18
100
AcDbEntity
  8
1
 62
     7
100
AcDbLine
 10
662.5761279157414
 20
160.7442578367271
 30
0.0
 11
654.2761279157413
 21
160.7442578367271
 31
0.0
  0
LINE
  5
D167
330
18
100
AcDbEntity
  8
1
 62
     7
100
AcDbLine
 10
653.0261279157413
 20
160.7442578367271
 30
0.0
 11
644.8261279157411
 21
160.7442578367271
 31
0.0
  0
LINE
  5
D168
330
18
100
AcDbEntity
  8
1
 62
     7
100
AcDbLine
 10
643.5761279157411
 20
160.7442578367271
 30
0.0
 11
635.2761279157411
 21
160.7442578367271
 31
0.0
  0
LINE
  5
D169
330
18
100
AcDbEntity
  8
1
 62
     7
100
AcDbLine
 10
634.026127915741
 20
160.7442578367271
 30
0.0
 11
632.8261279157411
 21
160.7442578367271
 31
0.0
  0
LINE
  5
D16A
330
18
100
AcDbEntity
  8
1
 62
     7
100
AcDbLine
 10
644.0761279157412
 20
167.544257836727
 30
0.0
 11
653.7761279157413
 21
167.544257836727
 31
0.0
  0
LINE
  5
D16B
330
18
100
AcDbEntity
  8
1
 62
     7
100
AcDbLine
 10
644.0761279157412
 20
162.4949471515044
 30
0.0
 11
653.7761279157413
 21
162.4949471515044
 31
0.0
  0
LINE
  5
D16C
330
18
100
AcDbEntity
  8
1
 62
     7
100
AcDbLine
 10
634.8261279157412
 20
169.044257836727
 30
0.0
 11
634.8261279157412
 21
161.2442578367271
 31
0.0
  0
LINE
  5
D16D
330
18
100
AcDbEntity
  8
1
 62
     7
100
AcDbLine
 10
632.3261279157411
 20
161.2442578367271
 30
0.0
 11
632.3261279157411
 21
168.044257836727
 31
0.0
  0
ARC
  5
D16E
330
18
100
AcDbEntity
  8
1
 62
     7
100
AcDbCircle
 10
635.3261279157414
 20
161.2442578367271
 30
0.0
 40
0.5
100
AcDbArc
 50
180.0
 51
270.0
  0
LINE
  5
D16F
330
18
100
AcDbEntity
  8
1
 62
     7
100
AcDbLine
 10
632.3261279157411
 20
162.4949471515044
 30
0.0
 11
634.7761279157412
 21
162.4949471515044
 31
0.0
  0
ARC
  5
D170
330
18
100
AcDbEntity
  8
1
 62
     7
100
AcDbCircle
 10
632.8261279157411
 20
161.2442578367271
 30
0.0
 40
0.5
100
AcDbArc
 50
180.0
 51
270.0
  0
ARC
  5
D171
330
18
100
AcDbEntity
  8
1
 62
     7
100
AcDbCircle
 10
635.3261279157414
 20
169.044257836727
 30
0.0
 40
0.5
100
AcDbArc
 50
90.0
 51
180.0
  0
LINE
  5
D172
330
18
100
AcDbEntity
  8
1
 62
     7
100
AcDbLine
 10
644.0261279157413
 20
169.044257836727
 30
0.0
 11
644.0261279157413
 21
161.2442578367271
 31
0.0
  0
ARC
  5
D173
330
18
100
AcDbEntity
  8
1
 62
     7
100
AcDbCircle
 10
643.5261279157413
 20
161.2442578367271
 30
0.0
 40
0.5
100
AcDbArc
 50
270.0
 51
0.0
  0
ARC
  5
D174
330
18
100
AcDbEntity
  8
1
 62
     7
100
AcDbCircle
 10
643.5261279157413
 20
169.044257836727
 30
0.0
 40
0.5
100
AcDbArc
 50
0.0
 51
90.0
  0
LINE
  5
D175
330
18
100
AcDbEntity
  8
1
 62
     7
100
AcDbLine
 10
653.8261279157413
 20
169.044257836727
 30
0.0
 11
653.8261279157413
 21
161.2442578367271
 31
0.0
  0
ARC
  5
D176
330
18
100
AcDbEntity
  8
1
 62
     7
100
AcDbCircle
 10
654.3261279157412
 20
161.2442578367271
 30
0.0
 40
0.5
100
AcDbArc
 50
180.0
 51
270.0
  0
ARC
  5
D177
330
18
100
AcDbEntity
  8
1
 62
     7
100
AcDbCircle
 10
654.3261279157412
 20
169.044257836727
 30
0.0
 40
0.5
100
AcDbArc
 50
90.0
 51
180.0
  0
LINE
  5
D178
330
18
100
AcDbEntity
  8
1
 62
     7
100
AcDbLine
 10
663.0761279157411
 20
168.9447986090988
 30
0.0
 11
663.0761279157414
 21
161.2442578367271
 31
0.0
  0
ARC
  5
D179
330
18
100
AcDbEntity
  8
1
 62
     7
100
AcDbCircle
 10
662.5761279157414
 20
161.2442578367271
 30
0.0
 40
0.5
100
AcDbArc
 50
270.0
 51
0.0
  0
LINE
  5
D17A
330
18
100
AcDbEntity
  8
1
 62
     7
100
AcDbLine
 10
632.3261279157411
 20
167.044257836727
 30
0.0
 11
627.5261279157413
 21
167.044257836727
 31
0.0
  0
LINE
  5
D17B
330
18
100
AcDbEntity
  8
1
 62
     7
100
AcDbLine
 10
661.0761279157409
 20
169.544257836727
 30
0.0
 11
662.7248756531032
 21
169.3418170697553
 31
0.0
  0
ARC
  5
D17C
330
18
100
AcDbEntity
  8
1
 62
     7
100
AcDbCircle
 10
662.6761279157412
 20
168.9447986090988
 30
0.0
 40
0.4
100
AcDbArc
 50
0.0
 51
83.00000000000057
  0
LINE
  5
D17D
330
18
100
AcDbEntity
  8
1
 62
     7
100
AcDbLine
 10
653.5261279157412
 20
162.4949471515044
 30
0.0
 11
653.5261279157412
 21
161.2442578367271
 31
0.0
  0
ARC
  5
D17E
330
18
100
AcDbEntity
  8
1
 62
     7
100
AcDbCircle
 10
653.0261279157413
 20
161.2442578367271
 30
0.0
 40
0.5
100
AcDbArc
 50
270.0
 51
0.0
  0
LINE
  5
D17F
330
18
100
AcDbEntity
  8
1
 62
     7
100
AcDbLine
 10
651.1761279157412
 20
162.4949471515044
 30
0.0
 11
651.1761279157412
 21
161.2442578367271
 31
0.0
  0
ARC
  5
D180
330
18
100
AcDbEntity
  8
1
 62
     7
100
AcDbCircle
 10
651.6761279157413
 20
161.2442578367271
 30
0.0
 40
0.5
100
AcDbArc
 50
180.0
 51
270.0
  0
LINE
  5
D181
330
18
100
AcDbEntity
  8
1
 62
     7
100
AcDbLine
 10
644.3261279157411
 20
162.4949471515044
 30
0.0
 11
644.3261279157411
 21
161.2442578367271
 31
0.0
  0
ARC
  5
D182
330
18
100
AcDbEntity
  8
1
 62
     7
100
AcDbCircle
 10
644.8261279157411
 20
161.2442578367271
 30
0.0
 40
0.5
100
AcDbArc
 50
180.0
 51
270.0
  0
LINE
  5
D183
330
18
100
AcDbEntity
  8
1
 62
     7
100
AcDbLine
 10
646.6761279157412
 20
162.4949471515044
 30
0.0
 11
646.6761279157412
 21
161.2442578367271
 31
0.0
  0
ARC
  5
D184
330
18
100
AcDbEntity
  8
1
 62
     7
100
AcDbCircle
 10
646.1761279157412
 20
161.2442578367271
 30
0.0
 40
0.5
100
AcDbArc
 50
270.0
 51
0.0
  0
LINE
  5
D185
330
18
100
AcDbEntity
  8
1
 62
     7
100
AcDbLine
 10
615.0261279157413
 20
160.7442578367271
 30
0.0
 11
606.8261279157411
 21
160.7442578367271
 31
0.0
  0
LINE
  5
D186
330
18
100
AcDbEntity
  8
1
 62
     7
100
AcDbLine
 10
615.5261279157413
 20
162.4949471515044
 30
0.0
 11
615.5261279157413
 21
161.2442578367271
 31
0.0
  0
ARC
  5
D187
330
18
100
AcDbEntity
  8
1
 62
     7
100
AcDbCircle
 10
615.0261279157413
 20
161.2442578367271
 30
0.0
 40
0.5
100
AcDbArc
 50
270.0
 51
0.0
  0
LINE
  5
D188
330
18
100
AcDbEntity
  8
1
 62
     7
100
AcDbLine
 10
613.1761279157407
 20
162.4949471515044
 30
0.0
 11
613.1761279157407
 21
161.2442578367271
 31
0.0
  0
ARC
  5
D189
330
18
100
AcDbEntity
  8
1
 62
     7
100
AcDbCircle
 10
613.6761279157407
 20
161.2442578367271
 30
0.0
 40
0.5
100
AcDbArc
 50
180.0
 51
270.0
  0
LINE
  5
D18A
330
18
100
AcDbEntity
  8
1
 62
     7
100
AcDbLine
 10
606.3261279157411
 20
162.4949471515044
 30
0.0
 11
606.3261279157411
 21
161.2442578367271
 31
0.0
  0
ARC
  5
D18B
330
18
100
AcDbEntity
  8
1
 62
     7
100
AcDbCircle
 10
606.8261279157411
 20
161.2442578367271
 30
0.0
 40
0.5
100
AcDbArc
 50
180.0
 51
270.0
  0
LINE
  5
D18C
330
18
100
AcDbEntity
  8
1
 62
     7
100
AcDbLine
 10
608.6761279157411
 20
162.4949471515044
 30
0.0
 11
608.6761279157411
 21
161.2442578367271
 31
0.0
  0
ARC
  5
D18D
330
18
100
AcDbEntity
  8
1
 62
     7
100
AcDbCircle
 10
608.1761279157412
 20
161.2442578367271
 30
0.0
 40
0.5
100
AcDbArc
 50
270.0
 51
0.0
  0
LINE
  5
D18E
330
18
100
AcDbEntity
  8
1
 62
     7
100
AcDbLine
 10
625.3261279157412
 20
162.4949471515043
 30
0.0
 11
625.3261279157412
 21
161.2442578367271
 31
0.0
  0
ARC
  5
D18F
330
18
100
AcDbEntity
  8
1
 62
     7
100
AcDbCircle
 10
625.8261279157411
 20
161.2442578367271
 30
0.0
 40
0.5
100
AcDbArc
 50
180.0
 51
270.0
  0
LINE
  5
D190
330
18
100
AcDbEntity
  8
1
 62
     7
100
AcDbLine
 10
634.5261279157409
 20
162.4949471515043
 30
0.0
 11
634.5261279157409
 21
161.2442578367271
 31
0.0
  0
ARC
  5
D191
330
18
100
AcDbEntity
  8
1
 62
     7
100
AcDbCircle
 10
634.026127915741
 20
161.2442578367271
 30
0.0
 40
0.5
100
AcDbArc
 50
270.0
 51
0.0
  0
LINE
  5
D192
330
18
100
AcDbEntity
  8
1
 62
     7
100
AcDbLine
 10
625.8261279157416
 20
160.7442578367271
 30
0.0
 11
627.0261279157413
 21
160.7442578367271
 31
0.0
  0
LINE
  5
D193
330
18
100
AcDbEntity
  8
1
 62
     7
100
AcDbLine
 10
627.5261279157413
 20
161.2442578367271
 30
0.0
 11
627.5261279157413
 21
168.044257836727
 31
0.0
  0
ARC
  5
D194
330
18
100
AcDbEntity
  8
1
 62
     7
100
AcDbCircle
 10
627.0261279157413
 20
161.2442578367271
 30
0.0
 40
0.5
100
AcDbArc
 50
270.0
 51
0.0
  0
ARC
  5
D195
330
18
100
AcDbEntity
  8
1
 62
     7
100
AcDbCircle
 10
623.3261279157414
 20
161.2442578367271
 30
0.0
 40
0.5
100
AcDbArc
 50
180.0
 51
270.0
  0
LINE
  5
D196
330
18
100
AcDbEntity
  8
1
 62
     7
100
AcDbLine
 10
622.8261279157414
 20
161.2442578367271
 30
0.0
 11
622.8261279157414
 21
163.5187131772743
 31
0.0
  0
LINE
  5
D197
330
18
100
AcDbEntity
  8
1
 62
     7
100
AcDbLine
 10
596.0761279157411
 20
160.7442578367271
 30
0.0
 11
587.8761279157409
 21
160.7442578367271
 31
0.0
  0
LINE
  5
D198
330
18
100
AcDbEntity
  8
1
 62
     7
100
AcDbLine
 10
596.5761279157411
 20
162.4949471515044
 30
0.0
 11
596.5761279157411
 21
161.2442578367271
 31
0.0
  0
ARC
  5
D199
330
18
100
AcDbEntity
  8
1
 62
     7
100
AcDbCircle
 10
596.0761279157411
 20
161.2442578367271
 30
0.0
 40
0.5
100
AcDbArc
 50
270.0
 51
0.0
  0
LINE
  5
D19A
330
18
100
AcDbEntity
  8
1
 62
     7
100
AcDbLine
 10
594.2261279157411
 20
162.4949471515044
 30
0.0
 11
594.2261279157411
 21
161.2442578367271
 31
0.0
  0
ARC
  5
D19B
330
18
100
AcDbEntity
  8
1
 62
     7
100
AcDbCircle
 10
594.7261279157411
 20
161.2442578367271
 30
0.0
 40
0.5
100
AcDbArc
 50
180.0
 51
270.0
  0
LINE
  5
D19C
330
18
100
AcDbEntity
  8
1
 62
     7
100
AcDbLine
 10
587.376127915741
 20
162.4949471515044
 30
0.0
 11
587.376127915741
 21
161.2442578367271
 31
0.0
  0
ARC
  5
D19D
330
18
100
AcDbEntity
  8
1
 62
     7
100
AcDbCircle
 10
587.8761279157409
 20
161.2442578367271
 30
0.0
 40
0.5
100
AcDbArc
 50
180.0
 51
270.0
  0
LINE
  5
D19E
330
18
100
AcDbEntity
  8
1
 62
     7
100
AcDbLine
 10
589.7261279157411
 20
162.4949471515044
 30
0.0
 11
589.7261279157411
 21
161.2442578367271
 31
0.0
  0
ARC
  5
D19F
330
18
100
AcDbEntity
  8
1
 62
     7
100
AcDbCircle
 10
589.2261279157411
 20
161.2442578367271
 30
0.0
 40
0.5
100
AcDbArc
 50
270.0
 51
0.0
  0
ARC
  5
D1A0
330
18
100
AcDbEntity
  8
1
 62
     7
100
AcDbCircle
 10
586.5761279157412
 20
169.044257836727
 30
0.0
 40
0.5
100
AcDbArc
 50
0.0
 51
90.0
  0
ARC
  5
D1A1
330
18
100
AcDbEntity
  8
1
 62
     7
100
AcDbCircle
 10
586.5761279157412
 20
161.244257836727
 30
0.0
 40
0.5
100
AcDbArc
 50
270.0
 51
0.0
  0
LINE
  5
D1A2
330
18
100
AcDbEntity
  8
1
 62
     7
100
AcDbLine
 10
587.0761279157412
 20
169.044257836727
 30
0.0
 11
587.0761279157412
 21
161.244257836727
 31
0.0
  0
LINE
  5
D1A3
330
18
100
AcDbEntity
  8
3
  6
CENTER2
100
AcDbLine
 10
664.7878746492148
 20
204.7523051759554
 30
0.0
 11
517.8232595767166
 21
204.7523051759554
 31
0.0
  0
LINE
  5
D1A5
330
18
100
AcDbEntity
  8
1
 62
     7
100
AcDbLine
 10
529.4261279157408
 20
200.8023051759557
 30
0.0
 11
521.4261279157408
 21
200.8023051759557
 31
0.0
  0
LINE
  5
D1A6
330
18
100
AcDbEntity
  8
1
 62
     7
100
AcDbLine
 10
529.7261279157411
 20
217.2885158452408
 30
0.0
 11
521.126127915741
 21
217.2885158452408
 31
0.0
  0
LINE
  5
D1A7
330
18
100
AcDbEntity
  8
1
 62
     7
100
AcDbLine
 10
520.8261279157409
 20
201.4023051759556
 30
0.0
 11
520.8261279157409
 21
206.7160945066699
 31
0.0
  0
ARC
  5
D1A8
330
18
100
AcDbEntity
  8
1
 62
     7
100
AcDbCircle
 10
521.4261279157408
 20
201.4023051759556
 30
0.0
 40
0.6
100
AcDbArc
 50
180.0
 51
270.0
  0
LINE
  5
D1A9
330
18
100
AcDbEntity
  8
1
 62
     7
100
AcDbLine
 10
511.2761279157409
 20
207.7160945066699
 30
0.0
 11
511.2761279157409
 21
223.2023051759555
 31
0.0
  0
LINE
  5
D1AA
330
18
100
AcDbEntity
  8
1
 62
     7
100
AcDbLine
 10
511.7761279157408
 20
207.2160945066698
 30
0.0
 11
520.3261279157409
 21
207.2160945066698
 31
0.0
  0
ARC
  5
D1AB
330
18
100
AcDbEntity
  8
1
 62
     7
100
AcDbCircle
 10
511.7761279157408
 20
207.7160945066699
 30
0.0
 40
0.5
100
AcDbArc
 50
180.0
 51
270.0
  0
ARC
  5
D1AC
330
18
100
AcDbEntity
  8
1
 62
     7
100
AcDbCircle
 10
520.3261279157409
 20
206.7160945066699
 30
0.0
 40
0.5
100
AcDbArc
 50
0.0
 51
90.0
  0
LINE
  5
D1AF
330
18
100
AcDbEntity
  8
1
 62
     7
100
AcDbLine
 10
520.5261279157411
 20
222.1743520761655
 30
0.0
 11
520.5261279157411
 21
217.8885158452409
 31
0.0
  0
ARC
  5
D1B0
330
18
100
AcDbEntity
  8
1
 62
     7
100
AcDbCircle
 10
521.126127915741
 20
217.8885158452409
 30
0.0
 40
0.6
100
AcDbArc
 50
180.0
 51
270.0
  0
LINE
  5
D1B2
330
18
100
AcDbEntity
  8
1
 62
     7
100
AcDbLine
 10
549.5261279157411
 20
207.2160945066698
 30
0.0
 11
558.3261279157411
 21
207.2160945066698
 31
0.0
  0
LINE
  5
D1B4
330
18
100
AcDbEntity
  8
1
 62
     7
100
AcDbLine
 10
549.0261279157411
 20
201.4023051759556
 30
0.0
 11
549.0261279157411
 21
206.7160945066699
 31
0.0
  0
LINE
  5
D1B5
330
18
100
AcDbEntity
  8
1
 62
     7
100
AcDbLine
 10
539.8261279157411
 20
201.4023051759556
 30
0.0
 11
539.8261279157411
 21
206.7160945066699
 31
0.0
  0
LINE
  5
D1B6
330
18
100
AcDbEntity
  8
1
 62
     7
100
AcDbLine
 10
530.0261279157409
 20
201.4023051759556
 30
0.0
 11
530.0261279157409
 21
206.7160945066699
 31
0.0
  0
ARC
  5
D1B7
330
18
100
AcDbEntity
  8
1
 62
     7
100
AcDbCircle
 10
529.4261279157408
 20
201.4023051759556
 30
0.0
 40
0.6
100
AcDbArc
 50
270.0
 51
0.0
  0
LINE
  5
D1B8
330
18
100
AcDbEntity
  8
1
 62
     7
100
AcDbLine
 10
540.4261279157408
 20
200.8023051759557
 30
0.0
 11
548.4261279157411
 21
200.8023051759557
 31
0.0
  0
ARC
  5
D1B9
330
18
100
AcDbEntity
  8
1
 62
     7
100
AcDbCircle
 10
540.4261279157408
 20
201.4023051759556
 30
0.0
 40
0.6
100
AcDbArc
 50
180.0
 51
270.0
  0
ARC
  5
D1BA
330
18
100
AcDbEntity
  8
1
 62
     7
100
AcDbCircle
 10
548.4261279157411
 20
201.4023051759556
 30
0.0
 40
0.6
100
AcDbArc
 50
270.0
 51
0.0
  0
LINE
  5
D1BB
330
18
100
AcDbEntity
  8
1
 62
     7
100
AcDbLine
 10
539.3261279157411
 20
207.2160945066698
 30
0.0
 11
530.5261279157408
 21
207.2160945066698
 31
0.0
  0
ARC
  5
D1BD
330
18
100
AcDbEntity
  8
1
 62
     7
100
AcDbCircle
 10
530.5261279157408
 20
206.7160945066699
 30
0.0
 40
0.5
100
AcDbArc
 50
90.0
 51
180.0
  0
ARC
  5
D1BE
330
18
100
AcDbEntity
  8
1
 62
     7
100
AcDbCircle
 10
529.7261279157411
 20
217.8885158452409
 30
0.0
 40
0.6
100
AcDbArc
 50
270.0
 51
0.0
  0
LINE
  5
D1BF
330
18
100
AcDbEntity
  8
1
 62
     7
100
AcDbLine
 10
530.3261279157411
 20
217.8885158452409
 30
0.0
 11
530.3261279157409
 21
222.1743520761653
 31
0.0
  0
ARC
  5
D1C1
330
18
100
AcDbEntity
  8
1
 62
     7
100
AcDbCircle
 10
539.3261279157411
 20
206.7160945066699
 30
0.0
 40
0.5
100
AcDbArc
 50
0.0
 51
90.0
  0
ARC
  5
D1C2
330
18
100
AcDbEntity
  8
1
 62
     7
100
AcDbCircle
 10
549.5261279157411
 20
206.7160945066699
 30
0.0
 40
0.5
100
AcDbArc
 50
90.0
 51
180.0
  0
LINE
  5
D1C3
330
18
100
AcDbEntity
  8
1
 62
     7
100
AcDbLine
 10
540.1261279157409
 20
217.2885158452408
 30
0.0
 11
548.7261279157411
 21
217.2885158452408
 31
0.0
  0
LINE
  5
D1C4
330
18
100
AcDbEntity
  8
1
 62
     7
100
AcDbLine
 10
539.5261279157408
 20
217.8885158452409
 30
0.0
 11
539.5261279157408
 21
222.1743520761656
 31
0.0
  0
ARC
  5
D1C5
330
18
100
AcDbEntity
  8
1
 62
     7
100
AcDbCircle
 10
540.1261279157409
 20
217.8885158452409
 30
0.0
 40
0.6
100
AcDbArc
 50
180.0
 51
270.0
  0
LINE
  5
D1C7
330
18
100
AcDbEntity
  8
1
 62
     7
100
AcDbLine
 10
549.3261279157409
 20
217.8885158452408
 30
0.0
 11
549.3261279157411
 21
222.1743520761654
 31
0.0
  0
LINE
  5
D1C9
330
18
100
AcDbEntity
  8
1
 62
     7
100
AcDbLine
 10
653.8261279157411
 20
201.4023051759558
 30
0.0
 11
653.8261279157411
 21
206.71609450667
 31
0.0
  0
LINE
  5
D1CA
330
18
100
AcDbEntity
  8
1
 62
     7
100
AcDbLine
 10
663.0761279157411
 20
216.7885158452409
 30
0.0
 11
663.0761279157411
 21
201.4023051759558
 31
0.0
  0
LINE
  5
D1CB
330
18
100
AcDbEntity
  8
1
 62
     7
100
AcDbLine
 10
568.0261279157407
 20
201.4023051759556
 30
0.0
 11
568.0261279157407
 21
206.7160945066699
 31
0.0
  0
LINE
  5
D1CC
330
18
100
AcDbEntity
  8
1
 62
     7
100
AcDbLine
 10
558.8261279157411
 20
201.4023051759556
 30
0.0
 11
558.8261279157411
 21
206.7160945066699
 31
0.0
  0
LINE
  5
D1CD
330
18
100
AcDbEntity
  8
1
 62
     7
100
AcDbLine
 10
559.4261279157412
 20
200.8023051759557
 30
0.0
 11
567.4261279157413
 21
200.8023051759557
 31
0.0
  0
ARC
  5
D1CE
330
18
100
AcDbEntity
  8
1
 62
     7
100
AcDbCircle
 10
559.4261279157412
 20
201.4023051759556
 30
0.0
 40
0.6
100
AcDbArc
 50
180.0
 51
270.0
  0
ARC
  5
D1CF
330
18
100
AcDbEntity
  8
1
 62
     7
100
AcDbCircle
 10
567.4261279157413
 20
201.4023051759556
 30
0.0
 40
0.6
100
AcDbArc
 50
270.0
 51
0.0
  0
LINE
  5
D1D0
330
18
100
AcDbEntity
  8
1
 62
     7
100
AcDbLine
 10
662.4761279157412
 20
200.8023051759558
 30
0.0
 11
654.4261279157413
 21
200.8023051759558
 31
0.0
  0
ARC
  5
D1D1
330
18
100
AcDbEntity
  8
1
 62
     7
100
AcDbCircle
 10
654.4261279157413
 20
201.4023051759558
 30
0.0
 40
0.6
100
AcDbArc
 50
180.0
 51
270.0
  0
ARC
  5
D1D2
330
18
100
AcDbEntity
  8
1
 62
     7
100
AcDbCircle
 10
662.4761279157412
 20
201.4023051759558
 30
0.0
 40
0.6
100
AcDbArc
 50
270.0
 51
0.0
  0
LINE
  5
D1D4
330
18
100
AcDbEntity
  8
1
 62
     7
100
AcDbLine
 10
577.3261279157412
 20
207.2160945066698
 30
0.0
 11
568.5261279157407
 21
207.2160945066698
 31
0.0
  0
ARC
  5
D1D5
330
18
100
AcDbEntity
  8
1
 62
     7
100
AcDbCircle
 10
558.3261279157411
 20
206.7160945066699
 30
0.0
 40
0.5
100
AcDbArc
 50
0.0
 51
90.0
  0
ARC
  5
D1D6
330
18
100
AcDbEntity
  8
1
 62
     7
100
AcDbCircle
 10
568.5261279157407
 20
206.7160945066699
 30
0.0
 40
0.5
100
AcDbArc
 50
90.0
 51
180.0
  0
LINE
  5
D1D7
330
18
100
AcDbEntity
  8
1
 62
     7
100
AcDbLine
 10
567.7261279157411
 20
217.2885158452408
 30
0.0
 11
559.126127915741
 21
217.2885158452408
 31
0.0
  0
LINE
  5
D1D8
330
18
100
AcDbEntity
  8
1
 62
     7
100
AcDbLine
 10
558.526127915741
 20
217.8885158452409
 30
0.0
 11
558.526127915741
 21
222.1743520761656
 31
0.0
  0
ARC
  5
D1D9
330
18
100
AcDbEntity
  8
1
 62
     7
100
AcDbCircle
 10
559.126127915741
 20
217.8885158452409
 30
0.0
 40
0.6
100
AcDbArc
 50
180.0
 51
270.0
  0
LINE
  5
D1DB
330
18
100
AcDbEntity
  8
1
 62
     7
100
AcDbLine
 10
568.3261279157409
 20
217.8885158452408
 30
0.0
 11
568.3261279157409
 21
222.1743520761654
 31
0.0
  0
ARC
  5
D1DD
330
18
100
AcDbEntity
  8
1
 62
     7
100
AcDbCircle
 10
653.3261279157411
 20
206.71609450667
 30
0.0
 40
0.5
100
AcDbArc
 50
0.0
 51
90.0
  0
LINE
  5
D1DE
330
18
100
AcDbEntity
  8
1
 62
     7
100
AcDbLine
 10
662.5761279157411
 20
217.2885158452409
 30
0.0
 11
654.1261279157411
 21
217.2885158452409
 31
0.0
  0
LINE
  5
D1DF
330
18
100
AcDbEntity
  8
1
 62
     7
100
AcDbLine
 10
577.5261279157411
 20
217.8885158452409
 30
0.0
 11
577.5261279157411
 21
222.1743520761656
 31
0.0
  0
ARC
  5
D1E0
330
18
100
AcDbEntity
  8
1
 62
     7
100
AcDbCircle
 10
654.1261279157411
 20
217.8885158452409
 30
0.0
 40
0.6
100
AcDbArc
 50
180.0
 51
270.0
  0
ARC
  5
D1E2
330
18
100
AcDbEntity
  8
1
 62
     7
100
AcDbCircle
 10
662.5761279157411
 20
216.7885158452409
 30
0.0
 40
0.5
100
AcDbArc
 50
0.0
 51
90.0
  0
ARC
  5
D1E3
330
18
100
AcDbEntity
  8
1
 62
     7
100
AcDbCircle
 10
548.7261279157411
 20
217.8885158452408
 30
0.0
 40
0.6
100
AcDbArc
 50
270.0
 51
0.0
  0
ARC
  5
D1E4
330
18
100
AcDbEntity
  8
1
 62
     7
100
AcDbCircle
 10
567.7261279157411
 20
217.8885158452408
 30
0.0
 40
0.6
100
AcDbArc
 50
270.0
 51
0.0
  0
LINE
  5
D1E5
330
18
100
AcDbEntity
  8
1
 62
     7
100
AcDbLine
 10
587.5261279157411
 20
207.2160945066699
 30
0.0
 11
596.3261279157412
 21
207.2160945066699
 31
0.0
  0
LINE
  5
D1E7
330
18
100
AcDbEntity
  8
1
 62
     7
100
AcDbLine
 10
587.0261279157411
 20
201.4023051759557
 30
0.0
 11
587.0261279157411
 21
206.7160945066699
 31
0.0
  0
LINE
  5
D1E8
330
18
100
AcDbEntity
  8
1
 62
     7
100
AcDbLine
 10
577.8261279157411
 20
201.4023051759557
 30
0.0
 11
577.8261279157411
 21
206.7160945066699
 31
0.0
  0
LINE
  5
D1E9
330
18
100
AcDbEntity
  8
1
 62
     7
100
AcDbLine
 10
578.4261279157407
 20
200.8023051759557
 30
0.0
 11
586.426127915741
 21
200.8023051759557
 31
0.0
  0
ARC
  5
D1EA
330
18
100
AcDbEntity
  8
1
 62
     7
100
AcDbCircle
 10
578.4261279157407
 20
201.4023051759557
 30
0.0
 40
0.6
100
AcDbArc
 50
180.0
 51
270.0
  0
ARC
  5
D1EB
330
18
100
AcDbEntity
  8
1
 62
     7
100
AcDbCircle
 10
586.426127915741
 20
201.4023051759557
 30
0.0
 40
0.6
100
AcDbArc
 50
270.0
 51
0.0
  0
ARC
  5
D1EC
330
18
100
AcDbEntity
  8
1
 62
     7
100
AcDbCircle
 10
577.3261279157411
 20
206.7160945066699
 30
0.0
 40
0.5
100
AcDbArc
 50
0.0
 51
90.0
  0
ARC
  5
D1ED
330
18
100
AcDbEntity
  8
1
 62
     7
100
AcDbCircle
 10
587.5261279157411
 20
206.7160945066699
 30
0.0
 40
0.5
100
AcDbArc
 50
90.0
 51
180.0
  0
LINE
  5
D1EE
330
18
100
AcDbEntity
  8
1
 62
     7
100
AcDbLine
 10
578.1261279157408
 20
217.2885158452408
 30
0.0
 11
586.7261279157411
 21
217.2885158452408
 31
0.0
  0
ARC
  5
D1EF
330
18
100
AcDbEntity
  8
1
 62
     7
100
AcDbCircle
 10
578.1261279157408
 20
217.8885158452409
 30
0.0
 40
0.6
100
AcDbArc
 50
180.0
 51
270.0
  0
LINE
  5
D1F0
330
18
100
AcDbEntity
  8
1
 62
     7
100
AcDbLine
 10
587.3261279157409
 20
217.8885158452409
 30
0.0
 11
587.3261279157411
 21
222.1743520761655
 31
0.0
  0
LINE
  5
D1F2
330
18
100
AcDbEntity
  8
1
 62
     7
100
AcDbLine
 10
606.0261279157407
 20
201.4023051759557
 30
0.0
 11
606.0261279157407
 21
206.7160945066699
 31
0.0
  0
LINE
  5
D1F3
330
18
100
AcDbEntity
  8
1
 62
     7
100
AcDbLine
 10
596.8261279157412
 20
201.4023051759557
 30
0.0
 11
596.8261279157412
 21
206.7160945066699
 31
0.0
  0
LINE
  5
D1F4
330
18
100
AcDbEntity
  8
1
 62
     7
100
AcDbLine
 10
597.4261279157413
 20
200.8023051759557
 30
0.0
 11
605.4261279157413
 21
200.8023051759557
 31
0.0
  0
ARC
  5
D1F5
330
18
100
AcDbEntity
  8
1
 62
     7
100
AcDbCircle
 10
597.4261279157413
 20
201.4023051759557
 30
0.0
 40
0.6
100
AcDbArc
 50
180.0
 51
270.0
  0
ARC
  5
D1F6
330
18
100
AcDbEntity
  8
1
 62
     7
100
AcDbCircle
 10
605.4261279157413
 20
201.4023051759557
 30
0.0
 40
0.6
100
AcDbArc
 50
270.0
 51
0.0
  0
LINE
  5
D1F8
330
18
100
AcDbEntity
  8
1
 62
     7
100
AcDbLine
 10
615.3261279157412
 20
207.2160945066699
 30
0.0
 11
606.5261279157411
 21
207.2160945066699
 31
0.0
  0
ARC
  5
D1F9
330
18
100
AcDbEntity
  8
1
 62
     7
100
AcDbCircle
 10
596.3261279157412
 20
206.7160945066699
 30
0.0
 40
0.5
100
AcDbArc
 50
0.0
 51
90.0
  0
ARC
  5
D1FA
330
18
100
AcDbEntity
  8
1
 62
     7
100
AcDbCircle
 10
606.5261279157411
 20
206.7160945066699
 30
0.0
 40
0.5
100
AcDbArc
 50
90.0
 51
180.0
  0
LINE
  5
D1FB
330
18
100
AcDbEntity
  8
1
 62
     7
100
AcDbLine
 10
605.7261279157411
 20
217.2885158452408
 30
0.0
 11
597.126127915741
 21
217.2885158452408
 31
0.0
  0
LINE
  5
D1FC
330
18
100
AcDbEntity
  8
1
 62
     7
100
AcDbLine
 10
596.526127915741
 20
217.8885158452409
 30
0.0
 11
596.526127915741
 21
222.1743520761656
 31
0.0
  0
ARC
  5
D1FD
330
18
100
AcDbEntity
  8
1
 62
     7
100
AcDbCircle
 10
597.126127915741
 20
217.8885158452409
 30
0.0
 40
0.6
100
AcDbArc
 50
180.0
 51
270.0
  0
LINE
  5
D1FF
330
18
100
AcDbEntity
  8
1
 62
     7
100
AcDbLine
 10
606.3261279157407
 20
217.8885158452408
 30
0.0
 11
606.3261279157407
 21
222.1743520761654
 31
0.0
  0
LINE
  5
D201
330
18
100
AcDbEntity
  8
1
 62
     7
100
AcDbLine
 10
615.5261279157411
 20
217.8885158452409
 30
0.0
 11
615.5261279157411
 21
222.1743520761656
 31
0.0
  0
ARC
  5
D203
330
18
100
AcDbEntity
  8
1
 62
     7
100
AcDbCircle
 10
586.7261279157411
 20
217.8885158452409
 30
0.0
 40
0.6
100
AcDbArc
 50
270.0
 51
0.0
  0
ARC
  5
D204
330
18
100
AcDbEntity
  8
1
 62
     7
100
AcDbCircle
 10
605.7261279157411
 20
217.8885158452408
 30
0.0
 40
0.6
100
AcDbArc
 50
270.0
 51
0.0
  0
LINE
  5
D205
330
18
100
AcDbEntity
  8
1
 62
     7
100
AcDbLine
 10
625.0261279157411
 20
201.4023051759557
 30
0.0
 11
625.0261279157411
 21
206.7160945066699
 31
0.0
  0
LINE
  5
D206
330
18
100
AcDbEntity
  8
1
 62
     7
100
AcDbLine
 10
615.8261279157413
 20
201.4023051759557
 30
0.0
 11
615.8261279157413
 21
206.7160945066699
 31
0.0
  0
LINE
  5
D207
330
18
100
AcDbEntity
  8
1
 62
     7
100
AcDbLine
 10
616.4261279157407
 20
200.8023051759558
 30
0.0
 11
624.4261279157407
 21
200.8023051759558
 31
0.0
  0
ARC
  5
D208
330
18
100
AcDbEntity
  8
1
 62
     7
100
AcDbCircle
 10
616.4261279157407
 20
201.4023051759557
 30
0.0
 40
0.6
100
AcDbArc
 50
180.0
 51
270.0
  0
ARC
  5
D209
330
18
100
AcDbEntity
  8
1
 62
     7
100
AcDbCircle
 10
624.4261279157407
 20
201.4023051759557
 30
0.0
 40
0.6
100
AcDbArc
 50
270.0
 51
0.0
  0
LINE
  5
D20B
330
18
100
AcDbEntity
  8
1
 62
     7
100
AcDbLine
 10
634.3261279157412
 20
207.2160945066699
 30
0.0
 11
625.526127915741
 21
207.2160945066699
 31
0.0
  0
ARC
  5
D20C
330
18
100
AcDbEntity
  8
1
 62
     7
100
AcDbCircle
 10
615.3261279157412
 20
206.7160945066699
 30
0.0
 40
0.5
100
AcDbArc
 50
0.0
 51
90.0
  0
ARC
  5
D20D
330
18
100
AcDbEntity
  8
1
 62
     7
100
AcDbCircle
 10
625.526127915741
 20
206.7160945066699
 30
0.0
 40
0.5
100
AcDbArc
 50
90.0
 51
180.0
  0
LINE
  5
D20E
330
18
100
AcDbEntity
  8
1
 62
     7
100
AcDbLine
 10
624.7261279157411
 20
217.2885158452408
 30
0.0
 11
616.1261279157407
 21
217.2885158452409
 31
0.0
  0
ARC
  5
D20F
330
18
100
AcDbEntity
  8
1
 62
     7
100
AcDbCircle
 10
616.1261279157407
 20
217.8885158452409
 30
0.0
 40
0.6
100
AcDbArc
 50
180.0
 51
270.0
  0
LINE
  5
D210
330
18
100
AcDbEntity
  8
1
 62
     7
100
AcDbLine
 10
625.3261279157409
 20
217.8885158452409
 30
0.0
 11
625.3261279157409
 21
222.1743520761655
 31
0.0
  0
LINE
  5
D212
330
18
100
AcDbEntity
  8
1
 62
     7
100
AcDbLine
 10
634.5261279157409
 20
217.8885158452409
 30
0.0
 11
634.5261279157409
 21
222.1743520761657
 31
0.0
  0
ARC
  5
D214
330
18
100
AcDbEntity
  8
1
 62
     7
100
AcDbCircle
 10
624.7261279157411
 20
217.8885158452409
 30
0.0
 40
0.6
100
AcDbArc
 50
270.0
 51
0.0
  0
LINE
  5
D215
330
18
100
AcDbEntity
  8
1
 62
     7
100
AcDbLine
 10
644.0261279157411
 20
201.4023051759557
 30
0.0
 11
644.0261279157411
 21
206.7160945066699
 31
0.0
  0
LINE
  5
D216
330
18
100
AcDbEntity
  8
1
 62
     7
100
AcDbLine
 10
634.8261279157412
 20
201.4023051759557
 30
0.0
 11
634.8261279157412
 21
206.7160945066699
 31
0.0
  0
LINE
  5
D217
330
18
100
AcDbEntity
  8
1
 62
     7
100
AcDbLine
 10
635.4261279157412
 20
200.8023051759558
 30
0.0
 11
643.4261279157412
 21
200.8023051759558
 31
0.0
  0
ARC
  5
D218
330
18
100
AcDbEntity
  8
1
 62
     7
100
AcDbCircle
 10
635.4261279157412
 20
201.4023051759557
 30
0.0
 40
0.6
100
AcDbArc
 50
180.0
 51
270.0
  0
ARC
  5
D219
330
18
100
AcDbEntity
  8
1
 62
     7
100
AcDbCircle
 10
643.4261279157412
 20
201.4023051759557
 30
0.0
 40
0.6
100
AcDbArc
 50
270.0
 51
0.0
  0
LINE
  5
D21B
330
18
100
AcDbEntity
  8
1
 62
     7
100
AcDbLine
 10
653.3261279157413
 20
207.2160945066699
 30
0.0
 11
644.5261279157411
 21
207.2160945066699
 31
0.0
  0
ARC
  5
D21C
330
18
100
AcDbEntity
  8
1
 62
     7
100
AcDbCircle
 10
634.3261279157412
 20
206.7160945066699
 30
0.0
 40
0.5
100
AcDbArc
 50
0.0
 51
90.0
  0
ARC
  5
D21D
330
18
100
AcDbEntity
  8
1
 62
     7
100
AcDbCircle
 10
644.5261279157411
 20
206.7160945066699
 30
0.0
 40
0.5
100
AcDbArc
 50
90.0
 51
180.0
  0
LINE
  5
D21E
330
18
100
AcDbEntity
  8
1
 62
     7
100
AcDbLine
 10
643.7261279157411
 20
217.2885158452409
 30
0.0
 11
635.126127915741
 21
217.2885158452409
 31
0.0
  0
ARC
  5
D21F
330
18
100
AcDbEntity
  8
1
 62
     7
100
AcDbCircle
 10
635.126127915741
 20
217.8885158452409
 30
0.0
 40
0.6
100
AcDbArc
 50
180.0
 51
270.0
  0
LINE
  5
D220
330
18
100
AcDbEntity
  8
1
 62
     7
100
AcDbLine
 10
644.3261279157409
 20
217.8885158452409
 30
0.0
 11
644.3261279157409
 21
222.1743520761655
 31
0.0
  0
LINE
  5
D222
330
18
100
AcDbEntity
  8
1
 62
     7
100
AcDbLine
 10
653.5261279157411
 20
217.8885158452409
 30
0.0
 11
653.5261279157411
 21
222.1743520761656
 31
0.0
  0
ARC
  5
D224
330
18
100
AcDbEntity
  8
1
 62
     7
100
AcDbCircle
 10
643.7261279157411
 20
217.8885158452409
 30
0.0
 40
0.6
100
AcDbArc
 50
270.0
 51
0.0
  0
TEXT
  5
D255
330
18
100
AcDbEntity
  8
2
 62
     1
100
AcDbText
 10
511.3002148010681
 20
120.2797239076326
 30
0.0
 40
3.0
  1
注記）1.図形デ-タから得られる寸法は、表記寸法以外は参考程度に扱ってください。干渉チェックなどに使用される場合は、弊社までご相談下さい。
  7
BIGFONT
100
AcDbText
1001
ACAD
1000
MTEXTBEGIN
1070
    73
1070
     1
1070
    44
1040
1.0
1070
    74
1070
     0
1000
MTEXTEND
  0
TEXT
  5
D256
330
18
100
AcDbEntity
  8
2
 62
     1
100
AcDbText
 10
511.3002148010681
 20
115.2797239076326
 30
0.0
 40
3.0
  1
      2.本デ-タは、実寸法を基にしておりカタログ記載の呼称幅と異なる場合があります。
  7
BIGFONT
100
AcDbText
1001
ACAD
1000
MTEXTBEGIN
1070
    73
1070
     1
1070
    44
1040
1.0
1070
    74
1070
     0
1000
MTEXTEND
  0
DIMENSION
  5
D360
330
18
100
AcDbEntity
  8
2
100
AcDbDimension
  2
*D3
 10
456.3535741514966
 20
219.7523051759557
 30
0.0
 11
453.8535741514966
 21
227.2523051759557
 31
0.0
 70
    32
  1
<>
 71
     5
 42
14.99999999999988
  3
STANDARD
100
AcDbAlignedDimension
 13
465.1843217802602
 23
234.7523051759556
 33
0.0
 14
465.1843217802602
 24
219.7523051759557
 34
0.0
 50
90.0
100
AcDbRotatedDimension
  0
ARC
  5
D361
330
18
100
AcDbEntity
  8
1
 62
     7
100
AcDbCircle
 10
471.2185576116008
 20
234.7523051759556
 30
0.0
 40
3.950000000000025
100
AcDbArc
 50
0.0
 51
115.9027315912137
  0
LINE
  5
D362
330
18
100
AcDbEntity
  8
1
 62
     7
100
AcDbLine
 10
475.168557611601
 20
234.7523051759556
 30
0.0
 11
475.168557611601
 21
219.7523051759557
 31
0.0
  0
ARC
  5
D363
330
18
100
AcDbEntity
  8
1
 62
     7
100
AcDbCircle
 10
471.2185576116008
 20
234.7523051759556
 30
0.0
 40
2.424999999999998
100
AcDbArc
 50
308.2108135722062
 51
231.7891864277938
  0
ARC
  5
D364
330
18
100
AcDbEntity
  8
1
 62
     7
100
AcDbCircle
 10
466.6685576116011
 20
236.6003190066654
 30
0.0
 40
0.2999999999999999
100
AcDbArc
 50
115.9027315912137
 51
180.0000000000032
  0
LINE
  5
D365
330
18
100
AcDbEntity
  8
1
 62
     7
100
AcDbLine
 10
466.5375042092444
 20
236.8701800926535
 30
0.0
 11
469.493021147236
 21
238.3054761414661
 31
0.0
  0
ARC
  5
D366
330
18
100
AcDbEntity
  8
1
 62
     7
100
AcDbCircle
 10
458.6685576116008
 20
227.2523051759557
 30
0.0
 40
9.500000000000117
100
AcDbArc
 50
325.0847937525559
 51
34.91520624744409
  0
LINE
  5
D367
330
18
100
AcDbEntity
  8
1
 62
     7
100
AcDbLine
 10
473.2207170885604
 20
225.7564940825559
 30
0.0
 11
473.6841768391898
 21
223.1280832246866
 31
0.0
  0
LINE
  5
D368
330
18
100
AcDbEntity
  8
1
 62
     7
100
AcDbLine
 10
466.368557611601
 20
232.975940384457
 30
0.0
 11
466.368557611601
 21
236.6003190066654
 31
0.0
  0
ARC
  5
D369
330
18
100
AcDbEntity
  8
1
 62
     7
100
AcDbCircle
 10
466.8685576116013
 20
232.975940384457
 30
0.0
 40
0.5
100
AcDbArc
 50
180.0000000000032
 51
214.9152062474441
  0
LINE
  5
D36A
330
18
100
AcDbEntity
  8
1
 62
     7
100
AcDbLine
 10
472.629832436753
 20
226.2523051759557
 30
0.0
 11
468.7606337111954
 21
226.2523051759557
 31
0.0
  0
LINE
  5
D36B
330
18
100
AcDbEntity
  8
3
  6
CENTER2
100
AcDbLine
 10
471.2185576116008
 20
214.6028413204706
 30
0.0
 11
471.2185576116008
 21
239.9017690314406
 31
0.0
  0
ARC
  5
D36C
330
18
100
AcDbEntity
  8
1
 62
     7
100
AcDbCircle
 10
472.629832436753
 20
225.6523051759557
 30
0.0
 40
0.5999999999999999
100
AcDbArc
 50
9.999999999998609
 51
90.0
  0
ARC
  5
D36D
330
18
100
AcDbEntity
  8
1
 62
     7
100
AcDbCircle
 10
468.7606337111954
 20
226.8523051759558
 30
0.0
 40
0.5999999999999999
100
AcDbArc
 50
177.7302666172362
 51
270.0
  0
LINE
  5
D36E
330
18
100
AcDbEntity
  8
3
  6
CENTER2
100
AcDbLine
 10
476.1974435381942
 20
219.7523051759557
 30
0.0
 11
465.1843217802602
 21
219.7523051759557
 31
0.0
  0
ARC
  5
D36F
330
18
100
AcDbEntity
  8
1
 62
     7
100
AcDbCircle
 10
466.868557611601
 20
221.5286699674543
 30
0.0
 40
0.5
100
AcDbArc
 50
145.0847937525559
 51
179.9999999999967
  0
ARC
  5
D370
330
18
100
AcDbEntity
  8
1
 62
     7
100
AcDbCircle
 10
466.868557611601
 20
221.5286699674539
 30
0.0
 40
0.5
100
AcDbArc
 50
145.0847937525487
 51
179.9999999999967
  0
ARC
  5
D371
330
18
100
AcDbEntity
  8
1
 62
     7
100
AcDbCircle
 10
471.2185576116008
 20
219.8523051759557
 30
0.0
 40
4.099999999999996
100
AcDbArc
 50
35.20712889691821
 51
53.03188122959837
  0
ARC
  5
D372
330
18
100
AcDbEntity
  8
1
 62
     7
100
AcDbCircle
 10
474.5685576116009
 20
222.8160945066704
 30
0.0
 40
0.5999999999999999
100
AcDbArc
 50
270.0
 51
0.0
  0
LINE
  5
D373
330
18
100
AcDbEntity
  8
3
  6
CENTER2
100
AcDbLine
 10
476.1974435381942
 20
234.7523051759556
 30
0.0
 11
465.1843217802602
 21
234.7523051759556
 31
0.0
  0
ARC
  5
D374
330
18
100
AcDbEntity
  8
1
 62
     7
100
AcDbCircle
 10
471.2185576116008
 20
204.7523051759559
 30
0.0
 40
3.949999999999986
100
AcDbArc
 50
244.0972684087862
 51
0.0
  0
ARC
  5
D375
330
18
100
AcDbEntity
  8
1
 62
     7
100
AcDbCircle
 10
471.2185576116008
 20
219.7523051759557
 30
0.0
 40
3.950000000000025
100
AcDbArc
 50
0.0
 51
115.9027315912137
  0
LINE
  5
D376
330
18
100
AcDbEntity
  8
1
 62
     7
100
AcDbLine
 10
475.168557611601
 20
219.7523051759557
 30
0.0
 11
475.168557611601
 21
204.7523051759559
 31
0.0
  0
ARC
  5
D377
330
18
100
AcDbEntity
  8
1
 62
     7
100
AcDbCircle
 10
471.2185576116008
 20
219.7523051759557
 30
0.0
 40
2.424999999999998
100
AcDbArc
 50
308.2108135722062
 51
231.7891864277938
  0
ARC
  5
D378
330
18
100
AcDbEntity
  8
1
 62
     7
100
AcDbCircle
 10
466.6685576116011
 20
221.6003190066656
 30
0.0
 40
0.2999999999999999
100
AcDbArc
 50
115.9027315912137
 51
180.0000000000032
  0
LINE
  5
D379
330
18
100
AcDbEntity
  8
1
 62
     7
100
AcDbLine
 10
466.5375042092444
 20
221.8701800926537
 30
0.0
 11
469.493021147236
 21
223.3054761414663
 31
0.0
  0
ARC
  5
D37A
330
18
100
AcDbEntity
  8
1
 62
     7
100
AcDbCircle
 10
458.6685576116008
 20
212.2523051759559
 30
0.0
 40
9.500000000000117
100
AcDbArc
 50
325.0847937525559
 51
34.91520624744409
  0
LINE
  5
D37B
330
18
100
AcDbEntity
  8
1
 62
     7
100
AcDbLine
 10
473.2207170885604
 20
210.7564940825561
 30
0.0
 11
473.6841768391898
 21
208.1280832246868
 31
0.0
  0
LINE
  5
D37C
330
18
100
AcDbEntity
  8
1
 62
     7
100
AcDbLine
 10
466.368557611601
 20
217.9759403844572
 30
0.0
 11
466.368557611601
 21
221.6003190066656
 31
0.0
  0
ARC
  5
D37D
330
18
100
AcDbEntity
  8
1
 62
     7
100
AcDbCircle
 10
466.8685576116013
 20
217.9759403844572
 30
0.0
 40
0.5
100
AcDbArc
 50
180.0000000000032
 51
214.9152062474441
  0
LINE
  5
D37E
330
18
100
AcDbEntity
  8
1
 62
     7
100
AcDbLine
 10
472.629832436753
 20
211.2523051759559
 30
0.0
 11
468.7606337111954
 21
211.2523051759559
 31
0.0
  0
LINE
  5
D37F
330
18
100
AcDbEntity
  8
3
  6
CENTER2
100
AcDbLine
 10
471.2185576116008
 20
199.6028413204708
 30
0.0
 11
471.2185576116008
 21
224.9017690314408
 31
0.0
  0
ARC
  5
D380
330
18
100
AcDbEntity
  8
1
 62
     7
100
AcDbCircle
 10
472.629832436753
 20
210.6523051759559
 30
0.0
 40
0.5999999999999999
100
AcDbArc
 50
9.999999999998609
 51
90.0
  0
ARC
  5
D381
330
18
100
AcDbEntity
  8
1
 62
     7
100
AcDbCircle
 10
468.7606337111954
 20
211.8523051759559
 30
0.0
 40
0.5999999999999999
100
AcDbArc
 50
177.7302666172362
 51
270.0
  0
LINE
  5
D382
330
18
100
AcDbEntity
  8
1
 62
     7
100
AcDbLine
 10
466.368557611601
 20
202.904291345246
 30
0.0
 11
466.368557611601
 21
206.5286699674541
 31
0.0
  0
CIRCLE
  5
D383
330
18
100
AcDbEntity
  8
1
 62
     7
100
AcDbCircle
 10
471.2185576116008
 20
204.7523051759559
 30
0.0
 40
2.424999999999998
  0
LINE
  5
D384
330
18
100
AcDbEntity
  8
3
  6
CENTER2
100
AcDbLine
 10
476.1974435381942
 20
204.7523051759559
 30
0.0
 11
465.1843217802602
 21
204.7523051759559
 31
0.0
  0
ARC
  5
D385
330
18
100
AcDbEntity
  8
1
 62
     7
100
AcDbCircle
 10
466.868557611601
 20
206.5286699674544
 30
0.0
 40
0.5
100
AcDbArc
 50
145.0847937525559
 51
179.9999999999967
  0
ARC
  5
D386
330
18
100
AcDbEntity
  8
1
 62
     7
100
AcDbCircle
 10
466.868557611601
 20
206.5286699674541
 30
0.0
 40
0.5
100
AcDbArc
 50
145.0847937525487
 51
179.9999999999967
  0
LINE
  5
D387
330
18
100
AcDbEntity
  8
1
 62
     7
100
AcDbLine
 10
466.5375042092441
 20
202.6344302592578
 30
0.0
 11
469.493021147236
 21
201.1991342104453
 31
0.0
  0
ARC
  5
D388
330
18
100
AcDbEntity
  8
1
 62
     7
100
AcDbCircle
 10
466.6685576116008
 20
202.904291345246
 30
0.0
 40
0.2999999999999999
100
AcDbArc
 50
179.9999999999967
 51
244.0972684087862
  0
ARC
  5
D389
330
18
100
AcDbEntity
  8
1
 62
     7
100
AcDbCircle
 10
471.2185576116008
 20
204.8523051759559
 30
0.0
 40
4.099999999999996
100
AcDbArc
 50
35.20712889691821
 51
53.03188122959837
  0
ARC
  5
D38A
330
18
100
AcDbEntity
  8
1
 62
     7
100
AcDbCircle
 10
474.5685576116009
 20
207.8160945066705
 30
0.0
 40
0.5999999999999999
100
AcDbArc
 50
270.0
 51
0.0
  0
LINE
  5
D38B
330
18
100
AcDbEntity
  8
3
  6
CENTER2
100
AcDbLine
 10
476.1974435381942
 20
219.7523051759557
 30
0.0
 11
465.1843217802602
 21
219.7523051759557
 31
0.0
  0
DIMENSION
  5
D38C
330
18
100
AcDbEntity
  8
2
100
AcDbDimension
  2
*D1
 10
471.2185576116008
 20
245.3513737969455
 30
0.0
 11
455.868557611601
 21
245.3513737969455
 31
0.0
 70
   160
 71
     5
 42
4.849999999999738
  3
STANDARD
100
AcDbAlignedDimension
 13
466.368557611601
 23
236.5378190066655
 33
0.0
 14
471.2185576116008
 24
239.9017690314407
 34
0.0
 50
180.0
100
AcDbRotatedDimension
  0
DIMENSION
  5
D38D
330
18
100
AcDbEntity
  8
2
100
AcDbDimension
  2
*D2
 10
475.168557611601
 20
250.434629687873
 30
0.0
 11
470.768557611601
 21
252.934629687873
 31
0.0
 70
    32
 71
     5
 42
8.800000000000011
  3
STANDARD
100
AcDbAlignedDimension
 13
466.368557611601
 23
236.5378190066655
 33
0.0
 14
475.168557611601
 24
234.7523051759556
 34
0.0
 50
180.0
100
AcDbRotatedDimension
  0
LINE
  5
D38E
330
18
100
AcDbEntity
  8
1
 62
     7
100
AcDbLine
 10
469.8185576116011
 20
226.5292382801554
 30
0.0
 11
472.618557611601
 21
226.5292382801554
 31
0.0
  0
ARC
  5
D38F
330
18
100
AcDbEntity
  8
1
 62
     7
100
AcDbCircle
 10
470.118557611601
 20
235.1836033468559
 30
0.0
 40
0.3000000000000007
100
AcDbArc
 50
90.0
 51
180.0
  0
LINE
  5
D390
330
18
100
AcDbEntity
  8
1
 62
     7
100
AcDbLine
 10
472.3185576116011
 20
235.4836033468558
 30
0.0
 11
470.118557611601
 21
235.4836033468558
 31
0.0
  0
ARC
  5
D391
330
18
100
AcDbEntity
  8
1
 62
     7
100
AcDbCircle
 10
472.3185576116011
 20
235.1836033468559
 30
0.0
 40
0.3000000000000007
100
AcDbArc
 50
0.0
 51
90.0
  0
LINE
  5
D392
330
18
100
AcDbEntity
  8
1
 62
     7
100
AcDbLine
 10
472.618557611601
 20
235.1836033468559
 30
0.0
 11
472.618557611601
 21
234.7829153981919
 31
0.0
  0
LINE
  5
D393
330
18
100
AcDbEntity
  8
1
 62
     7
100
AcDbLine
 10
472.618557611601
 20
234.7829153981919
 30
0.0
 11
473.4185576116009
 21
234.7829153981918
 31
0.0
  0
LINE
  5
D394
330
18
100
AcDbEntity
  8
1
 62
     7
100
AcDbLine
 10
473.4185576116009
 20
234.1116861101957
 30
0.0
 11
473.4185576116009
 21
234.7829153981918
 31
0.0
  0
LINE
  5
D395
330
18
100
AcDbEntity
  8
1
 62
     7
100
AcDbLine
 10
469.0185576116011
 20
234.782915398192
 30
0.0
 11
469.0185576116011
 21
234.1116861101957
 31
0.0
  0
LINE
  5
D396
330
18
100
AcDbEntity
  8
1
 62
     7
100
AcDbLine
 10
469.0185576116011
 20
234.782915398192
 30
0.0
 11
469.8185576116011
 21
234.7829153981919
 31
0.0
  0
LINE
  5
D397
330
18
100
AcDbEntity
  8
1
 62
     7
100
AcDbLine
 10
469.8185576116011
 20
235.1836033468559
 30
0.0
 11
469.8185576116011
 21
234.7829153981919
 31
0.0
  0
LINE
  5
D398
330
18
100
AcDbEntity
  8
1
 62
     7
100
AcDbLine
 10
472.618557611601
 20
232.9580866391025
 30
0.0
 11
472.618557611601
 21
226.2523051759556
 31
0.0
  0
LINE
  5
D399
330
18
100
AcDbEntity
  8
1
 62
     7
100
AcDbLine
 10
469.8185576116011
 20
232.9580866391025
 30
0.0
 11
469.8185576116011
 21
226.2523051759556
 31
0.0
  0
ARC
  5
D39A
330
18
100
AcDbEntity
  8
1
 62
     7
100
AcDbCircle
 10
471.2185576116011
 20
234.782915398192
 30
0.0
 40
2.299999999999999
100
AcDbArc
 50
196.9574262941712
 51
232.5047502354436
  0
ARC
  5
D39B
330
18
100
AcDbEntity
  8
1
 62
     7
100
AcDbCircle
 10
471.2185576116011
 20
234.782915398192
 30
0.0
 40
2.299999999999999
100
AcDbArc
 50
307.4952497645564
 51
343.042573705817
  0
LINE
  5
D39C
330
18
100
AcDbEntity
  8
1
 62
     7
100
AcDbLine
 10
469.8185576116011
 20
211.5292382801555
 30
0.0
 11
472.618557611601
 21
211.5292382801555
 31
0.0
  0
ARC
  5
D39D
330
18
100
AcDbEntity
  8
1
 62
     7
100
AcDbCircle
 10
470.118557611601
 20
220.183603346856
 30
0.0
 40
0.3000000000000007
100
AcDbArc
 50
90.0
 51
180.0
  0
LINE
  5
D39E
330
18
100
AcDbEntity
  8
1
 62
     7
100
AcDbLine
 10
472.3185576116011
 20
220.4836033468559
 30
0.0
 11
470.118557611601
 21
220.4836033468559
 31
0.0
  0
ARC
  5
D39F
330
18
100
AcDbEntity
  8
1
 62
     7
100
AcDbCircle
 10
472.3185576116011
 20
220.183603346856
 30
0.0
 40
0.3000000000000007
100
AcDbArc
 50
0.0
 51
90.0
  0
LINE
  5
D3A0
330
18
100
AcDbEntity
  8
1
 62
     7
100
AcDbLine
 10
472.618557611601
 20
220.183603346856
 30
0.0
 11
472.618557611601
 21
219.782915398192
 31
0.0
  0
LINE
  5
D3A1
330
18
100
AcDbEntity
  8
1
 62
     7
100
AcDbLine
 10
472.618557611601
 20
219.782915398192
 30
0.0
 11
473.4185576116009
 21
219.7829153981919
 31
0.0
  0
LINE
  5
D3A2
330
18
100
AcDbEntity
  8
1
 62
     7
100
AcDbLine
 10
473.4185576116009
 20
219.1116861101958
 30
0.0
 11
473.4185576116009
 21
219.7829153981919
 31
0.0
  0
LINE
  5
D3A3
330
18
100
AcDbEntity
  8
1
 62
     7
100
AcDbLine
 10
469.0185576116011
 20
219.7829153981921
 30
0.0
 11
469.0185576116011
 21
219.1116861101958
 31
0.0
  0
LINE
  5
D3A4
330
18
100
AcDbEntity
  8
1
 62
     7
100
AcDbLine
 10
469.0185576116011
 20
219.7829153981921
 30
0.0
 11
469.8185576116011
 21
219.782915398192
 31
0.0
  0
LINE
  5
D3A5
330
18
100
AcDbEntity
  8
1
 62
     7
100
AcDbLine
 10
469.8185576116011
 20
220.183603346856
 30
0.0
 11
469.8185576116011
 21
219.782915398192
 31
0.0
  0
LINE
  5
D3A6
330
18
100
AcDbEntity
  8
1
 62
     7
100
AcDbLine
 10
472.618557611601
 20
217.9580866391026
 30
0.0
 11
472.618557611601
 21
211.2523051759559
 31
0.0
  0
LINE
  5
D3A7
330
18
100
AcDbEntity
  8
1
 62
     7
100
AcDbLine
 10
469.8185576116011
 20
217.9580866391026
 30
0.0
 11
469.8185576116011
 21
211.2523051759559
 31
0.0
  0
ARC
  5
D3A8
330
18
100
AcDbEntity
  8
1
 62
     7
100
AcDbCircle
 10
471.2185576116011
 20
219.7829153981921
 30
0.0
 40
2.299999999999999
100
AcDbArc
 50
196.9574262941696
 51
232.5047502354436
  0
ARC
  5
D3A9
330
18
100
AcDbEntity
  8
1
 62
     7
100
AcDbCircle
 10
471.2185576116011
 20
219.7829153981921
 30
0.0
 40
2.299999999999999
100
AcDbArc
 50
307.4952497645564
 51
343.042573705817
  0
ENDSEC
  0
SECTION
  2
OBJECTS
  0
DICTIONARY
  5
C
330
0
100
AcDbDictionary
281
     1
  3
ACAD_CIP_PREVIOUS_PRODUCT_INFO
350
D2C3
  3
ACAD_COLOR
350
A12D
  3
ACAD_DETAILVIEWSTYLE
350
D2BE
  3
ACAD_GROUP
350
D
  3
ACAD_IMAGE_DICT
350
A0F4
  3
ACAD_IMAGE_VARS
350
A0EC
  3
ACAD_LAYOUT
350
1C62
  3
ACAD_MATERIAL
350
A103
  3
ACAD_MLEADERSTYLE
350
A130
  3
ACAD_MLINESTYLE
350
E
  3
ACAD_PLOTSETTINGS
350
1C63
  3
ACAD_PLOTSTYLENAME
350
1C60
  3
ACAD_SCALELIST
350
9FA7
  3
ACAD_SECTIONVIEWSTYLE
350
D2BC
  3
ACAD_TABLESTYLE
350
A12E
  3
ACAD_VISUALSTYLE
350
A11C
  3
AcadDim
350
2219
  3
ACDB_RECOMPOSE_DATA
350
D48E
  3
AcDbVariableDictionary
350
1237
  3
AEC_PROPERTY_SET_DEFS
350
D35E
  3
APPDATA
350
A0EB
  3
ASE_INDEX_DICTIONARY
350
C433
  3
CONTENTDICTIONARY
350
322
  0
DICTIONARY
  5
B130
330
8
100
AcDbDictionary
280
     1
281
     1
  0
DICTIONARY
  5
A0A3
330
2
100
AcDbDictionary
280
     1
281
     1
  3
ACAD_LAYERFILTERS
360
C046
  3
ACAD_LAYERSTATES
360
A0ED
  3
ACLYDICTIONARY
360
C045
  0
DICTIONARY
  5
9FD1
330
F
100
AcDbDictionary
280
     1
281
     1
  3
ADSK_XREC_LAYER_RECONCILED
360
9FD2
  0
DICTIONARY
  5
9FD3
330
526
100
AcDbDictionary
280
     1
281
     1
  3
ADSK_XREC_LAYER_RECONCILED
360
9FD4
  0
DICTIONARY
  5
9FD5
330
138F
100
AcDbDictionary
280
     1
281
     1
  3
ADSK_XREC_LAYER_RECONCILED
360
9FD6
  0
DICTIONARY
  5
9FD7
330
1390
100
AcDbDictionary
280
     1
281
     1
  3
ADSK_XREC_LAYER_RECONCILED
360
9FD8
  0
DICTIONARY
  5
9ACC
330
18
100
AcDbDictionary
280
     1
281
     1
  3
ACAD_SORTENTS
360
9ACD
  0
XRECORD
  5
D2C3
102
{ACAD_REACTORS
330
C
102
}
330
C
100
AcDbXrecord
280
     1
300
ACDLT
300
2015
300
ACDLT_F_S
  0
DICTIONARY
  5
A12D
102
{ACAD_REACTORS
330
C
102
}
330
C
100
AcDbDictionary
281
     1
  0
DICTIONARY
  5
D2BE
102
{ACAD_REACTORS
330
C
102
}
330
C
100
AcDbDictionary
281
     1
  3
Metric50
350
D2BF
  0
DICTIONARY
  5
D
102
{ACAD_REACTORS
330
C
102
}
330
C
100
AcDbDictionary
281
     1
  0
DICTIONARY
  5
A0F4
102
{ACAD_REACTORS
330
C
102
}
330
C
100
AcDbDictionary
281
     1
  3
新しい画像 (7)
350
A0F6
  0
RASTERVARIABLES
  5
A0EC
102
{ACAD_REACTORS
330
C
102
}
330
C
100
AcDbRasterVariables
 90
        0
 70
     1
 71
     1
 72
     0
  0
DICTIONARY
  5
1C62
102
{ACAD_REACTORS
330
C
102
}
330
C
100
AcDbDictionary
281
     1
  3
Model
350
1C64
  3
ﾚｲｱｳﾄ1
350
1C65
  0
DICTIONARY
  5
A103
102
{ACAD_REACTORS
330
C
102
}
330
C
100
AcDbDictionary
281
     1
  3
ByBlock
350
A10C
  3
ByLayer
350
A104
  3
Global
350
A114
  0
DICTIONARY
  5
A130
102
{ACAD_REACTORS
330
C
102
}
330
C
100
AcDbDictionary
281
     1
  3
Standard
350
A131
  0
DICTIONARY
  5
E
102
{ACAD_REACTORS
330
C
102
}
330
C
100
AcDbDictionary
281
     1
  3
STANDARD
350
1B
  0
DICTIONARY
  5
1C63
102
{ACAD_REACTORS
330
C
102
}
330
C
100
AcDbDictionary
281
     1
  0
ACDBDICTIONARYWDFLT
  5
1C60
102
{ACAD_REACTORS
330
C
102
}
330
C
100
AcDbDictionary
281
     1
  3
Normal
350
1C61
100
AcDbDictionaryWithDefault
340
1C61
  0
DICTIONARY
  5
9FA7
102
{ACAD_REACTORS
330
C
102
}
330
C
100
AcDbDictionary
281
     1
  3
A0
350
9FA8
  3
A1
350
9FA9
  3
A2
350
9FAA
  3
A3
350
9FAB
  3
A4
350
9FAC
  3
A5
350
9FAD
  3
A6
350
9FAE
  3
A7
350
9FAF
  3
A8
350
9FB0
  3
A9
350
9FB1
  3
B0
350
9FB2
  3
B1
350
9FB3
  3
B2
350
9FB4
  3
B3
350
9FB5
  3
B4
350
9FB6
  3
B5
350
9FB7
  3
B6
350
9FB8
  3
B7
350
9FB9
  3
B8
350
9FBA
  3
B9
350
9FBB
  3
C0
350
9FBC
  3
C1
350
9FBD
  3
C2
350
9FBE
  3
C3
350
9FBF
  3
C4
350
9FC0
  3
C5
350
9FC1
  3
C6
350
9FC2
  3
C7
350
9FC3
  3
C8
350
9FC4
  3
C9
350
9FC5
  3
D0
350
9FC6
  3
D1
350
9FC7
  3
D2
350
9FC8
  0
DICTIONARY
  5
D2BC
102
{ACAD_REACTORS
330
C
102
}
330
C
100
AcDbDictionary
281
     1
  3
Metric50
350
D2BD
  0
DICTIONARY
  5
A12E
102
{ACAD_REACTORS
330
C
102
}
330
C
100
AcDbDictionary
281
     1
  3
Standard
350
A12F
  0
DICTIONARY
  5
A11C
102
{ACAD_REACTORS
330
C
102
}
330
C
100
AcDbDictionary
281
     1
  3
2dWireframe
350
A122
  3
3D Hidden
350
A124
  3
3dWireframe
350
A123
  3
Basic
350
A121
  3
Brighten
350
A128
  3
ColorChange
350
A12C
  3
Conceptual
350
A125
  3
Dim
350
A127
  3
EdgeColorOff
350
D2BB
  3
Facepattern
350
A12B
  3
Flat
350
A11D
  3
FlatWithEdges
350
A11E
  3
Gouraud
350
A11F
  3
GouraudWithEdges
350
A120
  3
Hidden
350
D2B3
  3
JitterOff
350
D2B9
  3
Linepattern
350
A12A
  3
OverhangOff
350
D2BA
  3
Realistic
350
A126
  3
Shaded
350
D2B8
  3
Shaded with edges
350
D2B7
  3
Shades of Gray
350
D2B4
  3
Sketchy
350
D2B5
  3
Thicken
350
A129
  3
Wireframe
350
D2B2
  3
X-Ray
350
D2B6
  0
XRECORD
  5
2219
102
{ACAD_REACTORS
330
C
102
}
330
C
100
AcDbXrecord
280
     1
 90
   990106
  3

 60
     4
 61
     0
 62
     1
 63
     3
 64
     0
 65
     0
 66
     1
 67
     3
 68
     1
 69
     0
 70
     0
 71
     0
 72
     0
 40
0.0
170
     1
  0
XRECORD
  5
D48E
102
{ACAD_REACTORS
330
C
102
}
330
C
100
AcDbXrecord
280
     1
 90
        1
330
A12F
  0
DICTIONARY
  5
1237
102
{ACAD_REACTORS
330
C
102
}
330
C
100
AcDbDictionary
281
     1
  3
CANNOSCALE
350
A101
  3
CMLEADERSTYLE
350
A2B4
  3
CTABLESTYLE
350
A2B3
  3
CVIEWDETAILSTYLE
350
D42A
  3
CVIEWSECTIONSTYLE
350
D42B
  3
DIMASSOC
350
9CC6
  3
INDEXCTL
350
9CC5
  3
SORTENTS
350
1238
  3
XCLIPFRAME
350
D48C
  0
DICTIONARY
  5
D35E
102
{ACAD_REACTORS
330
C
102
}
330
C
100
AcDbDictionary
281
     1
  0
DICTIONARY
  5
A0EB
102
{ACAD_REACTORS
330
C
102
}
330
C
100
AcDbDictionary
281
     1
  0
DICTIONARY
  5
C433
102
{ACAD_REACTORS
330
C
102
}
330
C
100
AcDbDictionary
281
     1
  3
ASEBlockHierarchyIndexRecord
350
C435
1001
DCO15
1040
1745916556.39
  0
DICTIONARY
  5
322
102
{ACAD_REACTORS
330
C
102
}
330
C
100
AcDbDictionary
281
     1
  0
DICTIONARY
  5
C046
102
{ACAD_REACTORS
330
A0A3
102
}
330
A0A3
100
AcDbDictionary
281
     1
  0
DICTIONARY
  5
A0ED
102
{ACAD_REACTORS
330
A0A3
102
}
330
A0A3
100
AcDbDictionary
281
     1
  3
ARGON_LAYERP_1
350
A0EE
  0
DICTIONARY
  5
C045
102
{ACAD_REACTORS
330
A0A3
102
}
330
A0A3
100
AcDbDictionary
281
     1
1001
ACAD
1000
<All
  0
XRECORD
  5
9FD2
102
{ACAD_REACTORS
330
9FD1
102
}
330
9FD1
100
AcDbXrecord
280
     1
290
     1
  0
XRECORD
  5
9FD4
102
{ACAD_REACTORS
330
9FD3
102
}
330
9FD3
100
AcDbXrecord
280
     1
290
     1
  0
XRECORD
  5
9FD6
102
{ACAD_REACTORS
330
9FD5
102
}
330
9FD5
100
AcDbXrecord
280
     1
290
     1
  0
XRECORD
  5
9FD8
102
{ACAD_REACTORS
330
9FD7
102
}
330
9FD7
100
AcDbXrecord
280
     1
290
     1
  0
SORTENTSTABLE
  5
9ACD
102
{ACAD_REACTORS
330
9ACC
102
}
330
9ACC
100
AcDbSortentsTable
330
18
331
FDF
  5
FDF
331
218A
  5
218A
331
B12D
  5
B12D
331
FE2
  5
FE2
331
B12C
  5
B12C
  0
ACDBDETAILVIEWSTYLE
  5
D2BF
102
{ACAD_XDICTIONARY
360
D4C9
102
}
102
{ACAD_REACTORS
330
D2BE
102
}
330
D2BE
100
AcDbModelDocViewStyle
 70
     0
  3
Metric50
290
     0
100
AcDbDetailViewStyle
 70
     0
 71
     0
 90
        3
 71
     1
340
10
 62
   256
 40
5.0
340
0
 62
   256
 40
5.0
300

 40
0.0
280
     1
 71
     2
340
14
 90
       25
 62
   256
 71
     3
340
10
 62
   256
 40
5.0
 90
        0
 40
15.0
 90
        1
300
%<\AcVar ViewDetailId>% (%<\AcVar ViewScale \f "%sn">%)
 71
     4
340
14
 90
       25
 62
   256
340
14
 90
       25
 62
   256
280
     0
  0
IMAGEDEF
  5
A0F6
102
{ACAD_REACTORS
330
A0F4
102
}
330
A0F4
100
AcDbRasterImageDef
 90
        0
  1
D:\My Documents\My Pictures\新しい画像 (7).bmp
 10
736.0
 20
463.0
 11
0.0013586956521739
 21
0.0013586956521739
280
     1
281
     0
  0
LAYOUT
  5
1C64
102
{ACAD_XDICTIONARY
360
D446
102
}
102
{ACAD_REACTORS
330
1C62
102
}
330
1C62
100
AcDbPlotSettings
  1

  2
EPSON LP-8900.pc3
  4
A3
  6

 40
5.873749732971191
 41
5.873747825622557
 42
5.873748779296875
 43
5.873748779296875
 44
297.0106506347656
 45
419.9466552734373
 46
-10.64
 47
0.51
 48
190.4169537375563
 49
284.6621781964941
140
597.6008585168202
141
591.2146139738211
142
1.0
143
1.0
 70
 11956
 72
     1
 73
     1
 74
     4
  7
canon00.ctb
 75
    16
147
1.0
 76
     0
 77
     2
 78
   300
148
-190.4169537375563
149
-284.6621781964941
100
AcDbLayout
  1
Model
 70
     1
 71
     0
 10
0.0
 20
0.0
 11
12.0
 21
9.0
 12
0.0
 22
0.0
 32
0.0
 14
0.0
 24
0.0
 34
0.0
 15
0.0
 25
0.0
 35
0.0
146
0.0
 13
0.0
 23
0.0
 33
0.0
 16
1.0
 26
0.0
 36
0.0
 17
0.0
 27
1.0
 37
0.0
 76
     0
330
18
331
D237
  0
LAYOUT
  5
1C65
102
{ACAD_REACTORS
330
1C62
102
}
330
1C62
100
AcDbPlotSettings
  1

  2
\\TECH-SERVER\Canon
  4

  6

 40
0.0
 41
0.0
 42
0.0
 43
0.0
 44
0.0
 45
0.0
 46
0.0
 47
0.0
 48
0.0
 49
0.0
140
0.0
141
0.0
142
1.0
143
1.0
 70
   688
 72
     0
 73
     0
 74
     5
  7
030127.ctb
 75
    16
147
1.0
 76
     0
 77
     2
 78
   300
148
0.0
149
0.0
100
AcDbLayout
  1
ﾚｲｱｳﾄ1
 70
     1
 71
     1
 10
0.0
 20
0.0
 11
420.0
 21
297.0
 12
0.0
 22
0.0
 32
0.0
 14
1.000000000000000E+20
 24
1.000000000000000E+20
 34
1.000000000000000E+20
 15
-1.000000000000000E+20
 25
-1.000000000000000E+20
 35
-1.000000000000000E+20
146
0.0
 13
0.0
 23
0.0
 33
0.0
 16
1.0
 26
0.0
 36
0.0
 17
0.0
 27
1.0
 37
0.0
 76
     0
330
15
  0
MATERIAL
  5
A10C
102
{ACAD_XDICTIONARY
360
A10D
102
}
102
{ACAD_REACTORS
330
A103
102
}
330
A103
100
AcDbMaterial
  1
ByBlock
 72
     0
 73
     1
 43
0.0208333333333333
 43
0.0
 43
0.0
 43
0.0
 43
0.0
 43
0.0208333333333333
 43
0.0
 43
0.0
 43
0.0
 43
0.0
 43
1.0
 43
0.0
 43
0.0
 43
0.0
 43
0.0
 43
1.0
 77
     0
 78
     1
 47
0.0208333333333333
 47
0.0
 47
0.0
 47
0.0
 47
0.0
 47
0.0208333333333333
 47
0.0
 47
0.0
 47
0.0
 47
0.0
 47
1.0
 47
0.0
 47
0.0
 47
0.0
 47
0.0
 47
1.0
171
     0
172
     1
 49
0.0208333333333333
 49
0.0
 49
0.0
 49
0.0
 49
0.0
 49
0.0208333333333333
 49
0.0
 49
0.0
 49
0.0
 49
0.0
 49
1.0
 49
0.0
 49
0.0
 49
0.0
 49
0.0
 49
1.0
175
     0
176
     1
142
0.0208333333333333
142
0.0
142
0.0
142
0.0
142
0.0
142
0.0208333333333333
142
0.0
142
0.0
142
0.0
142
0.0
142
1.0
142
0.0
142
0.0
142
0.0
142
0.0
142
1.0
179
     0
270
     1
144
0.0208333333333333
144
0.0
144
0.0
144
0.0
144
0.0
144
0.0208333333333333
144
0.0
144
0.0
144
0.0
144
0.0
144
1.0
144
0.0
144
0.0
144
0.0
144
0.0
144
1.0
274
     1
147
0.0208333333333333
147
0.0
147
0.0
147
0.0
147
0.0
147
0.0208333333333333
147
0.0
147
0.0
147
0.0
147
0.0
147
1.0
147
0.0
147
0.0
147
0.0
147
0.0
147
1.0
  0
MATERIAL
  5
A104
102
{ACAD_XDICTIONARY
360
A105
102
}
102
{ACAD_REACTORS
330
A103
102
}
330
A103
100
AcDbMaterial
  1
ByLayer
 72
     0
 73
     1
 43
0.0208333333333333
 43
0.0
 43
0.0
 43
0.0
 43
0.0
 43
0.0208333333333333
 43
0.0
 43
0.0
 43
0.0
 43
0.0
 43
1.0
 43
0.0
 43
0.0
 43
0.0
 43
0.0
 43
1.0
 77
     0
 78
     1
 47
0.0208333333333333
 47
0.0
 47
0.0
 47
0.0
 47
0.0
 47
0.0208333333333333
 47
0.0
 47
0.0
 47
0.0
 47
0.0
 47
1.0
 47
0.0
 47
0.0
 47
0.0
 47
0.0
 47
1.0
171
     0
172
     1
 49
0.0208333333333333
 49
0.0
 49
0.0
 49
0.0
 49
0.0
 49
0.0208333333333333
 49
0.0
 49
0.0
 49
0.0
 49
0.0
 49
1.0
 49
0.0
 49
0.0
 49
0.0
 49
0.0
 49
1.0
175
     0
176
     1
142
0.0208333333333333
142
0.0
142
0.0
142
0.0
142
0.0
142
0.0208333333333333
142
0.0
142
0.0
142
0.0
142
0.0
142
1.0
142
0.0
142
0.0
142
0.0
142
0.0
142
1.0
179
     0
270
     1
144
0.0208333333333333
144
0.0
144
0.0
144
0.0
144
0.0
144
0.0208333333333333
144
0.0
144
0.0
144
0.0
144
0.0
144
1.0
144
0.0
144
0.0
144
0.0
144
0.0
144
1.0
274
     1
147
0.0208333333333333
147
0.0
147
0.0
147
0.0
147
0.0
147
0.0208333333333333
147
0.0
147
0.0
147
0.0
147
0.0
147
1.0
147
0.0
147
0.0
147
0.0
147
0.0
147
1.0
  0
MATERIAL
  5
A114
102
{ACAD_XDICTIONARY
360
A115
102
}
102
{ACAD_REACTORS
330
A103
102
}
330
A103
100
AcDbMaterial
  1
Global
 72
     0
 73
     1
 43
0.0208333333333333
 43
0.0
 43
0.0
 43
0.0
 43
0.0
 43
0.0208333333333333
 43
0.0
 43
0.0
 43
0.0
 43
0.0
 43
1.0
 43
0.0
 43
0.0
 43
0.0
 43
0.0
 43
1.0
 77
     0
 78
     1
 47
0.0208333333333333
 47
0.0
 47
0.0
 47
0.0
 47
0.0
 47
0.0208333333333333
 47
0.0
 47
0.0
 47
0.0
 47
0.0
 47
1.0
 47
0.0
 47
0.0
 47
0.0
 47
0.0
 47
1.0
171
     0
172
     1
 49
0.0208333333333333
 49
0.0
 49
0.0
 49
0.0
 49
0.0
 49
0.0208333333333333
 49
0.0
 49
0.0
 49
0.0
 49
0.0
 49
1.0
 49
0.0
 49
0.0
 49
0.0
 49
0.0
 49
1.0
175
     0
176
     1
142
0.0208333333333333
142
0.0
142
0.0
142
0.0
142
0.0
142
0.0208333333333333
142
0.0
142
0.0
142
0.0
142
0.0
142
1.0
142
0.0
142
0.0
142
0.0
142
0.0
142
1.0
179
     0
270
     1
144
0.0208333333333333
144
0.0
144
0.0
144
0.0
144
0.0
144
0.0208333333333333
144
0.0
144
0.0
144
0.0
144
0.0
144
1.0
144
0.0
144
0.0
144
0.0
144
0.0
144
1.0
274
     1
147
0.0208333333333333
147
0.0
147
0.0
147
0.0
147
0.0
147
0.0208333333333333
147
0.0
147
0.0
147
0.0
147
0.0
147
1.0
147
0.0
147
0.0
147
0.0
147
0.0
147
1.0
  0
MLEADERSTYLE
  5
A131
102
{ACAD_REACTORS
330
A130
102
}
330
A130
100
AcDbMLeaderStyle
170
     2
171
     1
172
     0
 90
        2
 40
0.0
 41
0.0
173
     1
 91
-1056964608
340
12
 92
       -2
290
     1
 42
2.0
291
     1
 43
0.36
  3
Standard
 44
4.0
300

342
10
174
     1
178
     6
175
     1
176
     0
 93
-1056964608
 45
4.0
292
     0
297
     0
 46
4.0
 94
-1056964608
 47
1.0
 49
1.0
140
1.0
293
     1
141
0.0
294
     1
177
     0
142
1.0
295
     0
296
     0
143
0.125
1001
ACAD_MLEADERVER
1070
     2
  0
MLINESTYLE
  5
1B
102
{ACAD_REACTORS
330
E
102
}
330
E
100
AcDbMlineStyle
  2
STANDARD
 70
     0
  3

 62
     0
 51
90.0
 52
90.0
 71
     2
 49
0.5
 62
   256
  6
BYLAYER
 49
-0.5
 62
   256
  6
BYLAYER
  0
ACDBPLACEHOLDER
  5
1C61
102
{ACAD_REACTORS
330
1C60
102
}
330
1C60
  0
SCALE
  5
9FA8
102
{ACAD_REACTORS
330
9FA7
102
}
330
9FA7
100
AcDbScale
 70
     0
300
1:1
140
1.0
141
1.0
290
     1
  0
SCALE
  5
9FA9
102
{ACAD_REACTORS
330
9FA7
102
}
330
9FA7
100
AcDbScale
 70
     0
300
1:2
140
1.0
141
2.0
290
     0
  0
SCALE
  5
9FAA
102
{ACAD_REACTORS
330
9FA7
102
}
330
9FA7
100
AcDbScale
 70
     0
300
1:4
140
1.0
141
4.0
290
     0
  0
SCALE
  5
9FAB
102
{ACAD_REACTORS
330
9FA7
102
}
330
9FA7
100
AcDbScale
 70
     0
300
1:5
140
1.0
141
5.0
290
     0
  0
SCALE
  5
9FAC
102
{ACAD_REACTORS
330
9FA7
102
}
330
9FA7
100
AcDbScale
 70
     0
300
1:8
140
1.0
141
8.0
290
     0
  0
SCALE
  5
9FAD
102
{ACAD_REACTORS
330
9FA7
102
}
330
9FA7
100
AcDbScale
 70
     0
300
1:10
140
1.0
141
10.0
290
     0
  0
SCALE
  5
9FAE
102
{ACAD_REACTORS
330
9FA7
102
}
330
9FA7
100
AcDbScale
 70
     0
300
1:16
140
1.0
141
16.0
290
     0
  0
SCALE
  5
9FAF
102
{ACAD_REACTORS
330
9FA7
102
}
330
9FA7
100
AcDbScale
 70
     0
300
1:20
140
1.0
141
20.0
290
     0
  0
SCALE
  5
9FB0
102
{ACAD_REACTORS
330
9FA7
102
}
330
9FA7
100
AcDbScale
 70
     0
300
1:30
140
1.0
141
30.0
290
     0
  0
SCALE
  5
9FB1
102
{ACAD_REACTORS
330
9FA7
102
}
330
9FA7
100
AcDbScale
 70
     0
300
1:40
140
1.0
141
40.0
290
     0
  0
SCALE
  5
9FB2
102
{ACAD_REACTORS
330
9FA7
102
}
330
9FA7
100
AcDbScale
 70
     0
300
1:50
140
1.0
141
50.0
290
     0
  0
SCALE
  5
9FB3
102
{ACAD_REACTORS
330
9FA7
102
}
330
9FA7
100
AcDbScale
 70
     0
300
1:100
140
1.0
141
100.0
290
     0
  0
SCALE
  5
9FB4
102
{ACAD_REACTORS
330
9FA7
102
}
330
9FA7
100
AcDbScale
 70
     0
300
2:1
140
2.0
141
1.0
290
     0
  0
SCALE
  5
9FB5
102
{ACAD_REACTORS
330
9FA7
102
}
330
9FA7
100
AcDbScale
 70
     0
300
4:1
140
4.0
141
1.0
290
     0
  0
SCALE
  5
9FB6
102
{ACAD_REACTORS
330
9FA7
102
}
330
9FA7
100
AcDbScale
 70
     0
300
8:1
140
8.0
141
1.0
290
     0
  0
SCALE
  5
9FB7
102
{ACAD_REACTORS
330
9FA7
102
}
330
9FA7
100
AcDbScale
 70
     0
300
10:1
140
10.0
141
1.0
290
     0
  0
SCALE
  5
9FB8
102
{ACAD_REACTORS
330
9FA7
102
}
330
9FA7
100
AcDbScale
 70
     0
300
100:1
140
100.0
141
1.0
290
     0
  0
SCALE
  5
9FB9
102
{ACAD_REACTORS
330
9FA7
102
}
330
9FA7
100
AcDbScale
 70
     0
300
1/128" = 1'-0"
140
0.0078125
141
12.0
290
     0
  0
SCALE
  5
9FBA
102
{ACAD_REACTORS
330
9FA7
102
}
330
9FA7
100
AcDbScale
 70
     0
300
1/64" = 1'-0"
140
0.015625
141
12.0
290
     0
  0
SCALE
  5
9FBB
102
{ACAD_REACTORS
330
9FA7
102
}
330
9FA7
100
AcDbScale
 70
     0
300
1/32" = 1'-0"
140
0.03125
141
12.0
290
     0
  0
SCALE
  5
9FBC
102
{ACAD_REACTORS
330
9FA7
102
}
330
9FA7
100
AcDbScale
 70
     0
300
1/16" = 1'-0"
140
0.0625
141
12.0
290
     0
  0
SCALE
  5
9FBD
102
{ACAD_REACTORS
330
9FA7
102
}
330
9FA7
100
AcDbScale
 70
     0
300
3/32" = 1'-0"
140
0.09375
141
12.0
290
     0
  0
SCALE
  5
9FBE
102
{ACAD_REACTORS
330
9FA7
102
}
330
9FA7
100
AcDbScale
 70
     0
300
1/8" = 1'-0"
140
0.125
141
12.0
290
     0
  0
SCALE
  5
9FBF
102
{ACAD_REACTORS
330
9FA7
102
}
330
9FA7
100
AcDbScale
 70
     0
300
3/16" = 1'-0"
140
0.1875
141
12.0
290
     0
  0
SCALE
  5
9FC0
102
{ACAD_REACTORS
330
9FA7
102
}
330
9FA7
100
AcDbScale
 70
     0
300
1/4" = 1'-0"
140
0.25
141
12.0
290
     0
  0
SCALE
  5
9FC1
102
{ACAD_REACTORS
330
9FA7
102
}
330
9FA7
100
AcDbScale
 70
     0
300
3/8" = 1'-0"
140
0.375
141
12.0
290
     0
  0
SCALE
  5
9FC2
102
{ACAD_REACTORS
330
9FA7
102
}
330
9FA7
100
AcDbScale
 70
     0
300
1/2" = 1'-0"
140
0.5
141
12.0
290
     0
  0
SCALE
  5
9FC3
102
{ACAD_REACTORS
330
9FA7
102
}
330
9FA7
100
AcDbScale
 70
     0
300
3/4" = 1'-0"
140
0.75
141
12.0
290
     0
  0
SCALE
  5
9FC4
102
{ACAD_REACTORS
330
9FA7
102
}
330
9FA7
100
AcDbScale
 70
     0
300
1" = 1'-0"
140
1.0
141
12.0
290
     0
  0
SCALE
  5
9FC5
102
{ACAD_REACTORS
330
9FA7
102
}
330
9FA7
100
AcDbScale
 70
     0
300
1-1/2" = 1'-0"
140
1.5
141
12.0
290
     0
  0
SCALE
  5
9FC6
102
{ACAD_REACTORS
330
9FA7
102
}
330
9FA7
100
AcDbScale
 70
     0
300
3" = 1'-0"
140
3.0
141
12.0
290
     0
  0
SCALE
  5
9FC7
102
{ACAD_REACTORS
330
9FA7
102
}
330
9FA7
100
AcDbScale
 70
     0
300
6" = 1'-0"
140
6.0
141
12.0
290
     0
  0
SCALE
  5
9FC8
102
{ACAD_REACTORS
330
9FA7
102
}
330
9FA7
100
AcDbScale
 70
     0
300
1'-0" = 1'-0"
140
12.0
141
12.0
290
     0
  0
ACDBSECTIONVIEWSTYLE
  5
D2BD
102
{ACAD_XDICTIONARY
360
D4C7
102
}
102
{ACAD_REACTORS
330
D2BC
102
}
330
D2BC
100
AcDbModelDocViewStyle
 70
     0
  3
Metric50
290
     0
100
AcDbSectionViewStyle
 70
     0
 71
     0
 90
      102
 71
     1
340
10
 62
   256
 40
5.0
340
0
340
0
 62
   256
 40
5.0
300
I, O, Q, S, X, Z
 40
10.0
 90
        0
 40
2.5
 90
        0
 71
     2
340
14
 90
       25
 62
   256
340
14
 90
       50
 62
   256
 40
5.0
 40
2.5
 40
5.0
 71
     3
340
10
 62
   256
 40
5.0
 90
        0
 40
15.0
 90
        1
300
%<\AcVar ViewSectionStartId>%-%<\AcVar ViewSectionEndId>% (%<\AcVar ViewScale \f "%sn">%)
 71
     4
 62
   256
 62
   257
300
ANSI31
 40
1.0
 90
        0
290
     0
290
     0
 90
        6
 40
0.0
 40
1.570796326794896
 40
0.2617993877991494
 40
1.308996938995747
 40
-0.2617993877991494
 40
1.832595714594046
  0
TABLESTYLE
  5
A12F
102
{ACAD_XDICTIONARY
360
A2B5
102
}
102
{ACAD_REACTORS
330
A12E
102
}
330
A12E
100
AcDbTableStyle
  3
Standard
 70
     0
 71
     0
 40
1.5
 41
1.5
280
     0
281
     0
  7
STANDARD
140
4.5
170
     2
 62
     0
 63
     7
283
     0
274
    -2
284
     1
 64
     0
275
    -2
285
     1
 65
     0
276
    -2
286
     1
 66
     0
277
    -2
287
     1
 67
     0
278
    -2
288
     1
 68
     0
279
    -2
289
     1
 69
     0
  7
STANDARD
140
6.0
170
     5
 62
     0
 63
     7
283
     0
274
    -2
284
     1
 64
     0
275
    -2
285
     1
 65
     0
276
    -2
286
     1
 66
     0
277
    -2
287
     1
 67
     0
278
    -2
288
     1
 68
     0
279
    -2
289
     1
 69
     0
  7
STANDARD
140
4.5
170
     5
 62
     0
 63
     7
283
     0
274
    -2
284
     1
 64
     0
275
    -2
285
     1
 65
     0
276
    -2
286
     1
 66
     0
277
    -2
287
     1
 67
     0
278
    -2
288
     1
 68
     0
279
    -2
289
     1
 69
     0
  0
VISUALSTYLE
  5
A122
102
{ACAD_XDICTIONARY
360
D49C
102
}
102
{ACAD_REACTORS
330
A11C
102
}
330
A11C
100
AcDbVisualStyle
  2

 70
     4
 71
     0
 72
     2
 73
     0
 90
        0
 40
-0.6
 41
-30.0
 62
     5
 63
     7
 74
     1
 91
        4
 64
     7
 65
   257
 75
     1
175
     1
 42
1.0
 92
        0
 66
   257
 43
1.0
 76
     1
 77
     6
 78
     2
 67
     7
 79
     5
170
     0
171
     0
290
     0
174
     0
 93
        1
 44
0.0
173
     0
291
     0
 45
0.0
1001
ACAD
1000
AcDbSavedByObjectVersion
1070
     0
  0
VISUALSTYLE
  5
A124
102
{ACAD_XDICTIONARY
360
D4A0
102
}
102
{ACAD_REACTORS
330
A11C
102
}
330
A11C
100
AcDbVisualStyle
  2

 70
     6
 71
     1
 72
     2
 73
     2
 90
        0
 40
-0.6
 41
-30.0
 62
     5
 63
     7
 74
     2
 91
        2
 64
     7
 65
   257
 75
     2
175
     1
 42
40.0
 92
        0
 66
   257
 43
1.0
 76
     1
 77
     6
 78
     2
 67
     7
 79
     3
170
     0
171
     0
290
     0
174
     0
 93
        1
 44
0.0
173
     0
291
     0
 45
0.0
1001
ACAD
1000
AcDbSavedByObjectVersion
1070
     0
  0
VISUALSTYLE
  5
A123
102
{ACAD_XDICTIONARY
360
D49E
102
}
102
{ACAD_REACTORS
330
A11C
102
}
330
A11C
100
AcDbVisualStyle
  2

 70
     5
 71
     0
 72
     2
 73
     0
 90
        0
 40
-0.6
 41
-30.0
 62
     5
 63
     7
 74
     1
 91
        4
 64
     7
 65
   257
 75
     1
175
     1
 42
1.0
 92
        0
 66
   257
 43
1.0
 76
     1
 77
     6
 78
     2
 67
     7
 79
     5
170
     0
171
     0
290
     0
174
     0
 93
        1
 44
0.0
173
     0
291
     0
 45
0.0
1001
ACAD
1000
AcDbSavedByObjectVersion
1070
     0
  0
VISUALSTYLE
  5
A121
102
{ACAD_XDICTIONARY
360
D49A
102
}
102
{ACAD_REACTORS
330
A11C
102
}
330
A11C
100
AcDbVisualStyle
  2

 70
     7
 71
     1
 72
     0
 73
     1
 90
        0
 40
-0.6
 41
-30.0
 62
     5
 63
     7
 74
     0
 91
        4
 64
     7
 65
   257
 75
     1
175
     1
 42
1.0
 92
        8
 66
     7
 43
1.0
 76
     1
 77
     6
 78
     2
 67
     7
 79
     5
170
     0
171
     0
290
     0
174
     0
 93
        1
 44
0.0
173
     0
291
     1
 45
0.0
1001
ACAD
1000
AcDbSavedByObjectVersion
1070
     0
  0
VISUALSTYLE
  5
A128
102
{ACAD_XDICTIONARY
360
D4A8
102
}
102
{ACAD_REACTORS
330
A11C
102
}
330
A11C
100
AcDbVisualStyle
  2

 70
    12
 71
     2
 72
     2
 73
     0
 90
        0
 40
-0.6
 41
-30.0
 62
     5
 63
     7
 74
     1
 91
        4
 64
     7
 65
   257
 75
     1
175
     1
 42
1.0
 92
        8
 66
     7
 43
1.0
 76
     1
 77
     6
 78
     2
 67
     7
 79
     5
170
     0
171
     0
290
     0
174
     0
 93
        1
 44
50.0
173
     0
291
     1
 45
0.0
1001
ACAD
1000
AcDbSavedByObjectVersion
1070
     0
  0
VISUALSTYLE
  5
A12C
102
{ACAD_XDICTIONARY
360
D4B0
102
}
102
{ACAD_REACTORS
330
A11C
102
}
330
A11C
100
AcDbVisualStyle
  2

 70
    16
 71
     2
 72
     2
 73
     3
 90
        0
 40
-0.6
 41
-30.0
 62
     5
 63
     8
 74
     1
 91
        4
 64
     7
 65
   257
 75
     1
175
     1
 42
1.0
 92
        8
 66
     8
 43
1.0
 76
     1
 77
     6
 78
     2
 67
     7
 79
     5
170
     0
171
     0
290
     0
174
     0
 93
        1
 44
0.0
173
     0
291
     1
 45
0.0
1001
ACAD
1000
AcDbSavedByObjectVersion
1070
     0
  0
VISUALSTYLE
  5
A125
102
{ACAD_XDICTIONARY
360
D4A2
102
}
102
{ACAD_REACTORS
330
A11C
102
}
330
A11C
100
AcDbVisualStyle
  2

 70
     9
 71
     3
 72
     2
 73
     0
 90
        0
 40
-0.6
 41
-30.0
 62
     5
 63
     7
 74
     2
 91
        2
 64
     7
 65
   257
 75
     1
175
     1
 42
40.0
 92
        8
 66
     7
 43
1.0
 76
     1
 77
     6
 78
     2
 67
     7
 79
     3
170
     0
171
     0
290
     0
174
     0
 93
        1
 44
0.0
173
     0
291
     0
 45
0.0
1001
ACAD
1000
AcDbSavedByObjectVersion
1070
     0
  0
VISUALSTYLE
  5
A127
102
{ACAD_XDICTIONARY
360
D4A6
102
}
102
{ACAD_REACTORS
330
A11C
102
}
330
A11C
100
AcDbVisualStyle
  2

 70
    11
 71
     2
 72
     2
 73
     0
 90
        0
 40
-0.6
 41
-30.0
 62
     5
 63
     7
 74
     1
 91
        4
 64
     7
 65
   257
 75
     1
175
     1
 42
1.0
 92
        8
 66
     7
 43
1.0
 76
     1
 77
     6
 78
     2
 67
     7
 79
     5
170
     0
171
     0
290
     0
174
     0
 93
        1
 44
-50.0
173
     0
291
     1
 45
0.0
1001
ACAD
1000
AcDbSavedByObjectVersion
1070
     0
  0
VISUALSTYLE
  5
D2BB
102
{ACAD_XDICTIONARY
360
D4C5
102
}
102
{ACAD_REACTORS
330
A11C
102
}
330
A11C
100
AcDbVisualStyle
  2
EdgeColorOff
 70
    22
 71
     2
 72
     2
 73
     0
 90
        0
 40
-0.6
 41
-30.0
 62
     5
 63
     7
421
 16777215
 74
     1
 91
        4
 64
     7
 65
   257
 75
     1
175
     1
 42
1.0
 92
        8
 66
     7
 43
1.0
 76
     1
 77
     6
 78
     2
 67
     7
 79
     5
170
     0
171
     0
290
     0
174
     0
 93
        1
 44
0.0
173
     0
291
     1
 45
0.0
1001
ACAD
1000
AcDbSavedByObjectVersion
1070
     0
  0
VISUALSTYLE
  5
A12B
102
{ACAD_XDICTIONARY
360
D4AE
102
}
102
{ACAD_REACTORS
330
A11C
102
}
330
A11C
100
AcDbVisualStyle
  2

 70
    15
 71
     2
 72
     2
 73
     0
 90
        0
 40
-0.6
 41
-30.0
 62
     5
 63
     7
 74
     1
 91
        4
 64
     7
 65
   257
 75
     1
175
     1
 42
1.0
 92
        8
 66
     7
 43
1.0
 76
     1
 77
     6
 78
     2
 67
     7
 79
     5
170
     0
171
     0
290
     0
174
     0
 93
        1
 44
0.0
173
     0
291
     1
 45
0.0
1001
ACAD
1000
AcDbSavedByObjectVersion
1070
     0
  0
VISUALSTYLE
  5
A11D
102
{ACAD_XDICTIONARY
360
D492
102
}
102
{ACAD_REACTORS
330
A11C
102
}
330
A11C
100
AcDbVisualStyle
  2

 70
     0
 71
     2
 72
     1
 73
     1
 90
        2
 40
-0.6
 41
30.0
 62
     5
 63
     7
 74
     0
 91
        4
 64
     7
 65
   257
 75
     1
175
     1
 42
1.0
 92
        8
 66
     7
 43
1.0
 76
     1
 77
     6
 78
     2
 67
     7
 79
     5
170
     0
171
     0
290
     0
174
     0
 93
       13
 44
0.0
173
     0
291
     1
 45
0.0
1001
ACAD
1000
AcDbSavedByObjectVersion
1070
     0
  0
VISUALSTYLE
  5
A11E
102
{ACAD_XDICTIONARY
360
D494
102
}
102
{ACAD_REACTORS
330
A11C
102
}
330
A11C
100
AcDbVisualStyle
  2

 70
     1
 71
     2
 72
     1
 73
     1
 90
        2
 40
-0.6
 41
30.0
 62
     5
 63
     7
 74
     1
 91
        4
 64
     7
 65
   257
 75
     1
175
     1
 42
1.0
 92
        0
 66
   257
 43
1.0
 76
     1
 77
     6
 78
     2
 67
     7
 79
     5
170
     0
171
     0
290
     0
174
     0
 93
       13
 44
0.0
173
     0
291
     1
 45
0.0
1001
ACAD
1000
AcDbSavedByObjectVersion
1070
     0
  0
VISUALSTYLE
  5
A11F
102
{ACAD_XDICTIONARY
360
D496
102
}
102
{ACAD_REACTORS
330
A11C
102
}
330
A11C
100
AcDbVisualStyle
  2

 70
     2
 71
     2
 72
     2
 73
     1
 90
        2
 40
-0.6
 41
30.0
 62
     5
 63
     7
 74
     0
 91
        4
 64
     7
 65
   257
 75
     1
175
     1
 42
1.0
 92
        0
 66
     7
 43
1.0
 76
     1
 77
     6
 78
     2
 67
     7
 79
     5
170
     0
171
     0
290
     0
174
     0
 93
       13
 44
0.0
173
     0
291
     1
 45
0.0
1001
ACAD
1000
AcDbSavedByObjectVersion
1070
     0
  0
VISUALSTYLE
  5
A120
102
{ACAD_XDICTIONARY
360
D498
102
}
102
{ACAD_REACTORS
330
A11C
102
}
330
A11C
100
AcDbVisualStyle
  2

 70
     3
 71
     2
 72
     2
 73
     1
 90
        2
 40
-0.6
 41
30.0
 62
     5
 63
     7
 74
     1
 91
        4
 64
     7
 65
   257
 75
     1
175
     1
 42
1.0
 92
        0
 66
   257
 43
1.0
 76
     1
 77
     6
 78
     2
 67
     7
 79
     5
170
     0
171
     0
290
     0
174
     0
 93
       13
 44
0.0
173
     0
291
     1
 45
0.0
1001
ACAD
1000
AcDbSavedByObjectVersion
1070
     0
  0
VISUALSTYLE
  5
D2B3
102
{ACAD_XDICTIONARY
360
D4B5
102
}
102
{ACAD_REACTORS
330
A11C
102
}
330
A11C
100
AcDbVisualStyle
  2
Hidden
 70
     6
 71
     1
 72
     2
 73
     2
 90
        0
 40
-0.6
 41
-30.0
 62
     5
 63
     7
421
 16777215
 74
     2
 91
        2
 64
     7
 65
   257
 75
     2
175
     1
 42
40.0
 92
        0
 66
   257
 43
1.0
 76
     1
 77
     6
 78
     2
 67
     7
 79
     3
170
     0
171
     0
290
     0
174
     0
 93
        1
 44
0.0
173
     0
291
     0
 45
0.0
1001
ACAD
1000
AcDbSavedByObjectVersion
1070
     0
  0
VISUALSTYLE
  5
D2B9
102
{ACAD_XDICTIONARY
360
D4C1
102
}
102
{ACAD_REACTORS
330
A11C
102
}
330
A11C
100
AcDbVisualStyle
  2
JitterOff
 70
    20
 71
     2
 72
     2
 73
     0
 90
        0
 40
-0.6
 41
-30.0
 62
     5
 63
     7
421
 16777215
 74
     1
 91
        4
 64
     7
 65
   257
 75
     1
175
     1
 42
1.0
 92
       10
 66
     7
 43
1.0
 76
     1
 77
     6
 78
     2
 67
     7
 79
     5
170
     0
171
     0
290
     0
174
     0
 93
        1
 44
0.0
173
     0
291
     1
 45
0.0
1001
ACAD
1000
AcDbSavedByObjectVersion
1070
     0
  0
VISUALSTYLE
  5
A12A
102
{ACAD_XDICTIONARY
360
D4AC
102
}
102
{ACAD_REACTORS
330
A11C
102
}
330
A11C
100
AcDbVisualStyle
  2

 70
    14
 71
     2
 72
     2
 73
     0
 90
        0
 40
-0.6
 41
-30.0
 62
     5
 63
     7
 74
     1
 91
        4
 64
     7
 65
   257
 75
     7
175
     7
 42
1.0
 92
        8
 66
     7
 43
1.0
 76
     1
 77
     6
 78
     2
 67
     7
 79
     5
170
     0
171
     0
290
     0
174
     0
 93
        1
 44
0.0
173
     0
291
     1
 45
0.0
1001
ACAD
1000
AcDbSavedByObjectVersion
1070
     0
  0
VISUALSTYLE
  5
D2BA
102
{ACAD_XDICTIONARY
360
D4C3
102
}
102
{ACAD_REACTORS
330
A11C
102
}
330
A11C
100
AcDbVisualStyle
  2
OverhangOff
 70
    21
 71
     2
 72
     2
 73
     0
 90
        0
 40
-0.6
 41
-30.0
 62
     5
 63
     7
421
 16777215
 74
     1
 91
        4
 64
     7
 65
   257
 75
     1
175
     1
 42
1.0
 92
        9
 66
     7
 43
1.0
 76
     1
 77
     6
 78
     2
 67
     7
 79
     5
170
     0
171
     0
290
     0
174
     0
 93
        1
 44
0.0
173
     0
291
     1
 45
0.0
1001
ACAD
1000
AcDbSavedByObjectVersion
1070
     0
  0
VISUALSTYLE
  5
A126
102
{ACAD_XDICTIONARY
360
D4A4
102
}
102
{ACAD_REACTORS
330
A11C
102
}
330
A11C
100
AcDbVisualStyle
  2

 70
     8
 71
     2
 72
     2
 73
     0
 90
        0
 40
-0.6
 41
-30.0
 62
     5
 63
     7
 74
     1
 91
        0
 64
     7
 65
   257
 75
     1
175
     1
 42
1.0
 92
        8
 66
     8
 43
1.0
 76
     1
 77
     6
 78
     2
 67
     7
 79
     5
170
     0
171
     0
290
     0
174
     0
 93
       13
 44
0.0
173
     0
291
     0
 45
0.0
1001
ACAD
1000
AcDbSavedByObjectVersion
1070
     0
  0
VISUALSTYLE
  5
D2B8
102
{ACAD_XDICTIONARY
360
D4BF
102
}
102
{ACAD_REACTORS
330
A11C
102
}
330
A11C
100
AcDbVisualStyle
  2
Shaded
 70
    27
 71
     2
 72
     2
 73
     1
 90
        2
 40
-0.6
 41
30.0
 62
     5
 63
     7
421
 16777215
 74
     0
 91
        4
 64
     7
 65
   257
 75
     1
175
     1
 42
1.0
 92
        8
 66
   257
 43
1.0
 76
     1
 77
     6
 78
     2
 67
     8
425
  7895160
 79
     3
170
     0
171
     0
290
     0
174
     0
 93
        5
 44
0.0
173
     0
291
     0
 45
0.0
1001
ACAD
1000
AcDbSavedByObjectVersion
1070
     0
  0
VISUALSTYLE
  5
D2B7
102
{ACAD_XDICTIONARY
360
D4BD
102
}
102
{ACAD_REACTORS
330
A11C
102
}
330
A11C
100
AcDbVisualStyle
  2
Shaded with edges
 70
    26
 71
     2
 72
     2
 73
     1
 90
        2
 40
-0.6
 41
30.0
 62
     5
 63
     7
421
 16777215
 74
     1
 91
       10
 64
     7
 65
   257
 75
     2
175
     1
 42
1.0
 92
        8
 66
   257
 43
1.0
 76
     1
 77
     6
 78
     2
 67
     7
 79
     3
170
     0
171
     0
290
     0
174
     0
 93
        5
 44
0.0
173
     0
291
     0
 45
0.0
1001
ACAD
1000
AcDbSavedByObjectVersion
1070
     0
  0
VISUALSTYLE
  5
D2B4
102
{ACAD_XDICTIONARY
360
D4B7
102
}
102
{ACAD_REACTORS
330
A11C
102
}
330
A11C
100
AcDbVisualStyle
  2
Shades of Gray
 70
    23
 71
     2
 72
     2
 73
     3
 90
        0
 40
-0.6
 41
-30.0
 62
     5
 63
     7
421
 16777215
 74
     2
 91
        2
 64
     7
 65
     7
 75
     1
175
     1
 42
40.0
 92
        8
 66
     7
 43
1.0
 76
     1
 77
     6
 78
     2
 67
     7
 79
     3
170
     0
171
     0
290
     0
174
     0
 93
        1
 44
0.0
173
     0
291
     0
 45
0.0
1001
ACAD
1000
AcDbSavedByObjectVersion
1070
     0
  0
VISUALSTYLE
  5
D2B5
102
{ACAD_XDICTIONARY
360
D4B9
102
}
102
{ACAD_REACTORS
330
A11C
102
}
330
A11C
100
AcDbVisualStyle
  2
Sketchy
 70
    24
 71
     1
 72
     2
 73
     2
 90
        0
 40
-0.6
 41
-30.0
 62
     5
 63
     7
421
 16777215
 74
     2
 91
        2
 64
     7
 65
     7
 75
     1
175
     1
 42
40.0
 92
       11
 66
     7
 43
1.0
 76
     1
 77
     6
 78
     2
 67
     7
 79
     6
170
     0
171
     0
290
     0
174
     0
 93
        1
 44
0.0
173
     0
291
     0
 45
0.0
1001
ACAD
1000
AcDbSavedByObjectVersion
1070
     0
  0
VISUALSTYLE
  5
A129
102
{ACAD_XDICTIONARY
360
D4AA
102
}
102
{ACAD_REACTORS
330
A11C
102
}
330
A11C
100
AcDbVisualStyle
  2

 70
    13
 71
     2
 72
     2
 73
     0
 90
        0
 40
-0.6
 41
-30.0
 62
     5
 63
     7
 74
     1
 91
        4
 64
     7
 65
   257
 75
     1
175
     1
 42
1.0
 92
       12
 66
     7
 43
1.0
 76
     1
 77
     6
 78
     2
 67
     7
 79
     5
170
     0
171
     0
290
     0
174
     0
 93
        1
 44
0.0
173
     0
291
     1
 45
0.0
1001
ACAD
1000
AcDbSavedByObjectVersion
1070
     0
  0
VISUALSTYLE
  5
D2B2
102
{ACAD_XDICTIONARY
360
D4B3
102
}
102
{ACAD_REACTORS
330
A11C
102
}
330
A11C
100
AcDbVisualStyle
  2
Wireframe
 70
     5
 71
     0
 72
     2
 73
     0
 90
        0
 40
-0.6
 41
-30.0
 62
     5
 63
     7
421
 16777215
 74
     1
 91
        4
 64
     7
 65
   257
 75
     1
175
     1
 42
1.0
 92
        0
 66
   257
 43
1.0
 76
     1
 77
     6
 78
     2
 67
     7
 79
     3
170
     0
171
     0
290
     0
174
     0
 93
        1
 44
0.0
173
     0
291
     0
 45
0.0
1001
ACAD
1000
AcDbSavedByObjectVersion
1070
     0
  0
VISUALSTYLE
  5
D2B6
102
{ACAD_XDICTIONARY
360
D4BB
102
}
102
{ACAD_REACTORS
330
A11C
102
}
330
A11C
100
AcDbVisualStyle
  2
X-Ray
 70
    25
 71
     2
 72
     2
 73
     1
 90
        1
 40
0.5
 41
-30.0
 62
     5
 63
     7
421
 16777215
 74
     1
 91
        0
 64
     7
 65
   257
 75
     1
175
     1
 42
1.0
 92
        8
 66
     7
 43
1.0
 76
     1
 77
     6
 78
     2
 67
     7
 79
     3
170
     0
171
     0
290
     0
174
     0
 93
       13
 44
0.0
173
     0
291
     0
 45
0.0
1001
ACAD
1000
AcDbSavedByObjectVersion
1070
     0
  0
DICTIONARYVAR
  5
A101
102
{ACAD_REACTORS
330
1237
102
}
330
1237
100
DictionaryVariables
280
     0
  1
1:1
  0
DICTIONARYVAR
  5
A2B4
102
{ACAD_REACTORS
330
1237
102
}
330
1237
100
DictionaryVariables
280
     0
  1
STANDARD
  0
DICTIONARYVAR
  5
A2B3
102
{ACAD_REACTORS
330
1237
102
}
330
1237
100
DictionaryVariables
280
     0
  1
STANDARD
  0
DICTIONARYVAR
  5
D42A
102
{ACAD_REACTORS
330
1237
102
}
330
1237
100
DictionaryVariables
280
     0
  1
Metric50
  0
DICTIONARYVAR
  5
D42B
102
{ACAD_REACTORS
330
1237
102
}
330
1237
100
DictionaryVariables
280
     0
  1
Metric50
  0
DICTIONARYVAR
  5
9CC6
102
{ACAD_REACTORS
330
1237
102
}
330
1237
100
DictionaryVariables
280
     0
  1
1
  0
DICTIONARYVAR
  5
9CC5
102
{ACAD_REACTORS
330
1237
102
}
330
1237
100
DictionaryVariables
280
     0
  1
0
  0
DICTIONARYVAR
  5
1238
102
{ACAD_REACTORS
330
1237
102
}
330
1237
100
DictionaryVariables
280
     0
  1
96
  0
DICTIONARYVAR
  5
D48C
102
{ACAD_REACTORS
330
1237
102
}
330
1237
100
DictionaryVariables
280
     0
  1
2
  0
XRECORD
  5
C435
102
{ACAD_REACTORS
330
C433
102
}
330
C433
100
AcDbXrecord
280
     1
  0
XRECORD
  5
A0EE
102
{ACAD_REACTORS
330
A0ED
102
}
330
A0ED
100
AcDbXrecord
280
     1
 91
     1023
301

290
     0
302
1
330
F
 90
        8
 62
     2
370
    -3
331
14
  1
Color_2
330
30
 90
        0
 62
     7
370
    -3
331
14
  1
Color_7
330
526
 90
        8
 62
     1
370
    -3
331
14
  1
Color_1
330
138F
 90
        8
 62
     6
370
    -3
331
C0D
  1
Color_6
330
1390
 90
        8
 62
     7
370
    -3
331
14
  1
Color_7
  0
DICTIONARY
  5
D4C9
330
D2BF
100
AcDbDictionary
280
     1
281
     1
  3
ACAD_XREC_ROUNDTRIP
360
D4CA
  0
DICTIONARY
  5
D446
330
1C64
100
AcDbDictionary
280
     1
281
     1
  3
ADSK_XREC_LAYOUTTHUMBNAIL
360
D447
  0
DICTIONARY
  5
A10D
330
A10C
100
AcDbDictionary
280
     1
281
     1
  3
ACAD_XREC_ROUNDTRIP
360
D490
  3
BUMPTILE
360
A10F
  3
DIFFUSETILE
360
A10E
  3
OPACITYTILE
360
A112
  3
REFLECTIONTILE
360
A111
  3
REFRACTIONTILE
360
A113
  3
SPECULARTILE
360
A110
  0
DICTIONARY
  5
A105
330
A104
100
AcDbDictionary
280
     1
281
     1
  3
ACAD_XREC_ROUNDTRIP
360
D48F
  3
BUMPTILE
360
A107
  3
DIFFUSETILE
360
A106
  3
OPACITYTILE
360
A10A
  3
REFLECTIONTILE
360
A109
  3
REFRACTIONTILE
360
A10B
  3
SPECULARTILE
360
A108
  0
DICTIONARY
  5
A115
330
A114
100
AcDbDictionary
280
     1
281
     1
  3
ACAD_XREC_ROUNDTRIP
360
D491
  3
BUMPTILE
360
A117
  3
DIFFUSETILE
360
A116
  3
OPACITYTILE
360
A11A
  3
REFLECTIONTILE
360
A119
  3
REFRACTIONTILE
360
A11B
  3
SPECULARTILE
360
A118
  0
DICTIONARY
  5
D4C7
330
D2BD
100
AcDbDictionary
280
     1
281
     1
  3
ACAD_XREC_ROUNDTRIP
360
D4C8
  0
DICTIONARY
  5
A2B5
330
A12F
100
AcDbDictionary
280
     1
281
     1
  3
ACAD_ROUNDTRIP_2008_TABLESTYLE_CELLSTYLEMAP
360
D48D
  3
ACAD_XREC_ROUNDTRIP
360
D4B2
  0
DICTIONARY
  5
D49C
330
A122
100
AcDbDictionary
280
     1
281
     1
  3
ACAD_XREC_ROUNDTRIP
360
D49D
  0
DICTIONARY
  5
D4A0
330
A124
100
AcDbDictionary
280
     1
281
     1
  3
ACAD_XREC_ROUNDTRIP
360
D4A1
  0
DICTIONARY
  5
D49E
330
A123
100
AcDbDictionary
280
     1
281
     1
  3
ACAD_XREC_ROUNDTRIP
360
D49F
  0
DICTIONARY
  5
D49A
330
A121
100
AcDbDictionary
280
     1
281
     1
  3
ACAD_XREC_ROUNDTRIP
360
D49B
  0
DICTIONARY
  5
D4A8
330
A128
100
AcDbDictionary
280
     1
281
     1
  3
ACAD_XREC_ROUNDTRIP
360
D4A9
  0
DICTIONARY
  5
D4B0
330
A12C
100
AcDbDictionary
280
     1
281
     1
  3
ACAD_XREC_ROUNDTRIP
360
D4B1
  0
DICTIONARY
  5
D4A2
330
A125
100
AcDbDictionary
280
     1
281
     1
  3
ACAD_XREC_ROUNDTRIP
360
D4A3
  0
DICTIONARY
  5
D4A6
330
A127
100
AcDbDictionary
280
     1
281
     1
  3
ACAD_XREC_ROUNDTRIP
360
D4A7
  0
DICTIONARY
  5
D4C5
330
D2BB
100
AcDbDictionary
280
     1
281
     1
  3
ACAD_XREC_ROUNDTRIP
360
D4C6
  0
DICTIONARY
  5
D4AE
330
A12B
100
AcDbDictionary
280
     1
281
     1
  3
ACAD_XREC_ROUNDTRIP
360
D4AF
  0
DICTIONARY
  5
D492
330
A11D
100
AcDbDictionary
280
     1
281
     1
  3
ACAD_XREC_ROUNDTRIP
360
D493
  0
DICTIONARY
  5
D494
330
A11E
100
AcDbDictionary
280
     1
281
     1
  3
ACAD_XREC_ROUNDTRIP
360
D495
  0
DICTIONARY
  5
D496
330
A11F
100
AcDbDictionary
280
     1
281
     1
  3
ACAD_XREC_ROUNDTRIP
360
D497
  0
DICTIONARY
  5
D498
330
A120
100
AcDbDictionary
280
     1
281
     1
  3
ACAD_XREC_ROUNDTRIP
360
D499
  0
DICTIONARY
  5
D4B5
330
D2B3
100
AcDbDictionary
280
     1
281
     1
  3
ACAD_XREC_ROUNDTRIP
360
D4B6
  0
DICTIONARY
  5
D4C1
330
D2B9
100
AcDbDictionary
280
     1
281
     1
  3
ACAD_XREC_ROUNDTRIP
360
D4C2
  0
DICTIONARY
  5
D4AC
330
A12A
100
AcDbDictionary
280
     1
281
     1
  3
ACAD_XREC_ROUNDTRIP
360
D4AD
  0
DICTIONARY
  5
D4C3
330
D2BA
100
AcDbDictionary
280
     1
281
     1
  3
ACAD_XREC_ROUNDTRIP
360
D4C4
  0
DICTIONARY
  5
D4A4
330
A126
100
AcDbDictionary
280
     1
281
     1
  3
ACAD_XREC_ROUNDTRIP
360
D4A5
  0
DICTIONARY
  5
D4BF
330
D2B8
100
AcDbDictionary
280
     1
281
     1
  3
ACAD_XREC_ROUNDTRIP
360
D4C0
  0
DICTIONARY
  5
D4BD
330
D2B7
100
AcDbDictionary
280
     1
281
     1
  3
ACAD_XREC_ROUNDTRIP
360
D4BE
  0
DICTIONARY
  5
D4B7
330
D2B4
100
AcDbDictionary
280
     1
281
     1
  3
ACAD_XREC_ROUNDTRIP
360
D4B8
  0
DICTIONARY
  5
D4B9
330
D2B5
100
AcDbDictionary
280
     1
281
     1
  3
ACAD_XREC_ROUNDTRIP
360
D4BA
  0
DICTIONARY
  5
D4AA
330
A129
100
AcDbDictionary
280
     1
281
     1
  3
ACAD_XREC_ROUNDTRIP
360
D4AB
  0
DICTIONARY
  5
D4B3
330
D2B2
100
AcDbDictionary
280
     1
281
     1
  3
ACAD_XREC_ROUNDTRIP
360
D4B4
  0
DICTIONARY
  5
D4BB
330
D2B6
100
AcDbDictionary
280
     1
281
     1
  3
ACAD_XREC_ROUNDTRIP
360
D4BC
  0
XRECORD
  5
D4CA
102
{ACAD_REACTORS
330
D4C9
102
}
330
D4C9
100
AcDbXrecord
280
     1
102
DISPLAYNAME
  1
Metric50
102
FLAGS
 90
        0
  0
XRECORD
  5
D447
102
{ACAD_REACTORS
330
D446
102
}
330
D446
100
AcDbXrecord
280
     1
310
28000000000100009300000001000800000000000093000001000000010000000001000000000000302821FF000000FFC8C8C8FF000000FF000000FF000000FF000000FF000000FF000000FF000000FF000000FF330000FF660000FF990000FFCC0000FFFF0000FF003300FF333300FF663300FF993300FFCC3300FFFF3300
310
FF006600FF336600FF666600FF996600FFCC6600FFFF6600FF009900FF339900FF669900FF999900FFCC9900FFFF9900FF00CC00FF33CC00FF66CC00FF99CC00FFCCCC00FFFFCC00FF00FF00FF33FF00FF66FF00FF99FF00FFCCFF00FFFFFF00FF000033FF330033FF660033FF990033FFCC0033FFFF0033FF003333FF3333
310
33FF663333FF993333FFCC3333FFFF3333FF006633FF336633FF666633FF996633FFCC6633FFFF6633FF009933FF339933FF669933FF999933FFCC9933FFFF9933FF00CC33FF33CC33FF66CC33FF99CC33FFCCCC33FFFFCC33FF00FF33FF33FF33FF66FF33FF99FF33FFCCFF33FFFFFF33FF000066FF330066FF660066FF99
310
0066FFCC0066FFFF0066FF003366FF333366FF663366FF993366FFCC3366FFFF3366FF006666FF336666FF666666FF996666FFCC6666FFFF6666FF009966FF339966FF669966FF999966FFCC9966FFFF9966FF00CC66FF33CC66FF66CC66FF99CC66FFCCCC66FFFFCC66FF00FF66FF33FF66FF66FF66FF99FF66FFCCFF66FF
310
FFFF66FF000099FF330099FF660099FF990099FFCC0099FFFF0099FF003399FF333399FF663399FF993399FFCC3399FFFF3399FF006699FF336699FF666699FF996699FFCC6699FFFF6699FF009999FF339999FF669999FF999999FFCC9999FFFF9999FF00CC99FF33CC99FF66CC99FF99CC99FFCCCC99FFFFCC99FF00FF99
310
FF33FF99FF66FF99FF99FF99FFCCFF99FFFFFF99FF0000CCFF3300CCFF6600CCFF9900CCFFCC00CCFFFF00CCFF0033CCFF3333CCFF6633CCFF9933CCFFCC33CCFFFF33CCFF0066CCFF3366CCFF6666CCFF9966CCFFCC66CCFFFF66CCFF0099CCFF3399CCFF6699CCFF9999CCFFCC99CCFFFF99CCFF00CCCCFF33CCCCFF66CC
310
CCFF99CCCCFFCCCCCCFFFFCCCCFF00FFCCFF33FFCCFF66FFCCFF99FFCCFFCCFFCCFFFFFFCCFF0000FFFF3300FFFF6600FFFF9900FFFFCC00FFFFFF00FFFF0033FFFF3333FFFF6633FFFF9933FFFFCC33FFFFFF33FFFF0066FFFF3366FFFF6666FFFF9966FFFFCC66FFFFFF66FFFF0099FFFF3399FFFF6699FFFF9999FFFFCC
310
99FFFFFF99FFFF00CCFFFF33CCFFFF66CCFFFF99CCFFFFCCCCFFFFFFCCFFFF00FFFFFF33FFFFFF66FFFFFF99FFFFFFCCFFFFFFFFFFFFFF000000FF0D0D0DFF1A1A1AFF282828FF353535FF434343FF505050FF5D5D5DFF6B6B6BFF787878FF868686FF939393FFA1A1A1FFAEAEAEFFBBBBBBFFC9C9C9FFD6D6D6FFE4E4E4FF
310
F1F1F1FFFFFFFFFF000000FF000000FF000000FF000000FF000000FF000000FF000000FF000000FF000000FF0000000000000000000000000000000000000000000000000000000000000000000000000000000000000000000000000000000000000000000000000000000000000000000000000000000000000000000000
310
00000000000000000000000000000000000000000000000000000000000000000000000000000000000000000000000000000000000000000000000000000000000000000000000000000000000000000000000000000000000000000000000000000000000000000000000000000000000000000000000000000000000000
310
00000000000000000000000000000000000000000000000000000000000000000000000000000000000000000000000000000000000000000000000000000000000000000000000000000000000000000000000000000000000000000000000000000000000000000000000000000000000000000000000000000000000000
310
00000000000000000000000000000000000000000000000000000000000000000000000000000000000000000000000000000000000000000000000000000000000000000000000000000000000000000000000000000000000000000000000000000000000000000000000000000000000000000000000000000000000000
310
00000000000000000000000000000000000000000000000000000000000000000000000000000000000000000000000000000000000000000000000000000000000000000000000000000000000000000000000000000000000000000000000000000000000000000000000000000000000000000000000000000000000000
310
00000000000000000000000000000000000000000000000000000000000000000000000000000000000000000000000000000000000000000000000000000000000000000000000000000000000000000000000000000000000000000000000000000000000000000000000000000000000000000000000000000000000000
310
00000000000000000000000000000000000000000000000000000000000000000000000000000000000000000000000000000000000000000000000000000000000000000000000000000000000000000000000000000000000000000000000000000000000000000000000000000000000000000000000000000000000000
310
00000000000000000000000000000000000000000000000000000000000000000000000000000000000000000000000000000000000000000000000000000000000000000000000000000000000000000000000000000000000000000000000000000000000000000000000000000000000000000000000000000000000000
310
00000000000000000000000000000000000000000000000000000000000000000000000000000000000000000000000000000000000000000000000000000000000000000000000000000000000000000000000000000000000000000000000000000000000000000000000000000000000000000000000000000000000000
310
00000000000000000000000000000000000000000000000000000000000000000000000000000000000000000000000000000000000000000000000000000000000000000000000000000000000000000000000000000000000000000000000000000000000000000000000000000000000000000000000000000000000000
310
00000000000000000000000000000000000000000000000000000000000000000000000000000000000000000000000000000000000000000000000000000000000000000000000000000000000000000000000000000000000000000000000000000000000000000000000000000000000000000000000000000000000000
310
00000000000000000000000000000000000000000000000000000000000000000000000000000000000000000000000000000000000000000000000000000000000000000000000000000000000000000000000000000000000000000000000000000000000000000000000000000000000000000000000000000000000000
310
00000000000000000000000000000000000000000000000000000000000000000000000000000000000000000000000000000000000000000000000000000000000000000000000000000000000000000000000000000000000000000000000000000000000000000000000000000000000000000000000000000000000000
310
00000000000000000000000000000000000000000000000000000000000000000000000000000000000000000000000000000000000000000000000000000000000000000000000000000000000000000000000000000000000000000000000000000000000000000000000000000000000000000000000000000000000000
310
00000000000000000000000000000000000000000000000000000000000000000000000000000000000000000000000000000000000000000000000000000000000000000000000000000000000000000000000000000000000000000000000000000000000000000000000000000000000000000000000000000000000000
310
00000000000000000000000000000000000000000000000000000000000000000000000000000000000000000000000000000000000000000000000000000000000000000000000000000000000000000000000000000000000000000000000000000000000000000000000000000000000000000000000000000000000000
310
00000000000000000000000000000000000000000000000000000000000000000000000000000000000000000000000000000000000000000000000000000000000000000000000000000000000000000000000000000000000000000000000000000000000000000000000000000000000000000000000000000000000000
310
00000000000000000000000000000000000000000000000000000000000000000000000000000000000000000000000000000000000000000000000000000000000000000000000000000000000000000000000000000000000000000000000000000000000000000000000000000000000000000000000000000000000000
310
00000000000000000000000000000000000000000000000000000000000000000000000000000000000000000000000000000000000000000000000000000000000000000000000000000000000000000000000000000000000000000000000000000000000000000000000000000000000000000000000000000000000000
310
00000000000000000000000000000000000000000000000000000000000000000000000000000000000000000000000000000000000000000000000000000000000000000000000000000000000000000000000000000000000000000000000000000000000000000000000000000000000000000000000000000000000000
310
00000000000000000000000000000000000000000000000000000000000000000000000000000000000000000000000000000000000000000000000000000000000000000000000000000000000000000000000000000000000000000000000000000000000000000000000000000000000000000000000000000000000000
310
00000000000000000000000000000000000000000000000000000000000000000000000000000000000000000000000000000000000000000000000000000000000000000000000000000000000000000000000000000000000000000000000000000000000000000000000000000000000000000000000000000000000000
310
00000000000000000000000000000000000000000000000000000000000000000000000000000000000000000000000000000000000000000000000000000000000000000000000000000000000000000000000000000000000000000000000000000000000000000000000000000000000000000000000000000000000000
310
00000000000000000000000000000000000000000000000000000000000000000000000000000000000000000000000000000000000000000000000000000000000000000000000000000000000000000000000000000000000000000000000000000000000000000000000000000000000000000000000000000000000000
310
00000000000000000000000000000000000000000000000000000000000000000000000000000000000000000000000000000000000000000000000000000000000000000000000000000000000000000000000000000000000000000000000000000000000000000000000000000000000000000000000000000000000000
310
00000000000000000000000000000000000000000000000000000000000000000000000000000000000000000000000000000000000000000000000000000000000000000000000000000000000000000000000000000000000000000000000000000000000000000000000000000000000000000000000000000000000000
310
00000000000000000000000000000000000000000000000000000000000000000000000000000000000000000000000000000000000000000000000000000000000000000000000000000000000000000000000000000000000000000000000000000000000000000000000000000000000000000000000000000000000000
310
00000000000000000000000000000000000000000000000000000000000000000000000000000000000000000000000000000000000000000000000000000000000000000000000000000000000000000000000000000000000000000000000000000000000000000000000000000000000000000000000000000000000000
310
00000000000000000000000000000000000000000000000000000000000000000000000000000000000000000000000000000000000000000000000000000000000000000000000000000000000000000000000000000000000000000000000000000000000000000000000000000000000000000000000000000000000000
310
00000000000000000000000000000000000000000000000000000000000000000000000000000000000000000000000000000000000000000000000000000000000000000000000000000000000000000000000000000000000000000000000000000000000000000000000000000000000000000000000000000000000000
310
00000000000000000000000000000000000000000000000000000000000000000000000000000000000000000000000000000000000000000000000000000000000000000000000000000000000000000000000000000000000000000000000000000000000000000000000000000000000000000000000000000000000000
310
00000000000000000000000000000000000000000000000000000000000000000000000000000000000000000000000000000000000000000000000000000000000000000000000000000000000000000000000000000000000000000000000000000000000000000000000000000000000000000000000000000000000000
310
00000000000000000000000000000000000000000000000000000000000000000000000000000000000000000000000000000000000000000000000000000000000000000000000000000000000000000000000000000000000000000000000000000000000000000000000000000000000000000000000000000000000000
310
00000000000000000000000000000000000000000000000000000000000000000000000000000000000000000000000000000000000000000000000000000000000000000000000000000000000000000000000000000000000000000000000000000000000000000000000000000000000000000000000000000000000000
310
00000000000000000000000000000000000000000000000000000000000000000000000000000000000000000000000000000000000000000000000000000000000000000000000000000000000000000000000000000000000000000000000000000000000000000000000000000000000000000000000000000000000000
310
00000000000000000000000000000000000000000000000000000000000000000000000000000000000000000000000000000000000000000000000000000000000000000000000000000000000000000000000000000000000000000000000000000000000000000000000000000000000000000000000000000000000000
310
00000000000000000000000000000000000000000000000000000000000000000000000000000000000000000000000000000000000000000000000000000000000000000000000000000000000000000000000000000000000000000000000000000000000000000000000000000000000000000000000000000000000000
310
00000000000000000000000000000000000000000000000000000000000000000000000000000000000000000000000000000000000000000000000000000000000000000000000000000000000000000000000000000000000000000000000000000000000000000000000000000000000000000000000000000000000000
310
00000000000000000000000000000000000000000000000000000000000000000000000000000000000000000000000000000000000000000000000000000000000000000000000000000000000000000000000000000000000000000000000000000000000000000000000000000000000000000000000000000000000000
310
00000000000000000000000000000000000000000000000000000000000000000000000000000000000000000000000000000000000000000000000000000000000000000000000000000000000000000000000000000000000000000000000000000000000000000000000000000000000000000000000000000000000000
310
00000000000000000000000000000000000000000000000000000000000000000000000000000000000000000000000000000000000000000000000000000000000000000000000000000000000000000000000000000000000000000000000000000000000000000000000000000000000000000000000000000000000000
310
00000000000000000000000000000000000000000000000000BEBEBEBEBEBEBE00000000BEBEBEBEBEBE00BEBEBE00BEBEBEBEBEBEBEBEBEBEBEBE00BEBE00BE00BEBE00BE00BEBE00BEBEBEBEBEBEBEBEBEBEBEBEBEBEBEBEBEBEBEBEBEBEBEBEBEBEBEBEBEBEBEBEBEBEBEBEBEBEBEBEBEBEBEBEBEBEBEBEBEBEBEBEBEBE
310
00000000000000000000000000000000000000000000000000000000000000000000000000000000000000000000000000000000000000000000000000000000000000000000000000000000000000000000000000000000000000000000000000000000000000000000000000000000000000000000000000000000000000
310
000000000000000000000000000000000000000000000000000000BEBE00BEBEBEBEBEBEBE00BEBEBEBEBE0000BEBEBEBEBEBEBEBEBEBEBEBEBEBEBEBE00BEBEBEBE00BEBEBEBEBEBEBE00BEBEBEBEBEBEBEBEBEBEBEBEBEBEBEBEBEBEBEBEBEBEBEBEBEBEBEBEBEBEBE00BEBEBEBEBEBEBEBEBEBEBEBEBEBEBEBEBEBEBEBE
310
BE000000000000000000000000000000000000000000000000000000000000000000000000000000000000000000000000000000000000000000000000000000000000000000000000000000000000000000000000000000000000000000000000000000000000000000000000000000000000000000000000000000000000
310
0000000000000000000000000000000000000000000000000000000000BEBE0000BE00BEBE0000000000BEBE000000BEBEBE00BE00BEBE00BE00BEBEBEBE00BE000000BEBEBE00BEBE0000BE00000000000000BEBEBEBEBEBEBEBEBEBEBEBEBEBE00BEBEBEBE00BEBEBEBE0000BEBEBEBEBEBE0000BEBEBEBE00BEBE00BE00
310
00BE0000000000000000000000000000000000000000000000000000000000000000000000000000000000000000000000000000000000000000000000000000000000000000000000000000000000000000000000000000000000000000000000000000000000000000000000000000000000000000000000000000000000
310
0000000000000000000000000000000000000000000000BEBEBEBEBEBE0000BEBEBEBEBEBEBEBEBE00000000BE00BEBE00BE00BEBEBEBEBE00BE0000BEBE00BEBEBEBEBEBE00BE0000BEBEBEBEBE00BEBEBEBE00BEBEBEBEBEBEBEBEBE0000BEBEBEBEBE00BEBE00BEBEBE00000000000000BEBEBE00BEBE000000BE0000BE
310
00BEBE00BE00000000BEBE00BE0000BE0000BE00BE00BEBEBEBEBEBEBEBEBE000000BE00BEBEBEBEBEBEBE00BE00BEBE00BEBEBEBE00000000000000BEBEBEBEBEBE0000BE00000000BE0000000000000000000000000000000000000000000000000000000000000000000000000000000000000000000000000000000000
310
00000000000000000000000000000000000000000000000000BEBEBEBEBEBEBE00BEBEBEBEBEBEBEBEBE00BEBEBEBEBEBEBEBEBEBEBEBEBEBEBEBEBEBEBEBEBEBEBE00BEBEBEBEBEBE00BEBEBEBEBEBEBEBE00BEBEBEBEBEBEBEBEBEBEBEBEBEBEBEBEBEBEBEBEBEBEBEBEBEBEBEBE00BEBEBEBE00BEBE00BEBEBEBEBEBE00
310
BEBEBEBEBEBEBEBEBEBEBEBEBE00BEBEBEBEBEBEBEBEBEBEBEBEBEBEBEBEBEBEBEBEBEBEBEBEBEBEBEBEBEBEBEBE0000BEBEBEBEBE00BEBE00BEBEBEBEBEBEBEBEBEBEBEBEBEBEBEBEBEBEBE000000000000000000000000000000000000000000000000000000000000000000000000000000000000000000000000000000
310
000000000000000000000000000000000000000000000000000000BEBEBEBEBE00BE00BE00BEBEBEBEBEBEBEBE000000BEBEBEBEBEBEBEBEBEBEBEBEBEBEBEBEBEBEBEBEBEBEBEBEBEBE0000BEBEBEBEBEBEBEBEBEBEBEBEBE00BEBEBEBEBEBEBEBEBEBEBEBEBEBEBEBEBEBEBEBEBEBEBE00BEBE00BE00BEBEBEBEBEBEBEBE
310
0000BEBEBEBEBEBEBEBEBEBE00BEBE00BEBEBEBEBEBEBEBEBEBEBEBEBEBEBEBEBEBEBEBEBEBEBEBEBEBE00BE00BEBEBE0000BEBEBEBEBE00BEBEBEBEBEBEBEBEBEBEBEBEBEBEBEBEBEBEBEBEBE0000000000000000000000000000000000000000000000000000000000000000000000000000000000000000000000000000
310
0000000000000000000000000000000000000000000000000000000000BEBE00BE00BE0000BE000000000000BE00BE0000000000000000000000BEBE000000000000000000BEBE00BE000000000000BE00BEBE0000BEBE00BEBEBE00BEBE00000000BE00BE0000BE0000BE000000BE000000000000000000000000BE000000
310
00000000000000BEBE00000000000000000000000000000000BE000000BE000000000000000000000000BE0000BE000000000000BEBE00BEBE000000000000000000BE00BEBE000000000000000000000000000000000000000000000000000000000000000000000000000000000000000000000000000000000000000000
310
00000000000000000000000000000000000000000000000000000000000000000000000000000000000000000000000000000000000000000000000000000000000000000000000000000000000000000000000000000000000000000000000000000000000000000000000000000000000000000000000000000000000000
310
00000000000000000000000000000000000000000000000000000000000000000000000000000000000000000000000000000000000000000000000000000000000000000000000000000000000000000000000000000000000000000000000000000000000000000000000000000000000000000000000000000000000000
310
00000000000000000000000000000000000000000000000000000000000000000000000000000000000000000000000000000000000000000000000000000000000000000000000000000000000000000000000000000000000000000000000000000000000000000000000000000000000000000000000000000000000000
310
00000000000000000000000000000000000000000000000000000000000000000000000000000000000000000000000000000000000000000000000000000000000000000000000000000000000000000000000000000000000000000000000000000000000000000000000000000000000000000000000000000000000000
310
00000000000000000000000000000000000000000000000000000000000000000000000000000000000000000000000000000000000000000000000000000000000000000000000000000000000000000000000000000000000000000000000000000000000000000000000000000000000000000000000000000000000000
310
00000000000000000000000000000000000000000000000000000000000000000000000000000000000000000000000000000000000000000000000000000000000000000000000000000000000000000000000000000000000000000000000000000000000000000000000000000000000000000000000000000000000000
310
00000000000000000000000000000000000000000000000000000000000000000000000000000000000000000000000000000000000000000000000000000000000000000000000000000000000000000000000000000000000000000000000000000000000000000000000000000000000000000000000000000000000000
310
00000000000000000000000000000000000000000000000000000000000000000000000000000000000000000000000000000000000000000000000000000000000000000000000000000000000000000000000000000000000000000000000000000000000000000000000000000000000000000000000000000000000000
310
00000000000000000000000000000000000000000000000000000000000000000000000000000000000000000000000000000000000000000000000000000000000000000000000000000000000000000000000000000000000000000000000000000000000000000000000000000000000000000000000000000000000000
310
00000000000000000000000000000000000000000000000000000000000000000000000000000000000000000000000000000000000000000000000000000000000000000000000000000000000000000000000000000000000000000000000000000000000000000000000000000000000000000000000000000000000000
310
00000000000000000000000000000000000000000000000000000000000000000000000000000000000000000000000000000000000000000000000000000000000000000000000000000000000000000000000000000000000000000000000000000000000000000000000000000000000000000000000000000000000000
310
00000000000000000000000000000000000000000000000000000000000000000000000000000000000000000000000000000000000000000000000000000000000000000000000000000000000000000000000000000000000000000000000000000000000000000000000000000000000000000000000000000000000000
310
00000000000000000000000000000000000000000000000000000000000000000000000000000000000000000000000000000000000000000000000000000000000000000000000000000000000000000000000000000000000000000000000000000000000000000000000000000000000000000000000000000000000000
310
00000000000000000000000000000000000000000000000000000000000000000000000000000000000000000000000000000000000000000000000000000000000000000000000000000000000000000000000000000000000000000000000000000000000000000000000000000000000000000000000000000000000000
310
00000000000000000000000000000000000000000000000000000000000000000000000000000000000000000000000000000000000000000000000000000000000000000000000000000000000000000000000000000000000000000000000000000000000000000000000000000000000000000000000000000000000000
310
00000000000000000000000000000000000000000000000000000000000000000000000000000000000000000000000000000000000000000000000000000000000000000000000000000000000000000000000000000000000000000000000000000000000000000000000000000000000000000000000000000000000000
310
00000000000000000000000000000000000000000000000000000000000000000000000000000000000000000000000000000000000000000000000000000000000000000000000000000000000000000000000000000000000000000000000000000000000000000000000000000000000000000000000000000000000000
310
00000000000000000000000000000000000000000000000000000000000000000000000000000000000000000000000000000000000000000000000000000000000000000000000000000000000000000000000000000000000000000000000000000000000000000000000000000000000000000000000000000000000000
310
00000000000000000000000000000000000000000000000000000000000000000000000000000000000000000000000000000000000000000000000000000000000000000000000000000000000000000000000000000000000000000000000000000000000000000000000000000000000000000000000000000000000000
310
00000000000000000000000000000000000000000000000000000000000000000000000000000000000000000000000000000000000000000000000000000000000000000000000000000000000000000000000000000000000000000000000000000000000000000000000000000000000000000000000000000000000000
310
00000000000000000000000000000000000000000000000000000000000000000000000000000000000000000000000000000000000000000000000000000000000000000000000000000000000000000000000000000000000000000000000000000000000000000000000000000000000000000000000000000000000000
310
00000000000000000000000000000000000000000000000000000000000000000000000000000000000000000000000000000000000000000000000000000000000000000000000000000000000000000000000000000000000000000000000000000000000000000000000000000000000000000000000000000000000000
310
00000000000000000000000000000000000000000000000000000000000000000000000000000000000000000000000000000000000000000000000000000000000000000000000000000000000000000000000000000000000000000000000000000000000000000000000000000000000000000000000000000000000000
310
00000000000000000000000000000000000000000000000000000000000000000000000000000000000000000000000000000000000000000000000000000000000000000000000000000000000000000000000000000000000000000000000000000000000000000000000000000000000000000000000000000000000000
310
00000000000000000000000000000000000000000000000000000000000000000000000000000000000000000000000000000000000000000000000000000000000000000000000000000000000000000000000000000000000000000000000000000000000000000000000000000000000000000000000000000000000000
310
00000000000000000000000000000000000000000000000000000000000000000000000000000000000000000000000000000000000000000000000000000000000000000000000000000000000000000000000000000000000000000000000000000000000000000000000000000000000000000000000000000000000000
310
00000000000000000000000000000000000000000000000000000000000000000000000000000000000000000000000000000000000000000000000000000000000000000000000000000000000000000000000000000000000000000000000000000000000000000000000000000000000000000000000000000000000000
310
0000000000000000000000000000000000000000000000000000BEBE00BEBE00BE00BEBEBEBEBEBEBEBEBEBEBEBEBE00BE00BEBE000000000000000000000000000000000000000000000000000000000000000000000000000000000000000000000000000000000000000000000000000000000000000000000000000000
310
00000000000000000000000000000000000000000000000000000000000000000000000000000000000000000000000000000000000000000000000000000000000000000000000000000000000000000000000000000000000000000000000000000000000000000000000000000000000000000000000000000000000000
310
0000000000000000000000000000000000000000000000000000000000BEBEBEBE00BE00BEBEBEBEBEBEBEBEBE00BEBEBEBEBEBEBEBE00000000000000000000000000000000000000000000000000000000000000000000000000000000000000000000000000000000000000000000000000000000000000000000000000
310
00000000000000000000000000000000000000000000000000000000000000000000000000000000000000000000000000000000000000000000000000000000000000000000000000000000000000000000000000000000000000000000000000000000000000000000000000000000000000000000000000000000000000
310
00000000000000000000000000000000000000000000000000000000000000BEBE00BE00BE00BE0000BE00BEBEBEBE00BEBE00BE000000BE0000000000000000000000000000000000000000000000000000000000000000000000000000000000000000000000000000000000000000000000000000000000000000000000
310
00000000000000000000000000000000000000000000000000000000000000000000000000000000000000000000000000000000000000000000000000000000000000000000000000000000000000000000000000000000000000000000000000000000000000000000000000000000000000000000000000000000000000
310
0000000000000000000000000000000000000000000000000000000000000000BEBE0000BEBEBEBEBEBEBE00BEBEBEBEBE00BEBE0000BE0000BE000000000000000000000000000000000000000000000000000000000000000000000000000000000000000000000000000000000000000000000000000000000000000000
310
00000000000000000000000000000000000000000000000000000000000000000000000000000000000000000000000000000000000000000000000000000000000000000000000000000000000000000000000000000000000000000000000000000000000000000000000000000000000000000000000000000000000000
310
00000000000000000000000000000000000000000000000000000000000000000000000000000000000000000000000000000000000000000000000000000000000000000000000000000000000000000000000000000000000000000000000000000000000000000000000000000000000000000000000000000000000000
310
00000000000000000000000000000000000000000000000000000000000000000000000000000000000000000000000000000000000000000000000000000000000000000000000000000000000000000000000000000000000000000000000000000000000000000000000000000000000000000000000000000000000000
310
00000000000000000000000000000000000000000000000000000000000000000000000000000000000000000000000000000000000000000000000000000000000000000000000000000000000000000000000000000000000000000000000000000000000000000000000000000000000000000000000000000000000000
310
00000000000000000000000000000000000000000000000000000000000000000000000000000000000000000000000000000000000000000000000000000000000000000000000000000000000000000000000000000000000000000000000000000000000000000000000000000000000000000000000000000000000000
310
00000000000000000000000000000000000000000000000000000000000000000000000000000000000000000000000000000000000000000000000000000000000000000000000000000000000000000000000000000000000000000000000000000000000000000000000000000000000000000000000000000000000000
310
00000000000000000000000000000000000000000000000000000000000000000000000000000000000000000000000000000000000000000000000000000000000000000000000000000000000000000000000000000000000000000000000000000000000000000000000000000000000000000000000000000000000000
310
00000000000000000000000000000000000000000000000000000000000000000000000000000000000000000000000000000000000000000000000000000000000000000000000000000000000000000000000000000000000000000000000000000000000000000000000000000000000000000000000000000000000000
310
00000000000000000000000000000000000000000000000000000000000000000000000000000000000000000000000000000000000000000000000000000000000000000000000000000000000000000000000000000000000000000000000000000000000000000000000000000000000000000000000000000000000000
310
00000000000000000000000000000000000000000000000000000000000000000000000000000000000000000000000000000000000000000000000000000000000000000000000000000000000000000000000000000000000000000000000000000000000000000000000000000000000000000000000000000000000000
310
00000000000000000000000000000000000000000000000000000000000000000000000000000000000000000000000000000000000000000000000000000000000000000000000000000000000000000000000000000000000000000000000000000000000000000000000000000000000000000000000000000000000000
310
00000000000000000000000000000000000000000000000000000000000000000000000000000000000000000000000000000000000000000000000000000000000000000000000000000000000000000000000000000000000000000000000000000000000000000000000000000000000000000000000000000000000000
310
00000000000000000000000000000000000000000000000000000000000000000000000000000000000000000000000000000000000000000000000000000000000000000000000000000000000000000000000000000000000000000000000000000000000000000000000000000000000000000000000000000000000000
310
00000000000000000000000000000000000000000000000000000000000000000000000000000000000000000000000000000000000000000000000000000000000000000000000000000000000000000000000000000000000000000000000000000000000000000000000000000000000000000000000000000000000000
310
00000000000000000000000000000000000000000000000000000000000000000000000000000000000000000000000000000000000000000000000000000000000000000000000000000000000000000000000000000000000000000000000000000000000000000000000000000000000000000000000000000000000000
310
00000000000000000000000000000000000000000000000000000000000000000000000000000000000000000000000000000000000000000000000000000000000000000000000000000000000000000000000000000000000000000000000000000000000000000000000000000000000000000000000000000000000000
310
00000000000000000000000000000000000000000000000000000000000000000000000000000000000000000000000000000000000000000000000000000000000000000000000000000000000000000000000000000000000000000000000000000000000000000000000000000000000000000000000000000000000000
310
00000000000000000000000000000000000000000000000000000000000000000000000000000000000000000000000000000000000000000000000000000000000000000000000000000000000000000000000000000000000000000000000000000000000000000000000000000000000000000000000000000000000000
310
0000000000000000000000000000000000000000000000000000000000000000000000000000000000000000000000000000000000000000000000000000000000000000000000000000000000000000000000F5F5F5F5F5F5F5F5F5F5F5F5F5F5F5F5F5F5F5F5F5F5F5000000F5F5F5F5000000F5F5F5F5F5F5F5F5F5F5F5
310
F5F5F5F5F5F5F5F5F5F5F5F5F5F5F5F5F5F5F5F5F5F5F5F5F5F5F5F5F5F5F5F5F5F5F5000000F5F5F5F5000000F5F5F5F5F5F5F5F5F5F5F5F5F5F5F5F5F5F5F5F5F5F5F5F500000000000000000000000000000000000000000000000000000000000000000000000000000000000000000000000000000000000000000000
310
00000000000000000000000000000000000000000000000000000000000000000000000000000000000000000000000000000000000000000000000000000000000000000000000000000000000000000000000000F5F5F5F5F5F5F5F5000000000000F5F5F5F5F5F5F5F5F5F5F5F5F500F5F5F5F5F5F5F5F5000000000000
310
F5F5F5F5F5F5F5F5000000000000F5F5F5F5F5F5F5F5000000000000F5F5F5F5F5F5F5F5F5F5F5F5F500F5F5F5F5F5F5F5F50000000000F5F5F5F5F5F5F5F5F5000000000000F50000000000000000000000000000000000000000000000000000000000000000000000000000000000000000000000000000000000000000
310
000000000000000000000000000000000000000000000000000000000000000000000000000000000000000000000000000000000000000000000000000000000000000000000000000000000000000000000000000000F5F5F5F5F50000F5000000000000F5000000000000F5F5000000F500F5F5000000F500F500000000
310
0000F5000000000000F5000000000000F5000000000000F5000000000000F5000000000000F5F5000000F500F5F5000000F500F50000000000F500000000000000F5000000000000F5000000000000000000000000000000000000000000000000000000000000000000000000000000000000000000000000000000000000
310
0000000000000000000000000000000000000000000000000000000000000000000000000000000000000000000000000000000000000000000000000000000000000000000000000000000000000000000000000000000000F5000000F50000F5000000000000F5000000000000F5000000000000F5F5000000F500F50000
310
00000000F5000000000000F5000000000000F5000000000000F5000000000000F5000000000000F5000000000000F5F5000000F500F50000000000F500000000000000F5000000000000F500000000000000000000000000000000000000000000000000000000000000000000000000000000000000000000000000000000
310
000000000000000000000000000000000000000000000000000000000000000000000000000000000000000000000000000000000000000000000000000000000000000000000000000000000000000000000000000000000000C3F5C3C3C3F5C3C3F5C3C3C3C3C3C3F500C3C3C30000F5C3C3C3C3C3C3F5F5C3C3C3F5C3F5
310
00C3C3C30000F5C3C3C3C3C3C3F5C3C3C3C3C3C3F5C3C3C3C3C3C3F5C3C3C3C3C3C3F500C3C3C30000F5C3C3C3C3C3C3F5F5C3C3C3F5C3F500C3C3C300F5C3C3C3C3C3C3C3F5C3C3C3C3C3C3F5C300000000000000000000000000000000000000000000000000000000000000000000000000000000000000000000000000
310
000000000000000000000000000000000000000000000000000000000000000000000000000000000000000000000000000000000000000000000000000000000000000000000000000000000000000000000000000000000000000000F5F5F5F5F5F5F5F5000000000000F5F5F5F5F5F5F5F5000000000000F5F5F5F5F5F5
310
F5F5000000000000F5F5F5F5F5F5F5F5000000000000F5F5F5F5F5F5F5F5000000000000F5F5F5F5F5F5F5F5000000000000F5F5F5F5F5F5F5F50000000000F5F5F5F5F5F5F5F5F5000000000000F5000000000000000000000000000000000000000000000000000000000000000000000000000000000000000000000000
310
0000000000000000000000000000000000000000000000000000000000000000000000000000000000000000000000000000000000000000000000000000000000000000000000000000000000000000000000000000000000000000000000F5F5F5F5F5F5F5F5F5F5F5F5F5F5F5F5F5F5F5F5F5F5F5F5F5F5F5F5F5F5F5F5
310
F5F5F5F5F5F5F5F5F5F5F5F5F5F5F5F5F5F5F5F5F5F5F5F5F5F5F5F5F5F5F5F5F5F5F5F5F5F5F5F5F5F5F5F5F5F5F5F5F5F5F5F5F5F5F5F5F5F5F5F5F5F5F5F5F5F5F5F5F5F5F5F5F5F5F5F5F5F5F5F5F500000000000000000000000000000000000000000000000000000000000000000000000000000000000000000000
310
00000000000000000000000000000000000000000000000000000000000000000000000000000000000000000000000000000000000000000000000000000000000000000000000000000000000000000000000000000000000000000000000000000000000000000000000000000000000000000000000000000000000000
310
00000000000000000000000000000000000000000000000000000000000000000000000000000000000000000000000000000000000000000000000000000000000000000000000000000000000000000000000000000000000000000000000000000000000000000000000000000000000000000000000000000000000000
310
00000000000000000000000000000000000000000000000000000000000000000000000000000000000000000000000000000000000000000000000000000000000000000000000000000000000000000000000000000000000000000000000000000000000000000000000000000000000000000000000000000000000000
310
00000000000000000000000000000000000000000000000000000000000000000000000000000000000000000000000000000000000000000000000000000000000000000000000000000000000000000000000000000000000000000000000000000000000000000000000000000000000000000000000000000000000000
310
00000000000000000000000000000000000000000000000000000000000000000000000000000000000000000000000000000000000000000000000000000000000000000000000000000000000000000000000000000000000000000000000000000000000000000000000000000000000000000000000000000000000000
310
00000000000000000000000000000000000000000000000000000000000000000000000000000000000000000000000000000000000000000000000000000000000000000000000000000000000000000000000000000000000000000000000000000000000000000000000000000000000000000000000000000000000000
310
00000000000000000000000000000000000000000000000000000000000000000000000000000000000000000000000000000000000000000000000000000000000000000000000000000000000000000000000000000000000000000000000000000000000000000000000000000000000000000000000000000000000000
310
00000000000000000000000000000000000000000000000000000000000000000000000000000000000000000000000000000000000000000000000000000000000000000000000000000000000000000000000000000000000000000000000000000000000000000000000000000000000000000000000000000000000000
310
00000000000000000000000000000000000000000000000000000000000000000000000000000000000000000000000000000000000000000000000000000000000000000000000000000000000000000000000000000000000000000000000000000000000000000000000000000000000000000000000000000000000000
310
00000000000000000000000000000000000000000000000000000000000000000000000000000000000000000000000000000000000000000000000000000000000000000000000000000000000000000000000000000000000000000000000000000000000000000000000000000000000000000000000000000000000000
310
00000000000000000000000000000000000000000000000000000000000000000000000000000000000000000000000000000000000000000000000000000000000000000000000000000000000000000000000000000000000000000000000000000000000000000000000000000000000000000000000000000000000000
310
00000000000000000000000000000000000000000000000000000000000000000000000000000000000000000000000000000000000000000000000000000000000000000000000000000000000000000000000000000000000000000000000000000000000000000000000000000000000000000000000000000000000000
310
00000000000000000000000000000000000000000000000000000000000000000000000000000000000000000000000000000000000000000000000000000000000000000000000000000000000000000000000000000000000000000000000000000000000000000000000000000000000000000000000000000000000000
310
00000000000000000000000000000000000000000000000000000000000000000000000000000000000000000000000000000000000000000000000000000000000000000000000000000000000000000000000000000000000000000000000000000000000000000000000000000000000000000000000000000000000000
310
00000000000000000000000000000000000000000000000000000000000000000000000000000000000000000000000000000000000000000000000000000000000000000000000000000000000000000000000000000000000000000000000000000000000000000000000000000000000000000000000000000000000000
310
00000000000000000000000000000000000000000000000000000000000000000000000000000000000000000000000000000000000000000000000000000000000000000000000000000000000000000000000000000000000000000000000000000000000000000000000000000000000000000000000000000000000000
310
00000000000000000000000000000000000000000000000000000000000000000000000000000000000000000000000000000000000000000000000000000000000000000000000000000000000000000000000000000000000000000000000000000000000000000000000000000000000000000000000000000000000000
310
00000000000000000000000000000000000000000000000000000000000000000000000000000000000000000000000000000000000000000000000000000000000000000000000000000000000000000000000000000000000000000000000000000000000000000000000000000000000000000000000000000000000000
310
00000000000000000000000000000000000000000000000000000000000000000000000000000000000000000000000000000000000000000000000000000000000000000000000000000000000000000000000000000000000000000000000000000000000000000000000000000000000000000000000000000000000000
310
00000000000000000000000000000000000000000000000000000000000000000000000000000000000000000000000000000000000000000000000000000000000000000000000000000000000000000000000000000000000000000000000000000000000000000000000000000000000000000000000000000000000000
310
00000000000000000000000000000000000000000000000000000000000000000000000000000000000000000000000000000000000000000000000000000000000000000000000000000000000000000000000000000000000000000000000000000000000000000000000000000000000000000000000000000000000000
310
00000000000000000000000000000000000000000000000000000000000000000000000000000000000000000000000000000000000000000000000000000000000000000000000000000000000000000000000000000000000000000000000000000000000000000000000000000000000000000000000000000000000000
310
00000000000000000000000000000000000000000000000000000000000000000000000000000000000000000000000000000000000000000000000000000000000000000000000000000000000000000000000000000000000000000000000000000000000000000000000000000000000000000000000000000000000000
310
00000000000000000000000000000000000000000000000000000000000000000000000000000000000000000000000000000000000000000000000000000000000000000000000000000000000000000000000000000000000000000000000000000000000000000000000000000000000000000000000000000000000000
310
00000000000000000000000000000000000000000000000000000000000000000000000000000000000000000000000000000000000000000000000000000000000000000000000000000000000000000000000000000000000000000000000000000000000000000000000000000000000000000000000000000000000000
310
00000000000000000000000000000000000000000000000000000000000000000000000000000000000000000000000000000000000000000000000000000000000000000000000000000000000000000000000000000000000000000000000000000000000000000000000000000000000000000000000000000000000000
310
00000000000000000000000000000000000000000000000000000000000000000000000000000000000000000000000000000000000000000000000000000000000000000000000000000000000000000000000000000000000000000000000000000000000000000000000000000000000000000000000000000000000000
310
00000000000000000000000000000000000000000000000000000000000000000000000000000000000000000000000000000000000000000000000000000000000000000000000000000000000000000000000000000000000000000000000000000000000000000000000000000000000000000000000000000000000000
310
00000000000000000000000000000000000000000000000000000000000000000000000000000000000000000000000000000000000000000000000000000000000000000000000000000000000000000000000000000000000000000000000000000000000000000000000000000000000000000000000000000000000000
310
00000000000000000000000000000000000000000000000000000000000000000000000000000000000000000000000000000000000000000000000000000000000000000000000000000000000000000000000000000000000000000000000000000000000000000000000000000000000000000000000000000000000000
310
00000000000000000000000000000000000000000000000000000000000000000000000000000000000000000000000000000000000000000000000000000000000000000000000000000000000000000000000000000000000000000000000000000000000000000000000000000000000000000000000000000000000000
310
00000000000000000000000000000000000000000000000000000000000000000000000000000000000000000000000000000000000000000000000000000000000000000000000000000000000000000000000000000000000000000000000000000000000000000000000000000000000000000000000000000000000000
310
00000000000000000000000000000000000000000000000000000000000000000000000000000000000000000000000000000000000000000000000000000000000000000000000000000000000000000000000000000000000000000000000000000000000000000000000000000000000000000000000000000000000000
310
00000000000000000000000000000000000000000000000000000000000000000000000000000000000000000000000000000000000000000000000000000000000000000000000000000000000000000000000000000000000000000000000000000000000000000000000000000000000000000000000000000000000000
310
00000000000000000000000000000000000000000000000000000000000000000000000000000000000000000000000000000000000000000000000000000000000000000000000000000000000000000000000000000000000000000000000000000000000000000000000000000000000000000000000000000000000000
310
00000000000000000000000000000000000000000000000000000000000000000000000000000000000000000000000000000000000000000000000000000000000000000000000000000000000000000000000000000000000000000000000000000000000000000000000000000000000000000000000000000000000000
310
00000000000000000000000000000000000000000000000000000000000000000000000000000000000000000000000000000000000000000000000000000000000000000000000000000000000000000000000000000000000000000000000000000000000000000000000000000000000000000000000000000000000000
310
00000000000000000000000000000000000000000000000000000000000000000000000000000000000000000000000000000000000000000000000000000000000000000000000000000000000000000000000000000000000000000000000000000000000000000000000000000000000000000000000000000000000000
310
00000000000000000000000000000000000000000000000000000000000000000000000000000000000000000000000000000000000000000000000000000000000000000000000000000000000000000000000000000000000000000000000000000000000000000000000000000000000000000000000000000000000000
310
00000000000000000000000000000000000000000000000000000000000000000000000000000000000000000000000000000000000000000000000000000000000000000000000000000000000000000000000000000000000000000000000000000000000000000000000000000000000000000000000000000000000000
310
00000000000000000000000000000000000000000000000000000000000000000000000000000000000000000000000000000000000000000000000000000000000000000000000000000000000000000000000000000000000000000000000000000000000000000000000000000000000000000000000000000000000000
310
00000000000000000000000000000000000000000000000000000000000000000000000000000000000000000000000000000000000000000000000000000000000000000000000000000000000000000000000000000000000000000000000000000000000000000000000000000000000000000000000000000000000000
310
00000000000000000000000000000000000000000000000000000000000000000000000000000000000000000000000000000000000000000000000000000000000000000000000000000000000000000000000000000000000000000000000000000000000000000000000000C30000000000000000000000000000000000
310
00000000000000000000000000000000000000000000000000000000000000000000000000000000000000000000000000000000000000000000000000000000000000000000000000000000000000000000000000000000000000000000000000000000000000000000000000000000000000000000000000000000000000
310
000000000000000000000000000000000000000000000000000000000000000000000000000000000000000000000000000000000000000000000000000000000000000000000000000000000000000000000000000000000000000000000000000000000000000000000000000000C3000000000000000000000000000000
310
000000000000000000000000000000000000000000F5F5F5F5F5F5F500000000000000F5F5F5F5F5F5F500000000000000F5F5F5F5F5F5F500000000000000F5F5F5F5F5F5F500000000000000F5F5F5F5F5F5F500000000000000F5F5F5F5F5F5F500000000000000F5F5F5F5F5F5F500000000000000F5F5F5F5F5F5F500
310
00000000000000000000000000000000000000000000000000000000000000000000000000000000000000000000000000000000000000000000000000000000000000000000000000000000000000000000000000000000000000000000000000000000000000000000000000000000F5F5F5F50000000000000000000000
310
0000000000000000000000000000000000000000000000F5000000000000F5000000000000F5000000000000F5000000000000F5000000000000F5000000000000F5000000000000F5000000000000F5000000000000F5000000000000F5000000000000F5000000000000F50000000000F500000000000000F50000000000
310
00F50000000000000000000000000000000000000000000000000000000000000000000000000000000000000000000000000000000000000000000000000000000000000000000000000000000000000000000000000000000000000000000000000000000000000000000000000000F5F5F5C3F5F5F50000000000000000
310
00000000000000000000000000000000000000000000000000F5000000000000F5000000000000F5000000000000F5000000000000F5000000000000F5000000000000F5000000000000F5000000000000F5000000000000F5000000000000F5000000000000F5000000000000F50000000000F500000000000000F5000000
310
000000F500000000000000000000000000000000000000000000000000000000000000000000000000000000000000000000000000000000000000000000000000000000000000000000000000000000000000000000000000000000000000000000000000000000000000000000000000C3C3C3C3C3C3C3C3C30000000000
310
00000000000000000000000000000000000000000000000000C3C3F5C3C3C3C3C3C3F5C3C3C3C300C3F5C3C3C3C3C3C3F5C3C3C3C3C3C3F500C3C3C300C3F5C3C3C3C3C3C3F5C3C3C3C3C3C3F500C3C3C300C3F5C3C3C3C3C3C3F5C3C3C3C3C3C3F500C3C3C300C3F5C3C3C3C3C3C3F5C3C3C3C3C3F50000C3C3C300C3F5C3
310
C3C3C3C3C3F5C300000000000000000000000000000000000000000000000000000000000000000000000000000000000000000000000000000000000000000000000000000000000000000000000000000000000000000000000000000000000000000000000000000000000000000000000000F500F5C300F5F500000000
310
0000000000000000000000000000000000000000000000000000000000F5000000000000F5000000000000F5000000000000F5000000000000F5000000000000F5000000000000F5000000000000F5000000000000F5000000000000F5000000000000F5000000000000F5000000000000F50000000000F500000000000000
310
F5000000000000F50000000000000000000000000000000000000000000000000000000000000000000000000000000000000000000000000000000000000000000000000000000000000000000000000000000000000000000000000000000000000000000000000000000000000000000000000000F500F5F5F500F50000
310
000000000000000000000000000000000000000000000000F5F5F5F5F5F5F5F5000000000000F5F5F5F5F5F5F5F5000000000000F5F5F5F5F5F5F5F5000000000000F5F5F5F5F5F5F5F5000000000000F5F5F5F5F5F5F5F5000000000000F5F5F5F5F5F5F5F5000000000000F5F5F5F5F5F5F5F50000000000F5F5F5F5F5F5
310
F5F5F5000000000000F5000000000000000000000000000000000000000000000000000000000000000000000000000000000000000000000000000000000000000000000000000000000000000000000000000000000000000000000000000000000000000000000000000000000000000000000000000000F500C300F5F5
310
0000000000000000000000000000000000000000000000000000F500000000000000000000000000000000000000000000000000000000000000000000000000000000000000000000000000000000000000000000000000000000000000000000000000000000000000000000000000000000000000000000000000000000
310
0000000000000000000000F5000000000000000000000000000000000000000000000000000000000000000000000000000000000000000000000000000000000000000000000000000000000000000000000000000000000000000000000000000000000000000000000000000000000000000000000000000000F500C300
310
F5F50000000000000000000000000000000000000000000000000000F50000000000000000000000000000000000000000000000000000000000000000000000000000000000000000000000000000000000000000000000000000000000000000000000000000000000000000000000000000000000000000000000000000
310
00000000000000000000000000F5000000000000000000000000000000000000000000000000000000000000000000000000000000000000000000000000000000000000000000000000000000000000000000000000000000000000000000000000000000000000000000000000000000000000000000000000000000F5F5
310
F5F5F5F50000000000000000000000000000000000000000000000000000F5000000000000000000000000000000000000000000000000000000000000000000000000000000000000000000000000000000000000000000000000000000000000000000000000000000000000000000000000000000000000000000000000
310
000000000000000000000000000000F5000000000000000000000000000000000000000000000000000000000000000000000000000000000000000000000000000000000000000000000000000000000000000000000000000000000000000000000000000000000000000000000000000000000000000000000000000000
310
F5F5C3F500F50000000000000000000000000000000000000000000000000000F500000000000000000000000000000000000000000000000000000000000000000000000000000000000000000000000000000000000000000000000000000000000000000000000000000000000000000000000000000000000000000000
310
0000000000000000000000000000000000F500000000000000000000000000000000000000000000000000000000000000000000000000000000000000000000000000000000000000000000000000000000000000000000000000000000000000000000000000000000000000000000000000000000000000000000000000
310
0000F5F5C3F500F50000000000000000000000000000000000000000000000000000F50000000000000000000000000000000000000000000000000000000000000000000000000000000000000000000000000000000000000000000000000000000000000000000000000000000000000000000000000000000000000000
310
00000000000000000000000000000000000000F50000000000000000000000000000000000000000000000000000000000000000000000000000000000000000000000000000000000000000000000000000000000000000000000000000000000000000000000000000000000000000000000000000000000000000000000
310
00000000F5F5C3F500F50000000000000000000000000000000000000000000000000000F5000000000000000000000000000000000000000000000000000000000000000000000000000000000000000000000000000000000000000000000000000000000000000000000000000000000000000000000000000000000000
310
000000000000000000000000000000000000000000F5000000000000000000000000000000000000000000000000000000000000000000000000000000000000000000000000000000000000000000000000000000000000000000000000000000000000000000000000000000000000000000000000000000000000000000
310
000000000000F5F5C3F500F50000000000000000000000000000000000000000000000000000F5000000000000F5F5F5F5F5F5F5F5000000000000F5F5F5F5F5F5F5F5000000000000F5F5F5F5F5F5F5F5000000000000F5F5F5F5F5F5F5F5000000000000F5F5F5F5F5F5F5F5000000000000F5F5F5F5F5F5F5F500000000
310
0000F5F5F5F5F5F5F500000000000000F5F5F5F5F5F5F5F500000000000000000000000000000000000000000000000000000000000000000000000000000000000000000000000000000000000000000000000000000000000000000000000000000000000000000000000000000000000000000000000000000000000000
310
00000000000000F500F5C3F500F50000000000000000000000000000000000000000000000000000F5000000000000F5000000000000F5000000000000F5000000000000F5000000000000F5000000000000F5000000000000F5000000000000F5000000000000F5000000000000F5000000000000F5000000000000F50000
310
00000000F50000000000F5F50000000000F5F5000000000000F50000000000000000000000000000000000000000000000000000000000000000000000000000000000000000000000000000000000000000000000000000000000000000000000000000000000000000000000000000000000000000000000000000000000
310
00BEBEBEBEBEBEBEC3C3C3F5C3F5F5C3C3000000000000000000000000000000000000000000000000C3F5C3C3C3C3C3C3F5C3C3C30000C3F5C300C3C3C3C3F5C3C3C3C3C3C3F5C3C3C30000C3F5C300C3C3C3C3F5C3C3C3C3C3C3F5C3C3C30000C3F5C300C3C3C3C3F5C3C3C3C3C3C3F5C3C3C30000C3F5C300C3C3C3C3F5
310
C3C3C3C3C3C3F5C3C3C30000F5F5C300C3C3C3F5F5C3C3C3C3C3C3F5C30000000000000000000000000000000000000000000000000000000000000000000000000000000000000000000000000000000000000000000000000000000000000000000000000000000000000000000000000000000000000000000000000000
310
000000BEBE000000000000F500F5F5F5F5F50000000000000000000000000000000000000000000000000000F5000000000000F5000000000000F5000000000000F5000000000000F5000000000000F5000000000000F5000000000000F5000000000000F5000000000000F5000000000000F5000000000000F50000000000
310
00F5000000000000F50000000000F5F50000000000F5F5000000000000F500000000000000000000000000000000000000000000000000000000000000000000000000000000000000000000000000000000000000000000000000000000000000000000000000000000000000000000000000000000000000000000000000
310
0000000000BEBE000000000000F50000C3F500F50000000000000000000000000000000000000000000000000000F5F5F5F5F5F5F5F5000000000000F5F5F5F5F5F5F5F5000000000000F5F5F5F5F5F5F5F5000000000000F5F5F5F5F5F5F5F5000000000000F5F5F5F5F5F5F5F5000000000000F5F5F5F5F5F5F5F5000000
310
000000F5F5F5F5F5F5F5F50000000000F5F5F5F5F5F5F5F5F5000000000000F50000000000000000000000000000000000000000000000000000000000000000000000000000000000000000000000000000000000000000000000000000000000000000000000000000000000000000000000000000000000000000000000
310
00000000000000BE0000000000000000F5F5C3F5F5F50000000000000000000000000000000000000000000000000000F5000000000000000000000000000000000000000000000000000000000000000000000000000000000000000000000000000000000000000000000000000000000000000000000000000000000000
310
000000000000000000000000000000000000000000000000000000000000000000F5000000000000000000000000000000000000000000000000000000000000000000000000000000000000000000000000000000000000000000000000000000000000000000000000000000000000000000000000000000000000000000
310
00000000000000BE00BE0000000000000000F500C300F5F50000000000000000000000000000000000000000000000000000F500000000000000000000000000000000000000000000000000000000000000000000000000000000000000000000000000000000000000000000000000000000000000000000000000000000
310
0000000000000000000000000000000000000000000000000000000000000000000000F500000000000000000000000000000000000000000000000000000000000000000000000000000000000000000000000000000000000000000000000000000000000000000000000000000000000000000000000000000000000000
310
0000000000000000BEBEBEBE0000000000000000F5F5F5F5F5F50000000000000000000000000000000000000000000000000000F50000000000000000000000000000000000000000000000000000000000000000000000000000000000000000000000000000000000000000000000000000000000000000000000000000
310
00000000000000000000000000000000000000000000000000000000000000000000000000F50000000000000000000000000000000000000000000000000000000000000000000000000000000000000000000000000000000000000000000000000000000000000000000000000000000000000000000000000000000000
310
00000000000000000000BEBEBEBE0000000000000000F5F5C3F500F50000000000000000000000000000000000000000000000000000F5000000000000000000000000000000000000000000000000000000000000000000000000000000000000000000000000000000000000000000000000000000000000000000000000
310
000000000000000000000000000000000000000000000000000000000000000000000000000000F5000000000000000000000000000000000000000000000000000000000000000000000000000000000000000000000000000000000000000000000000000000000000000000000000000000000000000000000000000000
310
000000000000000000000000BEBEBEBE0000000000000000F5F5C3F500F50000000000000000000000000000000000000000000000000000F500000000000000000000000000000000000000000000000000000000000000000000000000000000000000000000000000000000000000000000000000000000000000000000
310
0000000000000000000000000000000000000000000000000000000000000000000000000000000000F500000000000000000000000000000000000000000000000000000000000000000000000000000000000000000000000000000000000000000000000000000000000000000000000000000000000000000000000000
310
0000000000000000000000000000000000BE0000000000000000F5F5C3F500F50000000000000000000000000000000000000000000000000000F50000000000000000000000000000000000000000000000000000000000000000000000000000000000000000000000000000000000000000000000000000000000000000
310
00000000000000000000000000000000000000000000000000000000000000000000000000000000000000F50000000000000000000000000000000000000000000000000000000000000000000000000000000000000000000000000000000000000000000000000000000000000000000000000000000000000000000000
310
00000000000000000000000000000000000000BEBE00000000000000F5F5C3F500F50000000000000000000000000000000000000000000000000000F5000000000000F5F5F5F5F5F5F500000000000000F5F5F5F5F5F5F500000000000000F5F5F5F5F5F5F500000000000000F5F5F5F5F5F5F500000000000000F5F5F5F5
310
F5F5F500000000000000F5F5F5F5F5F5F500000000000000F5F5F5F5F5F5F500000000000000F5F5F5F5F5F5F5F5000000000000000000000000000000000000000000000000000000000000000000000000000000000000000000000000000000000000000000000000000000000000000000000000000000000000000000
310
000000000000000000000000000000000000000000BEBE000000000000F500F5C3F500F50000000000000000000000000000000000000000000000000000F5000000000000F5000000000000F5000000000000F5000000000000F5000000000000F5000000000000F5000000000000F5000000000000F5000000000000F500
310
0000000000F5000000000000F5000000000000F5000000000000F5000000000000F50000000000F5F5000000000000BE00000000000000000000000000000000000000000000000000000000000000000000000000000000000000000000000000000000000000000000000000000000000000000000000000000000000000
310
0000000000000000000000000000000000000000000000BEBEBEBEBEBEBEC3C3C3F5C3F5F5BEC3000000000000000000000000000000000000000000000000C3F5C3C3C3C3C3C3F500C3C3C30000F5C3C3C3C3C3C3F5C3C3C3C3C3C3F500C3C3C3C300F5C3C3C3C3C3C3F5C3C3C3C3C3C3F500C3C3C3C300F5C3C3C3C3C3C3
310
F5C3C3C3C3C3C3F500C3C3C3C300F5C3C3C3C3C3C3F5C3C3C3C3C3C3F500C3C3C3C300F5C3C3C3C3C3F5C3C30000000000BE0000000000000000000000000000000000000000000000000000000000000000000000000000000000000000000000000000000000000000000000000000000000000000000000000000000000
310
000000000000000000000000000000000000000000000000000000000000000000F500F5F5F5F5BE0000000000000000000000000000000000000000000000000000F5000000000000F5000000000000F5000000000000F5000000000000F5000000000000F5000000000000F5000000000000F5000000000000F500000000
310
0000F5000000000000F5000000000000F5000000000000F5000000000000F5000000000000F50000000000F500000000000000BE000000000000000000000000000000000000000000000000000000000000000000000000000000000000000000000000000000000000000000000000000000000000000000000000000000
310
0000000000000000000000000000000000000000000000000000000000000000000000BE0000C3F500BE0000000000000000000000000000000000000000000000000000F5000000000000F5000000000000F5000000000000F5000000000000F5000000000000F5000000000000F5000000000000F5000000000000F50000
310
00000000F5000000000000F5000000000000F5000000000000F5000000000000F5000000000000F50000000000F500000000000000BE00000000000000000000000000000000000000000000000000000000000000000000000000000000000000000000000000000000000000000000000000000000000000000000000000
310
00000000000000000000000000000000000000000000000000000000000000000000000000BEF5F5C3F5F5BE0000000000000000000000000000000000000000000000000000F5F5F5F5F5F5F5F5000000000000F5F5F5F5F5F5F5F5000000000000F5F5F5F5F5F5F5F5000000000000F5F5F5F5F5F5F5F5000000000000F5
310
F5F5F5F5F5F5F5000000000000F5F5F5F5F5F5F5F5000000000000F5F5F5F5F5F5F5F5000000000000F5F5F5F5F5F5F500000000000000BE0000000000000000000000000000000000000000000000000000000000000000000000000000000000000000000000000000000000000000000000000000000000000000000000
310
000000000000000000000000000000000000000000000000000000000000000000000000000000BE0000BE0000BE0000000000000000000000000000000000000000000000000000BE000000000000000000000000000000000000000000000000000000000000000000000000000000000000000000000000000000000000
310
000000000000000000000000000000000000000000000000000000000000000000000000000000000000000000000000000000000000000000BE000000000000000000000000000000000000000000000000000000000000000000000000000000000000000000000000000000000000000000000000000000000000000000
310
0000000000000000000000000000000000000000000000000000000000000000000000000000000000BE0000BE0000BE0000000000000000000000000000000000000000000000000000BE00000000000000000000000000000000000000000000000000000000000000000000000000000000000000000000000000000000
310
0000000000000000000000000000000000000000000000000000000000000000000000000000000000000000000000000000000000000000000000BE00000000000000000000000000000000000000000000000000000000000000000000000000000000000000000000000000000000000000000000000000000000000000
310
00000000000000000000000000000000000000000000000000000000000000000000000000000000000000BE0000BE0000BE0000000000000000000000000000000000000000000000000000BE0000000000000000000000000000000000000000000000000000000000000000000000000000000000000000000000000000
310
00000000000000000000000000000000000000000000000000000000000000000000000000000000000000000000000000000000000000000000000000BE0000000000000000000000000000000000000000000000000000000000000000000000000000000000000000000000000000000000000000000000000000000000
310
000000000000000000000000000000000000000000000000000000000000000000000000000000000000000000BE0000BE0000BE0000000000000000000000000000000000000000000000000000BE000000000000000000000000000000000000000000000000000000000000000000000000000000000000000000000000
310
000000000000000000000000000000000000000000000000000000000000000000000000000000000000000000000000000000000000000000000000000000BE000000000000000000000000000000000000000000000000000000000000000000000000000000000000000000000000000000000000000000000000000000
310
0000000000000000000000000000000000000000000000000000000000000000000000BEBEBEBEBEBEBEBEBEBEBEBEBEBEBEBEBEBEBEBE00000000000000000000000000000000000000000000000000BE00000000000000000000000000000000000000000000000000000000000000000000000000000000000000000000
310
0000000000000000000000000000000000000000000000000000000000000000000000000000000000000000000000000000000000000000000000000000000000BE00000000000000000000000000000000000000000000000000000000000000000000000000000000000000000000000000000000000000000000000000
310
0000000000000000000000000000000000000000000000000000000000000000000000000000BEBEBEBEBEBEBE00000000BE0000000000BE0000000000000000000000000000000000000000000000000000BE0000000000000000000000000000000000000000000000000000000000000000000000000000000000000000
310
00000000000000000000000000000000000000000000000000000000000000000000000000000000000000000000000000000000000000000000000000000000000000BE0000000000000000000000000000000000000000000000000000000000000000000000000000000000000000000000000000000000000000000000
310
0000000000000000000000000000000000000000000000000000000000000000000000000000000000BE00BEBEBEBE00000000BE0000000000BE0000000000000000000000000000000000000000000000000000BE000000000000000000000000000000000000000000000000000000000000000000000000000000000000
310
000000000000000000000000000000000000000000000000000000000000000000000000000000000000000000000000000000000000000000000000000000000000000000BE000000000000000000000000000000000000000000000000000000000000000000000000000000000000000000000000000000000000000000
310
00000000000000000000000000000000000000000000000000000000000000000000000000000000000000BE00BEBEBEBE00000000BE00BE00BE00BE0000000000000000000000000000000000000000000000000000BE00BE0000000000000000000000000000000000000000000000000000000000000000000000000000
310
000000000000000000000000000000000000000000000000000000000000000000000000000000000000000000000000000000000000000000000000000000000000000000BE00BE00000000000000000000000000000000000000000000000000000000000000000000000000000000000000000000000000000000000000
310
00000000000000000000000000000000000000000000000000000000000000000000000000000000000000000000000000000000000000BEBEBEBEBEBEBE0000000000000000000000000000000000000000000000000000BEBEBEBEBEBEBEBEBEBEBEBEBEBEBEBEBEBEBEBEBEBEBEBEBEBEBEBEBEBEBEBEBEBEBEBEBEBEBE
310
BEBEBEBEBEBEBEBEBEBEBEBEBEBEBEBEBEBEBEBEBEBEBEBEBEBEBEBEBEBEBEBEBEBEBEBEBEBEBEBEBEBEBEBEBEBEBEBEBEBEBEBEBEBEBEBEBEBEBEBEBEBEBEBEBEBEBEBEBEBEBEBEBEBE0000000000000000000000000000000000000000000000000000000000000000000000000000000000000000000000000000000000
310
00000000000000000000000000000000000000000000000000000000000000000000000000000000000000000000000000000000000000000000BEBEBEBEBE00000000000000000000000000000000000000000000000000000000000000000000000000000000000000000000000000000000000000000000000000000000
310
000000000000000000000000000000BEBE00BEBEBEBEBE0000000000000000000000000000000000000000000000000000000000000000000000000000000000000000000000000000000000000000000000000000000000000000000000000000000000000000000000000000000000000000000000000000000000000000
310
000000000000000000000000000000000000000000000000000000000000000000000000000000000000000000000000000000000000000000000000BEBE00BEBE0000000000000000000000000000000000000000000000000000000000000000000000000000000000000000000000000000000000000000000000000000
310
0000000000000000000000000000000000BEBEBEBEBE00BEBE000000000000000000000000000000000000000000000000000000000000000000000000000000000000000000000000000000000000000000000000000000000000000000000000000000000000000000000000000000000000000000000000000000000000
310
0000000000000000000000000000000000000000000000000000000000000000000000000000000000000000000000000000000000000000000000000000BEBE00BEBE000000000000000000000000000000000000000000000000000000000000000000000000000000000000000000000000000000000000000000000000
310
00000000000000000000000000000000000000BEBEBEBEBE00BEBE00000000000000000000000000000000000000000000000000000000000000000000000000000000000000000000000000000000000000000000000000000000000000000000000000000000000000000000000000000000000000000000000000000000
310
00000000000000000000000000000000000000000000000000000000000000000000000000000000000000000000000000000000000000000000000000000000000000000000000000000000000000000000000000000000000000000000000000000000000000000000000000000000000000000000000000000000000000
310
00000000000000000000000000000000000000000000000000000000000000000000000000000000000000000000000000000000000000000000000000000000000000000000000000000000000000000000000000000000000000000000000000000000000000000000000000000000000000000000000000000000000000
310
00000000000000000000000000000000000000000000000000000000000000000000000000000000000000000000000000000000000000000000000000000000000000000000000000000000000000000000000000000000000000000000000000000000000000000000000000000000000000000000000000000000000000
310
00000000000000000000000000000000000000000000000000000000000000000000000000000000000000000000000000000000000000000000000000000000000000000000000000000000000000000000000000000000000000000000000000000000000000000000000000000000000000000000000000000000000000
310
00000000000000000000000000000000000000000000000000000000000000000000000000000000000000000000000000000000000000000000000000000000000000000000000000000000000000000000000000000000000000000000000000000000000000000000000000000000000000000000000000000000000000
310
00000000000000000000000000000000000000000000000000000000000000000000000000000000000000000000000000000000000000000000000000000000000000000000000000000000000000000000000000000000000000000000000000000000000000000000000000000000000000000000000000000000000000
310
00000000000000000000000000000000000000000000000000000000000000000000000000000000000000000000000000000000000000000000000000000000000000000000000000000000000000000000000000000000000000000000000000000000000000000000000000000000000000000000000000000000000000
310
00000000000000000000000000000000000000000000000000000000000000000000000000000000000000000000000000000000000000000000000000000000000000000000000000000000000000000000000000000000000000000000000000000000000000000000000000000000000000000000000000000000000000
310
00000000000000000000000000000000000000000000000000000000000000000000000000000000000000000000000000000000000000000000000000000000000000000000000000000000000000000000000000000000000000000000000000000000000000000000000000000000000000000000000000000000000000
310
00000000000000000000000000000000000000000000000000000000000000000000000000000000000000000000000000000000000000000000000000000000000000000000000000000000000000000000000000000000000000000000000000000000000000000000000000000000000000000000000000000000000000
310
00000000000000000000000000000000000000000000000000000000000000000000000000000000000000000000000000000000000000000000000000000000000000000000000000000000000000000000000000000000000000000000000000000000000000000000000000000000000000000000000000000000000000
310
00000000000000000000000000000000000000000000000000000000000000000000000000000000000000000000000000000000000000000000000000000000000000000000000000000000000000000000000000000000000000000000000000000000000000000000000000000000000000000000000000000000000000
310
00000000000000000000000000000000000000000000000000000000000000000000000000000000000000000000000000000000000000000000000000000000000000000000000000000000000000000000000000000000000000000000000000000000000000000000000000000000000000000000000000000000000000
310
00000000000000000000000000000000000000000000000000000000000000000000000000000000000000000000000000000000000000000000000000000000000000000000000000000000000000000000000000000000000000000000000000000000000000000000000000000000000000000000000000000000000000
310
00000000000000000000000000000000000000000000000000000000000000000000000000000000000000000000000000000000000000000000000000000000000000000000000000000000000000000000000000000000000000000000000000000000000000000000000000000000000000000000000000000000000000
310
00000000000000000000000000000000000000000000000000000000000000000000000000000000000000000000000000000000000000000000000000000000000000000000000000000000000000000000000000000000000000000000000000000000000000000000000000000000000000000000000000000000000000
310
00000000000000000000000000000000000000000000000000000000000000000000000000000000000000000000000000000000000000000000000000000000000000000000000000000000000000000000000000000000000000000000000000000000000000000000000000000000000000000000000000000000000000
310
00000000000000000000000000000000000000000000000000000000000000000000000000000000000000000000000000000000000000000000000000000000000000000000000000000000000000000000000000000000000000000000000000000000000000000000000000000000000000000000000000000000000000
310
00000000000000000000000000000000000000000000000000000000000000000000000000000000000000000000000000000000000000000000000000000000000000000000000000000000000000000000000000000000000000000000000000000000000000000000000000000000000000000000000000000000000000
310
00000000000000000000000000000000000000000000000000000000000000000000000000000000000000000000000000000000000000000000000000000000000000000000000000000000000000000000000000000000000000000000000000000000000000000000000000000000000000000000000000000000000000
310
000000000000000000000000000000000000000000000000000000000000000000000000000000000000000000000000000000000000000000000000000000000000000000BEBE0000BE00BEBEBEBE00BEBE00BEBE000000BE00BE00BE00BEBE000000BEBEBEBE00BEBE0000000000BEBE0000BEBEBE00BEBEBEBEBEBE0000
310
0000BEBEBEBEBEBEBEBE0000BEBE0000000000000000000000000000000000000000000000000000000000000000000000000000000000000000000000000000000000000000000000000000000000000000000000000000000000000000000000000000000000000000000000000000000000000000000000000000000000
310
0000000000000000000000000000000000000000000000000000000000000000000000000000000000000000000000000000000000000000000000000000000000000000000000BEBE0000BE00BE00BE00BEBEBEBE00BE000000BE00BEBE00BEBE00BE00BE0000BE00BE00BEBE00BEBEBE00BEBE00BEBEBEBEBEBEBEBEBEBE
310
00BEBE00BE00BEBEBE0000BEBEBEBE00BE0000000000000000000000000000000000000000000000000000000000000000000000000000000000000000000000000000000000000000000000000000000000000000000000000000000000000000000000000000000000000000000000000000000000000000000000000000
310
000000000000000000000000000000000000000000000000000000000000000000000000000000000000000000000000000000000000000000000000000000000000000000000000BE00BEBE00BE00BE00BEBEBEBEBEBEBEBEBEBEBEBEBE00BE00BEBEBE0000BE00BEBEBEBEBEBEBE00BEBEBEBEBEBEBEBEBEBEBEBEBEBEBE
310
BEBE00BEBE00BE00BEBE00BEBE0000BEBE00BE000000000000000000000000000000000000000000000000000000000000000000000000000000000000000000000000000000000000000000000000000000000000000000000000000000000000000000000000000000000000000000000000000000000000000000000000
310
0000000000000000000000000000000000000000000000000000000000000000000000000000000000000000000000000000000000000000000000000000000000000000000000000000BE0000BEBEBEBEBE00BEBEBEBEBEBEBEBE000000BE00BEBEBEBE00BE000000BE00BE0000000000000000000000BEBEBEBEBEBEBEBE
310
BEBEBEBE00000000BE00BEBEBEBEBE000000BEBE0000000000000000000000000000000000000000000000000000000000000000000000000000000000000000000000000000000000000000000000000000000000000000000000000000000000000000000000000000000000000000000000000000000000000000000000
310
00000000000000000000000000000000000000000000000000000000000000000000000000000000000000000000000000000000000000000000000000000000000000000000000000000000000000000000000000000000000000000000000000000000000000000000000000000000000000000000000000000000000000
310
00000000000000000000000000000000000000000000000000000000000000000000000000000000000000000000000000000000000000000000000000000000000000000000000000000000000000000000000000000000000000000000000000000000000000000000000000000000000000000000000000000000000000
310
00000000000000000000000000000000000000000000000000000000000000000000000000000000000000000000000000000000000000000000000000000000000000000000000000000000000000000000000000000000000000000000000000000000000000000000000000000000000000000000000000000000000000
310
00000000000000000000000000000000000000000000000000000000000000000000000000000000000000000000000000000000000000000000000000000000000000000000000000000000000000000000000000000000000000000000000000000000000000000000000000000000000000000000000000000000000000
310
00000000000000000000000000000000000000000000000000000000000000000000000000000000000000000000000000000000000000000000000000000000000000000000000000000000000000000000000000000000000000000000000000000000000000000000000000000000000000000000000000000000000000
310
00000000000000000000000000000000000000000000000000000000000000000000000000000000000000000000000000000000000000000000000000000000000000000000000000000000000000000000000000000000000000000000000000000000000000000000000000000000000000000000000000000000000000
310
00000000000000000000000000000000000000000000000000000000000000000000000000000000000000000000000000000000000000000000000000000000000000000000000000000000000000000000000000000000000000000000000000000000000000000000000000000000000000000000000000000000000000
310
00000000000000000000000000000000000000000000000000000000000000000000000000000000000000000000000000000000000000000000000000000000000000000000000000000000000000000000000000000000000000000000000000000000000000000000000000000000000000000000000000000000000000
310
00000000000000000000000000000000000000000000000000000000000000000000000000000000000000000000000000000000000000000000000000000000000000000000000000000000000000000000000000000000000000000000000000000000000000000000000000000000000000000000000000000000000000
310
00000000000000000000000000000000000000000000000000000000000000000000000000000000000000000000000000000000000000000000000000000000000000000000000000000000000000000000000000000000000000000000000000000000000000000000000000000000000000000000000000000000000000
310
00000000000000000000000000000000000000000000000000000000000000000000000000000000000000000000000000000000000000000000000000000000000000000000000000000000000000000000000000000000000000000000000000000000000000000000000000000000000000000000000000000000000000
310
00000000000000000000000000000000000000000000000000000000000000000000000000000000000000000000000000000000000000000000000000000000000000000000000000000000000000000000000000000000000000000000000000000000000000000000000000000000000000000000000000000000000000
310
00000000000000000000000000000000000000000000000000000000000000000000000000000000000000000000000000000000000000000000000000000000000000000000000000000000000000000000000000000000000000000000000000000000000000000000000000000000000000000000000000000000000000
310
00000000000000000000000000000000000000000000000000000000000000000000000000000000000000000000000000000000000000000000000000000000000000000000000000000000000000000000000000000000000000000000000000000000000000000000000000000000000000000000000000000000000000
310
00000000000000000000000000000000000000000000000000000000000000000000000000000000000000000000000000000000000000000000000000000000000000000000000000000000000000000000000000000000000000000000000000000000000000000000000000000000000000000000000000000000000000
310
00000000000000000000000000000000000000000000000000000000000000000000000000000000000000000000000000000000000000000000000000000000000000000000000000000000000000000000000000000000000000000000000000000000000000000000000000000000000000000000000000000000000000
310
00000000000000000000000000000000000000000000000000000000000000000000000000000000000000000000000000000000000000000000000000000000000000000000000000000000000000000000000000000000000000000000000000000000000000000000000000000000000000000000000000000000000000
310
00000000000000000000000000000000000000000000000000000000000000000000000000000000000000000000000000000000000000000000000000000000000000000000000000000000000000000000000000000000000000000000000000000000000000000000000000000000000000000000000000000000000000
310
00000000000000000000000000000000000000000000000000000000000000000000000000000000000000000000000000000000000000000000000000000000000000000000000000000000000000000000000000000000000000000000000000000000000000000000000000000000000000000000000000000000000000
310
00000000000000000000000000000000000000000000000000000000000000000000000000000000000000000000000000000000000000000000000000000000000000000000000000000000000000000000000000000000000000000000000000000000000000000000000000000000000000000000000000000000000000
310
00000000000000000000000000000000000000000000000000000000000000000000000000000000000000000000000000000000000000000000000000000000000000000000000000000000000000000000000000000000
  0
XRECORD
  5
D490
102
{ACAD_REACTORS
330
A10D
102
}
330
A10D
100
AcDbXrecord
280
     1
102
MATERIAL
148
0.0
149
0.0
149
0.0
 93
        0
 94
      127
282
     0
 72
     0
 77
     0
171
     0
175
     0
179
     0
273
     0
  0
XRECORD
  5
A10F
102
{ACAD_REACTORS
330
A10D
102
}
330
A10D
100
AcDbXrecord
280
     1
270
     1
271
     1
  0
XRECORD
  5
A10E
102
{ACAD_REACTORS
330
A10D
102
}
330
A10D
100
AcDbXrecord
280
     1
270
     1
271
     1
  0
XRECORD
  5
A112
102
{ACAD_REACTORS
330
A10D
102
}
330
A10D
100
AcDbXrecord
280
     1
270
     1
271
     1
  0
XRECORD
  5
A111
102
{ACAD_REACTORS
330
A10D
102
}
330
A10D
100
AcDbXrecord
280
     1
270
     1
271
     1
  0
XRECORD
  5
A113
102
{ACAD_REACTORS
330
A10D
102
}
330
A10D
100
AcDbXrecord
280
     1
270
     1
271
     1
  0
XRECORD
  5
A110
102
{ACAD_REACTORS
330
A10D
102
}
330
A10D
100
AcDbXrecord
280
     1
270
     1
271
     1
  0
XRECORD
  5
D48F
102
{ACAD_REACTORS
330
A105
102
}
330
A105
100
AcDbXrecord
280
     1
102
MATERIAL
148
0.0
149
0.0
149
0.0
 93
        0
 94
      127
282
     0
 72
     0
 77
     0
171
     0
175
     0
179
     0
273
     0
  0
XRECORD
  5
A107
102
{ACAD_REACTORS
330
A105
102
}
330
A105
100
AcDbXrecord
280
     1
270
     1
271
     1
  0
XRECORD
  5
A106
102
{ACAD_REACTORS
330
A105
102
}
330
A105
100
AcDbXrecord
280
     1
270
     1
271
     1
  0
XRECORD
  5
A10A
102
{ACAD_REACTORS
330
A105
102
}
330
A105
100
AcDbXrecord
280
     1
270
     1
271
     1
  0
XRECORD
  5
A109
102
{ACAD_REACTORS
330
A105
102
}
330
A105
100
AcDbXrecord
280
     1
270
     1
271
     1
  0
XRECORD
  5
A10B
102
{ACAD_REACTORS
330
A105
102
}
330
A105
100
AcDbXrecord
280
     1
270
     1
271
     1
  0
XRECORD
  5
A108
102
{ACAD_REACTORS
330
A105
102
}
330
A105
100
AcDbXrecord
280
     1
270
     1
271
     1
  0
XRECORD
  5
D491
102
{ACAD_REACTORS
330
A115
102
}
330
A115
100
AcDbXrecord
280
     1
102
MATERIAL
148
0.0
149
0.0
149
0.0
 93
        0
 94
      127
282
     0
 72
     0
 77
     0
171
     0
175
     0
179
     0
273
     0
  0
XRECORD
  5
A117
102
{ACAD_REACTORS
330
A115
102
}
330
A115
100
AcDbXrecord
280
     1
270
     1
271
     1
  0
XRECORD
  5
A116
102
{ACAD_REACTORS
330
A115
102
}
330
A115
100
AcDbXrecord
280
     1
270
     1
271
     1
  0
XRECORD
  5
A11A
102
{ACAD_REACTORS
330
A115
102
}
330
A115
100
AcDbXrecord
280
     1
270
     1
271
     1
  0
XRECORD
  5
A119
102
{ACAD_REACTORS
330
A115
102
}
330
A115
100
AcDbXrecord
280
     1
270
     1
271
     1
  0
XRECORD
  5
A11B
102
{ACAD_REACTORS
330
A115
102
}
330
A115
100
AcDbXrecord
280
     1
270
     1
271
     1
  0
XRECORD
  5
A118
102
{ACAD_REACTORS
330
A115
102
}
330
A115
100
AcDbXrecord
280
     1
270
     1
271
     1
  0
XRECORD
  5
D4C8
102
{ACAD_REACTORS
330
D4C7
102
}
330
D4C7
100
AcDbXrecord
280
     1
102
DISPLAYNAME
  1
Metric50
102
FLAGS
 90
        0
  0
CELLSTYLEMAP
  5
D48D
102
{ACAD_REACTORS
330
A2B5
102
}
330
A2B5
100
AcDbCellStyleMap
 90
        3
300
CELLSTYLE
  1
TABLEFORMAT_BEGIN
 90
        5
170
     1
 91
        0
 92
    32768
 62
   257
 93
        1
300
CONTENTFORMAT
  1
CONTENTFORMAT_BEGIN
 90
        0
 91
        0
 92
      512
 93
        0
300

 40
0.0
140
1.0
 94
        5
 62
     0
340
10
144
6.0
309
CONTENTFORMAT_END
171
     1
301
MARGIN
  1
CELLMARGIN_BEGIN
 40
1.5
 40
1.5
 40
1.5
 40
1.5
 40
0.18
 40
0.18
309
CELLMARGIN_END
 94
        6
 95
        1
302
GRIDFORMAT
  1
GRIDFORMAT_BEGIN
 90
        0
 91
        1
 62
     0
 92
       -2
340
0
 93
        0
 40
1.125
309
GRIDFORMAT_END
 95
        2
302
GRIDFORMAT
  1
GRIDFORMAT_BEGIN
 90
        0
 91
        1
 62
     0
 92
       -2
340
0
 93
        0
 40
1.125
309
GRIDFORMAT_END
 95
        4
302
GRIDFORMAT
  1
GRIDFORMAT_BEGIN
 90
        0
 91
        1
 62
     0
 92
       -2
340
0
 93
        0
 40
1.125
309
GRIDFORMAT_END
 95
        8
302
GRIDFORMAT
  1
GRIDFORMAT_BEGIN
 90
        0
 91
        1
 62
     0
 92
       -2
340
0
 93
        0
 40
1.125
309
GRIDFORMAT_END
 95
       16
302
GRIDFORMAT
  1
GRIDFORMAT_BEGIN
 90
        0
 91
        1
 62
     0
 92
       -2
340
0
 93
        0
 40
1.125
309
GRIDFORMAT_END
 95
       32
302
GRIDFORMAT
  1
GRIDFORMAT_BEGIN
 90
        0
 91
        1
 62
     0
 92
       -2
340
0
 93
        0
 40
1.125
309
GRIDFORMAT_END
309
TABLEFORMAT_END
  1
CELLSTYLE_BEGIN
 90
        1
 91
        1
300
_TITLE
309
CELLSTYLE_END
300
CELLSTYLE
  1
TABLEFORMAT_BEGIN
 90
        5
170
     1
 91
        0
 92
        0
 62
   257
 93
        1
300
CONTENTFORMAT
  1
CONTENTFORMAT_BEGIN
 90
        0
 91
        0
 92
      512
 93
        0
300

 40
0.0
140
1.0
 94
        5
 62
     0
340
10
144
4.5
309
CONTENTFORMAT_END
171
     1
301
MARGIN
  1
CELLMARGIN_BEGIN
 40
1.5
 40
1.5
 40
1.5
 40
1.5
 40
0.18
 40
0.18
309
CELLMARGIN_END
 94
        6
 95
        1
302
GRIDFORMAT
  1
GRIDFORMAT_BEGIN
 90
        0
 91
        1
 62
     0
 92
       -2
340
0
 93
        0
 40
1.125
309
GRIDFORMAT_END
 95
        2
302
GRIDFORMAT
  1
GRIDFORMAT_BEGIN
 90
        0
 91
        1
 62
     0
 92
       -2
340
0
 93
        0
 40
1.125
309
GRIDFORMAT_END
 95
        4
302
GRIDFORMAT
  1
GRIDFORMAT_BEGIN
 90
        0
 91
        1
 62
     0
 92
       -2
340
0
 93
        0
 40
1.125
309
GRIDFORMAT_END
 95
        8
302
GRIDFORMAT
  1
GRIDFORMAT_BEGIN
 90
        0
 91
        1
 62
     0
 92
       -2
340
0
 93
        0
 40
1.125
309
GRIDFORMAT_END
 95
       16
302
GRIDFORMAT
  1
GRIDFORMAT_BEGIN
 90
        0
 91
        1
 62
     0
 92
       -2
340
0
 93
        0
 40
1.125
309
GRIDFORMAT_END
 95
       32
302
GRIDFORMAT
  1
GRIDFORMAT_BEGIN
 90
        0
 91
        1
 62
     0
 92
       -2
340
0
 93
        0
 40
1.125
309
GRIDFORMAT_END
309
TABLEFORMAT_END
  1
CELLSTYLE_BEGIN
 90
        2
 91
        1
300
_HEADER
309
CELLSTYLE_END
300
CELLSTYLE
  1
TABLEFORMAT_BEGIN
 90
        5
170
     1
 91
        0
 92
        0
 62
   257
 93
        1
300
CONTENTFORMAT
  1
CONTENTFORMAT_BEGIN
 90
        0
 91
        0
 92
      512
 93
        0
300

 40
0.0
140
1.0
 94
        2
 62
     0
340
10
144
4.5
309
CONTENTFORMAT_END
171
     1
301
MARGIN
  1
CELLMARGIN_BEGIN
 40
1.5
 40
1.5
 40
1.5
 40
1.5
 40
0.18
 40
0.18
309
CELLMARGIN_END
 94
        6
 95
        1
302
GRIDFORMAT
  1
GRIDFORMAT_BEGIN
 90
        0
 91
        1
 62
     0
 92
       -2
340
0
 93
        0
 40
1.125
309
GRIDFORMAT_END
 95
        2
302
GRIDFORMAT
  1
GRIDFORMAT_BEGIN
 90
        0
 91
        1
 62
     0
 92
       -2
340
0
 93
        0
 40
1.125
309
GRIDFORMAT_END
 95
        4
302
GRIDFORMAT
  1
GRIDFORMAT_BEGIN
 90
        0
 91
        1
 62
     0
 92
       -2
340
0
 93
        0
 40
1.125
309
GRIDFORMAT_END
 95
        8
302
GRIDFORMAT
  1
GRIDFORMAT_BEGIN
 90
        0
 91
        1
 62
     0
 92
       -2
340
0
 93
        0
 40
1.125
309
GRIDFORMAT_END
 95
       16
302
GRIDFORMAT
  1
GRIDFORMAT_BEGIN
 90
        0
 91
        1
 62
     0
 92
       -2
340
0
 93
        0
 40
1.125
309
GRIDFORMAT_END
 95
       32
302
GRIDFORMAT
  1
GRIDFORMAT_BEGIN
 90
        0
 91
        1
 62
     0
 92
       -2
340
0
 93
        0
 40
1.125
309
GRIDFORMAT_END
309
TABLEFORMAT_END
  1
CELLSTYLE_BEGIN
 90
        3
 91
        2
300
_DATA
309
CELLSTYLE_END
  0
XRECORD
  5
D4B2
102
{ACAD_REACTORS
330
A2B5
102
}
330
A2B5
100
AcDbXrecord
280
     1
102
ACAD_ROUNDTRIP_PRE2007_TABLESTYLE
 90
      512
 91
        0
  1

 92
      512
 93
        0
  2

 94
      512
 95
        0
  3

  0
XRECORD
  5
D49D
102
{ACAD_REACTORS
330
D49C
102
}
330
D49C
100
AcDbXrecord
280
     1
102
RTVSPost2010Prop28
280
     1
102
RTVSPost2010PropOp28
 70
     1
102
RTVSPost2010Prop29
280
     1
102
RTVSPost2010PropOp29
 70
     1
102
RTVSPost2010Prop30
280
     0
102
RTVSPost2010PropOp30
 70
     1
102
RTVSPost2010Prop31
280
     0
102
RTVSPost2010PropOp31
 70
     1
102
RTVSPost2010Prop32
280
     0
102
RTVSPost2010PropOp32
 70
     1
102
RTVSPost2010Prop33
280
     0
102
RTVSPost2010PropOp33
 70
     1
102
RTVSPost2010Prop34
280
     0
102
RTVSPost2010PropOp34
 70
     1
102
RTVSPost2010Prop35
280
     0
102
RTVSPost2010PropOp35
 70
     1
102
RTVSPost2010Prop36
280
     0
102
RTVSPost2010PropOp36
 70
     1
102
RTVSPost2010Prop37
 90
       50
102
RTVSPost2010PropOp37
 70
     1
102
RTVSPost2010Prop38
140
0.0
102
RTVSPost2010PropOp38
 70
     1
102
RTVSPost2010Prop39
140
1.0
102
RTVSPost2010PropOp39
 70
     1
102
RTVSPost2010Prop40
 90
        0
102
RTVSPost2010PropOp40
 70
     1
102
RTVSPost2010Prop41ColorIndex
 90
       18
102
RTVSPost2010Prop41ColorRGB
 90
        0
102
RTVSPost2010PropOp41
 70
     1
102
RTVSPost2010Prop42
 90
       50
102
RTVSPost2010PropOp42
 70
     1
102
RTVSPost2010Prop43
 90
        3
102
RTVSPost2010PropOp43
 70
     1
102
RTVSPost2010Prop44ColorIndex
 90
        5
102
RTVSPost2010Prop44ColorRGB
 90
      255
102
RTVSPost2010PropOp44
 70
     1
102
RTVSPost2010Prop45
280
     0
102
RTVSPost2010PropOp45
 70
     1
102
RTVSPost2010Prop46
 90
       50
102
RTVSPost2010PropOp46
 70
     1
102
RTVSPost2010Prop47
 90
       50
102
RTVSPost2010PropOp47
 70
     1
102
RTVSPost2010Prop48
 90
       50
102
RTVSPost2010PropOp48
 70
     1
102
RTVSPost2010Prop49
280
     0
102
RTVSPost2010PropOp49
 70
     1
102
RTVSPost2010Prop50
 90
       50
102
RTVSPost2010PropOp50
 70
     1
102
RTVSPost2010Prop51ColorIndex
 90
      256
102
RTVSPost2010Prop51ColorRGB
 90
-16777216
102
RTVSPost2010PropOp51
 70
     0
102
RTVSPost2010Prop52
140
1.0
102
RTVSPost2010PropOp52
 70
     0
102
RTVSPost2010Prop53
 90
        2
102
RTVSPost2010PropOp53
 70
     1
102
RTVSPost2010Prop54
  1
strokes_ogs.tif
102
RTVSPost2010PropOp54
 70
     1
102
RTVSPost2010Prop55
280
     0
102
RTVSPost2010PropOp55
 70
     1
102
RTVSPost2010Prop56
140
1.0
102
RTVSPost2010PropOp56
 70
     1
102
RTVSPost2010Prop57
140
1.0
102
RTVSPost2010PropOp57
 70
     1
102
RTVSPropertyOp0
 70
     1
102
RTVSPropertyOp1
 70
     1
102
RTVSPropertyOp2
 70
     1
102
RTVSPropertyOp3
 70
     1
102
RTVSPropertyOp4
 70
     1
102
RTVSPropertyOp5
 70
     1
102
RTVSPropertyOp6
 70
     1
102
RTVSPropertyOp7
 70
     1
102
RTVSPropertyOp8
 70
     1
102
RTVSPropertyOp9
 70
     1
102
RTVSPropertyOp10
 70
     1
102
RTVSPropertyOp11
 70
     1
102
RTVSPropertyOp12
 70
     1
102
RTVSPropertyOp13
 70
     1
102
RTVSPropertyOp14
 70
     1
102
RTVSPropertyOp15
 70
     1
102
RTVSPropertyOp16
 70
     1
102
RTVSPropertyOp17
 70
     1
102
RTVSPropertyOp18
 70
     1
102
RTVSPropertyOp19
 70
     1
102
RTVSPropertyOp20
 70
     1
102
RTVSPropertyOp21
 70
     1
102
RTVSPropertyOp22
 70
     1
102
RTVSPropertyOp23
 70
     1
102
RTVSPropertyOp24
 70
     1
102
RTVSPropertyOp25
 70
     1
102
RTVSPropertyOp26
 70
     1
102
RTVSPropertyOp27
 70
     1
102
RTVSPropertyOp28
 70
     1
102
RTVSPropertyOp29
 70
     1
102
RTVSPropertyOp30
 70
     1
102
RTVSPropertyOp31
 70
     1
102
RTVSPropertyOp32
 70
     1
102
RTVSPropertyOp33
 70
     1
102
RTVSPropertyOp34
 70
     1
102
RTVSPropertyOp35
 70
     1
102
RTVSPropertyOp36
 70
     1
102
RTVSPropertyOp37
 70
     1
102
RTVSPropertyOp38
 70
     1
102
RTVSPropertyOp39
 70
     1
102
RTVSPropertyOp40
 70
     1
102
RTVSPropertyOp41
 70
     1
102
RTVSPropertyOp42
 70
     1
102
RTVSPropertyOp43
 70
     1
102
RTVSPropertyOp44
 70
     1
102
RTVSPropertyOp45
 70
     1
102
RTVSPropertyOp46
 70
     1
102
RTVSPropertyOp47
 70
     1
102
RTVSPropertyOp48
 70
     1
102
RTVSPropertyOp49
 70
     1
102
RTVSPropertyOp50
 70
     1
102
RTVSPropertyOp51
 70
     0
102
RTVSPropertyOp52
 70
     0
102
RTVSPropertyOp53
 70
     1
102
RTVSPropertyOp54
 70
     1
102
RTVSPropertyOp55
 70
     1
102
RTVSPropertyOp56
 70
     1
102
RTVSPropertyOp57
 70
     1
102
RTVSPropertyOp58
 70
     1
102
RTVSPropertyOp59
 70
     1
102
RTVSPropertyOp60
 70
     1
102
RTVSPropertyOp61
 70
     1
102
RTVSPropertyOp62
 70
     1
  0
XRECORD
  5
D4A1
102
{ACAD_REACTORS
330
D4A0
102
}
330
D4A0
100
AcDbXrecord
280
     1
102
RTVSPost2010Prop28
280
     0
102
RTVSPost2010PropOp28
 70
     1
102
RTVSPost2010Prop29
280
     1
102
RTVSPost2010PropOp29
 70
     1
102
RTVSPost2010Prop30
280
     1
102
RTVSPost2010PropOp30
 70
     1
102
RTVSPost2010Prop31
280
     0
102
RTVSPost2010PropOp31
 70
     1
102
RTVSPost2010Prop32
280
     0
102
RTVSPost2010PropOp32
 70
     1
102
RTVSPost2010Prop33
280
     0
102
RTVSPost2010PropOp33
 70
     1
102
RTVSPost2010Prop34
280
     0
102
RTVSPost2010PropOp34
 70
     1
102
RTVSPost2010Prop35
280
     0
102
RTVSPost2010PropOp35
 70
     1
102
RTVSPost2010Prop36
280
     0
102
RTVSPost2010PropOp36
 70
     1
102
RTVSPost2010Prop37
 90
       50
102
RTVSPost2010PropOp37
 70
     1
102
RTVSPost2010Prop38
140
0.0
102
RTVSPost2010PropOp38
 70
     1
102
RTVSPost2010Prop39
140
1.0
102
RTVSPost2010PropOp39
 70
     1
102
RTVSPost2010Prop40
 90
        0
102
RTVSPost2010PropOp40
 70
     1
102
RTVSPost2010Prop41ColorIndex
 90
       18
102
RTVSPost2010Prop41ColorRGB
 90
        0
102
RTVSPost2010PropOp41
 70
     1
102
RTVSPost2010Prop42
 90
       50
102
RTVSPost2010PropOp42
 70
     1
102
RTVSPost2010Prop43
 90
        3
102
RTVSPost2010PropOp43
 70
     1
102
RTVSPost2010Prop44ColorIndex
 90
        5
102
RTVSPost2010Prop44ColorRGB
 90
      255
102
RTVSPost2010PropOp44
 70
     1
102
RTVSPost2010Prop45
280
     0
102
RTVSPost2010PropOp45
 70
     1
102
RTVSPost2010Prop46
 90
       50
102
RTVSPost2010PropOp46
 70
     1
102
RTVSPost2010Prop47
 90
       50
102
RTVSPost2010PropOp47
 70
     1
102
RTVSPost2010Prop48
 90
       50
102
RTVSPost2010PropOp48
 70
     1
102
RTVSPost2010Prop49
280
     0
102
RTVSPost2010PropOp49
 70
     1
102
RTVSPost2010Prop50
 90
       50
102
RTVSPost2010PropOp50
 70
     1
102
RTVSPost2010Prop51ColorIndex
 90
      256
102
RTVSPost2010Prop51ColorRGB
 90
-16777216
102
RTVSPost2010PropOp51
 70
     0
102
RTVSPost2010Prop52
140
1.0
102
RTVSPost2010PropOp52
 70
     0
102
RTVSPost2010Prop53
 90
        2
102
RTVSPost2010PropOp53
 70
     1
102
RTVSPost2010Prop54
  1
strokes_ogs.tif
102
RTVSPost2010PropOp54
 70
     1
102
RTVSPost2010Prop55
280
     0
102
RTVSPost2010PropOp55
 70
     1
102
RTVSPost2010Prop56
140
1.0
102
RTVSPost2010PropOp56
 70
     1
102
RTVSPost2010Prop57
140
1.0
102
RTVSPost2010PropOp57
 70
     1
102
RTVSPropertyOp0
 70
     1
102
RTVSPropertyOp1
 70
     1
102
RTVSPropertyOp2
 70
     1
102
RTVSPropertyOp3
 70
     1
102
RTVSPropertyOp4
 70
     1
102
RTVSPropertyOp5
 70
     1
102
RTVSPropertyOp6
 70
     1
102
RTVSPropertyOp7
 70
     1
102
RTVSPropertyOp8
 70
     1
102
RTVSPropertyOp9
 70
     1
102
RTVSPropertyOp10
 70
     1
102
RTVSPropertyOp11
 70
     1
102
RTVSPropertyOp12
 70
     1
102
RTVSPropertyOp13
 70
     1
102
RTVSPropertyOp14
 70
     1
102
RTVSPropertyOp15
 70
     1
102
RTVSPropertyOp16
 70
     1
102
RTVSPropertyOp17
 70
     1
102
RTVSPropertyOp18
 70
     1
102
RTVSPropertyOp19
 70
     1
102
RTVSPropertyOp20
 70
     1
102
RTVSPropertyOp21
 70
     1
102
RTVSPropertyOp22
 70
     1
102
RTVSPropertyOp23
 70
     1
102
RTVSPropertyOp24
 70
     1
102
RTVSPropertyOp25
 70
     1
102
RTVSPropertyOp26
 70
     1
102
RTVSPropertyOp27
 70
     1
102
RTVSPropertyOp28
 70
     1
102
RTVSPropertyOp29
 70
     1
102
RTVSPropertyOp30
 70
     1
102
RTVSPropertyOp31
 70
     1
102
RTVSPropertyOp32
 70
     1
102
RTVSPropertyOp33
 70
     1
102
RTVSPropertyOp34
 70
     1
102
RTVSPropertyOp35
 70
     1
102
RTVSPropertyOp36
 70
     1
102
RTVSPropertyOp37
 70
     1
102
RTVSPropertyOp38
 70
     1
102
RTVSPropertyOp39
 70
     1
102
RTVSPropertyOp40
 70
     1
102
RTVSPropertyOp41
 70
     1
102
RTVSPropertyOp42
 70
     1
102
RTVSPropertyOp43
 70
     1
102
RTVSPropertyOp44
 70
     1
102
RTVSPropertyOp45
 70
     1
102
RTVSPropertyOp46
 70
     1
102
RTVSPropertyOp47
 70
     1
102
RTVSPropertyOp48
 70
     1
102
RTVSPropertyOp49
 70
     1
102
RTVSPropertyOp50
 70
     1
102
RTVSPropertyOp51
 70
     0
102
RTVSPropertyOp52
 70
     0
102
RTVSPropertyOp53
 70
     1
102
RTVSPropertyOp54
 70
     1
102
RTVSPropertyOp55
 70
     1
102
RTVSPropertyOp56
 70
     1
102
RTVSPropertyOp57
 70
     1
102
RTVSPropertyOp58
 70
     1
102
RTVSPropertyOp59
 70
     1
102
RTVSPropertyOp60
 70
     1
102
RTVSPropertyOp61
 70
     1
102
RTVSPropertyOp62
 70
     1
  0
XRECORD
  5
D49F
102
{ACAD_REACTORS
330
D49E
102
}
330
D49E
100
AcDbXrecord
280
     1
102
RTVSPost2010Prop28
280
     0
102
RTVSPost2010PropOp28
 70
     1
102
RTVSPost2010Prop29
280
     1
102
RTVSPost2010PropOp29
 70
     1
102
RTVSPost2010Prop30
280
     1
102
RTVSPost2010PropOp30
 70
     1
102
RTVSPost2010Prop31
280
     0
102
RTVSPost2010PropOp31
 70
     1
102
RTVSPost2010Prop32
280
     0
102
RTVSPost2010PropOp32
 70
     1
102
RTVSPost2010Prop33
280
     0
102
RTVSPost2010PropOp33
 70
     1
102
RTVSPost2010Prop34
280
     0
102
RTVSPost2010PropOp34
 70
     1
102
RTVSPost2010Prop35
280
     0
102
RTVSPost2010PropOp35
 70
     1
102
RTVSPost2010Prop36
280
     0
102
RTVSPost2010PropOp36
 70
     1
102
RTVSPost2010Prop37
 90
       50
102
RTVSPost2010PropOp37
 70
     1
102
RTVSPost2010Prop38
140
0.0
102
RTVSPost2010PropOp38
 70
     1
102
RTVSPost2010Prop39
140
1.0
102
RTVSPost2010PropOp39
 70
     1
102
RTVSPost2010Prop40
 90
        0
102
RTVSPost2010PropOp40
 70
     1
102
RTVSPost2010Prop41ColorIndex
 90
       18
102
RTVSPost2010Prop41ColorRGB
 90
        0
102
RTVSPost2010PropOp41
 70
     1
102
RTVSPost2010Prop42
 90
       50
102
RTVSPost2010PropOp42
 70
     1
102
RTVSPost2010Prop43
 90
        3
102
RTVSPost2010PropOp43
 70
     1
102
RTVSPost2010Prop44ColorIndex
 90
        5
102
RTVSPost2010Prop44ColorRGB
 90
      255
102
RTVSPost2010PropOp44
 70
     1
102
RTVSPost2010Prop45
280
     0
102
RTVSPost2010PropOp45
 70
     1
102
RTVSPost2010Prop46
 90
       50
102
RTVSPost2010PropOp46
 70
     1
102
RTVSPost2010Prop47
 90
       50
102
RTVSPost2010PropOp47
 70
     1
102
RTVSPost2010Prop48
 90
       50
102
RTVSPost2010PropOp48
 70
     1
102
RTVSPost2010Prop49
280
     0
102
RTVSPost2010PropOp49
 70
     1
102
RTVSPost2010Prop50
 90
       50
102
RTVSPost2010PropOp50
 70
     1
102
RTVSPost2010Prop51ColorIndex
 90
      256
102
RTVSPost2010Prop51ColorRGB
 90
-16777216
102
RTVSPost2010PropOp51
 70
     0
102
RTVSPost2010Prop52
140
1.0
102
RTVSPost2010PropOp52
 70
     0
102
RTVSPost2010Prop53
 90
        2
102
RTVSPost2010PropOp53
 70
     1
102
RTVSPost2010Prop54
  1
strokes_ogs.tif
102
RTVSPost2010PropOp54
 70
     1
102
RTVSPost2010Prop55
280
     0
102
RTVSPost2010PropOp55
 70
     1
102
RTVSPost2010Prop56
140
1.0
102
RTVSPost2010PropOp56
 70
     1
102
RTVSPost2010Prop57
140
1.0
102
RTVSPost2010PropOp57
 70
     1
102
RTVSPropertyOp0
 70
     1
102
RTVSPropertyOp1
 70
     1
102
RTVSPropertyOp2
 70
     1
102
RTVSPropertyOp3
 70
     1
102
RTVSPropertyOp4
 70
     1
102
RTVSPropertyOp5
 70
     1
102
RTVSPropertyOp6
 70
     1
102
RTVSPropertyOp7
 70
     1
102
RTVSPropertyOp8
 70
     1
102
RTVSPropertyOp9
 70
     1
102
RTVSPropertyOp10
 70
     1
102
RTVSPropertyOp11
 70
     1
102
RTVSPropertyOp12
 70
     1
102
RTVSPropertyOp13
 70
     1
102
RTVSPropertyOp14
 70
     1
102
RTVSPropertyOp15
 70
     1
102
RTVSPropertyOp16
 70
     1
102
RTVSPropertyOp17
 70
     1
102
RTVSPropertyOp18
 70
     1
102
RTVSPropertyOp19
 70
     1
102
RTVSPropertyOp20
 70
     1
102
RTVSPropertyOp21
 70
     1
102
RTVSPropertyOp22
 70
     1
102
RTVSPropertyOp23
 70
     1
102
RTVSPropertyOp24
 70
     1
102
RTVSPropertyOp25
 70
     1
102
RTVSPropertyOp26
 70
     1
102
RTVSPropertyOp27
 70
     1
102
RTVSPropertyOp28
 70
     1
102
RTVSPropertyOp29
 70
     1
102
RTVSPropertyOp30
 70
     1
102
RTVSPropertyOp31
 70
     1
102
RTVSPropertyOp32
 70
     1
102
RTVSPropertyOp33
 70
     1
102
RTVSPropertyOp34
 70
     1
102
RTVSPropertyOp35
 70
     1
102
RTVSPropertyOp36
 70
     1
102
RTVSPropertyOp37
 70
     1
102
RTVSPropertyOp38
 70
     1
102
RTVSPropertyOp39
 70
     1
102
RTVSPropertyOp40
 70
     1
102
RTVSPropertyOp41
 70
     1
102
RTVSPropertyOp42
 70
     1
102
RTVSPropertyOp43
 70
     1
102
RTVSPropertyOp44
 70
     1
102
RTVSPropertyOp45
 70
     1
102
RTVSPropertyOp46
 70
     1
102
RTVSPropertyOp47
 70
     1
102
RTVSPropertyOp48
 70
     1
102
RTVSPropertyOp49
 70
     1
102
RTVSPropertyOp50
 70
     1
102
RTVSPropertyOp51
 70
     0
102
RTVSPropertyOp52
 70
     0
102
RTVSPropertyOp53
 70
     1
102
RTVSPropertyOp54
 70
     1
102
RTVSPropertyOp55
 70
     1
102
RTVSPropertyOp56
 70
     1
102
RTVSPropertyOp57
 70
     1
102
RTVSPropertyOp58
 70
     1
102
RTVSPropertyOp59
 70
     1
102
RTVSPropertyOp60
 70
     1
102
RTVSPropertyOp61
 70
     1
102
RTVSPropertyOp62
 70
     1
  0
XRECORD
  5
D49B
102
{ACAD_REACTORS
330
D49A
102
}
330
D49A
100
AcDbXrecord
280
     1
102
RTVSPost2010Prop28
280
     0
102
RTVSPost2010PropOp28
 70
     1
102
RTVSPost2010Prop29
280
     1
102
RTVSPost2010PropOp29
 70
     1
102
RTVSPost2010Prop30
280
     1
102
RTVSPost2010PropOp30
 70
     1
102
RTVSPost2010Prop31
280
     0
102
RTVSPost2010PropOp31
 70
     1
102
RTVSPost2010Prop32
280
     0
102
RTVSPost2010PropOp32
 70
     1
102
RTVSPost2010Prop33
280
     0
102
RTVSPost2010PropOp33
 70
     1
102
RTVSPost2010Prop34
280
     0
102
RTVSPost2010PropOp34
 70
     1
102
RTVSPost2010Prop35
280
     0
102
RTVSPost2010PropOp35
 70
     1
102
RTVSPost2010Prop36
280
     0
102
RTVSPost2010PropOp36
 70
     1
102
RTVSPost2010Prop37
 90
       50
102
RTVSPost2010PropOp37
 70
     1
102
RTVSPost2010Prop38
140
0.0
102
RTVSPost2010PropOp38
 70
     1
102
RTVSPost2010Prop39
140
1.0
102
RTVSPost2010PropOp39
 70
     1
102
RTVSPost2010Prop40
 90
        0
102
RTVSPost2010PropOp40
 70
     1
102
RTVSPost2010Prop41ColorIndex
 90
       18
102
RTVSPost2010Prop41ColorRGB
 90
        0
102
RTVSPost2010PropOp41
 70
     1
102
RTVSPost2010Prop42
 90
       50
102
RTVSPost2010PropOp42
 70
     1
102
RTVSPost2010Prop43
 90
        3
102
RTVSPost2010PropOp43
 70
     1
102
RTVSPost2010Prop44ColorIndex
 90
        5
102
RTVSPost2010Prop44ColorRGB
 90
      255
102
RTVSPost2010PropOp44
 70
     1
102
RTVSPost2010Prop45
280
     0
102
RTVSPost2010PropOp45
 70
     1
102
RTVSPost2010Prop46
 90
       50
102
RTVSPost2010PropOp46
 70
     1
102
RTVSPost2010Prop47
 90
       50
102
RTVSPost2010PropOp47
 70
     1
102
RTVSPost2010Prop48
 90
       50
102
RTVSPost2010PropOp48
 70
     1
102
RTVSPost2010Prop49
280
     0
102
RTVSPost2010PropOp49
 70
     1
102
RTVSPost2010Prop50
 90
       50
102
RTVSPost2010PropOp50
 70
     1
102
RTVSPost2010Prop51ColorIndex
 90
      256
102
RTVSPost2010Prop51ColorRGB
 90
-16777216
102
RTVSPost2010PropOp51
 70
     0
102
RTVSPost2010Prop52
140
1.0
102
RTVSPost2010PropOp52
 70
     0
102
RTVSPost2010Prop53
 90
        2
102
RTVSPost2010PropOp53
 70
     1
102
RTVSPost2010Prop54
  1
strokes_ogs.tif
102
RTVSPost2010PropOp54
 70
     1
102
RTVSPost2010Prop55
280
     0
102
RTVSPost2010PropOp55
 70
     1
102
RTVSPost2010Prop56
140
1.0
102
RTVSPost2010PropOp56
 70
     1
102
RTVSPost2010Prop57
140
1.0
102
RTVSPost2010PropOp57
 70
     1
102
RTVSPropertyOp0
 70
     1
102
RTVSPropertyOp1
 70
     1
102
RTVSPropertyOp2
 70
     1
102
RTVSPropertyOp3
 70
     1
102
RTVSPropertyOp4
 70
     1
102
RTVSPropertyOp5
 70
     1
102
RTVSPropertyOp6
 70
     1
102
RTVSPropertyOp7
 70
     1
102
RTVSPropertyOp8
 70
     1
102
RTVSPropertyOp9
 70
     1
102
RTVSPropertyOp10
 70
     1
102
RTVSPropertyOp11
 70
     1
102
RTVSPropertyOp12
 70
     1
102
RTVSPropertyOp13
 70
     1
102
RTVSPropertyOp14
 70
     1
102
RTVSPropertyOp15
 70
     1
102
RTVSPropertyOp16
 70
     1
102
RTVSPropertyOp17
 70
     1
102
RTVSPropertyOp18
 70
     1
102
RTVSPropertyOp19
 70
     1
102
RTVSPropertyOp20
 70
     1
102
RTVSPropertyOp21
 70
     1
102
RTVSPropertyOp22
 70
     1
102
RTVSPropertyOp23
 70
     1
102
RTVSPropertyOp24
 70
     1
102
RTVSPropertyOp25
 70
     1
102
RTVSPropertyOp26
 70
     1
102
RTVSPropertyOp27
 70
     1
102
RTVSPropertyOp28
 70
     1
102
RTVSPropertyOp29
 70
     1
102
RTVSPropertyOp30
 70
     1
102
RTVSPropertyOp31
 70
     1
102
RTVSPropertyOp32
 70
     1
102
RTVSPropertyOp33
 70
     1
102
RTVSPropertyOp34
 70
     1
102
RTVSPropertyOp35
 70
     1
102
RTVSPropertyOp36
 70
     1
102
RTVSPropertyOp37
 70
     1
102
RTVSPropertyOp38
 70
     1
102
RTVSPropertyOp39
 70
     1
102
RTVSPropertyOp40
 70
     1
102
RTVSPropertyOp41
 70
     1
102
RTVSPropertyOp42
 70
     1
102
RTVSPropertyOp43
 70
     1
102
RTVSPropertyOp44
 70
     1
102
RTVSPropertyOp45
 70
     1
102
RTVSPropertyOp46
 70
     1
102
RTVSPropertyOp47
 70
     1
102
RTVSPropertyOp48
 70
     1
102
RTVSPropertyOp49
 70
     1
102
RTVSPropertyOp50
 70
     1
102
RTVSPropertyOp51
 70
     0
102
RTVSPropertyOp52
 70
     0
102
RTVSPropertyOp53
 70
     1
102
RTVSPropertyOp54
 70
     1
102
RTVSPropertyOp55
 70
     1
102
RTVSPropertyOp56
 70
     1
102
RTVSPropertyOp57
 70
     1
102
RTVSPropertyOp58
 70
     1
102
RTVSPropertyOp59
 70
     1
102
RTVSPropertyOp60
 70
     1
102
RTVSPropertyOp61
 70
     1
102
RTVSPropertyOp62
 70
     1
  0
XRECORD
  5
D4A9
102
{ACAD_REACTORS
330
D4A8
102
}
330
D4A8
100
AcDbXrecord
280
     1
102
RTVSPost2010Prop28
280
     0
102
RTVSPost2010PropOp28
 70
     1
102
RTVSPost2010Prop29
280
     1
102
RTVSPost2010PropOp29
 70
     1
102
RTVSPost2010Prop30
280
     1
102
RTVSPost2010PropOp30
 70
     1
102
RTVSPost2010Prop31
280
     0
102
RTVSPost2010PropOp31
 70
     1
102
RTVSPost2010Prop32
280
     0
102
RTVSPost2010PropOp32
 70
     1
102
RTVSPost2010Prop33
280
     0
102
RTVSPost2010PropOp33
 70
     1
102
RTVSPost2010Prop34
280
     0
102
RTVSPost2010PropOp34
 70
     1
102
RTVSPost2010Prop35
280
     0
102
RTVSPost2010PropOp35
 70
     1
102
RTVSPost2010Prop36
280
     0
102
RTVSPost2010PropOp36
 70
     1
102
RTVSPost2010Prop37
 90
       50
102
RTVSPost2010PropOp37
 70
     1
102
RTVSPost2010Prop38
140
0.0
102
RTVSPost2010PropOp38
 70
     1
102
RTVSPost2010Prop39
140
1.0
102
RTVSPost2010PropOp39
 70
     1
102
RTVSPost2010Prop40
 90
        0
102
RTVSPost2010PropOp40
 70
     1
102
RTVSPost2010Prop41ColorIndex
 90
       18
102
RTVSPost2010Prop41ColorRGB
 90
        0
102
RTVSPost2010PropOp41
 70
     1
102
RTVSPost2010Prop42
 90
       50
102
RTVSPost2010PropOp42
 70
     1
102
RTVSPost2010Prop43
 90
        3
102
RTVSPost2010PropOp43
 70
     1
102
RTVSPost2010Prop44ColorIndex
 90
        5
102
RTVSPost2010Prop44ColorRGB
 90
      255
102
RTVSPost2010PropOp44
 70
     1
102
RTVSPost2010Prop45
280
     0
102
RTVSPost2010PropOp45
 70
     1
102
RTVSPost2010Prop46
 90
       50
102
RTVSPost2010PropOp46
 70
     1
102
RTVSPost2010Prop47
 90
       50
102
RTVSPost2010PropOp47
 70
     1
102
RTVSPost2010Prop48
 90
       50
102
RTVSPost2010PropOp48
 70
     1
102
RTVSPost2010Prop49
280
     0
102
RTVSPost2010PropOp49
 70
     1
102
RTVSPost2010Prop50
 90
       50
102
RTVSPost2010PropOp50
 70
     1
102
RTVSPost2010Prop51ColorIndex
 90
      256
102
RTVSPost2010Prop51ColorRGB
 90
-16777216
102
RTVSPost2010PropOp51
 70
     0
102
RTVSPost2010Prop52
140
1.0
102
RTVSPost2010PropOp52
 70
     0
102
RTVSPost2010Prop53
 90
        2
102
RTVSPost2010PropOp53
 70
     1
102
RTVSPost2010Prop54
  1
strokes_ogs.tif
102
RTVSPost2010PropOp54
 70
     1
102
RTVSPost2010Prop55
280
     0
102
RTVSPost2010PropOp55
 70
     1
102
RTVSPost2010Prop56
140
1.0
102
RTVSPost2010PropOp56
 70
     1
102
RTVSPost2010Prop57
140
1.0
102
RTVSPost2010PropOp57
 70
     1
102
RTVSPropertyOp0
 70
     1
102
RTVSPropertyOp1
 70
     1
102
RTVSPropertyOp2
 70
     1
102
RTVSPropertyOp3
 70
     1
102
RTVSPropertyOp4
 70
     1
102
RTVSPropertyOp5
 70
     1
102
RTVSPropertyOp6
 70
     1
102
RTVSPropertyOp7
 70
     1
102
RTVSPropertyOp8
 70
     1
102
RTVSPropertyOp9
 70
     1
102
RTVSPropertyOp10
 70
     1
102
RTVSPropertyOp11
 70
     1
102
RTVSPropertyOp12
 70
     1
102
RTVSPropertyOp13
 70
     1
102
RTVSPropertyOp14
 70
     1
102
RTVSPropertyOp15
 70
     1
102
RTVSPropertyOp16
 70
     1
102
RTVSPropertyOp17
 70
     1
102
RTVSPropertyOp18
 70
     1
102
RTVSPropertyOp19
 70
     1
102
RTVSPropertyOp20
 70
     1
102
RTVSPropertyOp21
 70
     1
102
RTVSPropertyOp22
 70
     1
102
RTVSPropertyOp23
 70
     1
102
RTVSPropertyOp24
 70
     1
102
RTVSPropertyOp25
 70
     1
102
RTVSPropertyOp26
 70
     1
102
RTVSPropertyOp27
 70
     1
102
RTVSPropertyOp28
 70
     1
102
RTVSPropertyOp29
 70
     1
102
RTVSPropertyOp30
 70
     1
102
RTVSPropertyOp31
 70
     1
102
RTVSPropertyOp32
 70
     1
102
RTVSPropertyOp33
 70
     1
102
RTVSPropertyOp34
 70
     1
102
RTVSPropertyOp35
 70
     1
102
RTVSPropertyOp36
 70
     1
102
RTVSPropertyOp37
 70
     1
102
RTVSPropertyOp38
 70
     1
102
RTVSPropertyOp39
 70
     1
102
RTVSPropertyOp40
 70
     1
102
RTVSPropertyOp41
 70
     1
102
RTVSPropertyOp42
 70
     1
102
RTVSPropertyOp43
 70
     1
102
RTVSPropertyOp44
 70
     1
102
RTVSPropertyOp45
 70
     1
102
RTVSPropertyOp46
 70
     1
102
RTVSPropertyOp47
 70
     1
102
RTVSPropertyOp48
 70
     1
102
RTVSPropertyOp49
 70
     1
102
RTVSPropertyOp50
 70
     1
102
RTVSPropertyOp51
 70
     0
102
RTVSPropertyOp52
 70
     0
102
RTVSPropertyOp53
 70
     1
102
RTVSPropertyOp54
 70
     1
102
RTVSPropertyOp55
 70
     1
102
RTVSPropertyOp56
 70
     1
102
RTVSPropertyOp57
 70
     1
102
RTVSPropertyOp58
 70
     1
102
RTVSPropertyOp59
 70
     1
102
RTVSPropertyOp60
 70
     1
102
RTVSPropertyOp61
 70
     1
102
RTVSPropertyOp62
 70
     1
  0
XRECORD
  5
D4B1
102
{ACAD_REACTORS
330
D4B0
102
}
330
D4B0
100
AcDbXrecord
280
     1
102
RTVSPost2010Prop28
280
     0
102
RTVSPost2010PropOp28
 70
     1
102
RTVSPost2010Prop29
280
     1
102
RTVSPost2010PropOp29
 70
     1
102
RTVSPost2010Prop30
280
     1
102
RTVSPost2010PropOp30
 70
     1
102
RTVSPost2010Prop31
280
     0
102
RTVSPost2010PropOp31
 70
     1
102
RTVSPost2010Prop32
280
     0
102
RTVSPost2010PropOp32
 70
     1
102
RTVSPost2010Prop33
280
     0
102
RTVSPost2010PropOp33
 70
     1
102
RTVSPost2010Prop34
280
     0
102
RTVSPost2010PropOp34
 70
     1
102
RTVSPost2010Prop35
280
     0
102
RTVSPost2010PropOp35
 70
     1
102
RTVSPost2010Prop36
280
     0
102
RTVSPost2010PropOp36
 70
     1
102
RTVSPost2010Prop37
 90
       50
102
RTVSPost2010PropOp37
 70
     1
102
RTVSPost2010Prop38
140
0.0
102
RTVSPost2010PropOp38
 70
     1
102
RTVSPost2010Prop39
140
1.0
102
RTVSPost2010PropOp39
 70
     1
102
RTVSPost2010Prop40
 90
        0
102
RTVSPost2010PropOp40
 70
     1
102
RTVSPost2010Prop41ColorIndex
 90
       18
102
RTVSPost2010Prop41ColorRGB
 90
        0
102
RTVSPost2010PropOp41
 70
     1
102
RTVSPost2010Prop42
 90
       50
102
RTVSPost2010PropOp42
 70
     1
102
RTVSPost2010Prop43
 90
        3
102
RTVSPost2010PropOp43
 70
     1
102
RTVSPost2010Prop44ColorIndex
 90
        5
102
RTVSPost2010Prop44ColorRGB
 90
      255
102
RTVSPost2010PropOp44
 70
     1
102
RTVSPost2010Prop45
280
     0
102
RTVSPost2010PropOp45
 70
     1
102
RTVSPost2010Prop46
 90
       50
102
RTVSPost2010PropOp46
 70
     1
102
RTVSPost2010Prop47
 90
       50
102
RTVSPost2010PropOp47
 70
     1
102
RTVSPost2010Prop48
 90
       50
102
RTVSPost2010PropOp48
 70
     1
102
RTVSPost2010Prop49
280
     0
102
RTVSPost2010PropOp49
 70
     1
102
RTVSPost2010Prop50
 90
       50
102
RTVSPost2010PropOp50
 70
     1
102
RTVSPost2010Prop51ColorIndex
 90
      256
102
RTVSPost2010Prop51ColorRGB
 90
-16777216
102
RTVSPost2010PropOp51
 70
     0
102
RTVSPost2010Prop52
140
1.0
102
RTVSPost2010PropOp52
 70
     0
102
RTVSPost2010Prop53
 90
        2
102
RTVSPost2010PropOp53
 70
     1
102
RTVSPost2010Prop54
  1
strokes_ogs.tif
102
RTVSPost2010PropOp54
 70
     1
102
RTVSPost2010Prop55
280
     0
102
RTVSPost2010PropOp55
 70
     1
102
RTVSPost2010Prop56
140
1.0
102
RTVSPost2010PropOp56
 70
     1
102
RTVSPost2010Prop57
140
1.0
102
RTVSPost2010PropOp57
 70
     1
102
RTVSPropertyOp0
 70
     1
102
RTVSPropertyOp1
 70
     1
102
RTVSPropertyOp2
 70
     1
102
RTVSPropertyOp3
 70
     1
102
RTVSPropertyOp4
 70
     1
102
RTVSPropertyOp5
 70
     1
102
RTVSPropertyOp6
 70
     1
102
RTVSPropertyOp7
 70
     1
102
RTVSPropertyOp8
 70
     1
102
RTVSPropertyOp9
 70
     1
102
RTVSPropertyOp10
 70
     1
102
RTVSPropertyOp11
 70
     1
102
RTVSPropertyOp12
 70
     1
102
RTVSPropertyOp13
 70
     1
102
RTVSPropertyOp14
 70
     1
102
RTVSPropertyOp15
 70
     1
102
RTVSPropertyOp16
 70
     1
102
RTVSPropertyOp17
 70
     1
102
RTVSPropertyOp18
 70
     1
102
RTVSPropertyOp19
 70
     1
102
RTVSPropertyOp20
 70
     1
102
RTVSPropertyOp21
 70
     1
102
RTVSPropertyOp22
 70
     1
102
RTVSPropertyOp23
 70
     1
102
RTVSPropertyOp24
 70
     1
102
RTVSPropertyOp25
 70
     1
102
RTVSPropertyOp26
 70
     1
102
RTVSPropertyOp27
 70
     1
102
RTVSPropertyOp28
 70
     1
102
RTVSPropertyOp29
 70
     1
102
RTVSPropertyOp30
 70
     1
102
RTVSPropertyOp31
 70
     1
102
RTVSPropertyOp32
 70
     1
102
RTVSPropertyOp33
 70
     1
102
RTVSPropertyOp34
 70
     1
102
RTVSPropertyOp35
 70
     1
102
RTVSPropertyOp36
 70
     1
102
RTVSPropertyOp37
 70
     1
102
RTVSPropertyOp38
 70
     1
102
RTVSPropertyOp39
 70
     1
102
RTVSPropertyOp40
 70
     1
102
RTVSPropertyOp41
 70
     1
102
RTVSPropertyOp42
 70
     1
102
RTVSPropertyOp43
 70
     1
102
RTVSPropertyOp44
 70
     1
102
RTVSPropertyOp45
 70
     1
102
RTVSPropertyOp46
 70
     1
102
RTVSPropertyOp47
 70
     1
102
RTVSPropertyOp48
 70
     1
102
RTVSPropertyOp49
 70
     1
102
RTVSPropertyOp50
 70
     1
102
RTVSPropertyOp51
 70
     0
102
RTVSPropertyOp52
 70
     0
102
RTVSPropertyOp53
 70
     1
102
RTVSPropertyOp54
 70
     1
102
RTVSPropertyOp55
 70
     1
102
RTVSPropertyOp56
 70
     1
102
RTVSPropertyOp57
 70
     1
102
RTVSPropertyOp58
 70
     1
102
RTVSPropertyOp59
 70
     1
102
RTVSPropertyOp60
 70
     1
102
RTVSPropertyOp61
 70
     1
102
RTVSPropertyOp62
 70
     1
  0
XRECORD
  5
D4A3
102
{ACAD_REACTORS
330
D4A2
102
}
330
D4A2
100
AcDbXrecord
280
     1
102
RTVSPost2010Prop28
280
     0
102
RTVSPost2010PropOp28
 70
     1
102
RTVSPost2010Prop29
280
     1
102
RTVSPost2010PropOp29
 70
     1
102
RTVSPost2010Prop30
280
     1
102
RTVSPost2010PropOp30
 70
     1
102
RTVSPost2010Prop31
280
     0
102
RTVSPost2010PropOp31
 70
     1
102
RTVSPost2010Prop32
280
     0
102
RTVSPost2010PropOp32
 70
     1
102
RTVSPost2010Prop33
280
     0
102
RTVSPost2010PropOp33
 70
     1
102
RTVSPost2010Prop34
280
     0
102
RTVSPost2010PropOp34
 70
     1
102
RTVSPost2010Prop35
280
     0
102
RTVSPost2010PropOp35
 70
     1
102
RTVSPost2010Prop36
280
     0
102
RTVSPost2010PropOp36
 70
     1
102
RTVSPost2010Prop37
 90
       50
102
RTVSPost2010PropOp37
 70
     1
102
RTVSPost2010Prop38
140
0.0
102
RTVSPost2010PropOp38
 70
     1
102
RTVSPost2010Prop39
140
1.0
102
RTVSPost2010PropOp39
 70
     1
102
RTVSPost2010Prop40
 90
        0
102
RTVSPost2010PropOp40
 70
     1
102
RTVSPost2010Prop41ColorIndex
 90
       18
102
RTVSPost2010Prop41ColorRGB
 90
        0
102
RTVSPost2010PropOp41
 70
     1
102
RTVSPost2010Prop42
 90
       50
102
RTVSPost2010PropOp42
 70
     1
102
RTVSPost2010Prop43
 90
        3
102
RTVSPost2010PropOp43
 70
     1
102
RTVSPost2010Prop44ColorIndex
 90
        5
102
RTVSPost2010Prop44ColorRGB
 90
      255
102
RTVSPost2010PropOp44
 70
     1
102
RTVSPost2010Prop45
280
     0
102
RTVSPost2010PropOp45
 70
     1
102
RTVSPost2010Prop46
 90
       50
102
RTVSPost2010PropOp46
 70
     1
102
RTVSPost2010Prop47
 90
       50
102
RTVSPost2010PropOp47
 70
     1
102
RTVSPost2010Prop48
 90
       50
102
RTVSPost2010PropOp48
 70
     1
102
RTVSPost2010Prop49
280
     0
102
RTVSPost2010PropOp49
 70
     1
102
RTVSPost2010Prop50
 90
       50
102
RTVSPost2010PropOp50
 70
     1
102
RTVSPost2010Prop51ColorIndex
 90
      256
102
RTVSPost2010Prop51ColorRGB
 90
-16777216
102
RTVSPost2010PropOp51
 70
     0
102
RTVSPost2010Prop52
140
1.0
102
RTVSPost2010PropOp52
 70
     0
102
RTVSPost2010Prop53
 90
        2
102
RTVSPost2010PropOp53
 70
     1
102
RTVSPost2010Prop54
  1
strokes_ogs.tif
102
RTVSPost2010PropOp54
 70
     1
102
RTVSPost2010Prop55
280
     0
102
RTVSPost2010PropOp55
 70
     1
102
RTVSPost2010Prop56
140
1.0
102
RTVSPost2010PropOp56
 70
     1
102
RTVSPost2010Prop57
140
1.0
102
RTVSPost2010PropOp57
 70
     1
102
RTVSPropertyOp0
 70
     1
102
RTVSPropertyOp1
 70
     1
102
RTVSPropertyOp2
 70
     1
102
RTVSPropertyOp3
 70
     1
102
RTVSPropertyOp4
 70
     1
102
RTVSPropertyOp5
 70
     1
102
RTVSPropertyOp6
 70
     1
102
RTVSPropertyOp7
 70
     1
102
RTVSPropertyOp8
 70
     1
102
RTVSPropertyOp9
 70
     1
102
RTVSPropertyOp10
 70
     1
102
RTVSPropertyOp11
 70
     1
102
RTVSPropertyOp12
 70
     1
102
RTVSPropertyOp13
 70
     1
102
RTVSPropertyOp14
 70
     1
102
RTVSPropertyOp15
 70
     1
102
RTVSPropertyOp16
 70
     1
102
RTVSPropertyOp17
 70
     1
102
RTVSPropertyOp18
 70
     1
102
RTVSPropertyOp19
 70
     1
102
RTVSPropertyOp20
 70
     1
102
RTVSPropertyOp21
 70
     1
102
RTVSPropertyOp22
 70
     1
102
RTVSPropertyOp23
 70
     1
102
RTVSPropertyOp24
 70
     1
102
RTVSPropertyOp25
 70
     1
102
RTVSPropertyOp26
 70
     1
102
RTVSPropertyOp27
 70
     1
102
RTVSPropertyOp28
 70
     1
102
RTVSPropertyOp29
 70
     1
102
RTVSPropertyOp30
 70
     1
102
RTVSPropertyOp31
 70
     1
102
RTVSPropertyOp32
 70
     1
102
RTVSPropertyOp33
 70
     1
102
RTVSPropertyOp34
 70
     1
102
RTVSPropertyOp35
 70
     1
102
RTVSPropertyOp36
 70
     1
102
RTVSPropertyOp37
 70
     1
102
RTVSPropertyOp38
 70
     1
102
RTVSPropertyOp39
 70
     1
102
RTVSPropertyOp40
 70
     1
102
RTVSPropertyOp41
 70
     1
102
RTVSPropertyOp42
 70
     1
102
RTVSPropertyOp43
 70
     1
102
RTVSPropertyOp44
 70
     1
102
RTVSPropertyOp45
 70
     1
102
RTVSPropertyOp46
 70
     1
102
RTVSPropertyOp47
 70
     1
102
RTVSPropertyOp48
 70
     1
102
RTVSPropertyOp49
 70
     1
102
RTVSPropertyOp50
 70
     1
102
RTVSPropertyOp51
 70
     0
102
RTVSPropertyOp52
 70
     0
102
RTVSPropertyOp53
 70
     1
102
RTVSPropertyOp54
 70
     1
102
RTVSPropertyOp55
 70
     1
102
RTVSPropertyOp56
 70
     1
102
RTVSPropertyOp57
 70
     1
102
RTVSPropertyOp58
 70
     1
102
RTVSPropertyOp59
 70
     1
102
RTVSPropertyOp60
 70
     1
102
RTVSPropertyOp61
 70
     1
102
RTVSPropertyOp62
 70
     1
  0
XRECORD
  5
D4A7
102
{ACAD_REACTORS
330
D4A6
102
}
330
D4A6
100
AcDbXrecord
280
     1
102
RTVSPost2010Prop28
280
     0
102
RTVSPost2010PropOp28
 70
     1
102
RTVSPost2010Prop29
280
     1
102
RTVSPost2010PropOp29
 70
     1
102
RTVSPost2010Prop30
280
     1
102
RTVSPost2010PropOp30
 70
     1
102
RTVSPost2010Prop31
280
     0
102
RTVSPost2010PropOp31
 70
     1
102
RTVSPost2010Prop32
280
     0
102
RTVSPost2010PropOp32
 70
     1
102
RTVSPost2010Prop33
280
     0
102
RTVSPost2010PropOp33
 70
     1
102
RTVSPost2010Prop34
280
     0
102
RTVSPost2010PropOp34
 70
     1
102
RTVSPost2010Prop35
280
     0
102
RTVSPost2010PropOp35
 70
     1
102
RTVSPost2010Prop36
280
     0
102
RTVSPost2010PropOp36
 70
     1
102
RTVSPost2010Prop37
 90
       50
102
RTVSPost2010PropOp37
 70
     1
102
RTVSPost2010Prop38
140
0.0
102
RTVSPost2010PropOp38
 70
     1
102
RTVSPost2010Prop39
140
1.0
102
RTVSPost2010PropOp39
 70
     1
102
RTVSPost2010Prop40
 90
        0
102
RTVSPost2010PropOp40
 70
     1
102
RTVSPost2010Prop41ColorIndex
 90
       18
102
RTVSPost2010Prop41ColorRGB
 90
        0
102
RTVSPost2010PropOp41
 70
     1
102
RTVSPost2010Prop42
 90
       50
102
RTVSPost2010PropOp42
 70
     1
102
RTVSPost2010Prop43
 90
        3
102
RTVSPost2010PropOp43
 70
     1
102
RTVSPost2010Prop44ColorIndex
 90
        5
102
RTVSPost2010Prop44ColorRGB
 90
      255
102
RTVSPost2010PropOp44
 70
     1
102
RTVSPost2010Prop45
280
     0
102
RTVSPost2010PropOp45
 70
     1
102
RTVSPost2010Prop46
 90
       50
102
RTVSPost2010PropOp46
 70
     1
102
RTVSPost2010Prop47
 90
       50
102
RTVSPost2010PropOp47
 70
     1
102
RTVSPost2010Prop48
 90
       50
102
RTVSPost2010PropOp48
 70
     1
102
RTVSPost2010Prop49
280
     0
102
RTVSPost2010PropOp49
 70
     1
102
RTVSPost2010Prop50
 90
       50
102
RTVSPost2010PropOp50
 70
     1
102
RTVSPost2010Prop51ColorIndex
 90
      256
102
RTVSPost2010Prop51ColorRGB
 90
-16777216
102
RTVSPost2010PropOp51
 70
     0
102
RTVSPost2010Prop52
140
1.0
102
RTVSPost2010PropOp52
 70
     0
102
RTVSPost2010Prop53
 90
        2
102
RTVSPost2010PropOp53
 70
     1
102
RTVSPost2010Prop54
  1
strokes_ogs.tif
102
RTVSPost2010PropOp54
 70
     1
102
RTVSPost2010Prop55
280
     0
102
RTVSPost2010PropOp55
 70
     1
102
RTVSPost2010Prop56
140
1.0
102
RTVSPost2010PropOp56
 70
     1
102
RTVSPost2010Prop57
140
1.0
102
RTVSPost2010PropOp57
 70
     1
102
RTVSPropertyOp0
 70
     1
102
RTVSPropertyOp1
 70
     1
102
RTVSPropertyOp2
 70
     1
102
RTVSPropertyOp3
 70
     1
102
RTVSPropertyOp4
 70
     1
102
RTVSPropertyOp5
 70
     1
102
RTVSPropertyOp6
 70
     1
102
RTVSPropertyOp7
 70
     1
102
RTVSPropertyOp8
 70
     1
102
RTVSPropertyOp9
 70
     1
102
RTVSPropertyOp10
 70
     1
102
RTVSPropertyOp11
 70
     1
102
RTVSPropertyOp12
 70
     1
102
RTVSPropertyOp13
 70
     1
102
RTVSPropertyOp14
 70
     1
102
RTVSPropertyOp15
 70
     1
102
RTVSPropertyOp16
 70
     1
102
RTVSPropertyOp17
 70
     1
102
RTVSPropertyOp18
 70
     1
102
RTVSPropertyOp19
 70
     1
102
RTVSPropertyOp20
 70
     1
102
RTVSPropertyOp21
 70
     1
102
RTVSPropertyOp22
 70
     1
102
RTVSPropertyOp23
 70
     1
102
RTVSPropertyOp24
 70
     1
102
RTVSPropertyOp25
 70
     1
102
RTVSPropertyOp26
 70
     1
102
RTVSPropertyOp27
 70
     1
102
RTVSPropertyOp28
 70
     1
102
RTVSPropertyOp29
 70
     1
102
RTVSPropertyOp30
 70
     1
102
RTVSPropertyOp31
 70
     1
102
RTVSPropertyOp32
 70
     1
102
RTVSPropertyOp33
 70
     1
102
RTVSPropertyOp34
 70
     1
102
RTVSPropertyOp35
 70
     1
102
RTVSPropertyOp36
 70
     1
102
RTVSPropertyOp37
 70
     1
102
RTVSPropertyOp38
 70
     1
102
RTVSPropertyOp39
 70
     1
102
RTVSPropertyOp40
 70
     1
102
RTVSPropertyOp41
 70
     1
102
RTVSPropertyOp42
 70
     1
102
RTVSPropertyOp43
 70
     1
102
RTVSPropertyOp44
 70
     1
102
RTVSPropertyOp45
 70
     1
102
RTVSPropertyOp46
 70
     1
102
RTVSPropertyOp47
 70
     1
102
RTVSPropertyOp48
 70
     1
102
RTVSPropertyOp49
 70
     1
102
RTVSPropertyOp50
 70
     1
102
RTVSPropertyOp51
 70
     0
102
RTVSPropertyOp52
 70
     0
102
RTVSPropertyOp53
 70
     1
102
RTVSPropertyOp54
 70
     1
102
RTVSPropertyOp55
 70
     1
102
RTVSPropertyOp56
 70
     1
102
RTVSPropertyOp57
 70
     1
102
RTVSPropertyOp58
 70
     1
102
RTVSPropertyOp59
 70
     1
102
RTVSPropertyOp60
 70
     1
102
RTVSPropertyOp61
 70
     1
102
RTVSPropertyOp62
 70
     1
  0
XRECORD
  5
D4C6
102
{ACAD_REACTORS
330
D4C5
102
}
330
D4C5
100
AcDbXrecord
280
     1
102
RTVSPost2010Prop28
280
     0
102
RTVSPost2010PropOp28
 70
     1
102
RTVSPost2010Prop29
280
     1
102
RTVSPost2010PropOp29
 70
     1
102
RTVSPost2010Prop30
280
     1
102
RTVSPost2010PropOp30
 70
     1
102
RTVSPost2010Prop31
280
     0
102
RTVSPost2010PropOp31
 70
     1
102
RTVSPost2010Prop32
280
     0
102
RTVSPost2010PropOp32
 70
     1
102
RTVSPost2010Prop33
280
     0
102
RTVSPost2010PropOp33
 70
     1
102
RTVSPost2010Prop34
280
     0
102
RTVSPost2010PropOp34
 70
     1
102
RTVSPost2010Prop35
280
     0
102
RTVSPost2010PropOp35
 70
     1
102
RTVSPost2010Prop36
280
     0
102
RTVSPost2010PropOp36
 70
     1
102
RTVSPost2010Prop37
 90
       50
102
RTVSPost2010PropOp37
 70
     0
102
RTVSPost2010Prop38
140
0.0
102
RTVSPost2010PropOp38
 70
     0
102
RTVSPost2010Prop39
140
1.0
102
RTVSPost2010PropOp39
 70
     0
102
RTVSPost2010Prop40
 90
        0
102
RTVSPost2010PropOp40
 70
     0
102
RTVSPost2010Prop41ColorIndex
 90
       18
102
RTVSPost2010Prop41ColorRGB
 90
        0
102
RTVSPost2010PropOp41
 70
     0
102
RTVSPost2010Prop42
 90
       50
102
RTVSPost2010PropOp42
 70
     0
102
RTVSPost2010Prop43
 90
        3
102
RTVSPost2010PropOp43
 70
     0
102
RTVSPost2010Prop44ColorIndex
 90
        5
102
RTVSPost2010Prop44ColorRGB
 90
      255
102
RTVSPost2010PropOp44
 70
     0
102
RTVSPost2010Prop45
280
     0
102
RTVSPost2010PropOp45
 70
     1
102
RTVSPost2010Prop46
 90
       50
102
RTVSPost2010PropOp46
 70
     0
102
RTVSPost2010Prop47
 90
       50
102
RTVSPost2010PropOp47
 70
     0
102
RTVSPost2010Prop48
 90
       50
102
RTVSPost2010PropOp48
 70
     0
102
RTVSPost2010Prop49
280
     0
102
RTVSPost2010PropOp49
 70
     1
102
RTVSPost2010Prop50
 90
       50
102
RTVSPost2010PropOp50
 70
     0
102
RTVSPost2010Prop51ColorIndex
 90
      256
102
RTVSPost2010Prop51ColorRGB
 90
-16777216
102
RTVSPost2010PropOp51
 70
     0
102
RTVSPost2010Prop52
140
1.0
102
RTVSPost2010PropOp52
 70
     0
102
RTVSPost2010Prop53
 90
        2
102
RTVSPost2010PropOp53
 70
     0
102
RTVSPost2010Prop54
  1
strokes_ogs.tif
102
RTVSPost2010PropOp54
 70
     0
102
RTVSPost2010Prop55
280
     0
102
RTVSPost2010PropOp55
 70
     1
102
RTVSPost2010Prop56
140
1.0
102
RTVSPost2010PropOp56
 70
     0
102
RTVSPost2010Prop57
140
1.0
102
RTVSPost2010PropOp57
 70
     0
102
RTVSPropertyOp0
 70
     0
102
RTVSPropertyOp1
 70
     0
102
RTVSPropertyOp2
 70
     0
102
RTVSPropertyOp3
 70
     0
102
RTVSPropertyOp4
 70
     0
102
RTVSPropertyOp5
 70
     0
102
RTVSPropertyOp6
 70
     0
102
RTVSPropertyOp7
 70
     0
102
RTVSPropertyOp8
 70
     0
102
RTVSPropertyOp9
 70
     0
102
RTVSPropertyOp10
 70
     0
102
RTVSPropertyOp11
 70
     0
102
RTVSPropertyOp12
 70
     0
102
RTVSPropertyOp13
 70
     0
102
RTVSPropertyOp14
 70
     2
102
RTVSPropertyOp15
 70
     0
102
RTVSPropertyOp16
 70
     0
102
RTVSPropertyOp17
 70
     0
102
RTVSPropertyOp18
 70
     0
102
RTVSPropertyOp19
 70
     0
102
RTVSPropertyOp20
 70
     0
102
RTVSPropertyOp21
 70
     0
102
RTVSPropertyOp22
 70
     0
102
RTVSPropertyOp23
 70
     0
102
RTVSPropertyOp24
 70
     0
102
RTVSPropertyOp25
 70
     0
102
RTVSPropertyOp26
 70
     0
102
RTVSPropertyOp27
 70
     0
102
RTVSPropertyOp28
 70
     1
102
RTVSPropertyOp29
 70
     1
102
RTVSPropertyOp30
 70
     1
102
RTVSPropertyOp31
 70
     1
102
RTVSPropertyOp32
 70
     1
102
RTVSPropertyOp33
 70
     1
102
RTVSPropertyOp34
 70
     1
102
RTVSPropertyOp35
 70
     1
102
RTVSPropertyOp36
 70
     1
102
RTVSPropertyOp37
 70
     0
102
RTVSPropertyOp38
 70
     0
102
RTVSPropertyOp39
 70
     0
102
RTVSPropertyOp40
 70
     0
102
RTVSPropertyOp41
 70
     0
102
RTVSPropertyOp42
 70
     0
102
RTVSPropertyOp43
 70
     0
102
RTVSPropertyOp44
 70
     0
102
RTVSPropertyOp45
 70
     1
102
RTVSPropertyOp46
 70
     0
102
RTVSPropertyOp47
 70
     0
102
RTVSPropertyOp48
 70
     0
102
RTVSPropertyOp49
 70
     1
102
RTVSPropertyOp50
 70
     0
102
RTVSPropertyOp51
 70
     0
102
RTVSPropertyOp52
 70
     0
102
RTVSPropertyOp53
 70
     0
102
RTVSPropertyOp54
 70
     0
102
RTVSPropertyOp55
 70
     1
102
RTVSPropertyOp56
 70
     0
102
RTVSPropertyOp57
 70
     0
102
RTVSPropertyOp58
 70
     0
102
RTVSPropertyOp59
 70
     0
102
RTVSPropertyOp60
 70
     0
102
RTVSPropertyOp61
 70
     0
102
RTVSPropertyOp62
 70
     0
  0
XRECORD
  5
D4AF
102
{ACAD_REACTORS
330
D4AE
102
}
330
D4AE
100
AcDbXrecord
280
     1
102
RTVSPost2010Prop28
280
     0
102
RTVSPost2010PropOp28
 70
     1
102
RTVSPost2010Prop29
280
     1
102
RTVSPost2010PropOp29
 70
     1
102
RTVSPost2010Prop30
280
     1
102
RTVSPost2010PropOp30
 70
     1
102
RTVSPost2010Prop31
280
     0
102
RTVSPost2010PropOp31
 70
     1
102
RTVSPost2010Prop32
280
     0
102
RTVSPost2010PropOp32
 70
     1
102
RTVSPost2010Prop33
280
     0
102
RTVSPost2010PropOp33
 70
     1
102
RTVSPost2010Prop34
280
     0
102
RTVSPost2010PropOp34
 70
     1
102
RTVSPost2010Prop35
280
     0
102
RTVSPost2010PropOp35
 70
     1
102
RTVSPost2010Prop36
280
     0
102
RTVSPost2010PropOp36
 70
     1
102
RTVSPost2010Prop37
 90
       50
102
RTVSPost2010PropOp37
 70
     1
102
RTVSPost2010Prop38
140
0.0
102
RTVSPost2010PropOp38
 70
     1
102
RTVSPost2010Prop39
140
1.0
102
RTVSPost2010PropOp39
 70
     1
102
RTVSPost2010Prop40
 90
        0
102
RTVSPost2010PropOp40
 70
     1
102
RTVSPost2010Prop41ColorIndex
 90
       18
102
RTVSPost2010Prop41ColorRGB
 90
        0
102
RTVSPost2010PropOp41
 70
     1
102
RTVSPost2010Prop42
 90
       50
102
RTVSPost2010PropOp42
 70
     1
102
RTVSPost2010Prop43
 90
        3
102
RTVSPost2010PropOp43
 70
     1
102
RTVSPost2010Prop44ColorIndex
 90
        5
102
RTVSPost2010Prop44ColorRGB
 90
      255
102
RTVSPost2010PropOp44
 70
     1
102
RTVSPost2010Prop45
280
     0
102
RTVSPost2010PropOp45
 70
     1
102
RTVSPost2010Prop46
 90
       50
102
RTVSPost2010PropOp46
 70
     1
102
RTVSPost2010Prop47
 90
       50
102
RTVSPost2010PropOp47
 70
     1
102
RTVSPost2010Prop48
 90
       50
102
RTVSPost2010PropOp48
 70
     1
102
RTVSPost2010Prop49
280
     0
102
RTVSPost2010PropOp49
 70
     1
102
RTVSPost2010Prop50
 90
       50
102
RTVSPost2010PropOp50
 70
     1
102
RTVSPost2010Prop51ColorIndex
 90
      256
102
RTVSPost2010Prop51ColorRGB
 90
-16777216
102
RTVSPost2010PropOp51
 70
     0
102
RTVSPost2010Prop52
140
1.0
102
RTVSPost2010PropOp52
 70
     0
102
RTVSPost2010Prop53
 90
        2
102
RTVSPost2010PropOp53
 70
     1
102
RTVSPost2010Prop54
  1
strokes_ogs.tif
102
RTVSPost2010PropOp54
 70
     1
102
RTVSPost2010Prop55
280
     0
102
RTVSPost2010PropOp55
 70
     1
102
RTVSPost2010Prop56
140
1.0
102
RTVSPost2010PropOp56
 70
     1
102
RTVSPost2010Prop57
140
1.0
102
RTVSPost2010PropOp57
 70
     1
102
RTVSPropertyOp0
 70
     1
102
RTVSPropertyOp1
 70
     1
102
RTVSPropertyOp2
 70
     1
102
RTVSPropertyOp3
 70
     1
102
RTVSPropertyOp4
 70
     1
102
RTVSPropertyOp5
 70
     1
102
RTVSPropertyOp6
 70
     1
102
RTVSPropertyOp7
 70
     1
102
RTVSPropertyOp8
 70
     1
102
RTVSPropertyOp9
 70
     1
102
RTVSPropertyOp10
 70
     1
102
RTVSPropertyOp11
 70
     1
102
RTVSPropertyOp12
 70
     1
102
RTVSPropertyOp13
 70
     1
102
RTVSPropertyOp14
 70
     1
102
RTVSPropertyOp15
 70
     1
102
RTVSPropertyOp16
 70
     1
102
RTVSPropertyOp17
 70
     1
102
RTVSPropertyOp18
 70
     1
102
RTVSPropertyOp19
 70
     1
102
RTVSPropertyOp20
 70
     1
102
RTVSPropertyOp21
 70
     1
102
RTVSPropertyOp22
 70
     1
102
RTVSPropertyOp23
 70
     1
102
RTVSPropertyOp24
 70
     1
102
RTVSPropertyOp25
 70
     1
102
RTVSPropertyOp26
 70
     1
102
RTVSPropertyOp27
 70
     1
102
RTVSPropertyOp28
 70
     1
102
RTVSPropertyOp29
 70
     1
102
RTVSPropertyOp30
 70
     1
102
RTVSPropertyOp31
 70
     1
102
RTVSPropertyOp32
 70
     1
102
RTVSPropertyOp33
 70
     1
102
RTVSPropertyOp34
 70
     1
102
RTVSPropertyOp35
 70
     1
102
RTVSPropertyOp36
 70
     1
102
RTVSPropertyOp37
 70
     1
102
RTVSPropertyOp38
 70
     1
102
RTVSPropertyOp39
 70
     1
102
RTVSPropertyOp40
 70
     1
102
RTVSPropertyOp41
 70
     1
102
RTVSPropertyOp42
 70
     1
102
RTVSPropertyOp43
 70
     1
102
RTVSPropertyOp44
 70
     1
102
RTVSPropertyOp45
 70
     1
102
RTVSPropertyOp46
 70
     1
102
RTVSPropertyOp47
 70
     1
102
RTVSPropertyOp48
 70
     1
102
RTVSPropertyOp49
 70
     1
102
RTVSPropertyOp50
 70
     1
102
RTVSPropertyOp51
 70
     0
102
RTVSPropertyOp52
 70
     0
102
RTVSPropertyOp53
 70
     1
102
RTVSPropertyOp54
 70
     1
102
RTVSPropertyOp55
 70
     1
102
RTVSPropertyOp56
 70
     1
102
RTVSPropertyOp57
 70
     1
102
RTVSPropertyOp58
 70
     1
102
RTVSPropertyOp59
 70
     1
102
RTVSPropertyOp60
 70
     1
102
RTVSPropertyOp61
 70
     1
102
RTVSPropertyOp62
 70
     1
  0
XRECORD
  5
D493
102
{ACAD_REACTORS
330
D492
102
}
330
D492
100
AcDbXrecord
280
     1
102
RTVSPost2010Prop28
280
     0
102
RTVSPost2010PropOp28
 70
     1
102
RTVSPost2010Prop29
280
     1
102
RTVSPost2010PropOp29
 70
     1
102
RTVSPost2010Prop30
280
     1
102
RTVSPost2010PropOp30
 70
     1
102
RTVSPost2010Prop31
280
     0
102
RTVSPost2010PropOp31
 70
     1
102
RTVSPost2010Prop32
280
     0
102
RTVSPost2010PropOp32
 70
     1
102
RTVSPost2010Prop33
280
     0
102
RTVSPost2010PropOp33
 70
     1
102
RTVSPost2010Prop34
280
     0
102
RTVSPost2010PropOp34
 70
     1
102
RTVSPost2010Prop35
280
     0
102
RTVSPost2010PropOp35
 70
     1
102
RTVSPost2010Prop36
280
     0
102
RTVSPost2010PropOp36
 70
     1
102
RTVSPost2010Prop37
 90
       50
102
RTVSPost2010PropOp37
 70
     1
102
RTVSPost2010Prop38
140
0.0
102
RTVSPost2010PropOp38
 70
     1
102
RTVSPost2010Prop39
140
1.0
102
RTVSPost2010PropOp39
 70
     1
102
RTVSPost2010Prop40
 90
        0
102
RTVSPost2010PropOp40
 70
     1
102
RTVSPost2010Prop41ColorIndex
 90
       18
102
RTVSPost2010Prop41ColorRGB
 90
        0
102
RTVSPost2010PropOp41
 70
     1
102
RTVSPost2010Prop42
 90
       50
102
RTVSPost2010PropOp42
 70
     1
102
RTVSPost2010Prop43
 90
        3
102
RTVSPost2010PropOp43
 70
     1
102
RTVSPost2010Prop44ColorIndex
 90
        5
102
RTVSPost2010Prop44ColorRGB
 90
      255
102
RTVSPost2010PropOp44
 70
     1
102
RTVSPost2010Prop45
280
     0
102
RTVSPost2010PropOp45
 70
     1
102
RTVSPost2010Prop46
 90
       50
102
RTVSPost2010PropOp46
 70
     1
102
RTVSPost2010Prop47
 90
       50
102
RTVSPost2010PropOp47
 70
     1
102
RTVSPost2010Prop48
 90
       50
102
RTVSPost2010PropOp48
 70
     1
102
RTVSPost2010Prop49
280
     0
102
RTVSPost2010PropOp49
 70
     1
102
RTVSPost2010Prop50
 90
       50
102
RTVSPost2010PropOp50
 70
     1
102
RTVSPost2010Prop51ColorIndex
 90
      256
102
RTVSPost2010Prop51ColorRGB
 90
-16777216
102
RTVSPost2010PropOp51
 70
     0
102
RTVSPost2010Prop52
140
1.0
102
RTVSPost2010PropOp52
 70
     0
102
RTVSPost2010Prop53
 90
        2
102
RTVSPost2010PropOp53
 70
     1
102
RTVSPost2010Prop54
  1
strokes_ogs.tif
102
RTVSPost2010PropOp54
 70
     1
102
RTVSPost2010Prop55
280
     0
102
RTVSPost2010PropOp55
 70
     1
102
RTVSPost2010Prop56
140
1.0
102
RTVSPost2010PropOp56
 70
     1
102
RTVSPost2010Prop57
140
1.0
102
RTVSPost2010PropOp57
 70
     1
102
RTVSPropertyOp0
 70
     1
102
RTVSPropertyOp1
 70
     1
102
RTVSPropertyOp2
 70
     1
102
RTVSPropertyOp3
 70
     1
102
RTVSPropertyOp4
 70
     1
102
RTVSPropertyOp5
 70
     1
102
RTVSPropertyOp6
 70
     1
102
RTVSPropertyOp7
 70
     1
102
RTVSPropertyOp8
 70
     1
102
RTVSPropertyOp9
 70
     1
102
RTVSPropertyOp10
 70
     1
102
RTVSPropertyOp11
 70
     1
102
RTVSPropertyOp12
 70
     1
102
RTVSPropertyOp13
 70
     1
102
RTVSPropertyOp14
 70
     1
102
RTVSPropertyOp15
 70
     1
102
RTVSPropertyOp16
 70
     1
102
RTVSPropertyOp17
 70
     1
102
RTVSPropertyOp18
 70
     1
102
RTVSPropertyOp19
 70
     1
102
RTVSPropertyOp20
 70
     1
102
RTVSPropertyOp21
 70
     1
102
RTVSPropertyOp22
 70
     1
102
RTVSPropertyOp23
 70
     1
102
RTVSPropertyOp24
 70
     1
102
RTVSPropertyOp25
 70
     1
102
RTVSPropertyOp26
 70
     1
102
RTVSPropertyOp27
 70
     1
102
RTVSPropertyOp28
 70
     1
102
RTVSPropertyOp29
 70
     1
102
RTVSPropertyOp30
 70
     1
102
RTVSPropertyOp31
 70
     1
102
RTVSPropertyOp32
 70
     1
102
RTVSPropertyOp33
 70
     1
102
RTVSPropertyOp34
 70
     1
102
RTVSPropertyOp35
 70
     1
102
RTVSPropertyOp36
 70
     1
102
RTVSPropertyOp37
 70
     1
102
RTVSPropertyOp38
 70
     1
102
RTVSPropertyOp39
 70
     1
102
RTVSPropertyOp40
 70
     1
102
RTVSPropertyOp41
 70
     1
102
RTVSPropertyOp42
 70
     1
102
RTVSPropertyOp43
 70
     1
102
RTVSPropertyOp44
 70
     1
102
RTVSPropertyOp45
 70
     1
102
RTVSPropertyOp46
 70
     1
102
RTVSPropertyOp47
 70
     1
102
RTVSPropertyOp48
 70
     1
102
RTVSPropertyOp49
 70
     1
102
RTVSPropertyOp50
 70
     1
102
RTVSPropertyOp51
 70
     0
102
RTVSPropertyOp52
 70
     0
102
RTVSPropertyOp53
 70
     1
102
RTVSPropertyOp54
 70
     1
102
RTVSPropertyOp55
 70
     1
102
RTVSPropertyOp56
 70
     1
102
RTVSPropertyOp57
 70
     1
102
RTVSPropertyOp58
 70
     1
102
RTVSPropertyOp59
 70
     1
102
RTVSPropertyOp60
 70
     1
102
RTVSPropertyOp61
 70
     1
102
RTVSPropertyOp62
 70
     1
  0
XRECORD
  5
D495
102
{ACAD_REACTORS
330
D494
102
}
330
D494
100
AcDbXrecord
280
     1
102
RTVSPost2010Prop28
280
     0
102
RTVSPost2010PropOp28
 70
     1
102
RTVSPost2010Prop29
280
     1
102
RTVSPost2010PropOp29
 70
     1
102
RTVSPost2010Prop30
280
     1
102
RTVSPost2010PropOp30
 70
     1
102
RTVSPost2010Prop31
280
     0
102
RTVSPost2010PropOp31
 70
     1
102
RTVSPost2010Prop32
280
     0
102
RTVSPost2010PropOp32
 70
     1
102
RTVSPost2010Prop33
280
     0
102
RTVSPost2010PropOp33
 70
     1
102
RTVSPost2010Prop34
280
     0
102
RTVSPost2010PropOp34
 70
     1
102
RTVSPost2010Prop35
280
     0
102
RTVSPost2010PropOp35
 70
     1
102
RTVSPost2010Prop36
280
     0
102
RTVSPost2010PropOp36
 70
     1
102
RTVSPost2010Prop37
 90
       50
102
RTVSPost2010PropOp37
 70
     1
102
RTVSPost2010Prop38
140
0.0
102
RTVSPost2010PropOp38
 70
     1
102
RTVSPost2010Prop39
140
1.0
102
RTVSPost2010PropOp39
 70
     1
102
RTVSPost2010Prop40
 90
        0
102
RTVSPost2010PropOp40
 70
     1
102
RTVSPost2010Prop41ColorIndex
 90
       18
102
RTVSPost2010Prop41ColorRGB
 90
        0
102
RTVSPost2010PropOp41
 70
     1
102
RTVSPost2010Prop42
 90
       50
102
RTVSPost2010PropOp42
 70
     1
102
RTVSPost2010Prop43
 90
        3
102
RTVSPost2010PropOp43
 70
     1
102
RTVSPost2010Prop44ColorIndex
 90
        5
102
RTVSPost2010Prop44ColorRGB
 90
      255
102
RTVSPost2010PropOp44
 70
     1
102
RTVSPost2010Prop45
280
     0
102
RTVSPost2010PropOp45
 70
     1
102
RTVSPost2010Prop46
 90
       50
102
RTVSPost2010PropOp46
 70
     1
102
RTVSPost2010Prop47
 90
       50
102
RTVSPost2010PropOp47
 70
     1
102
RTVSPost2010Prop48
 90
       50
102
RTVSPost2010PropOp48
 70
     1
102
RTVSPost2010Prop49
280
     0
102
RTVSPost2010PropOp49
 70
     1
102
RTVSPost2010Prop50
 90
       50
102
RTVSPost2010PropOp50
 70
     1
102
RTVSPost2010Prop51ColorIndex
 90
      256
102
RTVSPost2010Prop51ColorRGB
 90
-16777216
102
RTVSPost2010PropOp51
 70
     0
102
RTVSPost2010Prop52
140
1.0
102
RTVSPost2010PropOp52
 70
     0
102
RTVSPost2010Prop53
 90
        2
102
RTVSPost2010PropOp53
 70
     1
102
RTVSPost2010Prop54
  1
strokes_ogs.tif
102
RTVSPost2010PropOp54
 70
     1
102
RTVSPost2010Prop55
280
     0
102
RTVSPost2010PropOp55
 70
     1
102
RTVSPost2010Prop56
140
1.0
102
RTVSPost2010PropOp56
 70
     1
102
RTVSPost2010Prop57
140
1.0
102
RTVSPost2010PropOp57
 70
     1
102
RTVSPropertyOp0
 70
     1
102
RTVSPropertyOp1
 70
     1
102
RTVSPropertyOp2
 70
     1
102
RTVSPropertyOp3
 70
     1
102
RTVSPropertyOp4
 70
     1
102
RTVSPropertyOp5
 70
     1
102
RTVSPropertyOp6
 70
     1
102
RTVSPropertyOp7
 70
     1
102
RTVSPropertyOp8
 70
     1
102
RTVSPropertyOp9
 70
     1
102
RTVSPropertyOp10
 70
     1
102
RTVSPropertyOp11
 70
     1
102
RTVSPropertyOp12
 70
     1
102
RTVSPropertyOp13
 70
     1
102
RTVSPropertyOp14
 70
     1
102
RTVSPropertyOp15
 70
     1
102
RTVSPropertyOp16
 70
     1
102
RTVSPropertyOp17
 70
     1
102
RTVSPropertyOp18
 70
     1
102
RTVSPropertyOp19
 70
     1
102
RTVSPropertyOp20
 70
     1
102
RTVSPropertyOp21
 70
     1
102
RTVSPropertyOp22
 70
     1
102
RTVSPropertyOp23
 70
     1
102
RTVSPropertyOp24
 70
     1
102
RTVSPropertyOp25
 70
     1
102
RTVSPropertyOp26
 70
     1
102
RTVSPropertyOp27
 70
     1
102
RTVSPropertyOp28
 70
     1
102
RTVSPropertyOp29
 70
     1
102
RTVSPropertyOp30
 70
     1
102
RTVSPropertyOp31
 70
     1
102
RTVSPropertyOp32
 70
     1
102
RTVSPropertyOp33
 70
     1
102
RTVSPropertyOp34
 70
     1
102
RTVSPropertyOp35
 70
     1
102
RTVSPropertyOp36
 70
     1
102
RTVSPropertyOp37
 70
     1
102
RTVSPropertyOp38
 70
     1
102
RTVSPropertyOp39
 70
     1
102
RTVSPropertyOp40
 70
     1
102
RTVSPropertyOp41
 70
     1
102
RTVSPropertyOp42
 70
     1
102
RTVSPropertyOp43
 70
     1
102
RTVSPropertyOp44
 70
     1
102
RTVSPropertyOp45
 70
     1
102
RTVSPropertyOp46
 70
     1
102
RTVSPropertyOp47
 70
     1
102
RTVSPropertyOp48
 70
     1
102
RTVSPropertyOp49
 70
     1
102
RTVSPropertyOp50
 70
     1
102
RTVSPropertyOp51
 70
     0
102
RTVSPropertyOp52
 70
     0
102
RTVSPropertyOp53
 70
     1
102
RTVSPropertyOp54
 70
     1
102
RTVSPropertyOp55
 70
     1
102
RTVSPropertyOp56
 70
     1
102
RTVSPropertyOp57
 70
     1
102
RTVSPropertyOp58
 70
     1
102
RTVSPropertyOp59
 70
     1
102
RTVSPropertyOp60
 70
     1
102
RTVSPropertyOp61
 70
     1
102
RTVSPropertyOp62
 70
     1
  0
XRECORD
  5
D497
102
{ACAD_REACTORS
330
D496
102
}
330
D496
100
AcDbXrecord
280
     1
102
RTVSPost2010Prop28
280
     0
102
RTVSPost2010PropOp28
 70
     1
102
RTVSPost2010Prop29
280
     1
102
RTVSPost2010PropOp29
 70
     1
102
RTVSPost2010Prop30
280
     1
102
RTVSPost2010PropOp30
 70
     1
102
RTVSPost2010Prop31
280
     0
102
RTVSPost2010PropOp31
 70
     1
102
RTVSPost2010Prop32
280
     0
102
RTVSPost2010PropOp32
 70
     1
102
RTVSPost2010Prop33
280
     0
102
RTVSPost2010PropOp33
 70
     1
102
RTVSPost2010Prop34
280
     0
102
RTVSPost2010PropOp34
 70
     1
102
RTVSPost2010Prop35
280
     0
102
RTVSPost2010PropOp35
 70
     1
102
RTVSPost2010Prop36
280
     0
102
RTVSPost2010PropOp36
 70
     1
102
RTVSPost2010Prop37
 90
       50
102
RTVSPost2010PropOp37
 70
     1
102
RTVSPost2010Prop38
140
0.0
102
RTVSPost2010PropOp38
 70
     1
102
RTVSPost2010Prop39
140
1.0
102
RTVSPost2010PropOp39
 70
     1
102
RTVSPost2010Prop40
 90
        0
102
RTVSPost2010PropOp40
 70
     1
102
RTVSPost2010Prop41ColorIndex
 90
       18
102
RTVSPost2010Prop41ColorRGB
 90
        0
102
RTVSPost2010PropOp41
 70
     1
102
RTVSPost2010Prop42
 90
       50
102
RTVSPost2010PropOp42
 70
     1
102
RTVSPost2010Prop43
 90
        3
102
RTVSPost2010PropOp43
 70
     1
102
RTVSPost2010Prop44ColorIndex
 90
        5
102
RTVSPost2010Prop44ColorRGB
 90
      255
102
RTVSPost2010PropOp44
 70
     1
102
RTVSPost2010Prop45
280
     0
102
RTVSPost2010PropOp45
 70
     1
102
RTVSPost2010Prop46
 90
       50
102
RTVSPost2010PropOp46
 70
     1
102
RTVSPost2010Prop47
 90
       50
102
RTVSPost2010PropOp47
 70
     1
102
RTVSPost2010Prop48
 90
       50
102
RTVSPost2010PropOp48
 70
     1
102
RTVSPost2010Prop49
280
     0
102
RTVSPost2010PropOp49
 70
     1
102
RTVSPost2010Prop50
 90
       50
102
RTVSPost2010PropOp50
 70
     1
102
RTVSPost2010Prop51ColorIndex
 90
      256
102
RTVSPost2010Prop51ColorRGB
 90
-16777216
102
RTVSPost2010PropOp51
 70
     0
102
RTVSPost2010Prop52
140
1.0
102
RTVSPost2010PropOp52
 70
     0
102
RTVSPost2010Prop53
 90
        2
102
RTVSPost2010PropOp53
 70
     1
102
RTVSPost2010Prop54
  1
strokes_ogs.tif
102
RTVSPost2010PropOp54
 70
     1
102
RTVSPost2010Prop55
280
     0
102
RTVSPost2010PropOp55
 70
     1
102
RTVSPost2010Prop56
140
1.0
102
RTVSPost2010PropOp56
 70
     1
102
RTVSPost2010Prop57
140
1.0
102
RTVSPost2010PropOp57
 70
     1
102
RTVSPropertyOp0
 70
     1
102
RTVSPropertyOp1
 70
     1
102
RTVSPropertyOp2
 70
     1
102
RTVSPropertyOp3
 70
     1
102
RTVSPropertyOp4
 70
     1
102
RTVSPropertyOp5
 70
     1
102
RTVSPropertyOp6
 70
     1
102
RTVSPropertyOp7
 70
     1
102
RTVSPropertyOp8
 70
     1
102
RTVSPropertyOp9
 70
     1
102
RTVSPropertyOp10
 70
     1
102
RTVSPropertyOp11
 70
     1
102
RTVSPropertyOp12
 70
     1
102
RTVSPropertyOp13
 70
     1
102
RTVSPropertyOp14
 70
     1
102
RTVSPropertyOp15
 70
     1
102
RTVSPropertyOp16
 70
     1
102
RTVSPropertyOp17
 70
     1
102
RTVSPropertyOp18
 70
     1
102
RTVSPropertyOp19
 70
     1
102
RTVSPropertyOp20
 70
     1
102
RTVSPropertyOp21
 70
     1
102
RTVSPropertyOp22
 70
     1
102
RTVSPropertyOp23
 70
     1
102
RTVSPropertyOp24
 70
     1
102
RTVSPropertyOp25
 70
     1
102
RTVSPropertyOp26
 70
     1
102
RTVSPropertyOp27
 70
     1
102
RTVSPropertyOp28
 70
     1
102
RTVSPropertyOp29
 70
     1
102
RTVSPropertyOp30
 70
     1
102
RTVSPropertyOp31
 70
     1
102
RTVSPropertyOp32
 70
     1
102
RTVSPropertyOp33
 70
     1
102
RTVSPropertyOp34
 70
     1
102
RTVSPropertyOp35
 70
     1
102
RTVSPropertyOp36
 70
     1
102
RTVSPropertyOp37
 70
     1
102
RTVSPropertyOp38
 70
     1
102
RTVSPropertyOp39
 70
     1
102
RTVSPropertyOp40
 70
     1
102
RTVSPropertyOp41
 70
     1
102
RTVSPropertyOp42
 70
     1
102
RTVSPropertyOp43
 70
     1
102
RTVSPropertyOp44
 70
     1
102
RTVSPropertyOp45
 70
     1
102
RTVSPropertyOp46
 70
     1
102
RTVSPropertyOp47
 70
     1
102
RTVSPropertyOp48
 70
     1
102
RTVSPropertyOp49
 70
     1
102
RTVSPropertyOp50
 70
     1
102
RTVSPropertyOp51
 70
     0
102
RTVSPropertyOp52
 70
     0
102
RTVSPropertyOp53
 70
     1
102
RTVSPropertyOp54
 70
     1
102
RTVSPropertyOp55
 70
     1
102
RTVSPropertyOp56
 70
     1
102
RTVSPropertyOp57
 70
     1
102
RTVSPropertyOp58
 70
     1
102
RTVSPropertyOp59
 70
     1
102
RTVSPropertyOp60
 70
     1
102
RTVSPropertyOp61
 70
     1
102
RTVSPropertyOp62
 70
     1
  0
XRECORD
  5
D499
102
{ACAD_REACTORS
330
D498
102
}
330
D498
100
AcDbXrecord
280
     1
102
RTVSPost2010Prop28
280
     0
102
RTVSPost2010PropOp28
 70
     1
102
RTVSPost2010Prop29
280
     1
102
RTVSPost2010PropOp29
 70
     1
102
RTVSPost2010Prop30
280
     1
102
RTVSPost2010PropOp30
 70
     1
102
RTVSPost2010Prop31
280
     0
102
RTVSPost2010PropOp31
 70
     1
102
RTVSPost2010Prop32
280
     0
102
RTVSPost2010PropOp32
 70
     1
102
RTVSPost2010Prop33
280
     0
102
RTVSPost2010PropOp33
 70
     1
102
RTVSPost2010Prop34
280
     0
102
RTVSPost2010PropOp34
 70
     1
102
RTVSPost2010Prop35
280
     0
102
RTVSPost2010PropOp35
 70
     1
102
RTVSPost2010Prop36
280
     0
102
RTVSPost2010PropOp36
 70
     1
102
RTVSPost2010Prop37
 90
       50
102
RTVSPost2010PropOp37
 70
     1
102
RTVSPost2010Prop38
140
0.0
102
RTVSPost2010PropOp38
 70
     1
102
RTVSPost2010Prop39
140
1.0
102
RTVSPost2010PropOp39
 70
     1
102
RTVSPost2010Prop40
 90
        0
102
RTVSPost2010PropOp40
 70
     1
102
RTVSPost2010Prop41ColorIndex
 90
       18
102
RTVSPost2010Prop41ColorRGB
 90
        0
102
RTVSPost2010PropOp41
 70
     1
102
RTVSPost2010Prop42
 90
       50
102
RTVSPost2010PropOp42
 70
     1
102
RTVSPost2010Prop43
 90
        3
102
RTVSPost2010PropOp43
 70
     1
102
RTVSPost2010Prop44ColorIndex
 90
        5
102
RTVSPost2010Prop44ColorRGB
 90
      255
102
RTVSPost2010PropOp44
 70
     1
102
RTVSPost2010Prop45
280
     0
102
RTVSPost2010PropOp45
 70
     1
102
RTVSPost2010Prop46
 90
       50
102
RTVSPost2010PropOp46
 70
     1
102
RTVSPost2010Prop47
 90
       50
102
RTVSPost2010PropOp47
 70
     1
102
RTVSPost2010Prop48
 90
       50
102
RTVSPost2010PropOp48
 70
     1
102
RTVSPost2010Prop49
280
     0
102
RTVSPost2010PropOp49
 70
     1
102
RTVSPost2010Prop50
 90
       50
102
RTVSPost2010PropOp50
 70
     1
102
RTVSPost2010Prop51ColorIndex
 90
      256
102
RTVSPost2010Prop51ColorRGB
 90
-16777216
102
RTVSPost2010PropOp51
 70
     0
102
RTVSPost2010Prop52
140
1.0
102
RTVSPost2010PropOp52
 70
     0
102
RTVSPost2010Prop53
 90
        2
102
RTVSPost2010PropOp53
 70
     1
102
RTVSPost2010Prop54
  1
strokes_ogs.tif
102
RTVSPost2010PropOp54
 70
     1
102
RTVSPost2010Prop55
280
     0
102
RTVSPost2010PropOp55
 70
     1
102
RTVSPost2010Prop56
140
1.0
102
RTVSPost2010PropOp56
 70
     1
102
RTVSPost2010Prop57
140
1.0
102
RTVSPost2010PropOp57
 70
     1
102
RTVSPropertyOp0
 70
     1
102
RTVSPropertyOp1
 70
     1
102
RTVSPropertyOp2
 70
     1
102
RTVSPropertyOp3
 70
     1
102
RTVSPropertyOp4
 70
     1
102
RTVSPropertyOp5
 70
     1
102
RTVSPropertyOp6
 70
     1
102
RTVSPropertyOp7
 70
     1
102
RTVSPropertyOp8
 70
     1
102
RTVSPropertyOp9
 70
     1
102
RTVSPropertyOp10
 70
     1
102
RTVSPropertyOp11
 70
     1
102
RTVSPropertyOp12
 70
     1
102
RTVSPropertyOp13
 70
     1
102
RTVSPropertyOp14
 70
     1
102
RTVSPropertyOp15
 70
     1
102
RTVSPropertyOp16
 70
     1
102
RTVSPropertyOp17
 70
     1
102
RTVSPropertyOp18
 70
     1
102
RTVSPropertyOp19
 70
     1
102
RTVSPropertyOp20
 70
     1
102
RTVSPropertyOp21
 70
     1
102
RTVSPropertyOp22
 70
     1
102
RTVSPropertyOp23
 70
     1
102
RTVSPropertyOp24
 70
     1
102
RTVSPropertyOp25
 70
     1
102
RTVSPropertyOp26
 70
     1
102
RTVSPropertyOp27
 70
     1
102
RTVSPropertyOp28
 70
     1
102
RTVSPropertyOp29
 70
     1
102
RTVSPropertyOp30
 70
     1
102
RTVSPropertyOp31
 70
     1
102
RTVSPropertyOp32
 70
     1
102
RTVSPropertyOp33
 70
     1
102
RTVSPropertyOp34
 70
     1
102
RTVSPropertyOp35
 70
     1
102
RTVSPropertyOp36
 70
     1
102
RTVSPropertyOp37
 70
     1
102
RTVSPropertyOp38
 70
     1
102
RTVSPropertyOp39
 70
     1
102
RTVSPropertyOp40
 70
     1
102
RTVSPropertyOp41
 70
     1
102
RTVSPropertyOp42
 70
     1
102
RTVSPropertyOp43
 70
     1
102
RTVSPropertyOp44
 70
     1
102
RTVSPropertyOp45
 70
     1
102
RTVSPropertyOp46
 70
     1
102
RTVSPropertyOp47
 70
     1
102
RTVSPropertyOp48
 70
     1
102
RTVSPropertyOp49
 70
     1
102
RTVSPropertyOp50
 70
     1
102
RTVSPropertyOp51
 70
     0
102
RTVSPropertyOp52
 70
     0
102
RTVSPropertyOp53
 70
     1
102
RTVSPropertyOp54
 70
     1
102
RTVSPropertyOp55
 70
     1
102
RTVSPropertyOp56
 70
     1
102
RTVSPropertyOp57
 70
     1
102
RTVSPropertyOp58
 70
     1
102
RTVSPropertyOp59
 70
     1
102
RTVSPropertyOp60
 70
     1
102
RTVSPropertyOp61
 70
     1
102
RTVSPropertyOp62
 70
     1
  0
XRECORD
  5
D4B6
102
{ACAD_REACTORS
330
D4B5
102
}
330
D4B5
100
AcDbXrecord
280
     1
102
RTVSPost2010Prop28
280
     0
102
RTVSPost2010PropOp28
 70
     1
102
RTVSPost2010Prop29
280
     1
102
RTVSPost2010PropOp29
 70
     1
102
RTVSPost2010Prop30
280
     1
102
RTVSPost2010PropOp30
 70
     1
102
RTVSPost2010Prop31
280
     0
102
RTVSPost2010PropOp31
 70
     1
102
RTVSPost2010Prop32
280
     0
102
RTVSPost2010PropOp32
 70
     1
102
RTVSPost2010Prop33
280
     0
102
RTVSPost2010PropOp33
 70
     1
102
RTVSPost2010Prop34
280
     0
102
RTVSPost2010PropOp34
 70
     1
102
RTVSPost2010Prop35
280
     0
102
RTVSPost2010PropOp35
 70
     1
102
RTVSPost2010Prop36
280
     0
102
RTVSPost2010PropOp36
 70
     1
102
RTVSPost2010Prop37
 90
       50
102
RTVSPost2010PropOp37
 70
     1
102
RTVSPost2010Prop38
140
0.0
102
RTVSPost2010PropOp38
 70
     1
102
RTVSPost2010Prop39
140
1.0
102
RTVSPost2010PropOp39
 70
     1
102
RTVSPost2010Prop40
 90
        0
102
RTVSPost2010PropOp40
 70
     1
102
RTVSPost2010Prop41ColorIndex
 90
       18
102
RTVSPost2010Prop41ColorRGB
 90
        0
102
RTVSPost2010PropOp41
 70
     1
102
RTVSPost2010Prop42
 90
       50
102
RTVSPost2010PropOp42
 70
     1
102
RTVSPost2010Prop43
 90
        3
102
RTVSPost2010PropOp43
 70
     1
102
RTVSPost2010Prop44ColorIndex
 90
        5
102
RTVSPost2010Prop44ColorRGB
 90
      255
102
RTVSPost2010PropOp44
 70
     1
102
RTVSPost2010Prop45
280
     0
102
RTVSPost2010PropOp45
 70
     1
102
RTVSPost2010Prop46
 90
       50
102
RTVSPost2010PropOp46
 70
     1
102
RTVSPost2010Prop47
 90
       50
102
RTVSPost2010PropOp47
 70
     1
102
RTVSPost2010Prop48
 90
       50
102
RTVSPost2010PropOp48
 70
     1
102
RTVSPost2010Prop49
280
     0
102
RTVSPost2010PropOp49
 70
     1
102
RTVSPost2010Prop50
 90
       50
102
RTVSPost2010PropOp50
 70
     1
102
RTVSPost2010Prop51ColorIndex
 90
      256
102
RTVSPost2010Prop51ColorRGB
 90
-16777216
102
RTVSPost2010PropOp51
 70
     0
102
RTVSPost2010Prop52
140
1.0
102
RTVSPost2010PropOp52
 70
     0
102
RTVSPost2010Prop53
 90
        2
102
RTVSPost2010PropOp53
 70
     1
102
RTVSPost2010Prop54
  1
strokes_ogs.tif
102
RTVSPost2010PropOp54
 70
     1
102
RTVSPost2010Prop55
280
     0
102
RTVSPost2010PropOp55
 70
     1
102
RTVSPost2010Prop56
140
1.0
102
RTVSPost2010PropOp56
 70
     1
102
RTVSPost2010Prop57
140
1.0
102
RTVSPost2010PropOp57
 70
     1
102
RTVSPropertyOp0
 70
     1
102
RTVSPropertyOp1
 70
     1
102
RTVSPropertyOp2
 70
     1
102
RTVSPropertyOp3
 70
     1
102
RTVSPropertyOp4
 70
     1
102
RTVSPropertyOp5
 70
     1
102
RTVSPropertyOp6
 70
     1
102
RTVSPropertyOp7
 70
     1
102
RTVSPropertyOp8
 70
     1
102
RTVSPropertyOp9
 70
     1
102
RTVSPropertyOp10
 70
     1
102
RTVSPropertyOp11
 70
     1
102
RTVSPropertyOp12
 70
     1
102
RTVSPropertyOp13
 70
     1
102
RTVSPropertyOp14
 70
     1
102
RTVSPropertyOp15
 70
     1
102
RTVSPropertyOp16
 70
     1
102
RTVSPropertyOp17
 70
     1
102
RTVSPropertyOp18
 70
     1
102
RTVSPropertyOp19
 70
     1
102
RTVSPropertyOp20
 70
     1
102
RTVSPropertyOp21
 70
     1
102
RTVSPropertyOp22
 70
     1
102
RTVSPropertyOp23
 70
     1
102
RTVSPropertyOp24
 70
     1
102
RTVSPropertyOp25
 70
     1
102
RTVSPropertyOp26
 70
     1
102
RTVSPropertyOp27
 70
     1
102
RTVSPropertyOp28
 70
     1
102
RTVSPropertyOp29
 70
     1
102
RTVSPropertyOp30
 70
     1
102
RTVSPropertyOp31
 70
     1
102
RTVSPropertyOp32
 70
     1
102
RTVSPropertyOp33
 70
     1
102
RTVSPropertyOp34
 70
     1
102
RTVSPropertyOp35
 70
     1
102
RTVSPropertyOp36
 70
     1
102
RTVSPropertyOp37
 70
     1
102
RTVSPropertyOp38
 70
     1
102
RTVSPropertyOp39
 70
     1
102
RTVSPropertyOp40
 70
     1
102
RTVSPropertyOp41
 70
     1
102
RTVSPropertyOp42
 70
     1
102
RTVSPropertyOp43
 70
     1
102
RTVSPropertyOp44
 70
     1
102
RTVSPropertyOp45
 70
     1
102
RTVSPropertyOp46
 70
     1
102
RTVSPropertyOp47
 70
     1
102
RTVSPropertyOp48
 70
     1
102
RTVSPropertyOp49
 70
     1
102
RTVSPropertyOp50
 70
     1
102
RTVSPropertyOp51
 70
     0
102
RTVSPropertyOp52
 70
     0
102
RTVSPropertyOp53
 70
     1
102
RTVSPropertyOp54
 70
     1
102
RTVSPropertyOp55
 70
     1
102
RTVSPropertyOp56
 70
     1
102
RTVSPropertyOp57
 70
     1
102
RTVSPropertyOp58
 70
     1
102
RTVSPropertyOp59
 70
     1
102
RTVSPropertyOp60
 70
     1
102
RTVSPropertyOp61
 70
     1
102
RTVSPropertyOp62
 70
     1
  0
XRECORD
  5
D4C2
102
{ACAD_REACTORS
330
D4C1
102
}
330
D4C1
100
AcDbXrecord
280
     1
102
RTVSPost2010Prop28
280
     0
102
RTVSPost2010PropOp28
 70
     1
102
RTVSPost2010Prop29
280
     1
102
RTVSPost2010PropOp29
 70
     1
102
RTVSPost2010Prop30
280
     1
102
RTVSPost2010PropOp30
 70
     1
102
RTVSPost2010Prop31
280
     0
102
RTVSPost2010PropOp31
 70
     1
102
RTVSPost2010Prop32
280
     0
102
RTVSPost2010PropOp32
 70
     1
102
RTVSPost2010Prop33
280
     0
102
RTVSPost2010PropOp33
 70
     1
102
RTVSPost2010Prop34
280
     0
102
RTVSPost2010PropOp34
 70
     1
102
RTVSPost2010Prop35
280
     0
102
RTVSPost2010PropOp35
 70
     1
102
RTVSPost2010Prop36
280
     0
102
RTVSPost2010PropOp36
 70
     1
102
RTVSPost2010Prop37
 90
       50
102
RTVSPost2010PropOp37
 70
     0
102
RTVSPost2010Prop38
140
0.0
102
RTVSPost2010PropOp38
 70
     0
102
RTVSPost2010Prop39
140
1.0
102
RTVSPost2010PropOp39
 70
     0
102
RTVSPost2010Prop40
 90
        0
102
RTVSPost2010PropOp40
 70
     0
102
RTVSPost2010Prop41ColorIndex
 90
       18
102
RTVSPost2010Prop41ColorRGB
 90
        0
102
RTVSPost2010PropOp41
 70
     0
102
RTVSPost2010Prop42
 90
       50
102
RTVSPost2010PropOp42
 70
     0
102
RTVSPost2010Prop43
 90
        3
102
RTVSPost2010PropOp43
 70
     0
102
RTVSPost2010Prop44ColorIndex
 90
        5
102
RTVSPost2010Prop44ColorRGB
 90
      255
102
RTVSPost2010PropOp44
 70
     0
102
RTVSPost2010Prop45
280
     0
102
RTVSPost2010PropOp45
 70
     1
102
RTVSPost2010Prop46
 90
       50
102
RTVSPost2010PropOp46
 70
     0
102
RTVSPost2010Prop47
 90
       50
102
RTVSPost2010PropOp47
 70
     0
102
RTVSPost2010Prop48
 90
       50
102
RTVSPost2010PropOp48
 70
     0
102
RTVSPost2010Prop49
280
     0
102
RTVSPost2010PropOp49
 70
     1
102
RTVSPost2010Prop50
 90
       50
102
RTVSPost2010PropOp50
 70
     0
102
RTVSPost2010Prop51ColorIndex
 90
      256
102
RTVSPost2010Prop51ColorRGB
 90
-16777216
102
RTVSPost2010PropOp51
 70
     0
102
RTVSPost2010Prop52
140
1.0
102
RTVSPost2010PropOp52
 70
     0
102
RTVSPost2010Prop53
 90
        2
102
RTVSPost2010PropOp53
 70
     0
102
RTVSPost2010Prop54
  1
strokes_ogs.tif
102
RTVSPost2010PropOp54
 70
     0
102
RTVSPost2010Prop55
280
     0
102
RTVSPost2010PropOp55
 70
     1
102
RTVSPost2010Prop56
140
1.0
102
RTVSPost2010PropOp56
 70
     0
102
RTVSPost2010Prop57
140
1.0
102
RTVSPost2010PropOp57
 70
     0
102
RTVSPropertyOp0
 70
     0
102
RTVSPropertyOp1
 70
     0
102
RTVSPropertyOp2
 70
     0
102
RTVSPropertyOp3
 70
     0
102
RTVSPropertyOp4
 70
     0
102
RTVSPropertyOp5
 70
     0
102
RTVSPropertyOp6
 70
     0
102
RTVSPropertyOp7
 70
     0
102
RTVSPropertyOp8
 70
     0
102
RTVSPropertyOp9
 70
     0
102
RTVSPropertyOp10
 70
     0
102
RTVSPropertyOp11
 70
     0
102
RTVSPropertyOp12
 70
     0
102
RTVSPropertyOp13
 70
     0
102
RTVSPropertyOp14
 70
     2
102
RTVSPropertyOp15
 70
     0
102
RTVSPropertyOp16
 70
     0
102
RTVSPropertyOp17
 70
     0
102
RTVSPropertyOp18
 70
     0
102
RTVSPropertyOp19
 70
     0
102
RTVSPropertyOp20
 70
     0
102
RTVSPropertyOp21
 70
     0
102
RTVSPropertyOp22
 70
     0
102
RTVSPropertyOp23
 70
     0
102
RTVSPropertyOp24
 70
     0
102
RTVSPropertyOp25
 70
     0
102
RTVSPropertyOp26
 70
     0
102
RTVSPropertyOp27
 70
     0
102
RTVSPropertyOp28
 70
     1
102
RTVSPropertyOp29
 70
     1
102
RTVSPropertyOp30
 70
     1
102
RTVSPropertyOp31
 70
     1
102
RTVSPropertyOp32
 70
     1
102
RTVSPropertyOp33
 70
     1
102
RTVSPropertyOp34
 70
     1
102
RTVSPropertyOp35
 70
     1
102
RTVSPropertyOp36
 70
     1
102
RTVSPropertyOp37
 70
     0
102
RTVSPropertyOp38
 70
     0
102
RTVSPropertyOp39
 70
     0
102
RTVSPropertyOp40
 70
     0
102
RTVSPropertyOp41
 70
     0
102
RTVSPropertyOp42
 70
     0
102
RTVSPropertyOp43
 70
     0
102
RTVSPropertyOp44
 70
     0
102
RTVSPropertyOp45
 70
     1
102
RTVSPropertyOp46
 70
     0
102
RTVSPropertyOp47
 70
     0
102
RTVSPropertyOp48
 70
     0
102
RTVSPropertyOp49
 70
     1
102
RTVSPropertyOp50
 70
     0
102
RTVSPropertyOp51
 70
     0
102
RTVSPropertyOp52
 70
     0
102
RTVSPropertyOp53
 70
     0
102
RTVSPropertyOp54
 70
     0
102
RTVSPropertyOp55
 70
     1
102
RTVSPropertyOp56
 70
     0
102
RTVSPropertyOp57
 70
     0
102
RTVSPropertyOp58
 70
     0
102
RTVSPropertyOp59
 70
     0
102
RTVSPropertyOp60
 70
     0
102
RTVSPropertyOp61
 70
     0
102
RTVSPropertyOp62
 70
     0
  0
XRECORD
  5
D4AD
102
{ACAD_REACTORS
330
D4AC
102
}
330
D4AC
100
AcDbXrecord
280
     1
102
RTVSPost2010Prop28
280
     0
102
RTVSPost2010PropOp28
 70
     1
102
RTVSPost2010Prop29
280
     1
102
RTVSPost2010PropOp29
 70
     1
102
RTVSPost2010Prop30
280
     1
102
RTVSPost2010PropOp30
 70
     1
102
RTVSPost2010Prop31
280
     0
102
RTVSPost2010PropOp31
 70
     1
102
RTVSPost2010Prop32
280
     0
102
RTVSPost2010PropOp32
 70
     1
102
RTVSPost2010Prop33
280
     0
102
RTVSPost2010PropOp33
 70
     1
102
RTVSPost2010Prop34
280
     0
102
RTVSPost2010PropOp34
 70
     1
102
RTVSPost2010Prop35
280
     0
102
RTVSPost2010PropOp35
 70
     1
102
RTVSPost2010Prop36
280
     0
102
RTVSPost2010PropOp36
 70
     1
102
RTVSPost2010Prop37
 90
       50
102
RTVSPost2010PropOp37
 70
     1
102
RTVSPost2010Prop38
140
0.0
102
RTVSPost2010PropOp38
 70
     1
102
RTVSPost2010Prop39
140
1.0
102
RTVSPost2010PropOp39
 70
     1
102
RTVSPost2010Prop40
 90
        0
102
RTVSPost2010PropOp40
 70
     1
102
RTVSPost2010Prop41ColorIndex
 90
       18
102
RTVSPost2010Prop41ColorRGB
 90
        0
102
RTVSPost2010PropOp41
 70
     1
102
RTVSPost2010Prop42
 90
       50
102
RTVSPost2010PropOp42
 70
     1
102
RTVSPost2010Prop43
 90
        3
102
RTVSPost2010PropOp43
 70
     1
102
RTVSPost2010Prop44ColorIndex
 90
        5
102
RTVSPost2010Prop44ColorRGB
 90
      255
102
RTVSPost2010PropOp44
 70
     1
102
RTVSPost2010Prop45
280
     0
102
RTVSPost2010PropOp45
 70
     1
102
RTVSPost2010Prop46
 90
       50
102
RTVSPost2010PropOp46
 70
     1
102
RTVSPost2010Prop47
 90
       50
102
RTVSPost2010PropOp47
 70
     1
102
RTVSPost2010Prop48
 90
       50
102
RTVSPost2010PropOp48
 70
     1
102
RTVSPost2010Prop49
280
     0
102
RTVSPost2010PropOp49
 70
     1
102
RTVSPost2010Prop50
 90
       50
102
RTVSPost2010PropOp50
 70
     1
102
RTVSPost2010Prop51ColorIndex
 90
      256
102
RTVSPost2010Prop51ColorRGB
 90
-16777216
102
RTVSPost2010PropOp51
 70
     0
102
RTVSPost2010Prop52
140
1.0
102
RTVSPost2010PropOp52
 70
     0
102
RTVSPost2010Prop53
 90
        2
102
RTVSPost2010PropOp53
 70
     1
102
RTVSPost2010Prop54
  1
strokes_ogs.tif
102
RTVSPost2010PropOp54
 70
     1
102
RTVSPost2010Prop55
280
     0
102
RTVSPost2010PropOp55
 70
     1
102
RTVSPost2010Prop56
140
1.0
102
RTVSPost2010PropOp56
 70
     1
102
RTVSPost2010Prop57
140
1.0
102
RTVSPost2010PropOp57
 70
     1
102
RTVSPropertyOp0
 70
     1
102
RTVSPropertyOp1
 70
     1
102
RTVSPropertyOp2
 70
     1
102
RTVSPropertyOp3
 70
     1
102
RTVSPropertyOp4
 70
     1
102
RTVSPropertyOp5
 70
     1
102
RTVSPropertyOp6
 70
     1
102
RTVSPropertyOp7
 70
     1
102
RTVSPropertyOp8
 70
     1
102
RTVSPropertyOp9
 70
     1
102
RTVSPropertyOp10
 70
     1
102
RTVSPropertyOp11
 70
     1
102
RTVSPropertyOp12
 70
     1
102
RTVSPropertyOp13
 70
     1
102
RTVSPropertyOp14
 70
     1
102
RTVSPropertyOp15
 70
     1
102
RTVSPropertyOp16
 70
     1
102
RTVSPropertyOp17
 70
     1
102
RTVSPropertyOp18
 70
     1
102
RTVSPropertyOp19
 70
     1
102
RTVSPropertyOp20
 70
     1
102
RTVSPropertyOp21
 70
     1
102
RTVSPropertyOp22
 70
     1
102
RTVSPropertyOp23
 70
     1
102
RTVSPropertyOp24
 70
     1
102
RTVSPropertyOp25
 70
     1
102
RTVSPropertyOp26
 70
     1
102
RTVSPropertyOp27
 70
     1
102
RTVSPropertyOp28
 70
     1
102
RTVSPropertyOp29
 70
     1
102
RTVSPropertyOp30
 70
     1
102
RTVSPropertyOp31
 70
     1
102
RTVSPropertyOp32
 70
     1
102
RTVSPropertyOp33
 70
     1
102
RTVSPropertyOp34
 70
     1
102
RTVSPropertyOp35
 70
     1
102
RTVSPropertyOp36
 70
     1
102
RTVSPropertyOp37
 70
     1
102
RTVSPropertyOp38
 70
     1
102
RTVSPropertyOp39
 70
     1
102
RTVSPropertyOp40
 70
     1
102
RTVSPropertyOp41
 70
     1
102
RTVSPropertyOp42
 70
     1
102
RTVSPropertyOp43
 70
     1
102
RTVSPropertyOp44
 70
     1
102
RTVSPropertyOp45
 70
     1
102
RTVSPropertyOp46
 70
     1
102
RTVSPropertyOp47
 70
     1
102
RTVSPropertyOp48
 70
     1
102
RTVSPropertyOp49
 70
     1
102
RTVSPropertyOp50
 70
     1
102
RTVSPropertyOp51
 70
     0
102
RTVSPropertyOp52
 70
     0
102
RTVSPropertyOp53
 70
     1
102
RTVSPropertyOp54
 70
     1
102
RTVSPropertyOp55
 70
     1
102
RTVSPropertyOp56
 70
     1
102
RTVSPropertyOp57
 70
     1
102
RTVSPropertyOp58
 70
     1
102
RTVSPropertyOp59
 70
     1
102
RTVSPropertyOp60
 70
     1
102
RTVSPropertyOp61
 70
     1
102
RTVSPropertyOp62
 70
     1
  0
XRECORD
  5
D4C4
102
{ACAD_REACTORS
330
D4C3
102
}
330
D4C3
100
AcDbXrecord
280
     1
102
RTVSPost2010Prop28
280
     0
102
RTVSPost2010PropOp28
 70
     1
102
RTVSPost2010Prop29
280
     1
102
RTVSPost2010PropOp29
 70
     1
102
RTVSPost2010Prop30
280
     1
102
RTVSPost2010PropOp30
 70
     1
102
RTVSPost2010Prop31
280
     0
102
RTVSPost2010PropOp31
 70
     1
102
RTVSPost2010Prop32
280
     0
102
RTVSPost2010PropOp32
 70
     1
102
RTVSPost2010Prop33
280
     0
102
RTVSPost2010PropOp33
 70
     1
102
RTVSPost2010Prop34
280
     0
102
RTVSPost2010PropOp34
 70
     1
102
RTVSPost2010Prop35
280
     0
102
RTVSPost2010PropOp35
 70
     1
102
RTVSPost2010Prop36
280
     0
102
RTVSPost2010PropOp36
 70
     1
102
RTVSPost2010Prop37
 90
       50
102
RTVSPost2010PropOp37
 70
     0
102
RTVSPost2010Prop38
140
0.0
102
RTVSPost2010PropOp38
 70
     0
102
RTVSPost2010Prop39
140
1.0
102
RTVSPost2010PropOp39
 70
     0
102
RTVSPost2010Prop40
 90
        0
102
RTVSPost2010PropOp40
 70
     0
102
RTVSPost2010Prop41ColorIndex
 90
       18
102
RTVSPost2010Prop41ColorRGB
 90
        0
102
RTVSPost2010PropOp41
 70
     0
102
RTVSPost2010Prop42
 90
       50
102
RTVSPost2010PropOp42
 70
     0
102
RTVSPost2010Prop43
 90
        3
102
RTVSPost2010PropOp43
 70
     0
102
RTVSPost2010Prop44ColorIndex
 90
        5
102
RTVSPost2010Prop44ColorRGB
 90
      255
102
RTVSPost2010PropOp44
 70
     0
102
RTVSPost2010Prop45
280
     0
102
RTVSPost2010PropOp45
 70
     1
102
RTVSPost2010Prop46
 90
       50
102
RTVSPost2010PropOp46
 70
     0
102
RTVSPost2010Prop47
 90
       50
102
RTVSPost2010PropOp47
 70
     0
102
RTVSPost2010Prop48
 90
       50
102
RTVSPost2010PropOp48
 70
     0
102
RTVSPost2010Prop49
280
     0
102
RTVSPost2010PropOp49
 70
     1
102
RTVSPost2010Prop50
 90
       50
102
RTVSPost2010PropOp50
 70
     0
102
RTVSPost2010Prop51ColorIndex
 90
      256
102
RTVSPost2010Prop51ColorRGB
 90
-16777216
102
RTVSPost2010PropOp51
 70
     0
102
RTVSPost2010Prop52
140
1.0
102
RTVSPost2010PropOp52
 70
     0
102
RTVSPost2010Prop53
 90
        2
102
RTVSPost2010PropOp53
 70
     0
102
RTVSPost2010Prop54
  1
strokes_ogs.tif
102
RTVSPost2010PropOp54
 70
     0
102
RTVSPost2010Prop55
280
     0
102
RTVSPost2010PropOp55
 70
     1
102
RTVSPost2010Prop56
140
1.0
102
RTVSPost2010PropOp56
 70
     0
102
RTVSPost2010Prop57
140
1.0
102
RTVSPost2010PropOp57
 70
     0
102
RTVSPropertyOp0
 70
     0
102
RTVSPropertyOp1
 70
     0
102
RTVSPropertyOp2
 70
     0
102
RTVSPropertyOp3
 70
     0
102
RTVSPropertyOp4
 70
     0
102
RTVSPropertyOp5
 70
     0
102
RTVSPropertyOp6
 70
     0
102
RTVSPropertyOp7
 70
     0
102
RTVSPropertyOp8
 70
     0
102
RTVSPropertyOp9
 70
     0
102
RTVSPropertyOp10
 70
     0
102
RTVSPropertyOp11
 70
     0
102
RTVSPropertyOp12
 70
     0
102
RTVSPropertyOp13
 70
     0
102
RTVSPropertyOp14
 70
     2
102
RTVSPropertyOp15
 70
     0
102
RTVSPropertyOp16
 70
     0
102
RTVSPropertyOp17
 70
     0
102
RTVSPropertyOp18
 70
     0
102
RTVSPropertyOp19
 70
     0
102
RTVSPropertyOp20
 70
     0
102
RTVSPropertyOp21
 70
     0
102
RTVSPropertyOp22
 70
     0
102
RTVSPropertyOp23
 70
     0
102
RTVSPropertyOp24
 70
     0
102
RTVSPropertyOp25
 70
     0
102
RTVSPropertyOp26
 70
     0
102
RTVSPropertyOp27
 70
     0
102
RTVSPropertyOp28
 70
     1
102
RTVSPropertyOp29
 70
     1
102
RTVSPropertyOp30
 70
     1
102
RTVSPropertyOp31
 70
     1
102
RTVSPropertyOp32
 70
     1
102
RTVSPropertyOp33
 70
     1
102
RTVSPropertyOp34
 70
     1
102
RTVSPropertyOp35
 70
     1
102
RTVSPropertyOp36
 70
     1
102
RTVSPropertyOp37
 70
     0
102
RTVSPropertyOp38
 70
     0
102
RTVSPropertyOp39
 70
     0
102
RTVSPropertyOp40
 70
     0
102
RTVSPropertyOp41
 70
     0
102
RTVSPropertyOp42
 70
     0
102
RTVSPropertyOp43
 70
     0
102
RTVSPropertyOp44
 70
     0
102
RTVSPropertyOp45
 70
     1
102
RTVSPropertyOp46
 70
     0
102
RTVSPropertyOp47
 70
     0
102
RTVSPropertyOp48
 70
     0
102
RTVSPropertyOp49
 70
     1
102
RTVSPropertyOp50
 70
     0
102
RTVSPropertyOp51
 70
     0
102
RTVSPropertyOp52
 70
     0
102
RTVSPropertyOp53
 70
     0
102
RTVSPropertyOp54
 70
     0
102
RTVSPropertyOp55
 70
     1
102
RTVSPropertyOp56
 70
     0
102
RTVSPropertyOp57
 70
     0
102
RTVSPropertyOp58
 70
     0
102
RTVSPropertyOp59
 70
     0
102
RTVSPropertyOp60
 70
     0
102
RTVSPropertyOp61
 70
     0
102
RTVSPropertyOp62
 70
     0
  0
XRECORD
  5
D4A5
102
{ACAD_REACTORS
330
D4A4
102
}
330
D4A4
100
AcDbXrecord
280
     1
102
RTVSPost2010Prop28
280
     0
102
RTVSPost2010PropOp28
 70
     1
102
RTVSPost2010Prop29
280
     1
102
RTVSPost2010PropOp29
 70
     1
102
RTVSPost2010Prop30
280
     1
102
RTVSPost2010PropOp30
 70
     1
102
RTVSPost2010Prop31
280
     0
102
RTVSPost2010PropOp31
 70
     1
102
RTVSPost2010Prop32
280
     0
102
RTVSPost2010PropOp32
 70
     1
102
RTVSPost2010Prop33
280
     0
102
RTVSPost2010PropOp33
 70
     1
102
RTVSPost2010Prop34
280
     0
102
RTVSPost2010PropOp34
 70
     1
102
RTVSPost2010Prop35
280
     0
102
RTVSPost2010PropOp35
 70
     1
102
RTVSPost2010Prop36
280
     0
102
RTVSPost2010PropOp36
 70
     1
102
RTVSPost2010Prop37
 90
       50
102
RTVSPost2010PropOp37
 70
     1
102
RTVSPost2010Prop38
140
0.0
102
RTVSPost2010PropOp38
 70
     1
102
RTVSPost2010Prop39
140
1.0
102
RTVSPost2010PropOp39
 70
     1
102
RTVSPost2010Prop40
 90
        0
102
RTVSPost2010PropOp40
 70
     1
102
RTVSPost2010Prop41ColorIndex
 90
       18
102
RTVSPost2010Prop41ColorRGB
 90
        0
102
RTVSPost2010PropOp41
 70
     1
102
RTVSPost2010Prop42
 90
       50
102
RTVSPost2010PropOp42
 70
     1
102
RTVSPost2010Prop43
 90
        3
102
RTVSPost2010PropOp43
 70
     1
102
RTVSPost2010Prop44ColorIndex
 90
        5
102
RTVSPost2010Prop44ColorRGB
 90
      255
102
RTVSPost2010PropOp44
 70
     1
102
RTVSPost2010Prop45
280
     0
102
RTVSPost2010PropOp45
 70
     1
102
RTVSPost2010Prop46
 90
       50
102
RTVSPost2010PropOp46
 70
     1
102
RTVSPost2010Prop47
 90
       50
102
RTVSPost2010PropOp47
 70
     1
102
RTVSPost2010Prop48
 90
       50
102
RTVSPost2010PropOp48
 70
     1
102
RTVSPost2010Prop49
280
     0
102
RTVSPost2010PropOp49
 70
     1
102
RTVSPost2010Prop50
 90
       50
102
RTVSPost2010PropOp50
 70
     1
102
RTVSPost2010Prop51ColorIndex
 90
      256
102
RTVSPost2010Prop51ColorRGB
 90
-16777216
102
RTVSPost2010PropOp51
 70
     0
102
RTVSPost2010Prop52
140
1.0
102
RTVSPost2010PropOp52
 70
     0
102
RTVSPost2010Prop53
 90
        2
102
RTVSPost2010PropOp53
 70
     1
102
RTVSPost2010Prop54
  1
strokes_ogs.tif
102
RTVSPost2010PropOp54
 70
     1
102
RTVSPost2010Prop55
280
     0
102
RTVSPost2010PropOp55
 70
     1
102
RTVSPost2010Prop56
140
1.0
102
RTVSPost2010PropOp56
 70
     1
102
RTVSPost2010Prop57
140
1.0
102
RTVSPost2010PropOp57
 70
     1
102
RTVSPropertyOp0
 70
     1
102
RTVSPropertyOp1
 70
     1
102
RTVSPropertyOp2
 70
     1
102
RTVSPropertyOp3
 70
     1
102
RTVSPropertyOp4
 70
     1
102
RTVSPropertyOp5
 70
     1
102
RTVSPropertyOp6
 70
     1
102
RTVSPropertyOp7
 70
     1
102
RTVSPropertyOp8
 70
     1
102
RTVSPropertyOp9
 70
     1
102
RTVSPropertyOp10
 70
     1
102
RTVSPropertyOp11
 70
     1
102
RTVSPropertyOp12
 70
     1
102
RTVSPropertyOp13
 70
     1
102
RTVSPropertyOp14
 70
     1
102
RTVSPropertyOp15
 70
     1
102
RTVSPropertyOp16
 70
     1
102
RTVSPropertyOp17
 70
     1
102
RTVSPropertyOp18
 70
     1
102
RTVSPropertyOp19
 70
     1
102
RTVSPropertyOp20
 70
     1
102
RTVSPropertyOp21
 70
     1
102
RTVSPropertyOp22
 70
     1
102
RTVSPropertyOp23
 70
     1
102
RTVSPropertyOp24
 70
     1
102
RTVSPropertyOp25
 70
     1
102
RTVSPropertyOp26
 70
     1
102
RTVSPropertyOp27
 70
     1
102
RTVSPropertyOp28
 70
     1
102
RTVSPropertyOp29
 70
     1
102
RTVSPropertyOp30
 70
     1
102
RTVSPropertyOp31
 70
     1
102
RTVSPropertyOp32
 70
     1
102
RTVSPropertyOp33
 70
     1
102
RTVSPropertyOp34
 70
     1
102
RTVSPropertyOp35
 70
     1
102
RTVSPropertyOp36
 70
     1
102
RTVSPropertyOp37
 70
     1
102
RTVSPropertyOp38
 70
     1
102
RTVSPropertyOp39
 70
     1
102
RTVSPropertyOp40
 70
     1
102
RTVSPropertyOp41
 70
     1
102
RTVSPropertyOp42
 70
     1
102
RTVSPropertyOp43
 70
     1
102
RTVSPropertyOp44
 70
     1
102
RTVSPropertyOp45
 70
     1
102
RTVSPropertyOp46
 70
     1
102
RTVSPropertyOp47
 70
     1
102
RTVSPropertyOp48
 70
     1
102
RTVSPropertyOp49
 70
     1
102
RTVSPropertyOp50
 70
     1
102
RTVSPropertyOp51
 70
     0
102
RTVSPropertyOp52
 70
     0
102
RTVSPropertyOp53
 70
     1
102
RTVSPropertyOp54
 70
     1
102
RTVSPropertyOp55
 70
     1
102
RTVSPropertyOp56
 70
     1
102
RTVSPropertyOp57
 70
     1
102
RTVSPropertyOp58
 70
     1
102
RTVSPropertyOp59
 70
     1
102
RTVSPropertyOp60
 70
     1
102
RTVSPropertyOp61
 70
     1
102
RTVSPropertyOp62
 70
     1
  0
XRECORD
  5
D4C0
102
{ACAD_REACTORS
330
D4BF
102
}
330
D4BF
100
AcDbXrecord
280
     1
102
RTVSPost2010Prop28
280
     0
102
RTVSPost2010PropOp28
 70
     1
102
RTVSPost2010Prop29
280
     1
102
RTVSPost2010PropOp29
 70
     1
102
RTVSPost2010Prop30
280
     1
102
RTVSPost2010PropOp30
 70
     1
102
RTVSPost2010Prop31
280
     0
102
RTVSPost2010PropOp31
 70
     1
102
RTVSPost2010Prop32
280
     0
102
RTVSPost2010PropOp32
 70
     1
102
RTVSPost2010Prop33
280
     0
102
RTVSPost2010PropOp33
 70
     1
102
RTVSPost2010Prop34
280
     0
102
RTVSPost2010PropOp34
 70
     1
102
RTVSPost2010Prop35
280
     0
102
RTVSPost2010PropOp35
 70
     1
102
RTVSPost2010Prop36
280
     0
102
RTVSPost2010PropOp36
 70
     1
102
RTVSPost2010Prop37
 90
       50
102
RTVSPost2010PropOp37
 70
     1
102
RTVSPost2010Prop38
140
0.0
102
RTVSPost2010PropOp38
 70
     1
102
RTVSPost2010Prop39
140
1.0
102
RTVSPost2010PropOp39
 70
     1
102
RTVSPost2010Prop40
 90
        0
102
RTVSPost2010PropOp40
 70
     1
102
RTVSPost2010Prop41ColorIndex
 90
       18
102
RTVSPost2010Prop41ColorRGB
 90
        0
102
RTVSPost2010PropOp41
 70
     1
102
RTVSPost2010Prop42
 90
       50
102
RTVSPost2010PropOp42
 70
     1
102
RTVSPost2010Prop43
 90
        3
102
RTVSPost2010PropOp43
 70
     1
102
RTVSPost2010Prop44ColorIndex
 90
        5
102
RTVSPost2010Prop44ColorRGB
 90
      255
102
RTVSPost2010PropOp44
 70
     1
102
RTVSPost2010Prop45
280
     0
102
RTVSPost2010PropOp45
 70
     1
102
RTVSPost2010Prop46
 90
       50
102
RTVSPost2010PropOp46
 70
     1
102
RTVSPost2010Prop47
 90
       50
102
RTVSPost2010PropOp47
 70
     1
102
RTVSPost2010Prop48
 90
       50
102
RTVSPost2010PropOp48
 70
     1
102
RTVSPost2010Prop49
280
     0
102
RTVSPost2010PropOp49
 70
     1
102
RTVSPost2010Prop50
 90
       50
102
RTVSPost2010PropOp50
 70
     1
102
RTVSPost2010Prop51ColorIndex
 90
      256
102
RTVSPost2010Prop51ColorRGB
 90
-16777216
102
RTVSPost2010PropOp51
 70
     0
102
RTVSPost2010Prop52
140
1.0
102
RTVSPost2010PropOp52
 70
     0
102
RTVSPost2010Prop53
 90
        2
102
RTVSPost2010PropOp53
 70
     1
102
RTVSPost2010Prop54
  1
strokes_ogs.tif
102
RTVSPost2010PropOp54
 70
     1
102
RTVSPost2010Prop55
280
     0
102
RTVSPost2010PropOp55
 70
     1
102
RTVSPost2010Prop56
140
1.0
102
RTVSPost2010PropOp56
 70
     1
102
RTVSPost2010Prop57
140
1.0
102
RTVSPost2010PropOp57
 70
     1
102
RTVSPropertyOp0
 70
     1
102
RTVSPropertyOp1
 70
     1
102
RTVSPropertyOp2
 70
     1
102
RTVSPropertyOp3
 70
     1
102
RTVSPropertyOp4
 70
     1
102
RTVSPropertyOp5
 70
     1
102
RTVSPropertyOp6
 70
     1
102
RTVSPropertyOp7
 70
     1
102
RTVSPropertyOp8
 70
     1
102
RTVSPropertyOp9
 70
     1
102
RTVSPropertyOp10
 70
     1
102
RTVSPropertyOp11
 70
     1
102
RTVSPropertyOp12
 70
     1
102
RTVSPropertyOp13
 70
     1
102
RTVSPropertyOp14
 70
     1
102
RTVSPropertyOp15
 70
     1
102
RTVSPropertyOp16
 70
     1
102
RTVSPropertyOp17
 70
     1
102
RTVSPropertyOp18
 70
     1
102
RTVSPropertyOp19
 70
     1
102
RTVSPropertyOp20
 70
     1
102
RTVSPropertyOp21
 70
     1
102
RTVSPropertyOp22
 70
     1
102
RTVSPropertyOp23
 70
     1
102
RTVSPropertyOp24
 70
     1
102
RTVSPropertyOp25
 70
     1
102
RTVSPropertyOp26
 70
     1
102
RTVSPropertyOp27
 70
     1
102
RTVSPropertyOp28
 70
     1
102
RTVSPropertyOp29
 70
     1
102
RTVSPropertyOp30
 70
     1
102
RTVSPropertyOp31
 70
     1
102
RTVSPropertyOp32
 70
     1
102
RTVSPropertyOp33
 70
     1
102
RTVSPropertyOp34
 70
     1
102
RTVSPropertyOp35
 70
     1
102
RTVSPropertyOp36
 70
     1
102
RTVSPropertyOp37
 70
     1
102
RTVSPropertyOp38
 70
     1
102
RTVSPropertyOp39
 70
     1
102
RTVSPropertyOp40
 70
     1
102
RTVSPropertyOp41
 70
     1
102
RTVSPropertyOp42
 70
     1
102
RTVSPropertyOp43
 70
     1
102
RTVSPropertyOp44
 70
     1
102
RTVSPropertyOp45
 70
     1
102
RTVSPropertyOp46
 70
     1
102
RTVSPropertyOp47
 70
     1
102
RTVSPropertyOp48
 70
     1
102
RTVSPropertyOp49
 70
     1
102
RTVSPropertyOp50
 70
     1
102
RTVSPropertyOp51
 70
     0
102
RTVSPropertyOp52
 70
     0
102
RTVSPropertyOp53
 70
     1
102
RTVSPropertyOp54
 70
     1
102
RTVSPropertyOp55
 70
     1
102
RTVSPropertyOp56
 70
     1
102
RTVSPropertyOp57
 70
     1
102
RTVSPropertyOp58
 70
     1
102
RTVSPropertyOp59
 70
     1
102
RTVSPropertyOp60
 70
     1
102
RTVSPropertyOp61
 70
     1
102
RTVSPropertyOp62
 70
     1
  0
XRECORD
  5
D4BE
102
{ACAD_REACTORS
330
D4BD
102
}
330
D4BD
100
AcDbXrecord
280
     1
102
RTVSPost2010Prop28
280
     0
102
RTVSPost2010PropOp28
 70
     1
102
RTVSPost2010Prop29
280
     1
102
RTVSPost2010PropOp29
 70
     1
102
RTVSPost2010Prop30
280
     1
102
RTVSPost2010PropOp30
 70
     1
102
RTVSPost2010Prop31
280
     0
102
RTVSPost2010PropOp31
 70
     1
102
RTVSPost2010Prop32
280
     0
102
RTVSPost2010PropOp32
 70
     1
102
RTVSPost2010Prop33
280
     0
102
RTVSPost2010PropOp33
 70
     1
102
RTVSPost2010Prop34
280
     0
102
RTVSPost2010PropOp34
 70
     1
102
RTVSPost2010Prop35
280
     0
102
RTVSPost2010PropOp35
 70
     1
102
RTVSPost2010Prop36
280
     0
102
RTVSPost2010PropOp36
 70
     1
102
RTVSPost2010Prop37
 90
       50
102
RTVSPost2010PropOp37
 70
     1
102
RTVSPost2010Prop38
140
0.0
102
RTVSPost2010PropOp38
 70
     1
102
RTVSPost2010Prop39
140
1.0
102
RTVSPost2010PropOp39
 70
     1
102
RTVSPost2010Prop40
 90
        0
102
RTVSPost2010PropOp40
 70
     1
102
RTVSPost2010Prop41ColorIndex
 90
       18
102
RTVSPost2010Prop41ColorRGB
 90
        0
102
RTVSPost2010PropOp41
 70
     1
102
RTVSPost2010Prop42
 90
       50
102
RTVSPost2010PropOp42
 70
     1
102
RTVSPost2010Prop43
 90
        3
102
RTVSPost2010PropOp43
 70
     1
102
RTVSPost2010Prop44ColorIndex
 90
        5
102
RTVSPost2010Prop44ColorRGB
 90
      255
102
RTVSPost2010PropOp44
 70
     1
102
RTVSPost2010Prop45
280
     0
102
RTVSPost2010PropOp45
 70
     1
102
RTVSPost2010Prop46
 90
       50
102
RTVSPost2010PropOp46
 70
     1
102
RTVSPost2010Prop47
 90
       50
102
RTVSPost2010PropOp47
 70
     1
102
RTVSPost2010Prop48
 90
       50
102
RTVSPost2010PropOp48
 70
     1
102
RTVSPost2010Prop49
280
     0
102
RTVSPost2010PropOp49
 70
     1
102
RTVSPost2010Prop50
 90
       50
102
RTVSPost2010PropOp50
 70
     1
102
RTVSPost2010Prop51ColorIndex
 90
      256
102
RTVSPost2010Prop51ColorRGB
 90
-16777216
102
RTVSPost2010PropOp51
 70
     0
102
RTVSPost2010Prop52
140
1.0
102
RTVSPost2010PropOp52
 70
     0
102
RTVSPost2010Prop53
 90
        2
102
RTVSPost2010PropOp53
 70
     1
102
RTVSPost2010Prop54
  1
strokes_ogs.tif
102
RTVSPost2010PropOp54
 70
     1
102
RTVSPost2010Prop55
280
     0
102
RTVSPost2010PropOp55
 70
     1
102
RTVSPost2010Prop56
140
1.0
102
RTVSPost2010PropOp56
 70
     1
102
RTVSPost2010Prop57
140
1.0
102
RTVSPost2010PropOp57
 70
     1
102
RTVSPropertyOp0
 70
     1
102
RTVSPropertyOp1
 70
     1
102
RTVSPropertyOp2
 70
     1
102
RTVSPropertyOp3
 70
     1
102
RTVSPropertyOp4
 70
     1
102
RTVSPropertyOp5
 70
     1
102
RTVSPropertyOp6
 70
     1
102
RTVSPropertyOp7
 70
     1
102
RTVSPropertyOp8
 70
     1
102
RTVSPropertyOp9
 70
     1
102
RTVSPropertyOp10
 70
     1
102
RTVSPropertyOp11
 70
     1
102
RTVSPropertyOp12
 70
     1
102
RTVSPropertyOp13
 70
     1
102
RTVSPropertyOp14
 70
     1
102
RTVSPropertyOp15
 70
     1
102
RTVSPropertyOp16
 70
     1
102
RTVSPropertyOp17
 70
     1
102
RTVSPropertyOp18
 70
     1
102
RTVSPropertyOp19
 70
     1
102
RTVSPropertyOp20
 70
     1
102
RTVSPropertyOp21
 70
     1
102
RTVSPropertyOp22
 70
     1
102
RTVSPropertyOp23
 70
     1
102
RTVSPropertyOp24
 70
     1
102
RTVSPropertyOp25
 70
     1
102
RTVSPropertyOp26
 70
     1
102
RTVSPropertyOp27
 70
     1
102
RTVSPropertyOp28
 70
     1
102
RTVSPropertyOp29
 70
     1
102
RTVSPropertyOp30
 70
     1
102
RTVSPropertyOp31
 70
     1
102
RTVSPropertyOp32
 70
     1
102
RTVSPropertyOp33
 70
     1
102
RTVSPropertyOp34
 70
     1
102
RTVSPropertyOp35
 70
     1
102
RTVSPropertyOp36
 70
     1
102
RTVSPropertyOp37
 70
     1
102
RTVSPropertyOp38
 70
     1
102
RTVSPropertyOp39
 70
     1
102
RTVSPropertyOp40
 70
     1
102
RTVSPropertyOp41
 70
     1
102
RTVSPropertyOp42
 70
     1
102
RTVSPropertyOp43
 70
     1
102
RTVSPropertyOp44
 70
     1
102
RTVSPropertyOp45
 70
     1
102
RTVSPropertyOp46
 70
     1
102
RTVSPropertyOp47
 70
     1
102
RTVSPropertyOp48
 70
     1
102
RTVSPropertyOp49
 70
     1
102
RTVSPropertyOp50
 70
     1
102
RTVSPropertyOp51
 70
     0
102
RTVSPropertyOp52
 70
     0
102
RTVSPropertyOp53
 70
     1
102
RTVSPropertyOp54
 70
     1
102
RTVSPropertyOp55
 70
     1
102
RTVSPropertyOp56
 70
     1
102
RTVSPropertyOp57
 70
     1
102
RTVSPropertyOp58
 70
     1
102
RTVSPropertyOp59
 70
     1
102
RTVSPropertyOp60
 70
     1
102
RTVSPropertyOp61
 70
     1
102
RTVSPropertyOp62
 70
     1
  0
XRECORD
  5
D4B8
102
{ACAD_REACTORS
330
D4B7
102
}
330
D4B7
100
AcDbXrecord
280
     1
102
RTVSPost2010Prop28
280
     0
102
RTVSPost2010PropOp28
 70
     1
102
RTVSPost2010Prop29
280
     1
102
RTVSPost2010PropOp29
 70
     1
102
RTVSPost2010Prop30
280
     1
102
RTVSPost2010PropOp30
 70
     1
102
RTVSPost2010Prop31
280
     0
102
RTVSPost2010PropOp31
 70
     1
102
RTVSPost2010Prop32
280
     0
102
RTVSPost2010PropOp32
 70
     1
102
RTVSPost2010Prop33
280
     0
102
RTVSPost2010PropOp33
 70
     1
102
RTVSPost2010Prop34
280
     0
102
RTVSPost2010PropOp34
 70
     1
102
RTVSPost2010Prop35
280
     0
102
RTVSPost2010PropOp35
 70
     1
102
RTVSPost2010Prop36
280
     0
102
RTVSPost2010PropOp36
 70
     1
102
RTVSPost2010Prop37
 90
       50
102
RTVSPost2010PropOp37
 70
     1
102
RTVSPost2010Prop38
140
0.0
102
RTVSPost2010PropOp38
 70
     1
102
RTVSPost2010Prop39
140
1.0
102
RTVSPost2010PropOp39
 70
     1
102
RTVSPost2010Prop40
 90
        0
102
RTVSPost2010PropOp40
 70
     1
102
RTVSPost2010Prop41ColorIndex
 90
       18
102
RTVSPost2010Prop41ColorRGB
 90
        0
102
RTVSPost2010PropOp41
 70
     1
102
RTVSPost2010Prop42
 90
       50
102
RTVSPost2010PropOp42
 70
     1
102
RTVSPost2010Prop43
 90
        3
102
RTVSPost2010PropOp43
 70
     1
102
RTVSPost2010Prop44ColorIndex
 90
        5
102
RTVSPost2010Prop44ColorRGB
 90
      255
102
RTVSPost2010PropOp44
 70
     1
102
RTVSPost2010Prop45
280
     0
102
RTVSPost2010PropOp45
 70
     1
102
RTVSPost2010Prop46
 90
       50
102
RTVSPost2010PropOp46
 70
     1
102
RTVSPost2010Prop47
 90
       50
102
RTVSPost2010PropOp47
 70
     1
102
RTVSPost2010Prop48
 90
       50
102
RTVSPost2010PropOp48
 70
     1
102
RTVSPost2010Prop49
280
     0
102
RTVSPost2010PropOp49
 70
     1
102
RTVSPost2010Prop50
 90
       50
102
RTVSPost2010PropOp50
 70
     1
102
RTVSPost2010Prop51ColorIndex
 90
      256
102
RTVSPost2010Prop51ColorRGB
 90
-16777216
102
RTVSPost2010PropOp51
 70
     0
102
RTVSPost2010Prop52
140
1.0
102
RTVSPost2010PropOp52
 70
     0
102
RTVSPost2010Prop53
 90
        2
102
RTVSPost2010PropOp53
 70
     1
102
RTVSPost2010Prop54
  1
strokes_ogs.tif
102
RTVSPost2010PropOp54
 70
     1
102
RTVSPost2010Prop55
280
     0
102
RTVSPost2010PropOp55
 70
     1
102
RTVSPost2010Prop56
140
1.0
102
RTVSPost2010PropOp56
 70
     1
102
RTVSPost2010Prop57
140
1.0
102
RTVSPost2010PropOp57
 70
     1
102
RTVSPropertyOp0
 70
     1
102
RTVSPropertyOp1
 70
     1
102
RTVSPropertyOp2
 70
     1
102
RTVSPropertyOp3
 70
     1
102
RTVSPropertyOp4
 70
     1
102
RTVSPropertyOp5
 70
     1
102
RTVSPropertyOp6
 70
     1
102
RTVSPropertyOp7
 70
     1
102
RTVSPropertyOp8
 70
     1
102
RTVSPropertyOp9
 70
     1
102
RTVSPropertyOp10
 70
     1
102
RTVSPropertyOp11
 70
     1
102
RTVSPropertyOp12
 70
     1
102
RTVSPropertyOp13
 70
     1
102
RTVSPropertyOp14
 70
     1
102
RTVSPropertyOp15
 70
     1
102
RTVSPropertyOp16
 70
     1
102
RTVSPropertyOp17
 70
     1
102
RTVSPropertyOp18
 70
     1
102
RTVSPropertyOp19
 70
     1
102
RTVSPropertyOp20
 70
     1
102
RTVSPropertyOp21
 70
     1
102
RTVSPropertyOp22
 70
     1
102
RTVSPropertyOp23
 70
     1
102
RTVSPropertyOp24
 70
     1
102
RTVSPropertyOp25
 70
     1
102
RTVSPropertyOp26
 70
     1
102
RTVSPropertyOp27
 70
     1
102
RTVSPropertyOp28
 70
     1
102
RTVSPropertyOp29
 70
     1
102
RTVSPropertyOp30
 70
     1
102
RTVSPropertyOp31
 70
     1
102
RTVSPropertyOp32
 70
     1
102
RTVSPropertyOp33
 70
     1
102
RTVSPropertyOp34
 70
     1
102
RTVSPropertyOp35
 70
     1
102
RTVSPropertyOp36
 70
     1
102
RTVSPropertyOp37
 70
     1
102
RTVSPropertyOp38
 70
     1
102
RTVSPropertyOp39
 70
     1
102
RTVSPropertyOp40
 70
     1
102
RTVSPropertyOp41
 70
     1
102
RTVSPropertyOp42
 70
     1
102
RTVSPropertyOp43
 70
     1
102
RTVSPropertyOp44
 70
     1
102
RTVSPropertyOp45
 70
     1
102
RTVSPropertyOp46
 70
     1
102
RTVSPropertyOp47
 70
     1
102
RTVSPropertyOp48
 70
     1
102
RTVSPropertyOp49
 70
     1
102
RTVSPropertyOp50
 70
     1
102
RTVSPropertyOp51
 70
     0
102
RTVSPropertyOp52
 70
     0
102
RTVSPropertyOp53
 70
     1
102
RTVSPropertyOp54
 70
     1
102
RTVSPropertyOp55
 70
     1
102
RTVSPropertyOp56
 70
     1
102
RTVSPropertyOp57
 70
     1
102
RTVSPropertyOp58
 70
     1
102
RTVSPropertyOp59
 70
     1
102
RTVSPropertyOp60
 70
     1
102
RTVSPropertyOp61
 70
     1
102
RTVSPropertyOp62
 70
     1
  0
XRECORD
  5
D4BA
102
{ACAD_REACTORS
330
D4B9
102
}
330
D4B9
100
AcDbXrecord
280
     1
102
RTVSPost2010Prop28
280
     0
102
RTVSPost2010PropOp28
 70
     1
102
RTVSPost2010Prop29
280
     1
102
RTVSPost2010PropOp29
 70
     1
102
RTVSPost2010Prop30
280
     1
102
RTVSPost2010PropOp30
 70
     1
102
RTVSPost2010Prop31
280
     0
102
RTVSPost2010PropOp31
 70
     1
102
RTVSPost2010Prop32
280
     0
102
RTVSPost2010PropOp32
 70
     1
102
RTVSPost2010Prop33
280
     0
102
RTVSPost2010PropOp33
 70
     1
102
RTVSPost2010Prop34
280
     0
102
RTVSPost2010PropOp34
 70
     1
102
RTVSPost2010Prop35
280
     0
102
RTVSPost2010PropOp35
 70
     1
102
RTVSPost2010Prop36
280
     0
102
RTVSPost2010PropOp36
 70
     1
102
RTVSPost2010Prop37
 90
       50
102
RTVSPost2010PropOp37
 70
     1
102
RTVSPost2010Prop38
140
0.0
102
RTVSPost2010PropOp38
 70
     1
102
RTVSPost2010Prop39
140
1.0
102
RTVSPost2010PropOp39
 70
     1
102
RTVSPost2010Prop40
 90
        0
102
RTVSPost2010PropOp40
 70
     1
102
RTVSPost2010Prop41ColorIndex
 90
       18
102
RTVSPost2010Prop41ColorRGB
 90
        0
102
RTVSPost2010PropOp41
 70
     1
102
RTVSPost2010Prop42
 90
       50
102
RTVSPost2010PropOp42
 70
     1
102
RTVSPost2010Prop43
 90
        3
102
RTVSPost2010PropOp43
 70
     1
102
RTVSPost2010Prop44ColorIndex
 90
        5
102
RTVSPost2010Prop44ColorRGB
 90
      255
102
RTVSPost2010PropOp44
 70
     1
102
RTVSPost2010Prop45
280
     0
102
RTVSPost2010PropOp45
 70
     1
102
RTVSPost2010Prop46
 90
       50
102
RTVSPost2010PropOp46
 70
     1
102
RTVSPost2010Prop47
 90
       50
102
RTVSPost2010PropOp47
 70
     1
102
RTVSPost2010Prop48
 90
       50
102
RTVSPost2010PropOp48
 70
     1
102
RTVSPost2010Prop49
280
     0
102
RTVSPost2010PropOp49
 70
     1
102
RTVSPost2010Prop50
 90
       50
102
RTVSPost2010PropOp50
 70
     1
102
RTVSPost2010Prop51ColorIndex
 90
      256
102
RTVSPost2010Prop51ColorRGB
 90
-16777216
102
RTVSPost2010PropOp51
 70
     0
102
RTVSPost2010Prop52
140
1.0
102
RTVSPost2010PropOp52
 70
     0
102
RTVSPost2010Prop53
 90
        2
102
RTVSPost2010PropOp53
 70
     1
102
RTVSPost2010Prop54
  1
strokes_ogs.tif
102
RTVSPost2010PropOp54
 70
     1
102
RTVSPost2010Prop55
280
     0
102
RTVSPost2010PropOp55
 70
     1
102
RTVSPost2010Prop56
140
1.0
102
RTVSPost2010PropOp56
 70
     1
102
RTVSPost2010Prop57
140
1.0
102
RTVSPost2010PropOp57
 70
     1
102
RTVSPropertyOp0
 70
     1
102
RTVSPropertyOp1
 70
     1
102
RTVSPropertyOp2
 70
     1
102
RTVSPropertyOp3
 70
     1
102
RTVSPropertyOp4
 70
     1
102
RTVSPropertyOp5
 70
     1
102
RTVSPropertyOp6
 70
     1
102
RTVSPropertyOp7
 70
     1
102
RTVSPropertyOp8
 70
     1
102
RTVSPropertyOp9
 70
     1
102
RTVSPropertyOp10
 70
     1
102
RTVSPropertyOp11
 70
     1
102
RTVSPropertyOp12
 70
     1
102
RTVSPropertyOp13
 70
     1
102
RTVSPropertyOp14
 70
     1
102
RTVSPropertyOp15
 70
     1
102
RTVSPropertyOp16
 70
     1
102
RTVSPropertyOp17
 70
     1
102
RTVSPropertyOp18
 70
     1
102
RTVSPropertyOp19
 70
     1
102
RTVSPropertyOp20
 70
     1
102
RTVSPropertyOp21
 70
     1
102
RTVSPropertyOp22
 70
     1
102
RTVSPropertyOp23
 70
     1
102
RTVSPropertyOp24
 70
     1
102
RTVSPropertyOp25
 70
     1
102
RTVSPropertyOp26
 70
     1
102
RTVSPropertyOp27
 70
     1
102
RTVSPropertyOp28
 70
     1
102
RTVSPropertyOp29
 70
     1
102
RTVSPropertyOp30
 70
     1
102
RTVSPropertyOp31
 70
     1
102
RTVSPropertyOp32
 70
     1
102
RTVSPropertyOp33
 70
     1
102
RTVSPropertyOp34
 70
     1
102
RTVSPropertyOp35
 70
     1
102
RTVSPropertyOp36
 70
     1
102
RTVSPropertyOp37
 70
     1
102
RTVSPropertyOp38
 70
     1
102
RTVSPropertyOp39
 70
     1
102
RTVSPropertyOp40
 70
     1
102
RTVSPropertyOp41
 70
     1
102
RTVSPropertyOp42
 70
     1
102
RTVSPropertyOp43
 70
     1
102
RTVSPropertyOp44
 70
     1
102
RTVSPropertyOp45
 70
     1
102
RTVSPropertyOp46
 70
     1
102
RTVSPropertyOp47
 70
     1
102
RTVSPropertyOp48
 70
     1
102
RTVSPropertyOp49
 70
     1
102
RTVSPropertyOp50
 70
     1
102
RTVSPropertyOp51
 70
     0
102
RTVSPropertyOp52
 70
     0
102
RTVSPropertyOp53
 70
     1
102
RTVSPropertyOp54
 70
     1
102
RTVSPropertyOp55
 70
     1
102
RTVSPropertyOp56
 70
     1
102
RTVSPropertyOp57
 70
     1
102
RTVSPropertyOp58
 70
     1
102
RTVSPropertyOp59
 70
     1
102
RTVSPropertyOp60
 70
     1
102
RTVSPropertyOp61
 70
     1
102
RTVSPropertyOp62
 70
     1
  0
XRECORD
  5
D4AB
102
{ACAD_REACTORS
330
D4AA
102
}
330
D4AA
100
AcDbXrecord
280
     1
102
RTVSPost2010Prop28
280
     0
102
RTVSPost2010PropOp28
 70
     1
102
RTVSPost2010Prop29
280
     1
102
RTVSPost2010PropOp29
 70
     1
102
RTVSPost2010Prop30
280
     1
102
RTVSPost2010PropOp30
 70
     1
102
RTVSPost2010Prop31
280
     0
102
RTVSPost2010PropOp31
 70
     1
102
RTVSPost2010Prop32
280
     0
102
RTVSPost2010PropOp32
 70
     1
102
RTVSPost2010Prop33
280
     0
102
RTVSPost2010PropOp33
 70
     1
102
RTVSPost2010Prop34
280
     0
102
RTVSPost2010PropOp34
 70
     1
102
RTVSPost2010Prop35
280
     0
102
RTVSPost2010PropOp35
 70
     1
102
RTVSPost2010Prop36
280
     0
102
RTVSPost2010PropOp36
 70
     1
102
RTVSPost2010Prop37
 90
       50
102
RTVSPost2010PropOp37
 70
     1
102
RTVSPost2010Prop38
140
0.0
102
RTVSPost2010PropOp38
 70
     1
102
RTVSPost2010Prop39
140
1.0
102
RTVSPost2010PropOp39
 70
     1
102
RTVSPost2010Prop40
 90
        0
102
RTVSPost2010PropOp40
 70
     1
102
RTVSPost2010Prop41ColorIndex
 90
       18
102
RTVSPost2010Prop41ColorRGB
 90
        0
102
RTVSPost2010PropOp41
 70
     1
102
RTVSPost2010Prop42
 90
       50
102
RTVSPost2010PropOp42
 70
     1
102
RTVSPost2010Prop43
 90
        3
102
RTVSPost2010PropOp43
 70
     1
102
RTVSPost2010Prop44ColorIndex
 90
        5
102
RTVSPost2010Prop44ColorRGB
 90
      255
102
RTVSPost2010PropOp44
 70
     1
102
RTVSPost2010Prop45
280
     0
102
RTVSPost2010PropOp45
 70
     1
102
RTVSPost2010Prop46
 90
       50
102
RTVSPost2010PropOp46
 70
     1
102
RTVSPost2010Prop47
 90
       50
102
RTVSPost2010PropOp47
 70
     1
102
RTVSPost2010Prop48
 90
       50
102
RTVSPost2010PropOp48
 70
     1
102
RTVSPost2010Prop49
280
     0
102
RTVSPost2010PropOp49
 70
     1
102
RTVSPost2010Prop50
 90
       50
102
RTVSPost2010PropOp50
 70
     1
102
RTVSPost2010Prop51ColorIndex
 90
      256
102
RTVSPost2010Prop51ColorRGB
 90
-16777216
102
RTVSPost2010PropOp51
 70
     0
102
RTVSPost2010Prop52
140
1.0
102
RTVSPost2010PropOp52
 70
     0
102
RTVSPost2010Prop53
 90
        2
102
RTVSPost2010PropOp53
 70
     1
102
RTVSPost2010Prop54
  1
strokes_ogs.tif
102
RTVSPost2010PropOp54
 70
     1
102
RTVSPost2010Prop55
280
     0
102
RTVSPost2010PropOp55
 70
     1
102
RTVSPost2010Prop56
140
1.0
102
RTVSPost2010PropOp56
 70
     1
102
RTVSPost2010Prop57
140
1.0
102
RTVSPost2010PropOp57
 70
     1
102
RTVSPropertyOp0
 70
     1
102
RTVSPropertyOp1
 70
     1
102
RTVSPropertyOp2
 70
     1
102
RTVSPropertyOp3
 70
     1
102
RTVSPropertyOp4
 70
     1
102
RTVSPropertyOp5
 70
     1
102
RTVSPropertyOp6
 70
     1
102
RTVSPropertyOp7
 70
     1
102
RTVSPropertyOp8
 70
     1
102
RTVSPropertyOp9
 70
     1
102
RTVSPropertyOp10
 70
     1
102
RTVSPropertyOp11
 70
     1
102
RTVSPropertyOp12
 70
     1
102
RTVSPropertyOp13
 70
     1
102
RTVSPropertyOp14
 70
     1
102
RTVSPropertyOp15
 70
     1
102
RTVSPropertyOp16
 70
     1
102
RTVSPropertyOp17
 70
     1
102
RTVSPropertyOp18
 70
     1
102
RTVSPropertyOp19
 70
     1
102
RTVSPropertyOp20
 70
     1
102
RTVSPropertyOp21
 70
     1
102
RTVSPropertyOp22
 70
     1
102
RTVSPropertyOp23
 70
     1
102
RTVSPropertyOp24
 70
     1
102
RTVSPropertyOp25
 70
     1
102
RTVSPropertyOp26
 70
     1
102
RTVSPropertyOp27
 70
     1
102
RTVSPropertyOp28
 70
     1
102
RTVSPropertyOp29
 70
     1
102
RTVSPropertyOp30
 70
     1
102
RTVSPropertyOp31
 70
     1
102
RTVSPropertyOp32
 70
     1
102
RTVSPropertyOp33
 70
     1
102
RTVSPropertyOp34
 70
     1
102
RTVSPropertyOp35
 70
     1
102
RTVSPropertyOp36
 70
     1
102
RTVSPropertyOp37
 70
     1
102
RTVSPropertyOp38
 70
     1
102
RTVSPropertyOp39
 70
     1
102
RTVSPropertyOp40
 70
     1
102
RTVSPropertyOp41
 70
     1
102
RTVSPropertyOp42
 70
     1
102
RTVSPropertyOp43
 70
     1
102
RTVSPropertyOp44
 70
     1
102
RTVSPropertyOp45
 70
     1
102
RTVSPropertyOp46
 70
     1
102
RTVSPropertyOp47
 70
     1
102
RTVSPropertyOp48
 70
     1
102
RTVSPropertyOp49
 70
     1
102
RTVSPropertyOp50
 70
     1
102
RTVSPropertyOp51
 70
     0
102
RTVSPropertyOp52
 70
     0
102
RTVSPropertyOp53
 70
     1
102
RTVSPropertyOp54
 70
     1
102
RTVSPropertyOp55
 70
     1
102
RTVSPropertyOp56
 70
     1
102
RTVSPropertyOp57
 70
     1
102
RTVSPropertyOp58
 70
     1
102
RTVSPropertyOp59
 70
     1
102
RTVSPropertyOp60
 70
     1
102
RTVSPropertyOp61
 70
     1
102
RTVSPropertyOp62
 70
     1
  0
XRECORD
  5
D4B4
102
{ACAD_REACTORS
330
D4B3
102
}
330
D4B3
100
AcDbXrecord
280
     1
102
RTVSPost2010Prop28
280
     0
102
RTVSPost2010PropOp28
 70
     1
102
RTVSPost2010Prop29
280
     1
102
RTVSPost2010PropOp29
 70
     1
102
RTVSPost2010Prop30
280
     1
102
RTVSPost2010PropOp30
 70
     1
102
RTVSPost2010Prop31
280
     0
102
RTVSPost2010PropOp31
 70
     1
102
RTVSPost2010Prop32
280
     0
102
RTVSPost2010PropOp32
 70
     1
102
RTVSPost2010Prop33
280
     0
102
RTVSPost2010PropOp33
 70
     1
102
RTVSPost2010Prop34
280
     0
102
RTVSPost2010PropOp34
 70
     1
102
RTVSPost2010Prop35
280
     0
102
RTVSPost2010PropOp35
 70
     1
102
RTVSPost2010Prop36
280
     0
102
RTVSPost2010PropOp36
 70
     1
102
RTVSPost2010Prop37
 90
       50
102
RTVSPost2010PropOp37
 70
     1
102
RTVSPost2010Prop38
140
0.0
102
RTVSPost2010PropOp38
 70
     1
102
RTVSPost2010Prop39
140
1.0
102
RTVSPost2010PropOp39
 70
     1
102
RTVSPost2010Prop40
 90
        0
102
RTVSPost2010PropOp40
 70
     1
102
RTVSPost2010Prop41ColorIndex
 90
       18
102
RTVSPost2010Prop41ColorRGB
 90
        0
102
RTVSPost2010PropOp41
 70
     1
102
RTVSPost2010Prop42
 90
       50
102
RTVSPost2010PropOp42
 70
     1
102
RTVSPost2010Prop43
 90
        3
102
RTVSPost2010PropOp43
 70
     1
102
RTVSPost2010Prop44ColorIndex
 90
        5
102
RTVSPost2010Prop44ColorRGB
 90
      255
102
RTVSPost2010PropOp44
 70
     1
102
RTVSPost2010Prop45
280
     0
102
RTVSPost2010PropOp45
 70
     1
102
RTVSPost2010Prop46
 90
       50
102
RTVSPost2010PropOp46
 70
     1
102
RTVSPost2010Prop47
 90
       50
102
RTVSPost2010PropOp47
 70
     1
102
RTVSPost2010Prop48
 90
       50
102
RTVSPost2010PropOp48
 70
     1
102
RTVSPost2010Prop49
280
     0
102
RTVSPost2010PropOp49
 70
     1
102
RTVSPost2010Prop50
 90
       50
102
RTVSPost2010PropOp50
 70
     1
102
RTVSPost2010Prop51ColorIndex
 90
      256
102
RTVSPost2010Prop51ColorRGB
 90
-16777216
102
RTVSPost2010PropOp51
 70
     0
102
RTVSPost2010Prop52
140
1.0
102
RTVSPost2010PropOp52
 70
     0
102
RTVSPost2010Prop53
 90
        2
102
RTVSPost2010PropOp53
 70
     1
102
RTVSPost2010Prop54
  1
strokes_ogs.tif
102
RTVSPost2010PropOp54
 70
     1
102
RTVSPost2010Prop55
280
     0
102
RTVSPost2010PropOp55
 70
     1
102
RTVSPost2010Prop56
140
1.0
102
RTVSPost2010PropOp56
 70
     1
102
RTVSPost2010Prop57
140
1.0
102
RTVSPost2010PropOp57
 70
     1
102
RTVSPropertyOp0
 70
     1
102
RTVSPropertyOp1
 70
     1
102
RTVSPropertyOp2
 70
     1
102
RTVSPropertyOp3
 70
     1
102
RTVSPropertyOp4
 70
     1
102
RTVSPropertyOp5
 70
     1
102
RTVSPropertyOp6
 70
     1
102
RTVSPropertyOp7
 70
     1
102
RTVSPropertyOp8
 70
     1
102
RTVSPropertyOp9
 70
     1
102
RTVSPropertyOp10
 70
     1
102
RTVSPropertyOp11
 70
     1
102
RTVSPropertyOp12
 70
     1
102
RTVSPropertyOp13
 70
     1
102
RTVSPropertyOp14
 70
     1
102
RTVSPropertyOp15
 70
     1
102
RTVSPropertyOp16
 70
     1
102
RTVSPropertyOp17
 70
     1
102
RTVSPropertyOp18
 70
     1
102
RTVSPropertyOp19
 70
     1
102
RTVSPropertyOp20
 70
     1
102
RTVSPropertyOp21
 70
     1
102
RTVSPropertyOp22
 70
     1
102
RTVSPropertyOp23
 70
     1
102
RTVSPropertyOp24
 70
     1
102
RTVSPropertyOp25
 70
     1
102
RTVSPropertyOp26
 70
     1
102
RTVSPropertyOp27
 70
     1
102
RTVSPropertyOp28
 70
     1
102
RTVSPropertyOp29
 70
     1
102
RTVSPropertyOp30
 70
     1
102
RTVSPropertyOp31
 70
     1
102
RTVSPropertyOp32
 70
     1
102
RTVSPropertyOp33
 70
     1
102
RTVSPropertyOp34
 70
     1
102
RTVSPropertyOp35
 70
     1
102
RTVSPropertyOp36
 70
     1
102
RTVSPropertyOp37
 70
     1
102
RTVSPropertyOp38
 70
     1
102
RTVSPropertyOp39
 70
     1
102
RTVSPropertyOp40
 70
     1
102
RTVSPropertyOp41
 70
     1
102
RTVSPropertyOp42
 70
     1
102
RTVSPropertyOp43
 70
     1
102
RTVSPropertyOp44
 70
     1
102
RTVSPropertyOp45
 70
     1
102
RTVSPropertyOp46
 70
     1
102
RTVSPropertyOp47
 70
     1
102
RTVSPropertyOp48
 70
     1
102
RTVSPropertyOp49
 70
     1
102
RTVSPropertyOp50
 70
     1
102
RTVSPropertyOp51
 70
     0
102
RTVSPropertyOp52
 70
     0
102
RTVSPropertyOp53
 70
     1
102
RTVSPropertyOp54
 70
     1
102
RTVSPropertyOp55
 70
     1
102
RTVSPropertyOp56
 70
     1
102
RTVSPropertyOp57
 70
     1
102
RTVSPropertyOp58
 70
     1
102
RTVSPropertyOp59
 70
     1
102
RTVSPropertyOp60
 70
     1
102
RTVSPropertyOp61
 70
     1
102
RTVSPropertyOp62
 70
     1
  0
XRECORD
  5
D4BC
102
{ACAD_REACTORS
330
D4BB
102
}
330
D4BB
100
AcDbXrecord
280
     1
102
RTVSPost2010Prop28
280
     0
102
RTVSPost2010PropOp28
 70
     1
102
RTVSPost2010Prop29
280
     1
102
RTVSPost2010PropOp29
 70
     1
102
RTVSPost2010Prop30
280
     1
102
RTVSPost2010PropOp30
 70
     1
102
RTVSPost2010Prop31
280
     0
102
RTVSPost2010PropOp31
 70
     1
102
RTVSPost2010Prop32
280
     0
102
RTVSPost2010PropOp32
 70
     1
102
RTVSPost2010Prop33
280
     0
102
RTVSPost2010PropOp33
 70
     1
102
RTVSPost2010Prop34
280
     0
102
RTVSPost2010PropOp34
 70
     1
102
RTVSPost2010Prop35
280
     0
102
RTVSPost2010PropOp35
 70
     1
102
RTVSPost2010Prop36
280
     0
102
RTVSPost2010PropOp36
 70
     1
102
RTVSPost2010Prop37
 90
       50
102
RTVSPost2010PropOp37
 70
     1
102
RTVSPost2010Prop38
140
0.0
102
RTVSPost2010PropOp38
 70
     1
102
RTVSPost2010Prop39
140
1.0
102
RTVSPost2010PropOp39
 70
     1
102
RTVSPost2010Prop40
 90
        0
102
RTVSPost2010PropOp40
 70
     1
102
RTVSPost2010Prop41ColorIndex
 90
       18
102
RTVSPost2010Prop41ColorRGB
 90
        0
102
RTVSPost2010PropOp41
 70
     1
102
RTVSPost2010Prop42
 90
       50
102
RTVSPost2010PropOp42
 70
     1
102
RTVSPost2010Prop43
 90
        3
102
RTVSPost2010PropOp43
 70
     1
102
RTVSPost2010Prop44ColorIndex
 90
        5
102
RTVSPost2010Prop44ColorRGB
 90
      255
102
RTVSPost2010PropOp44
 70
     1
102
RTVSPost2010Prop45
280
     0
102
RTVSPost2010PropOp45
 70
     1
102
RTVSPost2010Prop46
 90
       50
102
RTVSPost2010PropOp46
 70
     1
102
RTVSPost2010Prop47
 90
       50
102
RTVSPost2010PropOp47
 70
     1
102
RTVSPost2010Prop48
 90
       50
102
RTVSPost2010PropOp48
 70
     1
102
RTVSPost2010Prop49
280
     0
102
RTVSPost2010PropOp49
 70
     1
102
RTVSPost2010Prop50
 90
       50
102
RTVSPost2010PropOp50
 70
     1
102
RTVSPost2010Prop51ColorIndex
 90
      256
102
RTVSPost2010Prop51ColorRGB
 90
-16777216
102
RTVSPost2010PropOp51
 70
     0
102
RTVSPost2010Prop52
140
1.0
102
RTVSPost2010PropOp52
 70
     0
102
RTVSPost2010Prop53
 90
        2
102
RTVSPost2010PropOp53
 70
     1
102
RTVSPost2010Prop54
  1
strokes_ogs.tif
102
RTVSPost2010PropOp54
 70
     1
102
RTVSPost2010Prop55
280
     0
102
RTVSPost2010PropOp55
 70
     1
102
RTVSPost2010Prop56
140
1.0
102
RTVSPost2010PropOp56
 70
     1
102
RTVSPost2010Prop57
140
1.0
102
RTVSPost2010PropOp57
 70
     1
102
RTVSPropertyOp0
 70
     1
102
RTVSPropertyOp1
 70
     1
102
RTVSPropertyOp2
 70
     1
102
RTVSPropertyOp3
 70
     1
102
RTVSPropertyOp4
 70
     1
102
RTVSPropertyOp5
 70
     1
102
RTVSPropertyOp6
 70
     1
102
RTVSPropertyOp7
 70
     1
102
RTVSPropertyOp8
 70
     1
102
RTVSPropertyOp9
 70
     1
102
RTVSPropertyOp10
 70
     1
102
RTVSPropertyOp11
 70
     1
102
RTVSPropertyOp12
 70
     1
102
RTVSPropertyOp13
 70
     1
102
RTVSPropertyOp14
 70
     1
102
RTVSPropertyOp15
 70
     1
102
RTVSPropertyOp16
 70
     1
102
RTVSPropertyOp17
 70
     1
102
RTVSPropertyOp18
 70
     1
102
RTVSPropertyOp19
 70
     1
102
RTVSPropertyOp20
 70
     1
102
RTVSPropertyOp21
 70
     1
102
RTVSPropertyOp22
 70
     1
102
RTVSPropertyOp23
 70
     1
102
RTVSPropertyOp24
 70
     1
102
RTVSPropertyOp25
 70
     1
102
RTVSPropertyOp26
 70
     1
102
RTVSPropertyOp27
 70
     1
102
RTVSPropertyOp28
 70
     1
102
RTVSPropertyOp29
 70
     1
102
RTVSPropertyOp30
 70
     1
102
RTVSPropertyOp31
 70
     1
102
RTVSPropertyOp32
 70
     1
102
RTVSPropertyOp33
 70
     1
102
RTVSPropertyOp34
 70
     1
102
RTVSPropertyOp35
 70
     1
102
RTVSPropertyOp36
 70
     1
102
RTVSPropertyOp37
 70
     1
102
RTVSPropertyOp38
 70
     1
102
RTVSPropertyOp39
 70
     1
102
RTVSPropertyOp40
 70
     1
102
RTVSPropertyOp41
 70
     1
102
RTVSPropertyOp42
 70
     1
102
RTVSPropertyOp43
 70
     1
102
RTVSPropertyOp44
 70
     1
102
RTVSPropertyOp45
 70
     1
102
RTVSPropertyOp46
 70
     1
102
RTVSPropertyOp47
 70
     1
102
RTVSPropertyOp48
 70
     1
102
RTVSPropertyOp49
 70
     1
102
RTVSPropertyOp50
 70
     1
102
RTVSPropertyOp51
 70
     0
102
RTVSPropertyOp52
 70
     0
102
RTVSPropertyOp53
 70
     1
102
RTVSPropertyOp54
 70
     1
102
RTVSPropertyOp55
 70
     1
102
RTVSPropertyOp56
 70
     1
102
RTVSPropertyOp57
 70
     1
102
RTVSPropertyOp58
 70
     1
102
RTVSPropertyOp59
 70
     1
102
RTVSPropertyOp60
 70
     1
102
RTVSPropertyOp61
 70
     1
102
RTVSPropertyOp62
 70
     1
  0
ENDSEC
  0
EOF
