  0
SECTION
  2
HEADER
  9
$ACADVER
  1
AC1015
  9
$ACADMAINTVER
 70
    20
  9
$DWGCODEPAGE
  3
ANSI_932
  9
$INSBASE
 10
0.0
 20
0.0
 30
0.0
  9
$EXTMIN
 10
75.80200301925891
 20
-990.1775470959655
 30
-0.0015258207003583
  9
$EXTMAX
 10
312.0263680396909
 20
-805.6581385239024
 30
0.0000000349246037
  9
$LIMMIN
 10
0.0
 20
0.0
  9
$LIMMAX
 10
420.0
 20
297.0
  9
$ORTHOMODE
 70
     1
  9
$REGENMODE
 70
     1
  9
$FILLMODE
 70
     1
  9
$QTEXTMODE
 70
     0
  9
$MIRRTEXT
 70
     0
  9
$LTSCALE
 40
1.0
  9
$ATTMODE
 70
     1
  9
$TEXTSIZE
 40
3.5
  9
$TRACEWID
 40
1.0
  9
$TEXTSTYLE
  7
BIGFONT
  9
$CLAYER
  8
1
  9
$CELTYPE
  6
BYLAYER
  9
$CECOLOR
 62
   256
  9
$CELTSCALE
 40
1.0
  9
$DISPSILH
 70
     0
  9
$DIMSCALE
 40
1.0
  9
$DIMASZ
 40
2.5
  9
$DIMEXO
 40
0.0625
  9
$DIMDLI
 40
0.38
  9
$DIMRND
 40
0.0
  9
$DIMDLE
 40
0.0
  9
$DIMEXE
 40
0.18
  9
$DIMTP
 40
0.0
  9
$DIMTM
 40
0.0
  9
$DIMTXT
 40
3.0
  9
$DIMCEN
 40
-1.0
  9
$DIMTSZ
 40
0.0
  9
$DIMTOL
 70
     0
  9
$DIMLIM
 70
     0
  9
$DIMTIH
 70
     0
  9
$DIMTOH
 70
     0
  9
$DIMSE1
 70
     0
  9
$DIMSE2
 70
     0
  9
$DIMTAD
 70
     1
  9
$DIMZIN
 70
    12
  9
$DIMBLK
  1

  9
$DIMASO
 70
     1
  9
$DIMSHO
 70
     1
  9
$DIMPOST
  1

  9
$DIMAPOST
  1

  9
$DIMALT
 70
     0
  9
$DIMALTD
 70
     2
  9
$DIMALTF
 40
25.4
  9
$DIMLFAC
 40
1.0
  9
$DIMTOFL
 70
     1
  9
$DIMTVP
 40
0.0
  9
$DIMTIX
 70
     0
  9
$DIMSOXD
 70
     0
  9
$DIMSAH
 70
     0
  9
$DIMBLK1
  1

  9
$DIMBLK2
  1

  9
$DIMSTYLE
  2
STANDARD
  9
$DIMCLRD
 70
     0
  9
$DIMCLRE
 70
     0
  9
$DIMCLRT
 70
     0
  9
$DIMTFAC
 40
1.0
  9
$DIMGAP
 40
1.0
  9
$DIMJUST
 70
     0
  9
$DIMSD1
 70
     0
  9
$DIMSD2
 70
     0
  9
$DIMTOLJ
 70
     1
  9
$DIMTZIN
 70
    12
  9
$DIMALTZ
 70
     0
  9
$DIMALTTZ
 70
     0
  9
$DIMUPT
 70
     0
  9
$DIMDEC
 70
     2
  9
$DIMTDEC
 70
     2
  9
$DIMALTU
 70
     2
  9
$DIMALTTD
 70
     2
  9
$DIMTXSTY
  7
BIGFONT
  9
$DIMAUNIT
 70
     0
  9
$DIMADEC
 70
     0
  9
$DIMALTRND
 40
0.0
  9
$DIMAZIN
 70
     0
  9
$DIMDSEP
 70
    46
  9
$DIMATFIT
 70
     3
  9
$DIMFRAC
 70
     0
  9
$DIMLDRBLK
  1

  9
$DIMLUNIT
 70
     2
  9
$DIMLWD
 70
    -2
  9
$DIMLWE
 70
    -2
  9
$DIMTMOVE
 70
     0
  9
$LUNITS
 70
     2
  9
$LUPREC
 70
     2
  9
$SKETCHINC
 40
1.0
  9
$FILLETRAD
 40
0.0
  9
$AUNITS
 70
     0
  9
$AUPREC
 70
     0
  9
$MENU
  1
acad
  9
$ELEVATION
 40
0.0
  9
$PELEVATION
 40
0.0
  9
$THICKNESS
 40
0.0
  9
$LIMCHECK
 70
     0
  9
$CHAMFERA
 40
1.0
  9
$CHAMFERB
 40
1.0
  9
$CHAMFERC
 40
0.0
  9
$CHAMFERD
 40
0.0
  9
$SKPOLY
 70
     0
  9
$TDCREATE
 40
2452836.755218403
  9
$TDUCREATE
 40
2452836.380218403
  9
$TDUPDATE
 40
2456118.618911435
  9
$TDUUPDATE
 40
2456118.243911435
  9
$TDINDWG
 40
1.5223210764
  9
$TDUSRTIMER
 40
2456001.249840428
  9
$USRTIMER
 70
     1
  9
$ANGBASE
 50
0.0
  9
$ANGDIR
 70
     0
  9
$PDMODE
 70
     0
  9
$PDSIZE
 40
0.0
  9
$PLINEWID
 40
0.0
  9
$SPLFRAME
 70
     0
  9
$SPLINETYPE
 70
     6
  9
$SPLINESEGS
 70
     8
  9
$HANDSEED
  5
16D94
  9
$SURFTAB1
 70
     6
  9
$SURFTAB2
 70
     6
  9
$SURFTYPE
 70
     6
  9
$SURFU
 70
     6
  9
$SURFV
 70
     6
  9
$UCSBASE
  2

  9
$UCSNAME
  2

  9
$UCSORG
 10
0.0
 20
0.0
 30
0.0
  9
$UCSXDIR
 10
1.0
 20
0.0
 30
0.0
  9
$UCSYDIR
 10
0.0
 20
1.0
 30
0.0
  9
$UCSORTHOREF
  2

  9
$UCSORTHOVIEW
 70
     0
  9
$UCSORGTOP
 10
0.0
 20
0.0
 30
0.0
  9
$UCSORGBOTTOM
 10
0.0
 20
0.0
 30
0.0
  9
$UCSORGLEFT
 10
0.0
 20
0.0
 30
0.0
  9
$UCSORGRIGHT
 10
0.0
 20
0.0
 30
0.0
  9
$UCSORGFRONT
 10
0.0
 20
0.0
 30
0.0
  9
$UCSORGBACK
 10
0.0
 20
0.0
 30
0.0
  9
$PUCSBASE
  2

  9
$PUCSNAME
  2

  9
$PUCSORG
 10
0.0
 20
0.0
 30
0.0
  9
$PUCSXDIR
 10
1.0
 20
0.0
 30
0.0
  9
$PUCSYDIR
 10
0.0
 20
1.0
 30
0.0
  9
$PUCSORTHOREF
  2

  9
$PUCSORTHOVIEW
 70
     0
  9
$PUCSORGTOP
 10
0.0
 20
0.0
 30
0.0
  9
$PUCSORGBOTTOM
 10
0.0
 20
0.0
 30
0.0
  9
$PUCSORGLEFT
 10
0.0
 20
0.0
 30
0.0
  9
$PUCSORGRIGHT
 10
0.0
 20
0.0
 30
0.0
  9
$PUCSORGFRONT
 10
0.0
 20
0.0
 30
0.0
  9
$PUCSORGBACK
 10
0.0
 20
0.0
 30
0.0
  9
$USERI1
 70
     0
  9
$USERI2
 70
     0
  9
$USERI3
 70
     0
  9
$USERI4
 70
     0
  9
$USERI5
 70
     0
  9
$USERR1
 40
0.0
  9
$USERR2
 40
0.0
  9
$USERR3
 40
0.0
  9
$USERR4
 40
0.0
  9
$USERR5
 40
0.0
  9
$WORLDVIEW
 70
     1
  9
$SHADEDGE
 70
     3
  9
$SHADEDIF
 70
    70
  9
$TILEMODE
 70
     1
  9
$MAXACTVP
 70
    16
  9
$PINSBASE
 10
0.0
 20
0.0
 30
0.0
  9
$PLIMCHECK
 70
     0
  9
$PEXTMIN
 10
1.000000000000000E+20
 20
1.000000000000000E+20
 30
1.000000000000000E+20
  9
$PEXTMAX
 10
-1.000000000000000E+20
 20
-1.000000000000000E+20
 30
-1.000000000000000E+20
  9
$PLIMMIN
 10
0.0
 20
0.0
  9
$PLIMMAX
 10
420.0
 20
297.0
  9
$UNITMODE
 70
     0
  9
$VISRETAIN
 70
     0
  9
$PLINEGEN
 70
     0
  9
$PSLTSCALE
 70
     1
  9
$TREEDEPTH
 70
  3020
  9
$CMLSTYLE
  2
STANDARD
  9
$CMLJUST
 70
     0
  9
$CMLSCALE
 40
1.0
  9
$PROXYGRAPHICS
 70
     1
  9
$MEASUREMENT
 70
     1
  9
$CELWEIGHT
370
    -1
  9
$ENDCAPS
280
     0
  9
$JOINSTYLE
280
     0
  9
$LWDISPLAY
290
     0
  9
$INSUNITS
 70
     0
  9
$HYPERLINKBASE
  1

  9
$STYLESHEET
  1
CANON00.CTB
  9
$XEDIT
290
     1
  9
$CEPSNTYPE
380
     0
  9
$PSTYLEMODE
290
     1
  9
$FINGERPRINTGUID
  2
{7545F8F0-0B94-11D4-9EDF-0040266A266F}
  9
$VERSIONGUID
  2
{35E6A202-A71B-4F4E-985D-279464F8EAFD}
  9
$EXTNAMES
290
     1
  9
$PSVPSCALE
 40
0.0
  9
$OLESTARTUP
290
     0
  0
ENDSEC
  0
SECTION
  2
CLASSES
  0
CLASS
  1
DICTIONARYVAR
  2
AcDbDictionaryVar
  3
ObjectDBX Classes
 90
        0
280
     0
281
     0
  0
CLASS
  1
ACDBDICTIONARYWDFLT
  2
AcDbDictionaryWithDefault
  3
ObjectDBX Classes
 90
        0
280
     0
281
     0
  0
CLASS
  1
ACDBPLACEHOLDER
  2
AcDbPlaceHolder
  3
ObjectDBX Classes
 90
        0
280
     0
281
     0
  0
CLASS
  1
LAYOUT
  2
AcDbLayout
  3
ObjectDBX Classes
 90
        0
280
     0
281
     0
  0
CLASS
  1
TABLESTYLE
  2
AcDbTableStyle
  3
ObjectDBX Classes
 90
     4095
280
     0
281
     0
  0
CLASS
  1
AMGSETTINGSOBJ
  2
AmgSettingsObj
  3
"AcadM|Product Description: AutoCAD Mechanical 2000|Company: Autodesk"
 90
    32768
280
     1
281
     0
  0
CLASS
  1
ACME_DOCUMENT
  2
AcMeDbDoc
  3
AcMeServices
 90
    32768
280
     1
281
     0
  0
CLASS
  1
ACMESCOPE
  2
AcMeScope
  3
AcMeServices
 90
    32768
280
     1
281
     0
  0
CLASS
  1
ACMECOMMANDHISTORY
  2
AcMeCommandHistory
  3
AcMeServices
 90
    32768
280
     1
281
     0
  0
CLASS
  1
ACIMSYSVARMAN
  2
AcImSysVarManager
  3
AcMeServices
 90
    32768
280
     1
281
     0
  0
CLASS
  1
ACIMINTSYSVAR
  2
AcImIntSysVar
  3
AcMeServices
 90
    32768
280
     1
281
     0
  0
CLASS
  1
ACMEDRAWINGMAN
  2
AcMeDrawingMan
  3
AcMeServices
 90
    32768
280
     1
281
     0
  0
CLASS
  1
ACMEVIEW
  2
AcMeView
  3
AcMeServices
 90
    32768
280
     1
281
     0
  0
CLASS
  1
ACDBENTITYCACHE
  2
AcMeEntityCache
  3
AcMeServices
 90
    32768
280
     1
281
     0
  0
CLASS
  1
GSMANAGER
  2
AcMeGSManager
  3
AcMeServices
 90
    32768
280
     1
281
     0
  0
CLASS
  1
AMDTINTERNALREACTOR
  2
AmdtInternalReactor
  3
AcMeServices
 90
    32768
280
     1
281
     0
  0
CLASS
  1
ACMESTATEMGR
  2
AcMeStateMgr
  3
AcMeServices
 90
    32768
280
     1
281
     0
  0
CLASS
  1
ACGREFMASTER
  2
AcGrefMaster
  3
AcAttribServices
 90
    32768
280
     1
281
     0
  0
CLASS
  1
AM_DRAWING_MGR
  2
AcDmDwgMgr
  3
AcMechDwgViewMgmt
 90
    32768
280
     1
281
     0
  0
CLASS
  1
AM_DWG_DOCUMENT
  2
AcDmDwgDocument
  3
AcMechDwgViewMgmt
 90
    32768
280
     1
281
     0
  0
CLASS
  1
AM_DWG_SHEET
  2
AcDmSheet
  3
AcMechDwgViewMgmt
 90
    32768
280
     1
281
     0
  0
CLASS
  1
AM_VIEWDIMPARMAP
  2
AcDmViewDimParMap
  3
AcMechDwgViewMgmt
 90
    32768
280
     1
281
     0
  0
CLASS
  1
ACIMREALSYSVAR
  2
AcImRealSysVar
  3
AcMeServices
 90
    32768
280
     1
281
     0
  0
CLASS
  1
AM_DWGMGR_NAME
  2
AcDmDwgMgrName
  3
AcMechDwgViewMgmt
 90
    32768
280
     1
281
     0
  0
CLASS
  1
ACME_DATABASE
  2
AcMeDbDatabase
  3
AcMeServices
 90
    32768
280
     1
281
     0
  0
CLASS
  1
ACRFINSADJUSTERMGR
  2
AcRfInsAdjusterMgr
  3
AcMeServices
 90
    32768
280
     1
281
     0
  0
CLASS
  1
ACGREFACADMASTER
  2
AcGrefacadMaster
  3
AcGrefServices
 90
    32768
280
     1
281
     0
  0
CLASS
  1
AMDTMENUSTATEMGR
  2
AmdtMenuStateMgr
  3
McadcomServices
 90
    32768
280
     1
281
     0
  0
CLASS
  1
AMDTMCOMMENUSTATE
  2
AmdtMcomMenuState
  3
McadcomServices
 90
    32768
280
     1
281
     0
  0
CLASS
  1
AMIMASTER
  2
AmiMaster
  3
AmiServices
 90
    32768
280
     1
281
     0
  0
CLASS
  1
MAPIAMMOUDLE
  2
MApiAmModule
  3
MApiAmServices
 90
    32768
280
     1
281
     0
  0
CLASS
  1
ACIMSTRSYSVAR
  2
AcImStrSysVar
  3
AcMeServices
 90
    32768
280
     1
281
     0
  0
CLASS
  1
AMDTADMENUSTATE
  2
AmdtAdMenuState
  3
DesignerServices
 90
    32768
280
     1
281
     0
  0
CLASS
  1
ADAPPL
  2
AcAdAppl
  3
DesignerServices
 90
    32768
280
     1
281
     0
  0
CLASS
  1
DEPMGR
  2
AcAdDepMgr
  3
DesignerServices
 90
    32768
280
     1
281
     0
  0
CLASS
  1
PARAMMGR
  2
AcAdParamMgr
  3
DesignerServices
 90
    32768
280
     1
281
     0
  0
CLASS
  1
PARAMSCOPE
  2
AcAdParamScope
  3
DesignerServices
 90
    32768
280
     1
281
     0
  0
CLASS
  1
NAMEDAPPL
  2
AcAdNamedAppl
  3
DesignerServices
 90
    32768
280
     1
281
     0
  0
CLASS
  1
AMDTDMMENUSTATE
  2
AmdtDmMenuState
  3
AcMechDwgViewMgmt
 90
    32768
280
     1
281
     0
  0
CLASS
  1
AMDTAMMENUSTATE
  2
AmdtAmMenuState
  3
DesignerAssemblies
 90
    32768
280
     1
281
     0
  0
CLASS
  1
ACAMPROJECT
  2
AcAmProject
  3
DesignerAssemblies
 90
    32768
280
     1
281
     0
  0
CLASS
  1
ACAMGRCOMPDEF
  2
AcAmGrCompDef
  3
DesignerAssemblies
 90
    32768
280
     1
281
     0
  0
CLASS
  1
ACCMCONTEXT
  2
AcCmContext
  3
DesignerAssemblies
 90
    32768
280
     1
281
     0
  0
CLASS
  1
ACAMCOMPDEF
  2
AcAmCompDef
  3
DesignerAssemblies
 90
    32768
280
     1
281
     0
  0
CLASS
  1
ACAMCOMPDEFMGR
  2
AcAmCompDefMgr
  3
DesignerAssemblies
 90
    32768
280
     1
281
     0
  0
CLASS
  1
AMCONTEXTMGR
  2
AcAmContextMgr
  3
DesignerAssemblies
 90
    32768
280
     1
281
     0
  0
CLASS
  1
ACAMCONTEXTMODELER
  2
AcAmContextModeler
  3
DesignerAssemblies
 90
    32768
280
     1
281
     0
  0
CLASS
  1
ACMDATADICTIONARY
  2
AcmDataDictionary
  3
"AcmSymBB|Product Description: AutoCAD Mechanical 2004 DX|Company: Autodesk"
 90
    32768
280
     1
281
     0
  0
CLASS
  1
CATALOGSTATE
  2
AcAmCatalogState
  3
DesignerAssemblies
 90
    32768
280
     1
281
     0
  0
CLASS
  1
ACAMGRCOMPDEFSET
  2
AcAmGrCompDefSet
  3
DesignerAssemblies
 90
    32768
280
     1
281
     0
  0
CLASS
  1
AMDTBROWSERDBTAB
  2
AmdtBrowserDbTab
  3
McadcomServices
 90
    32768
280
     1
281
     0
  0
CLASS
  1
CBROWSERAPPOBJECT
  2
CBrowserAppObject
  3
McadcomServices
 90
    32768
280
     1
281
     0
  0
CLASS
  1
DM_PLACEHOLDER
  2
AcDmSelsetPlaceholder
  3
AcMechDwgViewMgmt
 90
    32768
280
     1
281
     0
  0
CLASS
  1
ACMSTANDARDISO
  2
AcmStandardISO
  3
"Amdt_StdImp|Product Description: AutoCAD Mechanical 2004 DX|Company: Autodesk"
 90
    32768
280
     1
281
     0
  0
CLASS
  1
AMGOBJPROPCFG
  2
AmgObjPropCfg
  3
"AmgLay|Product Description: AutoCAD Mechanical 2000|Company: Autodesk"
 90
    32769
280
     1
281
     0
  0
CLASS
  1
AMDTEDGESTANDARDISO13715
  2
AmdtEdgeStdISO13715
  3
"Amdt_StdImp|Product Description: AutoCAD Mechanical 2004 DX|Company: Autodesk"
 90
    32768
280
     1
281
     0
  0
CLASS
  1
ACMSURFSTANDARDISO
  2
AcmSurfTextStdISO
  3
"Amdt_StdImp|Product Description: AutoCAD Mechanical 2004 DX|Company: Autodesk"
 90
    32768
280
     1
281
     0
  0
CLASS
  1
ACMFCFSTANDARDISO
  2
AcmFCFStdISO
  3
"Amdt_StdImp|Product Description: AutoCAD Mechanical 2004 DX|Company: Autodesk"
 90
    32768
280
     1
281
     0
  0
CLASS
  1
ACMWELDSTANDARDISO
  2
AcmWeldingStdISO
  3
"Amdt_StdImp|Product Description: AutoCAD Mechanical 2004 DX|Company: Autodesk"
 90
    32768
280
     1
281
     0
  0
CLASS
  1
ACMIDSTANDARDISO
  2
AcmIdStdISO
  3
"Amdt_StdImp|Product Description: AutoCAD Mechanical 2004 DX|Company: Autodesk"
 90
    32768
280
     1
281
     0
  0
CLASS
  1
ACMDATUMSTANDARDISO
  2
AcmDatumStdISO
  3
"Amdt_StdImp|Product Description: AutoCAD Mechanical 2004 DX|Company: Autodesk"
 90
    32768
280
     1
281
     0
  0
CLASS
  1
ACMBOMSTANDARDISO
  2
AcmBOMStdISO
  3
"Amdt_StdImp|Product Description: AutoCAD Mechanical 2004 DX|Company: Autodesk"
 90
    32768
280
     1
281
     0
  0
CLASS
  1
ACMDETAILSTANDARDISO
  2
AmdtDetailSymStdISO
  3
"Amdt_StdImp|Product Description: AutoCAD Mechanical 2004 DX|Company: Autodesk"
 90
    32768
280
     1
281
     0
  0
CLASS
  1
ACMSECTIONSTANDARDISO
  2
AmdtSectionSymStdISO
  3
"Amdt_StdImp|Product Description: AutoCAD Mechanical 2004 DX|Company: Autodesk"
 90
    32768
280
     1
281
     0
  0
CLASS
  1
ACMCENTERLINESTANDARDISO
  2
AmdtCenterLineStdISO
  3
"Amdt_StdImp|Product Description: AutoCAD Mechanical 2004 DX|Company: Autodesk"
 90
    32768
280
     1
281
     0
  0
CLASS
  1
ACMTHREADLINESTANDARDISO
  2
AmdtThreadLineStdISO
  3
"Amdt_StdImp|Product Description: AutoCAD Mechanical 2004 DX|Company: Autodesk"
 90
    32768
280
     1
281
     0
  0
CLASS
  1
ACMNOTESTANDARDISO
  2
AmdtNoteStdISO
  3
"Amdt_StdImp|Product Description: AutoCAD Mechanical 2004 DX|Company: Autodesk"
 90
    32768
280
     1
281
     0
  0
CLASS
  1
AMDTNOTETEMPLATEDB
  2
AmdtNoteTemplateDB
  3
AMDT_STDIMP_MODULE_NAME
 90
    32768
280
     1
281
     0
  0
CLASS
  1
ACAMGLAYSTD
  2
AcAmgLayStd
  3
"AcAmgLayStd|Product Description: AutoCAD Mechanical 2000|Company: Autodesk"
 90
    32768
280
     1
281
     0
  0
CLASS
  1
ACAMGDIMSTD
  2
AcAmgDimStd
  3
"AcAmgDimStd|Product Description: AutoCAD Mechanical 2000|Company: Autodesk"
 90
    32768
280
     1
281
     0
  0
CLASS
  1
ACAMGHOLECHARTSTDISO
  2
AcAmgHoleChartStdISO
  3
ACMSYMBB_MODULE_NAME
 90
    32768
280
     1
281
     0
  0
CLASS
  1
ACAMGTITLESTD
  2
AcAmgTitleStd
  3
"TITLEAPP"
 90
    32768
280
     1
281
     0
  0
CLASS
  1
ACAMGFILTERDAT
  2
AcAmgFilterDat
  3
"AcadM|Product Description: AutoCAD Mechanical 2000|Company: Autodesk"
 90
    32768
280
     1
281
     0
  0
CLASS
  1
SCALE
  2
AcDbScale
  3
ObjectDBX Classes
 90
     1153
280
     0
281
     0
  0
CLASS
  1
RASTERVARIABLES
  2
AcDbRasterVariables
  3
ISM
 90
        0
280
     0
281
     0
  0
CLASS
  1
MATERIAL
  2
AcDbMaterial
  3
ObjectDBX Classes
 90
     1153
280
     0
281
     0
  0
CLASS
  1
VISUALSTYLE
  2
AcDbVisualStyle
  3
ObjectDBX Classes
 90
     4095
280
     0
281
     0
  0
CLASS
  1
MLEADERSTYLE
  2
AcDbMLeaderStyle
  3
ACDB_MLEADERSTYLE_CLASS
 90
     4095
280
     0
281
     0
  0
CLASS
  1
CELLSTYLEMAP
  2
AcDbCellStyleMap
  3
ObjectDBX Classes
 90
     1152
280
     0
281
     0
  0
ENDSEC
  0
SECTION
  2
TABLES
  0
TABLE
  2
VPORT
  5
8
330
0
100
AcDbSymbolTable
 70
     1
  0
VPORT
  5
16C97
330
8
100
AcDbSymbolTableRecord
100
AcDbViewportTableRecord
  2
*Active
 70
     0
 10
0.0
 20
0.0
 11
1.0
 21
1.0
 12
193.9141855294749
 22
-897.917842809934
 13
0.0
 23
0.0
 14
1.0
 24
1.0
 15
10.0
 25
10.0
 16
0.0
 26
0.0
 36
1.0
 17
0.0
 27
0.0
 37
0.0
 40
185.9172828794273
 41
1.525916561314791
 42
50.0
 43
0.0
 44
0.0
 50
0.0
 51
0.0
 71
    16
 72
   100
 73
     1
 74
     0
 75
     0
 76
     0
 77
     0
 78
     0
281
     0
 65
     0
110
0.0
120
0.0
130
0.0
111
1.0
121
0.0
131
0.0
112
0.0
122
1.0
132
0.0
 79
     0
146
0.0
  0
ENDTAB
  0
TABLE
  2
LTYPE
  5
5
330
0
100
AcDbSymbolTable
 70
    24
  0
LTYPE
  5
12
330
5
100
AcDbSymbolTableRecord
100
AcDbLinetypeTableRecord
  2
BYBLOCK
 70
     0
  3

 72
    65
 73
     0
 40
0.0
  0
LTYPE
  5
13
330
5
100
AcDbSymbolTableRecord
100
AcDbLinetypeTableRecord
  2
BYLAYER
 70
     0
  3

 72
    65
 73
     0
 40
0.0
  0
LTYPE
  5
14
330
5
100
AcDbSymbolTableRecord
100
AcDbLinetypeTableRecord
  2
CONTINUOUS
 70
     0
  3
Solid line
 72
    65
 73
     0
 40
0.0
  0
LTYPE
  5
C0D
330
5
100
AcDbSymbolTableRecord
100
AcDbLinetypeTableRecord
  2
CENTER2
 70
     0
  3
___ _ ___ _ ___ _ ___ _ ___ _ ___ _ ___ _ ___ _
 72
    65
 73
     4
 40
28.57499999999999
 49
19.05
 74
     0
 49
-3.174999999999998
 74
     0
 49
3.174999999999998
 74
     0
 49
-3.174999999999998
 74
     0
  0
ENDTAB
  0
TABLE
  2
LAYER
  5
2
102
{ACAD_XDICTIONARY
360
16CC7
102
}
330
0
100
AcDbSymbolTable
 70
     5
  0
LAYER
  5
F
102
{ACAD_XDICTIONARY
360
16D57
102
}
330
2
100
AcDbSymbolTableRecord
100
AcDbLayerTableRecord
  2
0
 70
     0
 62
     2
  6
CONTINUOUS
370
    -3
390
1C61
  0
LAYER
  5
30
330
2
100
AcDbSymbolTableRecord
100
AcDbLayerTableRecord
  2
DEFPOINTS
 70
     0
 62
     7
  6
CONTINUOUS
290
     0
370
    -3
390
1C61
  0
LAYER
  5
526
102
{ACAD_XDICTIONARY
360
16D59
102
}
330
2
100
AcDbSymbolTableRecord
100
AcDbLayerTableRecord
  2
2
 70
     0
 62
     1
  6
CONTINUOUS
370
    -3
390
1C61
  0
LAYER
  5
138F
102
{ACAD_XDICTIONARY
360
16D5B
102
}
330
2
100
AcDbSymbolTableRecord
100
AcDbLayerTableRecord
  2
3
 70
     0
 62
     6
  6
CENTER2
370
    -3
390
1C61
  0
LAYER
  5
1390
102
{ACAD_XDICTIONARY
360
16D5D
102
}
330
2
100
AcDbSymbolTableRecord
100
AcDbLayerTableRecord
  2
1
 70
     0
 62
     7
  6
CONTINUOUS
370
    -3
390
1C61
  0
ENDTAB
  0
TABLE
  2
STYLE
  5
3
330
0
100
AcDbSymbolTable
 70
    10
  0
STYLE
  5
10
330
3
100
AcDbSymbolTableRecord
100
AcDbTextStyleTableRecord
  2
STANDARD
 70
     0
 40
0.0
 41
1.0
 50
0.0
 71
     0
 42
3.5
  3
ISOCP.SHX
  4
extfont.shx
  0
STYLE
  5
52A
330
3
100
AcDbSymbolTableRecord
100
AcDbTextStyleTableRecord
  2
BIGFONT
 70
     0
 40
0.0
 41
1.0
 50
0.0
 71
     0
 42
3.5
  3
txt
  4
bigfont
  0
ENDTAB
  0
TABLE
  2
VIEW
  5
6
330
0
100
AcDbSymbolTable
 70
     0
  0
ENDTAB
  0
TABLE
  2
UCS
  5
7
330
0
100
AcDbSymbolTable
 70
     0
  0
ENDTAB
  0
TABLE
  2
APPID
  5
9
330
0
100
AcDbSymbolTable
 70
    15
  0
APPID
  5
11
330
9
100
AcDbSymbolTableRecord
100
AcDbRegAppTableRecord
  2
ACAD
 70
     0
  0
APPID
  5
323
330
9
100
AcDbSymbolTableRecord
100
AcDbRegAppTableRecord
  2
CONTENTTABDATA
 70
     0
  0
APPID
  5
324
330
9
100
AcDbSymbolTableRecord
100
AcDbRegAppTableRecord
  2
CONTENTCURRENTTAB
 70
     0
  0
APPID
  5
16BB8
330
9
100
AcDbSymbolTableRecord
100
AcDbRegAppTableRecord
  2
MCAD_NO_VIS
 70
     0
  0
APPID
  5
16BB9
330
9
100
AcDbSymbolTableRecord
100
AcDbRegAppTableRecord
  2
ACAD_TEMP_GRAPHIC
 70
     0
  0
APPID
  5
16BE6
330
9
100
AcDbSymbolTableRecord
100
AcDbRegAppTableRecord
  2
AD_DRAW
 70
     0
  0
APPID
  5
16BE9
330
9
100
AcDbSymbolTableRecord
100
AcDbRegAppTableRecord
  2
ACATTRIBSERVICES
 70
     0
  0
APPID
  5
16C09
330
9
100
AcDbSymbolTableRecord
100
AcDbRegAppTableRecord
  2
DESIGNERASSEMBLIES
 70
     0
  0
APPID
  5
16C0F
330
9
100
AcDbSymbolTableRecord
100
AcDbRegAppTableRecord
  2
ACADM_DIM_EDIT
 70
     0
  0
APPID
  5
16C10
330
9
100
AcDbSymbolTableRecord
100
AcDbRegAppTableRecord
  2
AMDT_DM_ADJ
 70
     0
  0
APPID
  5
16C3C
330
9
100
AcDbSymbolTableRecord
100
AcDbRegAppTableRecord
  2
ACAD_DSTYLE_DIMARC_LENGTH_SYMBOL
 70
     0
  0
APPID
  5
16C3D
330
9
100
AcDbSymbolTableRecord
100
AcDbRegAppTableRecord
  2
ACAD_DSTYLE_DIMJOGGED_JOGANGLE_SYMBOL
 70
     0
  0
APPID
  5
16C67
330
9
100
AcDbSymbolTableRecord
100
AcDbRegAppTableRecord
  2
ACAD_EXEMPT_FROM_CAD_STANDARDS
 70
     0
  0
APPID
  5
16CE1
330
9
100
AcDbSymbolTableRecord
100
AcDbRegAppTableRecord
  2
ACAD_DSTYLE_DIMRADIAL_EXTENSION
 70
     0
  0
APPID
  5
16D33
330
9
100
AcDbSymbolTableRecord
100
AcDbRegAppTableRecord
  2
ACAD_MLEADERVER
 70
     0
  0
ENDTAB
  0
TABLE
  2
DIMSTYLE
  5
A
330
0
100
AcDbSymbolTable
 70
    15
100
AcDbDimStyleTable
 71
     1
340
117
  0
DIMSTYLE
105
117
330
A
100
AcDbSymbolTableRecord
100
AcDbDimStyleTableRecord
  2
STANDARD
 70
     0
 41
2.5
 73
     0
 74
     0
 77
     1
 78
    12
140
3.0
141
-1.0
147
1.0
172
     1
271
     2
272
     2
284
    12
340
52A
  0
DIMSTYLE
105
2346
102
{ACAD_REACTORS
330
16441
330
164BA
330
164B9
330
164BB
330
164BC
330
164B8
102
}
330
A
100
AcDbSymbolTableRecord
100
AcDbDimStyleTableRecord
  2
_1
 70
     0
 40
0.0
 41
3.0
 42
0.0
 47
0.1
 48
0.1
 73
     0
 74
     0
 77
     1
 78
     8
140
3.0
141
-3.0
147
1.0
172
     1
284
     8
340
52A
  0
DIMSTYLE
105
16CE9
102
{ACAD_REACTORS
330
16CE7
102
}
330
A
100
AcDbSymbolTableRecord
100
AcDbDimStyleTableRecord
  2
_2
 70
     0
 40
0.0
 41
3.0
 42
0.0
 47
0.1
 48
0.1
 77
     1
 78
     8
 79
     2
140
3.0
141
-3.0
147
1.0
172
     1
179
     3
284
     8
340
52A
  0
ENDTAB
  0
TABLE
  2
BLOCK_RECORD
  5
1
330
0
100
AcDbSymbolTable
 70
     9
  0
BLOCK_RECORD
  5
18
330
1
100
AcDbSymbolTableRecord
100
AcDbBlockTableRecord
  2
*MODEL_SPACE
340
16BAB
  0
BLOCK_RECORD
  5
15
330
1
100
AcDbSymbolTableRecord
100
AcDbBlockTableRecord
  2
*PAPER_SPACE
340
16BAC
  0
BLOCK_RECORD
  5
16442
330
1
100
AcDbSymbolTableRecord
100
AcDbBlockTableRecord
  2
*D0
340
0
  0
BLOCK_RECORD
  5
164BD
330
1
100
AcDbSymbolTableRecord
100
AcDbBlockTableRecord
  2
*D1
340
0
  0
BLOCK_RECORD
  5
164C9
330
1
100
AcDbSymbolTableRecord
100
AcDbBlockTableRecord
  2
*D2
340
0
  0
BLOCK_RECORD
  5
164D5
330
1
100
AcDbSymbolTableRecord
100
AcDbBlockTableRecord
  2
*D3
340
0
  0
BLOCK_RECORD
  5
164E1
330
1
100
AcDbSymbolTableRecord
100
AcDbBlockTableRecord
  2
*D4
340
0
  0
BLOCK_RECORD
  5
164ED
330
1
100
AcDbSymbolTableRecord
100
AcDbBlockTableRecord
  2
*D5
340
0
  0
BLOCK_RECORD
  5
16CEB
330
1
100
AcDbSymbolTableRecord
100
AcDbBlockTableRecord
  2
*D8
340
0
  0
ENDTAB
  0
ENDSEC
  0
SECTION
  2
BLOCKS
  0
BLOCK
  5
44
330
18
100
AcDbEntity
  8
0
100
AcDbBlockBegin
  2
*MODEL_SPACE
 70
     0
 10
0.0
 20
0.0
 30
0.0
  3
*MODEL_SPACE
  1

  0
ENDBLK
  5
45
330
18
100
AcDbEntity
  8
0
100
AcDbBlockEnd
  0
BLOCK
  5
42
330
15
100
AcDbEntity
 67
     1
  8
0
100
AcDbBlockBegin
  2
*PAPER_SPACE
 70
     0
 10
0.0
 20
0.0
 30
0.0
  3
*PAPER_SPACE
  1

  0
ENDBLK
  5
43
330
15
100
AcDbEntity
 67
     1
  8
0
100
AcDbBlockEnd
  0
BLOCK
  5
1644C
330
16442
100
AcDbEntity
  8
0
100
AcDbBlockBegin
  2
*D0
 70
     1
 10
0.0
 20
0.0
 30
0.0
  3
*D0
  1

  0
LINE
  5
1644E
330
16442
100
AcDbEntity
  8
2
 62
     0
100
AcDbLine
 10
227.9607856553055
 20
-854.7223644267134
 30
0.0
 11
227.9607856553055
 21
-846.5845512556878
 31
0.0
  0
LINE
  5
1644F
330
16442
100
AcDbEntity
  8
2
 62
     0
100
AcDbLine
 10
266.0607856553056
 20
-854.7223644267134
 30
0.0
 11
266.0607856553056
 21
-846.5845512556878
 31
0.0
  0
LINE
  5
16450
330
16442
100
AcDbEntity
  8
2
 62
     0
100
AcDbLine
 10
230.9607856553056
 20
-846.7645512556877
 30
0.0
 11
263.0607856553056
 21
-846.7645512556877
 31
0.0
  0
SOLID
  5
16451
330
16442
100
AcDbEntity
  8
2
 62
     0
100
AcDbTrace
 10
230.9607856553056
 20
-846.2645512556877
 30
0.0
 11
230.9607856553056
 21
-847.2645512556876
 31
0.0
 12
227.9607856553055
 22
-846.7645512556877
 32
0.0
 13
227.9607856553055
 23
-846.7645512556877
 33
0.0
  0
SOLID
  5
16452
330
16442
100
AcDbEntity
  8
2
 62
     0
100
AcDbTrace
 10
263.0607856553056
 20
-846.2645512556877
 30
0.0
 11
263.0607856553056
 21
-847.2645512556876
 31
0.0
 12
266.0607856553056
 22
-846.7645512556877
 32
0.0
 13
266.0607856553056
 23
-846.7645512556877
 33
0.0
  0
MTEXT
  5
16453
330
16442
100
AcDbEntity
  8
2
 62
     0
100
AcDbMText
 10
247.0107856553056
 20
-844.2645512556877
 30
0.0
 40
3.0
 41
0.0
 71
     5
 72
     1
  1
\A1;38.1
  7
BIGFONT
 73
     1
 44
1.0
1001
ACAD
1000
MTEXTBEGIN
1070
    73
1070
     1
1070
    44
1040
1.0
1070
    74
1070
     0
1000
MTEXTEND
  0
POINT
  5
16454
330
16442
100
AcDbEntity
  8
DEFPOINTS
 62
     0
100
AcDbPoint
 10
227.9607856553055
 20
-854.7223644267134
 30
0.0
  0
POINT
  5
16455
330
16442
100
AcDbEntity
  8
DEFPOINTS
 62
     0
100
AcDbPoint
 10
266.0607856553056
 20
-854.7223644267134
 30
0.0
  0
POINT
  5
16456
330
16442
100
AcDbEntity
  8
DEFPOINTS
 62
     0
100
AcDbPoint
 10
266.0607856553056
 20
-846.7645512556877
 30
0.0
  0
ENDBLK
  5
1644D
330
16442
100
AcDbEntity
  8
0
100
AcDbBlockEnd
  0
BLOCK
  5
164C7
330
164BD
100
AcDbEntity
  8
0
100
AcDbBlockBegin
  2
*D1
 70
     1
 10
0.0
 20
0.0
 30
0.0
  3
*D1
  1

  0
LINE
  5
16D4E
330
164BD
100
AcDbEntity
  8
2
 62
     0
370
    -2
100
AcDbLine
 10
116.2074231417224
 20
-851.7102903301681
 30
0.0
 11
82.13214549571269
 21
-851.7102903301681
 31
0.0
  0
LINE
  5
16D4F
330
164BD
100
AcDbEntity
  8
2
 62
     0
370
    -2
100
AcDbLine
 10
116.2074231417224
 20
-975.000290330168
 30
0.0
 11
82.13214549571267
 21
-975.000290330168
 31
0.0
  0
LINE
  5
16D50
330
164BD
100
AcDbEntity
  8
2
 62
     0
370
    -2
100
AcDbLine
 10
82.31214549571268
 20
-854.7102903301681
 30
0.0
 11
82.31214549571266
 21
-972.0002903301679
 31
0.0
  0
SOLID
  5
16D51
330
164BD
100
AcDbEntity
  8
2
 62
     0
100
AcDbTrace
 10
81.81214549571269
 20
-854.7102903301681
 30
0.0
 11
82.81214549571268
 21
-854.7102903301681
 31
0.0
 12
82.31214549571268
 22
-851.7102903301681
 32
0.0
 13
82.31214549571268
 23
-851.7102903301681
 33
0.0
  0
SOLID
  5
16D52
330
164BD
100
AcDbEntity
  8
2
 62
     0
100
AcDbTrace
 10
81.81214549571265
 20
-972.0002903301679
 30
0.0
 11
82.81214549571265
 21
-972.0002903301679
 31
0.0
 12
82.31214549571266
 22
-975.000290330168
 32
0.0
 13
82.31214549571266
 23
-975.000290330168
 33
0.0
  0
MTEXT
  5
16D53
330
164BD
100
AcDbEntity
  8
2
 62
     0
100
AcDbMText
 10
79.31214549571281
 20
-913.3552903301682
 30
0.0
 40
3.0
 41
0.0
 71
     5
 72
     1
  1
\A1;Dp %%C123.29
  7
BIGFONT
 11
0.0000000000000001
 21
1.0
 31
0.0
 73
     1
 44
1.0
1001
ACAD
1000
MTEXTBEGIN
1070
    73
1070
     1
1070
    44
1040
1.0
1070
    74
1070
     0
1000
MTEXTEND
  0
POINT
  5
16D54
330
164BD
100
AcDbEntity
  8
DEFPOINTS
 62
     0
100
AcDbPoint
 10
116.2074231417224
 20
-851.7102903301681
 30
0.0
  0
POINT
  5
16D55
330
164BD
100
AcDbEntity
  8
DEFPOINTS
 62
     0
100
AcDbPoint
 10
116.2074231417224
 20
-975.000290330168
 30
0.0
  0
POINT
  5
16D56
330
164BD
100
AcDbEntity
  8
DEFPOINTS
 62
     0
100
AcDbPoint
 10
82.31214549571266
 20
-975.000290330168
 30
0.0
  0
ENDBLK
  5
164C8
330
164BD
100
AcDbEntity
  8
0
100
AcDbBlockEnd
  0
BLOCK
  5
164D3
330
164C9
100
AcDbEntity
  8
0
100
AcDbBlockBegin
  2
*D2
 70
     1
 10
0.0
 20
0.0
 30
0.0
  3
*D2
  1

  0
LINE
  5
16609
330
164C9
100
AcDbEntity
  8
2
 62
     0
370
    -2
100
AcDbLine
 10
121.4574231417223
 20
-851.8552903301682
 30
0.0
 11
89.38589716386333
 21
-851.8552903301682
 31
0.0
  0
LINE
  5
1660A
330
164C9
100
AcDbEntity
  8
2
 62
     0
370
    -2
100
AcDbLine
 10
121.4574231417226
 20
-974.855290330168
 30
0.0
 11
89.38589716386333
 21
-974.855290330168
 31
0.0
  0
LINE
  5
1660B
330
164C9
100
AcDbEntity
  8
2
 62
     0
370
    -2
100
AcDbLine
 10
89.56589716386337
 20
-854.8552903301681
 30
0.0
 11
89.56589716386334
 21
-971.8552903301681
 31
0.0
  0
SOLID
  5
1660C
330
164C9
100
AcDbEntity
  8
2
 62
     0
100
AcDbTrace
 10
90.06589716386335
 20
-854.8552903301681
 30
0.0
 11
89.06589716386337
 21
-854.8552903301681
 31
0.0
 12
89.56589716386337
 22
-851.8552903301682
 32
0.0
 13
89.56589716386337
 23
-851.8552903301682
 33
0.0
  0
SOLID
  5
1660D
330
164C9
100
AcDbEntity
  8
2
 62
     0
100
AcDbTrace
 10
89.06589716386333
 20
-971.8552903301681
 30
0.0
 11
90.06589716386335
 21
-971.8552903301681
 31
0.0
 12
89.56589716386334
 22
-974.855290330168
 32
0.0
 13
89.56589716386334
 23
-974.855290330168
 33
0.0
  0
MTEXT
  5
1660E
330
164C9
100
AcDbEntity
  8
2
 62
     0
100
AcDbMText
 10
87.06589716386334
 20
-913.355290330168
 30
0.0
 40
3.0
 41
0.0
 71
     5
 72
     1
  1
Do %%c\A1;123
  7
BIGFONT
 11
0.0000000000000001
 21
1.0
 31
0.0
 73
     1
 44
1.0
1001
ACAD
1000
MTEXTBEGIN
1070
    73
1070
     1
1070
    44
1040
1.0
1070
    74
1070
     0
1000
MTEXTEND
  0
POINT
  5
1660F
330
164C9
100
AcDbEntity
  8
DEFPOINTS
 62
     0
100
AcDbPoint
 10
121.4574231417223
 20
-851.8552903301682
 30
0.0
  0
POINT
  5
16610
330
164C9
100
AcDbEntity
  8
DEFPOINTS
 62
     0
100
AcDbPoint
 10
121.4574231417226
 20
-974.855290330168
 30
0.0
  0
POINT
  5
16611
330
164C9
100
AcDbEntity
  8
DEFPOINTS
 62
     0
100
AcDbPoint
 10
89.56589716386334
 20
-974.855290330168
 30
0.0
  0
ENDBLK
  5
164D4
330
164C9
100
AcDbEntity
  8
0
100
AcDbBlockEnd
  0
BLOCK
  5
164DF
330
164D5
100
AcDbEntity
  8
0
100
AcDbBlockBegin
  2
*D3
 70
     1
 10
0.0
 20
0.0
 30
0.0
  3
*D3
  1

  0
LINE
  5
16C7F
330
164D5
100
AcDbEntity
  8
2
 62
     0
370
    -2
100
AcDbLine
 10
103.7074231417224
 20
-876.8552903301685
 30
0.0
 11
103.7074231417224
 21
-838.6812865088527
 31
0.0
  0
LINE
  5
16C80
330
164D5
100
AcDbEntity
  8
2
 62
     0
370
    -2
100
AcDbLine
 10
148.7074231417224
 20
-876.8552903301685
 30
0.0
 11
148.7074231417224
 21
-838.6812865088527
 31
0.0
  0
LINE
  5
16C81
330
164D5
100
AcDbEntity
  8
2
 62
     0
370
    -2
100
AcDbLine
 10
106.7074231417224
 20
-838.8612865088525
 30
0.0
 11
145.7074231417224
 21
-838.8612865088525
 31
0.0
  0
SOLID
  5
16C82
330
164D5
100
AcDbEntity
  8
2
 62
     0
100
AcDbTrace
 10
106.7074231417224
 20
-838.3612865088526
 30
0.0
 11
106.7074231417224
 21
-839.3612865088526
 31
0.0
 12
103.7074231417224
 22
-838.8612865088525
 32
0.0
 13
103.7074231417224
 23
-838.8612865088525
 33
0.0
  0
SOLID
  5
16C83
330
164D5
100
AcDbEntity
  8
2
 62
     0
100
AcDbTrace
 10
145.7074231417224
 20
-838.3612865088526
 30
0.0
 11
145.7074231417224
 21
-839.3612865088526
 31
0.0
 12
148.7074231417224
 22
-838.8612865088525
 32
0.0
 13
148.7074231417224
 23
-838.8612865088525
 33
0.0
  0
MTEXT
  5
16C84
330
164D5
100
AcDbEntity
  8
2
 62
     0
100
AcDbMText
 10
126.2074231417224
 20
-836.3612865088525
 30
0.0
 40
3.0
 41
0.0
 71
     5
 72
     1
  1
\A1;45
  7
BIGFONT
 73
     1
 44
1.0
1001
ACAD
1000
MTEXTBEGIN
1070
    73
1070
     1
1070
    44
1040
1.0
1070
    74
1070
     0
1000
MTEXTEND
  0
POINT
  5
16C85
330
164D5
100
AcDbEntity
  8
DEFPOINTS
 62
     0
100
AcDbPoint
 10
103.7074231417224
 20
-876.8552903301685
 30
0.0
  0
POINT
  5
16C86
330
164D5
100
AcDbEntity
  8
DEFPOINTS
 62
     0
100
AcDbPoint
 10
148.7074231417224
 20
-876.8552903301685
 30
0.0
  0
POINT
  5
16C87
330
164D5
100
AcDbEntity
  8
DEFPOINTS
 62
     0
100
AcDbPoint
 10
148.7074231417224
 20
-838.8612865088525
 30
0.0
  0
ENDBLK
  5
164E0
330
164D5
100
AcDbEntity
  8
0
100
AcDbBlockEnd
  0
BLOCK
  5
164EB
330
164E1
100
AcDbEntity
  8
0
100
AcDbBlockBegin
  2
*D4
 70
     1
 10
0.0
 20
0.0
 30
0.0
  3
*D4
  1

  0
LINE
  5
16C8A
330
164E1
100
AcDbEntity
  8
2
 62
     0
370
    -2
100
AcDbLine
 10
103.7074231417224
 20
-876.8552903301685
 30
0.0
 11
96.00049970951459
 21
-876.8552903301685
 31
0.0
  0
LINE
  5
16C8B
330
164E1
100
AcDbEntity
  8
2
 62
     0
370
    -2
100
AcDbLine
 10
103.7074231417224
 20
-949.855290330168
 30
0.0
 11
96.00049970951459
 21
-949.855290330168
 31
0.0
  0
LINE
  5
16C8C
330
164E1
100
AcDbEntity
  8
2
 62
     0
370
    -2
100
AcDbLine
 10
96.1804997095146
 20
-879.8552903301683
 30
0.0
 11
96.1804997095146
 21
-946.8552903301681
 31
0.0
  0
SOLID
  5
16C8D
330
164E1
100
AcDbEntity
  8
2
 62
     0
100
AcDbTrace
 10
95.68049970951459
 20
-879.8552903301683
 30
0.0
 11
96.68049970951459
 21
-879.8552903301683
 31
0.0
 12
96.1804997095146
 22
-876.8552903301685
 32
0.0
 13
96.1804997095146
 23
-876.8552903301685
 33
0.0
  0
SOLID
  5
16C8E
330
164E1
100
AcDbEntity
  8
2
 62
     0
100
AcDbTrace
 10
95.68049970951459
 20
-946.8552903301681
 30
0.0
 11
96.68049970951459
 21
-946.8552903301681
 31
0.0
 12
96.1804997095146
 22
-949.855290330168
 32
0.0
 13
96.1804997095146
 23
-949.855290330168
 33
0.0
  0
MTEXT
  5
16C8F
330
164E1
100
AcDbEntity
  8
2
 62
     0
100
AcDbMText
 10
93.68049970951473
 20
-913.355290330168
 30
0.0
 40
3.0
 41
0.0
 71
     5
 72
     1
  1
\A1;%%c73
  7
BIGFONT
 11
0.0000000000000001
 21
1.0
 31
0.0
 73
     1
 44
1.0
1001
ACAD
1000
MTEXTBEGIN
1070
    73
1070
     1
1070
    44
1040
1.0
1070
    74
1070
     0
1000
MTEXTEND
  0
POINT
  5
16C90
330
164E1
100
AcDbEntity
  8
DEFPOINTS
 62
     0
100
AcDbPoint
 10
103.7074231417224
 20
-876.8552903301685
 30
0.0
  0
POINT
  5
16C91
330
164E1
100
AcDbEntity
  8
DEFPOINTS
 62
     0
100
AcDbPoint
 10
103.7074231417224
 20
-949.855290330168
 30
0.0
  0
POINT
  5
16C92
330
164E1
100
AcDbEntity
  8
DEFPOINTS
 62
     0
100
AcDbPoint
 10
96.1804997095146
 20
-949.855290330168
 30
0.0
  0
ENDBLK
  5
164EC
330
164E1
100
AcDbEntity
  8
0
100
AcDbBlockEnd
  0
BLOCK
  5
164F7
330
164ED
100
AcDbEntity
  8
0
100
AcDbBlockBegin
  2
*D5
 70
     1
 10
0.0
 20
0.0
 30
0.0
  3
*D5
  1

  0
LINE
  5
1651D
330
164ED
100
AcDbEntity
  8
2
 62
     0
370
    -2
100
AcDbLine
 10
118.2574231417224
 20
-857.1618899947369
 30
0.0
 11
118.2574231417224
 21
-844.5155330896623
 31
0.0
  0
LINE
  5
1651E
330
164ED
100
AcDbEntity
  8
2
 62
     0
370
    -2
100
AcDbLine
 10
134.1574231417224
 20
-857.1618899947369
 30
0.0
 11
134.1574231417224
 21
-844.5155330896623
 31
0.0
  0
LINE
  5
1651F
330
164ED
100
AcDbEntity
  8
2
 62
     0
370
    -2
100
AcDbLine
 10
121.2574231417224
 20
-844.6955330896624
 30
0.0
 11
131.1574231417224
 21
-844.6955330896624
 31
0.0
  0
SOLID
  5
16520
330
164ED
100
AcDbEntity
  8
2
 62
     0
100
AcDbTrace
 10
121.2574231417224
 20
-844.1955330896623
 30
0.0
 11
121.2574231417224
 21
-845.1955330896623
 31
0.0
 12
118.2574231417224
 22
-844.6955330896624
 32
0.0
 13
118.2574231417224
 23
-844.6955330896624
 33
0.0
  0
SOLID
  5
16521
330
164ED
100
AcDbEntity
  8
2
 62
     0
100
AcDbTrace
 10
131.1574231417224
 20
-845.1955330896623
 30
0.0
 11
131.1574231417224
 21
-844.1955330896623
 31
0.0
 12
134.1574231417224
 22
-844.6955330896624
 32
0.0
 13
134.1574231417224
 23
-844.6955330896624
 33
0.0
  0
MTEXT
  5
16522
330
164ED
100
AcDbEntity
  8
2
 62
     0
100
AcDbMText
 10
126.2074231417224
 20
-842.1955330896624
 30
0.0
 40
3.0
 41
0.0
 71
     5
 72
     1
  1
\A1;15.9
  7
BIGFONT
 73
     1
 44
1.0
1001
ACAD
1000
MTEXTBEGIN
1070
    73
1070
     1
1070
    44
1040
1.0
1070
    74
1070
     0
1000
MTEXTEND
  0
POINT
  5
16523
330
164ED
100
AcDbEntity
  8
DEFPOINTS
 62
     0
100
AcDbPoint
 10
118.2574231417224
 20
-857.1618899947369
 30
0.0
  0
POINT
  5
16524
330
164ED
100
AcDbEntity
  8
DEFPOINTS
 62
     0
100
AcDbPoint
 10
134.1574231417224
 20
-857.1618899947369
 30
0.0
  0
POINT
  5
16525
330
164ED
100
AcDbEntity
  8
DEFPOINTS
 62
     0
100
AcDbPoint
 10
134.1574231417224
 20
-844.6955330896624
 30
0.0
  0
ENDBLK
  5
164F8
330
164ED
100
AcDbEntity
  8
0
100
AcDbBlockEnd
  0
BLOCK
  5
16CEC
330
16CEB
100
AcDbEntity
  8
0
100
AcDbBlockBegin
  2
*D8
 70
     1
 10
0.0
 20
0.0
 30
0.0
  3
*D8
  1

  0
LINE
  5
16CED
330
16CEB
100
AcDbEntity
  8
2
 62
     0
370
    -2
100
AcDbLine
 10
219.5229505959194
 20
-931.0064033270419
 30
0.0
 11
238.7229505959195
 21
-931.0064033270419
 31
0.0
  0
LINE
  5
16CEE
330
16CEB
100
AcDbEntity
  8
2
 62
     0
370
    -2
100
AcDbLine
 10
238.7229505959195
 20
-931.0064033270419
 30
0.0
 11
241.9105794649141
 21
-924.2175137128596
 31
0.0
  0
LINE
  5
16CEF
330
16CEB
100
AcDbEntity
  8
2
 62
     0
370
    -2
100
AcDbLine
 10
252.1109918456971
 20
-902.4930669474763
 30
0.0
 11
253.386043393295
 21
-899.7775111018034
 31
0.0
  0
MTEXT
  5
16CF0
330
16CEB
100
AcDbEntity
  8
2
 62
     0
100
AcDbMText
 10
228.6229505959194
 20
-928.5064033270419
 30
0.0
 40
3.0
 41
0.0
 71
     5
 72
     1
  1
{\A1;%%c18(下穴)}
  7
BIGFONT
 73
     1
 44
1.0
1001
ACAD
1000
MTEXTBEGIN
1070
    73
1070
     1
1070
    44
1040
1.0
1070
    74
1070
     0
1000
MTEXTEND
  0
LINE
  5
16CF1
330
16CEB
100
AcDbEntity
  8
2
 62
     0
370
    -2
100
AcDbLine
 10
250.8359402980992
 20
-905.2086227931495
 30
0.0
 11
243.185631012512
 21
-921.5019578671867
 31
0.0
  0
SOLID
  5
16CF2
330
16CEB
100
AcDbEntity
  8
2
 62
     0
100
AcDbTrace
 10
251.6583992047516
 20
-902.2805583562099
 30
0.0
 11
252.5635844866426
 21
-902.7055755387426
 31
0.0
 12
250.8359402980992
 22
-905.2086227931495
 32
0.0
 13
250.8359402980992
 23
-905.2086227931495
 33
0.0
  0
SOLID
  5
16CF3
330
16CEB
100
AcDbEntity
  8
2
 62
     0
100
AcDbTrace
 10
242.3631721058596
 20
-924.4300223041262
 30
0.0
 11
241.4579868239686
 21
-924.0050051215936
 31
0.0
 12
243.185631012512
 22
-921.5019578671867
 32
0.0
 13
243.185631012512
 23
-921.5019578671867
 33
0.0
  0
POINT
  5
16CF4
330
16CEB
100
AcDbEntity
  8
DEFPOINTS
 62
     0
100
AcDbPoint
 10
243.185631012512
 20
-921.5019578671867
 30
0.0
  0
POINT
  5
16CF5
330
16CEB
100
AcDbEntity
  8
DEFPOINTS
 62
     0
100
AcDbPoint
 10
250.8359402980992
 20
-905.2086227931495
 30
0.0
  0
ENDBLK
  5
16CF6
330
16CEB
100
AcDbEntity
  8
0
100
AcDbBlockEnd
  0
ENDSEC
  0
SECTION
  2
ENTITIES
  0
TEXT
  5
FDF
330
18
100
AcDbEntity
  8
2
100
AcDbText
 10
61.80397887142635
 20
115.9153310921787
 30
0.0
 40
3.5
  1

  7
BIGFONT
100
AcDbText
  0
TEXT
  5
FE2
330
18
100
AcDbEntity
  8
2
100
AcDbText
 10
203.8957585163355
 20
143.31043555714
 30
0.0
 40
3.5
  1

  7
BIGFONT
100
AcDbText
  0
TEXT
  5
218A
330
18
100
AcDbEntity
  8
2
  6
Continuous
 48
3.0
100
AcDbText
 10
345.2872429042694
 20
59.92647845586116
 30
0.0
 40
3.5
  1

 50
359.780436223055
  7
BIGFONT
 72
     5
 11
360.1971044114504
 21
59.8693419344833
 31
0.0
100
AcDbText
  0
LINE
  5
16402
330
18
100
AcDbEntity
  8
3
100
AcDbLine
 10
182.0107856553056
 20
-913.355290330168
 30
0.0
 11
312.0107856553056
 21
-913.355290330168
 31
0.0
  0
LINE
  5
16403
330
18
100
AcDbEntity
  8
3
100
AcDbLine
 10
247.0107856553056
 20
-848.3552903301681
 30
0.0
 11
247.0107856553056
 21
-978.355290330168
 31
0.0
  0
CIRCLE
  5
16404
330
18
100
AcDbEntity
  8
1
100
AcDbCircle
 10
247.0107856553056
 20
-913.355290330168
 30
0.0
 40
36.4999999999999
  0
LINE
  5
16405
330
18
100
AcDbEntity
  8
3
100
AcDbLine
 10
98.70742314172243
 20
-913.355290330168
 30
0.0
 11
153.7074231417224
 21
-913.355290330168
 31
0.0
  0
LINE
  5
16406
330
18
100
AcDbEntity
  8
3
100
AcDbLine
 10
126.2074231417224
 20
-848.3552903301681
 30
0.0
 11
126.2074231417224
 21
-978.355290330168
 31
0.0
  0
LINE
  5
16407
330
18
100
AcDbEntity
  8
1
100
AcDbLine
 10
103.7074231417224
 20
-876.8552903301685
 30
0.0
 11
118.2574231417222
 21
-876.8552903301682
 31
0.0
  0
LINE
  5
16408
330
18
100
AcDbEntity
  8
1
100
AcDbLine
 10
103.7074231417224
 20
-876.8552903301685
 30
0.0
 11
103.7074231417223
 21
-949.855290330168
 31
0.0
  0
LINE
  5
16409
330
18
100
AcDbEntity
  8
1
100
AcDbLine
 10
118.2574231417224
 20
-857.1618899947369
 30
0.0
 11
118.2574231417222
 21
-876.8552903301682
 31
0.0
  0
LINE
  5
1640A
330
18
100
AcDbEntity
  8
1
100
AcDbLine
 10
134.1574231417224
 20
-859.5552903301681
 30
0.0
 11
118.2574231417224
 21
-859.5552903301683
 31
0.0
  0
LINE
  5
1640B
330
18
100
AcDbEntity
  8
1
100
AcDbLine
 10
134.1574231417224
 20
-857.1618899947369
 30
0.0
 11
134.1574231417223
 21
-876.8552903301682
 31
0.0
  0
LINE
  5
1640C
330
18
100
AcDbEntity
  8
3
100
AcDbLine
 10
136.2074231417224
 20
-851.7102903301683
 30
0.0
 11
116.2074231417224
 21
-851.7102903301683
 31
0.0
  0
LINE
  5
1640D
330
18
100
AcDbEntity
  8
1
100
AcDbLine
 10
130.9574231417225
 20
-851.8552903301682
 30
0.0
 11
121.4574231417223
 21
-851.8552903301682
 31
0.0
  0
TEXT
  5
1640E
330
18
100
AcDbEntity
  8
2
100
AcDbText
 10
75.81263429086316
 20
-809.1947353852486
 30
0.0
 40
3.5
  1

  7
BIGFONT
100
AcDbText
  0
CIRCLE
  5
16411
330
18
100
AcDbEntity
  8
3
100
AcDbCircle
 10
247.0107856553056
 20
-913.355290330168
 30
0.0
 40
61.645
  0
LINE
  5
16413
330
18
100
AcDbEntity
  8
1
100
AcDbLine
 10
148.7074231417224
 20
-876.8552903301685
 30
0.0
 11
134.1574231417223
 21
-876.8552903301682
 31
0.0
  0
LINE
  5
16414
330
18
100
AcDbEntity
  8
1
100
AcDbLine
 10
148.7074231417224
 20
-876.8552903301685
 30
0.0
 11
148.7074231417224
 21
-949.8552903301677
 31
0.0
  0
ARC
  5
16415
330
18
100
AcDbEntity
  8
1
100
AcDbCircle
 10
247.0107856553056
 20
-913.355290330168
 30
0.0
 40
61.5
100
AcDbArc
 50
187.8391085227543
 51
208.1608914772457
  0
LINE
  5
1641C
330
18
100
AcDbEntity
  8
3
100
AcDbLine
 10
136.2074231417224
 20
-975.000290330168
 30
0.0
 11
116.2074231417224
 21
-975.000290330168
 31
0.0
  0
LINE
  5
1641D
330
18
100
AcDbEntity
  8
1
100
AcDbLine
 10
134.1574231417224
 20
-967.155290330168
 30
0.0
 11
118.2574231417224
 21
-967.155290330168
 31
0.0
  0
LINE
  5
1641E
330
18
100
AcDbEntity
  8
1
100
AcDbLine
 10
130.9574231417228
 20
-974.855290330168
 30
0.0
 11
121.4574231417226
 21
-974.855290330168
 31
0.0
  0
LINE
  5
1641F
330
18
100
AcDbEntity
  8
1
100
AcDbLine
 10
118.2574231417224
 20
-969.5486906655997
 30
0.0
 11
118.2574231417222
 21
-949.855290330168
 31
0.0
  0
LINE
  5
16420
330
18
100
AcDbEntity
  8
1
100
AcDbLine
 10
134.1574231417224
 20
-969.5486906655997
 30
0.0
 11
134.1574231417223
 21
-949.855290330168
 31
0.0
  0
ARC
  5
16421
330
18
100
AcDbEntity
  8
1
100
AcDbCircle
 10
184.7107856553057
 20
-913.355290330168
 30
0.0
 40
8.5
100
AcDbArc
 50
279.3074222067021
 51
80.69257779329792
  0
ARC
  5
1642B
330
18
100
AcDbEntity
  8
1
100
AcDbCircle
 10
196.6090269057467
 20
-949.9743115479891
 30
0.0
 40
8.5
100
AcDbArc
 50
315.307422206702
 51
116.6925777932979
  0
ARC
  5
1642C
330
18
100
AcDbEntity
  8
1
100
AcDbCircle
 10
247.0107856553058
 20
-913.355290330168
 30
0.0
 40
61.5
100
AcDbArc
 50
223.8391085227544
 51
244.1608914772457
  0
ARC
  5
1642D
330
18
100
AcDbEntity
  8
1
100
AcDbCircle
 10
227.7590269057464
 20
-972.6061112953562
 30
0.0
 40
8.5
100
AcDbArc
 50
351.307422206702
 51
152.692577793298
  0
ARC
  5
1642E
330
18
100
AcDbEntity
  8
1
100
AcDbCircle
 10
247.0107856553056
 20
-913.355290330168
 30
0.0
 40
61.5
100
AcDbArc
 50
259.8391085227544
 51
280.1608914772456
  0
ARC
  5
1642F
330
18
100
AcDbEntity
  8
1
100
AcDbCircle
 10
266.2625444048647
 20
-972.6061112953562
 30
0.0
 40
8.5
100
AcDbArc
 50
27.30742220670199
 51
188.6925777932979
  0
ARC
  5
16430
330
18
100
AcDbEntity
  8
1
100
AcDbCircle
 10
247.0107856553054
 20
-913.355290330168
 30
0.0
 40
61.5
100
AcDbArc
 50
295.8391085227543
 51
316.1608914772457
  0
ARC
  5
16431
330
18
100
AcDbEntity
  8
1
100
AcDbCircle
 10
297.412544404865
 20
-949.9743115479891
 30
0.0
 40
8.5
100
AcDbArc
 50
63.30742220670209
 51
224.6925777932978
  0
ARC
  5
16432
330
18
100
AcDbEntity
  8
1
100
AcDbCircle
 10
247.0107856553058
 20
-913.355290330168
 30
0.0
 40
61.5
100
AcDbArc
 50
331.8391085227544
 51
352.1608914772456
  0
ARC
  5
16433
330
18
100
AcDbEntity
  8
1
100
AcDbCircle
 10
309.3107856553056
 20
-913.355290330168
 30
0.0
 40
8.5
100
AcDbArc
 50
99.30742220670206
 51
260.6925777932979
  0
ARC
  5
16434
330
18
100
AcDbEntity
  8
1
100
AcDbCircle
 10
247.0107856553056
 20
-913.355290330168
 30
0.0
 40
61.5
100
AcDbArc
 50
7.839108522754419
 51
28.1608914772457
  0
ARC
  5
16435
330
18
100
AcDbEntity
  8
1
100
AcDbCircle
 10
297.4125444048651
 20
-876.7362691123468
 30
0.0
 40
8.5
100
AcDbArc
 50
135.307422206702
 51
296.6925777932979
  0
ARC
  5
16436
330
18
100
AcDbEntity
  8
1
100
AcDbCircle
 10
247.010785655306
 20
-913.355290330168
 30
0.0
 40
61.5
100
AcDbArc
 50
43.83910852275437
 51
64.16089147724568
  0
ARC
  5
16437
330
18
100
AcDbEntity
  8
1
100
AcDbCircle
 10
266.2625444048648
 20
-854.1044693649801
 30
0.0
 40
8.5
100
AcDbArc
 50
171.307422206702
 51
332.6925777932979
  0
ARC
  5
16438
330
18
100
AcDbEntity
  8
1
100
AcDbCircle
 10
247.0107856553056
 20
-913.355290330168
 30
0.0
 40
61.5
100
AcDbArc
 50
79.83910852275439
 51
100.1608914772456
  0
ARC
  5
16439
330
18
100
AcDbEntity
  8
1
100
AcDbCircle
 10
227.7590269057465
 20
-854.1044693649803
 30
0.0
 40
8.5
100
AcDbArc
 50
207.307422206702
 51
8.692577793297955
  0
ARC
  5
1643A
330
18
100
AcDbEntity
  8
1
100
AcDbCircle
 10
247.0107856553056
 20
-913.355290330168
 30
0.0
 40
61.5
100
AcDbArc
 50
115.8391085227543
 51
136.1608914772456
  0
ARC
  5
1643B
330
18
100
AcDbEntity
  8
1
100
AcDbCircle
 10
196.6090269057465
 20
-876.7362691123468
 30
0.0
 40
8.5
100
AcDbArc
 50
243.307422206702
 51
44.69257779329796
  0
ARC
  5
1643C
330
18
100
AcDbEntity
  8
1
100
AcDbCircle
 10
247.0107856553058
 20
-913.355290330168
 30
0.0
 40
61.5
100
AcDbArc
 50
151.8391085227543
 51
172.1608914772456
  0
LINE
  5
1643E
330
18
100
AcDbEntity
  8
2
100
AcDbLine
 10
227.6517832222155
 20
-853.7713031792932
 30
0.0
 11
228.2697880883956
 21
-855.6734256741338
 31
0.0
  0
LINE
  5
16440
330
18
100
AcDbEntity
  8
2
100
AcDbLine
 10
266.3697880883956
 20
-853.7713031792932
 30
0.0
 11
265.7517832222156
 21
-855.6734256741338
 31
0.0
  0
DIMENSION
  5
16441
330
18
100
AcDbEntity
  8
2
100
AcDbDimension
  2
*D0
 10
266.0607856553056
 20
-846.7645512556877
 30
0.0
 11
247.0107856553056
 21
-844.2645512556877
 31
0.0
 70
    33
 71
     5
 42
-1.0
  3
_1
100
AcDbAlignedDimension
 13
227.9607856553055
 23
-854.7223644267134
 33
0.0
 14
266.0607856553056
 24
-854.7223644267134
 34
0.0
1001
ACAD
1000
DSTYLE
1002
{
1070
    40
1040
1.0
1002
}
  0
DIMENSION
  5
164B8
330
18
100
AcDbEntity
  8
2
100
AcDbDimension
  2
*D5
 10
134.1574231417224
 20
-844.6955330896624
 30
0.0
 11
126.2074231417224
 21
-842.1955330896624
 31
0.0
 70
    32
 71
     5
 42
15.89999999999999
  3
_1
100
AcDbAlignedDimension
 13
118.2574231417224
 23
-857.1618899947369
 33
0.0
 14
134.1574231417224
 24
-857.1618899947369
 34
0.0
100
AcDbRotatedDimension
1001
ACAD
1000
DSTYLE
1002
{
1070
    40
1040
1.0
1002
}
  0
DIMENSION
  5
164B9
330
18
100
AcDbEntity
  8
2
100
AcDbDimension
  2
*D2
 10
89.56589716386334
 20
-974.855290330168
 30
0.0
 11
87.06589716386334
 21
-913.355290330168
 31
0.0
 70
    32
  1
Do %%c<>
 71
     5
 42
122.9999999999999
  3
_1
100
AcDbAlignedDimension
 13
121.4574231417223
 23
-851.8552903301682
 33
0.0
 14
121.4574231417226
 24
-974.855290330168
 34
0.0
 50
90.0
100
AcDbRotatedDimension
1001
ACAD
1000
DSTYLE
1002
{
1070
    40
1040
1.0
1002
}
  0
DIMENSION
  5
164BA
330
18
100
AcDbEntity
  8
2
100
AcDbDimension
  2
*D1
 10
82.31214549571266
 20
-975.000290330168
 30
0.0
 11
79.31214549571281
 21
-913.3552903301682
 31
0.0
 70
    32
  1
Dp %%C<>
 71
     5
 42
123.2899999999998
  3
_1
100
AcDbAlignedDimension
 13
116.2074231417224
 23
-851.7102903301681
 33
0.0
 14
116.2074231417224
 24
-975.000290330168
 34
0.0
 50
90.0
100
AcDbRotatedDimension
1001
ACAD
1000
DSTYLE
1002
{
1070
    40
1040
1.0
1002
}
  0
DIMENSION
  5
164BB
330
18
100
AcDbEntity
  8
2
100
AcDbDimension
  2
*D3
 10
148.7074231417224
 20
-838.8612865088525
 30
0.0
 11
126.2074231417224
 21
-836.3612865088525
 31
0.0
 70
    32
 71
     5
 42
44.99999999999999
  3
_1
100
AcDbAlignedDimension
 13
103.7074231417224
 23
-876.8552903301685
 33
0.0
 14
148.7074231417224
 24
-876.8552903301685
 34
0.0
100
AcDbRotatedDimension
1001
ACAD
1000
DSTYLE
1002
{
1070
    40
1040
1.0
1002
}
  0
DIMENSION
  5
164BC
330
18
100
AcDbEntity
  8
2
100
AcDbDimension
  2
*D4
 10
96.1804997095146
 20
-949.855290330168
 30
0.0
 11
93.68049970951473
 21
-913.355290330168
 31
0.0
 70
    32
  1
%%c<>
 71
     5
 42
72.99999999999954
  3
_1
100
AcDbAlignedDimension
 13
103.7074231417224
 23
-876.8552903301685
 33
0.0
 14
103.7074231417224
 24
-949.855290330168
 34
0.0
 50
90.0
100
AcDbRotatedDimension
1001
ACAD
1000
DSTYLE
1002
{
1070
    40
1040
1.0
1002
}
  0
LINE
  5
16C88
330
18
100
AcDbEntity
  8
1
100
AcDbLine
 10
103.7074231417224
 20
-949.855290330168
 30
0.0
 11
118.2574231417222
 21
-949.855290330168
 31
0.0
  0
LINE
  5
16C89
330
18
100
AcDbEntity
  8
1
100
AcDbLine
 10
148.7074231417224
 20
-949.855290330168
 30
0.0
 11
134.1574231417223
 21
-949.855290330168
 31
0.0
  0
TEXT
  5
16CC1
330
18
100
AcDbEntity
  8
2
100
AcDbText
 10
272.4620420369869
 20
-990.1382697500672
 30
0.0
 40
3.5
  1
DATE2020.5.1
  7
BIGFONT
100
AcDbText
  0
CIRCLE
  5
16CE2
330
18
100
AcDbEntity
  8
1
100
AcDbCircle
 10
247.0107856553058
 20
-913.355290330168
 30
0.0
 40
9.0
  0
DIMENSION
  5
16CE7
330
18
100
AcDbEntity
  8
2
100
AcDbDimension
  2
*D8
 10
250.8359402980992
 20
-905.2086227931495
 30
0.0
 11
228.6229505959194
 21
-931.0064033270419
 31
0.0
 70
   163
  1
{<>(下穴)}
 71
     5
 42
18.00000000000007
  3
_2
100
AcDbDiametricDimension
 15
243.185631012512
 25
-921.5019578671867
 35
0.0
 40
0.0
1001
ACAD
1000
DSTYLE
1002
{
1070
    40
1040
1.0
1070
   179
1070
     3
1070
    79
1070
     2
1002
}
1001
ACAD_DSTYLE_DIMRADIAL_EXTENSION
1070
   387
1070
     1
1070
   388
1040
0.0
1070
   390
1040
6.283185307179584
  0
LINE
  5
16CF8
330
18
100
AcDbEntity
  8
1
100
AcDbLine
 10
148.7074231417224
 20
-922.355290330168
 30
0.0
 11
103.7074231417224
 21
-922.355290330168
 31
0.0
  0
LINE
  5
16CFA
330
18
100
AcDbEntity
  8
1
100
AcDbLine
 10
148.7074231417224
 20
-904.355290330168
 30
0.0
 11
103.7074231417224
 21
-904.355290330168
 31
0.0
  0
ARC
  5
16CFB
330
18
100
AcDbEntity
  8
1
100
AcDbCircle
 10
124.2574231417224
 20
-857.1618899947369
 30
0.0
 40
6.0
100
AcDbArc
 50
117.8181392846553
 51
180.0
  0
ARC
  5
16CFC
330
18
100
AcDbEntity
  8
1
100
AcDbCircle
 10
128.1574231417224
 20
-857.1618899947369
 30
0.0
 40
6.0
100
AcDbArc
 50
0.0
 51
62.18186071534475
  0
ARC
  5
16CFD
330
18
100
AcDbEntity
  8
1
100
AcDbCircle
 10
124.2574231417227
 20
-969.5486906655997
 30
0.0
 40
6.0
100
AcDbArc
 50
180.0000000000011
 51
242.1818607153447
  0
ARC
  5
16CFE
330
18
100
AcDbEntity
  8
1
100
AcDbCircle
 10
128.1574231417227
 20
-969.5486906655997
 30
0.0
 40
6.0
100
AcDbArc
 50
297.8181392846553
 51
0.0
  0
ENDSEC
  0
SECTION
  2
OBJECTS
  0
DICTIONARY
  5
C
330
0
100
AcDbDictionary
281
     1
  3
ACAD_COLOR
350
16D2E
  3
ACAD_GROUP
350
D
  3
ACAD_IMAGE_VARS
350
16CC0
  3
ACAD_LAYOUT
350
1C62
  3
ACAD_MATERIAL
350
16D04
  3
ACAD_MLEADERSTYLE
350
16D31
  3
ACAD_MLINESTYLE
350
E
  3
ACAD_PLOTSETTINGS
350
1C63
  3
ACAD_PLOTSTYLENAME
350
1C60
  3
ACAD_SCALELIST
350
16C9D
  3
ACAD_TABLESTYLE
350
16D2F
  3
ACAD_VISUALSTYLE
350
16D1D
  3
ACADDIM
350
2219
  3
ACDB_RECOMPOSE_DATA
350
16D64
  3
ACDBVARIABLEDICTIONARY
350
1237
  3
AcmDictionary
350
16C0A
  3
AMG
350
16BB3
  3
AMGSNAPSETTINGS
350
16C5D
  3
APPDATA
350
16CBF
  3
CONTENTDICTIONARY
350
322
  3
DWGPROPS
350
16D8E
  0
DICTIONARY
  5
16CC7
330
2
100
AcDbDictionary
280
     1
281
     1
  3
ACAD_LAYERSTATES
360
16CC8
  0
DICTIONARY
  5
16D57
330
F
100
AcDbDictionary
280
     1
281
     1
  3
ADSK_XREC_LAYER_RECONCILED
360
16D58
  0
DICTIONARY
  5
16D59
330
526
100
AcDbDictionary
280
     1
281
     1
  3
ADSK_XREC_LAYER_RECONCILED
360
16D5A
  0
DICTIONARY
  5
16D5B
330
138F
100
AcDbDictionary
280
     1
281
     1
  3
ADSK_XREC_LAYER_RECONCILED
360
16D5C
  0
DICTIONARY
  5
16D5D
330
1390
100
AcDbDictionary
280
     1
281
     1
  3
ADSK_XREC_LAYER_RECONCILED
360
16D5E
  0
DICTIONARY
  5
16D2E
102
{ACAD_REACTORS
330
C
102
}
330
C
100
AcDbDictionary
281
     1
  0
DICTIONARY
  5
D
102
{ACAD_REACTORS
330
C
102
}
330
C
100
AcDbDictionary
281
     1
  0
RASTERVARIABLES
  5
16CC0
102
{ACAD_REACTORS
330
C
102
}
330
C
100
AcDbRasterVariables
 90
        0
 70
     1
 71
     1
 72
     0
  0
DICTIONARY
  5
1C62
102
{ACAD_REACTORS
330
C
102
}
330
C
100
AcDbDictionary
281
     1
  3
Model
350
16BAB
  3
レイアウト1
350
16BAC
  0
DICTIONARY
  5
16D04
102
{ACAD_REACTORS
330
C
102
}
330
C
100
AcDbDictionary
281
     1
  3
ByBlock
350
16D0D
  3
ByLayer
350
16D05
  3
Global
350
16D15
  0
DICTIONARY
  5
16D31
102
{ACAD_REACTORS
330
C
102
}
330
C
100
AcDbDictionary
281
     1
  3
Standard
350
16D32
  0
DICTIONARY
  5
E
102
{ACAD_REACTORS
330
C
102
}
330
C
100
AcDbDictionary
281
     1
  3
STANDARD
350
1B
  0
DICTIONARY
  5
1C63
102
{ACAD_REACTORS
330
C
102
}
330
C
100
AcDbDictionary
281
     1
  0
ACDBDICTIONARYWDFLT
  5
1C60
102
{ACAD_REACTORS
330
C
102
}
330
C
100
AcDbDictionary
281
     1
  3
Normal
350
1C61
100
AcDbDictionaryWithDefault
340
1C61
  0
DICTIONARY
  5
16C9D
102
{ACAD_REACTORS
330
C
102
}
330
C
100
AcDbDictionary
281
     1
  3
A0
350
16C9E
  3
A1
350
16C9F
  3
A2
350
16CA0
  3
A3
350
16CA1
  3
A4
350
16CA2
  3
A5
350
16CA3
  3
A6
350
16CA4
  3
A7
350
16CA5
  3
A8
350
16CA6
  3
A9
350
16CA7
  3
B0
350
16CA8
  3
B1
350
16CA9
  3
B2
350
16CAA
  3
B3
350
16CAB
  3
B4
350
16CAC
  3
B5
350
16CAD
  3
B6
350
16CAE
  3
B7
350
16CAF
  3
B8
350
16CB0
  3
B9
350
16CB1
  3
C0
350
16CB2
  3
C1
350
16CB3
  3
C2
350
16CB4
  3
C3
350
16CB5
  3
C4
350
16CB6
  3
C5
350
16CB7
  3
C6
350
16CB8
  3
C7
350
16CB9
  3
C8
350
16CBA
  3
C9
350
16CBB
  3
D0
350
16CBC
  3
D1
350
16CBD
  3
D2
350
16CBE
  0
DICTIONARY
  5
16D2F
102
{ACAD_REACTORS
330
C
102
}
330
C
100
AcDbDictionary
281
     1
  3
Standard
350
16D30
  0
DICTIONARY
  5
16D1D
102
{ACAD_REACTORS
330
C
102
}
330
C
100
AcDbDictionary
281
     1
  3
2dWireframe
350
16D23
  3
3D Hidden
350
16D25
  3
3dWireframe
350
16D24
  3
Basic
350
16D22
  3
Brighten
350
16D29
  3
ColorChange
350
16D2D
  3
Conceptual
350
16D26
  3
Dim
350
16D28
  3
Facepattern
350
16D2C
  3
Flat
350
16D1E
  3
FlatWithEdges
350
16D1F
  3
Gouraud
350
16D20
  3
GouraudWithEdges
350
16D21
  3
Linepattern
350
16D2B
  3
Realistic
350
16D27
  3
Thicken
350
16D2A
  0
XRECORD
  5
2219
102
{ACAD_REACTORS
330
C
102
}
330
C
100
AcDbXrecord
280
     1
 90
   990106
  3

 60
     4
 61
     0
 62
     1
 63
     3
 64
     0
 65
     0
 66
     1
 67
     3
 68
     1
 69
     0
 70
     0
 71
     0
 72
     0
 40
0.0
170
     1
  0
XRECORD
  5
16D64
102
{ACAD_REACTORS
330
C
102
}
330
C
100
AcDbXrecord
280
     1
 90
        1
330
16D30
  0
DICTIONARY
  5
1237
102
{ACAD_REACTORS
330
C
102
}
330
C
100
AcDbDictionary
281
     1
  3
CANNOSCALE
350
16CFF
  3
CMLEADERSTYLE
350
16D60
  3
CTABLESTYLE
350
16D5F
  3
DIMASSOC
350
16C95
  3
INDEXCTL
350
16D61
  3
PROJECTNAME
350
16C96
  3
SORTENTS
350
1238
  0
DICTIONARY
  5
16C0A
102
{ACAD_REACTORS
330
C
102
}
330
C
100
AcDbDictionary
281
     1
  3
AcmStdDictionary
350
16C15
  3
AMDTSECTSYM_ARROWCOLOR
350
16C32
  0
DICTIONARY
  5
16BB3
102
{ACAD_REACTORS
330
C
102
}
330
C
100
AcDbDictionary
281
     1
  0
DICTIONARY
  5
16C5D
102
{ACAD_REACTORS
330
C
102
}
330
C
100
AcDbDictionary
281
     1
  0
DICTIONARY
  5
16CBF
102
{ACAD_REACTORS
330
C
102
}
330
C
100
AcDbDictionary
281
     1
  0
DICTIONARY
  5
322
102
{ACAD_REACTORS
330
C
102
}
330
C
100
AcDbDictionary
281
     1
  0
XRECORD
  5
16D8E
102
{ACAD_REACTORS
330
C
102
}
330
C
100
AcDbXrecord
280
     1
  1
DWGPROPS COOKIE
  2

  3

  4

  6

  7

  8
yutaka.oda
  9

300
=
301
=
302
=
303
=
304
=
305
=
306
=
307
=
308
=
309
=
 40
1.522321076388888
 41
2452836.755218403
 42
2456118.618911435
  1

 90
        0
  0
DICTIONARY
  5
16CC8
102
{ACAD_REACTORS
330
16CC7
102
}
330
16CC7
100
AcDbDictionary
281
     1
  0
XRECORD
  5
16D58
102
{ACAD_REACTORS
330
16D57
102
}
330
16D57
100
AcDbXrecord
280
     1
290
     1
  0
XRECORD
  5
16D5A
102
{ACAD_REACTORS
330
16D59
102
}
330
16D59
100
AcDbXrecord
280
     1
290
     1
  0
XRECORD
  5
16D5C
102
{ACAD_REACTORS
330
16D5B
102
}
330
16D5B
100
AcDbXrecord
280
     1
290
     1
  0
XRECORD
  5
16D5E
102
{ACAD_REACTORS
330
16D5D
102
}
330
16D5D
100
AcDbXrecord
280
     1
290
     1
  0
LAYOUT
  5
16BAB
102
{ACAD_XDICTIONARY
360
16D8F
102
}
102
{ACAD_REACTORS
330
1C62
102
}
330
1C62
100
AcDbPlotSettings
  1

  2
\\techserver\RICOH IPSiO SP C810 RPCS
  4

  6

 40
0.0
 41
0.0
 42
0.0
 43
0.0
 44
0.0
 45
0.0
 46
0.0
 47
0.0
 48
0.0
 49
0.0
140
0.0
141
0.0
142
1.0
143
1.0
 70
  1712
 72
     0
 73
     0
 74
     0
  7

 75
     0
147
1.0
148
0.0
149
0.0
100
AcDbLayout
  1
Model
 70
     1
 71
     0
 10
0.0
 20
0.0
 11
12.0
 21
9.0
 12
0.0
 22
0.0
 32
0.0
 14
0.0
 24
0.0
 34
0.0
 15
0.0
 25
0.0
 35
0.0
146
0.0
 13
0.0
 23
0.0
 33
0.0
 16
1.0
 26
0.0
 36
0.0
 17
0.0
 27
1.0
 37
0.0
 76
     0
330
18
331
16C97
  0
LAYOUT
  5
16BAC
102
{ACAD_XDICTIONARY
360
16D91
102
}
102
{ACAD_REACTORS
330
1C62
102
}
330
1C62
100
AcDbPlotSettings
  1

  2
\\techserver\RICOH IPSiO SP C810 RPCS
  4

  6

 40
0.0
 41
0.0
 42
0.0
 43
0.0
 44
0.0
 45
0.0
 46
0.0
 47
0.0
 48
0.0
 49
0.0
140
0.0
141
0.0
142
1.0
143
1.0
 70
   688
 72
     0
 73
     0
 74
     5
  7

 75
    16
147
1.0
148
0.0
149
0.0
100
AcDbLayout
  1
レイアウト1
 70
     1
 71
     1
 10
0.0
 20
0.0
 11
420.0
 21
297.0
 12
0.0
 22
0.0
 32
0.0
 14
1.000000000000000E+20
 24
1.000000000000000E+20
 34
1.000000000000000E+20
 15
-1.000000000000000E+20
 25
-1.000000000000000E+20
 35
-1.000000000000000E+20
146
0.0
 13
0.0
 23
0.0
 33
0.0
 16
1.0
 26
0.0
 36
0.0
 17
0.0
 27
1.0
 37
0.0
 76
     0
330
15
  0
MATERIAL
  5
16D0D
102
{ACAD_XDICTIONARY
360
16D0E
102
}
102
{ACAD_REACTORS
330
16D04
102
}
330
16D04
100
AcDbMaterial
  1
ByBlock
 72
     0
 43
0.0208333333333333
 43
0.0
 43
0.0
 43
0.0
 43
0.0
 43
0.0208333333333333
 43
0.0
 43
0.0
 43
0.0
 43
0.0
 43
1.0
 43
0.0
 43
0.0
 43
0.0
 43
0.0
 43
1.0
 77
     0
 47
0.0208333333333333
 47
0.0
 47
0.0
 47
0.0
 47
0.0
 47
0.0208333333333333
 47
0.0
 47
0.0
 47
0.0
 47
0.0
 47
1.0
 47
0.0
 47
0.0
 47
0.0
 47
0.0
 47
1.0
171
     0
 49
0.0208333333333333
 49
0.0
 49
0.0
 49
0.0
 49
0.0
 49
0.0208333333333333
 49
0.0
 49
0.0
 49
0.0
 49
0.0
 49
1.0
 49
0.0
 49
0.0
 49
0.0
 49
0.0
 49
1.0
175
     0
142
0.0208333333333333
142
0.0
142
0.0
142
0.0
142
0.0
142
0.0208333333333333
142
0.0
142
0.0
142
0.0
142
0.0
142
1.0
142
0.0
142
0.0
142
0.0
142
0.0
142
1.0
179
     0
144
0.0208333333333333
144
0.0
144
0.0
144
0.0
144
0.0
144
0.0208333333333333
144
0.0
144
0.0
144
0.0
144
0.0
144
1.0
144
0.0
144
0.0
144
0.0
144
0.0
144
1.0
147
0.0208333333333333
147
0.0
147
0.0
147
0.0
147
0.0
147
0.0208333333333333
147
0.0
147
0.0
147
0.0
147
0.0
147
1.0
147
0.0
147
0.0
147
0.0
147
0.0
147
1.0
  0
MATERIAL
  5
16D05
102
{ACAD_XDICTIONARY
360
16D06
102
}
102
{ACAD_REACTORS
330
16D04
102
}
330
16D04
100
AcDbMaterial
  1
ByLayer
 72
     0
 43
0.0208333333333333
 43
0.0
 43
0.0
 43
0.0
 43
0.0
 43
0.0208333333333333
 43
0.0
 43
0.0
 43
0.0
 43
0.0
 43
1.0
 43
0.0
 43
0.0
 43
0.0
 43
0.0
 43
1.0
 77
     0
 47
0.0208333333333333
 47
0.0
 47
0.0
 47
0.0
 47
0.0
 47
0.0208333333333333
 47
0.0
 47
0.0
 47
0.0
 47
0.0
 47
1.0
 47
0.0
 47
0.0
 47
0.0
 47
0.0
 47
1.0
171
     0
 49
0.0208333333333333
 49
0.0
 49
0.0
 49
0.0
 49
0.0
 49
0.0208333333333333
 49
0.0
 49
0.0
 49
0.0
 49
0.0
 49
1.0
 49
0.0
 49
0.0
 49
0.0
 49
0.0
 49
1.0
175
     0
142
0.0208333333333333
142
0.0
142
0.0
142
0.0
142
0.0
142
0.0208333333333333
142
0.0
142
0.0
142
0.0
142
0.0
142
1.0
142
0.0
142
0.0
142
0.0
142
0.0
142
1.0
179
     0
144
0.0208333333333333
144
0.0
144
0.0
144
0.0
144
0.0
144
0.0208333333333333
144
0.0
144
0.0
144
0.0
144
0.0
144
1.0
144
0.0
144
0.0
144
0.0
144
0.0
144
1.0
147
0.0208333333333333
147
0.0
147
0.0
147
0.0
147
0.0
147
0.0208333333333333
147
0.0
147
0.0
147
0.0
147
0.0
147
1.0
147
0.0
147
0.0
147
0.0
147
0.0
147
1.0
  0
MATERIAL
  5
16D15
102
{ACAD_XDICTIONARY
360
16D16
102
}
102
{ACAD_REACTORS
330
16D04
102
}
330
16D04
100
AcDbMaterial
  1
Global
 72
     0
 43
0.0208333333333333
 43
0.0
 43
0.0
 43
0.0
 43
0.0
 43
0.0208333333333333
 43
0.0
 43
0.0
 43
0.0
 43
0.0
 43
1.0
 43
0.0
 43
0.0
 43
0.0
 43
0.0
 43
1.0
 77
     0
 47
0.0208333333333333
 47
0.0
 47
0.0
 47
0.0
 47
0.0
 47
0.0208333333333333
 47
0.0
 47
0.0
 47
0.0
 47
0.0
 47
1.0
 47
0.0
 47
0.0
 47
0.0
 47
0.0
 47
1.0
171
     0
 49
0.0208333333333333
 49
0.0
 49
0.0
 49
0.0
 49
0.0
 49
0.0208333333333333
 49
0.0
 49
0.0
 49
0.0
 49
0.0
 49
1.0
 49
0.0
 49
0.0
 49
0.0
 49
0.0
 49
1.0
175
     0
142
0.0208333333333333
142
0.0
142
0.0
142
0.0
142
0.0
142
0.0208333333333333
142
0.0
142
0.0
142
0.0
142
0.0
142
1.0
142
0.0
142
0.0
142
0.0
142
0.0
142
1.0
179
     0
144
0.0208333333333333
144
0.0
144
0.0
144
0.0
144
0.0
144
0.0208333333333333
144
0.0
144
0.0
144
0.0
144
0.0
144
1.0
144
0.0
144
0.0
144
0.0
144
0.0
144
1.0
147
0.0208333333333333
147
0.0
147
0.0
147
0.0
147
0.0
147
0.0208333333333333
147
0.0
147
0.0
147
0.0
147
0.0
147
1.0
147
0.0
147
0.0
147
0.0
147
0.0
147
1.0
  0
MLEADERSTYLE
  5
16D32
102
{ACAD_REACTORS
330
16D31
102
}
330
16D31
100
AcDbMLeaderStyle
170
     2
171
     1
172
     0
 90
        2
 40
0.0
 41
0.0
173
     1
 91
-1056964608
340
12
 92
       -2
290
     1
 42
2.0
291
     1
 43
0.36
  3
Standard
 44
4.0
300

342
10
174
     1
178
     6
175
     1
176
     0
 93
-1056964608
 45
4.0
292
     0
297
     0
 46
4.0
 94
-1056964608
 47
1.0
 49
1.0
140
1.0
293
     1
141
0.0
294
     1
177
     0
142
1.0
295
     0
296
     0
143
0.125
1001
ACAD_MLEADERVER
1070
     2
  0
MLINESTYLE
  5
1B
102
{ACAD_REACTORS
330
E
102
}
330
E
100
AcDbMlineStyle
  2
STANDARD
 70
     0
  3

 62
     0
 51
90.0
 52
90.0
 71
     2
 49
0.5
 62
   256
  6
BYLAYER
 49
-0.5
 62
   256
  6
BYLAYER
  0
ACDBPLACEHOLDER
  5
1C61
102
{ACAD_REACTORS
330
1C60
102
}
330
1C60
  0
SCALE
  5
16C9E
102
{ACAD_REACTORS
330
16C9D
102
}
330
16C9D
100
AcDbScale
 70
     0
300
1:1
140
1.0
141
1.0
290
     1
  0
SCALE
  5
16C9F
102
{ACAD_REACTORS
330
16C9D
102
}
330
16C9D
100
AcDbScale
 70
     0
300
1:2
140
1.0
141
2.0
290
     0
  0
SCALE
  5
16CA0
102
{ACAD_REACTORS
330
16C9D
102
}
330
16C9D
100
AcDbScale
 70
     0
300
1:4
140
1.0
141
4.0
290
     0
  0
SCALE
  5
16CA1
102
{ACAD_REACTORS
330
16C9D
102
}
330
16C9D
100
AcDbScale
 70
     0
300
1:5
140
1.0
141
5.0
290
     0
  0
SCALE
  5
16CA2
102
{ACAD_REACTORS
330
16C9D
102
}
330
16C9D
100
AcDbScale
 70
     0
300
1:8
140
1.0
141
8.0
290
     0
  0
SCALE
  5
16CA3
102
{ACAD_REACTORS
330
16C9D
102
}
330
16C9D
100
AcDbScale
 70
     0
300
1:10
140
1.0
141
10.0
290
     0
  0
SCALE
  5
16CA4
102
{ACAD_REACTORS
330
16C9D
102
}
330
16C9D
100
AcDbScale
 70
     0
300
1:16
140
1.0
141
16.0
290
     0
  0
SCALE
  5
16CA5
102
{ACAD_REACTORS
330
16C9D
102
}
330
16C9D
100
AcDbScale
 70
     0
300
1:20
140
1.0
141
20.0
290
     0
  0
SCALE
  5
16CA6
102
{ACAD_REACTORS
330
16C9D
102
}
330
16C9D
100
AcDbScale
 70
     0
300
1:30
140
1.0
141
30.0
290
     0
  0
SCALE
  5
16CA7
102
{ACAD_REACTORS
330
16C9D
102
}
330
16C9D
100
AcDbScale
 70
     0
300
1:40
140
1.0
141
40.0
290
     0
  0
SCALE
  5
16CA8
102
{ACAD_REACTORS
330
16C9D
102
}
330
16C9D
100
AcDbScale
 70
     0
300
1:50
140
1.0
141
50.0
290
     0
  0
SCALE
  5
16CA9
102
{ACAD_REACTORS
330
16C9D
102
}
330
16C9D
100
AcDbScale
 70
     0
300
1:100
140
1.0
141
100.0
290
     0
  0
SCALE
  5
16CAA
102
{ACAD_REACTORS
330
16C9D
102
}
330
16C9D
100
AcDbScale
 70
     0
300
2:1
140
2.0
141
1.0
290
     0
  0
SCALE
  5
16CAB
102
{ACAD_REACTORS
330
16C9D
102
}
330
16C9D
100
AcDbScale
 70
     0
300
4:1
140
4.0
141
1.0
290
     0
  0
SCALE
  5
16CAC
102
{ACAD_REACTORS
330
16C9D
102
}
330
16C9D
100
AcDbScale
 70
     0
300
8:1
140
8.0
141
1.0
290
     0
  0
SCALE
  5
16CAD
102
{ACAD_REACTORS
330
16C9D
102
}
330
16C9D
100
AcDbScale
 70
     0
300
10:1
140
10.0
141
1.0
290
     0
  0
SCALE
  5
16CAE
102
{ACAD_REACTORS
330
16C9D
102
}
330
16C9D
100
AcDbScale
 70
     0
300
100:1
140
100.0
141
1.0
290
     0
  0
SCALE
  5
16CAF
102
{ACAD_REACTORS
330
16C9D
102
}
330
16C9D
100
AcDbScale
 70
     0
300
1/128" = 1'-0"
140
0.0078125
141
12.0
290
     0
  0
SCALE
  5
16CB0
102
{ACAD_REACTORS
330
16C9D
102
}
330
16C9D
100
AcDbScale
 70
     0
300
1/64" = 1'-0"
140
0.015625
141
12.0
290
     0
  0
SCALE
  5
16CB1
102
{ACAD_REACTORS
330
16C9D
102
}
330
16C9D
100
AcDbScale
 70
     0
300
1/32" = 1'-0"
140
0.03125
141
12.0
290
     0
  0
SCALE
  5
16CB2
102
{ACAD_REACTORS
330
16C9D
102
}
330
16C9D
100
AcDbScale
 70
     0
300
1/16" = 1'-0"
140
0.0625
141
12.0
290
     0
  0
SCALE
  5
16CB3
102
{ACAD_REACTORS
330
16C9D
102
}
330
16C9D
100
AcDbScale
 70
     0
300
3/32" = 1'-0"
140
0.09375
141
12.0
290
     0
  0
SCALE
  5
16CB4
102
{ACAD_REACTORS
330
16C9D
102
}
330
16C9D
100
AcDbScale
 70
     0
300
1/8" = 1'-0"
140
0.125
141
12.0
290
     0
  0
SCALE
  5
16CB5
102
{ACAD_REACTORS
330
16C9D
102
}
330
16C9D
100
AcDbScale
 70
     0
300
3/16" = 1'-0"
140
0.1875
141
12.0
290
     0
  0
SCALE
  5
16CB6
102
{ACAD_REACTORS
330
16C9D
102
}
330
16C9D
100
AcDbScale
 70
     0
300
1/4" = 1'-0"
140
0.25
141
12.0
290
     0
  0
SCALE
  5
16CB7
102
{ACAD_REACTORS
330
16C9D
102
}
330
16C9D
100
AcDbScale
 70
     0
300
3/8" = 1'-0"
140
0.375
141
12.0
290
     0
  0
SCALE
  5
16CB8
102
{ACAD_REACTORS
330
16C9D
102
}
330
16C9D
100
AcDbScale
 70
     0
300
1/2" = 1'-0"
140
0.5
141
12.0
290
     0
  0
SCALE
  5
16CB9
102
{ACAD_REACTORS
330
16C9D
102
}
330
16C9D
100
AcDbScale
 70
     0
300
3/4" = 1'-0"
140
0.75
141
12.0
290
     0
  0
SCALE
  5
16CBA
102
{ACAD_REACTORS
330
16C9D
102
}
330
16C9D
100
AcDbScale
 70
     0
300
1" = 1'-0"
140
1.0
141
12.0
290
     0
  0
SCALE
  5
16CBB
102
{ACAD_REACTORS
330
16C9D
102
}
330
16C9D
100
AcDbScale
 70
     0
300
1-1/2" = 1'-0"
140
1.5
141
12.0
290
     0
  0
SCALE
  5
16CBC
102
{ACAD_REACTORS
330
16C9D
102
}
330
16C9D
100
AcDbScale
 70
     0
300
3" = 1'-0"
140
3.0
141
12.0
290
     0
  0
SCALE
  5
16CBD
102
{ACAD_REACTORS
330
16C9D
102
}
330
16C9D
100
AcDbScale
 70
     0
300
6" = 1'-0"
140
6.0
141
12.0
290
     0
  0
SCALE
  5
16CBE
102
{ACAD_REACTORS
330
16C9D
102
}
330
16C9D
100
AcDbScale
 70
     0
300
1'-0" = 1'-0"
140
12.0
141
12.0
290
     0
  0
TABLESTYLE
  5
16D30
102
{ACAD_XDICTIONARY
360
16D62
102
}
102
{ACAD_REACTORS
330
16D2F
102
}
330
16D2F
100
AcDbTableStyle
  3
Standard
 70
     0
 71
     0
 40
1.5
 41
1.5
280
     0
281
     0
  7
STANDARD
140
4.5
170
     2
 62
     0
 63
     7
283
     0
274
    -2
284
     1
 64
     0
275
    -2
285
     1
 65
     0
276
    -2
286
     1
 66
     0
277
    -2
287
     1
 67
     0
278
    -2
288
     1
 68
     0
279
    -2
289
     1
 69
     0
  7
STANDARD
140
6.0
170
     5
 62
     0
 63
     7
283
     0
274
    -2
284
     1
 64
     0
275
    -2
285
     1
 65
     0
276
    -2
286
     1
 66
     0
277
    -2
287
     1
 67
     0
278
    -2
288
     1
 68
     0
279
    -2
289
     1
 69
     0
  7
STANDARD
140
4.5
170
     5
 62
     0
 63
     7
283
     0
274
    -2
284
     1
 64
     0
275
    -2
285
     1
 65
     0
276
    -2
286
     1
 66
     0
277
    -2
287
     1
 67
     0
278
    -2
288
     1
 68
     0
279
    -2
289
     1
 69
     0
  0
VISUALSTYLE
  5
16D23
102
{ACAD_REACTORS
330
16D1D
102
}
330
16D1D
100
AcDbVisualStyle
  2
2dWireframe
 70
     4
 71
     0
 72
     2
 73
     0
 90
        0
 40
-0.6
 41
-30.0
 62
     5
 63
     7
 74
     1
 91
        4
 64
     7
 65
   257
 75
     1
175
     1
 42
1.0
 92
        0
 66
   257
 43
1.0
 76
     1
 77
     6
 78
     2
 67
     7
 79
     5
170
     0
171
     0
290
     0
174
     0
 93
        1
 44
0.0
173
     0
291
     0
 45
0.0
1001
ACAD
1000
AcDbSavedByObjectVersion
1070
     0
1000
AcDbSavedByObjectVersion
1070
     0
1000
AcDbSavedByObjectVersion
1070
     0
  0
VISUALSTYLE
  5
16D25
102
{ACAD_REACTORS
330
16D1D
102
}
330
16D1D
100
AcDbVisualStyle
  2
3D Hidden
 70
     6
 71
     1
 72
     2
 73
     2
 90
        0
 40
-0.6
 41
-30.0
 62
     5
 63
     7
 74
     2
 91
        2
 64
     7
 65
   257
 75
     2
175
     1
 42
40.0
 92
        0
 66
   257
 43
1.0
 76
     1
 77
     6
 78
     2
 67
     7
 79
     3
170
     0
171
     0
290
     0
174
     0
 93
        1
 44
0.0
173
     0
291
     0
 45
0.0
1001
ACAD
1000
AcDbSavedByObjectVersion
1070
     0
1000
AcDbSavedByObjectVersion
1070
     0
1000
AcDbSavedByObjectVersion
1070
     0
  0
VISUALSTYLE
  5
16D24
102
{ACAD_REACTORS
330
16D1D
102
}
330
16D1D
100
AcDbVisualStyle
  2
3dWireframe
 70
     5
 71
     0
 72
     2
 73
     0
 90
        0
 40
-0.6
 41
-30.0
 62
     5
 63
     7
 74
     1
 91
        4
 64
     7
 65
   257
 75
     1
175
     1
 42
1.0
 92
        0
 66
   257
 43
1.0
 76
     1
 77
     6
 78
     2
 67
     7
 79
     5
170
     0
171
     0
290
     0
174
     0
 93
        1
 44
0.0
173
     0
291
     0
 45
0.0
1001
ACAD
1000
AcDbSavedByObjectVersion
1070
     0
1000
AcDbSavedByObjectVersion
1070
     0
1000
AcDbSavedByObjectVersion
1070
     0
  0
VISUALSTYLE
  5
16D22
102
{ACAD_REACTORS
330
16D1D
102
}
330
16D1D
100
AcDbVisualStyle
  2
Basic
 70
     7
 71
     1
 72
     0
 73
     1
 90
        0
 40
-0.6
 41
-30.0
 62
     5
 63
     7
 74
     0
 91
        4
 64
     7
 65
   257
 75
     1
175
     1
 42
1.0
 92
        8
 66
     7
 43
1.0
 76
     1
 77
     6
 78
     2
 67
     7
 79
     5
170
     0
171
     0
290
     0
174
     0
 93
        1
 44
0.0
173
     0
291
     1
 45
0.0
1001
ACAD
1000
AcDbSavedByObjectVersion
1070
     0
1000
AcDbSavedByObjectVersion
1070
     0
1000
AcDbSavedByObjectVersion
1070
     0
  0
VISUALSTYLE
  5
16D29
102
{ACAD_REACTORS
330
16D1D
102
}
330
16D1D
100
AcDbVisualStyle
  2
Brighten
 70
    12
 71
     2
 72
     2
 73
     0
 90
        0
 40
-0.6
 41
-30.0
 62
     5
 63
     7
 74
     1
 91
        4
 64
     7
 65
   257
 75
     1
175
     1
 42
1.0
 92
        8
 66
     7
 43
1.0
 76
     1
 77
     6
 78
     2
 67
     7
 79
     5
170
     0
171
     0
290
     0
174
     0
 93
        1
 44
50.0
173
     0
291
     1
 45
0.0
1001
ACAD
1000
AcDbSavedByObjectVersion
1070
     0
1000
AcDbSavedByObjectVersion
1070
     0
1000
AcDbSavedByObjectVersion
1070
     0
  0
VISUALSTYLE
  5
16D2D
102
{ACAD_REACTORS
330
16D1D
102
}
330
16D1D
100
AcDbVisualStyle
  2
ColorChange
 70
    16
 71
     2
 72
     2
 73
     3
 90
        0
 40
-0.6
 41
-30.0
 62
     5
 63
     8
 74
     1
 91
        4
 64
     7
 65
   257
 75
     1
175
     1
 42
1.0
 92
        8
 66
     8
 43
1.0
 76
     1
 77
     6
 78
     2
 67
     7
 79
     5
170
     0
171
     0
290
     0
174
     0
 93
        1
 44
0.0
173
     0
291
     1
 45
0.0
1001
ACAD
1000
AcDbSavedByObjectVersion
1070
     0
1000
AcDbSavedByObjectVersion
1070
     0
1000
AcDbSavedByObjectVersion
1070
     0
  0
VISUALSTYLE
  5
16D26
102
{ACAD_REACTORS
330
16D1D
102
}
330
16D1D
100
AcDbVisualStyle
  2
Conceptual
 70
     9
 71
     3
 72
     2
 73
     0
 90
        0
 40
-0.6
 41
-30.0
 62
     5
 63
     7
 74
     2
 91
        2
 64
     7
 65
   257
 75
     1
175
     1
 42
40.0
 92
        8
 66
     7
 43
1.0
 76
     1
 77
     6
 78
     2
 67
     7
 79
     3
170
     0
171
     0
290
     0
174
     0
 93
        1
 44
0.0
173
     0
291
     0
 45
0.0
1001
ACAD
1000
AcDbSavedByObjectVersion
1070
     0
1000
AcDbSavedByObjectVersion
1070
     0
1000
AcDbSavedByObjectVersion
1070
     0
  0
VISUALSTYLE
  5
16D28
102
{ACAD_REACTORS
330
16D1D
102
}
330
16D1D
100
AcDbVisualStyle
  2
Dim
 70
    11
 71
     2
 72
     2
 73
     0
 90
        0
 40
-0.6
 41
-30.0
 62
     5
 63
     7
 74
     1
 91
        4
 64
     7
 65
   257
 75
     1
175
     1
 42
1.0
 92
        8
 66
     7
 43
1.0
 76
     1
 77
     6
 78
     2
 67
     7
 79
     5
170
     0
171
     0
290
     0
174
     0
 93
        1
 44
-50.0
173
     0
291
     1
 45
0.0
1001
ACAD
1000
AcDbSavedByObjectVersion
1070
     0
1000
AcDbSavedByObjectVersion
1070
     0
1000
AcDbSavedByObjectVersion
1070
     0
  0
VISUALSTYLE
  5
16D2C
102
{ACAD_REACTORS
330
16D1D
102
}
330
16D1D
100
AcDbVisualStyle
  2
Facepattern
 70
    15
 71
     2
 72
     2
 73
     0
 90
        0
 40
-0.6
 41
-30.0
 62
     5
 63
     7
 74
     1
 91
        4
 64
     7
 65
   257
 75
     1
175
     1
 42
1.0
 92
        8
 66
     7
 43
1.0
 76
     1
 77
     6
 78
     2
 67
     7
 79
     5
170
     0
171
     0
290
     0
174
     0
 93
        1
 44
0.0
173
     0
291
     1
 45
0.0
1001
ACAD
1000
AcDbSavedByObjectVersion
1070
     0
1000
AcDbSavedByObjectVersion
1070
     0
1000
AcDbSavedByObjectVersion
1070
     0
  0
VISUALSTYLE
  5
16D1E
102
{ACAD_REACTORS
330
16D1D
102
}
330
16D1D
100
AcDbVisualStyle
  2
Flat
 70
     0
 71
     2
 72
     1
 73
     1
 90
        2
 40
-0.6
 41
30.0
 62
     5
 63
     7
 74
     0
 91
        4
 64
     7
 65
   257
 75
     1
175
     1
 42
1.0
 92
        8
 66
     7
 43
1.0
 76
     1
 77
     6
 78
     2
 67
     7
 79
     5
170
     0
171
     0
290
     0
174
     0
 93
       13
 44
0.0
173
     0
291
     1
 45
0.0
1001
ACAD
1000
AcDbSavedByObjectVersion
1070
     0
1000
AcDbSavedByObjectVersion
1070
     0
1000
AcDbSavedByObjectVersion
1070
     0
  0
VISUALSTYLE
  5
16D1F
102
{ACAD_REACTORS
330
16D1D
102
}
330
16D1D
100
AcDbVisualStyle
  2
FlatWithEdges
 70
     1
 71
     2
 72
     1
 73
     1
 90
        2
 40
-0.6
 41
30.0
 62
     5
 63
     7
 74
     1
 91
        4
 64
     7
 65
   257
 75
     1
175
     1
 42
1.0
 92
        0
 66
   257
 43
1.0
 76
     1
 77
     6
 78
     2
 67
     7
 79
     5
170
     0
171
     0
290
     0
174
     0
 93
       13
 44
0.0
173
     0
291
     1
 45
0.0
1001
ACAD
1000
AcDbSavedByObjectVersion
1070
     0
1000
AcDbSavedByObjectVersion
1070
     0
1000
AcDbSavedByObjectVersion
1070
     0
  0
VISUALSTYLE
  5
16D20
102
{ACAD_REACTORS
330
16D1D
102
}
330
16D1D
100
AcDbVisualStyle
  2
Gouraud
 70
     2
 71
     2
 72
     2
 73
     1
 90
        2
 40
-0.6
 41
30.0
 62
     5
 63
     7
 74
     0
 91
        4
 64
     7
 65
   257
 75
     1
175
     1
 42
1.0
 92
        0
 66
     7
 43
1.0
 76
     1
 77
     6
 78
     2
 67
     7
 79
     5
170
     0
171
     0
290
     0
174
     0
 93
       13
 44
0.0
173
     0
291
     1
 45
0.0
1001
ACAD
1000
AcDbSavedByObjectVersion
1070
     0
1000
AcDbSavedByObjectVersion
1070
     0
1000
AcDbSavedByObjectVersion
1070
     0
  0
VISUALSTYLE
  5
16D21
102
{ACAD_REACTORS
330
16D1D
102
}
330
16D1D
100
AcDbVisualStyle
  2
GouraudWithEdges
 70
     3
 71
     2
 72
     2
 73
     1
 90
        2
 40
-0.6
 41
30.0
 62
     5
 63
     7
 74
     1
 91
        4
 64
     7
 65
   257
 75
     1
175
     1
 42
1.0
 92
        0
 66
   257
 43
1.0
 76
     1
 77
     6
 78
     2
 67
     7
 79
     5
170
     0
171
     0
290
     0
174
     0
 93
       13
 44
0.0
173
     0
291
     1
 45
0.0
1001
ACAD
1000
AcDbSavedByObjectVersion
1070
     0
1000
AcDbSavedByObjectVersion
1070
     0
1000
AcDbSavedByObjectVersion
1070
     0
  0
VISUALSTYLE
  5
16D2B
102
{ACAD_REACTORS
330
16D1D
102
}
330
16D1D
100
AcDbVisualStyle
  2
Linepattern
 70
    14
 71
     2
 72
     2
 73
     0
 90
        0
 40
-0.6
 41
-30.0
 62
     5
 63
     7
 74
     1
 91
        4
 64
     7
 65
   257
 75
     7
175
     7
 42
1.0
 92
        8
 66
     7
 43
1.0
 76
     1
 77
     6
 78
     2
 67
     7
 79
     5
170
     0
171
     0
290
     0
174
     0
 93
        1
 44
0.0
173
     0
291
     1
 45
0.0
1001
ACAD
1000
AcDbSavedByObjectVersion
1070
     0
1000
AcDbSavedByObjectVersion
1070
     0
1000
AcDbSavedByObjectVersion
1070
     0
  0
VISUALSTYLE
  5
16D27
102
{ACAD_REACTORS
330
16D1D
102
}
330
16D1D
100
AcDbVisualStyle
  2
Realistic
 70
     8
 71
     2
 72
     2
 73
     0
 90
        0
 40
-0.6
 41
-30.0
 62
     5
 63
     7
 74
     1
 91
        0
 64
     7
 65
   257
 75
     1
175
     1
 42
1.0
 92
        8
 66
     8
 43
1.0
 76
     1
 77
     6
 78
     2
 67
     7
 79
     5
170
     0
171
     0
290
     0
174
     0
 93
       13
 44
0.0
173
     0
291
     0
 45
0.0
1001
ACAD
1000
AcDbSavedByObjectVersion
1070
     0
1000
AcDbSavedByObjectVersion
1070
     0
1000
AcDbSavedByObjectVersion
1070
     0
  0
VISUALSTYLE
  5
16D2A
102
{ACAD_REACTORS
330
16D1D
102
}
330
16D1D
100
AcDbVisualStyle
  2
Thicken
 70
    13
 71
     2
 72
     2
 73
     0
 90
        0
 40
-0.6
 41
-30.0
 62
     5
 63
     7
 74
     1
 91
        4
 64
     7
 65
   257
 75
     1
175
     1
 42
1.0
 92
       12
 66
     7
 43
1.0
 76
     1
 77
     6
 78
     2
 67
     7
 79
     5
170
     0
171
     0
290
     0
174
     0
 93
        1
 44
0.0
173
     0
291
     1
 45
0.0
1001
ACAD
1000
AcDbSavedByObjectVersion
1070
     0
1000
AcDbSavedByObjectVersion
1070
     0
1000
AcDbSavedByObjectVersion
1070
     0
  0
DICTIONARYVAR
  5
16CFF
102
{ACAD_REACTORS
330
1237
102
}
330
1237
100
DictionaryVariables
280
     0
  1
1:1
  0
DICTIONARYVAR
  5
16D60
102
{ACAD_REACTORS
330
1237
102
}
330
1237
100
DictionaryVariables
280
     0
  1
STANDARD
  0
DICTIONARYVAR
  5
16D5F
102
{ACAD_REACTORS
330
1237
102
}
330
1237
100
DictionaryVariables
280
     0
  1
STANDARD
  0
DICTIONARYVAR
  5
16C95
102
{ACAD_REACTORS
330
1237
102
}
330
1237
100
DictionaryVariables
280
     0
  1
1
  0
DICTIONARYVAR
  5
16D61
102
{ACAD_REACTORS
330
1237
102
}
330
1237
100
DictionaryVariables
280
     0
  1
0
  0
DICTIONARYVAR
  5
16C96
102
{ACAD_REACTORS
330
1237
102
}
330
1237
100
DictionaryVariables
280
     0
  1

  0
DICTIONARYVAR
  5
1238
102
{ACAD_REACTORS
330
1237
102
}
330
1237
100
DictionaryVariables
280
     0
  1
96
  0
DICTIONARY
  5
16C15
102
{ACAD_REACTORS
330
16C0A
102
}
330
16C0A
100
AcDbDictionary
281
     1
  0
XRECORD
  5
16C32
102
{ACAD_REACTORS
330
16C0A
102
}
330
16C0A
100
AcDbXrecord
280
     1
 90
-1023410169
  0
DICTIONARY
  5
16D8F
330
16BAB
100
AcDbDictionary
280
     1
281
     1
  3
ACAD_XREC_ROUNDTRIP
360
16D90
  0
DICTIONARY
  5
16D91
330
16BAC
100
AcDbDictionary
280
     1
281
     1
  3
ACAD_XREC_ROUNDTRIP
360
16D92
  0
DICTIONARY
  5
16D0E
330
16D0D
100
AcDbDictionary
280
     1
281
     1
  3
ACAD_XREC_ROUNDTRIP
360
16D6B
  3
BUMPTILE
360
16D10
  3
DIFFUSETILE
360
16D0F
  3
OPACITYTILE
360
16D13
  3
REFLECTIONTILE
360
16D12
  3
REFRACTIONTILE
360
16D14
  3
SPECULARTILE
360
16D11
  0
DICTIONARY
  5
16D06
330
16D05
100
AcDbDictionary
280
     1
281
     1
  3
ACAD_XREC_ROUNDTRIP
360
16D6A
  3
BUMPTILE
360
16D08
  3
DIFFUSETILE
360
16D07
  3
OPACITYTILE
360
16D0B
  3
REFLECTIONTILE
360
16D0A
  3
REFRACTIONTILE
360
16D0C
  3
SPECULARTILE
360
16D09
  0
DICTIONARY
  5
16D16
330
16D15
100
AcDbDictionary
280
     1
281
     1
  3
ACAD_XREC_ROUNDTRIP
360
16D6C
  3
BUMPTILE
360
16D18
  3
DIFFUSETILE
360
16D17
  3
OPACITYTILE
360
16D1B
  3
REFLECTIONTILE
360
16D1A
  3
REFRACTIONTILE
360
16D1C
  3
SPECULARTILE
360
16D19
  0
DICTIONARY
  5
16D62
330
16D30
100
AcDbDictionary
280
     1
281
     1
  3
ACAD_ROUNDTRIP_2008_TABLESTYLE_CELLSTYLEMAP
360
16D8D
  3
ACAD_XREC_ROUNDTRIP
360
16D93
  0
XRECORD
  5
16D90
102
{ACAD_REACTORS
330
16D8F
102
}
330
16D8F
100
AcDbXrecord
280
     1
102
SHADEPLOT
 70
     0
102
SHADEPLOTRESLEVEL
 70
     2
102
SHADEPLOTCUSTOMDPI
 70
   300
  0
XRECORD
  5
16D92
102
{ACAD_REACTORS
330
16D91
102
}
330
16D91
100
AcDbXrecord
280
     1
102
SHADEPLOT
 70
     0
102
SHADEPLOTRESLEVEL
 70
     2
102
SHADEPLOTCUSTOMDPI
 70
   300
  0
XRECORD
  5
16D6B
102
{ACAD_REACTORS
330
16D0E
102
}
330
16D0E
100
AcDbXrecord
280
     1
102
MATERIAL
148
0.0
149
0.0
149
0.0
 93
        0
 94
      127
282
     0
 72
     0
 77
     0
171
     0
175
     0
179
     0
273
     0
  0
XRECORD
  5
16D10
102
{ACAD_REACTORS
330
16D0E
102
}
330
16D0E
100
AcDbXrecord
280
     1
270
     1
271
     1
  0
XRECORD
  5
16D0F
102
{ACAD_REACTORS
330
16D0E
102
}
330
16D0E
100
AcDbXrecord
280
     1
270
     1
271
     1
  0
XRECORD
  5
16D13
102
{ACAD_REACTORS
330
16D0E
102
}
330
16D0E
100
AcDbXrecord
280
     1
270
     1
271
     1
  0
XRECORD
  5
16D12
102
{ACAD_REACTORS
330
16D0E
102
}
330
16D0E
100
AcDbXrecord
280
     1
270
     1
271
     1
  0
XRECORD
  5
16D14
102
{ACAD_REACTORS
330
16D0E
102
}
330
16D0E
100
AcDbXrecord
280
     1
270
     1
271
     1
  0
XRECORD
  5
16D11
102
{ACAD_REACTORS
330
16D0E
102
}
330
16D0E
100
AcDbXrecord
280
     1
270
     1
271
     1
  0
XRECORD
  5
16D6A
102
{ACAD_REACTORS
330
16D06
102
}
330
16D06
100
AcDbXrecord
280
     1
102
MATERIAL
148
0.0
149
0.0
149
0.0
 93
        0
 94
      127
282
     0
 72
     0
 77
     0
171
     0
175
     0
179
     0
273
     0
  0
XRECORD
  5
16D08
102
{ACAD_REACTORS
330
16D06
102
}
330
16D06
100
AcDbXrecord
280
     1
270
     1
271
     1
  0
XRECORD
  5
16D07
102
{ACAD_REACTORS
330
16D06
102
}
330
16D06
100
AcDbXrecord
280
     1
270
     1
271
     1
  0
XRECORD
  5
16D0B
102
{ACAD_REACTORS
330
16D06
102
}
330
16D06
100
AcDbXrecord
280
     1
270
     1
271
     1
  0
XRECORD
  5
16D0A
102
{ACAD_REACTORS
330
16D06
102
}
330
16D06
100
AcDbXrecord
280
     1
270
     1
271
     1
  0
XRECORD
  5
16D0C
102
{ACAD_REACTORS
330
16D06
102
}
330
16D06
100
AcDbXrecord
280
     1
270
     1
271
     1
  0
XRECORD
  5
16D09
102
{ACAD_REACTORS
330
16D06
102
}
330
16D06
100
AcDbXrecord
280
     1
270
     1
271
     1
  0
XRECORD
  5
16D6C
102
{ACAD_REACTORS
330
16D16
102
}
330
16D16
100
AcDbXrecord
280
     1
102
MATERIAL
148
0.0
149
0.0
149
0.0
 93
        0
 94
      127
282
     0
 72
     0
 77
     0
171
     0
175
     0
179
     0
273
     0
  0
XRECORD
  5
16D18
102
{ACAD_REACTORS
330
16D16
102
}
330
16D16
100
AcDbXrecord
280
     1
270
     1
271
     1
  0
XRECORD
  5
16D17
102
{ACAD_REACTORS
330
16D16
102
}
330
16D16
100
AcDbXrecord
280
     1
270
     1
271
     1
  0
XRECORD
  5
16D1B
102
{ACAD_REACTORS
330
16D16
102
}
330
16D16
100
AcDbXrecord
280
     1
270
     1
271
     1
  0
XRECORD
  5
16D1A
102
{ACAD_REACTORS
330
16D16
102
}
330
16D16
100
AcDbXrecord
280
     1
270
     1
271
     1
  0
XRECORD
  5
16D1C
102
{ACAD_REACTORS
330
16D16
102
}
330
16D16
100
AcDbXrecord
280
     1
270
     1
271
     1
  0
XRECORD
  5
16D19
102
{ACAD_REACTORS
330
16D16
102
}
330
16D16
100
AcDbXrecord
280
     1
270
     1
271
     1
  0
CELLSTYLEMAP
  5
16D8D
102
{ACAD_REACTORS
330
16D62
102
}
330
16D62
100
AcDbCellStyleMap
 90
        3
300
CELLSTYLE
  1
TABLEFORMAT_BEGIN
 90
        5
170
     1
 91
        0
 92
    32768
 62
   257
 93
        1
300
CONTENTFORMAT
  1
CONTENTFORMAT_BEGIN
 90
        0
 91
        0
 92
      512
 93
        0
300

 40
0.0
140
1.0
 94
        5
 62
     0
340
10
144
6.0
309
CONTENTFORMAT_END
171
     1
301
MARGIN
  1
CELLMARGIN_BEGIN
 40
1.5
 40
1.5
 40
1.5
 40
1.5
 40
0.18
 40
0.18
309
CELLMARGIN_END
 94
        6
 95
        1
302
GRIDFORMAT
  1
GRIDFORMAT_BEGIN
 90
        0
 91
        1
 62
     0
 92
       -2
340
0
 93
        0
 40
1.125
309
GRIDFORMAT_END
 95
        2
302
GRIDFORMAT
  1
GRIDFORMAT_BEGIN
 90
        0
 91
        1
 62
     0
 92
       -2
340
0
 93
        0
 40
1.125
309
GRIDFORMAT_END
 95
        4
302
GRIDFORMAT
  1
GRIDFORMAT_BEGIN
 90
        0
 91
        1
 62
     0
 92
       -2
340
0
 93
        0
 40
1.125
309
GRIDFORMAT_END
 95
        8
302
GRIDFORMAT
  1
GRIDFORMAT_BEGIN
 90
        0
 91
        1
 62
     0
 92
       -2
340
0
 93
        0
 40
1.125
309
GRIDFORMAT_END
 95
       16
302
GRIDFORMAT
  1
GRIDFORMAT_BEGIN
 90
        0
 91
        1
 62
     0
 92
       -2
340
0
 93
        0
 40
1.125
309
GRIDFORMAT_END
 95
       32
302
GRIDFORMAT
  1
GRIDFORMAT_BEGIN
 90
        0
 91
        1
 62
     0
 92
       -2
340
0
 93
        0
 40
1.125
309
GRIDFORMAT_END
309
TABLEFORMAT_END
  1
CELLSTYLE_BEGIN
 90
        1
 91
        1
300
_TITLE
309
CELLSTYLE_END
300
CELLSTYLE
  1
TABLEFORMAT_BEGIN
 90
        5
170
     1
 91
        0
 92
        0
 62
   257
 93
        1
300
CONTENTFORMAT
  1
CONTENTFORMAT_BEGIN
 90
        0
 91
        0
 92
      512
 93
        0
300

 40
0.0
140
1.0
 94
        5
 62
     0
340
10
144
4.5
309
CONTENTFORMAT_END
171
     1
301
MARGIN
  1
CELLMARGIN_BEGIN
 40
1.5
 40
1.5
 40
1.5
 40
1.5
 40
0.18
 40
0.18
309
CELLMARGIN_END
 94
        6
 95
        1
302
GRIDFORMAT
  1
GRIDFORMAT_BEGIN
 90
        0
 91
        1
 62
     0
 92
       -2
340
0
 93
        0
 40
1.125
309
GRIDFORMAT_END
 95
        2
302
GRIDFORMAT
  1
GRIDFORMAT_BEGIN
 90
        0
 91
        1
 62
     0
 92
       -2
340
0
 93
        0
 40
1.125
309
GRIDFORMAT_END
 95
        4
302
GRIDFORMAT
  1
GRIDFORMAT_BEGIN
 90
        0
 91
        1
 62
     0
 92
       -2
340
0
 93
        0
 40
1.125
309
GRIDFORMAT_END
 95
        8
302
GRIDFORMAT
  1
GRIDFORMAT_BEGIN
 90
        0
 91
        1
 62
     0
 92
       -2
340
0
 93
        0
 40
1.125
309
GRIDFORMAT_END
 95
       16
302
GRIDFORMAT
  1
GRIDFORMAT_BEGIN
 90
        0
 91
        1
 62
     0
 92
       -2
340
0
 93
        0
 40
1.125
309
GRIDFORMAT_END
 95
       32
302
GRIDFORMAT
  1
GRIDFORMAT_BEGIN
 90
        0
 91
        1
 62
     0
 92
       -2
340
0
 93
        0
 40
1.125
309
GRIDFORMAT_END
309
TABLEFORMAT_END
  1
CELLSTYLE_BEGIN
 90
        2
 91
        1
300
_HEADER
309
CELLSTYLE_END
300
CELLSTYLE
  1
TABLEFORMAT_BEGIN
 90
        5
170
     1
 91
        0
 92
        0
 62
   257
 93
        1
300
CONTENTFORMAT
  1
CONTENTFORMAT_BEGIN
 90
        0
 91
        0
 92
      512
 93
        0
300

 40
0.0
140
1.0
 94
        2
 62
     0
340
10
144
4.5
309
CONTENTFORMAT_END
171
     1
301
MARGIN
  1
CELLMARGIN_BEGIN
 40
1.5
 40
1.5
 40
1.5
 40
1.5
 40
0.18
 40
0.18
309
CELLMARGIN_END
 94
        6
 95
        1
302
GRIDFORMAT
  1
GRIDFORMAT_BEGIN
 90
        0
 91
        1
 62
     0
 92
       -2
340
0
 93
        0
 40
1.125
309
GRIDFORMAT_END
 95
        2
302
GRIDFORMAT
  1
GRIDFORMAT_BEGIN
 90
        0
 91
        1
 62
     0
 92
       -2
340
0
 93
        0
 40
1.125
309
GRIDFORMAT_END
 95
        4
302
GRIDFORMAT
  1
GRIDFORMAT_BEGIN
 90
        0
 91
        1
 62
     0
 92
       -2
340
0
 93
        0
 40
1.125
309
GRIDFORMAT_END
 95
        8
302
GRIDFORMAT
  1
GRIDFORMAT_BEGIN
 90
        0
 91
        1
 62
     0
 92
       -2
340
0
 93
        0
 40
1.125
309
GRIDFORMAT_END
 95
       16
302
GRIDFORMAT
  1
GRIDFORMAT_BEGIN
 90
        0
 91
        1
 62
     0
 92
       -2
340
0
 93
        0
 40
1.125
309
GRIDFORMAT_END
 95
       32
302
GRIDFORMAT
  1
GRIDFORMAT_BEGIN
 90
        0
 91
        1
 62
     0
 92
       -2
340
0
 93
        0
 40
1.125
309
GRIDFORMAT_END
309
TABLEFORMAT_END
  1
CELLSTYLE_BEGIN
 90
        3
 91
        2
300
_DATA
309
CELLSTYLE_END
  0
XRECORD
  5
16D93
102
{ACAD_REACTORS
330
16D62
102
}
330
16D62
100
AcDbXrecord
280
     1
102
ACAD_ROUNDTRIP_PRE2007_TABLESTYLE
 90
      512
 91
        0
  1

 92
      512
 93
        0
  2

 94
      512
 95
        0
  3

  0
ENDSEC
  0
EOF
