  0
SECTION
  2
HEADER
  9
$ACADVER
  1
AC1015
  9
$ACADMAINTVER
 70
    20
  9
$DWGCODEPAGE
  3
ANSI_932
  9
$INSBASE
 10
0.0
 20
0.0
 30
0.0
  9
$EXTMIN
 10
-1009.23132091353
 20
-691.3107147686382
 30
-0.0000000000000058
  9
$EXTMAX
 10
-729.9840594900707
 20
-486.8862002480787
 30
0.0000000000000104
  9
$LIMMIN
 10
0.0
 20
0.0
  9
$LIMMAX
 10
420.0
 20
297.0
  9
$ORTHOMODE
 70
     1
  9
$REGENMODE
 70
     1
  9
$FILLMODE
 70
     1
  9
$QTEXTMODE
 70
     0
  9
$MIRRTEXT
 70
     0
  9
$LTSCALE
 40
1.0
  9
$ATTMODE
 70
     1
  9
$TEXTSIZE
 40
3.5
  9
$TRACEWID
 40
1.0
  9
$TEXTSTYLE
  7
BIGFONT
  9
$CLAYER
  8
1
  9
$CELTYPE
  6
BYLAYER
  9
$CECOLOR
 62
   256
  9
$CELTSCALE
 40
1.0
  9
$DISPSILH
 70
     0
  9
$DIMSCALE
 40
1.0
  9
$DIMASZ
 40
2.5
  9
$DIMEXO
 40
0.0625
  9
$DIMDLI
 40
0.38
  9
$DIMRND
 40
0.0
  9
$DIMDLE
 40
0.0
  9
$DIMEXE
 40
0.18
  9
$DIMTP
 40
0.0
  9
$DIMTM
 40
0.0
  9
$DIMTXT
 40
3.0
  9
$DIMCEN
 40
-1.0
  9
$DIMTSZ
 40
0.0
  9
$DIMTOL
 70
     0
  9
$DIMLIM
 70
     0
  9
$DIMTIH
 70
     0
  9
$DIMTOH
 70
     0
  9
$DIMSE1
 70
     0
  9
$DIMSE2
 70
     0
  9
$DIMTAD
 70
     1
  9
$DIMZIN
 70
    12
  9
$DIMBLK
  1

  9
$DIMASO
 70
     1
  9
$DIMSHO
 70
     1
  9
$DIMPOST
  1

  9
$DIMAPOST
  1

  9
$DIMALT
 70
     0
  9
$DIMALTD
 70
     2
  9
$DIMALTF
 40
25.4
  9
$DIMLFAC
 40
1.0
  9
$DIMTOFL
 70
     1
  9
$DIMTVP
 40
0.0
  9
$DIMTIX
 70
     0
  9
$DIMSOXD
 70
     0
  9
$DIMSAH
 70
     0
  9
$DIMBLK1
  1

  9
$DIMBLK2
  1

  9
$DIMSTYLE
  2
STANDARD
  9
$DIMCLRD
 70
     0
  9
$DIMCLRE
 70
     0
  9
$DIMCLRT
 70
     0
  9
$DIMTFAC
 40
1.0
  9
$DIMGAP
 40
1.0
  9
$DIMJUST
 70
     0
  9
$DIMSD1
 70
     0
  9
$DIMSD2
 70
     0
  9
$DIMTOLJ
 70
     1
  9
$DIMTZIN
 70
    12
  9
$DIMALTZ
 70
     0
  9
$DIMALTTZ
 70
     0
  9
$DIMUPT
 70
     0
  9
$DIMDEC
 70
     2
  9
$DIMTDEC
 70
     2
  9
$DIMALTU
 70
     2
  9
$DIMALTTD
 70
     2
  9
$DIMTXSTY
  7
BIGFONT
  9
$DIMAUNIT
 70
     0
  9
$DIMADEC
 70
     0
  9
$DIMALTRND
 40
0.0
  9
$DIMAZIN
 70
     0
  9
$DIMDSEP
 70
    46
  9
$DIMATFIT
 70
     3
  9
$DIMFRAC
 70
     0
  9
$DIMLDRBLK
  1

  9
$DIMLUNIT
 70
     2
  9
$DIMLWD
 70
    -2
  9
$DIMLWE
 70
    -2
  9
$DIMTMOVE
 70
     0
  9
$LUNITS
 70
     2
  9
$LUPREC
 70
     2
  9
$SKETCHINC
 40
1.0
  9
$FILLETRAD
 40
0.0
  9
$AUNITS
 70
     0
  9
$AUPREC
 70
     0
  9
$MENU
  1
acad
  9
$ELEVATION
 40
0.0
  9
$PELEVATION
 40
0.0
  9
$THICKNESS
 40
0.0
  9
$LIMCHECK
 70
     0
  9
$CHAMFERA
 40
1.0
  9
$CHAMFERB
 40
1.0
  9
$CHAMFERC
 40
0.0
  9
$CHAMFERD
 40
0.0
  9
$SKPOLY
 70
     0
  9
$TDCREATE
 40
2452836.755218403
  9
$TDUCREATE
 40
2452836.380218403
  9
$TDUPDATE
 40
2456115.685405892
  9
$TDUUPDATE
 40
2456115.310405891
  9
$TDINDWG
 40
1.5371648727
  9
$TDUSRTIMER
 40
2456006.005193739
  9
$USRTIMER
 70
     1
  9
$ANGBASE
 50
0.0
  9
$ANGDIR
 70
     0
  9
$PDMODE
 70
     0
  9
$PDSIZE
 40
0.0
  9
$PLINEWID
 40
0.0
  9
$SPLFRAME
 70
     0
  9
$SPLINETYPE
 70
     6
  9
$SPLINESEGS
 70
     8
  9
$HANDSEED
  5
17CC4
  9
$SURFTAB1
 70
     6
  9
$SURFTAB2
 70
     6
  9
$SURFTYPE
 70
     6
  9
$SURFU
 70
     6
  9
$SURFV
 70
     6
  9
$UCSBASE
  2

  9
$UCSNAME
  2

  9
$UCSORG
 10
0.0
 20
0.0
 30
0.0
  9
$UCSXDIR
 10
1.0
 20
0.0
 30
0.0
  9
$UCSYDIR
 10
0.0
 20
1.0
 30
0.0
  9
$UCSORTHOREF
  2

  9
$UCSORTHOVIEW
 70
     0
  9
$UCSORGTOP
 10
0.0
 20
0.0
 30
0.0
  9
$UCSORGBOTTOM
 10
0.0
 20
0.0
 30
0.0
  9
$UCSORGLEFT
 10
0.0
 20
0.0
 30
0.0
  9
$UCSORGRIGHT
 10
0.0
 20
0.0
 30
0.0
  9
$UCSORGFRONT
 10
0.0
 20
0.0
 30
0.0
  9
$UCSORGBACK
 10
0.0
 20
0.0
 30
0.0
  9
$PUCSBASE
  2

  9
$PUCSNAME
  2

  9
$PUCSORG
 10
0.0
 20
0.0
 30
0.0
  9
$PUCSXDIR
 10
1.0
 20
0.0
 30
0.0
  9
$PUCSYDIR
 10
0.0
 20
1.0
 30
0.0
  9
$PUCSORTHOREF
  2

  9
$PUCSORTHOVIEW
 70
     0
  9
$PUCSORGTOP
 10
0.0
 20
0.0
 30
0.0
  9
$PUCSORGBOTTOM
 10
0.0
 20
0.0
 30
0.0
  9
$PUCSORGLEFT
 10
0.0
 20
0.0
 30
0.0
  9
$PUCSORGRIGHT
 10
0.0
 20
0.0
 30
0.0
  9
$PUCSORGFRONT
 10
0.0
 20
0.0
 30
0.0
  9
$PUCSORGBACK
 10
0.0
 20
0.0
 30
0.0
  9
$USERI1
 70
     0
  9
$USERI2
 70
     0
  9
$USERI3
 70
     0
  9
$USERI4
 70
     0
  9
$USERI5
 70
     0
  9
$USERR1
 40
0.0
  9
$USERR2
 40
0.0
  9
$USERR3
 40
0.0
  9
$USERR4
 40
0.0
  9
$USERR5
 40
0.0
  9
$WORLDVIEW
 70
     1
  9
$SHADEDGE
 70
     3
  9
$SHADEDIF
 70
    70
  9
$TILEMODE
 70
     1
  9
$MAXACTVP
 70
    16
  9
$PINSBASE
 10
0.0
 20
0.0
 30
0.0
  9
$PLIMCHECK
 70
     0
  9
$PEXTMIN
 10
1.000000000000000E+20
 20
1.000000000000000E+20
 30
1.000000000000000E+20
  9
$PEXTMAX
 10
-1.000000000000000E+20
 20
-1.000000000000000E+20
 30
-1.000000000000000E+20
  9
$PLIMMIN
 10
0.0
 20
0.0
  9
$PLIMMAX
 10
420.0
 20
297.0
  9
$UNITMODE
 70
     0
  9
$VISRETAIN
 70
     0
  9
$PLINEGEN
 70
     0
  9
$PSLTSCALE
 70
     1
  9
$TREEDEPTH
 70
  3020
  9
$CMLSTYLE
  2
STANDARD
  9
$CMLJUST
 70
     0
  9
$CMLSCALE
 40
1.0
  9
$PROXYGRAPHICS
 70
     1
  9
$MEASUREMENT
 70
     1
  9
$CELWEIGHT
370
    -1
  9
$ENDCAPS
280
     0
  9
$JOINSTYLE
280
     0
  9
$LWDISPLAY
290
     0
  9
$INSUNITS
 70
     0
  9
$HYPERLINKBASE
  1

  9
$STYLESHEET
  1
CANON00.CTB
  9
$XEDIT
290
     1
  9
$CEPSNTYPE
380
     0
  9
$PSTYLEMODE
290
     1
  9
$FINGERPRINTGUID
  2
{7545F8F0-0B94-11D4-9EDF-0040266A266F}
  9
$VERSIONGUID
  2
{53FAB0D8-FC04-4F4C-B248-9A337851006B}
  9
$EXTNAMES
290
     1
  9
$PSVPSCALE
 40
0.0
  9
$OLESTARTUP
290
     0
  0
ENDSEC
  0
SECTION
  2
CLASSES
  0
CLASS
  1
DICTIONARYVAR
  2
AcDbDictionaryVar
  3
ObjectDBX Classes
 90
        0
280
     0
281
     0
  0
CLASS
  1
ACDBDICTIONARYWDFLT
  2
AcDbDictionaryWithDefault
  3
ObjectDBX Classes
 90
        0
280
     0
281
     0
  0
CLASS
  1
ACDBPLACEHOLDER
  2
AcDbPlaceHolder
  3
ObjectDBX Classes
 90
        0
280
     0
281
     0
  0
CLASS
  1
LAYOUT
  2
AcDbLayout
  3
ObjectDBX Classes
 90
        0
280
     0
281
     0
  0
CLASS
  1
TABLESTYLE
  2
AcDbTableStyle
  3
ObjectDBX Classes
 90
     4095
280
     0
281
     0
  0
CLASS
  1
AMGSETTINGSOBJ
  2
AmgSettingsObj
  3
"AcadM|Product Description: AutoCAD Mechanical 2000|Company: Autodesk"
 90
    32768
280
     1
281
     0
  0
CLASS
  1
ACME_DOCUMENT
  2
AcMeDbDoc
  3
AcMeServices
 90
    32768
280
     1
281
     0
  0
CLASS
  1
ACMESCOPE
  2
AcMeScope
  3
AcMeServices
 90
    32768
280
     1
281
     0
  0
CLASS
  1
ACMECOMMANDHISTORY
  2
AcMeCommandHistory
  3
AcMeServices
 90
    32768
280
     1
281
     0
  0
CLASS
  1
ACIMSYSVARMAN
  2
AcImSysVarManager
  3
AcMeServices
 90
    32768
280
     1
281
     0
  0
CLASS
  1
ACIMINTSYSVAR
  2
AcImIntSysVar
  3
AcMeServices
 90
    32768
280
     1
281
     0
  0
CLASS
  1
ACMEDRAWINGMAN
  2
AcMeDrawingMan
  3
AcMeServices
 90
    32768
280
     1
281
     0
  0
CLASS
  1
ACMEVIEW
  2
AcMeView
  3
AcMeServices
 90
    32768
280
     1
281
     0
  0
CLASS
  1
ACDBENTITYCACHE
  2
AcMeEntityCache
  3
AcMeServices
 90
    32768
280
     1
281
     0
  0
CLASS
  1
GSMANAGER
  2
AcMeGSManager
  3
AcMeServices
 90
    32768
280
     1
281
     0
  0
CLASS
  1
AMDTINTERNALREACTOR
  2
AmdtInternalReactor
  3
AcMeServices
 90
    32768
280
     1
281
     0
  0
CLASS
  1
ACMESTATEMGR
  2
AcMeStateMgr
  3
AcMeServices
 90
    32768
280
     1
281
     0
  0
CLASS
  1
ACGREFMASTER
  2
AcGrefMaster
  3
AcAttribServices
 90
    32768
280
     1
281
     0
  0
CLASS
  1
AM_DRAWING_MGR
  2
AcDmDwgMgr
  3
AcMechDwgViewMgmt
 90
    32768
280
     1
281
     0
  0
CLASS
  1
AM_DWG_DOCUMENT
  2
AcDmDwgDocument
  3
AcMechDwgViewMgmt
 90
    32768
280
     1
281
     0
  0
CLASS
  1
AM_DWG_SHEET
  2
AcDmSheet
  3
AcMechDwgViewMgmt
 90
    32768
280
     1
281
     0
  0
CLASS
  1
AM_VIEWDIMPARMAP
  2
AcDmViewDimParMap
  3
AcMechDwgViewMgmt
 90
    32768
280
     1
281
     0
  0
CLASS
  1
ACIMREALSYSVAR
  2
AcImRealSysVar
  3
AcMeServices
 90
    32768
280
     1
281
     0
  0
CLASS
  1
AM_DWGMGR_NAME
  2
AcDmDwgMgrName
  3
AcMechDwgViewMgmt
 90
    32768
280
     1
281
     0
  0
CLASS
  1
ACME_DATABASE
  2
AcMeDbDatabase
  3
AcMeServices
 90
    32768
280
     1
281
     0
  0
CLASS
  1
ACRFINSADJUSTERMGR
  2
AcRfInsAdjusterMgr
  3
AcMeServices
 90
    32768
280
     1
281
     0
  0
CLASS
  1
ACGREFACADMASTER
  2
AcGrefacadMaster
  3
AcGrefServices
 90
    32768
280
     1
281
     0
  0
CLASS
  1
AMDTMENUSTATEMGR
  2
AmdtMenuStateMgr
  3
McadcomServices
 90
    32768
280
     1
281
     0
  0
CLASS
  1
AMDTMCOMMENUSTATE
  2
AmdtMcomMenuState
  3
McadcomServices
 90
    32768
280
     1
281
     0
  0
CLASS
  1
AMIMASTER
  2
AmiMaster
  3
AmiServices
 90
    32768
280
     1
281
     0
  0
CLASS
  1
MAPIAMMOUDLE
  2
MApiAmModule
  3
MApiAmServices
 90
    32768
280
     1
281
     0
  0
CLASS
  1
ACIMSTRSYSVAR
  2
AcImStrSysVar
  3
AcMeServices
 90
    32768
280
     1
281
     0
  0
CLASS
  1
AMDTADMENUSTATE
  2
AmdtAdMenuState
  3
DesignerServices
 90
    32768
280
     1
281
     0
  0
CLASS
  1
ADAPPL
  2
AcAdAppl
  3
DesignerServices
 90
    32768
280
     1
281
     0
  0
CLASS
  1
DEPMGR
  2
AcAdDepMgr
  3
DesignerServices
 90
    32768
280
     1
281
     0
  0
CLASS
  1
PARAMMGR
  2
AcAdParamMgr
  3
DesignerServices
 90
    32768
280
     1
281
     0
  0
CLASS
  1
PARAMSCOPE
  2
AcAdParamScope
  3
DesignerServices
 90
    32768
280
     1
281
     0
  0
CLASS
  1
NAMEDAPPL
  2
AcAdNamedAppl
  3
DesignerServices
 90
    32768
280
     1
281
     0
  0
CLASS
  1
AMDTDMMENUSTATE
  2
AmdtDmMenuState
  3
AcMechDwgViewMgmt
 90
    32768
280
     1
281
     0
  0
CLASS
  1
AMDTAMMENUSTATE
  2
AmdtAmMenuState
  3
DesignerAssemblies
 90
    32768
280
     1
281
     0
  0
CLASS
  1
ACAMPROJECT
  2
AcAmProject
  3
DesignerAssemblies
 90
    32768
280
     1
281
     0
  0
CLASS
  1
ACAMGRCOMPDEF
  2
AcAmGrCompDef
  3
DesignerAssemblies
 90
    32768
280
     1
281
     0
  0
CLASS
  1
ACCMCONTEXT
  2
AcCmContext
  3
DesignerAssemblies
 90
    32768
280
     1
281
     0
  0
CLASS
  1
ACAMCOMPDEF
  2
AcAmCompDef
  3
DesignerAssemblies
 90
    32768
280
     1
281
     0
  0
CLASS
  1
ACAMCOMPDEFMGR
  2
AcAmCompDefMgr
  3
DesignerAssemblies
 90
    32768
280
     1
281
     0
  0
CLASS
  1
AMCONTEXTMGR
  2
AcAmContextMgr
  3
DesignerAssemblies
 90
    32768
280
     1
281
     0
  0
CLASS
  1
ACAMCONTEXTMODELER
  2
AcAmContextModeler
  3
DesignerAssemblies
 90
    32768
280
     1
281
     0
  0
CLASS
  1
ACMDATADICTIONARY
  2
AcmDataDictionary
  3
"AcmSymBB|Product Description: AutoCAD Mechanical 2004 DX|Company: Autodesk"
 90
    32768
280
     1
281
     0
  0
CLASS
  1
CATALOGSTATE
  2
AcAmCatalogState
  3
DesignerAssemblies
 90
    32768
280
     1
281
     0
  0
CLASS
  1
ACAMGRCOMPDEFSET
  2
AcAmGrCompDefSet
  3
DesignerAssemblies
 90
    32768
280
     1
281
     0
  0
CLASS
  1
AMDTBROWSERDBTAB
  2
AmdtBrowserDbTab
  3
McadcomServices
 90
    32768
280
     1
281
     0
  0
CLASS
  1
CBROWSERAPPOBJECT
  2
CBrowserAppObject
  3
McadcomServices
 90
    32768
280
     1
281
     0
  0
CLASS
  1
DM_PLACEHOLDER
  2
AcDmSelsetPlaceholder
  3
AcMechDwgViewMgmt
 90
    32768
280
     1
281
     0
  0
CLASS
  1
ACMSTANDARDISO
  2
AcmStandardISO
  3
"Amdt_StdImp|Product Description: AutoCAD Mechanical 2004 DX|Company: Autodesk"
 90
    32768
280
     1
281
     0
  0
CLASS
  1
AMGOBJPROPCFG
  2
AmgObjPropCfg
  3
"AmgLay|Product Description: AutoCAD Mechanical 2000|Company: Autodesk"
 90
    32769
280
     1
281
     0
  0
CLASS
  1
AMDTEDGESTANDARDISO13715
  2
AmdtEdgeStdISO13715
  3
"Amdt_StdImp|Product Description: AutoCAD Mechanical 2004 DX|Company: Autodesk"
 90
    32768
280
     1
281
     0
  0
CLASS
  1
ACMSURFSTANDARDISO
  2
AcmSurfTextStdISO
  3
"Amdt_StdImp|Product Description: AutoCAD Mechanical 2004 DX|Company: Autodesk"
 90
    32768
280
     1
281
     0
  0
CLASS
  1
ACMFCFSTANDARDISO
  2
AcmFCFStdISO
  3
"Amdt_StdImp|Product Description: AutoCAD Mechanical 2004 DX|Company: Autodesk"
 90
    32768
280
     1
281
     0
  0
CLASS
  1
ACMWELDSTANDARDISO
  2
AcmWeldingStdISO
  3
"Amdt_StdImp|Product Description: AutoCAD Mechanical 2004 DX|Company: Autodesk"
 90
    32768
280
     1
281
     0
  0
CLASS
  1
ACMIDSTANDARDISO
  2
AcmIdStdISO
  3
"Amdt_StdImp|Product Description: AutoCAD Mechanical 2004 DX|Company: Autodesk"
 90
    32768
280
     1
281
     0
  0
CLASS
  1
ACMDATUMSTANDARDISO
  2
AcmDatumStdISO
  3
"Amdt_StdImp|Product Description: AutoCAD Mechanical 2004 DX|Company: Autodesk"
 90
    32768
280
     1
281
     0
  0
CLASS
  1
ACMBOMSTANDARDISO
  2
AcmBOMStdISO
  3
"Amdt_StdImp|Product Description: AutoCAD Mechanical 2004 DX|Company: Autodesk"
 90
    32768
280
     1
281
     0
  0
CLASS
  1
ACMDETAILSTANDARDISO
  2
AmdtDetailSymStdISO
  3
"Amdt_StdImp|Product Description: AutoCAD Mechanical 2004 DX|Company: Autodesk"
 90
    32768
280
     1
281
     0
  0
CLASS
  1
ACMSECTIONSTANDARDISO
  2
AmdtSectionSymStdISO
  3
"Amdt_StdImp|Product Description: AutoCAD Mechanical 2004 DX|Company: Autodesk"
 90
    32768
280
     1
281
     0
  0
CLASS
  1
ACMCENTERLINESTANDARDISO
  2
AmdtCenterLineStdISO
  3
"Amdt_StdImp|Product Description: AutoCAD Mechanical 2004 DX|Company: Autodesk"
 90
    32768
280
     1
281
     0
  0
CLASS
  1
ACMTHREADLINESTANDARDISO
  2
AmdtThreadLineStdISO
  3
"Amdt_StdImp|Product Description: AutoCAD Mechanical 2004 DX|Company: Autodesk"
 90
    32768
280
     1
281
     0
  0
CLASS
  1
ACMNOTESTANDARDISO
  2
AmdtNoteStdISO
  3
"Amdt_StdImp|Product Description: AutoCAD Mechanical 2004 DX|Company: Autodesk"
 90
    32768
280
     1
281
     0
  0
CLASS
  1
AMDTNOTETEMPLATEDB
  2
AmdtNoteTemplateDB
  3
AMDT_STDIMP_MODULE_NAME
 90
    32768
280
     1
281
     0
  0
CLASS
  1
ACAMGLAYSTD
  2
AcAmgLayStd
  3
"AcAmgLayStd|Product Description: AutoCAD Mechanical 2000|Company: Autodesk"
 90
    32768
280
     1
281
     0
  0
CLASS
  1
ACAMGDIMSTD
  2
AcAmgDimStd
  3
"AcAmgDimStd|Product Description: AutoCAD Mechanical 2000|Company: Autodesk"
 90
    32768
280
     1
281
     0
  0
CLASS
  1
ACAMGHOLECHARTSTDISO
  2
AcAmgHoleChartStdISO
  3
ACMSYMBB_MODULE_NAME
 90
    32768
280
     1
281
     0
  0
CLASS
  1
ACAMGTITLESTD
  2
AcAmgTitleStd
  3
"TITLEAPP"
 90
    32768
280
     1
281
     0
  0
CLASS
  1
MATERIAL
  2
AcDbMaterial
  3
ObjectDBX Classes
 90
     1153
280
     0
281
     0
  0
CLASS
  1
SORTENTSTABLE
  2
AcDbSortentsTable
  3
ObjectDBX Classes
 90
        0
280
     0
281
     0
  0
CLASS
  1
ACMDATAENTRYBLOCK
  2
AcmDataEntryBlock
  3
"AcmSymBB|Product Description: AutoCAD Mechanical 2004 DX|Company: Autodesk"
 90
    32768
280
     1
281
     0
  0
CLASS
  1
ACAMGFILTERDAT
  2
AcAmgFilterDat
  3
"AcadM|Product Description: AutoCAD Mechanical 2000|Company: Autodesk"
 90
    32768
280
     1
281
     0
  0
CLASS
  1
SCALE
  2
AcDbScale
  3
ObjectDBX Classes
 90
     1153
280
     0
281
     0
  0
CLASS
  1
RASTERVARIABLES
  2
AcDbRasterVariables
  3
ISM
 90
        0
280
     0
281
     0
  0
CLASS
  1
VISUALSTYLE
  2
AcDbVisualStyle
  3
ObjectDBX Classes
 90
     4095
280
     0
281
     0
  0
CLASS
  1
MLEADERSTYLE
  2
AcDbMLeaderStyle
  3
ACDB_MLEADERSTYLE_CLASS
 90
     4095
280
     0
281
     0
  0
CLASS
  1
CELLSTYLEMAP
  2
AcDbCellStyleMap
  3
ObjectDBX Classes
 90
     1152
280
     0
281
     0
  0
ENDSEC
  0
SECTION
  2
TABLES
  0
TABLE
  2
VPORT
  5
8
330
0
100
AcDbSymbolTable
 70
     1
  0
VPORT
  5
17BF5
330
8
100
AcDbSymbolTableRecord
100
AcDbViewportTableRecord
  2
*Active
 70
     0
 10
0.0
 20
0.0
 11
1.0
 21
1.0
 12
-869.6076902018003
 22
-589.0984575083584
 13
0.0
 23
0.0
 14
1.0
 24
1.0
 15
10.0
 25
10.0
 16
0.0
 26
0.0
 36
1.0
 17
0.0
 27
0.0
 37
0.0
 40
205.9731850851092
 41
1.525916561314791
 42
50.0
 43
0.0
 44
0.0
 50
0.0
 51
0.0
 71
    16
 72
   100
 73
     1
 74
     0
 75
     0
 76
     0
 77
     0
 78
     0
281
     0
 65
     0
110
0.0
120
0.0
130
0.0
111
1.0
121
0.0
131
0.0
112
0.0
122
1.0
132
0.0
 79
     0
146
0.0
  0
ENDTAB
  0
TABLE
  2
LTYPE
  5
5
330
0
100
AcDbSymbolTable
 70
     2
  0
LTYPE
  5
12
330
5
100
AcDbSymbolTableRecord
100
AcDbLinetypeTableRecord
  2
BYBLOCK
 70
     0
  3

 72
    65
 73
     0
 40
0.0
  0
LTYPE
  5
13
330
5
100
AcDbSymbolTableRecord
100
AcDbLinetypeTableRecord
  2
BYLAYER
 70
     0
  3

 72
    65
 73
     0
 40
0.0
  0
LTYPE
  5
14
330
5
100
AcDbSymbolTableRecord
100
AcDbLinetypeTableRecord
  2
CONTINUOUS
 70
     0
  3
Solid line
 72
    65
 73
     0
 40
0.0
  0
LTYPE
  5
C0D
330
5
100
AcDbSymbolTableRecord
100
AcDbLinetypeTableRecord
  2
CENTER2
 70
     0
  3
___ _ ___ _ ___ _ ___ _ ___ _ ___ _ ___ _ ___ _
 72
    65
 73
     4
 40
28.57499999999999
 49
19.05
 74
     0
 49
-3.174999999999998
 74
     0
 49
3.174999999999998
 74
     0
 49
-3.174999999999998
 74
     0
  0
ENDTAB
  0
TABLE
  2
LAYER
  5
2
102
{ACAD_XDICTIONARY
360
176A5
102
}
330
0
100
AcDbSymbolTable
 70
     5
  0
LAYER
  5
F
102
{ACAD_XDICTIONARY
360
17C9E
102
}
330
2
100
AcDbSymbolTableRecord
100
AcDbLayerTableRecord
  2
0
 70
     0
 62
     2
  6
CONTINUOUS
370
    -3
390
1C61
  0
LAYER
  5
30
330
2
100
AcDbSymbolTableRecord
100
AcDbLayerTableRecord
  2
DEFPOINTS
 70
     0
 62
     7
  6
CONTINUOUS
290
     0
370
    -3
390
1C61
  0
LAYER
  5
526
102
{ACAD_XDICTIONARY
360
17CA0
102
}
330
2
100
AcDbSymbolTableRecord
100
AcDbLayerTableRecord
  2
2
 70
     0
 62
     1
  6
CONTINUOUS
370
    -3
390
1C61
  0
LAYER
  5
138F
102
{ACAD_XDICTIONARY
360
17CA2
102
}
330
2
100
AcDbSymbolTableRecord
100
AcDbLayerTableRecord
  2
3
 70
     0
 62
     6
  6
CENTER2
370
    -3
390
1C61
  0
LAYER
  5
1390
102
{ACAD_XDICTIONARY
360
17CA4
102
}
330
2
100
AcDbSymbolTableRecord
100
AcDbLayerTableRecord
  2
1
 70
     0
 62
     7
  6
CONTINUOUS
370
    -3
390
1C61
  0
ENDTAB
  0
TABLE
  2
STYLE
  5
3
330
0
100
AcDbSymbolTable
 70
     2
  0
STYLE
  5
10
330
3
100
AcDbSymbolTableRecord
100
AcDbTextStyleTableRecord
  2
STANDARD
 70
     0
 40
0.0
 41
1.0
 50
0.0
 71
     0
 42
3.5
  3
ISOCP.SHX
  4
extfont.shx
  0
STYLE
  5
52A
330
3
100
AcDbSymbolTableRecord
100
AcDbTextStyleTableRecord
  2
BIGFONT
 70
     0
 40
0.0
 41
1.0
 50
0.0
 71
     0
 42
3.5
  3
txt
  4
bigfont
  0
ENDTAB
  0
TABLE
  2
VIEW
  5
6
330
0
100
AcDbSymbolTable
 70
     0
  0
ENDTAB
  0
TABLE
  2
UCS
  5
7
330
0
100
AcDbSymbolTable
 70
     0
  0
ENDTAB
  0
TABLE
  2
APPID
  5
9
330
0
100
AcDbSymbolTable
 70
    18
  0
APPID
  5
11
330
9
100
AcDbSymbolTableRecord
100
AcDbRegAppTableRecord
  2
ACAD
 70
     0
  0
APPID
  5
323
330
9
100
AcDbSymbolTableRecord
100
AcDbRegAppTableRecord
  2
CONTENTTABDATA
 70
     0
  0
APPID
  5
324
330
9
100
AcDbSymbolTableRecord
100
AcDbRegAppTableRecord
  2
CONTENTCURRENTTAB
 70
     0
  0
APPID
  5
175E8
330
9
100
AcDbSymbolTableRecord
100
AcDbRegAppTableRecord
  2
MCAD_NO_VIS
 70
     0
  0
APPID
  5
175E9
330
9
100
AcDbSymbolTableRecord
100
AcDbRegAppTableRecord
  2
ACAD_TEMP_GRAPHIC
 70
     0
  0
APPID
  5
17616
330
9
100
AcDbSymbolTableRecord
100
AcDbRegAppTableRecord
  2
AD_DRAW
 70
     0
  0
APPID
  5
17619
330
9
100
AcDbSymbolTableRecord
100
AcDbRegAppTableRecord
  2
ACATTRIBSERVICES
 70
     0
  0
APPID
  5
17639
330
9
100
AcDbSymbolTableRecord
100
AcDbRegAppTableRecord
  2
DESIGNERASSEMBLIES
 70
     0
  0
APPID
  5
1763F
330
9
100
AcDbSymbolTableRecord
100
AcDbRegAppTableRecord
  2
ACADM_DIM_EDIT
 70
     0
  0
APPID
  5
17640
330
9
100
AcDbSymbolTableRecord
100
AcDbRegAppTableRecord
  2
AMDT_DM_ADJ
 70
     0
  0
APPID
  5
1766C
330
9
100
AcDbSymbolTableRecord
100
AcDbRegAppTableRecord
  2
ACAD_DSTYLE_DIMARC_LENGTH_SYMBOL
 70
     0
  0
APPID
  5
1766D
330
9
100
AcDbSymbolTableRecord
100
AcDbRegAppTableRecord
  2
ACAD_DSTYLE_DIMJOGGED_JOGANGLE_SYMBOL
 70
     0
  0
APPID
  5
1769F
330
9
100
AcDbSymbolTableRecord
100
AcDbRegAppTableRecord
  2
ACAD_PSEXT
 70
     0
  0
APPID
  5
176A0
330
9
100
AcDbSymbolTableRecord
100
AcDbRegAppTableRecord
  2
GENIUS_GENODEF_13
 70
     0
  0
APPID
  5
176A1
330
9
100
AcDbSymbolTableRecord
100
AcDbRegAppTableRecord
  2
GENIUS_GENOBJ-N-FIL_13
 70
     0
  0
APPID
  5
179F5
330
9
100
AcDbSymbolTableRecord
100
AcDbRegAppTableRecord
  2
ACAD_EXEMPT_FROM_CAD_STANDARDS
 70
     0
  0
APPID
  5
17C9A
330
9
100
AcDbSymbolTableRecord
100
AcDbRegAppTableRecord
  2
ACAD_MLEADERVER
 70
     0
  0
APPID
  5
17CBC
330
9
100
AcDbSymbolTableRecord
100
AcDbRegAppTableRecord
  2
ACAD_DSTYLE_DIMRADIAL_EXTENSION
 70
     0
  0
ENDTAB
  0
TABLE
  2
DIMSTYLE
  5
A
330
0
100
AcDbSymbolTable
 70
     2
100
AcDbDimStyleTable
 71
     1
340
117
  0
DIMSTYLE
105
117
102
{ACAD_REACTORS
330
178D3
330
17C56
330
17C49
330
17C39
102
}
330
A
100
AcDbSymbolTableRecord
100
AcDbDimStyleTableRecord
  2
STANDARD
 70
     0
 41
2.5
 73
     0
 74
     0
 77
     1
 78
    12
140
3.0
141
-1.0
147
1.0
172
     1
271
     2
272
     2
284
    12
340
52A
  0
DIMSTYLE
105
2346
102
{ACAD_REACTORS
330
16ED8
330
16ED7
330
179B0
330
179BF
330
17BE1
102
}
330
A
100
AcDbSymbolTableRecord
100
AcDbDimStyleTableRecord
  2
_1
 70
     0
 40
0.0
 41
3.0
 42
0.0
 47
0.1
 48
0.1
 73
     0
 74
     0
 77
     1
 78
     8
140
3.0
141
-3.0
147
1.0
172
     1
284
     8
340
52A
  0
ENDTAB
  0
TABLE
  2
BLOCK_RECORD
  5
1
330
0
100
AcDbSymbolTable
 70
    11
  0
BLOCK_RECORD
  5
18
102
{ACAD_XDICTIONARY
360
175D1
102
}
330
1
100
AcDbSymbolTableRecord
100
AcDbBlockTableRecord
  2
*MODEL_SPACE
340
175DB
  0
BLOCK_RECORD
  5
15
330
1
100
AcDbSymbolTableRecord
100
AcDbBlockTableRecord
  2
*PAPER_SPACE
340
175DC
  0
BLOCK_RECORD
  5
16FE7
330
1
100
AcDbSymbolTableRecord
100
AcDbBlockTableRecord
  2
*D0
340
0
  0
BLOCK_RECORD
  5
16FF3
330
1
100
AcDbSymbolTableRecord
100
AcDbBlockTableRecord
  2
*D1
340
0
  0
BLOCK_RECORD
  5
178D4
330
1
100
AcDbSymbolTableRecord
100
AcDbBlockTableRecord
  2
*D4
340
0
  0
BLOCK_RECORD
  5
179B1
330
1
100
AcDbSymbolTableRecord
100
AcDbBlockTableRecord
  2
*D5
340
0
  0
BLOCK_RECORD
  5
179C0
330
1
100
AcDbSymbolTableRecord
100
AcDbBlockTableRecord
  2
*D6
340
0
  0
BLOCK_RECORD
  5
17BE2
330
1
100
AcDbSymbolTableRecord
100
AcDbBlockTableRecord
  2
*D7
340
0
  0
BLOCK_RECORD
  5
17C3D
330
1
100
AcDbSymbolTableRecord
100
AcDbBlockTableRecord
  2
*D8
340
0
  0
BLOCK_RECORD
  5
17C4A
330
1
100
AcDbSymbolTableRecord
100
AcDbBlockTableRecord
  2
*D9
340
0
  0
BLOCK_RECORD
  5
17C57
330
1
100
AcDbSymbolTableRecord
100
AcDbBlockTableRecord
  2
*D10
340
0
  0
ENDTAB
  0
ENDSEC
  0
SECTION
  2
BLOCKS
  0
BLOCK
  5
44
330
18
100
AcDbEntity
  8
0
100
AcDbBlockBegin
  2
*MODEL_SPACE
 70
     0
 10
0.0
 20
0.0
 30
0.0
  3
*MODEL_SPACE
  1

  0
ENDBLK
  5
45
330
18
100
AcDbEntity
  8
0
100
AcDbBlockEnd
  0
BLOCK
  5
42
330
15
100
AcDbEntity
 67
     1
  8
0
100
AcDbBlockBegin
  2
*PAPER_SPACE
 70
     0
 10
0.0
 20
0.0
 30
0.0
  3
*PAPER_SPACE
  1

  0
ENDBLK
  5
43
330
15
100
AcDbEntity
 67
     1
  8
0
100
AcDbBlockEnd
  0
BLOCK
  5
16FF1
330
16FE7
100
AcDbEntity
  8
0
100
AcDbBlockBegin
  2
*D0
 70
     1
 10
0.0
 20
0.0
 30
0.0
  3
*D0
  1

  0
LINE
  5
1799E
330
16FE7
100
AcDbEntity
  8
2
 62
     0
370
    -2
100
AcDbLine
 10
-981.1093980178059
 20
-522.9028820971141
 30
0.0
 11
-993.1078309125464
 21
-522.9028820971141
 31
0.0
  0
LINE
  5
1799F
330
16FE7
100
AcDbEntity
  8
2
 62
     0
370
    -2
100
AcDbLine
 10
-981.1093980178059
 20
-676.102882097114
 30
0.0
 11
-993.1078309125464
 21
-676.102882097114
 31
0.0
  0
LINE
  5
179A0
330
16FE7
100
AcDbEntity
  8
2
 62
     0
370
    -2
100
AcDbLine
 10
-992.9278309125466
 20
-525.9028820971141
 30
0.0
 11
-992.9278309125466
 21
-673.102882097114
 31
0.0
  0
SOLID
  5
179A1
330
16FE7
100
AcDbEntity
  8
2
 62
     0
100
AcDbTrace
 10
-993.4278309125467
 20
-525.9028820971141
 30
0.0
 11
-992.4278309125467
 21
-525.9028820971141
 31
0.0
 12
-992.9278309125466
 22
-522.9028820971141
 32
0.0
 13
-992.9278309125466
 23
-522.9028820971141
 33
0.0
  0
SOLID
  5
179A2
330
16FE7
100
AcDbEntity
  8
2
 62
     0
100
AcDbTrace
 10
-993.4278309125467
 20
-673.102882097114
 30
0.0
 11
-992.4278309125467
 21
-673.102882097114
 31
0.0
 12
-992.9278309125466
 22
-676.102882097114
 32
0.0
 13
-992.9278309125466
 23
-676.102882097114
 33
0.0
  0
MTEXT
  5
179A3
330
16FE7
100
AcDbEntity
  8
2
 62
     0
100
AcDbMText
 10
-995.9278309125467
 20
-599.5028820971143
 30
0.0
 40
3.0
 41
0.0
 71
     5
 72
     1
  1
\A1;Dp %%c153.2
  7
BIGFONT
 11
0.0000000000000001
 21
1.0
 31
0.0
 73
     1
 44
1.0
1001
ACAD
1000
MTEXTBEGIN
1070
    73
1070
     1
1070
    44
1040
1.0
1070
    74
1070
     0
1000
MTEXTEND
  0
POINT
  5
179A4
330
16FE7
100
AcDbEntity
  8
DEFPOINTS
 62
     0
100
AcDbPoint
 10
-981.1093980178059
 20
-522.9028820971141
 30
0.0
  0
POINT
  5
179A5
330
16FE7
100
AcDbEntity
  8
DEFPOINTS
 62
     0
100
AcDbPoint
 10
-981.1093980178059
 20
-676.102882097114
 30
0.0
  0
POINT
  5
179A6
330
16FE7
100
AcDbEntity
  8
DEFPOINTS
 62
     0
100
AcDbPoint
 10
-992.9278309125466
 20
-676.102882097114
 30
0.0
  0
ENDBLK
  5
16FF2
330
16FE7
100
AcDbEntity
  8
0
100
AcDbBlockEnd
  0
BLOCK
  5
16FFD
330
16FF3
100
AcDbEntity
  8
0
100
AcDbBlockBegin
  2
*D1
 70
     1
 10
0.0
 20
0.0
 30
0.0
  3
*D1
  1

  0
LINE
  5
179A7
330
16FF3
100
AcDbEntity
  8
2
 62
     0
370
    -2
100
AcDbLine
 10
-972.6093980178063
 20
-522.2528820971144
 30
0.0
 11
-1001.942543136814
 21
-522.2528820971144
 31
0.0
  0
LINE
  5
179A8
330
16FF3
100
AcDbEntity
  8
2
 62
     0
370
    -2
100
AcDbLine
 10
-972.6093980178051
 20
-676.7528820971136
 30
0.0
 11
-1001.942543136814
 21
-676.7528820971136
 31
0.0
  0
LINE
  5
179A9
330
16FF3
100
AcDbEntity
  8
2
 62
     0
370
    -2
100
AcDbLine
 10
-1001.762543136814
 20
-525.2528820971143
 30
0.0
 11
-1001.762543136814
 21
-673.7528820971136
 31
0.0
  0
SOLID
  5
179AA
330
16FF3
100
AcDbEntity
  8
2
 62
     0
100
AcDbTrace
 10
-1002.262543136814
 20
-525.2528820971143
 30
0.0
 11
-1001.262543136814
 21
-525.2528820971143
 31
0.0
 12
-1001.762543136814
 22
-522.2528820971144
 32
0.0
 13
-1001.762543136814
 23
-522.2528820971144
 33
0.0
  0
SOLID
  5
179AB
330
16FF3
100
AcDbEntity
  8
2
 62
     0
100
AcDbTrace
 10
-1002.262543136814
 20
-673.7528820971136
 30
0.0
 11
-1001.262543136814
 21
-673.7528820971136
 31
0.0
 12
-1001.762543136814
 22
-676.7528820971136
 32
0.0
 13
-1001.762543136814
 23
-676.7528820971136
 33
0.0
  0
MTEXT
  5
179AC
330
16FF3
100
AcDbEntity
  8
2
 62
     0
100
AcDbMText
 10
-1004.262543136814
 20
-599.5028820971141
 30
0.0
 40
3.0
 41
0.0
 71
     5
 72
     1
  1
\A1;Do %%c154.5
  7
BIGFONT
 11
0.0000000000000001
 21
1.0
 31
0.0
 73
     1
 44
1.0
1001
ACAD
1000
MTEXTBEGIN
1070
    73
1070
     1
1070
    44
1040
1.0
1070
    74
1070
     0
1000
MTEXTEND
  0
POINT
  5
179AD
330
16FF3
100
AcDbEntity
  8
DEFPOINTS
 62
     0
100
AcDbPoint
 10
-972.6093980178063
 20
-522.2528820971144
 30
0.0
  0
POINT
  5
179AE
330
16FF3
100
AcDbEntity
  8
DEFPOINTS
 62
     0
100
AcDbPoint
 10
-972.6093980178051
 20
-676.7528820971136
 30
0.0
  0
POINT
  5
179AF
330
16FF3
100
AcDbEntity
  8
DEFPOINTS
 62
     0
100
AcDbPoint
 10
-1001.762543136814
 20
-676.7528820971136
 30
0.0
  0
ENDBLK
  5
16FFE
330
16FF3
100
AcDbEntity
  8
0
100
AcDbBlockEnd
  0
BLOCK
  5
178DE
330
178D4
100
AcDbEntity
  8
0
100
AcDbBlockBegin
  2
*D4
 70
     1
 10
0.0
 20
0.0
 30
0.0
  3
*D4
  1

  0
LINE
  5
1793B
330
178D4
100
AcDbEntity
  8
2
 62
     0
 48
0.5
370
    -2
100
AcDbLine
 10
-805.2006168031033
 20
-522.9945937595593
 30
0.0
 11
-803.0731166951957
 21
-516.4469281959965
 31
0.0
  0
LINE
  5
1793C
330
178D4
100
AcDbEntity
  8
2
 62
     0
 48
0.5
370
    -2
100
AcDbLine
 10
-768.9654198100087
 20
-534.7683144489378
 30
0.0
 11
-766.8379197021013
 21
-528.2206488853748
 31
0.0
  0
LINE
  5
1793D
330
178D4
100
AcDbEntity
  8
2
 62
     0
 48
0.5
370
    -2
100
AcDbLine
 10
-800.7511029744962
 20
-517.3906719540594
 30
0.0
 11
-769.2711811773461
 21
-527.6192849414199
 31
0.0
  0
SOLID
  5
1793E
330
178D4
100
AcDbEntity
  8
2
 62
     0
100
AcDbTrace
 10
-800.6223439993279
 20
-516.9943990210643
 30
0.0
 11
-800.8798619496642
 21
-517.7869448870549
 31
0.0
 12
-803.1287405724686
 22
-516.6181181030505
 32
0.0
 13
-803.1287405724686
 23
-516.6181181030505
 33
0.0
  0
SOLID
  5
1793F
330
178D4
100
AcDbEntity
  8
2
 62
     0
100
AcDbTrace
 10
-769.3999401525141
 20
-528.015557874415
 30
0.0
 11
-769.142422202178
 21
-527.2230120084246
 31
0.0
 12
-766.893543579374
 22
-528.3918387924289
 32
0.0
 13
-766.893543579374
 23
-528.3918387924289
 33
0.0
  0
MTEXT
  5
17940
330
178D4
100
AcDbEntity
  8
2
 62
     0
100
AcDbMText
 10
-784.2385882249122
 20
-520.1273408497675
 30
0.0
 40
3.0
 41
0.0
 71
     5
 72
     1
  1
\A1;38.1
  7
BIGFONT
 11
0.9510550391888767
 21
-0.309021540403649
 31
0.0
 73
     1
 44
1.0
1001
ACAD
1000
MTEXTBEGIN
1070
    73
1070
     1
1070
    44
1040
1.0
1070
    74
1070
     0
1000
MTEXTEND
  0
POINT
  5
17941
330
178D4
100
AcDbEntity
  8
DEFPOINTS
 62
     0
100
AcDbPoint
 10
-805.2199306493784
 20
-523.0540346995086
 30
0.0
  0
POINT
  5
17942
330
178D4
100
AcDbEntity
  8
DEFPOINTS
 62
     0
100
AcDbPoint
 10
-768.9847336562839
 20
-534.8277553888872
 30
0.0
  0
POINT
  5
17943
330
178D4
100
AcDbEntity
  8
DEFPOINTS
 62
     0
100
AcDbPoint
 10
-766.893543579374
 20
-528.3918387924289
 30
0.0
  0
ENDBLK
  5
178DF
330
178D4
100
AcDbEntity
  8
0
100
AcDbBlockEnd
  0
BLOCK
  5
179BD
330
179B1
100
AcDbEntity
  8
0
100
AcDbBlockBegin
  2
*D5
 70
     1
 10
0.0
 20
0.0
 30
0.0
  3
*D5
  1

  0
LINE
  5
17BC6
330
179B1
100
AcDbEntity
  8
2
 62
     0
370
    -2
100
AcDbLine
 10
-781.2296844453245
 20
-606.5028820971142
 30
0.0
 11
-769.0740968990518
 21
-606.5028820971142
 31
0.0
  0
LINE
  5
17BC7
330
179B1
100
AcDbEntity
  8
2
 62
     0
370
    -2
100
AcDbLine
 10
-781.2296844453245
 20
-592.5028820971142
 30
0.0
 11
-769.0740968990518
 21
-592.5028820971142
 31
0.0
  0
LINE
  5
17BC8
330
179B1
100
AcDbEntity
  8
2
 62
     0
370
    -2
100
AcDbLine
 10
-769.2540968990518
 20
-603.5028820971142
 30
0.0
 11
-769.2540968990518
 21
-595.5028820971143
 31
0.0
  0
SOLID
  5
17BC9
330
179B1
100
AcDbEntity
  8
2
 62
     0
100
AcDbTrace
 10
-769.7540968990518
 20
-603.5028820971142
 30
0.0
 11
-768.7540968990518
 21
-603.5028820971142
 31
0.0
 12
-769.2540968990518
 22
-606.5028820971142
 32
0.0
 13
-769.2540968990518
 23
-606.5028820971142
 33
0.0
  0
SOLID
  5
17BCA
330
179B1
100
AcDbEntity
  8
2
 62
     0
100
AcDbTrace
 10
-768.7540968990518
 20
-595.5028820971143
 30
0.0
 11
-769.7540968990518
 21
-595.5028820971143
 31
0.0
 12
-769.2540968990518
 22
-592.5028820971142
 32
0.0
 13
-769.2540968990518
 23
-592.5028820971142
 33
0.0
  0
MTEXT
  5
17BCB
330
179B1
100
AcDbEntity
  8
2
 62
     0
100
AcDbMText
 10
-771.7540968990517
 20
-599.5028820971143
 30
0.0
 40
3.0
 41
0.0
 71
     5
 72
     1
  1
\A1;14
  7
BIGFONT
 11
0.0
 21
1.0
 31
0.0
 73
     1
 44
1.0
1001
ACAD
1000
MTEXTBEGIN
1070
    73
1070
     1
1070
    44
1040
1.0
1070
    74
1070
     0
1000
MTEXTEND
  0
POINT
  5
17BCC
330
179B1
100
AcDbEntity
  8
DEFPOINTS
 62
     0
100
AcDbPoint
 10
-781.2296844453245
 20
-606.5028820971142
 30
0.0
  0
POINT
  5
17BCD
330
179B1
100
AcDbEntity
  8
DEFPOINTS
 62
     0
100
AcDbPoint
 10
-781.2296844453245
 20
-592.5028820971142
 30
0.0
  0
POINT
  5
17BCE
330
179B1
100
AcDbEntity
  8
DEFPOINTS
 62
     0
100
AcDbPoint
 10
-769.2540968990518
 20
-592.5028820971142
 30
0.0
  0
ENDBLK
  5
179BE
330
179B1
100
AcDbEntity
  8
0
100
AcDbBlockEnd
  0
BLOCK
  5
179CA
330
179C0
100
AcDbEntity
  8
0
100
AcDbBlockBegin
  2
*D6
 70
     1
 10
0.0
 20
0.0
 30
0.0
  3
*D6
  1

  0
LINE
  5
17BD8
330
179C0
100
AcDbEntity
  8
2
 62
     0
370
    -2
100
AcDbLine
 10
-781.2296844453245
 20
-593.5028820971142
 30
0.0
 11
-781.2296844453245
 21
-574.9425908009705
 31
0.0
  0
LINE
  5
17BD9
330
179C0
100
AcDbEntity
  8
2
 62
     0
370
    -2
100
AcDbLine
 10
-835.0296844453245
 20
-599.5028820971141
 30
0.0
 11
-835.0296844453245
 21
-574.9425908009705
 31
0.0
  0
LINE
  5
17BDA
330
179C0
100
AcDbEntity
  8
2
 62
     0
370
    -2
100
AcDbLine
 10
-784.2296844453245
 20
-575.1225908009701
 30
0.0
 11
-832.0296844453245
 21
-575.1225908009701
 31
0.0
  0
SOLID
  5
17BDB
330
179C0
100
AcDbEntity
  8
2
 62
     0
100
AcDbTrace
 10
-784.2296844453245
 20
-575.6225908009702
 30
0.0
 11
-784.2296844453245
 21
-574.6225908009702
 31
0.0
 12
-781.2296844453245
 22
-575.1225908009701
 32
0.0
 13
-781.2296844453245
 23
-575.1225908009701
 33
0.0
  0
SOLID
  5
17BDC
330
179C0
100
AcDbEntity
  8
2
 62
     0
100
AcDbTrace
 10
-832.0296844453245
 20
-574.6225908009702
 30
0.0
 11
-832.0296844453245
 21
-575.6225908009702
 31
0.0
 12
-835.0296844453245
 22
-575.1225908009701
 32
0.0
 13
-835.0296844453245
 23
-575.1225908009701
 33
0.0
  0
MTEXT
  5
17BDD
330
179C0
100
AcDbEntity
  8
2
 62
     0
100
AcDbMText
 10
-808.1296844453245
 20
-572.6225908009702
 30
0.0
 40
3.0
 41
0.0
 71
     5
 72
     1
  1
\A1;53.8
  7
BIGFONT
 73
     1
 44
1.0
1001
ACAD
1000
MTEXTBEGIN
1070
    73
1070
     1
1070
    44
1040
1.0
1070
    74
1070
     0
1000
MTEXTEND
  0
POINT
  5
17BDE
330
179C0
100
AcDbEntity
  8
DEFPOINTS
 62
     0
100
AcDbPoint
 10
-781.2296844453245
 20
-593.5028820971142
 30
0.0
  0
POINT
  5
17BDF
330
179C0
100
AcDbEntity
  8
DEFPOINTS
 62
     0
100
AcDbPoint
 10
-835.0296844453245
 20
-599.5028820971141
 30
0.0
  0
POINT
  5
17BE0
330
179C0
100
AcDbEntity
  8
DEFPOINTS
 62
     0
100
AcDbPoint
 10
-835.0296844453245
 20
-575.1225908009701
 30
0.0
  0
ENDBLK
  5
179CB
330
179C0
100
AcDbEntity
  8
0
100
AcDbBlockEnd
  0
BLOCK
  5
17BE8
330
17BE2
100
AcDbEntity
  8
0
100
AcDbBlockBegin
  2
*D7
 70
     1
 10
0.0
 20
0.0
 30
0.0
  3
*D7
  1

  0
LINE
  5
17BEA
330
17BE2
100
AcDbEntity
  8
2
 62
     0
370
    -2
100
AcDbLine
 10
-847.0924835612816
 20
-583.1750248681258
 30
0.0
 11
-835.6533480316652
 21
-588.2144869758381
 31
0.0
  0
LINE
  5
17BEB
330
17BE2
100
AcDbEntity
  8
2
 62
     0
370
    -2
100
AcDbLine
 10
-784.4060208589841
 20
-610.7912772183903
 30
0.0
 11
-781.660628331876
 21
-612.0007481242412
 31
0.0
  0
MTEXT
  5
17BEC
330
17BE2
100
AcDbEntity
  8
2
 62
     0
100
AcDbMText
 10
-841.7377196384848
 20
-582.8021933631331
 30
0.0
 40
3.0
 41
0.0
 71
     5
 72
     1
  1
\A1;%%c50
  7
BIGFONT
 11
0.9151308423693039
 21
-0.4031569686169993
 31
0.0
 73
     1
 44
1.0
1001
ACAD
1000
MTEXTBEGIN
1070
    73
1070
     1
1070
    44
1040
1.0
1070
    74
1070
     0
1000
MTEXTEND
  0
LINE
  5
17BED
330
17BE2
100
AcDbEntity
  8
2
 62
     0
370
    -2
100
AcDbLine
 10
-787.1514133860919
 20
-609.5818063125392
 30
0.0
 11
-832.9079555045574
 21
-589.4239578816891
 31
0.0
  0
SOLID
  5
17BEE
330
17BE2
100
AcDbEntity
  8
2
 62
     0
100
AcDbTrace
 10
-784.2044423746754
 20
-610.3337117972056
 30
0.0
 11
-784.6075993432926
 21
-611.2488426395749
 31
0.0
 12
-787.1514133860919
 22
-609.5818063125392
 32
0.0
 13
-787.1514133860919
 23
-609.5818063125392
 33
0.0
  0
SOLID
  5
17BEF
330
17BE2
100
AcDbEntity
  8
2
 62
     0
100
AcDbTrace
 10
-835.8549265159737
 20
-588.6720523970227
 30
0.0
 11
-835.4517695473569
 21
-587.7569215546534
 31
0.0
 12
-832.9079555045574
 22
-589.4239578816891
 32
0.0
 13
-832.9079555045574
 23
-589.4239578816891
 33
0.0
  0
POINT
  5
17BF0
330
17BE2
100
AcDbEntity
  8
DEFPOINTS
 62
     0
100
AcDbPoint
 10
-832.9079555045574
 20
-589.4239578816891
 30
0.0
  0
POINT
  5
17BF1
330
17BE2
100
AcDbEntity
  8
DEFPOINTS
 62
     0
100
AcDbPoint
 10
-787.1514133860919
 20
-609.5818063125392
 30
0.0
  0
ENDBLK
  5
17BE9
330
17BE2
100
AcDbEntity
  8
0
100
AcDbBlockEnd
  0
BLOCK
  5
17C3E
330
17C3D
100
AcDbEntity
  8
0
100
AcDbBlockBegin
  2
*D8
 70
     1
 10
0.0
 20
0.0
 30
0.0
  3
*D8
  1

  0
LINE
  5
17C3F
330
17C3D
100
AcDbEntity
  8
2
 62
     0
 48
0.5
370
    -2
100
AcDbLine
 10
-976.1093980178051
 20
-554.9403820971148
 30
0.0
 11
-976.1093980178051
 21
-504.7847298137241
 31
0.0
  0
LINE
  5
17C40
330
17C3D
100
AcDbEntity
  8
2
 62
     0
 48
0.5
370
    -2
100
AcDbLine
 10
-926.1093980178063
 20
-556.9903587820024
 30
0.0
 11
-926.1093980178063
 21
-504.7847298137241
 31
0.0
  0
LINE
  5
17C41
330
17C3D
100
AcDbEntity
  8
2
 62
     0
 48
0.5
370
    -2
100
AcDbLine
 10
-973.6093980178051
 20
-504.9647298137241
 30
0.0
 11
-928.6093980178064
 21
-504.9647298137241
 31
0.0
  0
SOLID
  5
17C42
330
17C3D
100
AcDbEntity
  8
2
 62
     0
100
AcDbTrace
 10
-973.6093980178051
 20
-504.5480631470574
 30
0.0
 11
-973.6093980178051
 21
-505.3813964803906
 31
0.0
 12
-976.1093980178051
 22
-504.9647298137241
 32
0.0
 13
-976.1093980178051
 23
-504.9647298137241
 33
0.0
  0
SOLID
  5
17C43
330
17C3D
100
AcDbEntity
  8
2
 62
     0
100
AcDbTrace
 10
-928.6093980178064
 20
-505.3813964803906
 30
0.0
 11
-928.6093980178064
 21
-504.5480631470574
 31
0.0
 12
-926.1093980178063
 22
-504.9647298137241
 32
0.0
 13
-926.1093980178063
 23
-504.9647298137241
 33
0.0
  0
MTEXT
  5
17C44
330
17C3D
100
AcDbEntity
  8
2
 62
     0
100
AcDbMText
 10
-951.1093980178058
 20
-502.4647298137241
 30
0.0
 40
3.0
 41
0.0
 71
     5
 72
     1
  1
\A1;50
  7
BIGFONT
 73
     1
 44
1.0
1001
ACAD
1000
MTEXTBEGIN
1070
    73
1070
     1
1070
    44
1040
1.0
1070
    74
1070
     0
1000
MTEXTEND
  0
POINT
  5
17C45
330
17C3D
100
AcDbEntity
  8
DEFPOINTS
 62
     0
100
AcDbPoint
 10
-976.1093980178051
 20
-555.0028820971148
 30
0.0
  0
POINT
  5
17C46
330
17C3D
100
AcDbEntity
  8
DEFPOINTS
 62
     0
100
AcDbPoint
 10
-926.1093980178063
 20
-557.0528587820024
 30
0.0
  0
POINT
  5
17C47
330
17C3D
100
AcDbEntity
  8
DEFPOINTS
 62
     0
100
AcDbPoint
 10
-926.1093980178063
 20
-504.9647298137241
 30
0.0
  0
ENDBLK
  5
17C48
330
17C3D
100
AcDbEntity
  8
0
100
AcDbBlockEnd
  0
BLOCK
  5
17C4B
330
17C4A
100
AcDbEntity
  8
0
100
AcDbBlockBegin
  2
*D9
 70
     1
 10
0.0
 20
0.0
 30
0.0
  3
*D9
  1

  0
LINE
  5
17C4C
330
17C4A
100
AcDbEntity
  8
2
 62
     0
 48
0.5
370
    -2
100
AcDbLine
 10
-972.6093980178058
 20
-525.440382097114
 30
0.0
 11
-972.6093980178058
 21
-510.7847298137241
 31
0.0
  0
LINE
  5
17C4D
330
17C4A
100
AcDbEntity
  8
2
 62
     0
 48
0.5
370
    -2
100
AcDbLine
 10
-929.6093980178058
 20
-524.4403820971138
 30
0.0
 11
-929.6093980178058
 21
-510.7847298137241
 31
0.0
  0
LINE
  5
17C4E
330
17C4A
100
AcDbEntity
  8
2
 62
     0
 48
0.5
370
    -2
100
AcDbLine
 10
-970.1093980178058
 20
-510.9647298137241
 30
0.0
 11
-932.1093980178059
 21
-510.9647298137241
 31
0.0
  0
SOLID
  5
17C4F
330
17C4A
100
AcDbEntity
  8
2
 62
     0
100
AcDbTrace
 10
-970.1093980178058
 20
-510.5480631470575
 30
0.0
 11
-970.1093980178058
 21
-511.3813964803908
 31
0.0
 12
-972.6093980178058
 22
-510.9647298137241
 32
0.0
 13
-972.6093980178058
 23
-510.9647298137241
 33
0.0
  0
SOLID
  5
17C50
330
17C4A
100
AcDbEntity
  8
2
 62
     0
100
AcDbTrace
 10
-932.1093980178059
 20
-511.3813964803908
 30
0.0
 11
-932.1093980178059
 21
-510.5480631470575
 31
0.0
 12
-929.6093980178058
 22
-510.9647298137241
 32
0.0
 13
-929.6093980178058
 23
-510.9647298137241
 33
0.0
  0
MTEXT
  5
17C51
330
17C4A
100
AcDbEntity
  8
2
 62
     0
100
AcDbMText
 10
-951.1093980178058
 20
-508.4647298137241
 30
0.0
 40
3.0
 41
0.0
 71
     5
 72
     1
  1
\A1;43
  7
BIGFONT
 73
     1
 44
1.0
1001
ACAD
1000
MTEXTBEGIN
1070
    73
1070
     1
1070
    44
1040
1.0
1070
    74
1070
     0
1000
MTEXTEND
  0
POINT
  5
17C52
330
17C4A
100
AcDbEntity
  8
DEFPOINTS
 62
     0
100
AcDbPoint
 10
-972.6093980178058
 20
-525.502882097114
 30
0.0
  0
POINT
  5
17C53
330
17C4A
100
AcDbEntity
  8
DEFPOINTS
 62
     0
100
AcDbPoint
 10
-929.6093980178058
 20
-524.5028820971136
 30
0.0
  0
POINT
  5
17C54
330
17C4A
100
AcDbEntity
  8
DEFPOINTS
 62
     0
100
AcDbPoint
 10
-929.6093980178058
 20
-510.9647298137241
 30
0.0
  0
ENDBLK
  5
17C55
330
17C4A
100
AcDbEntity
  8
0
100
AcDbBlockEnd
  0
BLOCK
  5
17C58
330
17C57
100
AcDbEntity
  8
0
100
AcDbBlockBegin
  2
*D10
 70
     1
 10
0.0
 20
0.0
 30
0.0
  3
*D10
  1

  0
LINE
  5
17C59
330
17C57
100
AcDbEntity
  8
2
 62
     0
 48
0.5
370
    -2
100
AcDbLine
 10
-959.1093980178058
 20
-524.440382097114
 30
0.0
 11
-959.1093980178058
 21
-516.7847298137242
 31
0.0
  0
LINE
  5
17C5A
330
17C57
100
AcDbEntity
  8
2
 62
     0
 48
0.5
370
    -2
100
AcDbLine
 10
-943.1093980178058
 20
-524.440382097114
 30
0.0
 11
-943.1093980178058
 21
-516.7847298137242
 31
0.0
  0
LINE
  5
17C5B
330
17C57
100
AcDbEntity
  8
2
 62
     0
 48
0.5
370
    -2
100
AcDbLine
 10
-956.6093980178058
 20
-516.9647298137241
 30
0.0
 11
-945.6093980178058
 21
-516.9647298137241
 31
0.0
  0
SOLID
  5
17C5C
330
17C57
100
AcDbEntity
  8
2
 62
     0
100
AcDbTrace
 10
-956.6093980178058
 20
-516.5480631470575
 30
0.0
 11
-956.6093980178058
 21
-517.3813964803906
 31
0.0
 12
-959.1093980178058
 22
-516.9647298137241
 32
0.0
 13
-959.1093980178058
 23
-516.9647298137241
 33
0.0
  0
SOLID
  5
17C5D
330
17C57
100
AcDbEntity
  8
2
 62
     0
100
AcDbTrace
 10
-945.6093980178058
 20
-517.3813964803906
 30
0.0
 11
-945.6093980178058
 21
-516.5480631470575
 31
0.0
 12
-943.1093980178058
 22
-516.9647298137241
 32
0.0
 13
-943.1093980178058
 23
-516.9647298137241
 33
0.0
  0
MTEXT
  5
17C5E
330
17C57
100
AcDbEntity
  8
2
 62
     0
100
AcDbMText
 10
-951.1093980178058
 20
-514.4647298137241
 30
0.0
 40
3.0
 41
0.0
 71
     5
 72
     1
  1
\A1;16
  7
BIGFONT
 73
     1
 44
1.0
1001
ACAD
1000
MTEXTBEGIN
1070
    73
1070
     1
1070
    44
1040
1.0
1070
    74
1070
     0
1000
MTEXTEND
  0
POINT
  5
17C5F
330
17C57
100
AcDbEntity
  8
DEFPOINTS
 62
     0
100
AcDbPoint
 10
-959.1093980178058
 20
-524.502882097114
 30
0.0
  0
POINT
  5
17C60
330
17C57
100
AcDbEntity
  8
DEFPOINTS
 62
     0
100
AcDbPoint
 10
-943.1093980178058
 20
-524.502882097114
 30
0.0
  0
POINT
  5
17C61
330
17C57
100
AcDbEntity
  8
DEFPOINTS
 62
     0
100
AcDbPoint
 10
-943.1093980178058
 20
-516.9647298137241
 30
0.0
  0
ENDBLK
  5
17C62
330
17C57
100
AcDbEntity
  8
0
100
AcDbBlockEnd
  0
ENDSEC
  0
SECTION
  2
ENTITIES
  0
TEXT
  5
FDF
330
18
100
AcDbEntity
  8
2
100
AcDbText
 10
61.80397887142635
 20
115.9153310921787
 30
0.0
 40
3.5
  1

  7
BIGFONT
100
AcDbText
  0
TEXT
  5
FE2
330
18
100
AcDbEntity
  8
2
100
AcDbText
 10
203.8957585163355
 20
143.31043555714
 30
0.0
 40
3.5
  1

  7
BIGFONT
100
AcDbText
  0
TEXT
  5
218A
330
18
100
AcDbEntity
  8
2
  6
Continuous
 48
3.0
100
AcDbText
 10
345.2872429042694
 20
59.92647845586116
 30
0.0
 40
3.5
  1

 50
359.780436223055
  7
BIGFONT
 72
     5
 11
360.1971044114504
 21
59.8693419344833
 31
0.0
100
AcDbText
  0
TEXT
  5
16EBD
330
18
100
AcDbEntity
  8
2
100
AcDbText
 10
-1009.159405811205
 20
-490.4514107858436
 30
0.0
 40
3.5
  1

  7
BIGFONT
100
AcDbText
  0
DIMENSION
  5
16ED7
330
18
100
AcDbEntity
  8
2
100
AcDbDimension
  2
*D1
 10
-1001.762543136814
 20
-676.7528820971136
 30
0.0
 11
-1004.262543136814
 21
-599.5028820971141
 31
0.0
 70
    32
  1
Do %%c<>
 71
     5
 42
154.4999999999995
  3
_1
100
AcDbAlignedDimension
 13
-972.6093980178063
 23
-522.2528820971144
 33
0.0
 14
-972.6093980178051
 24
-676.7528820971136
 34
0.0
 50
90.0
100
AcDbRotatedDimension
1001
ACAD
1000
DSTYLE
1002
{
1070
    40
1040
1.0
1002
}
  0
DIMENSION
  5
16ED8
330
18
100
AcDbEntity
  8
2
100
AcDbDimension
  2
*D0
 10
-992.9278309125466
 20
-676.102882097114
 30
0.0
 11
-995.9278309125467
 21
-599.5028820971143
 31
0.0
 70
    32
  1
Dp %%c<>
 71
     5
 42
153.2
  3
_1
100
AcDbAlignedDimension
 13
-981.1093980178059
 23
-522.9028820971141
 33
0.0
 14
-981.1093980178059
 24
-676.102882097114
 34
0.0
 50
90.0
100
AcDbRotatedDimension
1001
ACAD
1000
DSTYLE
1002
{
1070
    40
1040
1.0
1002
}
  0
LINE
  5
177C5
330
18
100
AcDbEntity
  8
3
  6
CENTER2
 48
0.5
100
AcDbLine
 10
-730.0296844453245
 20
-599.5028820971143
 30
0.0
 11
-890.0296844453245
 21
-599.5028820971143
 31
0.0
  0
LINE
  5
177C6
330
18
100
AcDbEntity
  8
3
  6
CENTER2
 48
0.5
100
AcDbLine
 10
-810.0296844453247
 20
-519.5028820971144
 30
0.0
 11
-810.0296844453247
 21
-679.5028820971142
 31
0.0
  0
CIRCLE
  5
177C7
330
18
100
AcDbEntity
  8
3
  6
CENTER2
 48
0.5
100
AcDbCircle
 10
-810.0296844453247
 20
-599.5028820971143
 30
0.0
 40
76.6
  0
LINE
  5
177C8
330
18
100
AcDbEntity
  8
1
 62
     7
 48
0.5
100
AcDbLine
 10
-797.0296844453245
 20
-555.0028820971148
 30
0.0
 11
-810.0296844453247
 21
-555.0028820971148
 31
0.0
  0
LINE
  5
177C9
330
18
100
AcDbEntity
  8
1
 62
     7
 48
0.5
100
AcDbLine
 10
-797.0296844453245
 20
-555.0028820971148
 30
0.0
 11
-797.0296844453245
 21
-558.0028820971143
 31
0.0
  0
LINE
  5
177CA
330
18
100
AcDbEntity
  8
1
 62
     7
 48
0.5
100
AcDbLine
 10
-797.0296844453245
 20
-569.0028820971146
 30
0.0
 11
-797.0296844453245
 21
-572.4658704159582
 31
0.0
  0
LINE
  5
177CB
330
18
100
AcDbEntity
  8
1
 62
     7
 48
0.5
100
AcDbLine
 10
-803.0296844453243
 20
-558.0028820971148
 30
0.0
 11
-803.0296844453243
 21
-569.0028820971146
 31
0.0
  0
LINE
  5
177CC
330
18
100
AcDbEntity
  8
1
 62
     7
 48
0.5
100
AcDbLine
 10
-823.0296844453246
 20
-561.102882097115
 30
0.0
 11
-823.0296844453244
 21
-565.9028820971152
 31
0.0
  0
LINE
  5
177CD
330
18
100
AcDbEntity
  8
1
 62
     7
 48
0.5
100
AcDbLine
 10
-797.0296844453245
 20
-558.0028820971148
 30
0.0
 11
-803.0296844453243
 21
-558.0028820971148
 31
0.0
  0
LINE
  5
177CE
330
18
100
AcDbEntity
  8
3
  6
CENTER2
 48
0.5
100
AcDbLine
 10
-793.0296844453245
 20
-563.5028820971147
 30
0.0
 11
-827.0296844453245
 21
-563.5028820971147
 31
0.0
  0
LINE
  5
177CF
330
18
100
AcDbEntity
  8
1
 62
     7
 48
0.5
100
AcDbLine
 10
-797.0296844453245
 20
-569.0028820971146
 30
0.0
 11
-803.0296844453243
 21
-569.0028820971146
 31
0.0
  0
LINE
  5
177D0
330
18
100
AcDbEntity
  8
1
 62
     7
 48
0.5
100
AcDbLine
 10
-810.0296844453247
 20
-652.0028820971142
 30
0.0
 11
-810.0296844453245
 21
-624.5028820971143
 31
0.0
  0
LINE
  5
177D1
330
18
100
AcDbEntity
  8
1
 62
     7
 48
0.5
100
AcDbLine
 10
-820.0296844453244
 20
-560.0028820971147
 30
0.0
 11
-823.0296844453246
 21
-560.0028820971147
 31
0.0
  0
LINE
  5
177D2
330
18
100
AcDbEntity
  8
1
 62
     7
 48
0.5
100
AcDbLine
 10
-820.0296844453244
 20
-567.0028820971147
 30
0.0
 11
-823.0296844453246
 21
-567.0028820971147
 31
0.0
  0
LINE
  5
177D3
330
18
100
AcDbEntity
  8
1
 62
     7
 48
0.5
100
AcDbLine
 10
-810.0296844453247
 20
-547.002882097115
 30
0.0
 11
-810.0296844453245
 21
-574.5028820971142
 31
0.0
  0
LINE
  5
177D4
330
18
100
AcDbEntity
  8
1
 62
     7
 48
0.5
100
AcDbLine
 10
-823.0296844453246
 20
-555.0028820971148
 30
0.0
 11
-810.0296844453247
 21
-555.0028820971148
 31
0.0
  0
LINE
  5
177D5
330
18
100
AcDbEntity
  8
1
 62
     7
 48
0.5
100
AcDbLine
 10
-823.0296844453246
 20
-555.0028820971148
 30
0.0
 11
-823.0296844453246
 21
-560.0028820971147
 31
0.0
  0
LINE
  5
177D6
330
18
100
AcDbEntity
  8
1
 62
     7
 48
0.5
100
AcDbLine
 10
-823.0296844453246
 20
-567.0028820971152
 30
0.0
 11
-823.0296844453246
 21
-572.4658704159582
 31
0.0
  0
LINE
  5
177D7
330
18
100
AcDbEntity
  8
1
 62
     7
 48
0.5
100
AcDbLine
 10
-820.0296844453244
 20
-558.5028820971148
 30
0.0
 11
-815.0296844453245
 21
-558.5028820971148
 31
0.0
  0
LINE
  5
177D8
330
18
100
AcDbEntity
  8
1
 62
     7
 48
0.5
100
AcDbLine
 10
-815.0296844453245
 20
-558.5028820971148
 30
0.0
 11
-815.0296844453245
 21
-568.5028820971147
 31
0.0
  0
LINE
  5
177D9
330
18
100
AcDbEntity
  8
1
 62
     7
 48
0.5
100
AcDbLine
 10
-815.0296844453245
 20
-568.5028820971147
 30
0.0
 11
-820.0296844453244
 21
-568.5028820971147
 31
0.0
  0
LINE
  5
177DA
330
18
100
AcDbEntity
  8
1
 62
     7
 48
0.5
100
AcDbLine
 10
-820.0296844453244
 20
-568.5028820971147
 30
0.0
 11
-820.0296844453244
 21
-558.5028820971148
 31
0.0
  0
LINE
  5
177DB
330
18
100
AcDbEntity
  8
1
 62
     7
 48
0.5
100
AcDbLine
 10
-803.0296844453243
 20
-558.5028820971148
 30
0.0
 11
-797.5296844453245
 21
-558.5028820971148
 31
0.0
  0
ARC
  5
177DC
330
18
100
AcDbEntity
  8
1
 62
     7
 48
0.5
100
AcDbCircle
 10
-797.5296844453245
 20
-559.0028820971148
 30
0.0
 40
0.5
100
AcDbArc
 50
0.0
 51
90.0
  0
LINE
  5
177DD
330
18
100
AcDbEntity
  8
1
 62
     7
 48
0.5
100
AcDbLine
 10
-797.0296844453245
 20
-559.0028820971148
 30
0.0
 11
-797.0296844453245
 21
-568.0028820971147
 31
0.0
  0
LINE
  5
177DE
330
18
100
AcDbEntity
  8
1
 62
     7
 48
0.5
100
AcDbLine
 10
-797.5296844453245
 20
-568.5028820971147
 30
0.0
 11
-803.0296844453243
 21
-568.5028820971147
 31
0.0
  0
ARC
  5
177DF
330
18
100
AcDbEntity
  8
1
 62
     7
 48
0.5
100
AcDbCircle
 10
-797.5296844453245
 20
-568.0028820971147
 30
0.0
 40
0.5
100
AcDbArc
 50
270.0
 51
0.0
  0
LINE
  5
177E0
330
18
100
AcDbEntity
  8
1
 62
     7
 48
0.5
100
AcDbLine
 10
-822.6832742838109
 20
-566.5028820971147
 30
0.0
 11
-820.0296844453244
 21
-566.5028820971147
 31
0.0
  0
LINE
  5
177E1
330
18
100
AcDbEntity
  8
1
 48
0.5
100
AcDbLine
 10
-823.0296844453246
 20
-565.902882097115
 30
0.0
 11
-820.0296844453244
 21
-565.902882097115
 31
0.0
  0
LINE
  5
177E2
330
18
100
AcDbEntity
  8
1
 62
     7
 48
0.5
100
AcDbLine
 10
-823.0296844453246
 20
-565.902882097115
 30
0.0
 11
-822.6832742838109
 21
-566.5028820971147
 31
0.0
  0
LINE
  5
177E3
330
18
100
AcDbEntity
  8
1
 62
     7
 48
0.5
100
AcDbLine
 10
-822.6832742838109
 20
-566.5028820971147
 30
0.0
 11
-822.6832742838109
 21
-560.5028820971154
 31
0.0
  0
LINE
  5
177E4
330
18
100
AcDbEntity
  8
1
 62
     7
 48
0.5
100
AcDbLine
 10
-822.6832742838109
 20
-560.502882097115
 30
0.0
 11
-820.0296844453244
 21
-560.5028820971154
 31
0.0
  0
LINE
  5
177E5
330
18
100
AcDbEntity
  8
1
 48
0.5
100
AcDbLine
 10
-823.0296844453246
 20
-561.102882097115
 30
0.0
 11
-820.0296844453244
 21
-561.102882097115
 31
0.0
  0
LINE
  5
177E6
330
18
100
AcDbEntity
  8
1
 62
     7
 48
0.5
100
AcDbLine
 10
-823.0296844453246
 20
-561.102882097115
 30
0.0
 11
-822.6832742838109
 21
-560.502882097115
 31
0.0
  0
LINE
  5
177E7
330
18
100
AcDbEntity
  8
1
 62
     7
 48
0.5
100
AcDbLine
 10
-807.0296844453189
 20
-652.5028820971279
 30
0.0
 11
-807.0296844453245
 21
-669.4389385293848
 31
0.0
  0
LINE
  5
177E8
330
18
100
AcDbEntity
  8
1
 62
     7
 48
0.5
100
AcDbLine
 10
-807.0296844453245
 20
-546.5028820971033
 30
0.0
 11
-807.0296844453245
 21
-529.5668256648432
 31
0.0
  0
LINE
  5
177E9
330
18
100
AcDbEntity
  8
3
  6
CENTER2
 48
0.5
100
AcDbLine
 10
-951.1093980178058
 20
-519.502882097114
 30
0.0
 11
-951.1093980178058
 21
-679.502882097114
 31
0.0
  0
LINE
  5
177EA
330
18
100
AcDbEntity
  8
1
 62
     7
 48
0.5
100
AcDbLine
 10
-958.1142412052679
 20
-535.0028820971133
 30
0.0
 11
-958.1142412052679
 21
-664.002882097114
 31
0.0
  0
LINE
  5
177EB
330
18
100
AcDbEntity
  8
1
 62
     7
 48
0.5
100
AcDbLine
 10
-959.1093980178058
 20
-522.2528820971144
 30
0.0
 11
-959.1093980178058
 21
-676.7528820971136
 31
0.0
  0
LINE
  5
177EC
330
18
100
AcDbEntity
  8
1
 62
     7
 48
0.5
100
AcDbLine
 10
-972.6093980178063
 20
-522.2528820971144
 30
0.0
 11
-972.6093980178051
 21
-676.7528820971136
 31
0.0
  0
LINE
  5
177ED
330
18
100
AcDbEntity
  8
3
  6
CENTER2
 48
0.5
100
AcDbLine
 10
-981.1093980178059
 20
-599.502882097114
 30
0.0
 11
-921.1093980178059
 21
-599.502882097114
 31
0.0
  0
LINE
  5
177EE
330
18
100
AcDbEntity
  8
1
 62
     7
 48
0.5
100
AcDbLine
 10
-959.1093980178058
 20
-676.7528820971136
 30
0.0
 11
-972.6093980178051
 21
-676.7528820971136
 31
0.0
  0
LINE
  5
177EF
330
18
100
AcDbEntity
  8
1
 62
     7
 48
0.5
100
AcDbLine
 10
-959.1093980178058
 20
-522.2528820971144
 30
0.0
 11
-972.6093980178063
 21
-522.2528820971144
 31
0.0
  0
LINE
  5
177F0
330
18
100
AcDbEntity
  8
1
 62
     7
 48
0.5
100
AcDbLine
 10
-959.1093980178058
 20
-523.1367949846636
 30
0.0
 11
-972.609398017806
 21
-523.1367949846636
 31
0.0
  0
LINE
  5
177F1
330
18
100
AcDbEntity
  8
1
 62
     7
 48
0.5
100
AcDbLine
 10
-959.1093980178058
 20
-527.6537887697863
 30
0.0
 11
-972.609398017806
 21
-527.6537887697863
 31
0.0
  0
LINE
  5
177F2
330
18
100
AcDbEntity
  8
1
 62
     7
 48
0.5
100
AcDbLine
 10
-959.1093980178058
 20
-529.1461157575322
 30
0.0
 11
-972.609398017806
 21
-529.1461157575322
 31
0.0
  0
LINE
  5
177F3
330
18
100
AcDbEntity
  8
1
 62
     7
 48
0.5
100
AcDbLine
 10
-959.1093980178058
 20
-536.4434092542244
 30
0.0
 11
-972.609398017806
 21
-536.4434092542244
 31
0.0
  0
LINE
  5
177F4
330
18
100
AcDbEntity
  8
1
 62
     7
 48
0.5
100
AcDbLine
 10
-959.1093980178058
 20
-538.8262109136031
 30
0.0
 11
-972.609398017806
 21
-538.8262109136031
 31
0.0
  0
LINE
  5
177F5
330
18
100
AcDbEntity
  8
1
 62
     7
 48
0.5
100
AcDbLine
 10
-959.1093980178058
 20
-549.1952883339002
 30
0.0
 11
-972.609398017806
 21
-549.1952883338998
 31
0.0
  0
LINE
  5
177F6
330
18
100
AcDbEntity
  8
1
 62
     7
 48
0.5
100
AcDbLine
 10
-959.1093980178058
 20
-552.3188444733214
 30
0.0
 11
-972.609398017806
 21
-552.3188444733214
 31
0.0
  0
LINE
  5
177F7
330
18
100
AcDbEntity
  8
1
 62
     7
 48
0.5
100
AcDbLine
 10
-959.1093980178058
 20
-565.1081785481058
 30
0.0
 11
-972.609398017806
 21
-565.108178548106
 31
0.0
  0
LINE
  5
177F8
330
18
100
AcDbEntity
  8
1
 62
     7
 48
0.5
100
AcDbLine
 10
-959.1093980178058
 20
-568.7762246476937
 30
0.0
 11
-972.609398017806
 21
-568.7762246476937
 31
0.0
  0
LINE
  5
177F9
330
18
100
AcDbEntity
  8
1
 62
     7
 48
0.5
100
AcDbLine
 10
-959.1093980178058
 20
-583.182214481167
 30
0.0
 11
-972.609398017806
 21
-583.1822144811671
 31
0.0
  0
LINE
  5
177FA
330
18
100
AcDbEntity
  8
1
 62
     7
 48
0.5
100
AcDbLine
 10
-959.1093980178058
 20
-587.1642737143544
 30
0.0
 11
-972.609398017806
 21
-587.1642737143547
 31
0.0
  0
LINE
  5
177FB
330
18
100
AcDbEntity
  8
1
 62
     7
 48
0.5
100
AcDbLine
 10
-959.1093980178058
 20
-602.2817379837547
 30
0.0
 11
-972.609398017806
 21
-602.2817379837547
 31
0.0
  0
LINE
  5
177FC
330
18
100
AcDbEntity
  8
1
 62
     7
 48
0.5
100
AcDbLine
 10
-959.1093980178058
 20
-606.3276029239316
 30
0.0
 11
-972.609398017806
 21
-606.3276029239316
 31
0.0
  0
LINE
  5
177FD
330
18
100
AcDbEntity
  8
1
 62
     7
 48
0.5
100
AcDbLine
 10
-959.1093980178058
 20
-621.2066557510678
 30
0.0
 11
-972.6093980178056
 21
-621.2066557510678
 31
0.0
  0
LINE
  5
177FE
330
18
100
AcDbEntity
  8
1
 62
     7
 48
0.5
100
AcDbLine
 10
-959.1093980178058
 20
-625.0621098243922
 30
0.0
 11
-972.6093980178056
 21
-625.0621098243924
 31
0.0
  0
LINE
  5
177FF
330
18
100
AcDbEntity
  8
1
 62
     7
 48
0.5
100
AcDbLine
 10
-959.1093980178058
 20
-638.7678455988072
 30
0.0
 11
-972.6093980178056
 21
-638.7678455988075
 31
0.0
  0
LINE
  5
17800
330
18
100
AcDbEntity
  8
1
 62
     7
 48
0.5
100
AcDbLine
 10
-959.1093980178058
 20
-642.1906364464837
 30
0.0
 11
-972.6093980178056
 21
-642.1906364464838
 31
0.0
  0
LINE
  5
17801
330
18
100
AcDbEntity
  8
1
 62
     7
 48
0.5
100
AcDbLine
 10
-959.1093980178058
 20
-653.8618733833008
 30
0.0
 11
-972.6093980178051
 21
-653.8618733833008
 31
0.0
  0
LINE
  5
17802
330
18
100
AcDbEntity
  8
1
 62
     7
 48
0.5
100
AcDbLine
 10
-959.1093980178058
 20
-656.636934468226
 30
0.0
 11
-972.6093980178051
 21
-656.636934468226
 31
0.0
  0
LINE
  5
17803
330
18
100
AcDbEntity
  8
1
 62
     7
 48
0.5
100
AcDbLine
 10
-959.1093980178058
 20
-665.5403258268977
 30
0.0
 11
-972.6093980178051
 21
-665.5403258268977
 31
0.0
  0
LINE
  5
17804
330
18
100
AcDbEntity
  8
1
 62
     7
 48
0.5
100
AcDbLine
 10
-959.1093980178058
 20
-667.4932898551449
 30
0.0
 11
-972.6093980178051
 21
-667.4932898551451
 31
0.0
  0
LINE
  5
17805
330
18
100
AcDbEntity
  8
1
 62
     7
 48
0.5
100
AcDbLine
 10
-959.1093980178058
 20
-673.0694028122233
 30
0.0
 11
-972.6093980178051
 21
-673.0694028122233
 31
0.0
  0
LINE
  5
17806
330
18
100
AcDbEntity
  8
1
 62
     7
 48
0.5
100
AcDbLine
 10
-959.1093980178058
 20
-674.0775578713984
 30
0.0
 11
-972.6093980178051
 21
-674.0775578713984
 31
0.0
  0
LINE
  5
17807
330
18
100
AcDbEntity
  8
1
 62
     7
 48
0.5
100
AcDbLine
 10
-944.1045548303437
 20
-535.0028820971139
 30
0.0
 11
-958.1142412052679
 21
-535.0028820971139
 31
0.0
  0
LINE
  5
17808
330
18
100
AcDbEntity
  8
1
 62
     7
 48
0.5
100
AcDbLine
 10
-959.1093980178058
 20
-522.2528820971144
 30
0.0
 11
-958.1142412052679
 21
-535.0028820971139
 31
0.0
  0
LINE
  5
17809
330
18
100
AcDbEntity
  8
1
 62
     7
 48
0.5
100
AcDbLine
 10
-944.1045548303437
 20
-664.002882097114
 30
0.0
 11
-958.1142412052679
 21
-664.002882097114
 31
0.0
  0
LINE
  5
1780A
330
18
100
AcDbEntity
  8
1
 62
     7
 48
0.5
100
AcDbLine
 10
-959.1093980178058
 20
-676.7528820971136
 30
0.0
 11
-958.1142412052679
 21
-664.002882097114
 31
0.0
  0
LINE
  5
1780B
330
18
100
AcDbEntity
  8
3
  6
CENTER2
 48
0.5
100
AcDbLine
 10
-981.1093980178059
 20
-522.9028820971141
 30
0.0
 11
-921.1093980178059
 21
-522.9028820971141
 31
0.0
  0
LINE
  5
1780C
330
18
100
AcDbEntity
  8
3
  6
CENTER2
 48
0.5
100
AcDbLine
 10
-981.1093980178059
 20
-676.102882097114
 30
0.0
 11
-921.1093980178059
 21
-676.102882097114
 31
0.0
  0
LINE
  5
1780D
330
18
100
AcDbEntity
  8
1
 62
     7
 48
0.5
100
AcDbLine
 10
-944.1045548303437
 20
-535.0028820971139
 30
0.0
 11
-944.1045548303437
 21
-664.002882097114
 31
0.0
  0
LINE
  5
1780E
330
18
100
AcDbEntity
  8
1
 62
     7
 48
0.5
100
AcDbLine
 10
-943.109398017806
 20
-522.2528820971144
 30
0.0
 11
-943.109398017806
 21
-676.7528820971136
 31
0.0
  0
LINE
  5
1780F
330
18
100
AcDbEntity
  8
1
 62
     7
 48
0.5
100
AcDbLine
 10
-929.6093980178056
 20
-522.2528820971144
 30
0.0
 11
-929.6093980178063
 21
-676.7528820971136
 31
0.0
  0
LINE
  5
17810
330
18
100
AcDbEntity
  8
1
 62
     7
 48
0.5
100
AcDbLine
 10
-943.109398017806
 20
-676.7528820971136
 30
0.0
 11
-929.6093980178063
 21
-676.7528820971136
 31
0.0
  0
LINE
  5
17811
330
18
100
AcDbEntity
  8
1
 62
     7
 48
0.5
100
AcDbLine
 10
-943.1093980178063
 20
-522.2528820971144
 30
0.0
 11
-929.6093980178056
 21
-522.2528820971144
 31
0.0
  0
LINE
  5
17812
330
18
100
AcDbEntity
  8
1
 62
     7
 48
0.5
100
AcDbLine
 10
-943.1093980178063
 20
-523.1367949846636
 30
0.0
 11
-929.6093980178056
 21
-523.1367949846636
 31
0.0
  0
LINE
  5
17813
330
18
100
AcDbEntity
  8
1
 62
     7
 48
0.5
100
AcDbLine
 10
-943.109398017806
 20
-527.6537887697863
 30
0.0
 11
-929.6093980178056
 21
-527.6537887697863
 31
0.0
  0
LINE
  5
17814
330
18
100
AcDbEntity
  8
1
 62
     7
 48
0.5
100
AcDbLine
 10
-943.109398017806
 20
-529.1461157575322
 30
0.0
 11
-929.6093980178056
 21
-529.1461157575322
 31
0.0
  0
LINE
  5
17815
330
18
100
AcDbEntity
  8
1
 62
     7
 48
0.5
100
AcDbLine
 10
-943.109398017806
 20
-536.4434092542244
 30
0.0
 11
-929.6093980178058
 21
-536.4434092542244
 31
0.0
  0
LINE
  5
17816
330
18
100
AcDbEntity
  8
1
 62
     7
 48
0.5
100
AcDbLine
 10
-943.109398017806
 20
-538.8262109136031
 30
0.0
 11
-929.6093980178058
 21
-538.8262109136031
 31
0.0
  0
LINE
  5
17817
330
18
100
AcDbEntity
  8
1
 62
     7
 48
0.5
100
AcDbLine
 10
-943.109398017806
 20
-549.1952883339002
 30
0.0
 11
-929.6093980178058
 21
-549.1952883338998
 31
0.0
  0
LINE
  5
17818
330
18
100
AcDbEntity
  8
1
 62
     7
 48
0.5
100
AcDbLine
 10
-943.109398017806
 20
-552.3188444733214
 30
0.0
 11
-929.6093980178058
 21
-552.3188444733214
 31
0.0
  0
LINE
  5
17819
330
18
100
AcDbEntity
  8
1
 62
     7
 48
0.5
100
AcDbLine
 10
-943.109398017806
 20
-565.1081785481058
 30
0.0
 11
-929.6093980178058
 21
-565.108178548106
 31
0.0
  0
LINE
  5
1781A
330
18
100
AcDbEntity
  8
1
 62
     7
 48
0.5
100
AcDbLine
 10
-943.109398017806
 20
-568.7762246476937
 30
0.0
 11
-929.6093980178058
 21
-568.7762246476937
 31
0.0
  0
LINE
  5
1781B
330
18
100
AcDbEntity
  8
1
 62
     7
 48
0.5
100
AcDbLine
 10
-943.109398017806
 20
-583.182214481167
 30
0.0
 11
-929.6093980178063
 21
-583.1822144811671
 31
0.0
  0
LINE
  5
1781C
330
18
100
AcDbEntity
  8
1
 62
     7
 48
0.5
100
AcDbLine
 10
-943.109398017806
 20
-587.1642737143544
 30
0.0
 11
-929.6093980178063
 21
-587.1642737143547
 31
0.0
  0
LINE
  5
1781D
330
18
100
AcDbEntity
  8
1
 62
     7
 48
0.5
100
AcDbLine
 10
-943.109398017806
 20
-602.2817379837547
 30
0.0
 11
-929.6093980178063
 21
-602.2817379837547
 31
0.0
  0
LINE
  5
1781E
330
18
100
AcDbEntity
  8
1
 62
     7
 48
0.5
100
AcDbLine
 10
-943.109398017806
 20
-606.3276029239316
 30
0.0
 11
-929.6093980178063
 21
-606.3276029239316
 31
0.0
  0
LINE
  5
1781F
330
18
100
AcDbEntity
  8
1
 62
     7
 48
0.5
100
AcDbLine
 10
-943.109398017806
 20
-621.2066557510678
 30
0.0
 11
-929.6093980178063
 21
-621.2066557510678
 31
0.0
  0
LINE
  5
17820
330
18
100
AcDbEntity
  8
1
 62
     7
 48
0.5
100
AcDbLine
 10
-943.109398017806
 20
-625.0621098243922
 30
0.0
 11
-929.6093980178063
 21
-625.0621098243924
 31
0.0
  0
LINE
  5
17821
330
18
100
AcDbEntity
  8
1
 62
     7
 48
0.5
100
AcDbLine
 10
-943.109398017806
 20
-638.7678455988072
 30
0.0
 11
-929.6093980178063
 21
-638.7678455988075
 31
0.0
  0
LINE
  5
17822
330
18
100
AcDbEntity
  8
1
 62
     7
 48
0.5
100
AcDbLine
 10
-943.109398017806
 20
-642.1906364464837
 30
0.0
 11
-929.6093980178063
 21
-642.1906364464838
 31
0.0
  0
LINE
  5
17823
330
18
100
AcDbEntity
  8
1
 62
     7
 48
0.5
100
AcDbLine
 10
-943.109398017806
 20
-653.8618733833008
 30
0.0
 11
-929.6093980178063
 21
-653.8618733833008
 31
0.0
  0
LINE
  5
17824
330
18
100
AcDbEntity
  8
1
 62
     7
 48
0.5
100
AcDbLine
 10
-943.109398017806
 20
-656.636934468226
 30
0.0
 11
-929.6093980178063
 21
-656.636934468226
 31
0.0
  0
LINE
  5
17825
330
18
100
AcDbEntity
  8
1
 62
     7
 48
0.5
100
AcDbLine
 10
-943.109398017806
 20
-665.5403258268977
 30
0.0
 11
-929.6093980178063
 21
-665.5403258268977
 31
0.0
  0
LINE
  5
17826
330
18
100
AcDbEntity
  8
1
 62
     7
 48
0.5
100
AcDbLine
 10
-943.109398017806
 20
-667.4932898551449
 30
0.0
 11
-929.6093980178063
 21
-667.4932898551451
 31
0.0
  0
LINE
  5
17827
330
18
100
AcDbEntity
  8
1
 62
     7
 48
0.5
100
AcDbLine
 10
-943.109398017806
 20
-673.0694028122233
 30
0.0
 11
-929.6093980178063
 21
-673.0694028122233
 31
0.0
  0
LINE
  5
17828
330
18
100
AcDbEntity
  8
1
 62
     7
 48
0.5
100
AcDbLine
 10
-943.109398017806
 20
-674.0775578713984
 30
0.0
 11
-929.6093980178063
 21
-674.0775578713984
 31
0.0
  0
LINE
  5
17829
330
18
100
AcDbEntity
  8
1
 62
     7
 48
0.5
100
AcDbLine
 10
-943.109398017806
 20
-522.2528820971144
 30
0.0
 11
-944.1045548303437
 21
-535.0028820971139
 31
0.0
  0
LINE
  5
1782A
330
18
100
AcDbEntity
  8
1
 62
     7
 48
0.5
100
AcDbLine
 10
-943.109398017806
 20
-676.7528820971136
 30
0.0
 11
-944.1045548303437
 21
-664.002882097114
 31
0.0
  0
LINE
  5
1782B
330
18
100
AcDbEntity
  8
1
 62
     7
 48
0.5
100
AcDbLine
 10
-926.1093980178063
 20
-555.0028820971148
 30
0.0
 11
-926.1093980178058
 21
-644.0028820971132
 31
0.0
  0
LINE
  5
1782D
330
18
100
AcDbEntity
  8
1
 62
     7
 48
0.5
100
AcDbLine
 10
-797.0296844453245
 20
-644.0028820971137
 30
0.0
 11
-810.0296844453247
 21
-644.0028820971137
 31
0.0
  0
LINE
  5
1782E
330
18
100
AcDbEntity
  8
1
 62
     7
 48
0.5
100
AcDbLine
 10
-797.0296844453245
 20
-644.0028820971137
 30
0.0
 11
-797.0296844453245
 21
-641.002882097114
 31
0.0
  0
LINE
  5
1782F
330
18
100
AcDbEntity
  8
1
 62
     7
 48
0.5
100
AcDbLine
 10
-797.0296844453245
 20
-630.0028820971133
 30
0.0
 11
-797.0296844453245
 21
-626.5398937508336
 31
0.0
  0
LINE
  5
17830
330
18
100
AcDbEntity
  8
1
 62
     7
 48
0.5
100
AcDbLine
 10
-803.0296844453243
 20
-641.0028820971136
 30
0.0
 11
-803.0296844453243
 21
-630.0028820971133
 31
0.0
  0
LINE
  5
17831
330
18
100
AcDbEntity
  8
1
 62
     7
 48
0.5
100
AcDbLine
 10
-823.0296844453246
 20
-637.9028820971133
 30
0.0
 11
-823.0296844453244
 21
-633.1028820971132
 31
0.0
  0
LINE
  5
17832
330
18
100
AcDbEntity
  8
1
 62
     7
 48
0.5
100
AcDbLine
 10
-797.0296844453245
 20
-641.0028820971136
 30
0.0
 11
-803.0296844453243
 21
-641.0028820971136
 31
0.0
  0
LINE
  5
17833
330
18
100
AcDbEntity
  8
3
  6
CENTER2
 48
0.5
100
AcDbLine
 10
-793.0296844453245
 20
-635.5028820971133
 30
0.0
 11
-827.0296844453245
 21
-635.5028820971133
 31
0.0
  0
LINE
  5
17834
330
18
100
AcDbEntity
  8
1
 62
     7
 48
0.5
100
AcDbLine
 10
-797.0296844453245
 20
-630.0028820971133
 30
0.0
 11
-803.0296844453243
 21
-630.0028820971133
 31
0.0
  0
LINE
  5
17836
330
18
100
AcDbEntity
  8
1
 62
     7
 48
0.5
100
AcDbLine
 10
-820.0296844453244
 20
-639.0028820971133
 30
0.0
 11
-823.0296844453246
 21
-639.0028820971133
 31
0.0
  0
LINE
  5
17837
330
18
100
AcDbEntity
  8
1
 62
     7
 48
0.5
100
AcDbLine
 10
-820.0296844453244
 20
-632.0028820971137
 30
0.0
 11
-823.0296844453246
 21
-632.0028820971137
 31
0.0
  0
LINE
  5
17838
330
18
100
AcDbEntity
  8
1
 62
     7
 48
0.5
100
AcDbLine
 10
-823.0296844453246
 20
-644.0028820971137
 30
0.0
 11
-810.0296844453247
 21
-644.0028820971137
 31
0.0
  0
LINE
  5
17839
330
18
100
AcDbEntity
  8
1
 62
     7
 48
0.5
100
AcDbLine
 10
-823.0296844453246
 20
-644.0028820971137
 30
0.0
 11
-823.0296844453246
 21
-639.0028820971133
 31
0.0
  0
LINE
  5
1783A
330
18
100
AcDbEntity
  8
1
 62
     7
 48
0.5
100
AcDbLine
 10
-823.0296844453246
 20
-632.0028820971131
 30
0.0
 11
-823.0296844453246
 21
-626.5398937508335
 31
0.0
  0
LINE
  5
1783B
330
18
100
AcDbEntity
  8
1
 62
     7
 48
0.5
100
AcDbLine
 10
-820.0296844453244
 20
-640.5028820971137
 30
0.0
 11
-815.0296844453245
 21
-640.5028820971137
 31
0.0
  0
LINE
  5
1783C
330
18
100
AcDbEntity
  8
1
 62
     7
 48
0.5
100
AcDbLine
 10
-815.0296844453245
 20
-640.5028820971137
 30
0.0
 11
-815.0296844453245
 21
-630.5028820971133
 31
0.0
  0
LINE
  5
1783D
330
18
100
AcDbEntity
  8
1
 62
     7
 48
0.5
100
AcDbLine
 10
-815.0296844453245
 20
-630.5028820971133
 30
0.0
 11
-820.0296844453244
 21
-630.5028820971133
 31
0.0
  0
LINE
  5
1783E
330
18
100
AcDbEntity
  8
1
 62
     7
 48
0.5
100
AcDbLine
 10
-820.0296844453244
 20
-630.5028820971133
 30
0.0
 11
-820.0296844453244
 21
-640.5028820971137
 31
0.0
  0
ARC
  5
1783F
330
18
100
AcDbEntity
  8
1
 62
     7
 48
0.5
100
AcDbCircle
 10
-811.0296844453245
 20
-635.5028820971137
 30
0.0
 40
12.4999999999999
100
AcDbArc
 50
163.7397952916896
 51
196.2602047083103
  0
LINE
  5
17840
330
18
100
AcDbEntity
  8
1
 62
     7
 48
0.5
100
AcDbLine
 10
-803.0296844453243
 20
-640.5028820971137
 30
0.0
 11
-797.5296844453245
 21
-640.5028820971137
 31
0.0
  0
ARC
  5
17841
330
18
100
AcDbEntity
  8
1
 62
     7
 48
0.5
100
AcDbCircle
 10
-797.5296844453245
 20
-640.0028820971137
 30
0.0
 40
0.5
100
AcDbArc
 50
270.0
 51
0.0
  0
LINE
  5
17842
330
18
100
AcDbEntity
  8
1
 62
     7
 48
0.5
100
AcDbLine
 10
-797.0296844453245
 20
-640.0028820971137
 30
0.0
 11
-797.0296844453245
 21
-631.0028820971133
 31
0.0
  0
LINE
  5
17843
330
18
100
AcDbEntity
  8
1
 62
     7
 48
0.5
100
AcDbLine
 10
-797.5296844453245
 20
-630.5028820971133
 30
0.0
 11
-803.0296844453243
 21
-630.5028820971133
 31
0.0
  0
ARC
  5
17844
330
18
100
AcDbEntity
  8
1
 62
     7
 48
0.5
100
AcDbCircle
 10
-797.5296844453245
 20
-631.0028820971133
 30
0.0
 40
0.5
100
AcDbArc
 50
0.0
 51
90.0
  0
LINE
  5
17845
330
18
100
AcDbEntity
  8
1
 62
     7
 48
0.5
100
AcDbLine
 10
-822.6832742838109
 20
-632.5028820971136
 30
0.0
 11
-820.0296844453244
 21
-632.5028820971136
 31
0.0
  0
LINE
  5
17846
330
18
100
AcDbEntity
  8
1
 48
0.5
100
AcDbLine
 10
-823.0296844453246
 20
-633.1028820971132
 30
0.0
 11
-820.0296844453244
 21
-633.1028820971132
 31
0.0
  0
LINE
  5
17847
330
18
100
AcDbEntity
  8
1
 62
     7
 48
0.5
100
AcDbLine
 10
-823.0296844453246
 20
-633.1028820971132
 30
0.0
 11
-822.6832742838109
 21
-632.5028820971136
 31
0.0
  0
LINE
  5
17848
330
18
100
AcDbEntity
  8
1
 62
     7
 48
0.5
100
AcDbLine
 10
-822.6832742838109
 20
-632.5028820971136
 30
0.0
 11
-822.6832742838109
 21
-638.5028820971131
 31
0.0
  0
LINE
  5
17849
330
18
100
AcDbEntity
  8
1
 62
     7
 48
0.5
100
AcDbLine
 10
-822.6832742838109
 20
-638.5028820971132
 30
0.0
 11
-820.0296844453244
 21
-638.5028820971131
 31
0.0
  0
LINE
  5
1784A
330
18
100
AcDbEntity
  8
1
 48
0.5
100
AcDbLine
 10
-823.0296844453246
 20
-637.9028820971133
 30
0.0
 11
-820.0296844453244
 21
-637.9028820971133
 31
0.0
  0
LINE
  5
1784B
330
18
100
AcDbEntity
  8
1
 62
     7
 48
0.5
100
AcDbLine
 10
-823.0296844453246
 20
-637.9028820971133
 30
0.0
 11
-822.6832742838109
 21
-638.5028820971132
 31
0.0
  0
ARC
  5
1784C
330
18
100
AcDbEntity
  8
1
 62
     7
 48
0.5
100
AcDbCircle
 10
-810.0296844453247
 20
-599.5028820971143
 30
0.0
 40
70.0
100
AcDbArc
 50
68.33374413431172
 51
75.66625586568966
1001
GENIUS_GENODEF_13
1002
{
1000
HIER
1070
     0
1002
}
1002
{
1000
MANEDIT
1070
     0
1002
}
1002
{
1000
NOSEL
1070
     0
1002
}
1002
{
1000
BEHIND
1070
     0
1002
}
1002
{
1000
OTHER
1070
     0
1002
}
1002
{
1000
REACTOR
1002
}
1001
GENIUS_GENOBJ-N-FIL_13
1002
{
1000
OWNER
1000
GEN
1002
}
  0
LINE
  5
1784D
330
18
100
AcDbEntity
  8
1
 62
     7
 48
0.5
100
AcDbLine
 10
-778.4069078436369
 20
-584.5028820971174
 30
0.0
 11
-784.0489223275168
 21
-584.5028820971174
 31
0.0
  0
LINE
  5
1784E
330
18
100
AcDbEntity
  8
1
 62
     7
 48
0.5
100
AcDbLine
 10
-778.4069078436369
 20
-614.5028820971178
 30
0.0
 11
-784.0489223433615
 21
-614.5028820971178
 31
0.0
  0
ARC
  5
1784F
330
18
100
AcDbEntity
  8
1
 62
     7
 48
0.5
100
AcDbCircle
 10
-810.0296844453207
 20
-599.5028820971174
 30
0.0
 40
35.0
100
AcDbArc
 50
334.6230664748537
 51
25.37693352514633
1001
GENIUS_GENOBJ-N-FIL_13
1002
{
1000
OWNER
1000
GEN
1002
}
1001
GENIUS_GENODEF_13
1002
{
1000
HIER
1070
     0
1002
}
1002
{
1000
MANEDIT
1070
     0
1002
}
1002
{
1000
NOSEL
1070
     0
1002
}
1002
{
1000
BEHIND
1070
     0
1002
}
1002
{
1000
OTHER
1070
     0
1002
}
1002
{
1000
REACTOR
1002
}
  0
ARC
  5
17850
330
18
100
AcDbEntity
  8
1
 62
     7
 48
0.5
100
AcDbCircle
 10
-810.0296844476471
 20
-599.5028820917632
 30
0.0
 40
64.50000000113971
100
AcDbArc
 50
87.33411823520407
 51
272.665881764796
  0
ARC
  5
17851
330
18
100
AcDbEntity
  8
1
 62
     7
 48
0.5
100
AcDbCircle
 10
-810.0296844471026
 20
-599.50288209334
 30
0.0
 40
57.49999999956253
100
AcDbArc
 50
87.00929709385087
 51
272.9907029061491
  0
LINE
  5
17852
330
18
100
AcDbEntity
  8
1
 62
     7
 48
0.5
100
AcDbLine
 10
-749.538541026558
 20
-639.0028820950556
 30
0.0
 11
-759.0394893106097
 21
-639.0028820950556
 31
0.0
  0
LINE
  5
17853
330
18
100
AcDbEntity
  8
1
 62
     7
 48
0.5
100
AcDbLine
 10
-748.0314034372047
 20
-632.0028820950556
 30
0.0
 11
-754.3161313377054
 21
-632.0028820950556
 31
0.0
  0
ARC
  5
17854
330
18
100
AcDbEntity
  8
1
 62
     7
 48
0.5
100
AcDbCircle
 10
-758.8866422703062
 20
-636.5505389843597
 30
0.0
 40
2.45710173788262
100
AcDbArc
 50
140.8191647683331
 51
266.4335427944105
  0
ARC
  5
17855
330
18
100
AcDbEntity
  8
1
 62
     7
 48
0.5
100
AcDbCircle
 10
-753.8850651432291
 20
-641.4312135841396
 30
0.0
 40
9.438180583781758
100
AcDbArc
 50
92.6177575427412
 51
137.0317478310225
  0
LINE
  5
17856
330
18
100
AcDbEntity
  8
1
 62
     7
 48
0.5
100
AcDbLine
 10
-749.538541026558
 20
-560.0028820950568
 30
0.0
 11
-759.0394893088436
 21
-560.0028820950568
 31
0.0
  0
LINE
  5
17857
330
18
100
AcDbEntity
  8
1
 62
     7
 48
0.5
100
AcDbLine
 10
-748.0314034372047
 20
-567.002882095057
 30
0.0
 11
-754.3161313363757
 21
-567.002882095057
 31
0.0
  0
ARC
  5
17858
330
18
100
AcDbEntity
  8
1
 62
     7
 48
0.5
100
AcDbCircle
 10
-758.886642270413
 20
-562.4552252057736
 30
0.0
 40
2.457101737787093
100
AcDbArc
 50
93.56645716197995
 51
219.1808352328747
  0
ARC
  5
17859
330
18
100
AcDbEntity
  8
1
 62
     7
 48
0.5
100
AcDbCircle
 10
-753.8850651434612
 20
-557.574550606284
 30
0.0
 40
9.438180583399695
100
AcDbArc
 50
222.9682521685679
 51
267.3822424666485
  0
ARC
  5
1785A
330
18
100
AcDbEntity
  8
1
 62
     7
 48
0.5
100
AcDbCircle
 10
-810.0296844470969
 20
-599.5028820939166
 30
0.0
 40
64.50000000113971
100
AcDbArc
 50
272.6658817643199
 51
322.236533636107
  0
ARC
  5
1785B
330
18
100
AcDbEntity
  8
1
 62
     7
 48
0.5
100
AcDbCircle
 10
-810.0296844470969
 20
-599.5028820939166
 30
0.0
 40
64.50000000113971
100
AcDbArc
 50
37.76346636132483
 51
87.33411823568008
  0
ARC
  5
1785C
330
18
100
AcDbEntity
  8
1
 62
     7
 48
0.5
100
AcDbCircle
 10
-810.0296844470969
 20
-599.5028820939166
 30
0.0
 40
64.50000000113971
100
AcDbArc
 50
329.7432349275164
 51
30.25676507014575
  0
ARC
  5
1785D
330
18
100
AcDbEntity
  8
1
 62
     7
 48
0.5
100
AcDbCircle
 10
-810.0296844476414
 20
-599.5028820954934
 30
0.0
 40
57.49999999956253
100
AcDbArc
 50
272.9907029066905
 51
87.00929709330955
  0
LINE
  5
17860
330
18
100
AcDbEntity
  8
1
 62
     7
 48
0.5
100
AcDbLine
 10
-781.2296844453245
 20
-605.5028820971142
 30
0.0
 11
-781.2296844453245
 21
-593.5028820971142
 31
0.0
  0
LINE
  5
17861
330
18
100
AcDbEntity
  8
1
 62
     7
 48
0.5
100
AcDbLine
 10
-781.2296844453245
 20
-592.5028820971142
 30
0.0
 11
-786.0296844453244
 21
-592.5028820971142
 31
0.0
  0
ARC
  5
17862
330
18
100
AcDbEntity
  8
1
 62
     7
 48
0.5
100
AcDbCircle
 10
-781.2296844453245
 20
-593.0028820971142
 30
0.0
 40
0.5
100
AcDbArc
 50
270.0
 51
90.0
  0
LINE
  5
17864
330
18
100
AcDbEntity
  8
1
 62
     7
 48
0.5
100
AcDbLine
 10
-807.0296844453245
 20
-653.0028820971142
 30
0.0
 11
-810.0296844453247
 21
-652.0028820971142
 31
0.0
  0
LINE
  5
17865
330
18
100
AcDbEntity
  8
1
 62
     7
 48
0.5
100
AcDbLine
 10
-807.0296844453189
 20
-652.5028820971279
 30
0.0
 11
-810.029684445319
 21
-651.5028820971279
 31
0.0
  0
LINE
  5
17866
330
18
100
AcDbEntity
  8
1
 62
     7
 48
0.5
100
AcDbLine
 10
-807.0296844453245
 20
-546.002882097115
 30
0.0
 11
-810.0296844453247
 21
-547.002882097115
 31
0.0
  0
LINE
  5
17867
330
18
100
AcDbEntity
  8
1
 62
     7
 48
0.5
100
AcDbLine
 10
-807.0296844453189
 20
-546.5028820971014
 30
0.0
 11
-810.029684445319
 21
-547.5028820971015
 31
0.0
  0
LINE
  5
17868
330
18
100
AcDbEntity
  8
1
 62
     7
 48
0.5
100
AcDbLine
 10
-793.8246140015027
 20
-523.9717084539706
 30
0.0
 11
-792.6998076831372
 21
-531.6819755018218
 31
0.0
  0
LINE
  5
17869
330
18
100
AcDbEntity
  8
1
 62
     7
 48
0.5
100
AcDbLine
 10
-797.291898385022
 20
-523.3102885838214
 30
0.0
 11
-801.1760554590866
 21
-530.0650447620268
 31
0.0
  0
ARC
  5
1786A
330
18
100
AcDbEntity
  8
1
 62
     7
 48
0.5
100
AcDbCircle
 10
-810.0296844453247
 20
-599.5028820971147
 30
0.0
 40
77.25
100
AcDbArc
 50
77.89086964348062
 51
80.50913035652131
1001
GENIUS_GENOBJ-N-FIL_13
1002
{
1000
OWNER
1000
GEN
1002
}
1001
GENIUS_GENODEF_13
1002
{
1000
HIER
1070
     0
1002
}
1002
{
1000
MANEDIT
1070
     0
1002
}
1002
{
1000
NOSEL
1070
     0
1002
}
1002
{
1000
BEHIND
1070
     0
1002
}
1002
{
1000
OTHER
1070
     0
1002
}
1002
{
1000
REACTOR
1002
}
  0
ARC
  5
1786B
330
18
100
AcDbEntity
  8
1
 62
     7
 48
0.5
100
AcDbCircle
 10
-810.0296844416771
 20
-599.5028820833957
 30
0.0
 40
30.0
100
AcDbArc
 50
115.6792886271869
 51
244.3207113728131
  0
ARC
  5
1786C
330
18
100
AcDbEntity
  8
1
 62
     7
 48
0.5
100
AcDbCircle
 10
-810.029684448972
 20
-599.5028820833957
 30
0.0
 40
30.0
100
AcDbArc
 50
295.679288627187
 51
329.9999999697335
1001
GENIUS_GENOBJ-N-FIL_13
1002
{
1000
OWNER
1000
GEN
1002
}
1001
GENIUS_GENODEF_13
1002
{
1000
HIER
1070
     0
1002
}
1002
{
1000
MANEDIT
1070
     0
1002
}
1002
{
1000
NOSEL
1070
     0
1002
}
1002
{
1000
BEHIND
1070
     0
1002
}
1002
{
1000
OTHER
1070
     0
1002
}
1002
{
1000
REACTOR
1002
}
  0
ARC
  5
1786D
330
18
100
AcDbEntity
  8
1
 62
     7
 48
0.5
100
AcDbCircle
 10
-810.029684448972
 20
-599.5028820833957
 30
0.0
 40
30.0
100
AcDbArc
 50
29.99999996973521
 51
64.32071137281302
  0
ARC
  5
1786E
330
18
100
AcDbEntity
  8
1
 62
     7
 48
0.5
100
AcDbCircle
 10
-810.0296844417984
 20
-599.5028820975906
 30
0.0
 40
69.99999999999999
100
AcDbArc
 50
82.73374413431215
 51
90.06625586569155
1001
GENIUS_GENODEF_13
1002
{
1000
HIER
1070
     0
1002
}
1002
{
1000
MANEDIT
1070
     0
1002
}
1002
{
1000
NOSEL
1070
     0
1002
}
1002
{
1000
BEHIND
1070
     0
1002
}
1002
{
1000
OTHER
1070
     0
1002
}
1002
{
1000
REACTOR
1002
}
1001
GENIUS_GENOBJ-N-FIL_13
1002
{
1000
OWNER
1000
GEN
1002
}
  0
LINE
  5
1786F
330
18
100
AcDbEntity
  8
1
 62
     7
 48
0.5
100
AcDbLine
 10
-813.1175651357516
 20
-522.3146220263861
 30
0.0
 11
-810.1106312341107
 21
-529.5029289003434
 31
0.0
  0
LINE
  5
17870
330
18
100
AcDbEntity
  8
1
 62
     7
 48
0.5
100
AcDbLine
 10
-816.6404068373486
 20
-522.5362604398299
 30
0.0
 11
-818.7226964226825
 21
-530.0447541160488
 31
0.0
  0
ARC
  5
17871
330
18
100
AcDbEntity
  8
1
 62
     7
 48
0.5
100
AcDbCircle
 10
-810.0296844417984
 20
-599.502882097591
 30
0.0
 40
77.24999999999998
100
AcDbArc
 50
92.29086964347995
 51
94.90913035651891
1001
GENIUS_GENOBJ-N-FIL_13
1002
{
1000
OWNER
1000
GEN
1002
}
1001
GENIUS_GENODEF_13
1002
{
1000
HIER
1070
     0
1002
}
1002
{
1000
MANEDIT
1070
     0
1002
}
1002
{
1000
NOSEL
1070
     0
1002
}
1002
{
1000
BEHIND
1070
     0
1002
}
1002
{
1000
OTHER
1070
     0
1002
}
1002
{
1000
REACTOR
1002
}
  0
ARC
  5
17872
330
18
100
AcDbEntity
  8
1
 62
     7
 48
0.5
100
AcDbCircle
 10
-810.0296844382647
 20
-599.5028820971747
 30
0.0
 40
69.99999999999999
100
AcDbArc
 50
97.13374413431026
 51
104.4662558656917
1001
GENIUS_GENODEF_13
1002
{
1000
HIER
1070
     0
1002
}
1002
{
1000
MANEDIT
1070
     0
1002
}
1002
{
1000
NOSEL
1070
     0
1002
}
1002
{
1000
BEHIND
1070
     0
1002
}
1002
{
1000
OTHER
1070
     0
1002
}
1002
{
1000
REACTOR
1002
}
1001
GENIUS_GENOBJ-N-FIL_13
1002
{
1000
OWNER
1000
GEN
1002
}
  0
LINE
  5
17873
330
18
100
AcDbEntity
  8
1
 62
     7
 48
0.5
100
AcDbLine
 10
-832.2164933695614
 20
-525.5075578567469
 30
0.0
 11
-827.5163686004145
 21
-531.7222367991753
 31
0.0
  0
LINE
  5
17874
330
18
100
AcDbEntity
  8
1
 62
     7
 48
0.5
100
AcDbLine
 10
-835.5735392890192
 20
-526.598328197137
 30
0.0
 11
-835.7231234728496
 21
-534.3887730993848
 31
0.0
  0
ARC
  5
17875
330
18
100
AcDbEntity
  8
1
 62
     7
 48
0.5
100
AcDbCircle
 10
-810.0296844382647
 20
-599.5028820971754
 30
0.0
 40
77.24999999999998
100
AcDbArc
 50
106.6908696434808
 51
109.3091303565217
1001
GENIUS_GENOBJ-N-FIL_13
1002
{
1000
OWNER
1000
GEN
1002
}
1001
GENIUS_GENODEF_13
1002
{
1000
HIER
1070
     0
1002
}
1002
{
1000
MANEDIT
1070
     0
1002
}
1002
{
1000
NOSEL
1070
     0
1002
}
1002
{
1000
BEHIND
1070
     0
1002
}
1002
{
1000
OTHER
1070
     0
1002
}
1002
{
1000
REACTOR
1002
}
  0
ARC
  5
17876
330
18
100
AcDbEntity
  8
1
 62
     7
 48
0.5
100
AcDbCircle
 10
-810.029684434945
 20
-599.5028820958932
 30
0.0
 40
70.0
100
AcDbArc
 50
111.5337441343132
 51
118.8662558656911
1001
GENIUS_GENODEF_13
1002
{
1000
HIER
1070
     0
1002
}
1002
{
1000
MANEDIT
1070
     0
1002
}
1002
{
1000
NOSEL
1070
     0
1002
}
1002
{
1000
BEHIND
1070
     0
1002
}
1002
{
1000
OTHER
1070
     0
1002
}
1002
{
1000
REACTOR
1002
}
1001
GENIUS_GENOBJ-N-FIL_13
1002
{
1000
OWNER
1000
GEN
1002
}
  0
LINE
  5
17877
330
18
100
AcDbEntity
  8
1
 62
     7
 48
0.5
100
AcDbLine
 10
-849.9213428010561
 20
-533.3498920440336
 30
0.0
 11
-843.8233532894983
 21
-538.2004519209909
 31
0.0
  0
LINE
  5
17878
330
18
100
AcDbEntity
  8
1
 62
     7
 48
0.5
100
AcDbLine
 10
-852.9016573969043
 20
-535.2412571993116
 30
0.0
 11
-851.1091372548298
 21
-542.8241510231278
 31
0.0
  0
ARC
  5
17879
330
18
100
AcDbEntity
  8
1
 62
     7
 48
0.5
100
AcDbCircle
 10
-810.029684434945
 20
-599.5028820958935
 30
0.0
 40
77.25
100
AcDbArc
 50
121.0908696434777
 51
123.70913035652
1001
GENIUS_GENOBJ-N-FIL_13
1002
{
1000
OWNER
1000
GEN
1002
}
1001
GENIUS_GENODEF_13
1002
{
1000
HIER
1070
     0
1002
}
1002
{
1000
MANEDIT
1070
     0
1002
}
1002
{
1000
NOSEL
1070
     0
1002
}
1002
{
1000
BEHIND
1070
     0
1002
}
1002
{
1000
OTHER
1070
     0
1002
}
1002
{
1000
REACTOR
1002
}
  0
ARC
  5
1787A
330
18
100
AcDbEntity
  8
1
 62
     7
 48
0.5
100
AcDbCircle
 10
-810.0296844320489
 20
-599.5028820938261
 30
0.0
 40
70.0
100
AcDbArc
 50
125.9337441343145
 51
133.2662558656882
1001
GENIUS_GENODEF_13
1002
{
1000
HIER
1070
     0
1002
}
1002
{
1000
MANEDIT
1070
     0
1002
}
1002
{
1000
NOSEL
1070
     0
1002
}
1002
{
1000
BEHIND
1070
     0
1002
}
1002
{
1000
OTHER
1070
     0
1002
}
1002
{
1000
REACTOR
1002
}
1001
GENIUS_GENOBJ-N-FIL_13
1002
{
1000
OWNER
1000
GEN
1002
}
  0
LINE
  5
1787B
330
18
100
AcDbEntity
  8
1
 62
     7
 48
0.5
100
AcDbLine
 10
-865.1196526265746
 20
-545.3488618891725
 30
0.0
 11
-858.0069574804539
 21
-548.5305241844778
 31
0.0
  0
LINE
  5
1787C
330
18
100
AcDbEntity
  8
1
 62
     7
 48
0.5
100
AcDbLine
 10
-867.5359717719253
 20
-547.9219804306771
 30
0.0
 11
-863.9139779369001
 21
-554.8208620691788
 31
0.0
  0
ARC
  5
1787D
330
18
100
AcDbEntity
  8
1
 62
     7
 48
0.5
100
AcDbCircle
 10
-810.0296844320482
 20
-599.5028820938268
 30
0.0
 40
77.25
100
AcDbArc
 50
135.4908696434722
 51
138.1091303565222
1001
GENIUS_GENOBJ-N-FIL_13
1002
{
1000
OWNER
1000
GEN
1002
}
1001
GENIUS_GENODEF_13
1002
{
1000
HIER
1070
     0
1002
}
1002
{
1000
MANEDIT
1070
     0
1002
}
1002
{
1000
NOSEL
1070
     0
1002
}
1002
{
1000
BEHIND
1070
     0
1002
}
1002
{
1000
OTHER
1070
     0
1002
}
1002
{
1000
REACTOR
1002
}
  0
ARC
  5
1787E
330
18
100
AcDbEntity
  8
1
 62
     7
 48
0.5
100
AcDbCircle
 10
-810.0296844297572
 20
-599.5028820911043
 30
0.0
 40
70.0
100
AcDbArc
 50
140.3337441343079
 51
147.6662558656874
1001
GENIUS_GENODEF_13
1002
{
1000
HIER
1070
     0
1002
}
1002
{
1000
MANEDIT
1070
     0
1002
}
1002
{
1000
NOSEL
1070
     0
1002
}
1002
{
1000
BEHIND
1070
     0
1002
}
1002
{
1000
OTHER
1070
     0
1002
}
1002
{
1000
REACTOR
1002
}
1001
GENIUS_GENOBJ-N-FIL_13
1002
{
1000
OWNER
1000
GEN
1002
}
  0
LINE
  5
1787F
330
18
100
AcDbEntity
  8
1
 62
     7
 48
0.5
100
AcDbLine
 10
-876.8564571443054
 20
-560.7505279876691
 30
0.0
 11
-869.1759731583156
 21
-562.063377157973
 31
0.0
  0
LINE
  5
17880
330
18
100
AcDbEntity
  8
1
 62
     7
 48
0.5
100
AcDbLine
 10
-878.5569546206563
 20
-563.8437214141697
 30
0.0
 11
-873.3330702860966
 21
-569.6251087616977
 31
0.0
  0
ARC
  5
17881
330
18
100
AcDbEntity
  8
1
 62
     7
 48
0.5
100
AcDbCircle
 10
-810.0296844297568
 20
-599.5028820911048
 30
0.0
 40
77.25
100
AcDbArc
 50
149.8908696434746
 51
152.5091303565173
1001
GENIUS_GENOBJ-N-FIL_13
1002
{
1000
OWNER
1000
GEN
1002
}
1001
GENIUS_GENODEF_13
1002
{
1000
HIER
1070
     0
1002
}
1002
{
1000
MANEDIT
1070
     0
1002
}
1002
{
1000
NOSEL
1070
     0
1002
}
1002
{
1000
BEHIND
1070
     0
1002
}
1002
{
1000
OTHER
1070
     0
1002
}
1002
{
1000
REACTOR
1002
}
  0
ARC
  5
17882
330
18
100
AcDbEntity
  8
1
 62
     7
 48
0.5
100
AcDbCircle
 10
-810.0296844282144
 20
-599.5028820878975
 30
0.0
 40
70.0
100
AcDbArc
 50
154.733744134307
 51
162.0662558656889
1001
GENIUS_GENODEF_13
1002
{
1000
HIER
1070
     0
1002
}
1002
{
1000
MANEDIT
1070
     0
1002
}
1002
{
1000
NOSEL
1070
     0
1002
}
1002
{
1000
BEHIND
1070
     0
1002
}
1002
{
1000
OTHER
1070
     0
1002
}
1002
{
1000
REACTOR
1002
}
1001
GENIUS_GENOBJ-N-FIL_13
1002
{
1000
OWNER
1000
GEN
1002
}
  0
LINE
  5
17883
330
18
100
AcDbEntity
  8
1
 62
     7
 48
0.5
100
AcDbLine
 10
-884.3942897614523
 20
-578.587147015189
 30
0.0
 11
-876.6286099912765
 21
-577.9486919187993
 31
0.0
  0
LINE
  5
17884
330
18
100
AcDbEntity
  8
1
 62
     7
 48
0.5
100
AcDbLine
 10
-885.2721170583716
 20
-582.0060586077293
 30
0.0
 11
-878.7745780891206
 21
-586.3066858347829
 31
0.0
  0
ARC
  5
17885
330
18
100
AcDbEntity
  8
1
 62
     7
 48
0.5
100
AcDbCircle
 10
-810.0296844282143
 20
-599.5028820878981
 30
0.0
 40
77.25
100
AcDbArc
 50
164.2908696434813
 51
166.9091303565169
1001
GENIUS_GENOBJ-N-FIL_13
1002
{
1000
OWNER
1000
GEN
1002
}
1001
GENIUS_GENODEF_13
1002
{
1000
HIER
1070
     0
1002
}
1002
{
1000
MANEDIT
1070
     0
1002
}
1002
{
1000
NOSEL
1070
     0
1002
}
1002
{
1000
BEHIND
1070
     0
1002
}
1002
{
1000
OTHER
1070
     0
1002
}
1002
{
1000
REACTOR
1002
}
  0
ARC
  5
17886
330
18
100
AcDbEntity
  8
1
 62
     7
 48
0.5
100
AcDbCircle
 10
-810.0296844275181
 20
-599.5028820844086
 30
0.0
 40
69.99999999999999
100
AcDbArc
 50
169.133744134307
 51
176.4662558656888
1001
GENIUS_GENODEF_13
1002
{
1000
HIER
1070
     0
1002
}
1002
{
1000
MANEDIT
1070
     0
1002
}
1002
{
1000
NOSEL
1070
     0
1002
}
1002
{
1000
BEHIND
1070
     0
1002
}
1002
{
1000
OTHER
1070
     0
1002
}
1002
{
1000
REACTOR
1002
}
1001
GENIUS_GENOBJ-N-FIL_13
1002
{
1000
OWNER
1000
GEN
1002
}
  0
LINE
  5
17887
330
18
100
AcDbEntity
  8
1
 62
     7
 48
0.5
100
AcDbLine
 10
-887.2595207324703
 20
-597.7379785997368
 30
0.0
 11
-879.8965913982423
 21
-595.188335718434
 31
0.0
  0
LINE
  5
17888
330
18
100
AcDbEntity
  8
1
 62
     7
 48
0.5
100
AcDbLine
 10
-887.2595207324703
 20
-601.2677855690799
 30
0.0
 11
-879.8965913982423
 21
-603.8174284503834
 31
0.0
  0
ARC
  5
17889
330
18
100
AcDbEntity
  8
1
 62
     7
 48
0.5
100
AcDbCircle
 10
-810.0296844275177
 20
-599.5028820844086
 30
0.0
 40
77.24999999999998
100
AcDbArc
 50
178.6908696434806
 51
181.3091303565194
1001
GENIUS_GENOBJ-N-FIL_13
1002
{
1000
OWNER
1000
GEN
1002
}
1001
GENIUS_GENODEF_13
1002
{
1000
HIER
1070
     0
1002
}
1002
{
1000
MANEDIT
1070
     0
1002
}
1002
{
1000
NOSEL
1070
     0
1002
}
1002
{
1000
BEHIND
1070
     0
1002
}
1002
{
1000
OTHER
1070
     0
1002
}
1002
{
1000
REACTOR
1002
}
  0
ARC
  5
1788A
330
18
100
AcDbEntity
  8
1
 62
     7
 48
0.5
100
AcDbCircle
 10
-810.0296844277107
 20
-599.5028820808554
 30
0.0
 40
70.0
100
AcDbArc
 50
183.5337441343112
 51
190.8662558656864
1001
GENIUS_GENODEF_13
1002
{
1000
HIER
1070
     0
1002
}
1002
{
1000
MANEDIT
1070
     0
1002
}
1002
{
1000
NOSEL
1070
     0
1002
}
1002
{
1000
BEHIND
1070
     0
1002
}
1002
{
1000
OTHER
1070
     0
1002
}
1002
{
1000
REACTOR
1002
}
1001
GENIUS_GENOBJ-N-FIL_13
1002
{
1000
OWNER
1000
GEN
1002
}
  0
LINE
  5
1788B
330
18
100
AcDbEntity
  8
1
 62
     7
 48
0.5
100
AcDbLine
 10
-885.2721170578682
 20
-616.999705561024
 30
0.0
 11
-878.7745780886167
 21
-612.6990783339707
 31
0.0
  0
LINE
  5
1788C
330
18
100
AcDbEntity
  8
1
 62
     7
 48
0.5
100
AcDbLine
 10
-884.3942897609482
 20
-620.4186171535646
 30
0.0
 11
-876.6286099907732
 21
-621.0570722499542
 31
0.0
  0
ARC
  5
1788D
330
18
100
AcDbEntity
  8
1
 62
     7
 48
0.5
100
AcDbCircle
 10
-810.0296844277105
 20
-599.5028820808554
 30
0.0
 40
77.25
100
AcDbArc
 50
193.0908696434761
 51
195.7091303565185
1001
GENIUS_GENOBJ-N-FIL_13
1002
{
1000
OWNER
1000
GEN
1002
}
1001
GENIUS_GENODEF_13
1002
{
1000
HIER
1070
     0
1002
}
1002
{
1000
MANEDIT
1070
     0
1002
}
1002
{
1000
NOSEL
1070
     0
1002
}
1002
{
1000
BEHIND
1070
     0
1002
}
1002
{
1000
OTHER
1070
     0
1002
}
1002
{
1000
REACTOR
1002
}
  0
ARC
  5
1788E
330
18
100
AcDbEntity
  8
1
 62
     7
 48
0.5
100
AcDbCircle
 10
-810.0296844287807
 20
-599.5028820774621
 30
0.0
 40
70.0
100
AcDbArc
 50
197.9337441343111
 51
205.266255865693
1001
GENIUS_GENODEF_13
1002
{
1000
HIER
1070
     0
1002
}
1002
{
1000
MANEDIT
1070
     0
1002
}
1002
{
1000
NOSEL
1070
     0
1002
}
1002
{
1000
BEHIND
1070
     0
1002
}
1002
{
1000
OTHER
1070
     0
1002
}
1002
{
1000
REACTOR
1002
}
1001
GENIUS_GENOBJ-N-FIL_13
1002
{
1000
OWNER
1000
GEN
1002
}
  0
LINE
  5
1788F
330
18
100
AcDbEntity
  8
1
 62
     7
 48
0.5
100
AcDbLine
 10
-878.5569546196802
 20
-635.1620427543966
 30
0.0
 11
-873.3330702851203
 21
-629.3806554068687
 31
0.0
  0
LINE
  5
17890
330
18
100
AcDbEntity
  8
1
 62
     7
 48
0.5
100
AcDbLine
 10
-876.8564571433293
 20
-638.2552361808972
 30
0.0
 11
-869.1759731573393
 21
-636.942387010594
 31
0.0
  0
ARC
  5
17891
330
18
100
AcDbEntity
  8
1
 62
     7
 48
0.5
100
AcDbCircle
 10
-810.0296844287807
 20
-599.5028820774619
 30
0.0
 40
77.25
100
AcDbArc
 50
207.4908696434827
 51
210.1091303565105
1001
GENIUS_GENOBJ-N-FIL_13
1002
{
1000
OWNER
1000
GEN
1002
}
1001
GENIUS_GENODEF_13
1002
{
1000
HIER
1070
     0
1002
}
1002
{
1000
MANEDIT
1070
     0
1002
}
1002
{
1000
NOSEL
1070
     0
1002
}
1002
{
1000
BEHIND
1070
     0
1002
}
1002
{
1000
OTHER
1070
     0
1002
}
1002
{
1000
REACTOR
1002
}
  0
ARC
  5
17892
330
18
100
AcDbEntity
  8
1
 62
     7
 48
0.5
100
AcDbCircle
 10
-810.0296844306623
 20
-599.5028820744416
 30
0.0
 40
70.0
100
AcDbArc
 50
212.3337441343125
 51
219.6662558656921
1001
GENIUS_GENODEF_13
1002
{
1000
HIER
1070
     0
1002
}
1002
{
1000
MANEDIT
1070
     0
1002
}
1002
{
1000
NOSEL
1070
     0
1002
}
1002
{
1000
BEHIND
1070
     0
1002
}
1002
{
1000
OTHER
1070
     0
1002
}
1002
{
1000
REACTOR
1002
}
1001
GENIUS_GENOBJ-N-FIL_13
1002
{
1000
OWNER
1000
GEN
1002
}
  0
LINE
  5
17893
330
18
100
AcDbEntity
  8
1
 62
     7
 48
0.5
100
AcDbLine
 10
-867.5359717705388
 20
-651.0837837375906
 30
0.0
 11
-863.9139779355135
 21
-644.1849020990892
 31
0.0
  0
LINE
  5
17894
330
18
100
AcDbEntity
  8
1
 62
     7
 48
0.5
100
AcDbLine
 10
-865.1196526251876
 20
-653.6569022790952
 30
0.0
 11
-858.006957479067
 21
-650.4752399837907
 31
0.0
  0
ARC
  5
17895
330
18
100
AcDbEntity
  8
1
 62
     7
 48
0.5
100
AcDbCircle
 10
-810.0296844306617
 20
-599.5028820744416
 30
0.0
 40
77.25
100
AcDbArc
 50
221.890869643487
 51
224.5091303565186
1001
GENIUS_GENOBJ-N-FIL_13
1002
{
1000
OWNER
1000
GEN
1002
}
1001
GENIUS_GENODEF_13
1002
{
1000
HIER
1070
     0
1002
}
1002
{
1000
MANEDIT
1070
     0
1002
}
1002
{
1000
NOSEL
1070
     0
1002
}
1002
{
1000
BEHIND
1070
     0
1002
}
1002
{
1000
OTHER
1070
     0
1002
}
1002
{
1000
REACTOR
1002
}
  0
ARC
  5
17896
330
18
100
AcDbEntity
  8
1
 62
     7
 48
0.5
100
AcDbCircle
 10
-810.0296844332346
 20
-599.5028820719833
 30
0.0
 40
69.99999999999999
100
AcDbArc
 50
226.7337441343019
 51
234.0662558656943
1001
GENIUS_GENODEF_13
1002
{
1000
HIER
1070
     0
1002
}
1002
{
1000
MANEDIT
1070
     0
1002
}
1002
{
1000
NOSEL
1070
     0
1002
}
1002
{
1000
BEHIND
1070
     0
1002
}
1002
{
1000
OTHER
1070
     0
1002
}
1002
{
1000
REACTOR
1002
}
1001
GENIUS_GENOBJ-N-FIL_13
1002
{
1000
OWNER
1000
GEN
1002
}
  0
LINE
  5
17897
330
18
100
AcDbEntity
  8
1
 62
     7
 48
0.5
100
AcDbLine
 10
-852.901657395194
 20
-663.7645069685655
 30
0.0
 11
-851.1091372531192
 21
-656.1816131447492
 31
0.0
  0
LINE
  5
17898
330
18
100
AcDbEntity
  8
1
 62
     7
 48
0.5
100
AcDbLine
 10
-849.9213427993455
 20
-665.6558721238432
 30
0.0
 11
-843.8233532877879
 21
-660.8053122468864
 31
0.0
  0
ARC
  5
17899
330
18
100
AcDbEntity
  8
1
 62
     7
 48
0.5
100
AcDbCircle
 10
-810.0296844332344
 20
-599.5028820719832
 30
0.0
 40
77.24999999999998
100
AcDbArc
 50
236.29086964348
 51
238.9091303565309
1001
GENIUS_GENOBJ-N-FIL_13
1002
{
1000
OWNER
1000
GEN
1002
}
1001
GENIUS_GENODEF_13
1002
{
1000
HIER
1070
     0
1002
}
1002
{
1000
MANEDIT
1070
     0
1002
}
1002
{
1000
NOSEL
1070
     0
1002
}
1002
{
1000
BEHIND
1070
     0
1002
}
1002
{
1000
OTHER
1070
     0
1002
}
1002
{
1000
REACTOR
1002
}
  0
ARC
  5
1789A
330
18
100
AcDbEntity
  8
1
 62
     7
 48
0.5
100
AcDbCircle
 10
-810.0296844363382
 20
-599.502882070243
 30
0.0
 40
70.0
100
AcDbArc
 50
241.1337441343089
 51
248.4662558656942
1001
GENIUS_GENODEF_13
1002
{
1000
HIER
1070
     0
1002
}
1002
{
1000
MANEDIT
1070
     0
1002
}
1002
{
1000
NOSEL
1070
     0
1002
}
1002
{
1000
BEHIND
1070
     0
1002
}
1002
{
1000
OTHER
1070
     0
1002
}
1002
{
1000
REACTOR
1002
}
1001
GENIUS_GENOBJ-N-FIL_13
1002
{
1000
OWNER
1000
GEN
1002
}
  0
LINE
  5
1789B
330
18
100
AcDbEntity
  8
1
 62
     7
 48
0.5
100
AcDbLine
 10
-835.5735392870929
 20
-672.4074359702806
 30
0.0
 11
-835.7231234709232
 21
-664.6169910680328
 31
0.0
  0
LINE
  5
1789C
330
18
100
AcDbEntity
  8
1
 62
     7
 48
0.5
100
AcDbLine
 10
-832.2164933676349
 20
-673.4982063106707
 30
0.0
 11
-827.5163685984875
 21
-667.2835273682426
 31
0.0
  0
ARC
  5
1789D
330
18
100
AcDbEntity
  8
1
 62
     7
 48
0.5
100
AcDbCircle
 10
-810.0296844363382
 20
-599.5028820702424
 30
0.0
 40
77.25
100
AcDbArc
 50
250.6908696434783
 51
253.3091303565192
1001
GENIUS_GENOBJ-N-FIL_13
1002
{
1000
OWNER
1000
GEN
1002
}
1001
GENIUS_GENODEF_13
1002
{
1000
HIER
1070
     0
1002
}
1002
{
1000
MANEDIT
1070
     0
1002
}
1002
{
1000
NOSEL
1070
     0
1002
}
1002
{
1000
BEHIND
1070
     0
1002
}
1002
{
1000
OTHER
1070
     0
1002
}
1002
{
1000
REACTOR
1002
}
  0
ARC
  5
1789E
330
18
100
AcDbEntity
  8
1
 62
     7
 48
0.5
100
AcDbCircle
 10
-810.0296844397773
 20
-599.5028820693287
 30
0.0
 40
70.0
100
AcDbArc
 50
255.5337441343083
 51
262.8662558656899
1001
GENIUS_GENODEF_13
1002
{
1000
HIER
1070
     0
1002
}
1002
{
1000
MANEDIT
1070
     0
1002
}
1002
{
1000
NOSEL
1070
     0
1002
}
1002
{
1000
BEHIND
1070
     0
1002
}
1002
{
1000
OTHER
1070
     0
1002
}
1002
{
1000
REACTOR
1002
}
1001
GENIUS_GENOBJ-N-FIL_13
1002
{
1000
OWNER
1000
GEN
1002
}
  0
LINE
  5
1789F
330
18
100
AcDbEntity
  8
1
 62
     7
 48
0.5
100
AcDbLine
 10
-816.6404068353275
 20
-676.4695037270898
 30
0.0
 11
-818.7226964206605
 21
-668.96101005087
 31
0.0
  0
LINE
  5
178A0
330
18
100
AcDbEntity
  8
1
 62
     7
 48
0.5
100
AcDbLine
 10
-813.1175651337303
 20
-676.6911421405327
 30
0.0
 11
-810.1106312320892
 21
-669.5028352665762
 31
0.0
  0
ARC
  5
178A1
330
18
100
AcDbEntity
  8
1
 62
     7
 48
0.5
100
AcDbCircle
 10
-810.0296844397773
 20
-599.5028820693282
 30
0.0
 40
77.25
100
AcDbArc
 50
265.0908696434744
 51
267.7091303565202
1001
GENIUS_GENOBJ-N-FIL_13
1002
{
1000
OWNER
1000
GEN
1002
}
1001
GENIUS_GENODEF_13
1002
{
1000
HIER
1070
     0
1002
}
1002
{
1000
MANEDIT
1070
     0
1002
}
1002
{
1000
NOSEL
1070
     0
1002
}
1002
{
1000
BEHIND
1070
     0
1002
}
1002
{
1000
OTHER
1070
     0
1002
}
1002
{
1000
REACTOR
1002
}
  0
ARC
  5
178A2
330
18
100
AcDbEntity
  8
1
 62
     7
 48
0.5
100
AcDbCircle
 10
-810.0296844433351
 20
-599.5028820692982
 30
0.0
 40
70.0
100
AcDbArc
 50
269.933744134315
 51
277.2662558656943
1001
GENIUS_GENODEF_13
1002
{
1000
HIER
1070
     0
1002
}
1002
{
1000
MANEDIT
1070
     0
1002
}
1002
{
1000
NOSEL
1070
     0
1002
}
1002
{
1000
BEHIND
1070
     0
1002
}
1002
{
1000
OTHER
1070
     0
1002
}
1002
{
1000
REACTOR
1002
}
1001
GENIUS_GENOBJ-N-FIL_13
1002
{
1000
OWNER
1000
GEN
1002
}
  0
LINE
  5
178A3
330
18
100
AcDbEntity
  8
1
 62
     7
 48
0.5
100
AcDbLine
 10
-797.2918983830327
 20
-675.6954755825911
 30
0.0
 11
-801.1760554570971
 21
-668.9407194043853
 31
0.0
  0
LINE
  5
178A4
330
18
100
AcDbEntity
  8
1
 62
     7
 48
0.5
100
AcDbLine
 10
-793.8246139995135
 20
-675.0340557124416
 30
0.0
 11
-792.6998076811476
 21
-667.3237886645908
 31
0.0
  0
ARC
  5
178A5
330
18
100
AcDbEntity
  8
1
 62
     7
 48
0.5
100
AcDbCircle
 10
-810.0296844433355
 20
-599.5028820692976
 30
0.0
 40
77.25
100
AcDbArc
 50
279.4908696434851
 51
282.1091303565261
1001
GENIUS_GENOBJ-N-FIL_13
1002
{
1000
OWNER
1000
GEN
1002
}
1001
GENIUS_GENODEF_13
1002
{
1000
HIER
1070
     0
1002
}
1002
{
1000
MANEDIT
1070
     0
1002
}
1002
{
1000
NOSEL
1070
     0
1002
}
1002
{
1000
BEHIND
1070
     0
1002
}
1002
{
1000
OTHER
1070
     0
1002
}
1002
{
1000
REACTOR
1002
}
  0
ARC
  5
178A6
330
18
100
AcDbEntity
  8
1
 62
     7
 48
0.5
100
AcDbCircle
 10
-810.0296844467893
 20
-599.5028820701532
 30
0.0
 40
69.99999999999999
100
AcDbArc
 50
284.3337441343103
 51
291.6662558656955
1001
GENIUS_GENODEF_13
1002
{
1000
HIER
1070
     0
1002
}
1002
{
1000
MANEDIT
1070
     0
1002
}
1002
{
1000
NOSEL
1070
     0
1002
}
1002
{
1000
BEHIND
1070
     0
1002
}
1002
{
1000
OTHER
1070
     0
1002
}
1002
{
1000
REACTOR
1002
}
1001
GENIUS_GENOBJ-N-FIL_13
1002
{
1000
OWNER
1000
GEN
1002
}
  0
LINE
  5
178A7
330
18
100
AcDbEntity
  8
1
 62
     7
 48
0.5
100
AcDbLine
 10
-778.7437518751025
 20
-670.1339865717807
 30
0.0
 11
-784.1857205640041
 21
-664.5573940645204
 31
0.0
  0
LINE
  5
178A8
330
18
100
AcDbEntity
  8
1
 62
     7
 48
0.5
100
AcDbLine
 10
-775.5498870392576
 20
-668.6310678610118
 30
0.0
 11
-776.3778840218982
 21
-660.8833050742621
 31
0.0
  0
ARC
  5
178A9
330
18
100
AcDbEntity
  8
1
 62
     7
 48
0.5
100
AcDbCircle
 10
-810.0296844467893
 20
-599.5028820701527
 30
0.0
 40
77.24999999999998
100
AcDbArc
 50
293.8908696434806
 51
296.5091303565267
1001
GENIUS_GENOBJ-N-FIL_13
1002
{
1000
OWNER
1000
GEN
1002
}
1001
GENIUS_GENODEF_13
1002
{
1000
HIER
1070
     0
1002
}
1002
{
1000
MANEDIT
1070
     0
1002
}
1002
{
1000
NOSEL
1070
     0
1002
}
1002
{
1000
BEHIND
1070
     0
1002
}
1002
{
1000
OTHER
1070
     0
1002
}
1002
{
1000
REACTOR
1002
}
  0
ARC
  5
178AA
330
18
100
AcDbEntity
  8
1
 62
     7
 48
0.5
100
AcDbCircle
 10
-810.0296844499217
 20
-599.5028820718405
 30
0.0
 40
70.0
100
AcDbArc
 50
298.733744134315
 51
306.0662558656925
1001
GENIUS_GENODEF_13
1002
{
1000
HIER
1070
     0
1002
}
1002
{
1000
MANEDIT
1070
     0
1002
}
1002
{
1000
NOSEL
1070
     0
1002
}
1002
{
1000
BEHIND
1070
     0
1002
}
1002
{
1000
OTHER
1070
     0
1002
}
1002
{
1000
REACTOR
1002
}
1001
GENIUS_GENOBJ-N-FIL_13
1002
{
1000
OWNER
1000
GEN
1002
}
  0
LINE
  5
178AB
330
18
100
AcDbEntity
  8
1
 62
     7
 48
0.5
100
AcDbLine
 10
-762.1614155719412
 20
-660.1344855029331
 30
0.0
 11
-768.8192569687956
 21
-656.0864544831229
 31
0.0
  0
LINE
  5
178AC
330
18
100
AcDbEntity
  8
1
 62
     7
 48
0.5
100
AcDbLine
 10
-759.4416525576202
 20
-657.8845018614917
 30
0.0
 11
-762.1704267456883
 21
-650.5860637660122
 31
0.0
  0
ARC
  5
178AD
330
18
100
AcDbEntity
  8
1
 62
     7
 48
0.5
100
AcDbCircle
 10
-810.0296844499219
 20
-599.5028820718403
 30
0.0
 40
77.25
100
AcDbArc
 50
308.290869643487
 51
310.9091303565179
1001
GENIUS_GENOBJ-N-FIL_13
1002
{
1000
OWNER
1000
GEN
1002
}
1001
GENIUS_GENODEF_13
1002
{
1000
HIER
1070
     0
1002
}
1002
{
1000
MANEDIT
1070
     0
1002
}
1002
{
1000
NOSEL
1070
     0
1002
}
1002
{
1000
BEHIND
1070
     0
1002
}
1002
{
1000
OTHER
1070
     0
1002
}
1002
{
1000
REACTOR
1002
}
  0
ARC
  5
178AE
330
18
100
AcDbEntity
  8
1
 62
     7
 48
0.5
100
AcDbCircle
 10
-810.0296844525365
 20
-599.5028820742541
 30
0.0
 40
69.99999999999999
100
AcDbArc
 50
313.1337441343124
 51
320.4662558656849
1001
GENIUS_GENODEF_13
1002
{
1000
HIER
1070
     0
1002
}
1002
{
1000
MANEDIT
1070
     0
1002
}
1002
{
1000
NOSEL
1070
     0
1002
}
1002
{
1000
BEHIND
1070
     0
1002
}
1002
{
1000
OTHER
1070
     0
1002
}
1002
{
1000
REACTOR
1002
}
1001
GENIUS_GENOBJ-N-FIL_13
1002
{
1000
OWNER
1000
GEN
1002
}
  0
LINE
  5
178AF
330
18
100
AcDbEntity
  8
1
 62
     7
 48
0.5
100
AcDbLine
 10
-748.5868186490441
 20
-646.3252778037979
 30
0.0
 11
-756.0421960930589
 21
-644.0601609480284
 31
0.0
  0
LINE
  5
178B0
330
18
100
AcDbEntity
  8
1
 62
     7
 48
0.5
100
AcDbLine
 10
-746.5120501690253
 20
-643.4696039787361
 30
0.0
 11
-750.9701426445549
 21
-637.0790782818442
 31
0.0
  0
ARC
  5
178B1
330
18
100
AcDbEntity
  8
1
 62
     7
 48
0.5
100
AcDbCircle
 10
-810.0296844525368
 20
-599.5028820742541
 30
0.0
 40
77.24999999999998
100
AcDbArc
 50
322.690869643488
 51
325.3091303565315
1001
GENIUS_GENOBJ-N-FIL_13
1002
{
1000
OWNER
1000
GEN
1002
}
1001
GENIUS_GENODEF_13
1002
{
1000
HIER
1070
     0
1002
}
1002
{
1000
MANEDIT
1070
     0
1002
}
1002
{
1000
NOSEL
1070
     0
1002
}
1002
{
1000
BEHIND
1070
     0
1002
}
1002
{
1000
OTHER
1070
     0
1002
}
1002
{
1000
REACTOR
1002
}
  0
ARC
  5
178B2
330
18
100
AcDbEntity
  8
1
 62
     7
 48
0.5
100
AcDbCircle
 10
-810.0296844544686
 20
-599.502882077242
 30
0.0
 40
70.0
100
AcDbArc
 50
327.5337441343037
 51
334.8662558656936
1001
GENIUS_GENODEF_13
1002
{
1000
HIER
1070
     0
1002
}
1002
{
1000
MANEDIT
1070
     0
1002
}
1002
{
1000
NOSEL
1070
     0
1002
}
1002
{
1000
BEHIND
1070
     0
1002
}
1002
{
1000
OTHER
1070
     0
1002
}
1002
{
1000
REACTOR
1002
}
1001
GENIUS_GENOBJ-N-FIL_13
1002
{
1000
OWNER
1000
GEN
1002
}
  0
LINE
  5
178B3
330
18
100
AcDbEntity
  8
1
 62
     7
 48
0.5
100
AcDbLine
 10
-738.8729029549518
 20
-629.5740467808233
 30
0.0
 11
-746.6573676623587
 21
-629.2341697116594
 31
0.0
  0
LINE
  5
178B4
330
18
100
AcDbEntity
  8
1
 62
     7
 48
0.5
100
AcDbLine
 10
-737.5734943432989
 20
-626.2921152610037
 30
0.0
 11
-743.4807867603352
 21
-621.2110421949437
 31
0.0
  0
ARC
  5
178B5
330
18
100
AcDbEntity
  8
1
 62
     7
 48
0.5
100
AcDbCircle
 10
-810.0296844544692
 20
-599.5028820772418
 30
0.0
 40
77.25
100
AcDbArc
 50
337.090869643486
 51
339.7091303565207
1001
GENIUS_GENOBJ-N-FIL_13
1002
{
1000
OWNER
1000
GEN
1002
}
1001
GENIUS_GENODEF_13
1002
{
1000
HIER
1070
     0
1002
}
1002
{
1000
MANEDIT
1070
     0
1002
}
1002
{
1000
NOSEL
1070
     0
1002
}
1002
{
1000
BEHIND
1070
     0
1002
}
1002
{
1000
OTHER
1070
     0
1002
}
1002
{
1000
REACTOR
1002
}
  0
ARC
  5
178B6
330
18
100
AcDbEntity
  8
1
 62
     7
 48
0.5
100
AcDbCircle
 10
-810.029684455597
 20
-599.5028820806169
 30
0.0
 40
70.0
100
AcDbArc
 50
341.9337441343116
 51
349.2662558656958
1001
GENIUS_GENODEF_13
1002
{
1000
HIER
1070
     0
1002
}
1002
{
1000
MANEDIT
1070
     0
1002
}
1002
{
1000
NOSEL
1070
     0
1002
}
1002
{
1000
BEHIND
1070
     0
1002
}
1002
{
1000
OTHER
1070
     0
1002
}
1002
{
1000
REACTOR
1002
}
1001
GENIUS_GENOBJ-N-FIL_13
1002
{
1000
OWNER
1000
GEN
1002
}
  0
LINE
  5
178B7
330
18
100
AcDbEntity
  8
1
 62
     7
 48
0.5
100
AcDbLine
 10
-733.6300295380063
 20
-610.9333338859021
 30
0.0
 11
-741.2544549619815
 21
-612.5400523295802
 31
0.0
  0
LINE
  5
178B8
330
18
100
AcDbEntity
  8
1
 62
     7
 48
0.5
100
AcDbLine
 10
-733.1876274166805
 20
-607.4313604988142
 30
0.0
 11
-740.1729428671597
 21
-603.9790025712072
 31
0.0
  0
ARC
  5
178B9
330
18
100
AcDbEntity
  8
1
 62
     7
 48
0.5
100
AcDbCircle
 10
-810.0296844555979
 20
-599.5028820806168
 30
0.0
 40
77.25
100
AcDbArc
 50
351.4908696434763
 51
354.1091303565162
1001
GENIUS_GENOBJ-N-FIL_13
1002
{
1000
OWNER
1000
GEN
1002
}
1001
GENIUS_GENODEF_13
1002
{
1000
HIER
1070
     0
1002
}
1002
{
1000
MANEDIT
1070
     0
1002
}
1002
{
1000
NOSEL
1070
     0
1002
}
1002
{
1000
BEHIND
1070
     0
1002
}
1002
{
1000
OTHER
1070
     0
1002
}
1002
{
1000
REACTOR
1002
}
  0
ARC
  5
178BA
330
18
100
AcDbEntity
  8
1
 62
     7
 48
0.5
100
AcDbCircle
 10
-810.029684455851
 20
-599.5028820841658
 30
0.0
 40
69.99999999999999
100
AcDbArc
 50
356.3337441343094
 51
3.666255865690542
1001
GENIUS_GENODEF_13
1002
{
1000
HIER
1070
     0
1002
}
1002
{
1000
MANEDIT
1070
     0
1002
}
1002
{
1000
NOSEL
1070
     0
1002
}
1002
{
1000
BEHIND
1070
     0
1002
}
1002
{
1000
OTHER
1070
     0
1002
}
1002
{
1000
REACTOR
1002
}
1001
GENIUS_GENOBJ-N-FIL_13
1002
{
1000
OWNER
1000
GEN
1002
}
  0
LINE
  5
178BB
330
18
100
AcDbEntity
  8
1
 62
     7
 48
0.5
100
AcDbLine
 10
-733.1876274169342
 20
-591.574403665968
 30
0.0
 11
-740.1729428674139
 21
-595.0267615935745
 31
0.0
  0
LINE
  5
178BC
330
18
100
AcDbEntity
  8
1
 62
     7
 48
0.5
100
AcDbLine
 10
-733.6300295382601
 20
-588.0724302788802
 30
0.0
 11
-741.2544549622348
 21
-586.4657118352019
 31
0.0
  0
ARC
  5
178BD
330
18
100
AcDbEntity
  8
1
 62
     7
 48
0.5
100
AcDbCircle
 10
-810.0296844558513
 20
-599.5028820841658
 30
0.0
 40
77.24999999999998
100
AcDbArc
 50
5.890869643483789
 51
8.509130356523664
1001
GENIUS_GENOBJ-N-FIL_13
1002
{
1000
OWNER
1000
GEN
1002
}
1001
GENIUS_GENODEF_13
1002
{
1000
HIER
1070
     0
1002
}
1002
{
1000
MANEDIT
1070
     0
1002
}
1002
{
1000
NOSEL
1070
     0
1002
}
1002
{
1000
BEHIND
1070
     0
1002
}
1002
{
1000
OTHER
1070
     0
1002
}
1002
{
1000
REACTOR
1002
}
  0
ARC
  5
178BE
330
18
100
AcDbEntity
  8
1
 62
     7
 48
0.5
100
AcDbCircle
 10
-810.0296844552142
 20
-599.5028820876669
 30
0.0
 40
70.0
100
AcDbArc
 50
10.73374413430407
 51
18.06625586568836
1001
GENIUS_GENODEF_13
1002
{
1000
HIER
1070
     0
1002
}
1002
{
1000
MANEDIT
1070
     0
1002
}
1002
{
1000
NOSEL
1070
     0
1002
}
1002
{
1000
BEHIND
1070
     0
1002
}
1002
{
1000
OTHER
1070
     0
1002
}
1002
{
1000
REACTOR
1002
}
1001
GENIUS_GENOBJ-N-FIL_13
1002
{
1000
OWNER
1000
GEN
1002
}
  0
LINE
  5
178BF
330
18
100
AcDbEntity
  8
1
 62
     7
 48
0.5
100
AcDbLine
 10
-737.5734943440441
 20
-572.7136489039049
 30
0.0
 11
-743.4807867610809
 21
-577.7947219699645
 31
0.0
  0
LINE
  5
178C0
330
18
100
AcDbEntity
  8
1
 62
     7
 48
0.5
100
AcDbLine
 10
-738.8729029556972
 20
-569.4317173840852
 30
0.0
 11
-746.6573676631045
 21
-569.7715944532488
 31
0.0
  0
ARC
  5
178C1
330
18
100
AcDbEntity
  8
1
 62
     7
 48
0.5
100
AcDbCircle
 10
-810.0296844552147
 20
-599.5028820876669
 30
0.0
 40
77.25
100
AcDbArc
 50
20.29086964347931
 51
22.90913035651394
1001
GENIUS_GENOBJ-N-FIL_13
1002
{
1000
OWNER
1000
GEN
1002
}
1001
GENIUS_GENODEF_13
1002
{
1000
HIER
1070
     0
1002
}
1002
{
1000
MANEDIT
1070
     0
1002
}
1002
{
1000
NOSEL
1070
     0
1002
}
1002
{
1000
BEHIND
1070
     0
1002
}
1002
{
1000
OTHER
1070
     0
1002
}
1002
{
1000
REACTOR
1002
}
  0
ARC
  5
178C2
330
18
100
AcDbEntity
  8
1
 62
     7
 48
0.5
100
AcDbCircle
 10
-810.029684453727
 20
-599.5028820908991
 30
0.0
 40
70.0
100
AcDbArc
 50
25.13374413431336
 51
32.46625586568857
1001
GENIUS_GENODEF_13
1002
{
1000
HIER
1070
     0
1002
}
1002
{
1000
MANEDIT
1070
     0
1002
}
1002
{
1000
NOSEL
1070
     0
1002
}
1002
{
1000
BEHIND
1070
     0
1002
}
1002
{
1000
OTHER
1070
     0
1002
}
1002
{
1000
REACTOR
1002
}
1001
GENIUS_GENOBJ-N-FIL_13
1002
{
1000
OWNER
1000
GEN
1002
}
  0
LINE
  5
178C3
330
18
100
AcDbEntity
  8
1
 62
     7
 48
0.5
100
AcDbLine
 10
-746.5120501702156
 20
-555.5361601864172
 30
0.0
 11
-750.9701426457456
 21
-561.9266858833091
 31
0.0
  0
LINE
  5
178C4
330
18
100
AcDbEntity
  8
1
 62
     7
 48
0.5
100
AcDbLine
 10
-748.5868186502348
 20
-552.6804863613554
 30
0.0
 11
-756.0421960942496
 21
-554.9456032171247
 31
0.0
  0
ARC
  5
178C5
330
18
100
AcDbEntity
  8
1
 62
     7
 48
0.5
100
AcDbCircle
 10
-810.0296844537274
 20
-599.5028820908991
 30
0.0
 40
77.25
100
AcDbArc
 50
34.69086964347802
 51
37.30913035652197
1001
GENIUS_GENOBJ-N-FIL_13
1002
{
1000
OWNER
1000
GEN
1002
}
1001
GENIUS_GENODEF_13
1002
{
1000
HIER
1070
     0
1002
}
1002
{
1000
MANEDIT
1070
     0
1002
}
1002
{
1000
NOSEL
1070
     0
1002
}
1002
{
1000
BEHIND
1070
     0
1002
}
1002
{
1000
OTHER
1070
     0
1002
}
1002
{
1000
REACTOR
1002
}
  0
ARC
  5
178C6
330
18
100
AcDbEntity
  8
1
 62
     7
 48
0.5
100
AcDbCircle
 10
-810.0296844514824
 20
-599.5028820936603
 30
0.0
 40
70.0
100
AcDbArc
 50
39.53374413430882
 51
46.8662558656876
1001
GENIUS_GENODEF_13
1002
{
1000
HIER
1070
     0
1002
}
1002
{
1000
MANEDIT
1070
     0
1002
}
1002
{
1000
NOSEL
1070
     0
1002
}
1002
{
1000
BEHIND
1070
     0
1002
}
1002
{
1000
OTHER
1070
     0
1002
}
1002
{
1000
REACTOR
1002
}
1001
GENIUS_GENOBJ-N-FIL_13
1002
{
1000
OWNER
1000
GEN
1002
}
  0
LINE
  5
178C7
330
18
100
AcDbEntity
  8
1
 62
     7
 48
0.5
100
AcDbLine
 10
-759.4416525591809
 20
-541.1212623040085
 30
0.0
 11
-762.1704267472494
 21
-548.4197003994878
 31
0.0
  0
LINE
  5
178C8
330
18
100
AcDbEntity
  8
1
 62
     7
 48
0.5
100
AcDbLine
 10
-762.1614155735021
 20
-538.8712786625672
 30
0.0
 11
-768.8192569703565
 21
-542.9193096823771
 31
0.0
  0
ARC
  5
178C9
330
18
100
AcDbEntity
  8
1
 62
     7
 48
0.5
100
AcDbCircle
 10
-810.0296844514826
 20
-599.5028820936603
 30
0.0
 40
77.25
100
AcDbArc
 50
49.09086964348212
 51
51.70913035652116
1001
GENIUS_GENOBJ-N-FIL_13
1002
{
1000
OWNER
1000
GEN
1002
}
1001
GENIUS_GENODEF_13
1002
{
1000
HIER
1070
     0
1002
}
1002
{
1000
MANEDIT
1070
     0
1002
}
1002
{
1000
NOSEL
1070
     0
1002
}
1002
{
1000
BEHIND
1070
     0
1002
}
1002
{
1000
OTHER
1070
     0
1002
}
1002
{
1000
REACTOR
1002
}
  0
ARC
  5
178CA
330
18
100
AcDbEntity
  8
1
 62
     7
 48
0.5
100
AcDbCircle
 10
-810.0296844486219
 20
-599.5028820957759
 30
0.0
 40
69.99999999999999
100
AcDbArc
 50
53.93374413430765
 51
61.26625586569231
1001
GENIUS_GENODEF_13
1002
{
1000
HIER
1070
     0
1002
}
1002
{
1000
MANEDIT
1070
     0
1002
}
1002
{
1000
NOSEL
1070
     0
1002
}
1002
{
1000
BEHIND
1070
     0
1002
}
1002
{
1000
OTHER
1070
     0
1002
}
1002
{
1000
REACTOR
1002
}
1001
GENIUS_GENOBJ-N-FIL_13
1002
{
1000
OWNER
1000
GEN
1002
}
  0
LINE
  5
178CB
330
18
100
AcDbEntity
  8
1
 62
     7
 48
0.5
100
AcDbLine
 10
-775.5498870410904
 20
-530.3746963049168
 30
0.0
 11
-776.3778840237314
 21
-538.1224590916674
 31
0.0
  0
LINE
  5
178CC
330
18
100
AcDbEntity
  8
1
 62
     7
 48
0.5
100
AcDbLine
 10
-778.7437518769352
 20
-528.8717775941487
 30
0.0
 11
-784.1857205658371
 21
-534.4483701014085
 31
0.0
  0
ARC
  5
178CD
330
18
100
AcDbEntity
  8
1
 62
     7
 48
0.5
100
AcDbCircle
 10
-810.0296844486219
 20
-599.5028820957766
 30
0.0
 40
77.24999999999998
100
AcDbArc
 50
63.49086964348053
 51
66.10913035651934
1001
GENIUS_GENOBJ-N-FIL_13
1002
{
1000
OWNER
1000
GEN
1002
}
1001
GENIUS_GENODEF_13
1002
{
1000
HIER
1070
     0
1002
}
1002
{
1000
MANEDIT
1070
     0
1002
}
1002
{
1000
NOSEL
1070
     0
1002
}
1002
{
1000
BEHIND
1070
     0
1002
}
1002
{
1000
OTHER
1070
     0
1002
}
1002
{
1000
REACTOR
1002
}
  0
LINE
  5
178CE
330
18
100
AcDbEntity
  8
1
 62
     7
 48
0.5
100
AcDbLine
 10
-926.1093980178063
 20
-555.0028820971148
 30
0.0
 11
-929.6093980178058
 21
-554.8437911880239
 31
0.0
  0
LINE
  5
178CF
330
18
100
AcDbEntity
  8
1
 62
     7
 48
0.5
100
AcDbLine
 10
-926.1093980178063
 20
-644.0028820971132
 30
0.0
 11
-929.6093980178058
 21
-644.1619730062041
 31
0.0
  0
LINE
  5
178D0
330
18
100
AcDbEntity
  8
1
 62
     7
 48
0.5
100
AcDbLine
 10
-976.1093980178051
 20
-555.0028820971148
 30
0.0
 11
-976.1093980178058
 21
-644.0028820971132
 31
0.0
  0
LINE
  5
178D1
330
18
100
AcDbEntity
  8
1
 62
     7
 48
0.5
100
AcDbLine
 10
-976.1093980178051
 20
-555.0028820971148
 30
0.0
 11
-972.6093980178058
 21
-554.8437911880239
 31
0.0
  0
LINE
  5
178D2
330
18
100
AcDbEntity
  8
1
 62
     7
 48
0.5
100
AcDbLine
 10
-976.1093980178051
 20
-644.0028820971132
 30
0.0
 11
-972.6093980178058
 21
-644.1619730062041
 31
0.0
  0
DIMENSION
  5
178D3
330
18
100
AcDbEntity
  8
2
 48
0.5
100
AcDbDimension
  2
*D4
 10
-766.893543579374
 20
-528.3918387924289
 30
0.0
 11
-784.2385882249122
 21
-520.1273408497675
 31
0.0
 70
    33
 71
     5
 42
38.09999999999823
  3
STANDARD
100
AcDbAlignedDimension
 13
-805.2199306493784
 23
-523.0540346995086
 33
0.0
 14
-768.9847336562839
 24
-534.8277553888872
 34
0.0
  0
DIMENSION
  5
179B0
330
18
100
AcDbEntity
  8
2
100
AcDbDimension
  2
*D5
 10
-769.2540968990518
 20
-592.5028820971142
 30
0.0
 11
-771.7540968990517
 21
-599.5028820971143
 31
0.0
 70
    32
 71
     5
 42
14.0
  3
_1
100
AcDbAlignedDimension
 13
-781.2296844453245
 23
-606.5028820971142
 33
0.0
 14
-781.2296844453245
 24
-592.5028820971142
 34
0.0
 50
90.0
100
AcDbRotatedDimension
1001
ACAD
1000
DSTYLE
1002
{
1070
    40
1040
1.0
1070
    79
1070
     2
1070
   179
1070
     3
1002
}
  0
DIMENSION
  5
179BF
330
18
100
AcDbEntity
  8
2
100
AcDbDimension
  2
*D6
 10
-835.0296844453245
 20
-575.1225908009701
 30
0.0
 11
-808.1296844453245
 21
-572.6225908009702
 31
0.0
 70
    32
 71
     5
 42
53.79999999999995
  3
_1
100
AcDbAlignedDimension
 13
-781.2296844453245
 23
-593.5028820971142
 33
0.0
 14
-835.0296844453245
 24
-599.5028820971141
 34
0.0
100
AcDbRotatedDimension
1001
ACAD
1000
DSTYLE
1002
{
1070
    40
1040
1.0
1070
    79
1070
     2
1070
   179
1070
     3
1002
}
  0
LINE
  5
17B66
330
18
100
AcDbEntity
  8
1
 62
     7
 48
0.5
100
AcDbLine
 10
-781.2296844453245
 20
-606.5028820971142
 30
0.0
 11
-786.0296844453245
 21
-606.5028820971141
 31
0.0
  0
ARC
  5
17B67
330
18
100
AcDbEntity
  8
1
 62
     7
 48
0.5
100
AcDbCircle
 10
-781.2296844453245
 20
-606.0028820971142
 30
0.0
 40
0.5
100
AcDbArc
 50
270.0
 51
90.00000000000001
  0
ARC
  5
17BA9
330
18
100
AcDbEntity
  8
1
100
AcDbCircle
 10
-810.0296844453245
 20
-599.5028820971143
 30
0.0
 40
25.0
100
AcDbArc
 50
16.26020470831138
 51
343.7397952916883
  0
DIMENSION
  5
17BE1
330
18
100
AcDbEntity
  8
2
100
AcDbDimension
  2
*D7
 10
-787.1514133860919
 20
-609.5818063125392
 30
0.0
 11
-841.7377196384848
 21
-582.8021933631331
 31
0.0
 70
    35
 71
     5
 42
50.00000000000035
  3
_1
100
AcDbDiametricDimension
 15
-832.9079555045574
 25
-589.4239578816891
 35
0.0
 40
0.0
1001
ACAD
1000
DSTYLE
1002
{
1070
    40
1040
1.0
1070
    79
1070
     2
1070
   179
1070
     3
1070
   288
1070
     1
1002
}
  0
TEXT
  5
17C1F
330
18
100
AcDbEntity
  8
2
100
AcDbText
 10
-784.5784280636436
 20
-691.2858615170129
 30
0.0
 40
3.5
  1
DATE2020.5.1
  7
BIGFONT
100
AcDbText
  0
DIMENSION
  5
17C39
330
18
100
AcDbEntity
  8
2
 48
0.5
100
AcDbDimension
  2
*D8
 10
-926.1093980178063
 20
-504.9647298137241
 30
0.0
 11
-951.1093980178058
 21
-502.4647298137241
 31
0.0
 70
    32
 71
     5
 42
49.99999999999909
  3
STANDARD
100
AcDbAlignedDimension
 13
-976.1093980178051
 23
-555.0028820971148
 33
0.0
 14
-926.1093980178063
 24
-557.0528587820024
 34
0.0
100
AcDbRotatedDimension
  0
DIMENSION
  5
17C49
330
18
100
AcDbEntity
  8
2
 48
0.5
100
AcDbDimension
  2
*D9
 10
-929.6093980178058
 20
-510.9647298137241
 30
0.0
 11
-951.1093980178058
 21
-508.4647298137241
 31
0.0
 70
    32
 71
     5
 42
43.0
  3
STANDARD
100
AcDbAlignedDimension
 13
-972.6093980178058
 23
-525.502882097114
 33
0.0
 14
-929.6093980178058
 24
-524.5028820971136
 34
0.0
100
AcDbRotatedDimension
  0
DIMENSION
  5
17C56
330
18
100
AcDbEntity
  8
2
 48
0.5
100
AcDbDimension
  2
*D10
 10
-943.1093980178058
 20
-516.9647298137241
 30
0.0
 11
-951.1093980178058
 21
-514.4647298137241
 31
0.0
 70
    32
 71
     5
 42
16.0
  3
STANDARD
100
AcDbAlignedDimension
 13
-959.1093980178058
 23
-524.502882097114
 33
0.0
 14
-943.1093980178058
 24
-524.502882097114
 34
0.0
100
AcDbRotatedDimension
  0
ENDSEC
  0
SECTION
  2
OBJECTS
  0
DICTIONARY
  5
C
330
0
100
AcDbDictionary
281
     1
  3
ACAD_COLOR
350
17C95
  3
ACAD_GROUP
350
D
  3
ACAD_IMAGE_VARS
350
17C1E
  3
ACAD_LAYOUT
350
1C62
  3
ACAD_MATERIAL
350
17C6B
  3
ACAD_MLEADERSTYLE
350
17C98
  3
ACAD_MLINESTYLE
350
E
  3
ACAD_PLOTSETTINGS
350
1C63
  3
ACAD_PLOTSTYLENAME
350
1C60
  3
ACAD_SCALELIST
350
17BFB
  3
ACAD_TABLESTYLE
350
17C96
  3
ACAD_VISUALSTYLE
350
17C84
  3
ACADDIM
350
2219
  3
ACDB_RECOMPOSE_DATA
350
17CAB
  3
ACDBVARIABLEDICTIONARY
350
1237
  3
AcmDictionary
350
1763A
  3
AMG
350
175E3
  3
AMGSNAPSETTINGS
350
177BD
  3
APPDATA
350
17C1D
  3
CONTENTDICTIONARY
350
322
  3
DWGPROPS
350
17CBE
  0
DICTIONARY
  5
176A5
330
2
100
AcDbDictionary
280
     1
281
     1
  3
ACAD_LAYERSTATES
360
176A6
  0
DICTIONARY
  5
17C9E
330
F
100
AcDbDictionary
280
     1
281
     1
  3
ADSK_XREC_LAYER_RECONCILED
360
17C9F
  0
DICTIONARY
  5
17CA0
330
526
100
AcDbDictionary
280
     1
281
     1
  3
ADSK_XREC_LAYER_RECONCILED
360
17CA1
  0
DICTIONARY
  5
17CA2
330
138F
100
AcDbDictionary
280
     1
281
     1
  3
ADSK_XREC_LAYER_RECONCILED
360
17CA3
  0
DICTIONARY
  5
17CA4
330
1390
100
AcDbDictionary
280
     1
281
     1
  3
ADSK_XREC_LAYER_RECONCILED
360
17CA5
  0
DICTIONARY
  5
175D1
330
18
100
AcDbDictionary
280
     1
281
     1
  3
ACAD_SORTENTS
360
17A16
  0
DICTIONARY
  5
17C95
102
{ACAD_REACTORS
330
C
102
}
330
C
100
AcDbDictionary
281
     1
  0
DICTIONARY
  5
D
102
{ACAD_REACTORS
330
C
102
}
330
C
100
AcDbDictionary
281
     1
  0
RASTERVARIABLES
  5
17C1E
102
{ACAD_REACTORS
330
C
102
}
330
C
100
AcDbRasterVariables
 90
        0
 70
     1
 71
     1
 72
     0
  0
DICTIONARY
  5
1C62
102
{ACAD_REACTORS
330
C
102
}
330
C
100
AcDbDictionary
281
     1
  3
Model
350
175DB
  3
レイアウト1
350
175DC
  0
DICTIONARY
  5
17C6B
102
{ACAD_REACTORS
330
C
102
}
330
C
100
AcDbDictionary
281
     1
  3
ByBlock
350
17C74
  3
ByLayer
350
17C6C
  3
Global
350
17C7C
  0
DICTIONARY
  5
17C98
102
{ACAD_REACTORS
330
C
102
}
330
C
100
AcDbDictionary
281
     1
  3
Standard
350
17C99
  0
DICTIONARY
  5
E
102
{ACAD_REACTORS
330
C
102
}
330
C
100
AcDbDictionary
281
     1
  3
STANDARD
350
1B
  0
DICTIONARY
  5
1C63
102
{ACAD_REACTORS
330
C
102
}
330
C
100
AcDbDictionary
281
     1
  0
ACDBDICTIONARYWDFLT
  5
1C60
102
{ACAD_REACTORS
330
C
102
}
330
C
100
AcDbDictionary
281
     1
  3
Normal
350
1C61
100
AcDbDictionaryWithDefault
340
1C61
  0
DICTIONARY
  5
17BFB
102
{ACAD_REACTORS
330
C
102
}
330
C
100
AcDbDictionary
281
     1
  3
A0
350
17BFC
  3
A1
350
17BFD
  3
A2
350
17BFE
  3
A3
350
17BFF
  3
A4
350
17C00
  3
A5
350
17C01
  3
A6
350
17C02
  3
A7
350
17C03
  3
A8
350
17C04
  3
A9
350
17C05
  3
B0
350
17C06
  3
B1
350
17C07
  3
B2
350
17C08
  3
B3
350
17C09
  3
B4
350
17C0A
  3
B5
350
17C0B
  3
B6
350
17C0C
  3
B7
350
17C0D
  3
B8
350
17C0E
  3
B9
350
17C0F
  3
C0
350
17C10
  3
C1
350
17C11
  3
C2
350
17C12
  3
C3
350
17C13
  3
C4
350
17C14
  3
C5
350
17C15
  3
C6
350
17C16
  3
C7
350
17C17
  3
C8
350
17C18
  3
C9
350
17C19
  3
D0
350
17C1A
  3
D1
350
17C1B
  3
D2
350
17C1C
  0
DICTIONARY
  5
17C96
102
{ACAD_REACTORS
330
C
102
}
330
C
100
AcDbDictionary
281
     1
  3
Standard
350
17C97
  0
DICTIONARY
  5
17C84
102
{ACAD_REACTORS
330
C
102
}
330
C
100
AcDbDictionary
281
     1
  3
2dWireframe
350
17C8A
  3
3D Hidden
350
17C8C
  3
3dWireframe
350
17C8B
  3
Basic
350
17C89
  3
Brighten
350
17C90
  3
ColorChange
350
17C94
  3
Conceptual
350
17C8D
  3
Dim
350
17C8F
  3
Facepattern
350
17C93
  3
Flat
350
17C85
  3
FlatWithEdges
350
17C86
  3
Gouraud
350
17C87
  3
GouraudWithEdges
350
17C88
  3
Linepattern
350
17C92
  3
Realistic
350
17C8E
  3
Thicken
350
17C91
  0
XRECORD
  5
2219
102
{ACAD_REACTORS
330
C
102
}
330
C
100
AcDbXrecord
280
     1
 90
   990106
  3

 60
     4
 61
     0
 62
     1
 63
     3
 64
     0
 65
     0
 66
     1
 67
     3
 68
     1
 69
     0
 70
     0
 71
     0
 72
     0
 40
0.0
170
     1
  0
XRECORD
  5
17CAB
102
{ACAD_REACTORS
330
C
102
}
330
C
100
AcDbXrecord
280
     1
 90
        1
330
17C97
  0
DICTIONARY
  5
1237
102
{ACAD_REACTORS
330
C
102
}
330
C
100
AcDbDictionary
281
     1
  3
CANNOSCALE
350
17C66
  3
CMLEADERSTYLE
350
17CA7
  3
CTABLESTYLE
350
17CA6
  3
DIMASSOC
350
17BF3
  3
INDEXCTL
350
17CA8
  3
PROJECTNAME
350
17BF4
  3
SORTENTS
350
1238
  0
DICTIONARY
  5
1763A
102
{ACAD_REACTORS
330
C
102
}
330
C
100
AcDbDictionary
281
     1
  3
AcmStdDictionary
350
17645
  3
AMDTSECTSYM_ARROWCOLOR
350
17662
  0
DICTIONARY
  5
175E3
102
{ACAD_REACTORS
330
C
102
}
330
C
100
AcDbDictionary
281
     1
  0
DICTIONARY
  5
177BD
102
{ACAD_REACTORS
330
C
102
}
330
C
100
AcDbDictionary
281
     1
  0
DICTIONARY
  5
17C1D
102
{ACAD_REACTORS
330
C
102
}
330
C
100
AcDbDictionary
281
     1
  0
DICTIONARY
  5
322
102
{ACAD_REACTORS
330
C
102
}
330
C
100
AcDbDictionary
281
     1
  0
XRECORD
  5
17CBE
102
{ACAD_REACTORS
330
C
102
}
330
C
100
AcDbXrecord
280
     1
  1
DWGPROPS COOKIE
  2

  3

  4

  6

  7

  8
yutaka.oda
  9

300
=
301
=
302
=
303
=
304
=
305
=
306
=
307
=
308
=
309
=
 40
1.537164872685185
 41
2452836.755218403
 42
2456115.685405892
  1

 90
        0
  0
DICTIONARY
  5
176A6
102
{ACAD_REACTORS
330
176A5
102
}
330
176A5
100
AcDbDictionary
281
     1
  3
ARGON_LAYERP_1
350
17C25
  3
ARGON_LAYERP_2
350
17C26
  3
ARGON_LAYERP_3
350
17C27
  3
ARGON_LAYERP_4
350
17C28
  3
ARGON_LAYERP_5
350
17C29
  3
ARGON_LAYERP_6
350
17C2F
  0
XRECORD
  5
17C9F
102
{ACAD_REACTORS
330
17C9E
102
}
330
17C9E
100
AcDbXrecord
280
     1
290
     1
  0
XRECORD
  5
17CA1
102
{ACAD_REACTORS
330
17CA0
102
}
330
17CA0
100
AcDbXrecord
280
     1
290
     1
  0
XRECORD
  5
17CA3
102
{ACAD_REACTORS
330
17CA2
102
}
330
17CA2
100
AcDbXrecord
280
     1
290
     1
  0
XRECORD
  5
17CA5
102
{ACAD_REACTORS
330
17CA4
102
}
330
17CA4
100
AcDbXrecord
280
     1
290
     1
  0
SORTENTSTABLE
  5
17A16
102
{ACAD_REACTORS
330
175D1
102
}
330
175D1
100
AcDbSortentsTable
330
18
331
1782D
  5
17830
331
177EE
  5
177F1
331
178B6
  5
178B9
331
177F6
  5
177F9
331
178BE
  5
178C1
331
178C6
  5
178C9
331
178CE
  5
178D1
331
17838
  5
1783B
331
17840
  5
17843
331
1787F
  5
17882
331
17848
  5
1784B
331
17887
  5
1788A
331
1788F
  5
17892
331
17850
  5
17853
331
177FE
  5
17801
331
177C7
  5
177CA
331
17806
  5
17809
331
17897
  5
1789A
331
177CF
  5
177D2
331
1780E
  5
17811
331
17B66
  5
17B66
331
1789F
  5
178A2
331
177D7
  5
177DA
331
17816
  5
17819
331
178A7
  5
178AA
331
178AF
  5
178B2
331
17858
  5
1785B
331
17860
  5
17863
331
17868
  5
1786B
331
17831
  5
17834
331
17870
  5
17873
331
1781E
  5
17821
331
177DF
  5
177E2
331
177E7
  5
177EA
331
17826
  5
17829
331
178B7
  5
178BA
331
177EF
  5
177F2
331
1782E
  5
17831
331
177F7
  5
177FA
331
178BF
  5
178C2
331
178C7
  5
178CA
331
178CF
  5
178D2
331
17839
  5
1783C
331
17878
  5
1787B
331
17880
  5
17883
331
17841
  5
17844
331
17849
  5
1784C
331
17888
  5
1788B
331
17851
  5
17854
331
177FF
  5
17802
331
17807
  5
1780A
331
177C8
  5
177CB
331
17890
  5
17893
331
17898
  5
1789B
331
1780F
  5
17812
331
17B67
  5
17B67
331
177D0
  5
177D3
331
178A0
  5
178A3
331
17817
  5
1781A
331
178A8
  5
178AB
331
17859
  5
1785C
331
17861
  5
17865
331
17869
  5
1786C
331
17871
  5
17874
331
17832
  5
17835
331
177D8
  5
177DB
331
177E0
  5
177E3
331
1781F
  5
17822
331
178B0
  5
178B3
331
177E8
  5
177EB
331
17827
  5
1782A
331
178B8
  5
178BB
331
1782F
  5
17832
331
177F0
  5
177F3
331
178C0
  5
178C3
331
178C8
  5
178CB
331
1783A
  5
1783D
331
17879
  5
1787C
331
17842
  5
17845
331
17881
  5
17884
331
1784A
  5
1784D
331
17889
  5
1788C
331
17852
  5
17855
331
177F8
  5
177FB
331
17800
  5
17803
331
17891
  5
17894
331
177C9
  5
177CC
331
17808
  5
1780B
331
17899
  5
1789C
331
177D1
  5
177D4
331
17810
  5
17813
331
178A1
  5
178A4
331
178A9
  5
178AC
331
1785A
  5
1785D
331
17862
  5
17866
331
1786A
  5
1786D
331
17833
  5
17837
331
17872
  5
17875
331
17818
  5
1781B
331
177D9
  5
177DC
331
17820
  5
17823
331
177E1
  5
177E4
331
178B1
  5
178B4
331
177E9
  5
177EC
331
17828
  5
1782B
331
177F1
  5
177F4
331
178B9
  5
178BC
331
178C1
  5
178C4
331
178C9
  5
178CC
331
1783B
  5
1783E
331
1787A
  5
1787D
331
17882
  5
17885
331
17843
  5
17846
331
1784B
  5
1784E
331
1788A
  5
1788D
331
17853
  5
17856
331
177F9
  5
177FC
331
17801
  5
17804
331
17809
  5
1780C
331
177CA
  5
177CD
331
17892
  5
17895
331
1789A
  5
1789D
331
17811
  5
17814
331
17BA9
  5
17BA9
331
177D2
  5
177D5
331
178A2
  5
178A5
331
178AA
  5
178AD
331
1785B
  5
1785F
331
1786B
  5
1786E
331
17873
  5
17876
331
17834
  5
17838
331
177DA
  5
177DD
331
17819
  5
1781C
331
177E2
  5
177E5
331
17821
  5
17824
331
17829
  5
1782C
331
177EA
  5
177ED
331
178B2
  5
178B5
331
178BA
  5
178BD
331
177F2
  5
177F5
331
178C2
  5
178C5
331
178CA
  5
178CD
331
1783C
  5
1783F
331
1787B
  5
1787E
331
17844
  5
17847
331
17883
  5
17886
331
1784C
  5
1784F
331
1788B
  5
1788E
331
17854
  5
17857
331
178D0
  5
178D3
331
177FA
  5
177FD
331
17802
  5
17805
331
17893
  5
17896
331
177CB
  5
177CE
331
1780A
  5
1780D
331
1789B
  5
1789E
331
177D3
  5
177D6
331
17812
  5
17815
331
178A3
  5
178A6
331
178AB
  5
178AE
331
1785C
  5
17861
331
17864
  5
17867
331
1786C
  5
1786F
331
17874
  5
17877
331
1781A
  5
1781D
331
177DB
  5
177DE
331
17822
  5
17825
331
177E3
  5
177E6
331
178B3
  5
178B6
331
177EB
  5
177EE
331
1782A
  5
1782D
331
177F3
  5
177F6
331
178BB
  5
178BE
331
178C3
  5
178C6
331
178CB
  5
178CE
331
1787C
  5
1787F
331
1783D
  5
17840
331
17884
  5
17887
331
17845
  5
17848
331
1784D
  5
17850
331
1788C
  5
1788F
331
17855
  5
17858
331
16ED8
  5
16ED8
331
178D1
  5
179B0
331
177FB
  5
177FE
331
17803
  5
17806
331
1780B
  5
1780E
331
177CC
  5
177CF
331
17894
  5
17897
331
1789C
  5
1789F
331
177D4
  5
177D7
331
17813
  5
17816
331
178A4
  5
178A7
331
178AC
  5
178AF
331
1785D
  5
17862
331
FE2
  5
FE2
331
218A
  5
218A
331
17865
  5
17868
331
1786D
  5
17870
331
17875
  5
17878
331
17836
  5
17839
331
177DC
  5
177DF
331
1781B
  5
1781E
331
177E4
  5
177E7
331
17823
  5
17826
331
1782B
  5
1782E
331
177EC
  5
177EF
331
178B4
  5
178B7
331
178BC
  5
178BF
331
177F4
  5
177F7
331
178C4
  5
178C7
331
178CC
  5
178CF
331
1783E
  5
17841
331
1787D
  5
17880
331
17846
  5
17849
331
17885
  5
17888
331
1788D
  5
17890
331
FDF
  5
FDF
331
1784E
  5
17851
331
17856
  5
17859
331
177FC
  5
177FF
331
178D2
  5
179BF
331
16ED7
  5
16ED7
331
16EBD
  5
16EBD
331
177C5
  5
177C5
331
17804
  5
17807
331
17895
  5
17898
331
177CD
  5
177D0
331
179BF
  5
17AE8
331
1780C
  5
1780F
331
1789D
  5
178A0
331
177D5
  5
177D8
331
17814
  5
17817
331
178A5
  5
178A8
331
178AD
  5
178B0
331
17866
  5
17869
331
1786E
  5
17871
331
17837
  5
1783A
331
17876
  5
17879
331
1781C
  5
1781F
331
177DD
  5
177E0
331
177E5
  5
177E8
331
17824
  5
17827
331
177ED
  5
177F0
331
178B5
  5
178B8
331
177F5
  5
177F8
331
178BD
  5
178C0
331
178C5
  5
178C8
331
178CD
  5
178D0
331
1787E
  5
17881
331
1783F
  5
17842
331
17886
  5
17889
331
17847
  5
1784A
331
1784F
  5
17852
331
1788E
  5
17891
331
17857
  5
1785A
331
178D3
  5
17A15
331
179B0
  5
17A6B
331
177FD
  5
17800
331
177C6
  5
177C9
331
17805
  5
17808
331
17896
  5
17899
331
1780D
  5
17810
331
177CE
  5
177D1
331
1789E
  5
178A1
331
177D6
  5
177D9
331
17815
  5
17818
331
178A6
  5
178A9
331
178AE
  5
178B1
331
17867
  5
1786A
331
1786F
  5
17872
331
17830
  5
17833
331
17877
  5
1787A
331
177DE
  5
177E1
331
1781D
  5
17820
331
177E6
  5
177E9
331
17825
  5
17828
  0
LAYOUT
  5
175DB
102
{ACAD_XDICTIONARY
360
17CBF
102
}
102
{ACAD_REACTORS
330
1C62
102
}
330
1C62
100
AcDbPlotSettings
  1

  2
\\techserver\RICOH IPSiO SP C810 RPCS
  4

  6

 40
0.0
 41
0.0
 42
0.0
 43
0.0
 44
0.0
 45
0.0
 46
0.0
 47
0.0
 48
0.0
 49
0.0
140
0.0
141
0.0
142
1.0
143
1.0
 70
  1712
 72
     0
 73
     0
 74
     0
  7

 75
     0
147
1.0
148
0.0
149
0.0
100
AcDbLayout
  1
Model
 70
     1
 71
     0
 10
0.0
 20
0.0
 11
12.0
 21
9.0
 12
0.0
 22
0.0
 32
0.0
 14
0.0
 24
0.0
 34
0.0
 15
0.0
 25
0.0
 35
0.0
146
0.0
 13
0.0
 23
0.0
 33
0.0
 16
1.0
 26
0.0
 36
0.0
 17
0.0
 27
1.0
 37
0.0
 76
     0
330
18
331
17BF5
  0
LAYOUT
  5
175DC
102
{ACAD_XDICTIONARY
360
17CC1
102
}
102
{ACAD_REACTORS
330
1C62
102
}
330
1C62
100
AcDbPlotSettings
  1

  2
\\techserver\RICOH IPSiO SP C810 RPCS
  4

  6

 40
0.0
 41
0.0
 42
0.0
 43
0.0
 44
0.0
 45
0.0
 46
0.0
 47
0.0
 48
0.0
 49
0.0
140
0.0
141
0.0
142
1.0
143
1.0
 70
   688
 72
     0
 73
     0
 74
     5
  7

 75
    16
147
1.0
148
0.0
149
0.0
100
AcDbLayout
  1
レイアウト1
 70
     1
 71
     1
 10
0.0
 20
0.0
 11
420.0
 21
297.0
 12
0.0
 22
0.0
 32
0.0
 14
1.000000000000000E+20
 24
1.000000000000000E+20
 34
1.000000000000000E+20
 15
-1.000000000000000E+20
 25
-1.000000000000000E+20
 35
-1.000000000000000E+20
146
0.0
 13
0.0
 23
0.0
 33
0.0
 16
1.0
 26
0.0
 36
0.0
 17
0.0
 27
1.0
 37
0.0
 76
     0
330
15
  0
MATERIAL
  5
17C74
102
{ACAD_XDICTIONARY
360
17C75
102
}
102
{ACAD_REACTORS
330
17C6B
102
}
330
17C6B
100
AcDbMaterial
  1
ByBlock
 72
     0
 43
0.0208333333333333
 43
0.0
 43
0.0
 43
0.0
 43
0.0
 43
0.0208333333333333
 43
0.0
 43
0.0
 43
0.0
 43
0.0
 43
1.0
 43
0.0
 43
0.0
 43
0.0
 43
0.0
 43
1.0
 77
     0
 47
0.0208333333333333
 47
0.0
 47
0.0
 47
0.0
 47
0.0
 47
0.0208333333333333
 47
0.0
 47
0.0
 47
0.0
 47
0.0
 47
1.0
 47
0.0
 47
0.0
 47
0.0
 47
0.0
 47
1.0
171
     0
 49
0.0208333333333333
 49
0.0
 49
0.0
 49
0.0
 49
0.0
 49
0.0208333333333333
 49
0.0
 49
0.0
 49
0.0
 49
0.0
 49
1.0
 49
0.0
 49
0.0
 49
0.0
 49
0.0
 49
1.0
175
     0
142
0.0208333333333333
142
0.0
142
0.0
142
0.0
142
0.0
142
0.0208333333333333
142
0.0
142
0.0
142
0.0
142
0.0
142
1.0
142
0.0
142
0.0
142
0.0
142
0.0
142
1.0
179
     0
144
0.0208333333333333
144
0.0
144
0.0
144
0.0
144
0.0
144
0.0208333333333333
144
0.0
144
0.0
144
0.0
144
0.0
144
1.0
144
0.0
144
0.0
144
0.0
144
0.0
144
1.0
147
0.0208333333333333
147
0.0
147
0.0
147
0.0
147
0.0
147
0.0208333333333333
147
0.0
147
0.0
147
0.0
147
0.0
147
1.0
147
0.0
147
0.0
147
0.0
147
0.0
147
1.0
  0
MATERIAL
  5
17C6C
102
{ACAD_XDICTIONARY
360
17C6D
102
}
102
{ACAD_REACTORS
330
17C6B
102
}
330
17C6B
100
AcDbMaterial
  1
ByLayer
 72
     0
 43
0.0208333333333333
 43
0.0
 43
0.0
 43
0.0
 43
0.0
 43
0.0208333333333333
 43
0.0
 43
0.0
 43
0.0
 43
0.0
 43
1.0
 43
0.0
 43
0.0
 43
0.0
 43
0.0
 43
1.0
 77
     0
 47
0.0208333333333333
 47
0.0
 47
0.0
 47
0.0
 47
0.0
 47
0.0208333333333333
 47
0.0
 47
0.0
 47
0.0
 47
0.0
 47
1.0
 47
0.0
 47
0.0
 47
0.0
 47
0.0
 47
1.0
171
     0
 49
0.0208333333333333
 49
0.0
 49
0.0
 49
0.0
 49
0.0
 49
0.0208333333333333
 49
0.0
 49
0.0
 49
0.0
 49
0.0
 49
1.0
 49
0.0
 49
0.0
 49
0.0
 49
0.0
 49
1.0
175
     0
142
0.0208333333333333
142
0.0
142
0.0
142
0.0
142
0.0
142
0.0208333333333333
142
0.0
142
0.0
142
0.0
142
0.0
142
1.0
142
0.0
142
0.0
142
0.0
142
0.0
142
1.0
179
     0
144
0.0208333333333333
144
0.0
144
0.0
144
0.0
144
0.0
144
0.0208333333333333
144
0.0
144
0.0
144
0.0
144
0.0
144
1.0
144
0.0
144
0.0
144
0.0
144
0.0
144
1.0
147
0.0208333333333333
147
0.0
147
0.0
147
0.0
147
0.0
147
0.0208333333333333
147
0.0
147
0.0
147
0.0
147
0.0
147
1.0
147
0.0
147
0.0
147
0.0
147
0.0
147
1.0
  0
MATERIAL
  5
17C7C
102
{ACAD_XDICTIONARY
360
17C7D
102
}
102
{ACAD_REACTORS
330
17C6B
102
}
330
17C6B
100
AcDbMaterial
  1
Global
 72
     0
 43
0.0208333333333333
 43
0.0
 43
0.0
 43
0.0
 43
0.0
 43
0.0208333333333333
 43
0.0
 43
0.0
 43
0.0
 43
0.0
 43
1.0
 43
0.0
 43
0.0
 43
0.0
 43
0.0
 43
1.0
 77
     0
 47
0.0208333333333333
 47
0.0
 47
0.0
 47
0.0
 47
0.0
 47
0.0208333333333333
 47
0.0
 47
0.0
 47
0.0
 47
0.0
 47
1.0
 47
0.0
 47
0.0
 47
0.0
 47
0.0
 47
1.0
171
     0
 49
0.0208333333333333
 49
0.0
 49
0.0
 49
0.0
 49
0.0
 49
0.0208333333333333
 49
0.0
 49
0.0
 49
0.0
 49
0.0
 49
1.0
 49
0.0
 49
0.0
 49
0.0
 49
0.0
 49
1.0
175
     0
142
0.0208333333333333
142
0.0
142
0.0
142
0.0
142
0.0
142
0.0208333333333333
142
0.0
142
0.0
142
0.0
142
0.0
142
1.0
142
0.0
142
0.0
142
0.0
142
0.0
142
1.0
179
     0
144
0.0208333333333333
144
0.0
144
0.0
144
0.0
144
0.0
144
0.0208333333333333
144
0.0
144
0.0
144
0.0
144
0.0
144
1.0
144
0.0
144
0.0
144
0.0
144
0.0
144
1.0
147
0.0208333333333333
147
0.0
147
0.0
147
0.0
147
0.0
147
0.0208333333333333
147
0.0
147
0.0
147
0.0
147
0.0
147
1.0
147
0.0
147
0.0
147
0.0
147
0.0
147
1.0
  0
MLEADERSTYLE
  5
17C99
102
{ACAD_REACTORS
330
17C98
102
}
330
17C98
100
AcDbMLeaderStyle
170
     2
171
     1
172
     0
 90
        2
 40
0.0
 41
0.0
173
     1
 91
-1056964608
340
12
 92
       -2
290
     1
 42
2.0
291
     1
 43
0.36
  3
Standard
 44
4.0
300

342
10
174
     1
178
     6
175
     1
176
     0
 93
-1056964608
 45
4.0
292
     0
297
     0
 46
4.0
 94
-1056964608
 47
1.0
 49
1.0
140
1.0
293
     1
141
0.0
294
     1
177
     0
142
1.0
295
     0
296
     0
143
0.125
1001
ACAD_MLEADERVER
1070
     2
  0
MLINESTYLE
  5
1B
102
{ACAD_REACTORS
330
E
102
}
330
E
100
AcDbMlineStyle
  2
STANDARD
 70
     0
  3

 62
     0
 51
90.0
 52
90.0
 71
     2
 49
0.5
 62
   256
  6
BYLAYER
 49
-0.5
 62
   256
  6
BYLAYER
  0
ACDBPLACEHOLDER
  5
1C61
102
{ACAD_REACTORS
330
1C60
102
}
330
1C60
  0
SCALE
  5
17BFC
102
{ACAD_REACTORS
330
17BFB
102
}
330
17BFB
100
AcDbScale
 70
     0
300
1:1
140
1.0
141
1.0
290
     1
  0
SCALE
  5
17BFD
102
{ACAD_REACTORS
330
17BFB
102
}
330
17BFB
100
AcDbScale
 70
     0
300
1:2
140
1.0
141
2.0
290
     0
  0
SCALE
  5
17BFE
102
{ACAD_REACTORS
330
17BFB
102
}
330
17BFB
100
AcDbScale
 70
     0
300
1:4
140
1.0
141
4.0
290
     0
  0
SCALE
  5
17BFF
102
{ACAD_REACTORS
330
17BFB
102
}
330
17BFB
100
AcDbScale
 70
     0
300
1:5
140
1.0
141
5.0
290
     0
  0
SCALE
  5
17C00
102
{ACAD_REACTORS
330
17BFB
102
}
330
17BFB
100
AcDbScale
 70
     0
300
1:8
140
1.0
141
8.0
290
     0
  0
SCALE
  5
17C01
102
{ACAD_REACTORS
330
17BFB
102
}
330
17BFB
100
AcDbScale
 70
     0
300
1:10
140
1.0
141
10.0
290
     0
  0
SCALE
  5
17C02
102
{ACAD_REACTORS
330
17BFB
102
}
330
17BFB
100
AcDbScale
 70
     0
300
1:16
140
1.0
141
16.0
290
     0
  0
SCALE
  5
17C03
102
{ACAD_REACTORS
330
17BFB
102
}
330
17BFB
100
AcDbScale
 70
     0
300
1:20
140
1.0
141
20.0
290
     0
  0
SCALE
  5
17C04
102
{ACAD_REACTORS
330
17BFB
102
}
330
17BFB
100
AcDbScale
 70
     0
300
1:30
140
1.0
141
30.0
290
     0
  0
SCALE
  5
17C05
102
{ACAD_REACTORS
330
17BFB
102
}
330
17BFB
100
AcDbScale
 70
     0
300
1:40
140
1.0
141
40.0
290
     0
  0
SCALE
  5
17C06
102
{ACAD_REACTORS
330
17BFB
102
}
330
17BFB
100
AcDbScale
 70
     0
300
1:50
140
1.0
141
50.0
290
     0
  0
SCALE
  5
17C07
102
{ACAD_REACTORS
330
17BFB
102
}
330
17BFB
100
AcDbScale
 70
     0
300
1:100
140
1.0
141
100.0
290
     0
  0
SCALE
  5
17C08
102
{ACAD_REACTORS
330
17BFB
102
}
330
17BFB
100
AcDbScale
 70
     0
300
2:1
140
2.0
141
1.0
290
     0
  0
SCALE
  5
17C09
102
{ACAD_REACTORS
330
17BFB
102
}
330
17BFB
100
AcDbScale
 70
     0
300
4:1
140
4.0
141
1.0
290
     0
  0
SCALE
  5
17C0A
102
{ACAD_REACTORS
330
17BFB
102
}
330
17BFB
100
AcDbScale
 70
     0
300
8:1
140
8.0
141
1.0
290
     0
  0
SCALE
  5
17C0B
102
{ACAD_REACTORS
330
17BFB
102
}
330
17BFB
100
AcDbScale
 70
     0
300
10:1
140
10.0
141
1.0
290
     0
  0
SCALE
  5
17C0C
102
{ACAD_REACTORS
330
17BFB
102
}
330
17BFB
100
AcDbScale
 70
     0
300
100:1
140
100.0
141
1.0
290
     0
  0
SCALE
  5
17C0D
102
{ACAD_REACTORS
330
17BFB
102
}
330
17BFB
100
AcDbScale
 70
     0
300
1/128" = 1'-0"
140
0.0078125
141
12.0
290
     0
  0
SCALE
  5
17C0E
102
{ACAD_REACTORS
330
17BFB
102
}
330
17BFB
100
AcDbScale
 70
     0
300
1/64" = 1'-0"
140
0.015625
141
12.0
290
     0
  0
SCALE
  5
17C0F
102
{ACAD_REACTORS
330
17BFB
102
}
330
17BFB
100
AcDbScale
 70
     0
300
1/32" = 1'-0"
140
0.03125
141
12.0
290
     0
  0
SCALE
  5
17C10
102
{ACAD_REACTORS
330
17BFB
102
}
330
17BFB
100
AcDbScale
 70
     0
300
1/16" = 1'-0"
140
0.0625
141
12.0
290
     0
  0
SCALE
  5
17C11
102
{ACAD_REACTORS
330
17BFB
102
}
330
17BFB
100
AcDbScale
 70
     0
300
3/32" = 1'-0"
140
0.09375
141
12.0
290
     0
  0
SCALE
  5
17C12
102
{ACAD_REACTORS
330
17BFB
102
}
330
17BFB
100
AcDbScale
 70
     0
300
1/8" = 1'-0"
140
0.125
141
12.0
290
     0
  0
SCALE
  5
17C13
102
{ACAD_REACTORS
330
17BFB
102
}
330
17BFB
100
AcDbScale
 70
     0
300
3/16" = 1'-0"
140
0.1875
141
12.0
290
     0
  0
SCALE
  5
17C14
102
{ACAD_REACTORS
330
17BFB
102
}
330
17BFB
100
AcDbScale
 70
     0
300
1/4" = 1'-0"
140
0.25
141
12.0
290
     0
  0
SCALE
  5
17C15
102
{ACAD_REACTORS
330
17BFB
102
}
330
17BFB
100
AcDbScale
 70
     0
300
3/8" = 1'-0"
140
0.375
141
12.0
290
     0
  0
SCALE
  5
17C16
102
{ACAD_REACTORS
330
17BFB
102
}
330
17BFB
100
AcDbScale
 70
     0
300
1/2" = 1'-0"
140
0.5
141
12.0
290
     0
  0
SCALE
  5
17C17
102
{ACAD_REACTORS
330
17BFB
102
}
330
17BFB
100
AcDbScale
 70
     0
300
3/4" = 1'-0"
140
0.75
141
12.0
290
     0
  0
SCALE
  5
17C18
102
{ACAD_REACTORS
330
17BFB
102
}
330
17BFB
100
AcDbScale
 70
     0
300
1" = 1'-0"
140
1.0
141
12.0
290
     0
  0
SCALE
  5
17C19
102
{ACAD_REACTORS
330
17BFB
102
}
330
17BFB
100
AcDbScale
 70
     0
300
1-1/2" = 1'-0"
140
1.5
141
12.0
290
     0
  0
SCALE
  5
17C1A
102
{ACAD_REACTORS
330
17BFB
102
}
330
17BFB
100
AcDbScale
 70
     0
300
3" = 1'-0"
140
3.0
141
12.0
290
     0
  0
SCALE
  5
17C1B
102
{ACAD_REACTORS
330
17BFB
102
}
330
17BFB
100
AcDbScale
 70
     0
300
6" = 1'-0"
140
6.0
141
12.0
290
     0
  0
SCALE
  5
17C1C
102
{ACAD_REACTORS
330
17BFB
102
}
330
17BFB
100
AcDbScale
 70
     0
300
1'-0" = 1'-0"
140
12.0
141
12.0
290
     0
  0
TABLESTYLE
  5
17C97
102
{ACAD_XDICTIONARY
360
17CA9
102
}
102
{ACAD_REACTORS
330
17C96
102
}
330
17C96
100
AcDbTableStyle
  3
Standard
 70
     0
 71
     0
 40
1.5
 41
1.5
280
     0
281
     0
  7
STANDARD
140
4.5
170
     2
 62
     0
 63
     7
283
     0
274
    -2
284
     1
 64
     0
275
    -2
285
     1
 65
     0
276
    -2
286
     1
 66
     0
277
    -2
287
     1
 67
     0
278
    -2
288
     1
 68
     0
279
    -2
289
     1
 69
     0
  7
STANDARD
140
6.0
170
     5
 62
     0
 63
     7
283
     0
274
    -2
284
     1
 64
     0
275
    -2
285
     1
 65
     0
276
    -2
286
     1
 66
     0
277
    -2
287
     1
 67
     0
278
    -2
288
     1
 68
     0
279
    -2
289
     1
 69
     0
  7
STANDARD
140
4.5
170
     5
 62
     0
 63
     7
283
     0
274
    -2
284
     1
 64
     0
275
    -2
285
     1
 65
     0
276
    -2
286
     1
 66
     0
277
    -2
287
     1
 67
     0
278
    -2
288
     1
 68
     0
279
    -2
289
     1
 69
     0
  0
VISUALSTYLE
  5
17C8A
102
{ACAD_REACTORS
330
17C84
102
}
330
17C84
100
AcDbVisualStyle
  2
2dWireframe
 70
     4
 71
     0
 72
     2
 73
     0
 90
        0
 40
-0.6
 41
-30.0
 62
     5
 63
     7
 74
     1
 91
        4
 64
     7
 65
   257
 75
     1
175
     1
 42
1.0
 92
        0
 66
   257
 43
1.0
 76
     1
 77
     6
 78
     2
 67
     7
 79
     5
170
     0
171
     0
290
     0
174
     0
 93
        1
 44
0.0
173
     0
291
     0
 45
0.0
1001
ACAD
1000
AcDbSavedByObjectVersion
1070
     0
1000
AcDbSavedByObjectVersion
1070
     0
  0
VISUALSTYLE
  5
17C8C
102
{ACAD_REACTORS
330
17C84
102
}
330
17C84
100
AcDbVisualStyle
  2
3D Hidden
 70
     6
 71
     1
 72
     2
 73
     2
 90
        0
 40
-0.6
 41
-30.0
 62
     5
 63
     7
 74
     2
 91
        2
 64
     7
 65
   257
 75
     2
175
     1
 42
40.0
 92
        0
 66
   257
 43
1.0
 76
     1
 77
     6
 78
     2
 67
     7
 79
     3
170
     0
171
     0
290
     0
174
     0
 93
        1
 44
0.0
173
     0
291
     0
 45
0.0
1001
ACAD
1000
AcDbSavedByObjectVersion
1070
     0
1000
AcDbSavedByObjectVersion
1070
     0
  0
VISUALSTYLE
  5
17C8B
102
{ACAD_REACTORS
330
17C84
102
}
330
17C84
100
AcDbVisualStyle
  2
3dWireframe
 70
     5
 71
     0
 72
     2
 73
     0
 90
        0
 40
-0.6
 41
-30.0
 62
     5
 63
     7
 74
     1
 91
        4
 64
     7
 65
   257
 75
     1
175
     1
 42
1.0
 92
        0
 66
   257
 43
1.0
 76
     1
 77
     6
 78
     2
 67
     7
 79
     5
170
     0
171
     0
290
     0
174
     0
 93
        1
 44
0.0
173
     0
291
     0
 45
0.0
1001
ACAD
1000
AcDbSavedByObjectVersion
1070
     0
1000
AcDbSavedByObjectVersion
1070
     0
  0
VISUALSTYLE
  5
17C89
102
{ACAD_REACTORS
330
17C84
102
}
330
17C84
100
AcDbVisualStyle
  2
Basic
 70
     7
 71
     1
 72
     0
 73
     1
 90
        0
 40
-0.6
 41
-30.0
 62
     5
 63
     7
 74
     0
 91
        4
 64
     7
 65
   257
 75
     1
175
     1
 42
1.0
 92
        8
 66
     7
 43
1.0
 76
     1
 77
     6
 78
     2
 67
     7
 79
     5
170
     0
171
     0
290
     0
174
     0
 93
        1
 44
0.0
173
     0
291
     1
 45
0.0
1001
ACAD
1000
AcDbSavedByObjectVersion
1070
     0
1000
AcDbSavedByObjectVersion
1070
     0
  0
VISUALSTYLE
  5
17C90
102
{ACAD_REACTORS
330
17C84
102
}
330
17C84
100
AcDbVisualStyle
  2
Brighten
 70
    12
 71
     2
 72
     2
 73
     0
 90
        0
 40
-0.6
 41
-30.0
 62
     5
 63
     7
 74
     1
 91
        4
 64
     7
 65
   257
 75
     1
175
     1
 42
1.0
 92
        8
 66
     7
 43
1.0
 76
     1
 77
     6
 78
     2
 67
     7
 79
     5
170
     0
171
     0
290
     0
174
     0
 93
        1
 44
50.0
173
     0
291
     1
 45
0.0
1001
ACAD
1000
AcDbSavedByObjectVersion
1070
     0
1000
AcDbSavedByObjectVersion
1070
     0
  0
VISUALSTYLE
  5
17C94
102
{ACAD_REACTORS
330
17C84
102
}
330
17C84
100
AcDbVisualStyle
  2
ColorChange
 70
    16
 71
     2
 72
     2
 73
     3
 90
        0
 40
-0.6
 41
-30.0
 62
     5
 63
     8
 74
     1
 91
        4
 64
     7
 65
   257
 75
     1
175
     1
 42
1.0
 92
        8
 66
     8
 43
1.0
 76
     1
 77
     6
 78
     2
 67
     7
 79
     5
170
     0
171
     0
290
     0
174
     0
 93
        1
 44
0.0
173
     0
291
     1
 45
0.0
1001
ACAD
1000
AcDbSavedByObjectVersion
1070
     0
1000
AcDbSavedByObjectVersion
1070
     0
  0
VISUALSTYLE
  5
17C8D
102
{ACAD_REACTORS
330
17C84
102
}
330
17C84
100
AcDbVisualStyle
  2
Conceptual
 70
     9
 71
     3
 72
     2
 73
     0
 90
        0
 40
-0.6
 41
-30.0
 62
     5
 63
     7
 74
     2
 91
        2
 64
     7
 65
   257
 75
     1
175
     1
 42
40.0
 92
        8
 66
     7
 43
1.0
 76
     1
 77
     6
 78
     2
 67
     7
 79
     3
170
     0
171
     0
290
     0
174
     0
 93
        1
 44
0.0
173
     0
291
     0
 45
0.0
1001
ACAD
1000
AcDbSavedByObjectVersion
1070
     0
1000
AcDbSavedByObjectVersion
1070
     0
  0
VISUALSTYLE
  5
17C8F
102
{ACAD_REACTORS
330
17C84
102
}
330
17C84
100
AcDbVisualStyle
  2
Dim
 70
    11
 71
     2
 72
     2
 73
     0
 90
        0
 40
-0.6
 41
-30.0
 62
     5
 63
     7
 74
     1
 91
        4
 64
     7
 65
   257
 75
     1
175
     1
 42
1.0
 92
        8
 66
     7
 43
1.0
 76
     1
 77
     6
 78
     2
 67
     7
 79
     5
170
     0
171
     0
290
     0
174
     0
 93
        1
 44
-50.0
173
     0
291
     1
 45
0.0
1001
ACAD
1000
AcDbSavedByObjectVersion
1070
     0
1000
AcDbSavedByObjectVersion
1070
     0
  0
VISUALSTYLE
  5
17C93
102
{ACAD_REACTORS
330
17C84
102
}
330
17C84
100
AcDbVisualStyle
  2
Facepattern
 70
    15
 71
     2
 72
     2
 73
     0
 90
        0
 40
-0.6
 41
-30.0
 62
     5
 63
     7
 74
     1
 91
        4
 64
     7
 65
   257
 75
     1
175
     1
 42
1.0
 92
        8
 66
     7
 43
1.0
 76
     1
 77
     6
 78
     2
 67
     7
 79
     5
170
     0
171
     0
290
     0
174
     0
 93
        1
 44
0.0
173
     0
291
     1
 45
0.0
1001
ACAD
1000
AcDbSavedByObjectVersion
1070
     0
1000
AcDbSavedByObjectVersion
1070
     0
  0
VISUALSTYLE
  5
17C85
102
{ACAD_REACTORS
330
17C84
102
}
330
17C84
100
AcDbVisualStyle
  2
Flat
 70
     0
 71
     2
 72
     1
 73
     1
 90
        2
 40
-0.6
 41
30.0
 62
     5
 63
     7
 74
     0
 91
        4
 64
     7
 65
   257
 75
     1
175
     1
 42
1.0
 92
        8
 66
     7
 43
1.0
 76
     1
 77
     6
 78
     2
 67
     7
 79
     5
170
     0
171
     0
290
     0
174
     0
 93
       13
 44
0.0
173
     0
291
     1
 45
0.0
1001
ACAD
1000
AcDbSavedByObjectVersion
1070
     0
1000
AcDbSavedByObjectVersion
1070
     0
  0
VISUALSTYLE
  5
17C86
102
{ACAD_REACTORS
330
17C84
102
}
330
17C84
100
AcDbVisualStyle
  2
FlatWithEdges
 70
     1
 71
     2
 72
     1
 73
     1
 90
        2
 40
-0.6
 41
30.0
 62
     5
 63
     7
 74
     1
 91
        4
 64
     7
 65
   257
 75
     1
175
     1
 42
1.0
 92
        0
 66
   257
 43
1.0
 76
     1
 77
     6
 78
     2
 67
     7
 79
     5
170
     0
171
     0
290
     0
174
     0
 93
       13
 44
0.0
173
     0
291
     1
 45
0.0
1001
ACAD
1000
AcDbSavedByObjectVersion
1070
     0
1000
AcDbSavedByObjectVersion
1070
     0
  0
VISUALSTYLE
  5
17C87
102
{ACAD_REACTORS
330
17C84
102
}
330
17C84
100
AcDbVisualStyle
  2
Gouraud
 70
     2
 71
     2
 72
     2
 73
     1
 90
        2
 40
-0.6
 41
30.0
 62
     5
 63
     7
 74
     0
 91
        4
 64
     7
 65
   257
 75
     1
175
     1
 42
1.0
 92
        0
 66
     7
 43
1.0
 76
     1
 77
     6
 78
     2
 67
     7
 79
     5
170
     0
171
     0
290
     0
174
     0
 93
       13
 44
0.0
173
     0
291
     1
 45
0.0
1001
ACAD
1000
AcDbSavedByObjectVersion
1070
     0
1000
AcDbSavedByObjectVersion
1070
     0
  0
VISUALSTYLE
  5
17C88
102
{ACAD_REACTORS
330
17C84
102
}
330
17C84
100
AcDbVisualStyle
  2
GouraudWithEdges
 70
     3
 71
     2
 72
     2
 73
     1
 90
        2
 40
-0.6
 41
30.0
 62
     5
 63
     7
 74
     1
 91
        4
 64
     7
 65
   257
 75
     1
175
     1
 42
1.0
 92
        0
 66
   257
 43
1.0
 76
     1
 77
     6
 78
     2
 67
     7
 79
     5
170
     0
171
     0
290
     0
174
     0
 93
       13
 44
0.0
173
     0
291
     1
 45
0.0
1001
ACAD
1000
AcDbSavedByObjectVersion
1070
     0
1000
AcDbSavedByObjectVersion
1070
     0
  0
VISUALSTYLE
  5
17C92
102
{ACAD_REACTORS
330
17C84
102
}
330
17C84
100
AcDbVisualStyle
  2
Linepattern
 70
    14
 71
     2
 72
     2
 73
     0
 90
        0
 40
-0.6
 41
-30.0
 62
     5
 63
     7
 74
     1
 91
        4
 64
     7
 65
   257
 75
     7
175
     7
 42
1.0
 92
        8
 66
     7
 43
1.0
 76
     1
 77
     6
 78
     2
 67
     7
 79
     5
170
     0
171
     0
290
     0
174
     0
 93
        1
 44
0.0
173
     0
291
     1
 45
0.0
1001
ACAD
1000
AcDbSavedByObjectVersion
1070
     0
1000
AcDbSavedByObjectVersion
1070
     0
  0
VISUALSTYLE
  5
17C8E
102
{ACAD_REACTORS
330
17C84
102
}
330
17C84
100
AcDbVisualStyle
  2
Realistic
 70
     8
 71
     2
 72
     2
 73
     0
 90
        0
 40
-0.6
 41
-30.0
 62
     5
 63
     7
 74
     1
 91
        0
 64
     7
 65
   257
 75
     1
175
     1
 42
1.0
 92
        8
 66
     8
 43
1.0
 76
     1
 77
     6
 78
     2
 67
     7
 79
     5
170
     0
171
     0
290
     0
174
     0
 93
       13
 44
0.0
173
     0
291
     0
 45
0.0
1001
ACAD
1000
AcDbSavedByObjectVersion
1070
     0
1000
AcDbSavedByObjectVersion
1070
     0
  0
VISUALSTYLE
  5
17C91
102
{ACAD_REACTORS
330
17C84
102
}
330
17C84
100
AcDbVisualStyle
  2
Thicken
 70
    13
 71
     2
 72
     2
 73
     0
 90
        0
 40
-0.6
 41
-30.0
 62
     5
 63
     7
 74
     1
 91
        4
 64
     7
 65
   257
 75
     1
175
     1
 42
1.0
 92
       12
 66
     7
 43
1.0
 76
     1
 77
     6
 78
     2
 67
     7
 79
     5
170
     0
171
     0
290
     0
174
     0
 93
        1
 44
0.0
173
     0
291
     1
 45
0.0
1001
ACAD
1000
AcDbSavedByObjectVersion
1070
     0
1000
AcDbSavedByObjectVersion
1070
     0
  0
DICTIONARYVAR
  5
17C66
102
{ACAD_REACTORS
330
1237
102
}
330
1237
100
DictionaryVariables
280
     0
  1
1:1
  0
DICTIONARYVAR
  5
17CA7
102
{ACAD_REACTORS
330
1237
102
}
330
1237
100
DictionaryVariables
280
     0
  1
STANDARD
  0
DICTIONARYVAR
  5
17CA6
102
{ACAD_REACTORS
330
1237
102
}
330
1237
100
DictionaryVariables
280
     0
  1
STANDARD
  0
DICTIONARYVAR
  5
17BF3
102
{ACAD_REACTORS
330
1237
102
}
330
1237
100
DictionaryVariables
280
     0
  1
1
  0
DICTIONARYVAR
  5
17CA8
102
{ACAD_REACTORS
330
1237
102
}
330
1237
100
DictionaryVariables
280
     0
  1
0
  0
DICTIONARYVAR
  5
17BF4
102
{ACAD_REACTORS
330
1237
102
}
330
1237
100
DictionaryVariables
280
     0
  1

  0
DICTIONARYVAR
  5
1238
102
{ACAD_REACTORS
330
1237
102
}
330
1237
100
DictionaryVariables
280
     0
  1
96
  0
DICTIONARY
  5
17645
102
{ACAD_REACTORS
330
1763A
102
}
330
1763A
100
AcDbDictionary
281
     1
  0
XRECORD
  5
17662
102
{ACAD_REACTORS
330
1763A
102
}
330
1763A
100
AcDbXrecord
280
     1
 90
-1023410169
  0
XRECORD
  5
17C25
102
{ACAD_REACTORS
330
176A6
102
}
330
176A6
100
AcDbXrecord
280
     1
 91
     1023
301

290
     0
302
1
330
F
 90
        8
 62
     2
370
    -3
331
14
  1
Color_2
330
30
 90
        0
 62
     7
370
    -3
331
14
  1
Color_7
330
526
 90
        8
 62
     3
370
    -3
331
14
  1
Color_3
330
138F
 90
        8
 62
     1
370
    -3
331
C0D
  1
Color_1
330
1390
 90
        8
 62
     7
370
    -3
331
14
  1
Color_7
330
0
 90
        8
 62
     3
370
    -3
331
14
  1
Color_3
330
0
 90
        8
 62
     2
370
    -3
331
14
  1
Color_2
330
0
 90
        8
 62
     1
370
    -3
331
14
  1
Color_1
  0
XRECORD
  5
17C26
102
{ACAD_REACTORS
330
176A6
102
}
330
176A6
100
AcDbXrecord
280
     1
 91
     1023
301

290
     0
302
1
330
F
 90
        8
 62
     2
370
    -3
331
14
  1
Color_2
330
30
 90
        0
 62
     7
370
    -3
331
14
  1
Color_7
330
526
 90
        8
 62
     3
370
    -3
331
14
  1
Color_3
330
138F
 90
        8
 62
     1
370
    -3
331
C0D
  1
Color_1
330
1390
 90
        9
 62
     7
370
    -3
331
14
  1
Color_7
330
0
 90
        8
 62
     3
370
    -3
331
14
  1
Color_3
330
0
 90
        8
 62
     2
370
    -3
331
14
  1
Color_2
330
0
 90
        8
 62
     1
370
    -3
331
14
  1
Color_1
  0
XRECORD
  5
17C27
102
{ACAD_REACTORS
330
176A6
102
}
330
176A6
100
AcDbXrecord
280
     1
 91
     1023
301

290
     0
302
1
330
F
 90
        8
 62
     2
370
    -3
331
14
  1
Color_2
330
30
 90
        0
 62
     7
370
    -3
331
14
  1
Color_7
330
526
 90
        9
 62
     3
370
    -3
331
14
  1
Color_3
330
138F
 90
        8
 62
     1
370
    -3
331
C0D
  1
Color_1
330
1390
 90
        9
 62
     7
370
    -3
331
14
  1
Color_7
330
0
 90
        8
 62
     3
370
    -3
331
14
  1
Color_3
330
0
 90
        8
 62
     2
370
    -3
331
14
  1
Color_2
330
0
 90
        8
 62
     1
370
    -3
331
14
  1
Color_1
  0
XRECORD
  5
17C28
102
{ACAD_REACTORS
330
176A6
102
}
330
176A6
100
AcDbXrecord
280
     1
 91
     1023
301

290
     0
302
1
330
F
 90
        8
 62
     2
370
    -3
331
14
  1
Color_2
330
30
 90
        0
 62
     7
370
    -3
331
14
  1
Color_7
330
526
 90
        9
 62
     3
370
    -3
331
14
  1
Color_3
330
138F
 90
        9
 62
     1
370
    -3
331
C0D
  1
Color_1
330
1390
 90
        9
 62
     7
370
    -3
331
14
  1
Color_7
330
0
 90
        8
 62
     3
370
    -3
331
14
  1
Color_3
330
0
 90
        8
 62
     2
370
    -3
331
14
  1
Color_2
330
0
 90
        8
 62
     1
370
    -3
331
14
  1
Color_1
  0
XRECORD
  5
17C29
102
{ACAD_REACTORS
330
176A6
102
}
330
176A6
100
AcDbXrecord
280
     1
 91
     1023
301

290
     0
302
1
330
F
 90
        8
 62
     2
370
    -3
331
14
  1
Color_2
330
30
 90
        1
 62
     7
370
    -3
331
14
  1
Color_7
330
526
 90
        9
 62
     3
370
    -3
331
14
  1
Color_3
330
138F
 90
        9
 62
     1
370
    -3
331
C0D
  1
Color_1
330
1390
 90
        9
 62
     7
370
    -3
331
14
  1
Color_7
330
0
 90
        8
 62
     3
370
    -3
331
14
  1
Color_3
330
0
 90
        8
 62
     2
370
    -3
331
14
  1
Color_2
330
0
 90
        8
 62
     1
370
    -3
331
14
  1
Color_1
  0
XRECORD
  5
17C2F
102
{ACAD_REACTORS
330
176A6
102
}
330
176A6
100
AcDbXrecord
280
     1
 91
     1023
301

290
     0
302
1
330
F
 90
        8
 62
     2
370
    -3
331
14
  1
Color_2
330
30
 90
        1
 62
     7
370
    -3
331
14
  1
Color_7
330
526
 90
        9
 62
     1
370
    -3
331
14
  1
Color_1
330
138F
 90
        9
 62
     6
370
    -3
331
C0D
  1
Color_6
330
1390
 90
        9
 62
     7
370
    -3
331
14
  1
Color_7
330
0
 90
        8
 62
     3
370
    -3
331
14
  1
Color_3
330
0
 90
        8
 62
     2
370
    -3
331
14
  1
Color_2
330
0
 90
        8
 62
     1
370
    -3
331
14
  1
Color_1
  0
DICTIONARY
  5
17CBF
330
175DB
100
AcDbDictionary
280
     1
281
     1
  3
ACAD_XREC_ROUNDTRIP
360
17CC0
  0
DICTIONARY
  5
17CC1
330
175DC
100
AcDbDictionary
280
     1
281
     1
  3
ACAD_XREC_ROUNDTRIP
360
17CC2
  0
DICTIONARY
  5
17C75
330
17C74
100
AcDbDictionary
280
     1
281
     1
  3
ACAD_XREC_ROUNDTRIP
360
17CB2
  3
BUMPTILE
360
17C77
  3
DIFFUSETILE
360
17C76
  3
OPACITYTILE
360
17C7A
  3
REFLECTIONTILE
360
17C79
  3
REFRACTIONTILE
360
17C7B
  3
SPECULARTILE
360
17C78
  0
DICTIONARY
  5
17C6D
330
17C6C
100
AcDbDictionary
280
     1
281
     1
  3
ACAD_XREC_ROUNDTRIP
360
17CB1
  3
BUMPTILE
360
17C6F
  3
DIFFUSETILE
360
17C6E
  3
OPACITYTILE
360
17C72
  3
REFLECTIONTILE
360
17C71
  3
REFRACTIONTILE
360
17C73
  3
SPECULARTILE
360
17C70
  0
DICTIONARY
  5
17C7D
330
17C7C
100
AcDbDictionary
280
     1
281
     1
  3
ACAD_XREC_ROUNDTRIP
360
17CB3
  3
BUMPTILE
360
17C7F
  3
DIFFUSETILE
360
17C7E
  3
OPACITYTILE
360
17C82
  3
REFLECTIONTILE
360
17C81
  3
REFRACTIONTILE
360
17C83
  3
SPECULARTILE
360
17C80
  0
DICTIONARY
  5
17CA9
330
17C97
100
AcDbDictionary
280
     1
281
     1
  3
ACAD_ROUNDTRIP_2008_TABLESTYLE_CELLSTYLEMAP
360
17CBD
  3
ACAD_XREC_ROUNDTRIP
360
17CC3
  0
XRECORD
  5
17CC0
102
{ACAD_REACTORS
330
17CBF
102
}
330
17CBF
100
AcDbXrecord
280
     1
102
SHADEPLOT
 70
     0
102
SHADEPLOTRESLEVEL
 70
     2
102
SHADEPLOTCUSTOMDPI
 70
   300
  0
XRECORD
  5
17CC2
102
{ACAD_REACTORS
330
17CC1
102
}
330
17CC1
100
AcDbXrecord
280
     1
102
SHADEPLOT
 70
     0
102
SHADEPLOTRESLEVEL
 70
     2
102
SHADEPLOTCUSTOMDPI
 70
   300
  0
XRECORD
  5
17CB2
102
{ACAD_REACTORS
330
17C75
102
}
330
17C75
100
AcDbXrecord
280
     1
102
MATERIAL
148
0.0
149
0.0
149
0.0
 93
        0
 94
      127
282
     0
 72
     0
 77
     0
171
     0
175
     0
179
     0
273
     0
  0
XRECORD
  5
17C77
102
{ACAD_REACTORS
330
17C75
102
}
330
17C75
100
AcDbXrecord
280
     1
270
     1
271
     1
  0
XRECORD
  5
17C76
102
{ACAD_REACTORS
330
17C75
102
}
330
17C75
100
AcDbXrecord
280
     1
270
     1
271
     1
  0
XRECORD
  5
17C7A
102
{ACAD_REACTORS
330
17C75
102
}
330
17C75
100
AcDbXrecord
280
     1
270
     1
271
     1
  0
XRECORD
  5
17C79
102
{ACAD_REACTORS
330
17C75
102
}
330
17C75
100
AcDbXrecord
280
     1
270
     1
271
     1
  0
XRECORD
  5
17C7B
102
{ACAD_REACTORS
330
17C75
102
}
330
17C75
100
AcDbXrecord
280
     1
270
     1
271
     1
  0
XRECORD
  5
17C78
102
{ACAD_REACTORS
330
17C75
102
}
330
17C75
100
AcDbXrecord
280
     1
270
     1
271
     1
  0
XRECORD
  5
17CB1
102
{ACAD_REACTORS
330
17C6D
102
}
330
17C6D
100
AcDbXrecord
280
     1
102
MATERIAL
148
0.0
149
0.0
149
0.0
 93
        0
 94
      127
282
     0
 72
     0
 77
     0
171
     0
175
     0
179
     0
273
     0
  0
XRECORD
  5
17C6F
102
{ACAD_REACTORS
330
17C6D
102
}
330
17C6D
100
AcDbXrecord
280
     1
270
     1
271
     1
  0
XRECORD
  5
17C6E
102
{ACAD_REACTORS
330
17C6D
102
}
330
17C6D
100
AcDbXrecord
280
     1
270
     1
271
     1
  0
XRECORD
  5
17C72
102
{ACAD_REACTORS
330
17C6D
102
}
330
17C6D
100
AcDbXrecord
280
     1
270
     1
271
     1
  0
XRECORD
  5
17C71
102
{ACAD_REACTORS
330
17C6D
102
}
330
17C6D
100
AcDbXrecord
280
     1
270
     1
271
     1
  0
XRECORD
  5
17C73
102
{ACAD_REACTORS
330
17C6D
102
}
330
17C6D
100
AcDbXrecord
280
     1
270
     1
271
     1
  0
XRECORD
  5
17C70
102
{ACAD_REACTORS
330
17C6D
102
}
330
17C6D
100
AcDbXrecord
280
     1
270
     1
271
     1
  0
XRECORD
  5
17CB3
102
{ACAD_REACTORS
330
17C7D
102
}
330
17C7D
100
AcDbXrecord
280
     1
102
MATERIAL
148
0.0
149
0.0
149
0.0
 93
        0
 94
      127
282
     0
 72
     0
 77
     0
171
     0
175
     0
179
     0
273
     0
  0
XRECORD
  5
17C7F
102
{ACAD_REACTORS
330
17C7D
102
}
330
17C7D
100
AcDbXrecord
280
     1
270
     1
271
     1
  0
XRECORD
  5
17C7E
102
{ACAD_REACTORS
330
17C7D
102
}
330
17C7D
100
AcDbXrecord
280
     1
270
     1
271
     1
  0
XRECORD
  5
17C82
102
{ACAD_REACTORS
330
17C7D
102
}
330
17C7D
100
AcDbXrecord
280
     1
270
     1
271
     1
  0
XRECORD
  5
17C81
102
{ACAD_REACTORS
330
17C7D
102
}
330
17C7D
100
AcDbXrecord
280
     1
270
     1
271
     1
  0
XRECORD
  5
17C83
102
{ACAD_REACTORS
330
17C7D
102
}
330
17C7D
100
AcDbXrecord
280
     1
270
     1
271
     1
  0
XRECORD
  5
17C80
102
{ACAD_REACTORS
330
17C7D
102
}
330
17C7D
100
AcDbXrecord
280
     1
270
     1
271
     1
  0
CELLSTYLEMAP
  5
17CBD
102
{ACAD_REACTORS
330
17CA9
102
}
330
17CA9
100
AcDbCellStyleMap
 90
        3
300
CELLSTYLE
  1
TABLEFORMAT_BEGIN
 90
        5
170
     1
 91
        0
 92
    32768
 62
   257
 93
        1
300
CONTENTFORMAT
  1
CONTENTFORMAT_BEGIN
 90
        0
 91
        0
 92
      512
 93
        0
300

 40
0.0
140
1.0
 94
        5
 62
     0
340
10
144
6.0
309
CONTENTFORMAT_END
171
     1
301
MARGIN
  1
CELLMARGIN_BEGIN
 40
1.5
 40
1.5
 40
1.5
 40
1.5
 40
0.18
 40
0.18
309
CELLMARGIN_END
 94
        6
 95
        1
302
GRIDFORMAT
  1
GRIDFORMAT_BEGIN
 90
        0
 91
        1
 62
     0
 92
       -2
340
0
 93
        0
 40
1.125
309
GRIDFORMAT_END
 95
        2
302
GRIDFORMAT
  1
GRIDFORMAT_BEGIN
 90
        0
 91
        1
 62
     0
 92
       -2
340
0
 93
        0
 40
1.125
309
GRIDFORMAT_END
 95
        4
302
GRIDFORMAT
  1
GRIDFORMAT_BEGIN
 90
        0
 91
        1
 62
     0
 92
       -2
340
0
 93
        0
 40
1.125
309
GRIDFORMAT_END
 95
        8
302
GRIDFORMAT
  1
GRIDFORMAT_BEGIN
 90
        0
 91
        1
 62
     0
 92
       -2
340
0
 93
        0
 40
1.125
309
GRIDFORMAT_END
 95
       16
302
GRIDFORMAT
  1
GRIDFORMAT_BEGIN
 90
        0
 91
        1
 62
     0
 92
       -2
340
0
 93
        0
 40
1.125
309
GRIDFORMAT_END
 95
       32
302
GRIDFORMAT
  1
GRIDFORMAT_BEGIN
 90
        0
 91
        1
 62
     0
 92
       -2
340
0
 93
        0
 40
1.125
309
GRIDFORMAT_END
309
TABLEFORMAT_END
  1
CELLSTYLE_BEGIN
 90
        1
 91
        1
300
_TITLE
309
CELLSTYLE_END
300
CELLSTYLE
  1
TABLEFORMAT_BEGIN
 90
        5
170
     1
 91
        0
 92
        0
 62
   257
 93
        1
300
CONTENTFORMAT
  1
CONTENTFORMAT_BEGIN
 90
        0
 91
        0
 92
      512
 93
        0
300

 40
0.0
140
1.0
 94
        5
 62
     0
340
10
144
4.5
309
CONTENTFORMAT_END
171
     1
301
MARGIN
  1
CELLMARGIN_BEGIN
 40
1.5
 40
1.5
 40
1.5
 40
1.5
 40
0.18
 40
0.18
309
CELLMARGIN_END
 94
        6
 95
        1
302
GRIDFORMAT
  1
GRIDFORMAT_BEGIN
 90
        0
 91
        1
 62
     0
 92
       -2
340
0
 93
        0
 40
1.125
309
GRIDFORMAT_END
 95
        2
302
GRIDFORMAT
  1
GRIDFORMAT_BEGIN
 90
        0
 91
        1
 62
     0
 92
       -2
340
0
 93
        0
 40
1.125
309
GRIDFORMAT_END
 95
        4
302
GRIDFORMAT
  1
GRIDFORMAT_BEGIN
 90
        0
 91
        1
 62
     0
 92
       -2
340
0
 93
        0
 40
1.125
309
GRIDFORMAT_END
 95
        8
302
GRIDFORMAT
  1
GRIDFORMAT_BEGIN
 90
        0
 91
        1
 62
     0
 92
       -2
340
0
 93
        0
 40
1.125
309
GRIDFORMAT_END
 95
       16
302
GRIDFORMAT
  1
GRIDFORMAT_BEGIN
 90
        0
 91
        1
 62
     0
 92
       -2
340
0
 93
        0
 40
1.125
309
GRIDFORMAT_END
 95
       32
302
GRIDFORMAT
  1
GRIDFORMAT_BEGIN
 90
        0
 91
        1
 62
     0
 92
       -2
340
0
 93
        0
 40
1.125
309
GRIDFORMAT_END
309
TABLEFORMAT_END
  1
CELLSTYLE_BEGIN
 90
        2
 91
        1
300
_HEADER
309
CELLSTYLE_END
300
CELLSTYLE
  1
TABLEFORMAT_BEGIN
 90
        5
170
     1
 91
        0
 92
        0
 62
   257
 93
        1
300
CONTENTFORMAT
  1
CONTENTFORMAT_BEGIN
 90
        0
 91
        0
 92
      512
 93
        0
300

 40
0.0
140
1.0
 94
        2
 62
     0
340
10
144
4.5
309
CONTENTFORMAT_END
171
     1
301
MARGIN
  1
CELLMARGIN_BEGIN
 40
1.5
 40
1.5
 40
1.5
 40
1.5
 40
0.18
 40
0.18
309
CELLMARGIN_END
 94
        6
 95
        1
302
GRIDFORMAT
  1
GRIDFORMAT_BEGIN
 90
        0
 91
        1
 62
     0
 92
       -2
340
0
 93
        0
 40
1.125
309
GRIDFORMAT_END
 95
        2
302
GRIDFORMAT
  1
GRIDFORMAT_BEGIN
 90
        0
 91
        1
 62
     0
 92
       -2
340
0
 93
        0
 40
1.125
309
GRIDFORMAT_END
 95
        4
302
GRIDFORMAT
  1
GRIDFORMAT_BEGIN
 90
        0
 91
        1
 62
     0
 92
       -2
340
0
 93
        0
 40
1.125
309
GRIDFORMAT_END
 95
        8
302
GRIDFORMAT
  1
GRIDFORMAT_BEGIN
 90
        0
 91
        1
 62
     0
 92
       -2
340
0
 93
        0
 40
1.125
309
GRIDFORMAT_END
 95
       16
302
GRIDFORMAT
  1
GRIDFORMAT_BEGIN
 90
        0
 91
        1
 62
     0
 92
       -2
340
0
 93
        0
 40
1.125
309
GRIDFORMAT_END
 95
       32
302
GRIDFORMAT
  1
GRIDFORMAT_BEGIN
 90
        0
 91
        1
 62
     0
 92
       -2
340
0
 93
        0
 40
1.125
309
GRIDFORMAT_END
309
TABLEFORMAT_END
  1
CELLSTYLE_BEGIN
 90
        3
 91
        2
300
_DATA
309
CELLSTYLE_END
  0
XRECORD
  5
17CC3
102
{ACAD_REACTORS
330
17CA9
102
}
330
17CA9
100
AcDbXrecord
280
     1
102
ACAD_ROUNDTRIP_PRE2007_TABLESTYLE
 90
      512
 91
        0
  1

 92
      512
 93
        0
  2

 94
      512
 95
        0
  3

  0
ENDSEC
  0
EOF
