  0
SECTION
  2
HEADER
  9
$ACADVER
  1
AC1015
  9
$ACADMAINTVER
 70
    20
  9
$DWGCODEPAGE
  3
ANSI_932
  9
$INSBASE
 10
0.0
 20
0.0
 30
0.0
  9
$EXTMIN
 10
-1003.809270601764
 20
-386.2987939088473
 30
-0.0000000000112498
  9
$EXTMAX
 10
-744.0677696653478
 20
-197.1568331766041
 30
0.0000000000002956
  9
$LIMMIN
 10
0.0
 20
0.0
  9
$LIMMAX
 10
420.0
 20
297.0
  9
$ORTHOMODE
 70
     1
  9
$REGENMODE
 70
     1
  9
$FILLMODE
 70
     1
  9
$QTEXTMODE
 70
     0
  9
$MIRRTEXT
 70
     0
  9
$LTSCALE
 40
1.0
  9
$ATTMODE
 70
     1
  9
$TEXTSIZE
 40
3.5
  9
$TRACEWID
 40
1.0
  9
$TEXTSTYLE
  7
BIGFONT
  9
$CLAYER
  8
1
  9
$CELTYPE
  6
BYLAYER
  9
$CECOLOR
 62
   256
  9
$CELTSCALE
 40
1.0
  9
$DISPSILH
 70
     0
  9
$DIMSCALE
 40
1.0
  9
$DIMASZ
 40
2.5
  9
$DIMEXO
 40
0.0625
  9
$DIMDLI
 40
0.38
  9
$DIMRND
 40
0.0
  9
$DIMDLE
 40
0.0
  9
$DIMEXE
 40
0.18
  9
$DIMTP
 40
0.0
  9
$DIMTM
 40
0.0
  9
$DIMTXT
 40
3.0
  9
$DIMCEN
 40
-1.0
  9
$DIMTSZ
 40
0.0
  9
$DIMTOL
 70
     0
  9
$DIMLIM
 70
     0
  9
$DIMTIH
 70
     0
  9
$DIMTOH
 70
     0
  9
$DIMSE1
 70
     0
  9
$DIMSE2
 70
     0
  9
$DIMTAD
 70
     1
  9
$DIMZIN
 70
    12
  9
$DIMBLK
  1

  9
$DIMASO
 70
     1
  9
$DIMSHO
 70
     1
  9
$DIMPOST
  1

  9
$DIMAPOST
  1

  9
$DIMALT
 70
     0
  9
$DIMALTD
 70
     2
  9
$DIMALTF
 40
25.4
  9
$DIMLFAC
 40
1.0
  9
$DIMTOFL
 70
     1
  9
$DIMTVP
 40
0.0
  9
$DIMTIX
 70
     0
  9
$DIMSOXD
 70
     0
  9
$DIMSAH
 70
     0
  9
$DIMBLK1
  1

  9
$DIMBLK2
  1

  9
$DIMSTYLE
  2
STANDARD
  9
$DIMCLRD
 70
     0
  9
$DIMCLRE
 70
     0
  9
$DIMCLRT
 70
     0
  9
$DIMTFAC
 40
1.0
  9
$DIMGAP
 40
1.0
  9
$DIMJUST
 70
     0
  9
$DIMSD1
 70
     0
  9
$DIMSD2
 70
     0
  9
$DIMTOLJ
 70
     1
  9
$DIMTZIN
 70
    12
  9
$DIMALTZ
 70
     0
  9
$DIMALTTZ
 70
     0
  9
$DIMUPT
 70
     0
  9
$DIMDEC
 70
     2
  9
$DIMTDEC
 70
     2
  9
$DIMALTU
 70
     2
  9
$DIMALTTD
 70
     2
  9
$DIMTXSTY
  7
BIGFONT
  9
$DIMAUNIT
 70
     0
  9
$DIMADEC
 70
     0
  9
$DIMALTRND
 40
0.0
  9
$DIMAZIN
 70
     0
  9
$DIMDSEP
 70
    46
  9
$DIMATFIT
 70
     3
  9
$DIMFRAC
 70
     0
  9
$DIMLDRBLK
  1

  9
$DIMLUNIT
 70
     2
  9
$DIMLWD
 70
    -2
  9
$DIMLWE
 70
    -2
  9
$DIMTMOVE
 70
     0
  9
$LUNITS
 70
     2
  9
$LUPREC
 70
     2
  9
$SKETCHINC
 40
1.0
  9
$FILLETRAD
 40
0.0
  9
$AUNITS
 70
     0
  9
$AUPREC
 70
     0
  9
$MENU
  1
acad
  9
$ELEVATION
 40
0.0
  9
$PELEVATION
 40
0.0
  9
$THICKNESS
 40
0.0
  9
$LIMCHECK
 70
     0
  9
$CHAMFERA
 40
1.0
  9
$CHAMFERB
 40
1.0
  9
$CHAMFERC
 40
0.0
  9
$CHAMFERD
 40
0.0
  9
$SKPOLY
 70
     0
  9
$TDCREATE
 40
2452836.755218403
  9
$TDUCREATE
 40
2452836.380218403
  9
$TDUPDATE
 40
2456122.690547153
  9
$TDUUPDATE
 40
2456122.315547153
  9
$TDINDWG
 40
1.4945812500
  9
$TDUSRTIMER
 40
2456006.005773727
  9
$USRTIMER
 70
     1
  9
$ANGBASE
 50
0.0
  9
$ANGDIR
 70
     0
  9
$PDMODE
 70
     0
  9
$PDSIZE
 40
0.0
  9
$PLINEWID
 40
0.0
  9
$SPLFRAME
 70
     0
  9
$SPLINETYPE
 70
     6
  9
$SPLINESEGS
 70
     8
  9
$HANDSEED
  5
17BA6
  9
$SURFTAB1
 70
     6
  9
$SURFTAB2
 70
     6
  9
$SURFTYPE
 70
     6
  9
$SURFU
 70
     6
  9
$SURFV
 70
     6
  9
$UCSBASE
  2

  9
$UCSNAME
  2

  9
$UCSORG
 10
0.0
 20
0.0
 30
0.0
  9
$UCSXDIR
 10
1.0
 20
0.0
 30
0.0
  9
$UCSYDIR
 10
0.0
 20
1.0
 30
0.0
  9
$UCSORTHOREF
  2

  9
$UCSORTHOVIEW
 70
     0
  9
$UCSORGTOP
 10
0.0
 20
0.0
 30
0.0
  9
$UCSORGBOTTOM
 10
0.0
 20
0.0
 30
0.0
  9
$UCSORGLEFT
 10
0.0
 20
0.0
 30
0.0
  9
$UCSORGRIGHT
 10
0.0
 20
0.0
 30
0.0
  9
$UCSORGFRONT
 10
0.0
 20
0.0
 30
0.0
  9
$UCSORGBACK
 10
0.0
 20
0.0
 30
0.0
  9
$PUCSBASE
  2

  9
$PUCSNAME
  2

  9
$PUCSORG
 10
0.0
 20
0.0
 30
0.0
  9
$PUCSXDIR
 10
1.0
 20
0.0
 30
0.0
  9
$PUCSYDIR
 10
0.0
 20
1.0
 30
0.0
  9
$PUCSORTHOREF
  2

  9
$PUCSORTHOVIEW
 70
     0
  9
$PUCSORGTOP
 10
0.0
 20
0.0
 30
0.0
  9
$PUCSORGBOTTOM
 10
0.0
 20
0.0
 30
0.0
  9
$PUCSORGLEFT
 10
0.0
 20
0.0
 30
0.0
  9
$PUCSORGRIGHT
 10
0.0
 20
0.0
 30
0.0
  9
$PUCSORGFRONT
 10
0.0
 20
0.0
 30
0.0
  9
$PUCSORGBACK
 10
0.0
 20
0.0
 30
0.0
  9
$USERI1
 70
     0
  9
$USERI2
 70
     0
  9
$USERI3
 70
     0
  9
$USERI4
 70
     0
  9
$USERI5
 70
     0
  9
$USERR1
 40
0.0
  9
$USERR2
 40
0.0
  9
$USERR3
 40
0.0
  9
$USERR4
 40
0.0
  9
$USERR5
 40
0.0
  9
$WORLDVIEW
 70
     1
  9
$SHADEDGE
 70
     3
  9
$SHADEDIF
 70
    70
  9
$TILEMODE
 70
     1
  9
$MAXACTVP
 70
    16
  9
$PINSBASE
 10
0.0
 20
0.0
 30
0.0
  9
$PLIMCHECK
 70
     0
  9
$PEXTMIN
 10
1.000000000000000E+20
 20
1.000000000000000E+20
 30
1.000000000000000E+20
  9
$PEXTMAX
 10
-1.000000000000000E+20
 20
-1.000000000000000E+20
 30
-1.000000000000000E+20
  9
$PLIMMIN
 10
0.0
 20
0.0
  9
$PLIMMAX
 10
420.0
 20
297.0
  9
$UNITMODE
 70
     0
  9
$VISRETAIN
 70
     0
  9
$PLINEGEN
 70
     0
  9
$PSLTSCALE
 70
     1
  9
$TREEDEPTH
 70
  3020
  9
$CMLSTYLE
  2
STANDARD
  9
$CMLJUST
 70
     0
  9
$CMLSCALE
 40
1.0
  9
$PROXYGRAPHICS
 70
     1
  9
$MEASUREMENT
 70
     1
  9
$CELWEIGHT
370
    -1
  9
$ENDCAPS
280
     0
  9
$JOINSTYLE
280
     0
  9
$LWDISPLAY
290
     0
  9
$INSUNITS
 70
     0
  9
$HYPERLINKBASE
  1

  9
$STYLESHEET
  1
CANON00.CTB
  9
$XEDIT
290
     1
  9
$CEPSNTYPE
380
     0
  9
$PSTYLEMODE
290
     1
  9
$FINGERPRINTGUID
  2
{7545F8F0-0B94-11D4-9EDF-0040266A266F}
  9
$VERSIONGUID
  2
{52C27B11-37BC-4B59-B1C4-D506FECB0C77}
  9
$EXTNAMES
290
     1
  9
$PSVPSCALE
 40
0.0
  9
$OLESTARTUP
290
     0
  0
ENDSEC
  0
SECTION
  2
CLASSES
  0
CLASS
  1
DICTIONARYVAR
  2
AcDbDictionaryVar
  3
ObjectDBX Classes
 90
        0
280
     0
281
     0
  0
CLASS
  1
ACDBDICTIONARYWDFLT
  2
AcDbDictionaryWithDefault
  3
ObjectDBX Classes
 90
        0
280
     0
281
     0
  0
CLASS
  1
ACDBPLACEHOLDER
  2
AcDbPlaceHolder
  3
ObjectDBX Classes
 90
        0
280
     0
281
     0
  0
CLASS
  1
LAYOUT
  2
AcDbLayout
  3
ObjectDBX Classes
 90
        0
280
     0
281
     0
  0
CLASS
  1
TABLESTYLE
  2
AcDbTableStyle
  3
ObjectDBX Classes
 90
     4095
280
     0
281
     0
  0
CLASS
  1
AMGSETTINGSOBJ
  2
AmgSettingsObj
  3
"AcadM|Product Description: AutoCAD Mechanical 2000|Company: Autodesk"
 90
    32768
280
     1
281
     0
  0
CLASS
  1
ACME_DOCUMENT
  2
AcMeDbDoc
  3
AcMeServices
 90
    32768
280
     1
281
     0
  0
CLASS
  1
ACMESCOPE
  2
AcMeScope
  3
AcMeServices
 90
    32768
280
     1
281
     0
  0
CLASS
  1
ACMECOMMANDHISTORY
  2
AcMeCommandHistory
  3
AcMeServices
 90
    32768
280
     1
281
     0
  0
CLASS
  1
ACIMSYSVARMAN
  2
AcImSysVarManager
  3
AcMeServices
 90
    32768
280
     1
281
     0
  0
CLASS
  1
ACIMINTSYSVAR
  2
AcImIntSysVar
  3
AcMeServices
 90
    32768
280
     1
281
     0
  0
CLASS
  1
ACMEDRAWINGMAN
  2
AcMeDrawingMan
  3
AcMeServices
 90
    32768
280
     1
281
     0
  0
CLASS
  1
ACMEVIEW
  2
AcMeView
  3
AcMeServices
 90
    32768
280
     1
281
     0
  0
CLASS
  1
ACDBENTITYCACHE
  2
AcMeEntityCache
  3
AcMeServices
 90
    32768
280
     1
281
     0
  0
CLASS
  1
GSMANAGER
  2
AcMeGSManager
  3
AcMeServices
 90
    32768
280
     1
281
     0
  0
CLASS
  1
AMDTINTERNALREACTOR
  2
AmdtInternalReactor
  3
AcMeServices
 90
    32768
280
     1
281
     0
  0
CLASS
  1
ACMESTATEMGR
  2
AcMeStateMgr
  3
AcMeServices
 90
    32768
280
     1
281
     0
  0
CLASS
  1
ACGREFMASTER
  2
AcGrefMaster
  3
AcAttribServices
 90
    32768
280
     1
281
     0
  0
CLASS
  1
AM_DRAWING_MGR
  2
AcDmDwgMgr
  3
AcMechDwgViewMgmt
 90
    32768
280
     1
281
     0
  0
CLASS
  1
AM_DWG_DOCUMENT
  2
AcDmDwgDocument
  3
AcMechDwgViewMgmt
 90
    32768
280
     1
281
     0
  0
CLASS
  1
AM_DWG_SHEET
  2
AcDmSheet
  3
AcMechDwgViewMgmt
 90
    32768
280
     1
281
     0
  0
CLASS
  1
AM_VIEWDIMPARMAP
  2
AcDmViewDimParMap
  3
AcMechDwgViewMgmt
 90
    32768
280
     1
281
     0
  0
CLASS
  1
ACIMREALSYSVAR
  2
AcImRealSysVar
  3
AcMeServices
 90
    32768
280
     1
281
     0
  0
CLASS
  1
AM_DWGMGR_NAME
  2
AcDmDwgMgrName
  3
AcMechDwgViewMgmt
 90
    32768
280
     1
281
     0
  0
CLASS
  1
ACME_DATABASE
  2
AcMeDbDatabase
  3
AcMeServices
 90
    32768
280
     1
281
     0
  0
CLASS
  1
ACRFINSADJUSTERMGR
  2
AcRfInsAdjusterMgr
  3
AcMeServices
 90
    32768
280
     1
281
     0
  0
CLASS
  1
ACGREFACADMASTER
  2
AcGrefacadMaster
  3
AcGrefServices
 90
    32768
280
     1
281
     0
  0
CLASS
  1
AMDTMENUSTATEMGR
  2
AmdtMenuStateMgr
  3
McadcomServices
 90
    32768
280
     1
281
     0
  0
CLASS
  1
AMDTMCOMMENUSTATE
  2
AmdtMcomMenuState
  3
McadcomServices
 90
    32768
280
     1
281
     0
  0
CLASS
  1
AMIMASTER
  2
AmiMaster
  3
AmiServices
 90
    32768
280
     1
281
     0
  0
CLASS
  1
MAPIAMMOUDLE
  2
MApiAmModule
  3
MApiAmServices
 90
    32768
280
     1
281
     0
  0
CLASS
  1
ACIMSTRSYSVAR
  2
AcImStrSysVar
  3
AcMeServices
 90
    32768
280
     1
281
     0
  0
CLASS
  1
AMDTADMENUSTATE
  2
AmdtAdMenuState
  3
DesignerServices
 90
    32768
280
     1
281
     0
  0
CLASS
  1
ADAPPL
  2
AcAdAppl
  3
DesignerServices
 90
    32768
280
     1
281
     0
  0
CLASS
  1
DEPMGR
  2
AcAdDepMgr
  3
DesignerServices
 90
    32768
280
     1
281
     0
  0
CLASS
  1
PARAMMGR
  2
AcAdParamMgr
  3
DesignerServices
 90
    32768
280
     1
281
     0
  0
CLASS
  1
PARAMSCOPE
  2
AcAdParamScope
  3
DesignerServices
 90
    32768
280
     1
281
     0
  0
CLASS
  1
NAMEDAPPL
  2
AcAdNamedAppl
  3
DesignerServices
 90
    32768
280
     1
281
     0
  0
CLASS
  1
AMDTDMMENUSTATE
  2
AmdtDmMenuState
  3
AcMechDwgViewMgmt
 90
    32768
280
     1
281
     0
  0
CLASS
  1
AMDTAMMENUSTATE
  2
AmdtAmMenuState
  3
DesignerAssemblies
 90
    32768
280
     1
281
     0
  0
CLASS
  1
ACAMPROJECT
  2
AcAmProject
  3
DesignerAssemblies
 90
    32768
280
     1
281
     0
  0
CLASS
  1
ACAMGRCOMPDEF
  2
AcAmGrCompDef
  3
DesignerAssemblies
 90
    32768
280
     1
281
     0
  0
CLASS
  1
ACCMCONTEXT
  2
AcCmContext
  3
DesignerAssemblies
 90
    32768
280
     1
281
     0
  0
CLASS
  1
ACAMCOMPDEF
  2
AcAmCompDef
  3
DesignerAssemblies
 90
    32768
280
     1
281
     0
  0
CLASS
  1
ACAMCOMPDEFMGR
  2
AcAmCompDefMgr
  3
DesignerAssemblies
 90
    32768
280
     1
281
     0
  0
CLASS
  1
AMCONTEXTMGR
  2
AcAmContextMgr
  3
DesignerAssemblies
 90
    32768
280
     1
281
     0
  0
CLASS
  1
ACAMCONTEXTMODELER
  2
AcAmContextModeler
  3
DesignerAssemblies
 90
    32768
280
     1
281
     0
  0
CLASS
  1
ACMDATADICTIONARY
  2
AcmDataDictionary
  3
"AcmSymBB|Product Description: AutoCAD Mechanical 2004 DX|Company: Autodesk"
 90
    32768
280
     1
281
     0
  0
CLASS
  1
CATALOGSTATE
  2
AcAmCatalogState
  3
DesignerAssemblies
 90
    32768
280
     1
281
     0
  0
CLASS
  1
ACAMGRCOMPDEFSET
  2
AcAmGrCompDefSet
  3
DesignerAssemblies
 90
    32768
280
     1
281
     0
  0
CLASS
  1
AMDTBROWSERDBTAB
  2
AmdtBrowserDbTab
  3
McadcomServices
 90
    32768
280
     1
281
     0
  0
CLASS
  1
CBROWSERAPPOBJECT
  2
CBrowserAppObject
  3
McadcomServices
 90
    32768
280
     1
281
     0
  0
CLASS
  1
DM_PLACEHOLDER
  2
AcDmSelsetPlaceholder
  3
AcMechDwgViewMgmt
 90
    32768
280
     1
281
     0
  0
CLASS
  1
ACMSTANDARDISO
  2
AcmStandardISO
  3
"Amdt_StdImp|Product Description: AutoCAD Mechanical 2004 DX|Company: Autodesk"
 90
    32768
280
     1
281
     0
  0
CLASS
  1
AMGOBJPROPCFG
  2
AmgObjPropCfg
  3
"AmgLay|Product Description: AutoCAD Mechanical 2000|Company: Autodesk"
 90
    32769
280
     1
281
     0
  0
CLASS
  1
AMDTEDGESTANDARDISO13715
  2
AmdtEdgeStdISO13715
  3
"Amdt_StdImp|Product Description: AutoCAD Mechanical 2004 DX|Company: Autodesk"
 90
    32768
280
     1
281
     0
  0
CLASS
  1
ACMSURFSTANDARDISO
  2
AcmSurfTextStdISO
  3
"Amdt_StdImp|Product Description: AutoCAD Mechanical 2004 DX|Company: Autodesk"
 90
    32768
280
     1
281
     0
  0
CLASS
  1
ACMFCFSTANDARDISO
  2
AcmFCFStdISO
  3
"Amdt_StdImp|Product Description: AutoCAD Mechanical 2004 DX|Company: Autodesk"
 90
    32768
280
     1
281
     0
  0
CLASS
  1
ACMWELDSTANDARDISO
  2
AcmWeldingStdISO
  3
"Amdt_StdImp|Product Description: AutoCAD Mechanical 2004 DX|Company: Autodesk"
 90
    32768
280
     1
281
     0
  0
CLASS
  1
ACMIDSTANDARDISO
  2
AcmIdStdISO
  3
"Amdt_StdImp|Product Description: AutoCAD Mechanical 2004 DX|Company: Autodesk"
 90
    32768
280
     1
281
     0
  0
CLASS
  1
ACMDATUMSTANDARDISO
  2
AcmDatumStdISO
  3
"Amdt_StdImp|Product Description: AutoCAD Mechanical 2004 DX|Company: Autodesk"
 90
    32768
280
     1
281
     0
  0
CLASS
  1
ACMBOMSTANDARDISO
  2
AcmBOMStdISO
  3
"Amdt_StdImp|Product Description: AutoCAD Mechanical 2004 DX|Company: Autodesk"
 90
    32768
280
     1
281
     0
  0
CLASS
  1
ACMDETAILSTANDARDISO
  2
AmdtDetailSymStdISO
  3
"Amdt_StdImp|Product Description: AutoCAD Mechanical 2004 DX|Company: Autodesk"
 90
    32768
280
     1
281
     0
  0
CLASS
  1
ACMSECTIONSTANDARDISO
  2
AmdtSectionSymStdISO
  3
"Amdt_StdImp|Product Description: AutoCAD Mechanical 2004 DX|Company: Autodesk"
 90
    32768
280
     1
281
     0
  0
CLASS
  1
ACMCENTERLINESTANDARDISO
  2
AmdtCenterLineStdISO
  3
"Amdt_StdImp|Product Description: AutoCAD Mechanical 2004 DX|Company: Autodesk"
 90
    32768
280
     1
281
     0
  0
CLASS
  1
ACMTHREADLINESTANDARDISO
  2
AmdtThreadLineStdISO
  3
"Amdt_StdImp|Product Description: AutoCAD Mechanical 2004 DX|Company: Autodesk"
 90
    32768
280
     1
281
     0
  0
CLASS
  1
ACMNOTESTANDARDISO
  2
AmdtNoteStdISO
  3
"Amdt_StdImp|Product Description: AutoCAD Mechanical 2004 DX|Company: Autodesk"
 90
    32768
280
     1
281
     0
  0
CLASS
  1
AMDTNOTETEMPLATEDB
  2
AmdtNoteTemplateDB
  3
AMDT_STDIMP_MODULE_NAME
 90
    32768
280
     1
281
     0
  0
CLASS
  1
ACAMGLAYSTD
  2
AcAmgLayStd
  3
"AcAmgLayStd|Product Description: AutoCAD Mechanical 2000|Company: Autodesk"
 90
    32768
280
     1
281
     0
  0
CLASS
  1
ACAMGDIMSTD
  2
AcAmgDimStd
  3
"AcAmgDimStd|Product Description: AutoCAD Mechanical 2000|Company: Autodesk"
 90
    32768
280
     1
281
     0
  0
CLASS
  1
ACAMGHOLECHARTSTDISO
  2
AcAmgHoleChartStdISO
  3
ACMSYMBB_MODULE_NAME
 90
    32768
280
     1
281
     0
  0
CLASS
  1
ACAMGTITLESTD
  2
AcAmgTitleStd
  3
"TITLEAPP"
 90
    32768
280
     1
281
     0
  0
CLASS
  1
MATERIAL
  2
AcDbMaterial
  3
ObjectDBX Classes
 90
     1153
280
     0
281
     0
  0
CLASS
  1
SORTENTSTABLE
  2
AcDbSortentsTable
  3
ObjectDBX Classes
 90
    32768
280
     0
281
     0
  0
CLASS
  1
ACMDATAENTRYBLOCK
  2
AcmDataEntryBlock
  3
"AcmSymBB|Product Description: AutoCAD Mechanical 2004 DX|Company: Autodesk"
 90
    32768
280
     1
281
     0
  0
CLASS
  1
ACAMGFILTERDAT
  2
AcAmgFilterDat
  3
"AcadM|Product Description: AutoCAD Mechanical 2000|Company: Autodesk"
 90
    32768
280
     1
281
     0
  0
CLASS
  1
SCALE
  2
AcDbScale
  3
ObjectDBX Classes
 90
     1153
280
     0
281
     0
  0
CLASS
  1
RASTERVARIABLES
  2
AcDbRasterVariables
  3
ISM
 90
        0
280
     0
281
     0
  0
CLASS
  1
CELLSTYLEMAP
  2
AcDbCellStyleMap
  3
ObjectDBX Classes
 90
     1152
280
     0
281
     0
  0
CLASS
  1
VISUALSTYLE
  2
AcDbVisualStyle
  3
ObjectDBX Classes
 90
     4095
280
     0
281
     0
  0
CLASS
  1
MLEADERSTYLE
  2
AcDbMLeaderStyle
  3
ACDB_MLEADERSTYLE_CLASS
 90
     4095
280
     0
281
     0
  0
ENDSEC
  0
SECTION
  2
TABLES
  0
TABLE
  2
VPORT
  5
8
330
0
100
AcDbSymbolTable
 70
     1
  0
VPORT
  5
17A2F
330
8
100
AcDbSymbolTableRecord
100
AcDbViewportTableRecord
  2
*Active
 70
     0
 10
0.0
 20
0.0
 11
1.0
 21
1.0
 12
-873.938520133556
 22
-291.7278135427257
 13
0.0
 23
0.0
 14
1.0
 24
1.0
 15
10.0
 25
10.0
 16
0.0
 26
0.0
 36
1.0
 17
0.0
 27
0.0
 37
0.0
 40
190.5748543741541
 41
1.525916561314791
 42
50.0
 43
0.0
 44
0.0
 50
0.0
 51
0.0
 71
    16
 72
   100
 73
     1
 74
     0
 75
     0
 76
     0
 77
     0
 78
     0
281
     0
 65
     0
110
0.0
120
0.0
130
0.0
111
1.0
121
0.0
131
0.0
112
0.0
122
1.0
132
0.0
 79
     0
146
0.0
  0
ENDTAB
  0
TABLE
  2
LTYPE
  5
5
330
0
100
AcDbSymbolTable
 70
     2
  0
LTYPE
  5
12
330
5
100
AcDbSymbolTableRecord
100
AcDbLinetypeTableRecord
  2
BYBLOCK
 70
     0
  3

 72
    65
 73
     0
 40
0.0
  0
LTYPE
  5
13
330
5
100
AcDbSymbolTableRecord
100
AcDbLinetypeTableRecord
  2
BYLAYER
 70
     0
  3

 72
    65
 73
     0
 40
0.0
  0
LTYPE
  5
14
330
5
100
AcDbSymbolTableRecord
100
AcDbLinetypeTableRecord
  2
CONTINUOUS
 70
     0
  3
Solid line
 72
    65
 73
     0
 40
0.0
  0
LTYPE
  5
C0D
330
5
100
AcDbSymbolTableRecord
100
AcDbLinetypeTableRecord
  2
CENTER2
 70
     0
  3
___ _ ___ _ ___ _ ___ _ ___ _ ___ _ ___ _ ___ _
 72
    65
 73
     4
 40
28.57499999999999
 49
19.05
 74
     0
 49
-3.174999999999998
 74
     0
 49
3.174999999999998
 74
     0
 49
-3.174999999999998
 74
     0
  0
ENDTAB
  0
TABLE
  2
LAYER
  5
2
102
{ACAD_XDICTIONARY
360
176AC
102
}
330
0
100
AcDbSymbolTable
 70
     5
  0
LAYER
  5
F
102
{ACAD_XDICTIONARY
360
17B82
102
}
330
2
100
AcDbSymbolTableRecord
100
AcDbLayerTableRecord
  2
0
 70
     0
 62
     2
  6
CONTINUOUS
370
    -3
390
1C61
  0
LAYER
  5
30
330
2
100
AcDbSymbolTableRecord
100
AcDbLayerTableRecord
  2
DEFPOINTS
 70
     0
 62
     7
  6
CONTINUOUS
290
     0
370
    -3
390
1C61
  0
LAYER
  5
526
102
{ACAD_XDICTIONARY
360
17B84
102
}
330
2
100
AcDbSymbolTableRecord
100
AcDbLayerTableRecord
  2
2
 70
     0
 62
     1
  6
CONTINUOUS
370
    -3
390
1C61
  0
LAYER
  5
138F
102
{ACAD_XDICTIONARY
360
17B86
102
}
330
2
100
AcDbSymbolTableRecord
100
AcDbLayerTableRecord
  2
3
 70
     0
 62
     6
  6
CENTER2
370
    -3
390
1C61
  0
LAYER
  5
1390
102
{ACAD_XDICTIONARY
360
17B88
102
}
330
2
100
AcDbSymbolTableRecord
100
AcDbLayerTableRecord
  2
1
 70
     0
 62
     7
  6
CONTINUOUS
370
    -3
390
1C61
  0
ENDTAB
  0
TABLE
  2
STYLE
  5
3
330
0
100
AcDbSymbolTable
 70
     2
  0
STYLE
  5
10
330
3
100
AcDbSymbolTableRecord
100
AcDbTextStyleTableRecord
  2
STANDARD
 70
     0
 40
0.0
 41
1.0
 50
0.0
 71
     0
 42
3.5
  3
ISOCP.SHX
  4
extfont.shx
  0
STYLE
  5
52A
330
3
100
AcDbSymbolTableRecord
100
AcDbTextStyleTableRecord
  2
BIGFONT
 70
     0
 40
0.0
 41
1.0
 50
0.0
 71
     0
 42
3.5
  3
txt
  4
bigfont
  0
ENDTAB
  0
TABLE
  2
VIEW
  5
6
330
0
100
AcDbSymbolTable
 70
     0
  0
ENDTAB
  0
TABLE
  2
UCS
  5
7
330
0
100
AcDbSymbolTable
 70
     0
  0
ENDTAB
  0
TABLE
  2
APPID
  5
9
330
0
100
AcDbSymbolTable
 70
    16
  0
APPID
  5
11
330
9
100
AcDbSymbolTableRecord
100
AcDbRegAppTableRecord
  2
ACAD
 70
     0
  0
APPID
  5
323
330
9
100
AcDbSymbolTableRecord
100
AcDbRegAppTableRecord
  2
CONTENTTABDATA
 70
     0
  0
APPID
  5
324
330
9
100
AcDbSymbolTableRecord
100
AcDbRegAppTableRecord
  2
CONTENTCURRENTTAB
 70
     0
  0
APPID
  5
175EF
330
9
100
AcDbSymbolTableRecord
100
AcDbRegAppTableRecord
  2
MCAD_NO_VIS
 70
     0
  0
APPID
  5
175F0
330
9
100
AcDbSymbolTableRecord
100
AcDbRegAppTableRecord
  2
ACAD_TEMP_GRAPHIC
 70
     0
  0
APPID
  5
1761D
330
9
100
AcDbSymbolTableRecord
100
AcDbRegAppTableRecord
  2
AD_DRAW
 70
     0
  0
APPID
  5
17620
330
9
100
AcDbSymbolTableRecord
100
AcDbRegAppTableRecord
  2
ACATTRIBSERVICES
 70
     0
  0
APPID
  5
17640
330
9
100
AcDbSymbolTableRecord
100
AcDbRegAppTableRecord
  2
DESIGNERASSEMBLIES
 70
     0
  0
APPID
  5
17646
330
9
100
AcDbSymbolTableRecord
100
AcDbRegAppTableRecord
  2
ACADM_DIM_EDIT
 70
     0
  0
APPID
  5
17647
330
9
100
AcDbSymbolTableRecord
100
AcDbRegAppTableRecord
  2
AMDT_DM_ADJ
 70
     0
  0
APPID
  5
17673
330
9
100
AcDbSymbolTableRecord
100
AcDbRegAppTableRecord
  2
ACAD_DSTYLE_DIMARC_LENGTH_SYMBOL
 70
     0
  0
APPID
  5
17674
330
9
100
AcDbSymbolTableRecord
100
AcDbRegAppTableRecord
  2
ACAD_DSTYLE_DIMJOGGED_JOGANGLE_SYMBOL
 70
     0
  0
APPID
  5
176A6
330
9
100
AcDbSymbolTableRecord
100
AcDbRegAppTableRecord
  2
ACAD_PSEXT
 70
     0
  0
APPID
  5
176A7
330
9
100
AcDbSymbolTableRecord
100
AcDbRegAppTableRecord
  2
GENIUS_GENODEF_13
 70
     0
  0
APPID
  5
176A8
330
9
100
AcDbSymbolTableRecord
100
AcDbRegAppTableRecord
  2
GENIUS_GENOBJ-N-FIL_13
 70
     0
  0
APPID
  5
17B7E
330
9
100
AcDbSymbolTableRecord
100
AcDbRegAppTableRecord
  2
ACAD_MLEADERVER
 70
     0
  0
ENDTAB
  0
TABLE
  2
DIMSTYLE
  5
A
330
0
100
AcDbSymbolTable
 70
     2
100
AcDbDimStyleTable
 71
     1
340
117
  0
DIMSTYLE
105
117
102
{ACAD_REACTORS
330
1784F
330
17B3B
330
17B2E
330
17B1E
102
}
330
A
100
AcDbSymbolTableRecord
100
AcDbDimStyleTableRecord
  2
STANDARD
 70
     0
 41
2.5
 73
     0
 74
     0
 77
     1
 78
    12
140
3.0
141
-1.0
147
1.0
172
     1
271
     2
272
     2
284
    12
340
52A
  0
DIMSTYLE
105
2346
102
{ACAD_REACTORS
330
15C38
330
15C37
330
162B1
330
162AE
330
17A17
102
}
330
A
100
AcDbSymbolTableRecord
100
AcDbDimStyleTableRecord
  2
_1
 70
     0
 40
0.0
 41
3.0
 42
0.0
 47
0.1
 48
0.1
 73
     0
 74
     0
 77
     1
 78
     8
140
3.0
141
-3.0
147
1.0
172
     1
284
     8
340
52A
  0
ENDTAB
  0
TABLE
  2
BLOCK_RECORD
  5
1
330
0
100
AcDbSymbolTable
 70
    11
  0
BLOCK_RECORD
  5
18
330
1
100
AcDbSymbolTableRecord
100
AcDbBlockTableRecord
  2
*MODEL_SPACE
340
175E2
  0
BLOCK_RECORD
  5
15
330
1
100
AcDbSymbolTableRecord
100
AcDbBlockTableRecord
  2
*PAPER_SPACE
340
175E3
  0
BLOCK_RECORD
  5
15D5F
330
1
100
AcDbSymbolTableRecord
100
AcDbBlockTableRecord
  2
*D0
340
0
  0
BLOCK_RECORD
  5
15D6B
330
1
100
AcDbSymbolTableRecord
100
AcDbBlockTableRecord
  2
*D1
340
0
  0
BLOCK_RECORD
  5
162BE
330
1
100
AcDbSymbolTableRecord
100
AcDbBlockTableRecord
  2
*D4
340
0
  0
BLOCK_RECORD
  5
162CA
330
1
100
AcDbSymbolTableRecord
100
AcDbBlockTableRecord
  2
*D5
340
0
  0
BLOCK_RECORD
  5
178E5
330
1
100
AcDbSymbolTableRecord
100
AcDbBlockTableRecord
  2
*D6
340
0
  0
BLOCK_RECORD
  5
17A18
330
1
100
AcDbSymbolTableRecord
100
AcDbBlockTableRecord
  2
*D7
340
0
  0
BLOCK_RECORD
  5
17B22
330
1
100
AcDbSymbolTableRecord
100
AcDbBlockTableRecord
  2
*D8
340
0
  0
BLOCK_RECORD
  5
17B2F
330
1
100
AcDbSymbolTableRecord
100
AcDbBlockTableRecord
  2
*D9
340
0
  0
BLOCK_RECORD
  5
17B3C
330
1
100
AcDbSymbolTableRecord
100
AcDbBlockTableRecord
  2
*D10
340
0
  0
ENDTAB
  0
ENDSEC
  0
SECTION
  2
BLOCKS
  0
BLOCK
  5
44
330
18
100
AcDbEntity
  8
0
100
AcDbBlockBegin
  2
*MODEL_SPACE
 70
     0
 10
0.0
 20
0.0
 30
0.0
  3
*MODEL_SPACE
  1

  0
ENDBLK
  5
45
330
18
100
AcDbEntity
  8
0
100
AcDbBlockEnd
  0
BLOCK
  5
42
330
15
100
AcDbEntity
 67
     1
  8
0
100
AcDbBlockBegin
  2
*PAPER_SPACE
 70
     0
 10
0.0
 20
0.0
 30
0.0
  3
*PAPER_SPACE
  1

  0
ENDBLK
  5
43
330
15
100
AcDbEntity
 67
     1
  8
0
100
AcDbBlockEnd
  0
BLOCK
  5
15D69
330
15D5F
100
AcDbEntity
  8
0
100
AcDbBlockBegin
  2
*D0
 70
     1
 10
0.0
 20
0.0
 30
0.0
  3
*D0
  1

  0
LINE
  5
179C1
330
15D5F
100
AcDbEntity
  8
2
 62
     0
370
    -2
100
AcDbLine
 10
-976.9991421574163
 20
-228.9028820971144
 30
0.0
 11
-986.59758810149
 21
-228.9028820971144
 31
0.0
  0
LINE
  5
179C2
330
15D5F
100
AcDbEntity
  8
2
 62
     0
370
    -2
100
AcDbLine
 10
-976.9991421574163
 20
-370.1028820971144
 30
0.0
 11
-986.5975881014904
 21
-370.1028820971144
 31
0.0
  0
LINE
  5
179C3
330
15D5F
100
AcDbEntity
  8
2
 62
     0
370
    -2
100
AcDbLine
 10
-986.4175881014903
 20
-231.9028820971144
 30
0.0
 11
-986.4175881014903
 21
-367.1028820971145
 31
0.0
  0
SOLID
  5
179C4
330
15D5F
100
AcDbEntity
  8
2
 62
     0
100
AcDbTrace
 10
-986.9175881014903
 20
-231.9028820971144
 30
0.0
 11
-985.9175881014904
 21
-231.9028820971144
 31
0.0
 12
-986.4175881014903
 22
-228.9028820971144
 32
0.0
 13
-986.4175881014903
 23
-228.9028820971144
 33
0.0
  0
SOLID
  5
179C5
330
15D5F
100
AcDbEntity
  8
2
 62
     0
100
AcDbTrace
 10
-986.9175881014903
 20
-367.1028820971145
 30
0.0
 11
-985.9175881014904
 21
-367.1028820971145
 31
0.0
 12
-986.4175881014903
 22
-370.1028820971144
 32
0.0
 13
-986.4175881014903
 23
-370.1028820971144
 33
0.0
  0
MTEXT
  5
179C6
330
15D5F
100
AcDbEntity
  8
2
 62
     0
100
AcDbMText
 10
-989.4175881014902
 20
-299.5028820971146
 30
0.0
 40
3.0
 41
0.0
 71
     5
 72
     1
  1
\A1;Dp %%c141.2
  7
BIGFONT
 11
0.0000000000000001
 21
1.0
 31
0.0
 73
     1
 44
1.0
1001
ACAD
1000
MTEXTBEGIN
1070
    73
1070
     1
1070
    44
1040
1.0
1070
    74
1070
     0
1000
MTEXTEND
  0
POINT
  5
179C7
330
15D5F
100
AcDbEntity
  8
DEFPOINTS
 62
     0
100
AcDbPoint
 10
-976.9991421574163
 20
-228.9028820971144
 30
0.0
  0
POINT
  5
179C8
330
15D5F
100
AcDbEntity
  8
DEFPOINTS
 62
     0
100
AcDbPoint
 10
-976.9991421574163
 20
-370.1028820971144
 30
0.0
  0
POINT
  5
179C9
330
15D5F
100
AcDbEntity
  8
DEFPOINTS
 62
     0
100
AcDbPoint
 10
-986.4175881014903
 20
-370.1028820971144
 30
0.0
  0
ENDBLK
  5
15D6A
330
15D5F
100
AcDbEntity
  8
0
100
AcDbBlockEnd
  0
BLOCK
  5
15D75
330
15D6B
100
AcDbEntity
  8
0
100
AcDbBlockBegin
  2
*D1
 70
     1
 10
0.0
 20
0.0
 30
0.0
  3
*D1
  1

  0
LINE
  5
179CA
330
15D6B
100
AcDbEntity
  8
2
 62
     0
370
    -2
100
AcDbLine
 10
-968.4991421574167
 20
-228.5028820971143
 30
0.0
 11
-995.7084171836966
 21
-228.5028820971143
 31
0.0
  0
LINE
  5
179CB
330
15D6B
100
AcDbEntity
  8
2
 62
     0
370
    -2
100
AcDbLine
 10
-968.4991421574158
 20
-370.5028820971145
 30
0.0
 11
-995.7084171836966
 21
-370.5028820971145
 31
0.0
  0
LINE
  5
179CC
330
15D6B
100
AcDbEntity
  8
2
 62
     0
370
    -2
100
AcDbLine
 10
-995.5284171836964
 20
-231.5028820971143
 30
0.0
 11
-995.5284171836964
 21
-367.5028820971145
 31
0.0
  0
SOLID
  5
179CD
330
15D6B
100
AcDbEntity
  8
2
 62
     0
100
AcDbTrace
 10
-996.0284171836963
 20
-231.5028820971143
 30
0.0
 11
-995.0284171836964
 21
-231.5028820971143
 31
0.0
 12
-995.5284171836964
 22
-228.5028820971143
 32
0.0
 13
-995.5284171836964
 23
-228.5028820971143
 33
0.0
  0
SOLID
  5
179CE
330
15D6B
100
AcDbEntity
  8
2
 62
     0
100
AcDbTrace
 10
-996.0284171836967
 20
-367.5028820971145
 30
0.0
 11
-995.0284171836967
 21
-367.5028820971145
 31
0.0
 12
-995.5284171836964
 22
-370.5028820971145
 32
0.0
 13
-995.5284171836964
 23
-370.5028820971145
 33
0.0
  0
MTEXT
  5
179CF
330
15D6B
100
AcDbEntity
  8
2
 62
     0
100
AcDbMText
 10
-998.0284171836965
 20
-299.5028820971146
 30
0.0
 40
3.0
 41
0.0
 71
     5
 72
     1
  1
\A1;Do %%c142
  7
BIGFONT
 11
0.0000000000000001
 21
1.0
 31
0.0
 73
     1
 44
1.0
1001
ACAD
1000
MTEXTBEGIN
1070
    73
1070
     1
1070
    44
1040
1.0
1070
    74
1070
     0
1000
MTEXTEND
  0
POINT
  5
179D0
330
15D6B
100
AcDbEntity
  8
DEFPOINTS
 62
     0
100
AcDbPoint
 10
-968.4991421574167
 20
-228.5028820971143
 30
0.0
  0
POINT
  5
179D1
330
15D6B
100
AcDbEntity
  8
DEFPOINTS
 62
     0
100
AcDbPoint
 10
-968.4991421574158
 20
-370.5028820971145
 30
0.0
  0
POINT
  5
179D2
330
15D6B
100
AcDbEntity
  8
DEFPOINTS
 62
     0
100
AcDbPoint
 10
-995.5284171836964
 20
-370.5028820971145
 30
0.0
  0
ENDBLK
  5
15D76
330
15D6B
100
AcDbEntity
  8
0
100
AcDbBlockEnd
  0
BLOCK
  5
162C8
330
162BE
100
AcDbEntity
  8
0
100
AcDbBlockBegin
  2
*D4
 70
     1
 10
0.0
 20
0.0
 30
0.0
  3
*D4
  1

  0
LINE
  5
17A0E
330
162BE
100
AcDbEntity
  8
2
 62
     0
370
    -2
100
AcDbLine
 10
-831.6257010143802
 20
-299.5028820971146
 30
0.0
 11
-831.6257010143802
 21
-281.3776008217021
 31
0.0
  0
LINE
  5
17A0F
330
162BE
100
AcDbEntity
  8
2
 62
     0
370
    -2
100
AcDbLine
 10
-803.3257010143803
 20
-295.5028820971147
 30
0.0
 11
-803.3257010143803
 21
-281.3776008217021
 31
0.0
  0
LINE
  5
17A10
330
162BE
100
AcDbEntity
  8
2
 62
     0
370
    -2
100
AcDbLine
 10
-828.6257010143801
 20
-281.5576008217021
 30
0.0
 11
-806.3257010143802
 21
-281.5576008217021
 31
0.0
  0
SOLID
  5
17A11
330
162BE
100
AcDbEntity
  8
2
 62
     0
100
AcDbTrace
 10
-828.6257010143801
 20
-281.0576008217021
 30
0.0
 11
-828.6257010143801
 21
-282.0576008217021
 31
0.0
 12
-831.6257010143802
 22
-281.5576008217021
 32
0.0
 13
-831.6257010143802
 23
-281.5576008217021
 33
0.0
  0
SOLID
  5
17A12
330
162BE
100
AcDbEntity
  8
2
 62
     0
100
AcDbTrace
 10
-806.3257010143802
 20
-282.0576008217021
 30
0.0
 11
-806.3257010143802
 21
-281.0576008217021
 31
0.0
 12
-803.3257010143803
 22
-281.5576008217021
 32
0.0
 13
-803.3257010143803
 23
-281.5576008217021
 33
0.0
  0
MTEXT
  5
17A13
330
162BE
100
AcDbEntity
  8
2
 62
     0
100
AcDbMText
 10
-811.8308254530774
 20
-279.0576008217021
 30
0.0
 40
3.0
 41
0.0
 71
     5
 72
     1
  1
\A1;28.3
  7
BIGFONT
 73
     1
 44
1.0
1001
ACAD
1000
MTEXTBEGIN
1070
    73
1070
     1
1070
    44
1040
1.0
1070
    74
1070
     0
1000
MTEXTEND
  0
POINT
  5
17A14
330
162BE
100
AcDbEntity
  8
DEFPOINTS
 62
     0
100
AcDbPoint
 10
-831.6257010143802
 20
-299.5028820971146
 30
0.0
  0
POINT
  5
17A15
330
162BE
100
AcDbEntity
  8
DEFPOINTS
 62
     0
100
AcDbPoint
 10
-803.3257010143803
 20
-295.5028820971147
 30
0.0
  0
POINT
  5
17A16
330
162BE
100
AcDbEntity
  8
DEFPOINTS
 62
     0
100
AcDbPoint
 10
-803.3257010143803
 20
-281.5576008217021
 30
0.0
  0
ENDBLK
  5
162C9
330
162BE
100
AcDbEntity
  8
0
100
AcDbBlockEnd
  0
BLOCK
  5
162D6
330
162CA
100
AcDbEntity
  8
0
100
AcDbBlockBegin
  2
*D5
 70
     1
 10
0.0
 20
0.0
 30
0.0
  3
*D5
  1

  0
LINE
  5
17A03
330
162CA
100
AcDbEntity
  8
2
 62
     0
370
    -2
100
AcDbLine
 10
-803.3257010143803
 20
-295.5028820971147
 30
0.0
 11
-795.1855882751738
 21
-295.5028820971147
 31
0.0
  0
LINE
  5
17A04
330
162CA
100
AcDbEntity
  8
2
 62
     0
370
    -2
100
AcDbLine
 10
-803.3257010143803
 20
-303.5028820971147
 30
0.0
 11
-795.1855882751738
 21
-303.5028820971147
 31
0.0
  0
LINE
  5
17A05
330
162CA
100
AcDbEntity
  8
2
 62
     0
370
    -2
100
AcDbLine
 10
-795.3655882751736
 20
-298.5028820971146
 30
0.0
 11
-795.3655882751736
 21
-300.5028820971146
 31
0.0
  0
SOLID
  5
17A06
330
162CA
100
AcDbEntity
  8
2
 62
     0
100
AcDbTrace
 10
-794.8655882751737
 20
-298.5028820971146
 30
0.0
 11
-795.8655882751736
 21
-298.5028820971146
 31
0.0
 12
-795.3655882751736
 22
-295.5028820971147
 32
0.0
 13
-795.3655882751736
 23
-295.5028820971147
 33
0.0
  0
SOLID
  5
17A07
330
162CA
100
AcDbEntity
  8
2
 62
     0
100
AcDbTrace
 10
-795.8655882751736
 20
-300.5028820971146
 30
0.0
 11
-794.8655882751737
 21
-300.5028820971146
 31
0.0
 12
-795.3655882751736
 22
-303.5028820971147
 32
0.0
 13
-795.3655882751736
 23
-303.5028820971147
 33
0.0
  0
MTEXT
  5
17A08
330
162CA
100
AcDbEntity
  8
2
 62
     0
100
AcDbMText
 10
-797.8655882751736
 20
-299.5028820971146
 30
0.0
 40
3.0
 41
0.0
 71
     5
 72
     1
  1
\A1;8
  7
BIGFONT
 11
0.0
 21
1.0
 31
0.0
 73
     1
 44
1.0
1001
ACAD
1000
MTEXTBEGIN
1070
    73
1070
     1
1070
    44
1040
1.0
1070
    74
1070
     0
1000
MTEXTEND
  0
POINT
  5
17A09
330
162CA
100
AcDbEntity
  8
DEFPOINTS
 62
     0
100
AcDbPoint
 10
-803.3257010143803
 20
-295.5028820971147
 30
0.0
  0
POINT
  5
17A0A
330
162CA
100
AcDbEntity
  8
DEFPOINTS
 62
     0
100
AcDbPoint
 10
-803.3257010143803
 20
-303.5028820971147
 30
0.0
  0
POINT
  5
17A0B
330
162CA
100
AcDbEntity
  8
DEFPOINTS
 62
     0
100
AcDbPoint
 10
-795.3655882751736
 20
-303.5028820971147
 30
0.0
  0
ENDBLK
  5
162D7
330
162CA
100
AcDbEntity
  8
0
100
AcDbBlockEnd
  0
BLOCK
  5
178EF
330
178E5
100
AcDbEntity
  8
0
100
AcDbBlockBegin
  2
*D6
 70
     1
 10
0.0
 20
0.0
 30
0.0
  3
*D6
  1

  0
LINE
  5
1794C
330
178E5
100
AcDbEntity
  8
2
 62
     0
 48
0.5
370
    -2
100
AcDbLine
 10
-804.73295051718
 20
-230.3240536725351
 30
0.0
 11
-801.4114329934139
 21
-223.9143577953568
 31
0.0
  0
LINE
  5
1794D
330
178E5
100
AcDbEntity
  8
2
 62
     0
 48
0.5
370
    -2
100
AcDbLine
 10
-770.9051291150674
 20
-247.8536999663649
 30
0.0
 11
-767.5836115913012
 21
-241.4440040891866
 31
0.0
  0
LINE
  5
1794E
330
178E5
100
AcDbEntity
  8
2
 62
     0
 48
0.5
370
    -2
100
AcDbLine
 10
-799.2745768996504
 20
-225.2244135325471
 30
0.0
 11
-769.8861021382347
 21
-240.4535813101264
 31
0.0
  0
SOLID
  5
1794F
330
178E5
100
AcDbEntity
  8
2
 62
     0
100
AcDbTrace
 10
-799.0828703566291
 20
-224.8544679791557
 30
0.0
 11
-799.466283442671
 21
-225.5943590859386
 31
0.0
 12
-801.4942502199989
 22
-224.0741742744218
 32
0.0
 13
-801.4942502199989
 23
-224.0741742744218
 33
0.0
  0
SOLID
  5
17950
330
178E5
100
AcDbEntity
  8
2
 62
     0
100
AcDbTrace
 10
-770.0778086812557
 20
-240.8235268635179
 30
0.0
 11
-769.6943955952137
 21
-240.083635756735
 31
0.0
 12
-767.6664288178861
 22
-241.6038205682517
 32
0.0
 13
-767.6664288178861
 23
-241.6038205682517
 33
0.0
  0
MTEXT
  5
17951
330
178E5
100
AcDbEntity
  8
2
 62
     0
100
AcDbMText
 10
-783.4301002608173
 20
-230.6193241009882
 30
0.0
 40
3.0
 41
0.0
 71
     5
 72
     1
  1
\A1;38.1
  7
BIGFONT
 11
0.8878693281394347
 21
-0.4600957032501268
 31
0.0
 73
     1
 44
1.0
1001
ACAD
1000
MTEXTBEGIN
1070
    73
1070
     1
1070
    44
1040
1.0
1070
    74
1070
     0
1000
MTEXTEND
  0
POINT
  5
17952
330
178E5
100
AcDbEntity
  8
DEFPOINTS
 62
     0
100
AcDbPoint
 10
-804.7617064986333
 20
-230.3795455055436
 30
0.0
  0
POINT
  5
17953
330
178E5
100
AcDbEntity
  8
DEFPOINTS
 62
     0
100
AcDbPoint
 10
-770.9338850965207
 20
-247.9091917993736
 30
0.0
  0
POINT
  5
17954
330
178E5
100
AcDbEntity
  8
DEFPOINTS
 62
     0
100
AcDbPoint
 10
-767.6664288178861
 20
-241.6038205682517
 30
0.0
  0
ENDBLK
  5
178F0
330
178E5
100
AcDbEntity
  8
0
100
AcDbBlockEnd
  0
BLOCK
  5
17A21
330
17A18
100
AcDbEntity
  8
0
100
AcDbBlockBegin
  2
*D7
 70
     1
 10
0.0
 20
0.0
 30
0.0
  3
*D7
  1

  0
LINE
  5
17A19
330
17A18
100
AcDbEntity
  8
2
 62
     0
370
    -2
100
AcDbLine
 10
-843.6850572723502
 20
-285.0430058806968
 30
0.0
 11
-832.4825438915217
 21
-291.6387388916945
 31
0.0
  0
LINE
  5
17A1A
330
17A18
100
AcDbEntity
  8
2
 62
     0
370
    -2
100
AcDbLine
 10
-805.7688581372389
 20
-307.3670253025349
 30
0.0
 11
-803.1836627416632
 21
-308.889117535842
 31
0.0
  0
MTEXT
  5
17A1B
330
17A18
100
AcDbEntity
  8
2
 62
     0
100
AcDbMText
 10
-838.1079880853013
 20
-285.425496773229
 30
0.0
 40
3.0
 41
0.0
 71
     5
 72
     1
  1
\A1;%%c25
  7
BIGFONT
 11
0.861731798525254
 21
-0.5073640777690423
 31
0.0
 73
     1
 44
1.0
1001
ACAD
1000
MTEXTBEGIN
1070
    73
1070
     1
1070
    44
1040
1.0
1070
    74
1070
     0
1000
MTEXTEND
  0
LINE
  5
17A1C
330
17A18
100
AcDbEntity
  8
2
 62
     0
370
    -2
100
AcDbLine
 10
-808.3540535328147
 20
-305.8449330692277
 30
0.0
 11
-829.8973484959461
 21
-293.1608311250016
 31
0.0
  0
SOLID
  5
17A1D
330
17A18
100
AcDbEntity
  8
2
 62
     0
100
AcDbTrace
 10
-805.5151760983543
 20
-306.9361594032721
 30
0.0
 11
-806.0225401761233
 21
-307.7978912017975
 31
0.0
 12
-808.3540535328147
 22
-305.8449330692277
 32
0.0
 13
-808.3540535328147
 23
-305.8449330692277
 33
0.0
  0
SOLID
  5
17A1E
330
17A18
100
AcDbEntity
  8
2
 62
     0
100
AcDbTrace
 10
-832.7362259304061
 20
-292.0696047909571
 30
0.0
 11
-832.2288618526371
 21
-291.2078729924318
 31
0.0
 12
-829.8973484959461
 22
-293.1608311250016
 32
0.0
 13
-829.8973484959461
 23
-293.1608311250016
 33
0.0
  0
POINT
  5
17A1F
330
17A18
100
AcDbEntity
  8
DEFPOINTS
 62
     0
100
AcDbPoint
 10
-829.8973484959461
 20
-293.1608311250016
 30
0.0
  0
POINT
  5
17A20
330
17A18
100
AcDbEntity
  8
DEFPOINTS
 62
     0
100
AcDbPoint
 10
-808.3540535328147
 20
-305.8449330692277
 30
0.0
  0
ENDBLK
  5
17A22
330
17A18
100
AcDbEntity
  8
0
100
AcDbBlockEnd
  0
BLOCK
  5
17B23
330
17B22
100
AcDbEntity
  8
0
100
AcDbBlockBegin
  2
*D8
 70
     1
 10
0.0
 20
0.0
 30
0.0
  3
*D8
  1

  0
LINE
  5
17B24
330
17B22
100
AcDbEntity
  8
2
 62
     0
 48
0.5
370
    -2
100
AcDbLine
 10
-954.9991421574159
 20
-229.4403820971144
 30
0.0
 11
-954.9991421574159
 21
-221.7847298137246
 31
0.0
  0
LINE
  5
17B25
330
17B22
100
AcDbEntity
  8
2
 62
     0
 48
0.5
370
    -2
100
AcDbLine
 10
-938.9991421574158
 20
-229.4403820971144
 30
0.0
 11
-938.9991421574158
 21
-221.7847298137246
 31
0.0
  0
LINE
  5
17B26
330
17B22
100
AcDbEntity
  8
2
 62
     0
 48
0.5
370
    -2
100
AcDbLine
 10
-952.4991421574158
 20
-221.9647298137246
 30
0.0
 11
-941.4991421574159
 21
-221.9647298137246
 31
0.0
  0
SOLID
  5
17B27
330
17B22
100
AcDbEntity
  8
2
 62
     0
100
AcDbTrace
 10
-952.4991421574158
 20
-221.548063147058
 30
0.0
 11
-952.4991421574158
 21
-222.3813964803913
 31
0.0
 12
-954.9991421574159
 22
-221.9647298137246
 32
0.0
 13
-954.9991421574159
 23
-221.9647298137246
 33
0.0
  0
SOLID
  5
17B28
330
17B22
100
AcDbEntity
  8
2
 62
     0
100
AcDbTrace
 10
-941.4991421574159
 20
-222.3813964803913
 30
0.0
 11
-941.4991421574159
 21
-221.548063147058
 31
0.0
 12
-938.9991421574158
 22
-221.9647298137246
 32
0.0
 13
-938.9991421574158
 23
-221.9647298137246
 33
0.0
  0
MTEXT
  5
17B29
330
17B22
100
AcDbEntity
  8
2
 62
     0
100
AcDbMText
 10
-946.9991421574158
 20
-219.4647298137246
 30
0.0
 40
3.0
 41
0.0
 71
     5
 72
     1
  1
\A1;16
  7
BIGFONT
 73
     1
 44
1.0
1001
ACAD
1000
MTEXTBEGIN
1070
    73
1070
     1
1070
    44
1040
1.0
1070
    74
1070
     0
1000
MTEXTEND
  0
POINT
  5
17B2A
330
17B22
100
AcDbEntity
  8
DEFPOINTS
 62
     0
100
AcDbPoint
 10
-954.9991421574159
 20
-229.5028820971144
 30
0.0
  0
POINT
  5
17B2B
330
17B22
100
AcDbEntity
  8
DEFPOINTS
 62
     0
100
AcDbPoint
 10
-938.9991421574158
 20
-229.5028820971144
 30
0.0
  0
POINT
  5
17B2C
330
17B22
100
AcDbEntity
  8
DEFPOINTS
 62
     0
100
AcDbPoint
 10
-938.9991421574158
 20
-221.9647298137246
 30
0.0
  0
ENDBLK
  5
17B2D
330
17B22
100
AcDbEntity
  8
0
100
AcDbBlockEnd
  0
BLOCK
  5
17B30
330
17B2F
100
AcDbEntity
  8
0
100
AcDbBlockBegin
  2
*D9
 70
     1
 10
0.0
 20
0.0
 30
0.0
  3
*D9
  1

  0
LINE
  5
17B31
330
17B2F
100
AcDbEntity
  8
2
 62
     0
 48
0.5
370
    -2
100
AcDbLine
 10
-968.4991421574158
 20
-230.4403820971144
 30
0.0
 11
-968.4991421574158
 21
-215.7847298137246
 31
0.0
  0
LINE
  5
17B32
330
17B2F
100
AcDbEntity
  8
2
 62
     0
 48
0.5
370
    -2
100
AcDbLine
 10
-925.4991421574159
 20
-229.4403820971143
 30
0.0
 11
-925.4991421574159
 21
-215.7847298137246
 31
0.0
  0
LINE
  5
17B33
330
17B2F
100
AcDbEntity
  8
2
 62
     0
 48
0.5
370
    -2
100
AcDbLine
 10
-965.999142157416
 20
-215.9647298137246
 30
0.0
 11
-927.9991421574159
 21
-215.9647298137246
 31
0.0
  0
SOLID
  5
17B34
330
17B2F
100
AcDbEntity
  8
2
 62
     0
100
AcDbTrace
 10
-965.999142157416
 20
-215.5480631470579
 30
0.0
 11
-965.999142157416
 21
-216.3813964803913
 31
0.0
 12
-968.4991421574158
 22
-215.9647298137246
 32
0.0
 13
-968.4991421574158
 23
-215.9647298137246
 33
0.0
  0
SOLID
  5
17B35
330
17B2F
100
AcDbEntity
  8
2
 62
     0
100
AcDbTrace
 10
-927.9991421574159
 20
-216.3813964803913
 30
0.0
 11
-927.9991421574159
 21
-215.5480631470579
 31
0.0
 12
-925.4991421574159
 22
-215.9647298137246
 32
0.0
 13
-925.4991421574159
 23
-215.9647298137246
 33
0.0
  0
MTEXT
  5
17B36
330
17B2F
100
AcDbEntity
  8
2
 62
     0
100
AcDbMText
 10
-946.9991421574158
 20
-213.4647298137246
 30
0.0
 40
3.0
 41
0.0
 71
     5
 72
     1
  1
\A1;43
  7
BIGFONT
 73
     1
 44
1.0
1001
ACAD
1000
MTEXTBEGIN
1070
    73
1070
     1
1070
    44
1040
1.0
1070
    74
1070
     0
1000
MTEXTEND
  0
POINT
  5
17B37
330
17B2F
100
AcDbEntity
  8
DEFPOINTS
 62
     0
100
AcDbPoint
 10
-968.4991421574158
 20
-230.5028820971144
 30
0.0
  0
POINT
  5
17B38
330
17B2F
100
AcDbEntity
  8
DEFPOINTS
 62
     0
100
AcDbPoint
 10
-925.4991421574159
 20
-229.5028820971143
 30
0.0
  0
POINT
  5
17B39
330
17B2F
100
AcDbEntity
  8
DEFPOINTS
 62
     0
100
AcDbPoint
 10
-925.4991421574159
 20
-215.9647298137246
 30
0.0
  0
ENDBLK
  5
17B3A
330
17B2F
100
AcDbEntity
  8
0
100
AcDbBlockEnd
  0
BLOCK
  5
17B3D
330
17B3C
100
AcDbEntity
  8
0
100
AcDbBlockBegin
  2
*D10
 70
     1
 10
0.0
 20
0.0
 30
0.0
  3
*D10
  1

  0
LINE
  5
17B3E
330
17B3C
100
AcDbEntity
  8
2
 62
     0
 48
0.5
370
    -2
100
AcDbLine
 10
-971.9991421574164
 20
-256.9403820971146
 30
0.0
 11
-971.9991421574164
 21
-209.7847298137246
 31
0.0
  0
LINE
  5
17B3F
330
17B3C
100
AcDbEntity
  8
2
 62
     0
 48
0.5
370
    -2
100
AcDbLine
 10
-921.9991421574158
 20
-256.9403820971146
 30
0.0
 11
-921.9991421574158
 21
-209.7847298137246
 31
0.0
  0
LINE
  5
17B40
330
17B3C
100
AcDbEntity
  8
2
 62
     0
 48
0.5
370
    -2
100
AcDbLine
 10
-969.4991421574163
 20
-209.9647298137246
 30
0.0
 11
-924.4991421574159
 21
-209.9647298137246
 31
0.0
  0
SOLID
  5
17B41
330
17B3C
100
AcDbEntity
  8
2
 62
     0
100
AcDbTrace
 10
-969.4991421574163
 20
-209.5480631470579
 30
0.0
 11
-969.4991421574163
 21
-210.3813964803913
 31
0.0
 12
-971.9991421574164
 22
-209.9647298137246
 32
0.0
 13
-971.9991421574164
 23
-209.9647298137246
 33
0.0
  0
SOLID
  5
17B42
330
17B3C
100
AcDbEntity
  8
2
 62
     0
100
AcDbTrace
 10
-924.4991421574159
 20
-210.3813964803913
 30
0.0
 11
-924.4991421574159
 21
-209.5480631470579
 31
0.0
 12
-921.9991421574158
 22
-209.9647298137246
 32
0.0
 13
-921.9991421574158
 23
-209.9647298137246
 33
0.0
  0
MTEXT
  5
17B43
330
17B3C
100
AcDbEntity
  8
2
 62
     0
100
AcDbMText
 10
-946.9991421574164
 20
-207.4647298137246
 30
0.0
 40
3.0
 41
0.0
 71
     5
 72
     1
  1
\A1;50
  7
BIGFONT
 73
     1
 44
1.0
1001
ACAD
1000
MTEXTBEGIN
1070
    73
1070
     1
1070
    44
1040
1.0
1070
    74
1070
     0
1000
MTEXTEND
  0
POINT
  5
17B44
330
17B3C
100
AcDbEntity
  8
DEFPOINTS
 62
     0
100
AcDbPoint
 10
-971.9991421574164
 20
-257.0028820971146
 30
0.0
  0
POINT
  5
17B45
330
17B3C
100
AcDbEntity
  8
DEFPOINTS
 62
     0
100
AcDbPoint
 10
-921.9991421574158
 20
-257.0028820971146
 30
0.0
  0
POINT
  5
17B46
330
17B3C
100
AcDbEntity
  8
DEFPOINTS
 62
     0
100
AcDbPoint
 10
-921.9991421574158
 20
-209.9647298137246
 30
0.0
  0
ENDBLK
  5
17B47
330
17B3C
100
AcDbEntity
  8
0
100
AcDbBlockEnd
  0
ENDSEC
  0
SECTION
  2
ENTITIES
  0
TEXT
  5
FDF
330
18
100
AcDbEntity
  8
2
100
AcDbText
 10
61.80397887142635
 20
115.9153310921787
 30
0.0
 40
3.5
  1

  7
BIGFONT
100
AcDbText
  0
TEXT
  5
FE2
330
18
100
AcDbEntity
  8
2
100
AcDbText
 10
203.8957585163355
 20
143.31043555714
 30
0.0
 40
3.5
  1

  7
BIGFONT
100
AcDbText
  0
TEXT
  5
218A
330
18
100
AcDbEntity
  8
2
  6
Continuous
 48
3.0
100
AcDbText
 10
345.2872429042694
 20
59.92647845586116
 30
0.0
 40
3.5
  1

 50
359.780436223055
  7
BIGFONT
 72
     5
 11
360.1971044114504
 21
59.8693419344833
 31
0.0
100
AcDbText
  0
DIMENSION
  5
15C37
330
18
100
AcDbEntity
  8
2
100
AcDbDimension
  2
*D1
 10
-995.5284171836964
 20
-370.5028820971145
 30
0.0
 11
-998.0284171836965
 21
-299.5028820971146
 31
0.0
 70
    32
  1
Do %%c<>
 71
     5
 42
142.0000000000002
  3
_1
100
AcDbAlignedDimension
 13
-968.4991421574167
 23
-228.5028820971143
 33
0.0
 14
-968.4991421574158
 24
-370.5028820971145
 34
0.0
 50
90.0
100
AcDbRotatedDimension
1001
ACAD
1000
DSTYLE
1002
{
1070
    40
1040
1.0
1002
}
  0
DIMENSION
  5
15C38
330
18
100
AcDbEntity
  8
2
100
AcDbDimension
  2
*D0
 10
-986.4175881014903
 20
-370.1028820971144
 30
0.0
 11
-989.4175881014902
 21
-299.5028820971146
 31
0.0
 70
    32
  1
Dp %%c<>
 71
     5
 42
141.2
  3
_1
100
AcDbAlignedDimension
 13
-976.9991421574163
 23
-228.9028820971144
 33
0.0
 14
-976.9991421574163
 24
-370.1028820971144
 34
0.0
 50
90.0
100
AcDbRotatedDimension
1001
ACAD
1000
DSTYLE
1002
{
1070
    40
1040
1.0
1002
}
  0
TEXT
  5
15D4C
330
18
100
AcDbEntity
  8
2
100
AcDbText
 10
-1003.784273598153
 20
-200.6835876782461
 30
0.0
 40
3.5
  1

  7
BIGFONT
100
AcDbText
  0
DIMENSION
  5
162AE
330
18
100
AcDbEntity
  8
2
100
AcDbDimension
  2
*D5
 10
-795.3655882751736
 20
-303.5028820971147
 30
0.0
 11
-797.8655882751736
 21
-299.5028820971146
 31
0.0
 70
    32
 71
     5
 42
8.0
  3
_1
100
AcDbAlignedDimension
 13
-803.3257010143803
 23
-295.5028820971147
 33
0.0
 14
-803.3257010143803
 24
-303.5028820971147
 34
0.0
 50
90.0
100
AcDbRotatedDimension
1001
ACAD
1000
DSTYLE
1002
{
1070
    40
1040
1.0
1002
}
  0
DIMENSION
  5
162B1
330
18
100
AcDbEntity
  8
2
100
AcDbDimension
  2
*D4
 10
-803.3257010143803
 20
-281.5576008217021
 30
0.0
 11
-811.8308254530774
 21
-281.5576008217021
 31
0.0
 70
   160
 71
     5
 42
28.29999999999984
  3
_1
100
AcDbAlignedDimension
 13
-831.6257010143802
 23
-299.5028820971146
 33
0.0
 14
-803.3257010143803
 24
-295.5028820971147
 34
0.0
100
AcDbRotatedDimension
1001
ACAD
1000
DSTYLE
1002
{
1070
    40
1040
1.0
1002
}
  0
LINE
  5
177D1
330
18
100
AcDbEntity
  8
3
  6
CENTER2
 48
0.5
100
AcDbLine
 10
-744.1257010143792
 20
-299.5028820971146
 30
0.0
 11
-894.1257010143793
 21
-299.5028820971146
 31
0.0
  0
LINE
  5
177D2
330
18
100
AcDbEntity
  8
3
  6
CENTER2
 48
0.5
100
AcDbLine
 10
-819.1257010143793
 20
-224.5028820971147
 30
0.0
 11
-819.1257010143793
 21
-374.5028820971147
 31
0.0
  0
LINE
  5
177D3
330
18
100
AcDbEntity
  8
1
 62
     7
 48
0.5
100
AcDbLine
 10
-822.1257010143794
 20
-235.5729845223402
 30
0.0
 11
-822.1257010143794
 21
-251.0028820971149
 31
0.0
  0
LINE
  5
177D4
330
18
100
AcDbEntity
  8
1
 62
     7
 48
0.5
100
AcDbLine
 10
-822.1257010143794
 20
-348.0028820971149
 30
0.0
 11
-822.1257010143794
 21
-363.4327796718894
 31
0.0
  0
CIRCLE
  5
177D5
330
18
100
AcDbEntity
  8
3
  6
CENTER2
 48
0.5
100
AcDbCircle
 10
-819.1257010143793
 20
-299.5028820971146
 30
0.0
 40
70.59999999999998
  0
LINE
  5
177D6
330
18
100
AcDbEntity
  8
1
 62
     7
 48
0.5
100
AcDbLine
 10
-806.1257010143792
 20
-257.0028820971148
 30
0.0
 11
-819.1257010143793
 21
-257.0028820971146
 31
0.0
  0
LINE
  5
177D7
330
18
100
AcDbEntity
  8
1
 62
     7
 48
0.5
100
AcDbLine
 10
-806.1257010143792
 20
-257.0028820971148
 30
0.0
 11
-806.1257010143794
 21
-260.0028820971142
 31
0.0
  0
LINE
  5
177D8
330
18
100
AcDbEntity
  8
1
 62
     7
 48
0.5
100
AcDbLine
 10
-806.1257010143794
 20
-271.0028820971146
 30
0.0
 11
-806.1257010143794
 21
-273.579919303483
 31
0.0
  0
LINE
  5
177D9
330
18
100
AcDbEntity
  8
1
 62
     7
 48
0.5
100
AcDbLine
 10
-812.1257010143793
 20
-260.0028820971147
 30
0.0
 11
-812.1257010143793
 21
-271.0028820971146
 31
0.0
  0
LINE
  5
177DA
330
18
100
AcDbEntity
  8
1
 62
     7
 48
0.5
100
AcDbLine
 10
-832.1257010143792
 20
-263.1028820971148
 30
0.0
 11
-832.1257010143792
 21
-267.902882097115
 31
0.0
  0
ARC
  5
177DB
330
18
100
AcDbEntity
  8
1
 62
     7
 48
0.5
100
AcDbCircle
 10
-819.1257010143793
 20
-299.5028820971143
 30
0.0
 40
29.0
100
AcDbArc
 50
296.6331187491551
 51
328.8526100784892
1001
GENIUS_GENOBJ-N-FIL_13
1002
{
1000
OWNER
1000
GEN
1002
}
1001
GENIUS_GENODEF_13
1002
{
1000
HIER
1070
     0
1002
}
1002
{
1000
MANEDIT
1070
     0
1002
}
1002
{
1000
NOSEL
1070
     0
1002
}
1002
{
1000
BEHIND
1070
     0
1002
}
1002
{
1000
OTHER
1070
     0
1002
}
1002
{
1000
REACTOR
1002
}
  0
ARC
  5
177DC
330
18
100
AcDbEntity
  8
1
 62
     7
 48
0.5
100
AcDbCircle
 10
-819.1257010143793
 20
-299.5028820971143
 30
0.0
 40
29.0
100
AcDbArc
 50
31.14738992151081
 51
63.36688125084494
  0
LINE
  5
177DD
330
18
100
AcDbEntity
  8
1
 62
     7
 48
0.5
100
AcDbLine
 10
-806.1257010143794
 20
-260.0028820971147
 30
0.0
 11
-812.1257010143793
 21
-260.0028820971147
 31
0.0
  0
LINE
  5
177DE
330
18
100
AcDbEntity
  8
3
  6
CENTER2
 48
0.5
100
AcDbLine
 10
-802.1257010143793
 20
-265.5028820971146
 30
0.0
 11
-836.1257010143793
 21
-265.5028820971146
 31
0.0
  0
LINE
  5
177DF
330
18
100
AcDbEntity
  8
1
 62
     7
 48
0.5
100
AcDbLine
 10
-806.1257010143794
 20
-271.0028820971146
 30
0.0
 11
-812.1257010143793
 21
-271.0028820971146
 31
0.0
  0
LINE
  5
177E0
330
18
100
AcDbEntity
  8
1
 62
     7
 48
0.5
100
AcDbLine
 10
-806.1257010143794
 20
-342.0028820971146
 30
0.0
 11
-819.1257010143793
 21
-342.0028820971142
 31
0.0
  0
LINE
  5
177E1
330
18
100
AcDbEntity
  8
1
 62
     7
 48
0.5
100
AcDbLine
 10
-806.1257010143794
 20
-342.0028820971146
 30
0.0
 11
-806.1257010143794
 21
-339.0028820971147
 31
0.0
  0
LINE
  5
177E2
330
18
100
AcDbEntity
  8
1
 62
     7
 48
0.5
100
AcDbLine
 10
-806.1257010143794
 20
-328.0028820971147
 30
0.0
 11
-806.1257010143792
 21
-325.4258448907458
 31
0.0
  0
LINE
  5
177E3
330
18
100
AcDbEntity
  8
1
 62
     7
 48
0.5
100
AcDbLine
 10
-806.1257010143794
 20
-339.0028820971147
 30
0.0
 11
-812.1257010143793
 21
-339.0028820971147
 31
0.0
  0
LINE
  5
177E4
330
18
100
AcDbEntity
  8
1
 62
     7
 48
0.5
100
AcDbLine
 10
-806.1257010143794
 20
-328.0028820971144
 30
0.0
 11
-812.1257010143793
 21
-328.0028820971147
 31
0.0
  0
LINE
  5
177E5
330
18
100
AcDbEntity
  8
1
 62
     7
 48
0.5
100
AcDbLine
 10
-812.1257010143793
 20
-328.0028820971147
 30
0.0
 11
-812.1257010143793
 21
-339.0028820971147
 31
0.0
  0
LINE
  5
177E6
330
18
100
AcDbEntity
  8
1
 62
     7
 48
0.5
100
AcDbLine
 10
-829.1257010143793
 20
-262.0028820971147
 30
0.0
 11
-832.1257010143794
 21
-262.0028820971147
 31
0.0
  0
LINE
  5
177E7
330
18
100
AcDbEntity
  8
1
 62
     7
 48
0.5
100
AcDbLine
 10
-829.1257010143793
 20
-269.0028820971146
 30
0.0
 11
-832.1257010143794
 21
-269.0028820971146
 31
0.0
  0
LINE
  5
177E8
330
18
100
AcDbEntity
  8
1
 62
     7
 48
0.5
100
AcDbLine
 10
-832.1257010143794
 20
-257.0028820971146
 30
0.0
 11
-819.1257010143793
 21
-257.0028820971146
 31
0.0
  0
LINE
  5
177E9
330
18
100
AcDbEntity
  8
1
 62
     7
 48
0.5
100
AcDbLine
 10
-832.1257010143794
 20
-257.0028820971146
 30
0.0
 11
-832.1257010143794
 21
-262.0028820971147
 31
0.0
  0
LINE
  5
177EA
330
18
100
AcDbEntity
  8
1
 62
     7
 48
0.5
100
AcDbLine
 10
-832.1257010143794
 20
-269.0028820971151
 30
0.0
 11
-832.1257010143794
 21
-273.5799193034831
 31
0.0
  0
ARC
  5
177EB
330
18
100
AcDbEntity
  8
1
 62
     7
 48
0.5
100
AcDbCircle
 10
-819.1257010143793
 20
-299.5028820971143
 30
0.0
 40
29.0
100
AcDbArc
 50
116.633118749155
 51
243.3668812508449
  0
LINE
  5
177EC
330
18
100
AcDbEntity
  8
1
 62
     7
 48
0.5
100
AcDbLine
 10
-832.1257010143794
 20
-342.0028820971146
 30
0.0
 11
-819.1257010143793
 21
-342.0028820971142
 31
0.0
  0
LINE
  5
177ED
330
18
100
AcDbEntity
  8
1
 62
     7
 48
0.5
100
AcDbLine
 10
-832.1257010143794
 20
-342.0028820971146
 30
0.0
 11
-832.1257010143794
 21
-337.0028820971147
 31
0.0
  0
LINE
  5
177EE
330
18
100
AcDbEntity
  8
1
 62
     7
 48
0.5
100
AcDbLine
 10
-832.1257010143794
 20
-330.0028820971146
 30
0.0
 11
-832.1257010143794
 21
-325.4258448907458
 31
0.0
  0
LINE
  5
177EF
330
18
100
AcDbEntity
  8
1
 62
     7
 48
0.5
100
AcDbLine
 10
-829.1257010143793
 20
-260.5028820971146
 30
0.0
 11
-824.1257010143794
 21
-260.5028820971146
 31
0.0
  0
LINE
  5
177F0
330
18
100
AcDbEntity
  8
1
 62
     7
 48
0.5
100
AcDbLine
 10
-824.1257010143794
 20
-260.5028820971146
 30
0.0
 11
-824.1257010143794
 21
-270.5028820971147
 31
0.0
  0
LINE
  5
177F1
330
18
100
AcDbEntity
  8
1
 62
     7
 48
0.5
100
AcDbLine
 10
-824.1257010143794
 20
-270.5028820971147
 30
0.0
 11
-829.1257010143793
 21
-270.5028820971147
 31
0.0
  0
LINE
  5
177F2
330
18
100
AcDbEntity
  8
1
 62
     7
 48
0.5
100
AcDbLine
 10
-829.1257010143793
 20
-270.5028820971147
 30
0.0
 11
-829.1257010143793
 21
-260.5028820971146
 31
0.0
  0
LINE
  5
177F3
330
18
100
AcDbEntity
  8
1
 62
     7
 48
0.5
100
AcDbLine
 10
-829.1257010143793
 20
-337.0028820971147
 30
0.0
 11
-832.1257010143794
 21
-337.0028820971147
 31
0.0
  0
LINE
  5
177F4
330
18
100
AcDbEntity
  8
1
 62
     7
 48
0.5
100
AcDbLine
 10
-829.1257010143793
 20
-330.0028820971146
 30
0.0
 11
-832.1257010143794
 21
-330.0028820971146
 31
0.0
  0
LINE
  5
177F5
330
18
100
AcDbEntity
  8
1
 62
     7
 48
0.5
100
AcDbLine
 10
-829.1257010143793
 20
-338.5028820971147
 30
0.0
 11
-824.1257010143794
 21
-338.5028820971147
 31
0.0
  0
LINE
  5
177F6
330
18
100
AcDbEntity
  8
1
 62
     7
 48
0.5
100
AcDbLine
 10
-824.1257010143794
 20
-338.5028820971147
 30
0.0
 11
-824.1257010143794
 21
-328.5028820971147
 31
0.0
  0
LINE
  5
177F7
330
18
100
AcDbEntity
  8
1
 62
     7
 48
0.5
100
AcDbLine
 10
-824.1257010143794
 20
-328.5028820971147
 30
0.0
 11
-829.1257010143793
 21
-328.5028820971147
 31
0.0
  0
LINE
  5
177F8
330
18
100
AcDbEntity
  8
1
 62
     7
 48
0.5
100
AcDbLine
 10
-829.1257010143793
 20
-328.5028820971147
 30
0.0
 11
-829.1257010143793
 21
-338.5028820971147
 31
0.0
  0
LINE
  5
177F9
330
18
100
AcDbEntity
  8
1
 62
     7
 48
0.5
100
AcDbLine
 10
-812.1257010143793
 20
-260.5028820971146
 30
0.0
 11
-806.625701014379
 21
-260.5028820971146
 31
0.0
  0
ARC
  5
177FA
330
18
100
AcDbEntity
  8
1
 62
     7
 48
0.5
100
AcDbCircle
 10
-806.625701014379
 20
-261.0028820971146
 30
0.0
 40
0.5
100
AcDbArc
 50
0.0
 51
90.0
  0
LINE
  5
177FB
330
18
100
AcDbEntity
  8
1
 62
     7
 48
0.5
100
AcDbLine
 10
-806.1257010143787
 20
-261.0028820971146
 30
0.0
 11
-806.1257010143787
 21
-270.0028820971147
 31
0.0
  0
LINE
  5
177FC
330
18
100
AcDbEntity
  8
1
 62
     7
 48
0.5
100
AcDbLine
 10
-806.625701014379
 20
-270.5028820971147
 30
0.0
 11
-812.1257010143793
 21
-270.5028820971147
 31
0.0
  0
ARC
  5
177FD
330
18
100
AcDbEntity
  8
1
 62
     7
 48
0.5
100
AcDbCircle
 10
-806.625701014379
 20
-270.0028820971147
 30
0.0
 40
0.5
100
AcDbArc
 50
270.0
 51
0.0
  0
LINE
  5
177FE
330
18
100
AcDbEntity
  8
1
 62
     7
 48
0.5
100
AcDbLine
 10
-831.7792908528657
 20
-268.5028820971147
 30
0.0
 11
-829.1257010143793
 21
-268.5028820971147
 31
0.0
  0
LINE
  5
177FF
330
18
100
AcDbEntity
  8
1
 48
0.5
100
AcDbLine
 10
-832.1257010143794
 20
-267.9028820971147
 30
0.0
 11
-829.1257010143793
 21
-267.9028820971147
 31
0.0
  0
LINE
  5
17800
330
18
100
AcDbEntity
  8
1
 62
     7
 48
0.5
100
AcDbLine
 10
-831.7792908528657
 20
-268.5028820971147
 30
0.0
 11
-831.7792908528657
 21
-262.5028820971151
 31
0.0
  0
LINE
  5
17801
330
18
100
AcDbEntity
  8
1
 62
     7
 48
0.5
100
AcDbLine
 10
-831.7792908528657
 20
-262.5028820971149
 30
0.0
 11
-829.1257010143793
 21
-262.5028820971151
 31
0.0
  0
LINE
  5
17802
330
18
100
AcDbEntity
  8
1
 48
0.5
100
AcDbLine
 10
-832.1257010143794
 20
-263.1028820971148
 30
0.0
 11
-829.1257010143793
 21
-263.1028820971148
 31
0.0
  0
LINE
  5
17803
330
18
100
AcDbEntity
  8
1
 62
     7
 48
0.5
100
AcDbLine
 10
-832.1257010143794
 20
-263.1028820971148
 30
0.0
 11
-831.7792908528657
 21
-262.5028820971149
 31
0.0
  0
LINE
  5
17804
330
18
100
AcDbEntity
  8
1
 62
     7
 48
0.5
100
AcDbLine
 10
-832.1257010143792
 20
-335.9028820971147
 30
0.0
 11
-832.1257010143792
 21
-331.1028820971146
 31
0.0
  0
LINE
  5
17805
330
18
100
AcDbEntity
  8
3
  6
CENTER2
 48
0.5
100
AcDbLine
 10
-802.1257010143793
 20
-333.5028820971149
 30
0.0
 11
-836.1257010143793
 21
-333.5028820971149
 31
0.0
  0
LINE
  5
17806
330
18
100
AcDbEntity
  8
1
 62
     7
 48
0.5
100
AcDbLine
 10
-812.1257010143793
 20
-338.5028820971149
 30
0.0
 11
-806.625701014379
 21
-338.5028820971149
 31
0.0
  0
ARC
  5
17807
330
18
100
AcDbEntity
  8
1
 62
     7
 48
0.5
100
AcDbCircle
 10
-806.625701014379
 20
-338.0028820971149
 30
0.0
 40
0.5
100
AcDbArc
 50
270.0
 51
0.0
  0
LINE
  5
17808
330
18
100
AcDbEntity
  8
1
 62
     7
 48
0.5
100
AcDbLine
 10
-806.1257010143787
 20
-338.0028820971149
 30
0.0
 11
-806.1257010143787
 21
-329.0028820971149
 31
0.0
  0
LINE
  5
17809
330
18
100
AcDbEntity
  8
1
 62
     7
 48
0.5
100
AcDbLine
 10
-806.625701014379
 20
-328.5028820971149
 30
0.0
 11
-812.1257010143793
 21
-328.5028820971149
 31
0.0
  0
ARC
  5
1780A
330
18
100
AcDbEntity
  8
1
 62
     7
 48
0.5
100
AcDbCircle
 10
-806.625701014379
 20
-329.0028820971149
 30
0.0
 40
0.5
100
AcDbArc
 50
0.0
 51
90.0
  0
LINE
  5
1780B
330
18
100
AcDbEntity
  8
1
 62
     7
 48
0.5
100
AcDbLine
 10
-831.7792908528657
 20
-330.5028820971149
 30
0.0
 11
-829.1257010143793
 21
-330.5028820971149
 31
0.0
  0
LINE
  5
1780C
330
18
100
AcDbEntity
  8
1
 48
0.5
100
AcDbLine
 10
-832.1257010143794
 20
-331.1028820971149
 30
0.0
 11
-829.1257010143793
 21
-331.1028820971149
 31
0.0
  0
LINE
  5
1780D
330
18
100
AcDbEntity
  8
1
 62
     7
 48
0.5
100
AcDbLine
 10
-832.1257010143794
 20
-331.1028820971149
 30
0.0
 11
-831.7792908528657
 21
-330.5028820971149
 31
0.0
  0
LINE
  5
1780E
330
18
100
AcDbEntity
  8
1
 62
     7
 48
0.5
100
AcDbLine
 10
-831.7792908528657
 20
-330.5028820971149
 30
0.0
 11
-831.7792908528657
 21
-336.5028820971144
 31
0.0
  0
LINE
  5
1780F
330
18
100
AcDbEntity
  8
1
 62
     7
 48
0.5
100
AcDbLine
 10
-831.7792908528657
 20
-336.5028820971147
 30
0.0
 11
-829.1257010143793
 21
-336.5028820971144
 31
0.0
  0
LINE
  5
17810
330
18
100
AcDbEntity
  8
1
 48
0.5
100
AcDbLine
 10
-832.1257010143794
 20
-335.9028820971147
 30
0.0
 11
-829.1257010143793
 21
-335.9028820971147
 31
0.0
  0
LINE
  5
17811
330
18
100
AcDbEntity
  8
1
 62
     7
 48
0.5
100
AcDbLine
 10
-832.1257010143794
 20
-335.9028820971147
 30
0.0
 11
-831.7792908528657
 21
-336.5028820971147
 31
0.0
  0
LINE
  5
17812
330
18
100
AcDbEntity
  8
1
 62
     7
 48
0.5
100
AcDbLine
 10
-822.1257010143794
 20
-250.5028820971146
 30
0.0
 11
-819.1257010143793
 21
-251.5028820971147
 31
0.0
  0
LINE
  5
17813
330
18
100
AcDbEntity
  8
1
 62
     7
 48
0.5
100
AcDbLine
 10
-822.1257010143794
 20
-251.0028820971147
 30
0.0
 11
-819.1257010143793
 21
-252.0028820971146
 31
0.0
  0
LINE
  5
17814
330
18
100
AcDbEntity
  8
1
 62
     7
 48
0.5
100
AcDbLine
 10
-819.1257010143793
 20
-251.5028820971149
 30
0.0
 11
-819.1257010143793
 21
-287.0028820971146
 31
0.0
  0
LINE
  5
17815
330
18
100
AcDbEntity
  8
1
 62
     7
 48
0.5
100
AcDbLine
 10
-819.1257010143793
 20
-312.0028820971147
 30
0.0
 11
-819.1257010143793
 21
-347.5028820971151
 31
0.0
  0
LINE
  5
17816
330
18
100
AcDbEntity
  8
1
 62
     7
 48
0.5
100
AcDbLine
 10
-774.8792322287237
 20
-262.0028820971144
 30
0.0
 11
-766.5265948230306
 21
-262.0028820971147
 31
0.0
  0
LINE
  5
17817
330
18
100
AcDbEntity
  8
1
 62
     7
 48
0.5
100
AcDbLine
 10
-769.7926492133807
 20
-269.0028820971146
 30
0.0
 11
-762.8607030138462
 21
-269.0028820971148
 31
0.0
  0
ARC
  5
17818
330
18
100
AcDbEntity
  8
1
 62
     7
 48
0.5
100
AcDbCircle
 10
-773.8365692236397
 20
-264.4372866561509
 30
0.0
 40
2.648295999171546
100
AcDbArc
 50
113.185600510071
 51
196.7455255539487
  0
ARC
  5
17819
330
18
100
AcDbEntity
  8
1
 62
     7
 48
0.5
100
AcDbCircle
 10
-769.4983189234092
 20
-260.8993937807781
 30
0.0
 40
8.108831803200637
100
AcDbArc
 50
212.0324807648066
 51
267.9198497322907
  0
LINE
  5
1781A
330
18
100
AcDbEntity
  8
3
  6
CENTER2
 48
0.5
100
AcDbLine
 10
-946.9991421574158
 20
-224.5028820971145
 30
0.0
 11
-946.9991421574158
 21
-374.5028820971145
 31
0.0
  0
LINE
  5
1781B
330
18
100
AcDbEntity
  8
1
 62
     7
 48
0.5
100
AcDbLine
 10
-925.4991421574159
 20
-228.5028820971143
 30
0.0
 11
-925.4991421574167
 21
-370.5028820971145
 31
0.0
  0
LINE
  5
1781C
330
18
100
AcDbEntity
  8
1
 62
     7
 48
0.5
100
AcDbLine
 10
-921.9991421574158
 20
-257.0028820971146
 30
0.0
 11
-921.9991421574158
 21
-342.0028820971144
 31
0.0
  0
LINE
  5
1781D
330
18
100
AcDbEntity
  8
3
  6
CENTER2
 48
0.5
100
AcDbLine
 10
-976.9991421574163
 20
-299.5028820971145
 30
0.0
 11
-916.9991421574163
 21
-299.5028820971145
 31
0.0
  0
LINE
  5
1781E
330
18
100
AcDbEntity
  8
1
 62
     7
 48
0.5
100
AcDbLine
 10
-938.9991421574158
 20
-228.5028820971143
 30
0.0
 11
-938.9991421574158
 21
-370.5028820971145
 31
0.0
  0
LINE
  5
1781F
330
18
100
AcDbEntity
  8
1
 62
     7
 48
0.5
100
AcDbLine
 10
-925.4991421574159
 20
-229.9619298646239
 30
0.0
 11
-938.9991421574158
 21
-229.9619298646238
 31
0.0
  0
LINE
  5
17820
330
18
100
AcDbEntity
  8
1
 62
     7
 48
0.5
100
AcDbLine
 10
-925.4991421574159
 20
-234.0642613524841
 30
0.0
 11
-938.9991421574158
 21
-234.0642613524841
 31
0.0
  0
LINE
  5
17821
330
18
100
AcDbEntity
  8
1
 62
     7
 48
0.5
100
AcDbLine
 10
-925.4991421574159
 20
-235.6673839191608
 30
0.0
 11
-938.9991421574158
 21
-235.6673839191608
 31
0.0
  0
LINE
  5
17822
330
18
100
AcDbEntity
  8
1
 62
     7
 48
0.5
100
AcDbLine
 10
-925.4991421574159
 20
-243.5677957353443
 30
0.0
 11
-938.9991421574158
 21
-243.5677957353444
 31
0.0
  0
LINE
  5
17823
330
18
100
AcDbEntity
  8
1
 62
     7
 48
0.5
100
AcDbLine
 10
-925.4991421574159
 20
-246.1072248455841
 30
0.0
 11
-938.9991421574158
 21
-246.1072248455842
 31
0.0
  0
LINE
  5
17824
330
18
100
AcDbEntity
  8
1
 62
     7
 48
0.5
100
AcDbLine
 10
-925.4991421574159
 20
-257.2197795876638
 30
0.0
 11
-938.9991421574158
 21
-257.2197795876639
 31
0.0
  0
LINE
  5
17825
330
18
100
AcDbEntity
  8
1
 62
     7
 48
0.5
100
AcDbLine
 10
-925.4991421574159
 20
-260.5071774014753
 30
0.0
 11
-938.9991421574158
 21
-260.5071774014753
 31
0.0
  0
LINE
  5
17826
330
18
100
AcDbEntity
  8
1
 62
     7
 48
0.5
100
AcDbLine
 10
-925.4991421574159
 20
-274.0077077207861
 30
0.0
 11
-938.9991421574158
 21
-274.0077077207862
 31
0.0
  0
LINE
  5
17827
330
18
100
AcDbEntity
  8
1
 62
     7
 48
0.5
100
AcDbLine
 10
-925.4991421574159
 20
-277.7992629811635
 30
0.0
 11
-938.9991421574158
 21
-277.7992629811636
 31
0.0
  0
LINE
  5
17828
330
18
100
AcDbEntity
  8
1
 62
     7
 48
0.5
100
AcDbLine
 10
-925.4991421574159
 20
-292.6864963047391
 30
0.0
 11
-938.9991421574158
 21
-292.6864963047393
 31
0.0
  0
LINE
  5
17829
330
18
100
AcDbEntity
  8
1
 62
     7
 48
0.5
100
AcDbLine
 10
-925.4991421574159
 20
-296.7010067032307
 30
0.0
 11
-938.9991421574158
 21
-296.7010067032305
 31
0.0
  0
LINE
  5
1782A
330
18
100
AcDbEntity
  8
1
 62
     7
 48
0.5
100
AcDbLine
 10
-925.4991421574164
 20
-311.8708250400222
 30
0.0
 11
-938.9991421574158
 21
-311.8708250400221
 31
0.0
  0
LINE
  5
1782B
330
18
100
AcDbEntity
  8
1
 62
     7
 48
0.5
100
AcDbLine
 10
-925.4991421574164
 20
-315.8105527055353
 30
0.0
 11
-938.9991421574158
 21
-315.8105527055353
 31
0.0
  0
LINE
  5
1782C
330
18
100
AcDbEntity
  8
1
 62
     7
 48
0.5
100
AcDbLine
 10
-925.4991421574164
 20
-330.137880026804
 30
0.0
 11
-938.9991421574164
 21
-330.137880026804
 31
0.0
  0
LINE
  5
1782D
330
18
100
AcDbEntity
  8
1
 62
     7
 48
0.5
100
AcDbLine
 10
-925.4991421574164
 20
-333.7106333814423
 30
0.0
 11
-938.9991421574158
 21
-333.7106333814425
 31
0.0
  0
LINE
  5
1782E
330
18
100
AcDbEntity
  8
1
 62
     7
 48
0.5
100
AcDbLine
 10
-925.4991421574167
 20
-346.132877362931
 30
0.0
 11
-938.9991421574158
 21
-346.132877362931
 31
0.0
  0
LINE
  5
1782F
330
18
100
AcDbEntity
  8
1
 62
     7
 48
0.5
100
AcDbLine
 10
-925.4991421574167
 20
-349.0736816346402
 30
0.0
 11
-938.9991421574158
 21
-349.0736816346398
 31
0.0
  0
LINE
  5
17830
330
18
100
AcDbEntity
  8
1
 62
     7
 48
0.5
100
AcDbLine
 10
-925.4991421574167
 20
-358.6695412682264
 30
0.0
 11
-938.9991421574158
 21
-358.6695412682266
 31
0.0
  0
LINE
  5
17831
330
18
100
AcDbEntity
  8
1
 62
     7
 48
0.5
100
AcDbLine
 10
-925.4991421574167
 20
-360.7602904574579
 30
0.0
 11
-938.9991421574158
 21
-360.7602904574579
 31
0.0
  0
LINE
  5
17832
330
18
100
AcDbEntity
  8
1
 62
     7
 48
0.5
100
AcDbLine
 10
-925.4991421574167
 20
-366.8180847322557
 30
0.0
 11
-938.9991421574158
 21
-366.8180847322558
 31
0.0
  0
LINE
  5
17833
330
18
100
AcDbEntity
  8
1
 62
     7
 48
0.5
100
AcDbLine
 10
-925.4991421574167
 20
-367.9037175361855
 30
0.0
 11
-938.9991421574158
 21
-367.9037175361855
 31
0.0
  0
LINE
  5
17834
330
18
100
AcDbEntity
  8
1
 62
     7
 48
0.5
100
AcDbLine
 10
-939.9991421574158
 20
-241.5028820971145
 30
0.0
 11
-939.9991421574158
 21
-357.5028820971145
 31
0.0
  0
LINE
  5
17835
330
18
100
AcDbEntity
  8
3
  6
CENTER2
 48
0.5
100
AcDbLine
 10
-916.9991421574163
 20
-228.9028820971144
 30
0.0
 11
-976.9991421574163
 21
-228.9028820971144
 31
0.0
  0
LINE
  5
17836
330
18
100
AcDbEntity
  8
3
  6
CENTER2
 48
0.5
100
AcDbLine
 10
-916.9991421574163
 20
-370.1028820971144
 30
0.0
 11
-976.9991421574163
 21
-370.1028820971144
 31
0.0
  0
LINE
  5
17837
330
18
100
AcDbEntity
  8
1
 62
     7
 48
0.5
100
AcDbLine
 10
-968.4991421574167
 20
-228.5028820971143
 30
0.0
 11
-968.4991421574158
 21
-370.5028820971145
 31
0.0
  0
LINE
  5
17838
330
18
100
AcDbEntity
  8
1
 62
     7
 48
0.5
100
AcDbLine
 10
-954.9991421574159
 20
-228.5028820971143
 30
0.0
 11
-954.9991421574159
 21
-370.5028820971145
 31
0.0
  0
LINE
  5
17839
330
18
100
AcDbEntity
  8
1
 62
     7
 48
0.5
100
AcDbLine
 10
-968.4991421574167
 20
-229.9619298646239
 30
0.0
 11
-954.9991421574159
 21
-229.9619298646238
 31
0.0
  0
LINE
  5
1783A
330
18
100
AcDbEntity
  8
1
 62
     7
 48
0.5
100
AcDbLine
 10
-968.4991421574167
 20
-234.0642613524841
 30
0.0
 11
-954.9991421574159
 21
-234.0642613524841
 31
0.0
  0
LINE
  5
1783B
330
18
100
AcDbEntity
  8
1
 62
     7
 48
0.5
100
AcDbLine
 10
-968.4991421574167
 20
-235.6673839191608
 30
0.0
 11
-954.9991421574159
 21
-235.6673839191608
 31
0.0
  0
LINE
  5
1783C
330
18
100
AcDbEntity
  8
1
 62
     7
 48
0.5
100
AcDbLine
 10
-968.4991421574167
 20
-243.5677957353443
 30
0.0
 11
-954.9991421574159
 21
-243.5677957353444
 31
0.0
  0
LINE
  5
1783D
330
18
100
AcDbEntity
  8
1
 62
     7
 48
0.5
100
AcDbLine
 10
-968.4991421574167
 20
-246.1072248455841
 30
0.0
 11
-954.9991421574159
 21
-246.1072248455842
 31
0.0
  0
LINE
  5
1783E
330
18
100
AcDbEntity
  8
1
 62
     7
 48
0.5
100
AcDbLine
 10
-968.4991421574164
 20
-257.2197795876638
 30
0.0
 11
-954.9991421574159
 21
-257.2197795876639
 31
0.0
  0
LINE
  5
1783F
330
18
100
AcDbEntity
  8
1
 62
     7
 48
0.5
100
AcDbLine
 10
-968.4991421574164
 20
-260.5071774014753
 30
0.0
 11
-954.9991421574159
 21
-260.5071774014753
 31
0.0
  0
LINE
  5
17840
330
18
100
AcDbEntity
  8
1
 62
     7
 48
0.5
100
AcDbLine
 10
-968.4991421574164
 20
-274.0077077207861
 30
0.0
 11
-954.9991421574159
 21
-274.0077077207862
 31
0.0
  0
LINE
  5
17841
330
18
100
AcDbEntity
  8
1
 62
     7
 48
0.5
100
AcDbLine
 10
-968.4991421574164
 20
-277.7992629811635
 30
0.0
 11
-954.9991421574159
 21
-277.7992629811636
 31
0.0
  0
LINE
  5
17842
330
18
100
AcDbEntity
  8
1
 62
     7
 48
0.5
100
AcDbLine
 10
-968.4991421574164
 20
-292.6864963047391
 30
0.0
 11
-954.9991421574159
 21
-292.6864963047393
 31
0.0
  0
LINE
  5
17843
330
18
100
AcDbEntity
  8
1
 62
     7
 48
0.5
100
AcDbLine
 10
-968.4991421574164
 20
-296.7010067032306
 30
0.0
 11
-954.9991421574159
 21
-296.7010067032305
 31
0.0
  0
LINE
  5
17844
330
18
100
AcDbEntity
  8
1
 62
     7
 48
0.5
100
AcDbLine
 10
-968.4991421574164
 20
-311.8708250400222
 30
0.0
 11
-954.9991421574159
 21
-311.8708250400221
 31
0.0
  0
LINE
  5
17845
330
18
100
AcDbEntity
  8
1
 62
     7
 48
0.5
100
AcDbLine
 10
-968.4991421574164
 20
-315.8105527055353
 30
0.0
 11
-954.9991421574159
 21
-315.8105527055353
 31
0.0
  0
LINE
  5
17846
330
18
100
AcDbEntity
  8
1
 62
     7
 48
0.5
100
AcDbLine
 10
-968.4991421574158
 20
-330.137880026804
 30
0.0
 11
-954.9991421574159
 21
-330.137880026804
 31
0.0
  0
LINE
  5
17847
330
18
100
AcDbEntity
  8
1
 62
     7
 48
0.5
100
AcDbLine
 10
-968.4991421574158
 20
-333.7106333814423
 30
0.0
 11
-954.9991421574159
 21
-333.7106333814425
 31
0.0
  0
LINE
  5
17848
330
18
100
AcDbEntity
  8
1
 62
     7
 48
0.5
100
AcDbLine
 10
-968.4991421574158
 20
-346.132877362931
 30
0.0
 11
-954.9991421574159
 21
-346.132877362931
 31
0.0
  0
LINE
  5
17849
330
18
100
AcDbEntity
  8
1
 62
     7
 48
0.5
100
AcDbLine
 10
-968.4991421574158
 20
-349.07368163464
 30
0.0
 11
-954.9991421574159
 21
-349.0736816346398
 31
0.0
  0
LINE
  5
1784A
330
18
100
AcDbEntity
  8
1
 62
     7
 48
0.5
100
AcDbLine
 10
-968.4991421574158
 20
-358.6695412682264
 30
0.0
 11
-954.9991421574159
 21
-358.6695412682266
 31
0.0
  0
LINE
  5
1784B
330
18
100
AcDbEntity
  8
1
 62
     7
 48
0.5
100
AcDbLine
 10
-968.4991421574158
 20
-360.7602904574579
 30
0.0
 11
-954.9991421574159
 21
-360.7602904574579
 31
0.0
  0
LINE
  5
1784C
330
18
100
AcDbEntity
  8
1
 62
     7
 48
0.5
100
AcDbLine
 10
-968.4991421574158
 20
-366.8180847322557
 30
0.0
 11
-954.9991421574159
 21
-366.8180847322558
 31
0.0
  0
LINE
  5
1784D
330
18
100
AcDbEntity
  8
1
 62
     7
 48
0.5
100
AcDbLine
 10
-968.4991421574158
 20
-367.9037175361855
 30
0.0
 11
-954.9991421574159
 21
-367.9037175361855
 31
0.0
  0
LINE
  5
1784E
330
18
100
AcDbEntity
  8
1
 62
     7
 48
0.5
100
AcDbLine
 10
-953.9991421574164
 20
-241.5028820971124
 30
0.0
 11
-953.9991421574164
 21
-357.5028820971145
 31
0.0
  0
DIMENSION
  5
1784F
330
18
100
AcDbEntity
  8
2
 48
0.5
100
AcDbDimension
  2
*D6
 10
-767.6664288178861
 20
-241.6038205682517
 30
0.0
 11
-783.4301002608173
 21
-230.6193241009882
 31
0.0
 70
    33
 71
     5
 42
38.10000000000014
  3
STANDARD
100
AcDbAlignedDimension
 13
-804.7617064986333
 23
-230.3795455055436
 33
0.0
 14
-770.9338850965207
 24
-247.9091917993736
 34
0.0
  0
LINE
  5
17850
330
18
100
AcDbEntity
  8
1
 62
     7
 48
0.5
100
AcDbLine
 10
-787.5029244126955
 20
-284.5028820971147
 30
0.0
 11
-794.3063537223975
 21
-284.5028820971147
 31
0.0
  0
LINE
  5
17851
330
18
100
AcDbEntity
  8
1
 62
     7
 48
0.5
100
AcDbLine
 10
-787.5029244126956
 20
-314.5028820971146
 30
0.0
 11
-794.3063537223977
 21
-314.5028820971146
 31
0.0
  0
ARC
  5
17852
330
18
100
AcDbEntity
  8
1
 62
     7
 48
0.5
100
AcDbCircle
 10
-819.1257010143793
 20
-299.5028820971143
 30
0.0
 40
35.0
100
AcDbArc
 50
334.6230664748487
 51
25.37693352515143
1001
GENIUS_GENODEF_13
1002
{
1000
HIER
1070
     0
1002
}
1002
{
1000
MANEDIT
1070
     0
1002
}
1002
{
1000
NOSEL
1070
     0
1002
}
1002
{
1000
BEHIND
1070
     0
1002
}
1002
{
1000
OTHER
1070
     0
1002
}
1002
{
1000
REACTOR
1002
}
1001
GENIUS_GENOBJ-N-FIL_13
1002
{
1000
OWNER
1000
GEN
1002
}
  0
LINE
  5
17853
330
18
100
AcDbEntity
  8
1
 62
     7
 48
0.5
100
AcDbLine
 10
-968.4991421574167
 20
-228.5028820971143
 30
0.0
 11
-954.9991421574159
 21
-228.5028820971143
 31
0.0
  0
LINE
  5
17854
330
18
100
AcDbEntity
  8
1
 62
     7
 48
0.5
100
AcDbLine
 10
-954.9991421574159
 20
-228.5028820971143
 30
0.0
 11
-953.9991421574159
 21
-241.5028820971147
 31
0.0
  0
LINE
  5
17855
330
18
100
AcDbEntity
  8
1
 62
     7
 48
0.5
100
AcDbLine
 10
-939.9991421574158
 20
-241.5028820971145
 30
0.0
 11
-953.9991421574159
 21
-241.5028820971147
 31
0.0
  0
LINE
  5
17856
330
18
100
AcDbEntity
  8
1
 62
     7
 48
0.5
100
AcDbLine
 10
-925.4991421574159
 20
-228.5028820971143
 30
0.0
 11
-938.9991421574158
 21
-228.5028820971143
 31
0.0
  0
LINE
  5
17857
330
18
100
AcDbEntity
  8
1
 62
     7
 48
0.5
100
AcDbLine
 10
-938.9991421574158
 20
-228.5028820971143
 30
0.0
 11
-939.9991421574158
 21
-241.5028820971145
 31
0.0
  0
LINE
  5
17858
330
18
100
AcDbEntity
  8
1
 62
     7
 48
0.5
100
AcDbLine
 10
-968.4991421574158
 20
-370.5028820971145
 30
0.0
 11
-954.9991421574159
 21
-370.5028820971145
 31
0.0
  0
LINE
  5
17859
330
18
100
AcDbEntity
  8
1
 62
     7
 48
0.5
100
AcDbLine
 10
-954.9991421574159
 20
-370.5028820971145
 30
0.0
 11
-953.9991421574164
 21
-357.5028820971145
 31
0.0
  0
LINE
  5
1785A
330
18
100
AcDbEntity
  8
1
 62
     7
 48
0.5
100
AcDbLine
 10
-939.9991421574158
 20
-357.5028820971145
 30
0.0
 11
-953.9991421574164
 21
-357.5028820971145
 31
0.0
  0
LINE
  5
1785B
330
18
100
AcDbEntity
  8
1
 62
     7
 48
0.5
100
AcDbLine
 10
-925.4991421574167
 20
-370.5028820971145
 30
0.0
 11
-938.9991421574158
 21
-370.5028820971145
 31
0.0
  0
LINE
  5
1785C
330
18
100
AcDbEntity
  8
1
 62
     7
 48
0.5
100
AcDbLine
 10
-938.9991421574158
 20
-370.5028820971145
 30
0.0
 11
-939.9991421574158
 21
-357.5028820971145
 31
0.0
  0
LINE
  5
1785D
330
18
100
AcDbEntity
  8
1
 62
     7
 48
0.5
100
AcDbLine
 10
-812.4505314077389
 20
-228.8173665318832
 30
0.0
 11
-810.4588149863102
 21
-236.0924327486322
 31
0.0
  0
ARC
  5
1785E
330
18
100
AcDbEntity
  8
1
 62
     7
 48
0.5
100
AcDbCircle
 10
-819.1257010143793
 20
-299.5028820971143
 30
0.0
 40
58.0
100
AcDbArc
 50
40.28211835598429
 51
319.7178816440157
  0
CIRCLE
  5
1785F
330
18
100
AcDbEntity
  8
1
 62
     7
 48
0.5
100
AcDbCircle
 10
-819.1257010143793
 20
-299.5028820971146
 30
0.0
 40
51.0
  0
ARC
  5
17860
330
18
100
AcDbEntity
  8
1
 62
     7
 48
0.5
100
AcDbCircle
 10
-773.8365692236397
 20
-334.5684775380779
 30
0.0
 40
2.648295999171546
100
AcDbArc
 50
163.2544744460512
 51
246.814399489929
  0
ARC
  5
17861
330
18
100
AcDbEntity
  8
1
 62
     7
 48
0.5
100
AcDbCircle
 10
-769.4983189234092
 20
-338.1063704134508
 30
0.0
 40
8.108831803200637
100
AcDbArc
 50
92.08015026770931
 51
147.9675192351934
  0
ARC
  5
17862
330
18
100
AcDbEntity
  8
1
 62
     7
 48
0.5
100
AcDbCircle
 10
-819.1257010143793
 20
-299.5028820971143
 30
0.0
 40
58.0
100
AcDbArc
 50
328.2737045405345
 51
31.72629545946546
  0
LINE
  5
17863
330
18
100
AcDbEntity
  8
1
 62
     7
 48
0.5
100
AcDbLine
 10
-822.1257010143794
 20
-348.5028820971146
 30
0.0
 11
-819.1257010143793
 21
-347.5028820971147
 31
0.0
  0
LINE
  5
17864
330
18
100
AcDbEntity
  8
1
 62
     7
 48
0.5
100
AcDbLine
 10
-822.1257010143794
 20
-348.0028820971146
 30
0.0
 11
-819.1257010143793
 21
-347.0028820971147
 31
0.0
  0
ARC
  5
17865
330
18
100
AcDbEntity
  8
1
 62
     7
 48
0.5
100
AcDbCircle
 10
-819.1257010143802
 20
-299.5028820971146
 30
0.0
 40
12.5
100
AcDbArc
 50
18.66292488493867
 51
341.3370751150613
  0
LINE
  5
17866
330
18
100
AcDbEntity
  8
1
 62
     7
 48
0.5
100
AcDbLine
 10
-807.2829817320529
 20
-303.5028820971147
 30
0.0
 11
-803.3257010143803
 21
-303.5028820971147
 31
0.0
  0
LINE
  5
17867
330
18
100
AcDbEntity
  8
1
 62
     7
 48
0.5
100
AcDbLine
 10
-803.3257010143803
 20
-302.5028820971146
 30
0.0
 11
-803.3257010143803
 21
-296.5028820971146
 31
0.0
  0
LINE
  5
17868
330
18
100
AcDbEntity
  8
1
 62
     7
 48
0.5
100
AcDbLine
 10
-803.3257010143803
 20
-295.5028820971147
 30
0.0
 11
-807.2829817320529
 21
-295.5028820971147
 31
0.0
  0
ARC
  5
17869
330
18
100
AcDbEntity
  8
1
 62
     7
 48
0.5
100
AcDbCircle
 10
-803.3257010143803
 20
-296.0028820971146
 30
0.0
 40
0.5
100
AcDbArc
 50
270.0
 51
90.0
  0
ARC
  5
1786A
330
18
100
AcDbEntity
  8
1
 62
     7
 48
0.5
100
AcDbCircle
 10
-803.3257010143803
 20
-303.0028820971147
 30
0.0
 40
0.5
100
AcDbArc
 50
270.0
 51
90.0
  0
LINE
  5
1786B
330
18
100
AcDbEntity
  8
1
 62
     7
 48
0.5
100
AcDbLine
 10
-832.1257010143794
 20
-267.902882097115
 30
0.0
 11
-831.7792908528657
 21
-268.5028820971149
 31
0.0
  0
ARC
  5
1786C
330
18
100
AcDbEntity
  8
1
 62
     7
 48
0.5
100
AcDbCircle
 10
-819.1257010143793
 20
-299.5028820971143
 30
0.0
 40
64.0
100
AcDbArc
 50
74.30465172416027
 51
82.21708740627375
1001
GENIUS_GENOBJ-N-FIL_13
1002
{
1000
OWNER
1000
GEN
1002
}
1001
GENIUS_GENODEF_13
1002
{
1000
HIER
1070
     0
1002
}
1002
{
1000
MANEDIT
1070
     0
1002
}
1002
{
1000
NOSEL
1070
     0
1002
}
1002
{
1000
BEHIND
1070
     0
1002
}
1002
{
1000
OTHER
1070
     0
1002
}
1002
{
1000
REACTOR
1002
}
  0
LINE
  5
1786D
330
18
100
AcDbEntity
  8
1
 62
     7
 48
0.5
100
AcDbLine
 10
-812.4505314077389
 20
-228.8173665318829
 30
0.0
 11
-810.4588149863102
 21
-236.0924327486322
 31
0.0
  0
LINE
  5
1786E
330
18
100
AcDbEntity
  8
1
 62
     7
 48
0.5
100
AcDbLine
 10
-816.1136879369291
 20
-228.5667997608222
 30
0.0
 11
-819.0774747928159
 21
-235.5029002671831
 31
0.0
  0
ARC
  5
1786F
330
18
100
AcDbEntity
  8
1
 62
     7
 48
0.5
100
AcDbCircle
 10
-819.1257010143793
 20
-299.5028820971143
 30
0.0
 40
71.0
100
AcDbArc
 50
84.60528547776933
 51
87.56862756571155
1001
GENIUS_GENODEF_13
1002
{
1000
HIER
1070
     0
1002
}
1002
{
1000
MANEDIT
1070
     0
1002
}
1002
{
1000
NOSEL
1070
     0
1002
}
1002
{
1000
BEHIND
1070
     0
1002
}
1002
{
1000
OTHER
1070
     0
1002
}
1002
{
1000
REACTOR
1002
}
1001
GENIUS_GENOBJ-N-FIL_13
1002
{
1000
OWNER
1000
GEN
1002
}
  0
LINE
  5
17870
330
18
100
AcDbEntity
  8
1
 62
     7
 48
0.5
100
AcDbLine
 10
-831.7687886712358
 20
-229.6376379874643
 30
0.0
 11
-827.8881411223151
 21
-236.10556635461
 31
0.0
  0
ARC
  5
17871
330
18
100
AcDbEntity
  8
1
 62
     7
 48
0.5
100
AcDbCircle
 10
-819.1257010143793
 20
-299.5028820971143
 30
0.0
 40
64.0
100
AcDbArc
 50
89.95682563720786
 51
97.86926131931924
1001
GENIUS_GENOBJ-N-FIL_13
1002
{
1000
OWNER
1000
GEN
1002
}
1001
GENIUS_GENODEF_13
1002
{
1000
HIER
1070
     0
1002
}
1002
{
1000
MANEDIT
1070
     0
1002
}
1002
{
1000
NOSEL
1070
     0
1002
}
1002
{
1000
BEHIND
1070
     0
1002
}
1002
{
1000
OTHER
1070
     0
1002
}
1002
{
1000
REACTOR
1002
}
  0
LINE
  5
17872
330
18
100
AcDbEntity
  8
1
 62
     7
 48
0.5
100
AcDbLine
 10
-831.7687886712358
 20
-229.637637987464
 30
0.0
 11
-827.8881411223149
 21
-236.10556635461
 31
0.0
  0
LINE
  5
17873
330
18
100
AcDbEntity
  8
1
 62
     7
 48
0.5
100
AcDbLine
 10
-835.363707525245
 20
-230.384670715793
 30
0.0
 11
-836.3462516037561
 21
-237.8631819242656
 31
0.0
  0
ARC
  5
17874
330
18
100
AcDbEntity
  8
1
 62
     7
 48
0.5
100
AcDbCircle
 10
-819.1257010143793
 20
-299.5028820971143
 30
0.0
 40
71.0
100
AcDbArc
 50
100.257459390803
 51
103.2208014787538
1001
GENIUS_GENODEF_13
1002
{
1000
HIER
1070
     0
1002
}
1002
{
1000
MANEDIT
1070
     0
1002
}
1002
{
1000
NOSEL
1070
     0
1002
}
1002
{
1000
BEHIND
1070
     0
1002
}
1002
{
1000
OTHER
1070
     0
1002
}
1002
{
1000
REACTOR
1002
}
1001
GENIUS_GENOBJ-N-FIL_13
1002
{
1000
OWNER
1000
GEN
1002
}
  0
LINE
  5
17875
330
18
100
AcDbEntity
  8
1
 62
     7
 48
0.5
100
AcDbLine
 10
-850.1493659615011
 20
-235.6394949864336
 30
0.0
 11
-844.6675971610105
 21
-240.820588845788
 31
0.0
  0
ARC
  5
17876
330
18
100
AcDbEntity
  8
1
 62
     7
 48
0.5
100
AcDbCircle
 10
-819.1257010143793
 20
-299.5028820971145
 30
0.0
 40
64.0
100
AcDbArc
 50
105.6089995502505
 51
113.5214352323644
1001
GENIUS_GENOBJ-N-FIL_13
1002
{
1000
OWNER
1000
GEN
1002
}
1001
GENIUS_GENODEF_13
1002
{
1000
HIER
1070
     0
1002
}
1002
{
1000
MANEDIT
1070
     0
1002
}
1002
{
1000
NOSEL
1070
     0
1002
}
1002
{
1000
BEHIND
1070
     0
1002
}
1002
{
1000
OTHER
1070
     0
1002
}
1002
{
1000
REACTOR
1002
}
  0
LINE
  5
17877
330
18
100
AcDbEntity
  8
1
 62
     7
 48
0.5
100
AcDbLine
 10
-850.1493659615011
 20
-235.6394949864331
 30
0.0
 11
-844.6675971610105
 21
-240.820588845788
 31
0.0
  0
LINE
  5
17878
330
18
100
AcDbEntity
  8
1
 62
     7
 48
0.5
100
AcDbLine
 10
-853.4094284545876
 20
-237.328723214139
 30
0.0
 11
-852.3378589562593
 21
-244.7949981603033
 31
0.0
  0
ARC
  5
17879
330
18
100
AcDbEntity
  8
1
 62
     7
 48
0.5
100
AcDbCircle
 10
-819.1257010143793
 20
-299.5028820971145
 30
0.0
 40
71.0
100
AcDbArc
 50
115.9096333038512
 51
118.8729753918001
1001
GENIUS_GENODEF_13
1002
{
1000
HIER
1070
     0
1002
}
1002
{
1000
MANEDIT
1070
     0
1002
}
1002
{
1000
NOSEL
1070
     0
1002
}
1002
{
1000
BEHIND
1070
     0
1002
}
1002
{
1000
OTHER
1070
     0
1002
}
1002
{
1000
REACTOR
1002
}
1001
GENIUS_GENOBJ-N-FIL_13
1002
{
1000
OWNER
1000
GEN
1002
}
  0
LINE
  5
1787A
330
18
100
AcDbEntity
  8
1
 62
     7
 48
0.5
100
AcDbLine
 10
-866.2290599464618
 20
-246.3778072518458
 30
0.0
 11
-859.5527276089102
 21
-249.8878085737884
 31
0.0
  0
ARC
  5
1787B
330
18
100
AcDbEntity
  8
1
 62
     7
 48
0.5
100
AcDbCircle
 10
-819.1257010143797
 20
-299.5028820971145
 30
0.0
 40
64.0
100
AcDbArc
 50
121.2611734632923
 51
129.1736091454047
1001
GENIUS_GENOBJ-N-FIL_13
1002
{
1000
OWNER
1000
GEN
1002
}
1001
GENIUS_GENODEF_13
1002
{
1000
HIER
1070
     0
1002
}
1002
{
1000
MANEDIT
1070
     0
1002
}
1002
{
1000
NOSEL
1070
     0
1002
}
1002
{
1000
BEHIND
1070
     0
1002
}
1002
{
1000
OTHER
1070
     0
1002
}
1002
{
1000
REACTOR
1002
}
  0
LINE
  5
1787C
330
18
100
AcDbEntity
  8
1
 62
     7
 48
0.5
100
AcDbLine
 10
-866.2290599464618
 20
-246.3778072518456
 30
0.0
 11
-859.5527276089102
 21
-249.8878085737882
 31
0.0
  0
LINE
  5
1787D
330
18
100
AcDbEntity
  8
1
 62
     7
 48
0.5
100
AcDbLine
 10
-868.9124821573065
 20
-248.883948648984
 30
0.0
 11
-865.866272489726
 21
-255.7842478760183
 31
0.0
  0
ARC
  5
1787E
330
18
100
AcDbEntity
  8
1
 62
     7
 48
0.5
100
AcDbCircle
 10
-819.1257010143797
 20
-299.5028820971145
 30
0.0
 40
71.0
100
AcDbArc
 50
131.5618072168958
 51
134.5251493048442
1001
GENIUS_GENODEF_13
1002
{
1000
HIER
1070
     0
1002
}
1002
{
1000
MANEDIT
1070
     0
1002
}
1002
{
1000
NOSEL
1070
     0
1002
}
1002
{
1000
BEHIND
1070
     0
1002
}
1002
{
1000
OTHER
1070
     0
1002
}
1002
{
1000
REACTOR
1002
}
1001
GENIUS_GENOBJ-N-FIL_13
1002
{
1000
OWNER
1000
GEN
1002
}
  0
LINE
  5
1787F
330
18
100
AcDbEntity
  8
1
 62
     7
 48
0.5
100
AcDbLine
 10
-878.8153132829584
 20
-261.0561632874857
 30
0.0
 11
-871.4395704356341
 21
-262.6347513311552
 31
0.0
  0
ARC
  5
17880
330
18
100
AcDbEntity
  8
1
 62
     7
 48
0.5
100
AcDbCircle
 10
-819.1257010143797
 20
-299.5028820971145
 30
0.0
 40
64.0
100
AcDbArc
 50
136.9133473763334
 51
144.825783058448
1001
GENIUS_GENOBJ-N-FIL_13
1002
{
1000
OWNER
1000
GEN
1002
}
1001
GENIUS_GENODEF_13
1002
{
1000
HIER
1070
     0
1002
}
1002
{
1000
MANEDIT
1070
     0
1002
}
1002
{
1000
NOSEL
1070
     0
1002
}
1002
{
1000
BEHIND
1070
     0
1002
}
1002
{
1000
OTHER
1070
     0
1002
}
1002
{
1000
REACTOR
1002
}
  0
LINE
  5
17881
330
18
100
AcDbEntity
  8
1
 62
     7
 48
0.5
100
AcDbLine
 10
-878.8153132829586
 20
-261.0561632874855
 30
0.0
 11
-871.4395704356341
 21
-262.634751331155
 31
0.0
  0
LINE
  5
17882
330
18
100
AcDbEntity
  8
1
 62
     7
 48
0.5
100
AcDbLine
 10
-880.7230780620233
 20
-264.1933488114651
 30
0.0
 11
-875.9281516607527
 21
-270.0159086924685
 31
0.0
  0
ARC
  5
17883
330
18
100
AcDbEntity
  8
1
 62
     7
 48
0.5
100
AcDbCircle
 10
-819.1257010143797
 20
-299.5028820971145
 30
0.0
 40
71.0
100
AcDbArc
 50
147.2139811299366
 51
150.1773232178829
1001
GENIUS_GENODEF_13
1002
{
1000
HIER
1070
     0
1002
}
1002
{
1000
MANEDIT
1070
     0
1002
}
1002
{
1000
NOSEL
1070
     0
1002
}
1002
{
1000
BEHIND
1070
     0
1002
}
1002
{
1000
OTHER
1070
     0
1002
}
1002
{
1000
REACTOR
1002
}
1001
GENIUS_GENOBJ-N-FIL_13
1002
{
1000
OWNER
1000
GEN
1002
}
  0
LINE
  5
17884
330
18
100
AcDbEntity
  8
1
 62
     7
 48
0.5
100
AcDbLine
 10
-886.9746611393015
 20
-278.5859365752005
 30
0.0
 11
-879.4465328874117
 21
-278.1160346869579
 31
0.0
  0
ARC
  5
17885
330
18
100
AcDbEntity
  8
1
 62
     7
 48
0.5
100
AcDbCircle
 10
-819.1257010143797
 20
-299.5028820971146
 30
0.0
 40
64.0
100
AcDbArc
 50
152.5655212893815
 51
160.477956971494
1001
GENIUS_GENOBJ-N-FIL_13
1002
{
1000
OWNER
1000
GEN
1002
}
1001
GENIUS_GENODEF_13
1002
{
1000
HIER
1070
     0
1002
}
1002
{
1000
MANEDIT
1070
     0
1002
}
1002
{
1000
NOSEL
1070
     0
1002
}
1002
{
1000
BEHIND
1070
     0
1002
}
1002
{
1000
OTHER
1070
     0
1002
}
1002
{
1000
REACTOR
1002
}
  0
LINE
  5
17886
330
18
100
AcDbEntity
  8
1
 62
     7
 48
0.5
100
AcDbLine
 10
-886.9746611393019
 20
-278.5859365752004
 30
0.0
 11
-879.4465328874117
 21
-278.1160346869578
 31
0.0
  0
LINE
  5
17887
330
18
100
AcDbEntity
  8
1
 62
     7
 48
0.5
100
AcDbLine
 10
-887.9652783003662
 20
-282.1214955273763
 30
0.0
 11
-881.7772529212593
 21
-286.4344834324139
 31
0.0
  0
ARC
  5
17888
330
18
100
AcDbEntity
  8
1
 62
     7
 48
0.5
100
AcDbCircle
 10
-819.1257010143797
 20
-299.5028820971146
 30
0.0
 40
71.0
100
AcDbArc
 50
162.8661550429789
 51
165.8294971309326
1001
GENIUS_GENODEF_13
1002
{
1000
HIER
1070
     0
1002
}
1002
{
1000
MANEDIT
1070
     0
1002
}
1002
{
1000
NOSEL
1070
     0
1002
}
1002
{
1000
BEHIND
1070
     0
1002
}
1002
{
1000
OTHER
1070
     0
1002
}
1002
{
1000
REACTOR
1002
}
1001
GENIUS_GENOBJ-N-FIL_13
1002
{
1000
OWNER
1000
GEN
1002
}
  0
LINE
  5
17889
330
18
100
AcDbEntity
  8
1
 62
     7
 48
0.5
100
AcDbLine
 10
-890.1019620115178
 20
-297.6670240236172
 30
0.0
 11
-882.9797751886106
 21
-295.183482676855
 31
0.0
  0
ARC
  5
1788A
330
18
100
AcDbEntity
  8
1
 62
     7
 48
0.5
100
AcDbCircle
 10
-819.1257010143797
 20
-299.5028820971146
 30
0.0
 40
64.0
100
AcDbArc
 50
168.2176952024236
 51
176.1301308845354
1001
GENIUS_GENOBJ-N-FIL_13
1002
{
1000
OWNER
1000
GEN
1002
}
1001
GENIUS_GENODEF_13
1002
{
1000
HIER
1070
     0
1002
}
1002
{
1000
MANEDIT
1070
     0
1002
}
1002
{
1000
NOSEL
1070
     0
1002
}
1002
{
1000
BEHIND
1070
     0
1002
}
1002
{
1000
OTHER
1070
     0
1002
}
1002
{
1000
REACTOR
1002
}
  0
LINE
  5
1788B
330
18
100
AcDbEntity
  8
1
 62
     7
 48
0.5
100
AcDbLine
 10
-890.1019620115182
 20
-297.667024023617
 30
0.0
 11
-882.9797751886106
 21
-295.1834826768548
 31
0.0
  0
LINE
  5
1788C
330
18
100
AcDbEntity
  8
1
 62
     7
 48
0.5
100
AcDbLine
 10
-890.1019620115182
 20
-301.3387401706123
 30
0.0
 11
-882.9797751886106
 21
-303.8222815173743
 31
0.0
  0
ARC
  5
1788D
330
18
100
AcDbEntity
  8
1
 62
     7
 48
0.5
100
AcDbCircle
 10
-819.1257010143797
 20
-299.5028820971146
 30
0.0
 40
71.0
100
AcDbArc
 50
178.5183289560239
 51
181.4816710439761
1001
GENIUS_GENODEF_13
1002
{
1000
HIER
1070
     0
1002
}
1002
{
1000
MANEDIT
1070
     0
1002
}
1002
{
1000
NOSEL
1070
     0
1002
}
1002
{
1000
BEHIND
1070
     0
1002
}
1002
{
1000
OTHER
1070
     0
1002
}
1002
{
1000
REACTOR
1002
}
1001
GENIUS_GENOBJ-N-FIL_13
1002
{
1000
OWNER
1000
GEN
1002
}
  0
LINE
  5
1788E
330
18
100
AcDbEntity
  8
1
 62
     7
 48
0.5
100
AcDbLine
 10
-887.9652783003658
 20
-316.8842686668532
 30
0.0
 11
-881.7772529212591
 21
-312.5712807618153
 31
0.0
  0
ARC
  5
1788F
330
18
100
AcDbEntity
  8
1
 62
     7
 48
0.5
100
AcDbCircle
 10
-819.1257010143797
 20
-299.5028820971148
 30
0.0
 40
64.0
100
AcDbArc
 50
183.8698691154646
 51
191.7823047975831
1001
GENIUS_GENOBJ-N-FIL_13
1002
{
1000
OWNER
1000
GEN
1002
}
1001
GENIUS_GENODEF_13
1002
{
1000
HIER
1070
     0
1002
}
1002
{
1000
MANEDIT
1070
     0
1002
}
1002
{
1000
NOSEL
1070
     0
1002
}
1002
{
1000
BEHIND
1070
     0
1002
}
1002
{
1000
OTHER
1070
     0
1002
}
1002
{
1000
REACTOR
1002
}
  0
LINE
  5
17890
330
18
100
AcDbEntity
  8
1
 62
     7
 48
0.5
100
AcDbLine
 10
-887.9652783003662
 20
-316.8842686668532
 30
0.0
 11
-881.7772529212591
 21
-312.5712807618151
 31
0.0
  0
LINE
  5
17891
330
18
100
AcDbEntity
  8
1
 62
     7
 48
0.5
100
AcDbLine
 10
-886.9746611393015
 20
-320.4198276190289
 30
0.0
 11
-879.4465328874121
 21
-320.8897295072716
 31
0.0
  0
ARC
  5
17892
330
18
100
AcDbEntity
  8
1
 62
     7
 48
0.5
100
AcDbCircle
 10
-819.1257010143797
 20
-299.5028820971148
 30
0.0
 40
71.0
100
AcDbArc
 50
194.1705028690674
 51
197.1338449570211
1001
GENIUS_GENODEF_13
1002
{
1000
HIER
1070
     0
1002
}
1002
{
1000
MANEDIT
1070
     0
1002
}
1002
{
1000
NOSEL
1070
     0
1002
}
1002
{
1000
BEHIND
1070
     0
1002
}
1002
{
1000
OTHER
1070
     0
1002
}
1002
{
1000
REACTOR
1002
}
1001
GENIUS_GENOBJ-N-FIL_13
1002
{
1000
OWNER
1000
GEN
1002
}
  0
LINE
  5
17893
330
18
100
AcDbEntity
  8
1
 62
     7
 48
0.5
100
AcDbLine
 10
-880.723078062023
 20
-334.8124153827644
 30
0.0
 11
-875.9281516607527
 21
-328.9898555017608
 31
0.0
  0
ARC
  5
17894
330
18
100
AcDbEntity
  8
1
 62
     7
 48
0.5
100
AcDbCircle
 10
-819.1257010143797
 20
-299.5028820971149
 30
0.0
 40
64.0
100
AcDbArc
 50
199.522043028506
 51
207.4344787106184
1001
GENIUS_GENOBJ-N-FIL_13
1002
{
1000
OWNER
1000
GEN
1002
}
1001
GENIUS_GENODEF_13
1002
{
1000
HIER
1070
     0
1002
}
1002
{
1000
MANEDIT
1070
     0
1002
}
1002
{
1000
NOSEL
1070
     0
1002
}
1002
{
1000
BEHIND
1070
     0
1002
}
1002
{
1000
OTHER
1070
     0
1002
}
1002
{
1000
REACTOR
1002
}
  0
LINE
  5
17895
330
18
100
AcDbEntity
  8
1
 62
     7
 48
0.5
100
AcDbLine
 10
-880.7230780620233
 20
-334.8124153827644
 30
0.0
 11
-875.9281516607527
 21
-328.9898555017608
 31
0.0
  0
LINE
  5
17896
330
18
100
AcDbEntity
  8
1
 62
     7
 48
0.5
100
AcDbLine
 10
-878.8153132829584
 20
-337.9496009067438
 30
0.0
 11
-871.4395704356347
 21
-336.3710128630742
 31
0.0
  0
ARC
  5
17897
330
18
100
AcDbEntity
  8
1
 62
     7
 48
0.5
100
AcDbCircle
 10
-819.1257010143797
 20
-299.5028820971149
 30
0.0
 40
71.0
100
AcDbArc
 50
209.8226767821171
 51
212.7860188700633
1001
GENIUS_GENODEF_13
1002
{
1000
HIER
1070
     0
1002
}
1002
{
1000
MANEDIT
1070
     0
1002
}
1002
{
1000
NOSEL
1070
     0
1002
}
1002
{
1000
BEHIND
1070
     0
1002
}
1002
{
1000
OTHER
1070
     0
1002
}
1002
{
1000
REACTOR
1002
}
1001
GENIUS_GENOBJ-N-FIL_13
1002
{
1000
OWNER
1000
GEN
1002
}
  0
LINE
  5
17898
330
18
100
AcDbEntity
  8
1
 62
     7
 48
0.5
100
AcDbLine
 10
-868.9124821573059
 20
-350.1218155452453
 30
0.0
 11
-865.866272489726
 21
-343.2215163182109
 31
0.0
  0
ARC
  5
17899
330
18
100
AcDbEntity
  8
1
 62
     7
 48
0.5
100
AcDbCircle
 10
-819.1257010143793
 20
-299.5028820971149
 30
0.0
 40
64.0
100
AcDbArc
 50
215.174216941552
 51
223.0866526236666
1001
GENIUS_GENOBJ-N-FIL_13
1002
{
1000
OWNER
1000
GEN
1002
}
1001
GENIUS_GENODEF_13
1002
{
1000
HIER
1070
     0
1002
}
1002
{
1000
MANEDIT
1070
     0
1002
}
1002
{
1000
NOSEL
1070
     0
1002
}
1002
{
1000
BEHIND
1070
     0
1002
}
1002
{
1000
OTHER
1070
     0
1002
}
1002
{
1000
REACTOR
1002
}
  0
LINE
  5
1789A
330
18
100
AcDbEntity
  8
1
 62
     7
 48
0.5
100
AcDbLine
 10
-868.9124821573065
 20
-350.1218155452455
 30
0.0
 11
-865.866272489726
 21
-343.2215163182108
 31
0.0
  0
LINE
  5
1789B
330
18
100
AcDbEntity
  8
1
 62
     7
 48
0.5
100
AcDbLine
 10
-866.2290599464615
 20
-352.6279569423837
 30
0.0
 11
-859.5527276089102
 21
-349.1179556204411
 31
0.0
  0
ARC
  5
1789C
330
18
100
AcDbEntity
  8
1
 62
     7
 48
0.5
100
AcDbCircle
 10
-819.1257010143793
 20
-299.5028820971149
 30
0.0
 40
71.0
100
AcDbArc
 50
225.4748506951615
 51
228.438192783111
1001
GENIUS_GENODEF_13
1002
{
1000
HIER
1070
     0
1002
}
1002
{
1000
MANEDIT
1070
     0
1002
}
1002
{
1000
NOSEL
1070
     0
1002
}
1002
{
1000
BEHIND
1070
     0
1002
}
1002
{
1000
OTHER
1070
     0
1002
}
1002
{
1000
REACTOR
1002
}
1001
GENIUS_GENOBJ-N-FIL_13
1002
{
1000
OWNER
1000
GEN
1002
}
  0
LINE
  5
1789D
330
18
100
AcDbEntity
  8
1
 62
     7
 48
0.5
100
AcDbLine
 10
-853.4094284545876
 20
-361.6770409800905
 30
0.0
 11
-852.3378589562593
 21
-354.2107660339258
 31
0.0
  0
ARC
  5
1789E
330
18
100
AcDbEntity
  8
1
 62
     7
 48
0.5
100
AcDbCircle
 10
-819.1257010143797
 20
-299.5028820971149
 30
0.0
 40
64.0
100
AcDbArc
 50
230.8263908545871
 51
238.7388265367076
1001
GENIUS_GENOBJ-N-FIL_13
1002
{
1000
OWNER
1000
GEN
1002
}
1001
GENIUS_GENODEF_13
1002
{
1000
HIER
1070
     0
1002
}
1002
{
1000
MANEDIT
1070
     0
1002
}
1002
{
1000
NOSEL
1070
     0
1002
}
1002
{
1000
BEHIND
1070
     0
1002
}
1002
{
1000
OTHER
1070
     0
1002
}
1002
{
1000
REACTOR
1002
}
  0
LINE
  5
1789F
330
18
100
AcDbEntity
  8
1
 62
     7
 48
0.5
100
AcDbLine
 10
-853.4094284545876
 20
-361.6770409800907
 30
0.0
 11
-852.3378589562597
 21
-354.2107660339258
 31
0.0
  0
LINE
  5
178A0
330
18
100
AcDbEntity
  8
1
 62
     7
 48
0.5
100
AcDbLine
 10
-850.1493659615011
 20
-363.3662692077958
 30
0.0
 11
-844.6675971610105
 21
-358.1851753484414
 31
0.0
  0
ARC
  5
178A1
330
18
100
AcDbEntity
  8
1
 62
     7
 48
0.5
100
AcDbCircle
 10
-819.1257010143797
 20
-299.5028820971149
 30
0.0
 40
71.0
100
AcDbArc
 50
241.1270246081926
 51
244.0903666961415
1001
GENIUS_GENODEF_13
1002
{
1000
HIER
1070
     0
1002
}
1002
{
1000
MANEDIT
1070
     0
1002
}
1002
{
1000
NOSEL
1070
     0
1002
}
1002
{
1000
BEHIND
1070
     0
1002
}
1002
{
1000
OTHER
1070
     0
1002
}
1002
{
1000
REACTOR
1002
}
1001
GENIUS_GENOBJ-N-FIL_13
1002
{
1000
OWNER
1000
GEN
1002
}
  0
LINE
  5
178A2
330
18
100
AcDbEntity
  8
1
 62
     7
 48
0.5
100
AcDbLine
 10
-835.363707525245
 20
-368.6210934784364
 30
0.0
 11
-836.3462516037561
 21
-361.1425822699636
 31
0.0
  0
ARC
  5
178A3
330
18
100
AcDbEntity
  8
1
 62
     7
 48
0.5
100
AcDbCircle
 10
-819.1257010143793
 20
-299.5028820971149
 30
0.0
 40
64.0
100
AcDbArc
 50
246.4785647676356
 51
254.3910004497495
1001
GENIUS_GENOBJ-N-FIL_13
1002
{
1000
OWNER
1000
GEN
1002
}
1001
GENIUS_GENODEF_13
1002
{
1000
HIER
1070
     0
1002
}
1002
{
1000
MANEDIT
1070
     0
1002
}
1002
{
1000
NOSEL
1070
     0
1002
}
1002
{
1000
BEHIND
1070
     0
1002
}
1002
{
1000
OTHER
1070
     0
1002
}
1002
{
1000
REACTOR
1002
}
  0
LINE
  5
178A4
330
18
100
AcDbEntity
  8
1
 62
     7
 48
0.5
100
AcDbLine
 10
-835.3637075252452
 20
-368.6210934784368
 30
0.0
 11
-836.3462516037563
 21
-361.1425822699636
 31
0.0
  0
LINE
  5
178A5
330
18
100
AcDbEntity
  8
1
 62
     7
 48
0.5
100
AcDbLine
 10
-831.7687886712358
 20
-369.368126206765
 30
0.0
 11
-827.8881411223151
 21
-362.9001978396195
 31
0.0
  0
ARC
  5
178A6
330
18
100
AcDbEntity
  8
1
 62
     7
 48
0.5
100
AcDbCircle
 10
-819.1257010143793
 20
-299.5028820971149
 30
0.0
 40
71.0
100
AcDbArc
 50
256.7791985212394
 51
259.7425406091905
1001
GENIUS_GENODEF_13
1002
{
1000
HIER
1070
     0
1002
}
1002
{
1000
MANEDIT
1070
     0
1002
}
1002
{
1000
NOSEL
1070
     0
1002
}
1002
{
1000
BEHIND
1070
     0
1002
}
1002
{
1000
OTHER
1070
     0
1002
}
1002
{
1000
REACTOR
1002
}
1001
GENIUS_GENOBJ-N-FIL_13
1002
{
1000
OWNER
1000
GEN
1002
}
  0
LINE
  5
178A7
330
18
100
AcDbEntity
  8
1
 62
     7
 48
0.5
100
AcDbLine
 10
-816.1136879369291
 20
-370.4389644334071
 30
0.0
 11
-819.0774747928159
 21
-363.5028639270459
 31
0.0
  0
ARC
  5
178A8
330
18
100
AcDbEntity
  8
1
 62
     7
 48
0.5
100
AcDbCircle
 10
-819.1257010143793
 20
-299.5028820971149
 30
0.0
 40
64.0
100
AcDbArc
 50
262.1307386806808
 51
270.0431743627987
1001
GENIUS_GENOBJ-N-FIL_13
1002
{
1000
OWNER
1000
GEN
1002
}
1001
GENIUS_GENODEF_13
1002
{
1000
HIER
1070
     0
1002
}
1002
{
1000
MANEDIT
1070
     0
1002
}
1002
{
1000
NOSEL
1070
     0
1002
}
1002
{
1000
BEHIND
1070
     0
1002
}
1002
{
1000
OTHER
1070
     0
1002
}
1002
{
1000
REACTOR
1002
}
  0
LINE
  5
178A9
330
18
100
AcDbEntity
  8
1
 62
     7
 48
0.5
100
AcDbLine
 10
-816.1136879369291
 20
-370.4389644334074
 30
0.0
 11
-819.0774747928159
 21
-363.5028639270459
 31
0.0
  0
LINE
  5
178AA
330
18
100
AcDbEntity
  8
1
 62
     7
 48
0.5
100
AcDbLine
 10
-812.4505314077389
 20
-370.1883976623461
 30
0.0
 11
-810.4588149863102
 21
-362.9133314455974
 31
0.0
  0
ARC
  5
178AB
330
18
100
AcDbEntity
  8
1
 62
     7
 48
0.5
100
AcDbCircle
 10
-819.1257010143793
 20
-299.5028820971149
 30
0.0
 40
71.0
100
AcDbArc
 50
272.4313724342884
 51
275.3947145222307
1001
GENIUS_GENODEF_13
1002
{
1000
HIER
1070
     0
1002
}
1002
{
1000
MANEDIT
1070
     0
1002
}
1002
{
1000
NOSEL
1070
     0
1002
}
1002
{
1000
BEHIND
1070
     0
1002
}
1002
{
1000
OTHER
1070
     0
1002
}
1002
{
1000
REACTOR
1002
}
1001
GENIUS_GENOBJ-N-FIL_13
1002
{
1000
OWNER
1000
GEN
1002
}
  0
LINE
  5
178AC
330
18
100
AcDbEntity
  8
1
 62
     7
 48
0.5
100
AcDbLine
 10
-797.0870555795237
 20
-366.9958306724784
 30
0.0
 11
-801.8122747001088
 21
-361.1165597122375
 31
0.0
  0
ARC
  5
178AD
330
18
100
AcDbEntity
  8
1
 62
     7
 48
0.5
100
AcDbCircle
 10
-819.1257010143793
 20
-299.5028820971148
 30
0.0
 40
64.0
100
AcDbArc
 50
277.7829125937262
 51
285.6953482758397
1001
GENIUS_GENOBJ-N-FIL_13
1002
{
1000
OWNER
1000
GEN
1002
}
1001
GENIUS_GENODEF_13
1002
{
1000
HIER
1070
     0
1002
}
1002
{
1000
MANEDIT
1070
     0
1002
}
1002
{
1000
NOSEL
1070
     0
1002
}
1002
{
1000
BEHIND
1070
     0
1002
}
1002
{
1000
OTHER
1070
     0
1002
}
1002
{
1000
REACTOR
1002
}
  0
LINE
  5
178AE
330
18
100
AcDbEntity
  8
1
 62
     7
 48
0.5
100
AcDbLine
 10
-797.0870555795237
 20
-366.9958306724788
 30
0.0
 11
-801.8122747001088
 21
-361.1165597122375
 31
0.0
  0
LINE
  5
178AF
330
18
100
AcDbEntity
  8
1
 62
     7
 48
0.5
100
AcDbLine
 10
-793.6273409370977
 20
-365.7662477931706
 30
0.0
 11
-793.6722721386417
 21
-358.2236021069015
 31
0.0
  0
ARC
  5
178B0
330
18
100
AcDbEntity
  8
1
 62
     7
 48
0.5
100
AcDbCircle
 10
-819.1257010143793
 20
-299.5028820971148
 30
0.0
 40
71.0
100
AcDbArc
 50
288.0835463473276
 51
291.0468884352762
1001
GENIUS_GENODEF_13
1002
{
1000
HIER
1070
     0
1002
}
1002
{
1000
MANEDIT
1070
     0
1002
}
1002
{
1000
NOSEL
1070
     0
1002
}
1002
{
1000
BEHIND
1070
     0
1002
}
1002
{
1000
OTHER
1070
     0
1002
}
1002
{
1000
REACTOR
1002
}
1001
GENIUS_GENOBJ-N-FIL_13
1002
{
1000
OWNER
1000
GEN
1002
}
  0
LINE
  5
178B1
330
18
100
AcDbEntity
  8
1
 62
     7
 48
0.5
100
AcDbLine
 10
-779.6949287339282
 20
-358.5470536754101
 30
0.0
 11
-785.8311322334758
 21
-354.1606508925357
 31
0.0
  0
ARC
  5
178B2
330
18
100
AcDbEntity
  8
1
 62
     7
 48
0.5
100
AcDbCircle
 10
-819.125701014379
 20
-299.5028820971149
 30
0.0
 40
64.0
100
AcDbArc
 50
293.435086506767
 51
301.3475221888831
1001
GENIUS_GENOBJ-N-FIL_13
1002
{
1000
OWNER
1000
GEN
1002
}
1001
GENIUS_GENODEF_13
1002
{
1000
HIER
1070
     0
1002
}
1002
{
1000
MANEDIT
1070
     0
1002
}
1002
{
1000
NOSEL
1070
     0
1002
}
1002
{
1000
BEHIND
1070
     0
1002
}
1002
{
1000
OTHER
1070
     0
1002
}
1002
{
1000
REACTOR
1002
}
  0
LINE
  5
178B3
330
18
100
AcDbEntity
  8
1
 62
     7
 48
0.5
100
AcDbLine
 10
-779.6949287339281
 20
-358.5470536754106
 30
0.0
 11
-785.8311322334758
 21
-354.1606508925357
 31
0.0
  0
LINE
  5
178B4
330
18
100
AcDbEntity
  8
1
 62
     7
 48
0.5
100
AcDbLine
 10
-776.6952471861526
 20
-356.4296472250465
 30
0.0
 11
-778.773493668998
 21
-349.1788255944994
 31
0.0
  0
ARC
  5
178B5
330
18
100
AcDbEntity
  8
1
 62
     7
 48
0.5
100
AcDbCircle
 10
-819.125701014379
 20
-299.5028820971149
 30
0.0
 40
71.0
100
AcDbArc
 50
303.7357202603766
 51
306.6990623483193
1001
GENIUS_GENODEF_13
1002
{
1000
HIER
1070
     0
1002
}
1002
{
1000
MANEDIT
1070
     0
1002
}
1002
{
1000
NOSEL
1070
     0
1002
}
1002
{
1000
BEHIND
1070
     0
1002
}
1002
{
1000
OTHER
1070
     0
1002
}
1002
{
1000
REACTOR
1002
}
1001
GENIUS_GENOBJ-N-FIL_13
1002
{
1000
OWNER
1000
GEN
1002
}
  0
LINE
  5
178B6
330
18
100
AcDbEntity
  8
1
 62
     7
 48
0.5
100
AcDbLine
 10
-765.227201884593
 20
-345.7192405814915
 30
0.0
 11
-772.3192956208054
 21
-343.1510254039314
 31
0.0
  0
ARC
  5
178B7
330
18
100
AcDbEntity
  8
1
 62
     7
 48
0.5
100
AcDbCircle
 10
-819.125701014379
 20
-299.502882097115
 30
0.0
 40
64.0
100
AcDbArc
 50
309.087260419818
 51
316.9996961019347
1001
GENIUS_GENOBJ-N-FIL_13
1002
{
1000
OWNER
1000
GEN
1002
}
1001
GENIUS_GENODEF_13
1002
{
1000
HIER
1070
     0
1002
}
1002
{
1000
MANEDIT
1070
     0
1002
}
1002
{
1000
NOSEL
1070
     0
1002
}
1002
{
1000
BEHIND
1070
     0
1002
}
1002
{
1000
OTHER
1070
     0
1002
}
1002
{
1000
REACTOR
1002
}
  0
LINE
  5
178B8
330
18
100
AcDbEntity
  8
1
 62
     7
 48
0.5
100
AcDbLine
 10
-765.2272018845929
 20
-345.7192405814919
 30
0.0
 11
-772.3192956208055
 21
-343.1510254039316
 31
0.0
  0
LINE
  5
178B9
330
18
100
AcDbEntity
  8
1
 62
     7
 48
0.5
100
AcDbLine
 10
-762.910026089237
 20
-342.8710489100057
 30
0.0
 11
-766.8674538190953
 21
-336.4498116052167
 31
0.0
  0
ARC
  5
178BA
330
18
100
AcDbEntity
  8
1
 62
     7
 48
0.5
100
AcDbCircle
 10
-819.125701014379
 20
-299.502882097115
 30
0.0
 40
71.0
100
AcDbArc
 50
319.3878941734216
 51
322.3512362613692
1001
GENIUS_GENODEF_13
1002
{
1000
HIER
1070
     0
1002
}
1002
{
1000
MANEDIT
1070
     0
1002
}
1002
{
1000
NOSEL
1070
     0
1002
}
1002
{
1000
BEHIND
1070
     0
1002
}
1002
{
1000
OTHER
1070
     0
1002
}
1002
{
1000
REACTOR
1002
}
1001
GENIUS_GENOBJ-N-FIL_13
1002
{
1000
OWNER
1000
GEN
1002
}
  0
LINE
  5
178BB
330
18
100
AcDbEntity
  8
1
 62
     7
 48
0.5
100
AcDbLine
 10
-754.7568801464874
 20
-329.4637716045579
 30
0.0
 11
-762.2788759711194
 21
-328.9042168032294
 31
0.0
  0
ARC
  5
178BC
330
18
100
AcDbEntity
  8
1
 62
     7
 48
0.5
100
AcDbCircle
 10
-819.125701014379
 20
-299.5028820971146
 30
0.0
 40
63.99999999999999
100
AcDbArc
 50
324.7394343328484
 51
332.651870014973
1001
GENIUS_GENOBJ-N-FIL_13
1002
{
1000
OWNER
1000
GEN
1002
}
1001
GENIUS_GENODEF_13
1002
{
1000
HIER
1070
     0
1002
}
1002
{
1000
MANEDIT
1070
     0
1002
}
1002
{
1000
NOSEL
1070
     0
1002
}
1002
{
1000
BEHIND
1070
     0
1002
}
1002
{
1000
OTHER
1070
     0
1002
}
1002
{
1000
REACTOR
1002
}
  0
LINE
  5
178BD
330
18
100
AcDbEntity
  8
1
 62
     7
 48
0.5
100
AcDbLine
 10
-754.7568801464871
 20
-329.4637716045582
 30
0.0
 11
-762.2788759711194
 21
-328.9042168032295
 31
0.0
  0
LINE
  5
178BE
330
18
100
AcDbEntity
  8
1
 62
     7
 48
0.5
100
AcDbLine
 10
-753.2940644319186
 20
-326.096032058614
 30
0.0
 11
-758.837169098094
 21
-320.9806128752731
 31
0.0
  0
ARC
  5
178BF
330
18
100
AcDbEntity
  8
1
 62
     7
 48
0.5
100
AcDbCircle
 10
-819.125701014379
 20
-299.5028820971146
 30
0.0
 40
70.99999999999998
100
AcDbArc
 50
335.0400680864583
 51
338.0034101744068
1001
GENIUS_GENODEF_13
1002
{
1000
HIER
1070
     0
1002
}
1002
{
1000
MANEDIT
1070
     0
1002
}
1002
{
1000
NOSEL
1070
     0
1002
}
1002
{
1000
BEHIND
1070
     0
1002
}
1002
{
1000
OTHER
1070
     0
1002
}
1002
{
1000
REACTOR
1002
}
1001
GENIUS_GENOBJ-N-FIL_13
1002
{
1000
OWNER
1000
GEN
1002
}
  0
LINE
  5
178C0
330
18
100
AcDbEntity
  8
1
 62
     7
 48
0.5
100
AcDbLine
 10
-749.0604993843917
 20
-310.9862405148072
 30
0.0
 11
-756.4545252779717
 21
-312.4768457095318
 31
0.0
  0
ARC
  5
178C1
330
18
100
AcDbEntity
  8
1
 62
     7
 48
0.5
100
AcDbCircle
 10
-819.125701014379
 20
-299.5028820971146
 30
0.0
 40
64.0
100
AcDbArc
 50
340.3916082458957
 51
348.3040439280161
1001
GENIUS_GENOBJ-N-FIL_13
1002
{
1000
OWNER
1000
GEN
1002
}
1001
GENIUS_GENODEF_13
1002
{
1000
HIER
1070
     0
1002
}
1002
{
1000
MANEDIT
1070
     0
1002
}
1002
{
1000
NOSEL
1070
     0
1002
}
1002
{
1000
BEHIND
1070
     0
1002
}
1002
{
1000
OTHER
1070
     0
1002
}
1002
{
1000
REACTOR
1002
}
  0
LINE
  5
178C2
330
18
100
AcDbEntity
  8
1
 62
     7
 48
0.5
100
AcDbLine
 10
-749.0604993843916
 20
-310.9862405148073
 30
0.0
 11
-756.4545252779717
 21
-312.4768457095318
 31
0.0
  0
LINE
  5
178C3
330
18
100
AcDbEntity
  8
1
 62
     7
 48
0.5
100
AcDbLine
 10
-748.5605341002229
 20
-307.3487229301442
 30
0.0
 11
-755.2782089876416
 21
-303.9185091075944
 31
0.0
  0
ARC
  5
178C4
330
18
100
AcDbEntity
  8
1
 62
     7
 48
0.5
100
AcDbCircle
 10
-819.125701014379
 20
-299.5028820971146
 30
0.0
 40
71.0
100
AcDbArc
 50
350.6922419995031
 51
353.6555840874557
1001
GENIUS_GENODEF_13
1002
{
1000
HIER
1070
     0
1002
}
1002
{
1000
MANEDIT
1070
     0
1002
}
1002
{
1000
NOSEL
1070
     0
1002
}
1002
{
1000
BEHIND
1070
     0
1002
}
1002
{
1000
OTHER
1070
     0
1002
}
1002
{
1000
REACTOR
1002
}
1001
GENIUS_GENOBJ-N-FIL_13
1002
{
1000
OWNER
1000
GEN
1002
}
  0
LINE
  5
178C5
330
18
100
AcDbEntity
  8
1
 62
     7
 48
0.5
100
AcDbLine
 10
-748.5605341002229
 20
-291.6570412640852
 30
0.0
 11
-755.2782089876417
 21
-295.0872550866352
 31
0.0
  0
ARC
  5
178C6
330
18
100
AcDbEntity
  8
1
 62
     7
 48
0.5
100
AcDbCircle
 10
-819.125701014379
 20
-299.5028820971148
 30
0.0
 40
63.99999999999999
100
AcDbArc
 50
356.0437821589497
 51
3.956217841050296
1001
GENIUS_GENOBJ-N-FIL_13
1002
{
1000
OWNER
1000
GEN
1002
}
1001
GENIUS_GENODEF_13
1002
{
1000
HIER
1070
     0
1002
}
1002
{
1000
MANEDIT
1070
     0
1002
}
1002
{
1000
NOSEL
1070
     0
1002
}
1002
{
1000
BEHIND
1070
     0
1002
}
1002
{
1000
OTHER
1070
     0
1002
}
1002
{
1000
REACTOR
1002
}
  0
LINE
  5
178C7
330
18
100
AcDbEntity
  8
1
 62
     7
 48
0.5
100
AcDbLine
 10
-748.5605341002226
 20
-291.6570412640852
 30
0.0
 11
-755.2782089876417
 21
-295.0872550866352
 31
0.0
  0
LINE
  5
178C8
330
18
100
AcDbEntity
  8
1
 62
     7
 48
0.5
100
AcDbLine
 10
-749.0604993843917
 20
-288.0195236794223
 30
0.0
 11
-756.4545252779717
 21
-286.5289184846977
 31
0.0
  0
ARC
  5
178C9
330
18
100
AcDbEntity
  8
1
 62
     7
 48
0.5
100
AcDbCircle
 10
-819.125701014379
 20
-299.5028820971148
 30
0.0
 40
70.99999999999998
100
AcDbArc
 50
6.344415912544175
 51
9.307758000496873
1001
GENIUS_GENODEF_13
1002
{
1000
HIER
1070
     0
1002
}
1002
{
1000
MANEDIT
1070
     0
1002
}
1002
{
1000
NOSEL
1070
     0
1002
}
1002
{
1000
BEHIND
1070
     0
1002
}
1002
{
1000
OTHER
1070
     0
1002
}
1002
{
1000
REACTOR
1002
}
1001
GENIUS_GENOBJ-N-FIL_13
1002
{
1000
OWNER
1000
GEN
1002
}
  0
LINE
  5
178CA
330
18
100
AcDbEntity
  8
1
 62
     7
 48
0.5
100
AcDbLine
 10
-753.2940644319181
 20
-272.9097321356154
 30
0.0
 11
-758.837169098094
 21
-278.0251513189565
 31
0.0
  0
ARC
  5
178CB
330
18
100
AcDbEntity
  8
1
 62
     7
 48
0.5
100
AcDbCircle
 10
-819.125701014379
 20
-299.5028820971145
 30
0.0
 40
64.0
100
AcDbArc
 50
11.69595607198392
 51
19.60839175409713
1001
GENIUS_GENOBJ-N-FIL_13
1002
{
1000
OWNER
1000
GEN
1002
}
1001
GENIUS_GENODEF_13
1002
{
1000
HIER
1070
     0
1002
}
1002
{
1000
MANEDIT
1070
     0
1002
}
1002
{
1000
NOSEL
1070
     0
1002
}
1002
{
1000
BEHIND
1070
     0
1002
}
1002
{
1000
OTHER
1070
     0
1002
}
1002
{
1000
REACTOR
1002
}
  0
LINE
  5
178CC
330
18
100
AcDbEntity
  8
1
 62
     7
 48
0.5
100
AcDbLine
 10
-753.2940644319181
 20
-272.9097321356154
 30
0.0
 11
-758.837169098094
 21
-278.0251513189565
 31
0.0
  0
LINE
  5
178CD
330
18
100
AcDbEntity
  8
1
 62
     7
 48
0.5
100
AcDbLine
 10
-754.7568801464872
 20
-269.5419925896713
 30
0.0
 11
-762.2788759711189
 21
-270.1015473909998
 31
0.0
  0
ARC
  5
178CE
330
18
100
AcDbEntity
  8
1
 62
     7
 48
0.5
100
AcDbCircle
 10
-819.125701014379
 20
-299.5028820971145
 30
0.0
 40
71.0
100
AcDbArc
 50
21.99658982559322
 51
24.95993191354165
1001
GENIUS_GENODEF_13
1002
{
1000
HIER
1070
     0
1002
}
1002
{
1000
MANEDIT
1070
     0
1002
}
1002
{
1000
NOSEL
1070
     0
1002
}
1002
{
1000
BEHIND
1070
     0
1002
}
1002
{
1000
OTHER
1070
     0
1002
}
1002
{
1000
REACTOR
1002
}
1001
GENIUS_GENOBJ-N-FIL_13
1002
{
1000
OWNER
1000
GEN
1002
}
  0
LINE
  5
178CF
330
18
100
AcDbEntity
  8
1
 62
     7
 48
0.5
100
AcDbLine
 10
-762.910026089237
 20
-256.1347152842239
 30
0.0
 11
-766.8674538190957
 21
-262.5559525890133
 31
0.0
  0
ARC
  5
178D0
330
18
100
AcDbEntity
  8
1
 62
     7
 48
0.5
100
AcDbCircle
 10
-819.1257010143793
 20
-299.5028820971145
 30
0.0
 40
64.0
100
AcDbArc
 50
27.34812998502701
 51
35.26056566714214
1001
GENIUS_GENOBJ-N-FIL_13
1002
{
1000
OWNER
1000
GEN
1002
}
1001
GENIUS_GENODEF_13
1002
{
1000
HIER
1070
     0
1002
}
1002
{
1000
MANEDIT
1070
     0
1002
}
1002
{
1000
NOSEL
1070
     0
1002
}
1002
{
1000
BEHIND
1070
     0
1002
}
1002
{
1000
OTHER
1070
     0
1002
}
1002
{
1000
REACTOR
1002
}
  0
LINE
  5
178D1
330
18
100
AcDbEntity
  8
1
 62
     7
 48
0.5
100
AcDbLine
 10
-762.9100260892368
 20
-256.1347152842239
 30
0.0
 11
-766.8674538190953
 21
-262.5559525890133
 31
0.0
  0
LINE
  5
178D2
330
18
100
AcDbEntity
  8
1
 62
     7
 48
0.5
100
AcDbLine
 10
-765.227201884593
 20
-253.286523612738
 30
0.0
 11
-772.319295620805
 21
-255.854738790298
 31
0.0
  0
ARC
  5
178D3
330
18
100
AcDbEntity
  8
1
 62
     7
 48
0.5
100
AcDbCircle
 10
-819.1257010143793
 20
-299.5028820971145
 30
0.0
 40
71.0
100
AcDbArc
 50
37.64876373863339
 51
40.61210582658657
1001
GENIUS_GENODEF_13
1002
{
1000
HIER
1070
     0
1002
}
1002
{
1000
MANEDIT
1070
     0
1002
}
1002
{
1000
NOSEL
1070
     0
1002
}
1002
{
1000
BEHIND
1070
     0
1002
}
1002
{
1000
OTHER
1070
     0
1002
}
1002
{
1000
REACTOR
1002
}
1001
GENIUS_GENOBJ-N-FIL_13
1002
{
1000
OWNER
1000
GEN
1002
}
  0
LINE
  5
178D4
330
18
100
AcDbEntity
  8
1
 62
     7
 48
0.5
100
AcDbLine
 10
-776.6952471861527
 20
-242.5761169691828
 30
0.0
 11
-778.773493668998
 21
-249.8269385997301
 31
0.0
  0
ARC
  5
178D5
330
18
100
AcDbEntity
  8
1
 62
     7
 48
0.5
100
AcDbCircle
 10
-819.125701014379
 20
-299.5028820971143
 30
0.0
 40
64.0
100
AcDbArc
 50
43.00030389807471
 51
50.91273958018891
1001
GENIUS_GENOBJ-N-FIL_13
1002
{
1000
OWNER
1000
GEN
1002
}
1001
GENIUS_GENODEF_13
1002
{
1000
HIER
1070
     0
1002
}
1002
{
1000
MANEDIT
1070
     0
1002
}
1002
{
1000
NOSEL
1070
     0
1002
}
1002
{
1000
BEHIND
1070
     0
1002
}
1002
{
1000
OTHER
1070
     0
1002
}
1002
{
1000
REACTOR
1002
}
  0
LINE
  5
178D6
330
18
100
AcDbEntity
  8
1
 62
     7
 48
0.5
100
AcDbLine
 10
-776.6952471861522
 20
-242.5761169691826
 30
0.0
 11
-778.7734936689978
 21
-249.8269385997302
 31
0.0
  0
LINE
  5
178D7
330
18
100
AcDbEntity
  8
1
 62
     7
 48
0.5
100
AcDbLine
 10
-779.6949287339281
 20
-240.4587105188191
 30
0.0
 11
-785.8311322334756
 21
-244.8451133016937
 31
0.0
  0
ARC
  5
178D8
330
18
100
AcDbEntity
  8
1
 62
     7
 48
0.5
100
AcDbCircle
 10
-819.125701014379
 20
-299.5028820971143
 30
0.0
 40
71.0
100
AcDbArc
 50
53.30093765167384
 51
56.26427973963057
1001
GENIUS_GENODEF_13
1002
{
1000
HIER
1070
     0
1002
}
1002
{
1000
MANEDIT
1070
     0
1002
}
1002
{
1000
NOSEL
1070
     0
1002
}
1002
{
1000
BEHIND
1070
     0
1002
}
1002
{
1000
OTHER
1070
     0
1002
}
1002
{
1000
REACTOR
1002
}
1001
GENIUS_GENOBJ-N-FIL_13
1002
{
1000
OWNER
1000
GEN
1002
}
  0
LINE
  5
178D9
330
18
100
AcDbEntity
  8
1
 62
     7
 48
0.5
100
AcDbLine
 10
-793.6273409370977
 20
-233.2395164010585
 30
0.0
 11
-793.6722721386417
 21
-240.782162087328
 31
0.0
  0
ARC
  5
178DA
330
18
100
AcDbEntity
  8
1
 62
     7
 48
0.5
100
AcDbCircle
 10
-819.1257010143793
 20
-299.5028820971143
 30
0.0
 40
64.0
100
AcDbArc
 50
58.65247781111592
 51
66.56491349323296
1001
GENIUS_GENOBJ-N-FIL_13
1002
{
1000
OWNER
1000
GEN
1002
}
1001
GENIUS_GENODEF_13
1002
{
1000
HIER
1070
     0
1002
}
1002
{
1000
MANEDIT
1070
     0
1002
}
1002
{
1000
NOSEL
1070
     0
1002
}
1002
{
1000
BEHIND
1070
     0
1002
}
1002
{
1000
OTHER
1070
     0
1002
}
1002
{
1000
REACTOR
1002
}
  0
LINE
  5
178DB
330
18
100
AcDbEntity
  8
1
 62
     7
 48
0.5
100
AcDbLine
 10
-793.6273409370975
 20
-233.2395164010583
 30
0.0
 11
-793.6722721386417
 21
-240.7821620873281
 31
0.0
  0
LINE
  5
178DC
330
18
100
AcDbEntity
  8
1
 62
     7
 48
0.5
100
AcDbLine
 10
-797.0870555795237
 20
-232.0099335217508
 30
0.0
 11
-801.8122747001083
 21
-237.8892044819916
 31
0.0
  0
ARC
  5
178DD
330
18
100
AcDbEntity
  8
1
 62
     7
 48
0.5
100
AcDbCircle
 10
-819.1257010143793
 20
-299.5028820971143
 30
0.0
 40
71.0
100
AcDbArc
 50
68.95311156471651
 51
71.91645365267243
1001
GENIUS_GENODEF_13
1002
{
1000
HIER
1070
     0
1002
}
1002
{
1000
MANEDIT
1070
     0
1002
}
1002
{
1000
NOSEL
1070
     0
1002
}
1002
{
1000
BEHIND
1070
     0
1002
}
1002
{
1000
OTHER
1070
     0
1002
}
1002
{
1000
REACTOR
1002
}
1001
GENIUS_GENOBJ-N-FIL_13
1002
{
1000
OWNER
1000
GEN
1002
}
  0
LINE
  5
178DE
330
18
100
AcDbEntity
  8
1
 62
     7
 48
0.5
100
AcDbLine
 10
-774.8792322287237
 20
-337.0028820971149
 30
0.0
 11
-766.5265948230306
 21
-337.0028820971145
 31
0.0
  0
LINE
  5
178DF
330
18
100
AcDbEntity
  8
1
 62
     7
 48
0.5
100
AcDbLine
 10
-769.7926492133807
 20
-330.0028820971146
 30
0.0
 11
-762.8607030138462
 21
-330.0028820971145
 31
0.0
  0
LINE
  5
178E0
330
18
100
AcDbEntity
  8
1
 62
     7
 48
0.5
100
AcDbLine
 10
-921.9991421574158
 20
-257.0028820971146
 30
0.0
 11
-925.4991421574159
 21
-256.8437911880239
 31
0.0
  0
LINE
  5
178E1
330
18
100
AcDbEntity
  8
1
 62
     7
 48
0.5
100
AcDbLine
 10
-921.9991421574158
 20
-342.0028820971144
 30
0.0
 11
-925.4991421574159
 21
-342.1619730062052
 31
0.0
  0
LINE
  5
178E2
330
18
100
AcDbEntity
  8
1
 62
     7
 48
0.5
100
AcDbLine
 10
-971.9991421574164
 20
-257.0028820971146
 30
0.0
 11
-971.9991421574158
 21
-342.0028820971144
 31
0.0
  0
LINE
  5
178E3
330
18
100
AcDbEntity
  8
1
 62
     7
 48
0.5
100
AcDbLine
 10
-971.9991421574164
 20
-257.0028820971146
 30
0.0
 11
-968.4991421574164
 21
-256.8437911880239
 31
0.0
  0
LINE
  5
178E4
330
18
100
AcDbEntity
  8
1
 62
     7
 48
0.5
100
AcDbLine
 10
-971.9991421574164
 20
-342.0028820971144
 30
0.0
 11
-968.4991421574164
 21
-342.1619730062052
 31
0.0
  0
DIMENSION
  5
17A17
330
18
100
AcDbEntity
  8
2
100
AcDbDimension
  2
*D7
 10
-808.3540535328147
 20
-305.8449330692277
 30
0.0
 11
-838.1079880853013
 21
-285.425496773229
 31
0.0
 70
    35
 71
     5
 42
25.00000000000007
  3
_1
100
AcDbDiametricDimension
 15
-829.8973484959461
 25
-293.1608311250016
 35
0.0
 40
0.0
1001
ACAD
1000
DSTYLE
1002
{
1070
    40
1040
1.0
1070
    79
1070
     2
1070
   179
1070
     3
1070
   288
1070
     1
1002
}
  0
TEXT
  5
17A59
330
18
100
AcDbEntity
  8
2
100
AcDbText
 10
-793.674444632698
 20
-386.2858615170134
 30
0.0
 40
3.5
  1
DATE2020.5.1
  7
BIGFONT
100
AcDbText
  0
DIMENSION
  5
17B1E
330
18
100
AcDbEntity
  8
2
 48
0.5
100
AcDbDimension
  2
*D8
 10
-938.9991421574158
 20
-221.9647298137246
 30
0.0
 11
-946.9991421574158
 21
-219.4647298137246
 31
0.0
 70
    32
 71
     5
 42
16.0
  3
STANDARD
100
AcDbAlignedDimension
 13
-954.9991421574159
 23
-229.5028820971144
 33
0.0
 14
-938.9991421574158
 24
-229.5028820971144
 34
0.0
100
AcDbRotatedDimension
  0
DIMENSION
  5
17B2E
330
18
100
AcDbEntity
  8
2
 48
0.5
100
AcDbDimension
  2
*D9
 10
-925.4991421574159
 20
-215.9647298137246
 30
0.0
 11
-946.9991421574158
 21
-213.4647298137246
 31
0.0
 70
    32
 71
     5
 42
42.99999999999999
  3
STANDARD
100
AcDbAlignedDimension
 13
-968.4991421574158
 23
-230.5028820971144
 33
0.0
 14
-925.4991421574159
 24
-229.5028820971143
 34
0.0
100
AcDbRotatedDimension
  0
DIMENSION
  5
17B3B
330
18
100
AcDbEntity
  8
2
 48
0.5
100
AcDbDimension
  2
*D10
 10
-921.9991421574158
 20
-209.9647298137246
 30
0.0
 11
-946.9991421574164
 21
-207.4647298137246
 31
0.0
 70
    32
 71
     5
 42
50.00000000000023
  3
STANDARD
100
AcDbAlignedDimension
 13
-971.9991421574164
 23
-257.0028820971146
 33
0.0
 14
-921.9991421574158
 24
-257.0028820971146
 34
0.0
100
AcDbRotatedDimension
  0
ENDSEC
  0
SECTION
  2
OBJECTS
  0
DICTIONARY
  5
C
330
0
100
AcDbDictionary
281
     1
  3
ACAD_COLOR
350
17B79
  3
ACAD_GROUP
350
D
  3
ACAD_IMAGE_VARS
350
17A58
  3
ACAD_LAYOUT
350
1C62
  3
ACAD_MATERIAL
350
17B4F
  3
ACAD_MLEADERSTYLE
350
17B7C
  3
ACAD_MLINESTYLE
350
E
  3
ACAD_PLOTSETTINGS
350
1C63
  3
ACAD_PLOTSTYLENAME
350
1C60
  3
ACAD_SCALELIST
350
17A35
  3
ACAD_TABLESTYLE
350
17B7A
  3
ACAD_VISUALSTYLE
350
17B68
  3
ACADDIM
350
2219
  3
ACDB_RECOMPOSE_DATA
350
17ADA
  3
ACDBVARIABLEDICTIONARY
350
1237
  3
AcmDictionary
350
17641
  3
AMG
350
175EA
  3
AMGSNAPSETTINGS
350
177C9
  3
APPDATA
350
17A57
  3
CONTENTDICTIONARY
350
322
  3
DWGPROPS
350
17BA0
  0
DICTIONARY
  5
176AC
330
2
100
AcDbDictionary
280
     1
281
     1
  3
ACAD_LAYERSTATES
360
176AD
  0
DICTIONARY
  5
17B82
330
F
100
AcDbDictionary
280
     1
281
     1
  3
ADSK_XREC_LAYER_RECONCILED
360
17B83
  0
DICTIONARY
  5
17B84
330
526
100
AcDbDictionary
280
     1
281
     1
  3
ADSK_XREC_LAYER_RECONCILED
360
17B85
  0
DICTIONARY
  5
17B86
330
138F
100
AcDbDictionary
280
     1
281
     1
  3
ADSK_XREC_LAYER_RECONCILED
360
17B87
  0
DICTIONARY
  5
17B88
330
1390
100
AcDbDictionary
280
     1
281
     1
  3
ADSK_XREC_LAYER_RECONCILED
360
17B89
  0
DICTIONARY
  5
17B79
102
{ACAD_REACTORS
330
C
102
}
330
C
100
AcDbDictionary
281
     1
  0
DICTIONARY
  5
D
102
{ACAD_REACTORS
330
C
102
}
330
C
100
AcDbDictionary
281
     1
  0
RASTERVARIABLES
  5
17A58
102
{ACAD_REACTORS
330
C
102
}
330
C
100
AcDbRasterVariables
 90
        0
 70
     1
 71
     1
 72
     0
  0
DICTIONARY
  5
1C62
102
{ACAD_REACTORS
330
C
102
}
330
C
100
AcDbDictionary
281
     1
  3
Model
350
175E2
  3
レイアウト1
350
175E3
  0
DICTIONARY
  5
17B4F
102
{ACAD_REACTORS
330
C
102
}
330
C
100
AcDbDictionary
281
     1
  3
ByBlock
350
17B58
  3
ByLayer
350
17B50
  3
Global
350
17B60
  0
DICTIONARY
  5
17B7C
102
{ACAD_REACTORS
330
C
102
}
330
C
100
AcDbDictionary
281
     1
  3
Standard
350
17B7D
  0
DICTIONARY
  5
E
102
{ACAD_REACTORS
330
C
102
}
330
C
100
AcDbDictionary
281
     1
  3
STANDARD
350
1B
  0
DICTIONARY
  5
1C63
102
{ACAD_REACTORS
330
C
102
}
330
C
100
AcDbDictionary
281
     1
  0
ACDBDICTIONARYWDFLT
  5
1C60
102
{ACAD_REACTORS
330
C
102
}
330
C
100
AcDbDictionary
281
     1
  3
Normal
350
1C61
100
AcDbDictionaryWithDefault
340
1C61
  0
DICTIONARY
  5
17A35
102
{ACAD_REACTORS
330
C
102
}
330
C
100
AcDbDictionary
281
     1
  3
A0
350
17A36
  3
A1
350
17A37
  3
A2
350
17A38
  3
A3
350
17A39
  3
A4
350
17A3A
  3
A5
350
17A3B
  3
A6
350
17A3C
  3
A7
350
17A3D
  3
A8
350
17A3E
  3
A9
350
17A3F
  3
B0
350
17A40
  3
B1
350
17A41
  3
B2
350
17A42
  3
B3
350
17A43
  3
B4
350
17A44
  3
B5
350
17A45
  3
B6
350
17A46
  3
B7
350
17A47
  3
B8
350
17A48
  3
B9
350
17A49
  3
C0
350
17A4A
  3
C1
350
17A4B
  3
C2
350
17A4C
  3
C3
350
17A4D
  3
C4
350
17A4E
  3
C5
350
17A4F
  3
C6
350
17A50
  3
C7
350
17A51
  3
C8
350
17A52
  3
C9
350
17A53
  3
D0
350
17A54
  3
D1
350
17A55
  3
D2
350
17A56
  0
DICTIONARY
  5
17B7A
102
{ACAD_REACTORS
330
C
102
}
330
C
100
AcDbDictionary
281
     1
  3
Standard
350
17B7B
  0
DICTIONARY
  5
17B68
102
{ACAD_REACTORS
330
C
102
}
330
C
100
AcDbDictionary
281
     1
  3
2dWireframe
350
17B6E
  3
3D Hidden
350
17B70
  3
3dWireframe
350
17B6F
  3
Basic
350
17B6D
  3
Brighten
350
17B74
  3
ColorChange
350
17B78
  3
Conceptual
350
17B71
  3
Dim
350
17B73
  3
Facepattern
350
17B77
  3
Flat
350
17B69
  3
FlatWithEdges
350
17B6A
  3
Gouraud
350
17B6B
  3
GouraudWithEdges
350
17B6C
  3
Linepattern
350
17B76
  3
Realistic
350
17B72
  3
Thicken
350
17B75
  0
XRECORD
  5
2219
102
{ACAD_REACTORS
330
C
102
}
330
C
100
AcDbXrecord
280
     1
 90
   990106
  3

 60
     4
 61
     0
 62
     1
 63
     3
 64
     0
 65
     0
 66
     1
 67
     3
 68
     1
 69
     0
 70
     0
 71
     0
 72
     0
 40
0.0
170
     1
  0
XRECORD
  5
17ADA
102
{ACAD_REACTORS
330
C
102
}
330
C
100
AcDbXrecord
280
     1
 90
        1
330
17B7B
  0
DICTIONARY
  5
1237
102
{ACAD_REACTORS
330
C
102
}
330
C
100
AcDbDictionary
281
     1
  3
CANNOSCALE
350
17B4A
  3
CMLEADERSTYLE
350
17B8B
  3
CTABLESTYLE
350
17B8A
  3
DIMASSOC
350
17A2D
  3
INDEXCTL
350
17B8C
  3
PROJECTNAME
350
17A2E
  3
SORTENTS
350
1238
  0
DICTIONARY
  5
17641
102
{ACAD_REACTORS
330
C
102
}
330
C
100
AcDbDictionary
281
     1
  3
AcmStdDictionary
350
1764C
  3
AMDTSECTSYM_ARROWCOLOR
350
17669
  0
DICTIONARY
  5
175EA
102
{ACAD_REACTORS
330
C
102
}
330
C
100
AcDbDictionary
281
     1
  0
DICTIONARY
  5
177C9
102
{ACAD_REACTORS
330
C
102
}
330
C
100
AcDbDictionary
281
     1
  0
DICTIONARY
  5
17A57
102
{ACAD_REACTORS
330
C
102
}
330
C
100
AcDbDictionary
281
     1
  0
DICTIONARY
  5
322
102
{ACAD_REACTORS
330
C
102
}
330
C
100
AcDbDictionary
281
     1
  0
XRECORD
  5
17BA0
102
{ACAD_REACTORS
330
C
102
}
330
C
100
AcDbXrecord
280
     1
  1
DWGPROPS COOKIE
  2

  3

  4

  6

  7

  8
yutaka.oda
  9

300
=
301
=
302
=
303
=
304
=
305
=
306
=
307
=
308
=
309
=
 40
1.494581249999999
 41
2452836.755218403
 42
2456122.690547153
  1

 90
        0
  0
DICTIONARY
  5
176AD
102
{ACAD_REACTORS
330
176AC
102
}
330
176AC
100
AcDbDictionary
281
     1
  3
ARGON_LAYERP_1
350
17A5F
  3
ARGON_LAYERP_10
350
17A68
  3
ARGON_LAYERP_100
350
17ADC
  3
ARGON_LAYERP_101
350
17ADD
  3
ARGON_LAYERP_102
350
17ADE
  3
ARGON_LAYERP_103
350
17ADF
  3
ARGON_LAYERP_104
350
17AE4
  3
ARGON_LAYERP_105
350
17AE5
  3
ARGON_LAYERP_106
350
17AE6
  3
ARGON_LAYERP_107
350
17AE7
  3
ARGON_LAYERP_108
350
17AE8
  3
ARGON_LAYERP_109
350
17AEC
  3
ARGON_LAYERP_11
350
17A69
  3
ARGON_LAYERP_110
350
17AED
  3
ARGON_LAYERP_111
350
17AEE
  3
ARGON_LAYERP_112
350
17AEF
  3
ARGON_LAYERP_113
350
17AF0
  3
ARGON_LAYERP_114
350
17AF1
  3
ARGON_LAYERP_115
350
17AF2
  3
ARGON_LAYERP_116
350
17AF3
  3
ARGON_LAYERP_117
350
17AF4
  3
ARGON_LAYERP_118
350
17AF5
  3
ARGON_LAYERP_119
350
17AF6
  3
ARGON_LAYERP_12
350
17A6A
  3
ARGON_LAYERP_120
350
17AF7
  3
ARGON_LAYERP_121
350
17AF8
  3
ARGON_LAYERP_122
350
17AF9
  3
ARGON_LAYERP_123
350
17AFA
  3
ARGON_LAYERP_124
350
17AFB
  3
ARGON_LAYERP_125
350
17AFC
  3
ARGON_LAYERP_126
350
17AFD
  3
ARGON_LAYERP_127
350
17AFE
  3
ARGON_LAYERP_128
350
17AFF
  3
ARGON_LAYERP_129
350
17B00
  3
ARGON_LAYERP_13
350
17A6B
  3
ARGON_LAYERP_130
350
17B01
  3
ARGON_LAYERP_131
350
17B05
  3
ARGON_LAYERP_132
350
17B06
  3
ARGON_LAYERP_133
350
17B07
  3
ARGON_LAYERP_134
350
17B08
  3
ARGON_LAYERP_135
350
17B09
  3
ARGON_LAYERP_136
350
17B0A
  3
ARGON_LAYERP_137
350
17B0B
  3
ARGON_LAYERP_138
350
17B0C
  3
ARGON_LAYERP_139
350
17B0D
  3
ARGON_LAYERP_14
350
17A71
  3
ARGON_LAYERP_140
350
17B0E
  3
ARGON_LAYERP_141
350
17B0F
  3
ARGON_LAYERP_142
350
17B10
  3
ARGON_LAYERP_143
350
17B12
  3
ARGON_LAYERP_144
350
17B13
  3
ARGON_LAYERP_145
350
17B14
  3
ARGON_LAYERP_146
350
17B16
  3
ARGON_LAYERP_15
350
17A72
  3
ARGON_LAYERP_16
350
17A73
  3
ARGON_LAYERP_17
350
17A74
  3
ARGON_LAYERP_18
350
17A75
  3
ARGON_LAYERP_19
350
17A76
  3
ARGON_LAYERP_2
350
17A60
  3
ARGON_LAYERP_20
350
17A77
  3
ARGON_LAYERP_21
350
17A78
  3
ARGON_LAYERP_22
350
17A79
  3
ARGON_LAYERP_23
350
17A7A
  3
ARGON_LAYERP_24
350
17A7B
  3
ARGON_LAYERP_25
350
17A7C
  3
ARGON_LAYERP_26
350
17A7D
  3
ARGON_LAYERP_27
350
17A7E
  3
ARGON_LAYERP_28
350
17A7F
  3
ARGON_LAYERP_29
350
17A80
  3
ARGON_LAYERP_3
350
17A61
  3
ARGON_LAYERP_30
350
17A81
  3
ARGON_LAYERP_31
350
17A82
  3
ARGON_LAYERP_32
350
17A83
  3
ARGON_LAYERP_33
350
17A84
  3
ARGON_LAYERP_34
350
17A85
  3
ARGON_LAYERP_35
350
17A86
  3
ARGON_LAYERP_36
350
17A87
  3
ARGON_LAYERP_37
350
17A88
  3
ARGON_LAYERP_38
350
17A89
  3
ARGON_LAYERP_39
350
17A8A
  3
ARGON_LAYERP_4
350
17A62
  3
ARGON_LAYERP_40
350
17A8B
  3
ARGON_LAYERP_41
350
17A8C
  3
ARGON_LAYERP_42
350
17A8D
  3
ARGON_LAYERP_43
350
17A8E
  3
ARGON_LAYERP_44
350
17A93
  3
ARGON_LAYERP_45
350
17A94
  3
ARGON_LAYERP_46
350
17A95
  3
ARGON_LAYERP_47
350
17A96
  3
ARGON_LAYERP_48
350
17A97
  3
ARGON_LAYERP_49
350
17A98
  3
ARGON_LAYERP_5
350
17A63
  3
ARGON_LAYERP_50
350
17A99
  3
ARGON_LAYERP_51
350
17A9A
  3
ARGON_LAYERP_52
350
17A9B
  3
ARGON_LAYERP_53
350
17A9C
  3
ARGON_LAYERP_54
350
17A9D
  3
ARGON_LAYERP_55
350
17A9E
  3
ARGON_LAYERP_56
350
17A9F
  3
ARGON_LAYERP_57
350
17AA0
  3
ARGON_LAYERP_58
350
17AA1
  3
ARGON_LAYERP_59
350
17AA2
  3
ARGON_LAYERP_6
350
17A64
  3
ARGON_LAYERP_60
350
17AA6
  3
ARGON_LAYERP_61
350
17AA7
  3
ARGON_LAYERP_62
350
17AA8
  3
ARGON_LAYERP_63
350
17AA9
  3
ARGON_LAYERP_64
350
17AAA
  3
ARGON_LAYERP_65
350
17AAB
  3
ARGON_LAYERP_66
350
17AB0
  3
ARGON_LAYERP_67
350
17AB1
  3
ARGON_LAYERP_68
350
17AB2
  3
ARGON_LAYERP_69
350
17AB3
  3
ARGON_LAYERP_7
350
17A65
  3
ARGON_LAYERP_70
350
17AB4
  3
ARGON_LAYERP_71
350
17AB5
  3
ARGON_LAYERP_72
350
17AB6
  3
ARGON_LAYERP_73
350
17AB7
  3
ARGON_LAYERP_74
350
17AB8
  3
ARGON_LAYERP_75
350
17AB9
  3
ARGON_LAYERP_76
350
17ABA
  3
ARGON_LAYERP_77
350
17ABB
  3
ARGON_LAYERP_78
350
17ABC
  3
ARGON_LAYERP_79
350
17ABD
  3
ARGON_LAYERP_8
350
17A66
  3
ARGON_LAYERP_80
350
17ABE
  3
ARGON_LAYERP_81
350
17ABF
  3
ARGON_LAYERP_82
350
17AC0
  3
ARGON_LAYERP_83
350
17AC1
  3
ARGON_LAYERP_84
350
17AC2
  3
ARGON_LAYERP_85
350
17AC3
  3
ARGON_LAYERP_86
350
17ACA
  3
ARGON_LAYERP_87
350
17ACB
  3
ARGON_LAYERP_88
350
17ACC
  3
ARGON_LAYERP_89
350
17ACD
  3
ARGON_LAYERP_9
350
17A67
  3
ARGON_LAYERP_90
350
17ACE
  3
ARGON_LAYERP_91
350
17ACF
  3
ARGON_LAYERP_92
350
17AD0
  3
ARGON_LAYERP_93
350
17AD1
  3
ARGON_LAYERP_94
350
17AD2
  3
ARGON_LAYERP_95
350
17AD3
  3
ARGON_LAYERP_96
350
17AD4
  3
ARGON_LAYERP_97
350
17AD5
  3
ARGON_LAYERP_98
350
17AD6
  3
ARGON_LAYERP_99
350
17ADB
  0
XRECORD
  5
17B83
102
{ACAD_REACTORS
330
17B82
102
}
330
17B82
100
AcDbXrecord
280
     1
290
     1
  0
XRECORD
  5
17B85
102
{ACAD_REACTORS
330
17B84
102
}
330
17B84
100
AcDbXrecord
280
     1
290
     1
  0
XRECORD
  5
17B87
102
{ACAD_REACTORS
330
17B86
102
}
330
17B86
100
AcDbXrecord
280
     1
290
     1
  0
XRECORD
  5
17B89
102
{ACAD_REACTORS
330
17B88
102
}
330
17B88
100
AcDbXrecord
280
     1
290
     1
  0
LAYOUT
  5
175E2
102
{ACAD_XDICTIONARY
360
17BA1
102
}
102
{ACAD_REACTORS
330
1C62
102
}
330
1C62
100
AcDbPlotSettings
  1

  2
\\techserver\RICOH IPSiO SP C810 RPCS
  4

  6

 40
0.0
 41
0.0
 42
0.0
 43
0.0
 44
0.0
 45
0.0
 46
0.0
 47
0.0
 48
0.0
 49
0.0
140
0.0
141
0.0
142
1.0
143
1.0
 70
  1712
 72
     0
 73
     0
 74
     0
  7

 75
     0
147
1.0
148
0.0
149
0.0
100
AcDbLayout
  1
Model
 70
     1
 71
     0
 10
0.0
 20
0.0
 11
12.0
 21
9.0
 12
0.0
 22
0.0
 32
0.0
 14
0.0
 24
0.0
 34
0.0
 15
0.0
 25
0.0
 35
0.0
146
0.0
 13
0.0
 23
0.0
 33
0.0
 16
1.0
 26
0.0
 36
0.0
 17
0.0
 27
1.0
 37
0.0
 76
     0
330
18
331
17A2F
  0
LAYOUT
  5
175E3
102
{ACAD_XDICTIONARY
360
17BA3
102
}
102
{ACAD_REACTORS
330
1C62
102
}
330
1C62
100
AcDbPlotSettings
  1

  2
\\techserver\RICOH IPSiO SP C810 RPCS
  4

  6

 40
0.0
 41
0.0
 42
0.0
 43
0.0
 44
0.0
 45
0.0
 46
0.0
 47
0.0
 48
0.0
 49
0.0
140
0.0
141
0.0
142
1.0
143
1.0
 70
   688
 72
     0
 73
     0
 74
     5
  7

 75
    16
147
1.0
148
0.0
149
0.0
100
AcDbLayout
  1
レイアウト1
 70
     1
 71
     1
 10
0.0
 20
0.0
 11
420.0
 21
297.0
 12
0.0
 22
0.0
 32
0.0
 14
1.000000000000000E+20
 24
1.000000000000000E+20
 34
1.000000000000000E+20
 15
-1.000000000000000E+20
 25
-1.000000000000000E+20
 35
-1.000000000000000E+20
146
0.0
 13
0.0
 23
0.0
 33
0.0
 16
1.0
 26
0.0
 36
0.0
 17
0.0
 27
1.0
 37
0.0
 76
     0
330
15
  0
MATERIAL
  5
17B58
102
{ACAD_XDICTIONARY
360
17B59
102
}
102
{ACAD_REACTORS
330
17B4F
102
}
330
17B4F
100
AcDbMaterial
  1
ByBlock
 72
     0
 43
0.0208333333333333
 43
0.0
 43
0.0
 43
0.0
 43
0.0
 43
0.0208333333333333
 43
0.0
 43
0.0
 43
0.0
 43
0.0
 43
1.0
 43
0.0
 43
0.0
 43
0.0
 43
0.0
 43
1.0
 77
     0
 47
0.0208333333333333
 47
0.0
 47
0.0
 47
0.0
 47
0.0
 47
0.0208333333333333
 47
0.0
 47
0.0
 47
0.0
 47
0.0
 47
1.0
 47
0.0
 47
0.0
 47
0.0
 47
0.0
 47
1.0
171
     0
 49
0.0208333333333333
 49
0.0
 49
0.0
 49
0.0
 49
0.0
 49
0.0208333333333333
 49
0.0
 49
0.0
 49
0.0
 49
0.0
 49
1.0
 49
0.0
 49
0.0
 49
0.0
 49
0.0
 49
1.0
175
     0
142
0.0208333333333333
142
0.0
142
0.0
142
0.0
142
0.0
142
0.0208333333333333
142
0.0
142
0.0
142
0.0
142
0.0
142
1.0
142
0.0
142
0.0
142
0.0
142
0.0
142
1.0
179
     0
144
0.0208333333333333
144
0.0
144
0.0
144
0.0
144
0.0
144
0.0208333333333333
144
0.0
144
0.0
144
0.0
144
0.0
144
1.0
144
0.0
144
0.0
144
0.0
144
0.0
144
1.0
147
0.0208333333333333
147
0.0
147
0.0
147
0.0
147
0.0
147
0.0208333333333333
147
0.0
147
0.0
147
0.0
147
0.0
147
1.0
147
0.0
147
0.0
147
0.0
147
0.0
147
1.0
  0
MATERIAL
  5
17B50
102
{ACAD_XDICTIONARY
360
17B51
102
}
102
{ACAD_REACTORS
330
17B4F
102
}
330
17B4F
100
AcDbMaterial
  1
ByLayer
 72
     0
 43
0.0208333333333333
 43
0.0
 43
0.0
 43
0.0
 43
0.0
 43
0.0208333333333333
 43
0.0
 43
0.0
 43
0.0
 43
0.0
 43
1.0
 43
0.0
 43
0.0
 43
0.0
 43
0.0
 43
1.0
 77
     0
 47
0.0208333333333333
 47
0.0
 47
0.0
 47
0.0
 47
0.0
 47
0.0208333333333333
 47
0.0
 47
0.0
 47
0.0
 47
0.0
 47
1.0
 47
0.0
 47
0.0
 47
0.0
 47
0.0
 47
1.0
171
     0
 49
0.0208333333333333
 49
0.0
 49
0.0
 49
0.0
 49
0.0
 49
0.0208333333333333
 49
0.0
 49
0.0
 49
0.0
 49
0.0
 49
1.0
 49
0.0
 49
0.0
 49
0.0
 49
0.0
 49
1.0
175
     0
142
0.0208333333333333
142
0.0
142
0.0
142
0.0
142
0.0
142
0.0208333333333333
142
0.0
142
0.0
142
0.0
142
0.0
142
1.0
142
0.0
142
0.0
142
0.0
142
0.0
142
1.0
179
     0
144
0.0208333333333333
144
0.0
144
0.0
144
0.0
144
0.0
144
0.0208333333333333
144
0.0
144
0.0
144
0.0
144
0.0
144
1.0
144
0.0
144
0.0
144
0.0
144
0.0
144
1.0
147
0.0208333333333333
147
0.0
147
0.0
147
0.0
147
0.0
147
0.0208333333333333
147
0.0
147
0.0
147
0.0
147
0.0
147
1.0
147
0.0
147
0.0
147
0.0
147
0.0
147
1.0
  0
MATERIAL
  5
17B60
102
{ACAD_XDICTIONARY
360
17B61
102
}
102
{ACAD_REACTORS
330
17B4F
102
}
330
17B4F
100
AcDbMaterial
  1
Global
 72
     0
 43
0.0208333333333333
 43
0.0
 43
0.0
 43
0.0
 43
0.0
 43
0.0208333333333333
 43
0.0
 43
0.0
 43
0.0
 43
0.0
 43
1.0
 43
0.0
 43
0.0
 43
0.0
 43
0.0
 43
1.0
 77
     0
 47
0.0208333333333333
 47
0.0
 47
0.0
 47
0.0
 47
0.0
 47
0.0208333333333333
 47
0.0
 47
0.0
 47
0.0
 47
0.0
 47
1.0
 47
0.0
 47
0.0
 47
0.0
 47
0.0
 47
1.0
171
     0
 49
0.0208333333333333
 49
0.0
 49
0.0
 49
0.0
 49
0.0
 49
0.0208333333333333
 49
0.0
 49
0.0
 49
0.0
 49
0.0
 49
1.0
 49
0.0
 49
0.0
 49
0.0
 49
0.0
 49
1.0
175
     0
142
0.0208333333333333
142
0.0
142
0.0
142
0.0
142
0.0
142
0.0208333333333333
142
0.0
142
0.0
142
0.0
142
0.0
142
1.0
142
0.0
142
0.0
142
0.0
142
0.0
142
1.0
179
     0
144
0.0208333333333333
144
0.0
144
0.0
144
0.0
144
0.0
144
0.0208333333333333
144
0.0
144
0.0
144
0.0
144
0.0
144
1.0
144
0.0
144
0.0
144
0.0
144
0.0
144
1.0
147
0.0208333333333333
147
0.0
147
0.0
147
0.0
147
0.0
147
0.0208333333333333
147
0.0
147
0.0
147
0.0
147
0.0
147
1.0
147
0.0
147
0.0
147
0.0
147
0.0
147
1.0
  0
MLEADERSTYLE
  5
17B7D
102
{ACAD_REACTORS
330
17B7C
102
}
330
17B7C
100
AcDbMLeaderStyle
170
     2
171
     1
172
     0
 90
        2
 40
0.0
 41
0.0
173
     1
 91
-1056964608
340
12
 92
       -2
290
     1
 42
2.0
291
     1
 43
0.36
  3
Standard
 44
4.0
300

342
10
174
     1
178
     6
175
     1
176
     0
 93
-1056964608
 45
4.0
292
     0
297
     0
 46
4.0
 94
-1056964608
 47
1.0
 49
1.0
140
1.0
293
     1
141
0.0
294
     1
177
     0
142
1.0
295
     0
296
     0
143
0.125
1001
ACAD_MLEADERVER
1070
     2
  0
MLINESTYLE
  5
1B
102
{ACAD_REACTORS
330
E
102
}
330
E
100
AcDbMlineStyle
  2
STANDARD
 70
     0
  3

 62
     0
 51
90.0
 52
90.0
 71
     2
 49
0.5
 62
   256
  6
BYLAYER
 49
-0.5
 62
   256
  6
BYLAYER
  0
ACDBPLACEHOLDER
  5
1C61
102
{ACAD_REACTORS
330
1C60
102
}
330
1C60
  0
SCALE
  5
17A36
102
{ACAD_REACTORS
330
17A35
102
}
330
17A35
100
AcDbScale
 70
     0
300
1:1
140
1.0
141
1.0
290
     1
  0
SCALE
  5
17A37
102
{ACAD_REACTORS
330
17A35
102
}
330
17A35
100
AcDbScale
 70
     0
300
1:2
140
1.0
141
2.0
290
     0
  0
SCALE
  5
17A38
102
{ACAD_REACTORS
330
17A35
102
}
330
17A35
100
AcDbScale
 70
     0
300
1:4
140
1.0
141
4.0
290
     0
  0
SCALE
  5
17A39
102
{ACAD_REACTORS
330
17A35
102
}
330
17A35
100
AcDbScale
 70
     0
300
1:5
140
1.0
141
5.0
290
     0
  0
SCALE
  5
17A3A
102
{ACAD_REACTORS
330
17A35
102
}
330
17A35
100
AcDbScale
 70
     0
300
1:8
140
1.0
141
8.0
290
     0
  0
SCALE
  5
17A3B
102
{ACAD_REACTORS
330
17A35
102
}
330
17A35
100
AcDbScale
 70
     0
300
1:10
140
1.0
141
10.0
290
     0
  0
SCALE
  5
17A3C
102
{ACAD_REACTORS
330
17A35
102
}
330
17A35
100
AcDbScale
 70
     0
300
1:16
140
1.0
141
16.0
290
     0
  0
SCALE
  5
17A3D
102
{ACAD_REACTORS
330
17A35
102
}
330
17A35
100
AcDbScale
 70
     0
300
1:20
140
1.0
141
20.0
290
     0
  0
SCALE
  5
17A3E
102
{ACAD_REACTORS
330
17A35
102
}
330
17A35
100
AcDbScale
 70
     0
300
1:30
140
1.0
141
30.0
290
     0
  0
SCALE
  5
17A3F
102
{ACAD_REACTORS
330
17A35
102
}
330
17A35
100
AcDbScale
 70
     0
300
1:40
140
1.0
141
40.0
290
     0
  0
SCALE
  5
17A40
102
{ACAD_REACTORS
330
17A35
102
}
330
17A35
100
AcDbScale
 70
     0
300
1:50
140
1.0
141
50.0
290
     0
  0
SCALE
  5
17A41
102
{ACAD_REACTORS
330
17A35
102
}
330
17A35
100
AcDbScale
 70
     0
300
1:100
140
1.0
141
100.0
290
     0
  0
SCALE
  5
17A42
102
{ACAD_REACTORS
330
17A35
102
}
330
17A35
100
AcDbScale
 70
     0
300
2:1
140
2.0
141
1.0
290
     0
  0
SCALE
  5
17A43
102
{ACAD_REACTORS
330
17A35
102
}
330
17A35
100
AcDbScale
 70
     0
300
4:1
140
4.0
141
1.0
290
     0
  0
SCALE
  5
17A44
102
{ACAD_REACTORS
330
17A35
102
}
330
17A35
100
AcDbScale
 70
     0
300
8:1
140
8.0
141
1.0
290
     0
  0
SCALE
  5
17A45
102
{ACAD_REACTORS
330
17A35
102
}
330
17A35
100
AcDbScale
 70
     0
300
10:1
140
10.0
141
1.0
290
     0
  0
SCALE
  5
17A46
102
{ACAD_REACTORS
330
17A35
102
}
330
17A35
100
AcDbScale
 70
     0
300
100:1
140
100.0
141
1.0
290
     0
  0
SCALE
  5
17A47
102
{ACAD_REACTORS
330
17A35
102
}
330
17A35
100
AcDbScale
 70
     0
300
1/128" = 1'-0"
140
0.0078125
141
12.0
290
     0
  0
SCALE
  5
17A48
102
{ACAD_REACTORS
330
17A35
102
}
330
17A35
100
AcDbScale
 70
     0
300
1/64" = 1'-0"
140
0.015625
141
12.0
290
     0
  0
SCALE
  5
17A49
102
{ACAD_REACTORS
330
17A35
102
}
330
17A35
100
AcDbScale
 70
     0
300
1/32" = 1'-0"
140
0.03125
141
12.0
290
     0
  0
SCALE
  5
17A4A
102
{ACAD_REACTORS
330
17A35
102
}
330
17A35
100
AcDbScale
 70
     0
300
1/16" = 1'-0"
140
0.0625
141
12.0
290
     0
  0
SCALE
  5
17A4B
102
{ACAD_REACTORS
330
17A35
102
}
330
17A35
100
AcDbScale
 70
     0
300
3/32" = 1'-0"
140
0.09375
141
12.0
290
     0
  0
SCALE
  5
17A4C
102
{ACAD_REACTORS
330
17A35
102
}
330
17A35
100
AcDbScale
 70
     0
300
1/8" = 1'-0"
140
0.125
141
12.0
290
     0
  0
SCALE
  5
17A4D
102
{ACAD_REACTORS
330
17A35
102
}
330
17A35
100
AcDbScale
 70
     0
300
3/16" = 1'-0"
140
0.1875
141
12.0
290
     0
  0
SCALE
  5
17A4E
102
{ACAD_REACTORS
330
17A35
102
}
330
17A35
100
AcDbScale
 70
     0
300
1/4" = 1'-0"
140
0.25
141
12.0
290
     0
  0
SCALE
  5
17A4F
102
{ACAD_REACTORS
330
17A35
102
}
330
17A35
100
AcDbScale
 70
     0
300
3/8" = 1'-0"
140
0.375
141
12.0
290
     0
  0
SCALE
  5
17A50
102
{ACAD_REACTORS
330
17A35
102
}
330
17A35
100
AcDbScale
 70
     0
300
1/2" = 1'-0"
140
0.5
141
12.0
290
     0
  0
SCALE
  5
17A51
102
{ACAD_REACTORS
330
17A35
102
}
330
17A35
100
AcDbScale
 70
     0
300
3/4" = 1'-0"
140
0.75
141
12.0
290
     0
  0
SCALE
  5
17A52
102
{ACAD_REACTORS
330
17A35
102
}
330
17A35
100
AcDbScale
 70
     0
300
1" = 1'-0"
140
1.0
141
12.0
290
     0
  0
SCALE
  5
17A53
102
{ACAD_REACTORS
330
17A35
102
}
330
17A35
100
AcDbScale
 70
     0
300
1-1/2" = 1'-0"
140
1.5
141
12.0
290
     0
  0
SCALE
  5
17A54
102
{ACAD_REACTORS
330
17A35
102
}
330
17A35
100
AcDbScale
 70
     0
300
3" = 1'-0"
140
3.0
141
12.0
290
     0
  0
SCALE
  5
17A55
102
{ACAD_REACTORS
330
17A35
102
}
330
17A35
100
AcDbScale
 70
     0
300
6" = 1'-0"
140
6.0
141
12.0
290
     0
  0
SCALE
  5
17A56
102
{ACAD_REACTORS
330
17A35
102
}
330
17A35
100
AcDbScale
 70
     0
300
1'-0" = 1'-0"
140
12.0
141
12.0
290
     0
  0
TABLESTYLE
  5
17B7B
102
{ACAD_XDICTIONARY
360
17B8D
102
}
102
{ACAD_REACTORS
330
17B7A
102
}
330
17B7A
100
AcDbTableStyle
  3
Standard
 70
     0
 71
     0
 40
1.5
 41
1.5
280
     0
281
     0
  7
STANDARD
140
4.5
170
     2
 62
     0
 63
     7
283
     0
274
    -2
284
     1
 64
     0
275
    -2
285
     1
 65
     0
276
    -2
286
     1
 66
     0
277
    -2
287
     1
 67
     0
278
    -2
288
     1
 68
     0
279
    -2
289
     1
 69
     0
  7
STANDARD
140
6.0
170
     5
 62
     0
 63
     7
283
     0
274
    -2
284
     1
 64
     0
275
    -2
285
     1
 65
     0
276
    -2
286
     1
 66
     0
277
    -2
287
     1
 67
     0
278
    -2
288
     1
 68
     0
279
    -2
289
     1
 69
     0
  7
STANDARD
140
4.5
170
     5
 62
     0
 63
     7
283
     0
274
    -2
284
     1
 64
     0
275
    -2
285
     1
 65
     0
276
    -2
286
     1
 66
     0
277
    -2
287
     1
 67
     0
278
    -2
288
     1
 68
     0
279
    -2
289
     1
 69
     0
  0
VISUALSTYLE
  5
17B6E
102
{ACAD_REACTORS
330
17B68
102
}
330
17B68
100
AcDbVisualStyle
  2
2dWireframe
 70
     4
 71
     0
 72
     2
 73
     0
 90
        0
 40
-0.6
 41
-30.0
 62
     5
 63
     7
 74
     1
 91
        4
 64
     7
 65
   257
 75
     1
175
     1
 42
1.0
 92
        0
 66
   257
 43
1.0
 76
     1
 77
     6
 78
     2
 67
     7
 79
     5
170
     0
171
     0
290
     0
174
     0
 93
        1
 44
0.0
173
     0
291
     0
 45
0.0
1001
ACAD
1000
AcDbSavedByObjectVersion
1070
     0
1000
AcDbSavedByObjectVersion
1070
     0
  0
VISUALSTYLE
  5
17B70
102
{ACAD_REACTORS
330
17B68
102
}
330
17B68
100
AcDbVisualStyle
  2
3D Hidden
 70
     6
 71
     1
 72
     2
 73
     2
 90
        0
 40
-0.6
 41
-30.0
 62
     5
 63
     7
 74
     2
 91
        2
 64
     7
 65
   257
 75
     2
175
     1
 42
40.0
 92
        0
 66
   257
 43
1.0
 76
     1
 77
     6
 78
     2
 67
     7
 79
     3
170
     0
171
     0
290
     0
174
     0
 93
        1
 44
0.0
173
     0
291
     0
 45
0.0
1001
ACAD
1000
AcDbSavedByObjectVersion
1070
     0
1000
AcDbSavedByObjectVersion
1070
     0
  0
VISUALSTYLE
  5
17B6F
102
{ACAD_REACTORS
330
17B68
102
}
330
17B68
100
AcDbVisualStyle
  2
3dWireframe
 70
     5
 71
     0
 72
     2
 73
     0
 90
        0
 40
-0.6
 41
-30.0
 62
     5
 63
     7
 74
     1
 91
        4
 64
     7
 65
   257
 75
     1
175
     1
 42
1.0
 92
        0
 66
   257
 43
1.0
 76
     1
 77
     6
 78
     2
 67
     7
 79
     5
170
     0
171
     0
290
     0
174
     0
 93
        1
 44
0.0
173
     0
291
     0
 45
0.0
1001
ACAD
1000
AcDbSavedByObjectVersion
1070
     0
1000
AcDbSavedByObjectVersion
1070
     0
  0
VISUALSTYLE
  5
17B6D
102
{ACAD_REACTORS
330
17B68
102
}
330
17B68
100
AcDbVisualStyle
  2
Basic
 70
     7
 71
     1
 72
     0
 73
     1
 90
        0
 40
-0.6
 41
-30.0
 62
     5
 63
     7
 74
     0
 91
        4
 64
     7
 65
   257
 75
     1
175
     1
 42
1.0
 92
        8
 66
     7
 43
1.0
 76
     1
 77
     6
 78
     2
 67
     7
 79
     5
170
     0
171
     0
290
     0
174
     0
 93
        1
 44
0.0
173
     0
291
     1
 45
0.0
1001
ACAD
1000
AcDbSavedByObjectVersion
1070
     0
1000
AcDbSavedByObjectVersion
1070
     0
  0
VISUALSTYLE
  5
17B74
102
{ACAD_REACTORS
330
17B68
102
}
330
17B68
100
AcDbVisualStyle
  2
Brighten
 70
    12
 71
     2
 72
     2
 73
     0
 90
        0
 40
-0.6
 41
-30.0
 62
     5
 63
     7
 74
     1
 91
        4
 64
     7
 65
   257
 75
     1
175
     1
 42
1.0
 92
        8
 66
     7
 43
1.0
 76
     1
 77
     6
 78
     2
 67
     7
 79
     5
170
     0
171
     0
290
     0
174
     0
 93
        1
 44
50.0
173
     0
291
     1
 45
0.0
1001
ACAD
1000
AcDbSavedByObjectVersion
1070
     0
1000
AcDbSavedByObjectVersion
1070
     0
  0
VISUALSTYLE
  5
17B78
102
{ACAD_REACTORS
330
17B68
102
}
330
17B68
100
AcDbVisualStyle
  2
ColorChange
 70
    16
 71
     2
 72
     2
 73
     3
 90
        0
 40
-0.6
 41
-30.0
 62
     5
 63
     8
 74
     1
 91
        4
 64
     7
 65
   257
 75
     1
175
     1
 42
1.0
 92
        8
 66
     8
 43
1.0
 76
     1
 77
     6
 78
     2
 67
     7
 79
     5
170
     0
171
     0
290
     0
174
     0
 93
        1
 44
0.0
173
     0
291
     1
 45
0.0
1001
ACAD
1000
AcDbSavedByObjectVersion
1070
     0
1000
AcDbSavedByObjectVersion
1070
     0
  0
VISUALSTYLE
  5
17B71
102
{ACAD_REACTORS
330
17B68
102
}
330
17B68
100
AcDbVisualStyle
  2
Conceptual
 70
     9
 71
     3
 72
     2
 73
     0
 90
        0
 40
-0.6
 41
-30.0
 62
     5
 63
     7
 74
     2
 91
        2
 64
     7
 65
   257
 75
     1
175
     1
 42
40.0
 92
        8
 66
     7
 43
1.0
 76
     1
 77
     6
 78
     2
 67
     7
 79
     3
170
     0
171
     0
290
     0
174
     0
 93
        1
 44
0.0
173
     0
291
     0
 45
0.0
1001
ACAD
1000
AcDbSavedByObjectVersion
1070
     0
1000
AcDbSavedByObjectVersion
1070
     0
  0
VISUALSTYLE
  5
17B73
102
{ACAD_REACTORS
330
17B68
102
}
330
17B68
100
AcDbVisualStyle
  2
Dim
 70
    11
 71
     2
 72
     2
 73
     0
 90
        0
 40
-0.6
 41
-30.0
 62
     5
 63
     7
 74
     1
 91
        4
 64
     7
 65
   257
 75
     1
175
     1
 42
1.0
 92
        8
 66
     7
 43
1.0
 76
     1
 77
     6
 78
     2
 67
     7
 79
     5
170
     0
171
     0
290
     0
174
     0
 93
        1
 44
-50.0
173
     0
291
     1
 45
0.0
1001
ACAD
1000
AcDbSavedByObjectVersion
1070
     0
1000
AcDbSavedByObjectVersion
1070
     0
  0
VISUALSTYLE
  5
17B77
102
{ACAD_REACTORS
330
17B68
102
}
330
17B68
100
AcDbVisualStyle
  2
Facepattern
 70
    15
 71
     2
 72
     2
 73
     0
 90
        0
 40
-0.6
 41
-30.0
 62
     5
 63
     7
 74
     1
 91
        4
 64
     7
 65
   257
 75
     1
175
     1
 42
1.0
 92
        8
 66
     7
 43
1.0
 76
     1
 77
     6
 78
     2
 67
     7
 79
     5
170
     0
171
     0
290
     0
174
     0
 93
        1
 44
0.0
173
     0
291
     1
 45
0.0
1001
ACAD
1000
AcDbSavedByObjectVersion
1070
     0
1000
AcDbSavedByObjectVersion
1070
     0
  0
VISUALSTYLE
  5
17B69
102
{ACAD_REACTORS
330
17B68
102
}
330
17B68
100
AcDbVisualStyle
  2
Flat
 70
     0
 71
     2
 72
     1
 73
     1
 90
        2
 40
-0.6
 41
30.0
 62
     5
 63
     7
 74
     0
 91
        4
 64
     7
 65
   257
 75
     1
175
     1
 42
1.0
 92
        8
 66
     7
 43
1.0
 76
     1
 77
     6
 78
     2
 67
     7
 79
     5
170
     0
171
     0
290
     0
174
     0
 93
       13
 44
0.0
173
     0
291
     1
 45
0.0
1001
ACAD
1000
AcDbSavedByObjectVersion
1070
     0
1000
AcDbSavedByObjectVersion
1070
     0
  0
VISUALSTYLE
  5
17B6A
102
{ACAD_REACTORS
330
17B68
102
}
330
17B68
100
AcDbVisualStyle
  2
FlatWithEdges
 70
     1
 71
     2
 72
     1
 73
     1
 90
        2
 40
-0.6
 41
30.0
 62
     5
 63
     7
 74
     1
 91
        4
 64
     7
 65
   257
 75
     1
175
     1
 42
1.0
 92
        0
 66
   257
 43
1.0
 76
     1
 77
     6
 78
     2
 67
     7
 79
     5
170
     0
171
     0
290
     0
174
     0
 93
       13
 44
0.0
173
     0
291
     1
 45
0.0
1001
ACAD
1000
AcDbSavedByObjectVersion
1070
     0
1000
AcDbSavedByObjectVersion
1070
     0
  0
VISUALSTYLE
  5
17B6B
102
{ACAD_REACTORS
330
17B68
102
}
330
17B68
100
AcDbVisualStyle
  2
Gouraud
 70
     2
 71
     2
 72
     2
 73
     1
 90
        2
 40
-0.6
 41
30.0
 62
     5
 63
     7
 74
     0
 91
        4
 64
     7
 65
   257
 75
     1
175
     1
 42
1.0
 92
        0
 66
     7
 43
1.0
 76
     1
 77
     6
 78
     2
 67
     7
 79
     5
170
     0
171
     0
290
     0
174
     0
 93
       13
 44
0.0
173
     0
291
     1
 45
0.0
1001
ACAD
1000
AcDbSavedByObjectVersion
1070
     0
1000
AcDbSavedByObjectVersion
1070
     0
  0
VISUALSTYLE
  5
17B6C
102
{ACAD_REACTORS
330
17B68
102
}
330
17B68
100
AcDbVisualStyle
  2
GouraudWithEdges
 70
     3
 71
     2
 72
     2
 73
     1
 90
        2
 40
-0.6
 41
30.0
 62
     5
 63
     7
 74
     1
 91
        4
 64
     7
 65
   257
 75
     1
175
     1
 42
1.0
 92
        0
 66
   257
 43
1.0
 76
     1
 77
     6
 78
     2
 67
     7
 79
     5
170
     0
171
     0
290
     0
174
     0
 93
       13
 44
0.0
173
     0
291
     1
 45
0.0
1001
ACAD
1000
AcDbSavedByObjectVersion
1070
     0
1000
AcDbSavedByObjectVersion
1070
     0
  0
VISUALSTYLE
  5
17B76
102
{ACAD_REACTORS
330
17B68
102
}
330
17B68
100
AcDbVisualStyle
  2
Linepattern
 70
    14
 71
     2
 72
     2
 73
     0
 90
        0
 40
-0.6
 41
-30.0
 62
     5
 63
     7
 74
     1
 91
        4
 64
     7
 65
   257
 75
     7
175
     7
 42
1.0
 92
        8
 66
     7
 43
1.0
 76
     1
 77
     6
 78
     2
 67
     7
 79
     5
170
     0
171
     0
290
     0
174
     0
 93
        1
 44
0.0
173
     0
291
     1
 45
0.0
1001
ACAD
1000
AcDbSavedByObjectVersion
1070
     0
1000
AcDbSavedByObjectVersion
1070
     0
  0
VISUALSTYLE
  5
17B72
102
{ACAD_REACTORS
330
17B68
102
}
330
17B68
100
AcDbVisualStyle
  2
Realistic
 70
     8
 71
     2
 72
     2
 73
     0
 90
        0
 40
-0.6
 41
-30.0
 62
     5
 63
     7
 74
     1
 91
        0
 64
     7
 65
   257
 75
     1
175
     1
 42
1.0
 92
        8
 66
     8
 43
1.0
 76
     1
 77
     6
 78
     2
 67
     7
 79
     5
170
     0
171
     0
290
     0
174
     0
 93
       13
 44
0.0
173
     0
291
     0
 45
0.0
1001
ACAD
1000
AcDbSavedByObjectVersion
1070
     0
1000
AcDbSavedByObjectVersion
1070
     0
  0
VISUALSTYLE
  5
17B75
102
{ACAD_REACTORS
330
17B68
102
}
330
17B68
100
AcDbVisualStyle
  2
Thicken
 70
    13
 71
     2
 72
     2
 73
     0
 90
        0
 40
-0.6
 41
-30.0
 62
     5
 63
     7
 74
     1
 91
        4
 64
     7
 65
   257
 75
     1
175
     1
 42
1.0
 92
       12
 66
     7
 43
1.0
 76
     1
 77
     6
 78
     2
 67
     7
 79
     5
170
     0
171
     0
290
     0
174
     0
 93
        1
 44
0.0
173
     0
291
     1
 45
0.0
1001
ACAD
1000
AcDbSavedByObjectVersion
1070
     0
1000
AcDbSavedByObjectVersion
1070
     0
  0
DICTIONARYVAR
  5
17B4A
102
{ACAD_REACTORS
330
1237
102
}
330
1237
100
DictionaryVariables
280
     0
  1
1:1
  0
DICTIONARYVAR
  5
17B8B
102
{ACAD_REACTORS
330
1237
102
}
330
1237
100
DictionaryVariables
280
     0
  1
STANDARD
  0
DICTIONARYVAR
  5
17B8A
102
{ACAD_REACTORS
330
1237
102
}
330
1237
100
DictionaryVariables
280
     0
  1
STANDARD
  0
DICTIONARYVAR
  5
17A2D
102
{ACAD_REACTORS
330
1237
102
}
330
1237
100
DictionaryVariables
280
     0
  1
1
  0
DICTIONARYVAR
  5
17B8C
102
{ACAD_REACTORS
330
1237
102
}
330
1237
100
DictionaryVariables
280
     0
  1
0
  0
DICTIONARYVAR
  5
17A2E
102
{ACAD_REACTORS
330
1237
102
}
330
1237
100
DictionaryVariables
280
     0
  1

  0
DICTIONARYVAR
  5
1238
102
{ACAD_REACTORS
330
1237
102
}
330
1237
100
DictionaryVariables
280
     0
  1
96
  0
DICTIONARY
  5
1764C
102
{ACAD_REACTORS
330
17641
102
}
330
17641
100
AcDbDictionary
281
     1
  0
XRECORD
  5
17669
102
{ACAD_REACTORS
330
17641
102
}
330
17641
100
AcDbXrecord
280
     1
 90
-1023410169
  0
XRECORD
  5
17A5F
102
{ACAD_REACTORS
330
176AD
102
}
330
176AD
100
AcDbXrecord
280
     1
 91
     1023
301

290
     0
302
1
330
F
 90
        8
 62
     2
370
    -3
331
14
  1
Color_2
330
30
 90
        0
 62
     7
370
    -3
331
14
  1
Color_7
330
526
 90
        8
 62
     3
370
    -3
331
14
  1
Color_3
330
138F
 90
        8
 62
     1
370
    -3
331
C0D
  1
Color_1
330
1390
 90
        8
 62
     7
370
    -3
331
14
  1
Color_7
330
0
 90
        8
 62
     3
370
    -3
331
14
  1
Color_3
330
0
 90
        8
 62
     2
370
    -3
331
14
  1
Color_2
330
0
 90
        8
 62
     1
370
    -3
331
14
  1
Color_1
  0
XRECORD
  5
17A68
102
{ACAD_REACTORS
330
176AD
102
}
330
176AD
100
AcDbXrecord
280
     1
 91
     1023
301

290
     0
302
1
330
F
 90
        8
 62
     2
370
    -3
331
14
  1
Color_2
330
30
 90
        1
 62
     7
370
    -3
331
14
  1
Color_7
330
526
 90
        9
 62
     3
370
    -3
331
14
  1
Color_3
330
138F
 90
        9
 62
     1
370
    -3
331
C0D
  1
Color_1
330
1390
 90
        8
 62
     7
370
    -3
331
14
  1
Color_7
330
0
 90
        8
 62
     3
370
    -3
331
14
  1
Color_3
330
0
 90
        8
 62
     2
370
    -3
331
14
  1
Color_2
330
0
 90
        8
 62
     1
370
    -3
331
14
  1
Color_1
  0
XRECORD
  5
17ADC
102
{ACAD_REACTORS
330
176AD
102
}
330
176AD
100
AcDbXrecord
280
     1
 91
     1023
301

290
     0
302
SUNPOU
330
F
 90
        8
 62
     2
370
    -3
331
14
  1
Color_2
330
30
 90
        0
 62
     7
370
    -3
331
14
  1
Color_7
330
526
 90
        8
 62
     1
370
    -3
331
14
  1
Color_1
330
138F
 90
        8
 62
     6
370
    -3
331
C0D
  1
Color_6
330
1390
 90
        8
 62
     7
370
    -3
331
14
  1
Color_7
330
0
 90
        8
 62
     3
370
    -3
331
14
  1
Color_3
  0
XRECORD
  5
17ADD
102
{ACAD_REACTORS
330
176AD
102
}
330
176AD
100
AcDbXrecord
280
     1
 91
     1023
301

290
     0
302
SUNPOU
330
F
 90
        9
 62
     2
370
    -3
331
14
  1
Color_2
330
30
 90
        0
 62
     7
370
    -3
331
14
  1
Color_7
330
526
 90
        8
 62
     1
370
    -3
331
14
  1
Color_1
330
138F
 90
        8
 62
     6
370
    -3
331
C0D
  1
Color_6
330
1390
 90
        8
 62
     7
370
    -3
331
14
  1
Color_7
330
0
 90
        8
 62
     3
370
    -3
331
14
  1
Color_3
  0
XRECORD
  5
17ADE
102
{ACAD_REACTORS
330
176AD
102
}
330
176AD
100
AcDbXrecord
280
     1
 91
     1023
301

290
     0
302
SUNPOU
330
F
 90
        9
 62
     2
370
    -3
331
14
  1
Color_2
330
30
 90
        0
 62
     7
370
    -3
331
14
  1
Color_7
330
526
 90
        8
 62
     1
370
    -3
331
14
  1
Color_1
330
138F
 90
        8
 62
     6
370
    -3
331
C0D
  1
Color_6
330
1390
 90
        9
 62
     7
370
    -3
331
14
  1
Color_7
330
0
 90
        8
 62
     3
370
    -3
331
14
  1
Color_3
  0
XRECORD
  5
17ADF
102
{ACAD_REACTORS
330
176AD
102
}
330
176AD
100
AcDbXrecord
280
     1
 91
     1023
301

290
     0
302
SUNPOU
330
F
 90
        9
 62
     2
370
    -3
331
14
  1
Color_2
330
30
 90
        0
 62
     7
370
    -3
331
14
  1
Color_7
330
526
 90
        9
 62
     1
370
    -3
331
14
  1
Color_1
330
138F
 90
        8
 62
     6
370
    -3
331
C0D
  1
Color_6
330
1390
 90
        9
 62
     7
370
    -3
331
14
  1
Color_7
330
0
 90
        8
 62
     3
370
    -3
331
14
  1
Color_3
  0
XRECORD
  5
17AE4
102
{ACAD_REACTORS
330
176AD
102
}
330
176AD
100
AcDbXrecord
280
     1
 91
     1023
301

290
     0
302
SUNPOU
330
F
 90
        9
 62
     2
370
    -3
331
14
  1
Color_2
330
30
 90
        1
 62
     7
370
    -3
331
14
  1
Color_7
330
526
 90
        9
 62
     1
370
    -3
331
14
  1
Color_1
330
138F
 90
        9
 62
     6
370
    -3
331
C0D
  1
Color_6
330
1390
 90
        9
 62
     7
370
    -3
331
14
  1
Color_7
330
0
 90
        8
 62
     3
370
    -3
331
14
  1
Color_3
  0
XRECORD
  5
17AE5
102
{ACAD_REACTORS
330
176AD
102
}
330
176AD
100
AcDbXrecord
280
     1
 91
     1023
301

290
     0
302
SUNPOU
330
F
 90
        8
 62
     2
370
    -3
331
14
  1
Color_2
330
30
 90
        1
 62
     7
370
    -3
331
14
  1
Color_7
330
526
 90
        9
 62
     1
370
    -3
331
14
  1
Color_1
330
138F
 90
        9
 62
     6
370
    -3
331
C0D
  1
Color_6
330
1390
 90
        9
 62
     7
370
    -3
331
14
  1
Color_7
330
0
 90
        8
 62
     3
370
    -3
331
14
  1
Color_3
  0
XRECORD
  5
17AE6
102
{ACAD_REACTORS
330
176AD
102
}
330
176AD
100
AcDbXrecord
280
     1
 91
     1023
301

290
     0
302
SUNPOU
330
F
 90
        8
 62
     2
370
    -3
331
14
  1
Color_2
330
30
 90
        1
 62
     7
370
    -3
331
14
  1
Color_7
330
526
 90
        9
 62
     1
370
    -3
331
14
  1
Color_1
330
138F
 90
        9
 62
     6
370
    -3
331
C0D
  1
Color_6
330
1390
 90
        8
 62
     7
370
    -3
331
14
  1
Color_7
330
0
 90
        8
 62
     3
370
    -3
331
14
  1
Color_3
  0
XRECORD
  5
17AE7
102
{ACAD_REACTORS
330
176AD
102
}
330
176AD
100
AcDbXrecord
280
     1
 91
     1023
301

290
     0
302
SUNPOU
330
F
 90
        8
 62
     2
370
    -3
331
14
  1
Color_2
330
30
 90
        1
 62
     7
370
    -3
331
14
  1
Color_7
330
526
 90
        8
 62
     1
370
    -3
331
14
  1
Color_1
330
138F
 90
        9
 62
     6
370
    -3
331
C0D
  1
Color_6
330
1390
 90
        8
 62
     7
370
    -3
331
14
  1
Color_7
330
0
 90
        8
 62
     3
370
    -3
331
14
  1
Color_3
  0
XRECORD
  5
17AE8
102
{ACAD_REACTORS
330
176AD
102
}
330
176AD
100
AcDbXrecord
280
     1
 91
     1023
301

290
     0
302
2
330
F
 90
        8
 62
     2
370
    -3
331
14
  1
Color_2
330
30
 90
        1
 62
     7
370
    -3
331
14
  1
Color_7
330
526
 90
        8
 62
     1
370
    -3
331
14
  1
Color_1
330
138F
 90
        9
 62
     6
370
    -3
331
C0D
  1
Color_6
330
1390
 90
        8
 62
     7
370
    -3
331
14
  1
Color_7
330
0
 90
        8
 62
     3
370
    -3
331
14
  1
Color_3
  0
XRECORD
  5
17AEC
102
{ACAD_REACTORS
330
176AD
102
}
330
176AD
100
AcDbXrecord
280
     1
 91
     1023
301

290
     0
302
2
330
F
 90
        8
 62
     2
370
    -3
331
14
  1
Color_2
330
30
 90
        0
 62
     7
370
    -3
331
14
  1
Color_7
330
526
 90
        8
 62
     1
370
    -3
331
14
  1
Color_1
330
138F
 90
        8
 62
     6
370
    -3
331
C0D
  1
Color_6
330
1390
 90
        8
 62
     7
370
    -3
331
14
  1
Color_7
330
0
 90
        8
 62
     3
370
    -3
331
14
  1
Color_3
  0
XRECORD
  5
17A69
102
{ACAD_REACTORS
330
176AD
102
}
330
176AD
100
AcDbXrecord
280
     1
 91
     1023
301

290
     0
302
1
330
F
 90
        8
 62
     2
370
    -3
331
14
  1
Color_2
330
30
 90
        1
 62
     7
370
    -3
331
14
  1
Color_7
330
526
 90
        8
 62
     3
370
    -3
331
14
  1
Color_3
330
138F
 90
        9
 62
     1
370
    -3
331
C0D
  1
Color_1
330
1390
 90
        8
 62
     7
370
    -3
331
14
  1
Color_7
330
0
 90
        8
 62
     3
370
    -3
331
14
  1
Color_3
330
0
 90
        8
 62
     2
370
    -3
331
14
  1
Color_2
330
0
 90
        8
 62
     1
370
    -3
331
14
  1
Color_1
  0
XRECORD
  5
17AED
102
{ACAD_REACTORS
330
176AD
102
}
330
176AD
100
AcDbXrecord
280
     1
 91
     1023
301

290
     0
302
2
330
F
 90
        9
 62
     2
370
    -3
331
14
  1
Color_2
330
30
 90
        0
 62
     7
370
    -3
331
14
  1
Color_7
330
526
 90
        8
 62
     1
370
    -3
331
14
  1
Color_1
330
138F
 90
        8
 62
     6
370
    -3
331
C0D
  1
Color_6
330
1390
 90
        8
 62
     7
370
    -3
331
14
  1
Color_7
330
0
 90
        8
 62
     3
370
    -3
331
14
  1
Color_3
  0
XRECORD
  5
17AEE
102
{ACAD_REACTORS
330
176AD
102
}
330
176AD
100
AcDbXrecord
280
     1
 91
     1023
301

290
     0
302
2
330
F
 90
        8
 62
     2
370
    -3
331
14
  1
Color_2
330
30
 90
        0
 62
     7
370
    -3
331
14
  1
Color_7
330
526
 90
        8
 62
     1
370
    -3
331
14
  1
Color_1
330
138F
 90
        8
 62
     6
370
    -3
331
C0D
  1
Color_6
330
1390
 90
        8
 62
     7
370
    -3
331
14
  1
Color_7
330
0
 90
        8
 62
     3
370
    -3
331
14
  1
Color_3
  0
XRECORD
  5
17AEF
102
{ACAD_REACTORS
330
176AD
102
}
330
176AD
100
AcDbXrecord
280
     1
 91
     1023
301

290
     0
302
2
330
F
 90
        8
 62
     2
370
    -3
331
14
  1
Color_2
330
30
 90
        0
 62
     7
370
    -3
331
14
  1
Color_7
330
526
 90
        8
 62
     1
370
    -3
331
14
  1
Color_1
330
138F
 90
        8
 62
     6
370
    -3
331
C0D
  1
Color_6
330
1390
 90
        9
 62
     7
370
    -3
331
14
  1
Color_7
330
0
 90
        8
 62
     3
370
    -3
331
14
  1
Color_3
  0
XRECORD
  5
17AF0
102
{ACAD_REACTORS
330
176AD
102
}
330
176AD
100
AcDbXrecord
280
     1
 91
     1023
301

290
     0
302
2
330
F
 90
        8
 62
     2
370
    -3
331
14
  1
Color_2
330
30
 90
        0
 62
     7
370
    -3
331
14
  1
Color_7
330
526
 90
        8
 62
     1
370
    -3
331
14
  1
Color_1
330
138F
 90
        8
 62
     6
370
    -3
331
C0D
  1
Color_6
330
1390
 90
        8
 62
     7
370
    -3
331
14
  1
Color_7
330
0
 90
        8
 62
     3
370
    -3
331
14
  1
Color_3
  0
XRECORD
  5
17AF1
102
{ACAD_REACTORS
330
176AD
102
}
330
176AD
100
AcDbXrecord
280
     1
 91
     1023
301

290
     0
302
2
330
F
 90
        8
 62
     2
370
    -3
331
14
  1
Color_2
330
30
 90
        0
 62
     7
370
    -3
331
14
  1
Color_7
330
526
 90
        8
 62
     1
370
    -3
331
14
  1
Color_1
330
138F
 90
        8
 62
     6
370
    -3
331
C0D
  1
Color_6
330
1390
 90
        9
 62
     7
370
    -3
331
14
  1
Color_7
330
0
 90
        8
 62
     3
370
    -3
331
14
  1
Color_3
  0
XRECORD
  5
17AF2
102
{ACAD_REACTORS
330
176AD
102
}
330
176AD
100
AcDbXrecord
280
     1
 91
     1023
301

290
     0
302
2
330
F
 90
        8
 62
     2
370
    -3
331
14
  1
Color_2
330
30
 90
        0
 62
     7
370
    -3
331
14
  1
Color_7
330
526
 90
        8
 62
     1
370
    -3
331
14
  1
Color_1
330
138F
 90
        8
 62
     6
370
    -3
331
C0D
  1
Color_6
330
1390
 90
        8
 62
     7
370
    -3
331
14
  1
Color_7
330
0
 90
        8
 62
     3
370
    -3
331
14
  1
Color_3
  0
XRECORD
  5
17AF3
102
{ACAD_REACTORS
330
176AD
102
}
330
176AD
100
AcDbXrecord
280
     1
 91
     1023
301

290
     0
302
2
330
F
 90
        8
 62
     2
370
    -3
331
14
  1
Color_2
330
30
 90
        0
 62
     7
370
    -3
331
14
  1
Color_7
330
526
 90
        9
 62
     1
370
    -3
331
14
  1
Color_1
330
138F
 90
        8
 62
     6
370
    -3
331
C0D
  1
Color_6
330
1390
 90
        8
 62
     7
370
    -3
331
14
  1
Color_7
330
0
 90
        8
 62
     3
370
    -3
331
14
  1
Color_3
  0
XRECORD
  5
17AF4
102
{ACAD_REACTORS
330
176AD
102
}
330
176AD
100
AcDbXrecord
280
     1
 91
     1023
301

290
     0
302
2
330
F
 90
        8
 62
     2
370
    -3
331
14
  1
Color_2
330
30
 90
        0
 62
     7
370
    -3
331
14
  1
Color_7
330
526
 90
        9
 62
     1
370
    -3
331
14
  1
Color_1
330
138F
 90
        8
 62
     6
370
    -3
331
C0D
  1
Color_6
330
1390
 90
        9
 62
     7
370
    -3
331
14
  1
Color_7
330
0
 90
        8
 62
     3
370
    -3
331
14
  1
Color_3
  0
XRECORD
  5
17AF5
102
{ACAD_REACTORS
330
176AD
102
}
330
176AD
100
AcDbXrecord
280
     1
 91
     1023
301

290
     0
302
1
330
F
 90
        8
 62
     2
370
    -3
331
14
  1
Color_2
330
30
 90
        0
 62
     7
370
    -3
331
14
  1
Color_7
330
526
 90
        9
 62
     1
370
    -3
331
14
  1
Color_1
330
138F
 90
        8
 62
     6
370
    -3
331
C0D
  1
Color_6
330
1390
 90
        9
 62
     7
370
    -3
331
14
  1
Color_7
330
0
 90
        8
 62
     3
370
    -3
331
14
  1
Color_3
  0
XRECORD
  5
17AF6
102
{ACAD_REACTORS
330
176AD
102
}
330
176AD
100
AcDbXrecord
280
     1
 91
     1023
301

290
     0
302
1
330
F
 90
        9
 62
     2
370
    -3
331
14
  1
Color_2
330
30
 90
        0
 62
     7
370
    -3
331
14
  1
Color_7
330
526
 90
        9
 62
     1
370
    -3
331
14
  1
Color_1
330
138F
 90
        8
 62
     6
370
    -3
331
C0D
  1
Color_6
330
1390
 90
        9
 62
     7
370
    -3
331
14
  1
Color_7
330
0
 90
        8
 62
     3
370
    -3
331
14
  1
Color_3
  0
XRECORD
  5
17A6A
102
{ACAD_REACTORS
330
176AD
102
}
330
176AD
100
AcDbXrecord
280
     1
 91
     1023
301

290
     0
302
1
330
F
 90
        8
 62
     2
370
    -3
331
14
  1
Color_2
330
30
 90
        1
 62
     7
370
    -3
331
14
  1
Color_7
330
526
 90
        8
 62
     3
370
    -3
331
14
  1
Color_3
330
138F
 90
        8
 62
     1
370
    -3
331
C0D
  1
Color_1
330
1390
 90
        8
 62
     7
370
    -3
331
14
  1
Color_7
330
0
 90
        8
 62
     3
370
    -3
331
14
  1
Color_3
330
0
 90
        8
 62
     2
370
    -3
331
14
  1
Color_2
330
0
 90
        8
 62
     1
370
    -3
331
14
  1
Color_1
  0
XRECORD
  5
17AF7
102
{ACAD_REACTORS
330
176AD
102
}
330
176AD
100
AcDbXrecord
280
     1
 91
     1023
301

290
     0
302
1
330
F
 90
        9
 62
     2
370
    -3
331
14
  1
Color_2
330
30
 90
        0
 62
     7
370
    -3
331
14
  1
Color_7
330
526
 90
        9
 62
     1
370
    -3
331
14
  1
Color_1
330
138F
 90
        9
 62
     6
370
    -3
331
C0D
  1
Color_6
330
1390
 90
        9
 62
     7
370
    -3
331
14
  1
Color_7
330
0
 90
        8
 62
     3
370
    -3
331
14
  1
Color_3
  0
XRECORD
  5
17AF8
102
{ACAD_REACTORS
330
176AD
102
}
330
176AD
100
AcDbXrecord
280
     1
 91
     1023
301

290
     0
302
1
330
F
 90
        9
 62
     2
370
    -3
331
14
  1
Color_2
330
30
 90
        0
 62
     7
370
    -3
331
14
  1
Color_7
330
526
 90
        9
 62
     1
370
    -3
331
14
  1
Color_1
330
138F
 90
        8
 62
     6
370
    -3
331
C0D
  1
Color_6
330
1390
 90
        9
 62
     7
370
    -3
331
14
  1
Color_7
330
0
 90
        8
 62
     3
370
    -3
331
14
  1
Color_3
  0
XRECORD
  5
17AF9
102
{ACAD_REACTORS
330
176AD
102
}
330
176AD
100
AcDbXrecord
280
     1
 91
     1023
301

290
     0
302
1
330
F
 90
        9
 62
     2
370
    -3
331
14
  1
Color_2
330
30
 90
        0
 62
     7
370
    -3
331
14
  1
Color_7
330
526
 90
        9
 62
     1
370
    -3
331
14
  1
Color_1
330
138F
 90
        9
 62
     6
370
    -3
331
C0D
  1
Color_6
330
1390
 90
        9
 62
     7
370
    -3
331
14
  1
Color_7
330
0
 90
        8
 62
     3
370
    -3
331
14
  1
Color_3
  0
XRECORD
  5
17AFA
102
{ACAD_REACTORS
330
176AD
102
}
330
176AD
100
AcDbXrecord
280
     1
 91
     1023
301

290
     0
302
1
330
F
 90
        9
 62
     2
370
    -3
331
14
  1
Color_2
330
30
 90
        1
 62
     7
370
    -3
331
14
  1
Color_7
330
526
 90
        9
 62
     1
370
    -3
331
14
  1
Color_1
330
138F
 90
        9
 62
     6
370
    -3
331
C0D
  1
Color_6
330
1390
 90
        9
 62
     7
370
    -3
331
14
  1
Color_7
330
0
 90
        8
 62
     3
370
    -3
331
14
  1
Color_3
  0
XRECORD
  5
17AFB
102
{ACAD_REACTORS
330
176AD
102
}
330
176AD
100
AcDbXrecord
280
     1
 91
     1023
301

290
     0
302
DEFPOINTS
330
F
 90
        9
 62
     2
370
    -3
331
14
  1
Color_2
330
30
 90
        1
 62
     7
370
    -3
331
14
  1
Color_7
330
526
 90
        9
 62
     1
370
    -3
331
14
  1
Color_1
330
138F
 90
        9
 62
     6
370
    -3
331
C0D
  1
Color_6
330
1390
 90
        9
 62
     7
370
    -3
331
14
  1
Color_7
330
0
 90
        8
 62
     3
370
    -3
331
14
  1
Color_3
  0
XRECORD
  5
17AFC
102
{ACAD_REACTORS
330
176AD
102
}
330
176AD
100
AcDbXrecord
280
     1
 91
     1023
301

290
     0
302
SUNPOU
330
F
 90
        9
 62
     2
370
    -3
331
14
  1
Color_2
330
30
 90
        1
 62
     7
370
    -3
331
14
  1
Color_7
330
526
 90
        9
 62
     1
370
    -3
331
14
  1
Color_1
330
138F
 90
        9
 62
     6
370
    -3
331
C0D
  1
Color_6
330
1390
 90
        9
 62
     7
370
    -3
331
14
  1
Color_7
330
0
 90
        8
 62
     3
370
    -3
331
14
  1
Color_3
  0
XRECORD
  5
17AFD
102
{ACAD_REACTORS
330
176AD
102
}
330
176AD
100
AcDbXrecord
280
     1
 91
     1023
301

290
     0
302
SUNPOU
330
F
 90
        8
 62
     2
370
    -3
331
14
  1
Color_2
330
30
 90
        1
 62
     7
370
    -3
331
14
  1
Color_7
330
526
 90
        9
 62
     1
370
    -3
331
14
  1
Color_1
330
138F
 90
        9
 62
     6
370
    -3
331
C0D
  1
Color_6
330
1390
 90
        9
 62
     7
370
    -3
331
14
  1
Color_7
330
0
 90
        8
 62
     3
370
    -3
331
14
  1
Color_3
  0
XRECORD
  5
17AFE
102
{ACAD_REACTORS
330
176AD
102
}
330
176AD
100
AcDbXrecord
280
     1
 91
     1023
301

290
     0
302
SUNPOU
330
F
 90
        8
 62
     2
370
    -3
331
14
  1
Color_2
330
30
 90
        1
 62
     7
370
    -3
331
14
  1
Color_7
330
526
 90
        9
 62
     1
370
    -3
331
14
  1
Color_1
330
138F
 90
        9
 62
     6
370
    -3
331
C0D
  1
Color_6
330
1390
 90
        8
 62
     7
370
    -3
331
14
  1
Color_7
330
0
 90
        8
 62
     3
370
    -3
331
14
  1
Color_3
  0
XRECORD
  5
17AFF
102
{ACAD_REACTORS
330
176AD
102
}
330
176AD
100
AcDbXrecord
280
     1
 91
     1023
301

290
     0
302
SUNPOU
330
F
 90
        8
 62
     2
370
    -3
331
14
  1
Color_2
330
30
 90
        1
 62
     7
370
    -3
331
14
  1
Color_7
330
526
 90
        8
 62
     1
370
    -3
331
14
  1
Color_1
330
138F
 90
        9
 62
     6
370
    -3
331
C0D
  1
Color_6
330
1390
 90
        8
 62
     7
370
    -3
331
14
  1
Color_7
330
0
 90
        8
 62
     3
370
    -3
331
14
  1
Color_3
  0
XRECORD
  5
17B00
102
{ACAD_REACTORS
330
176AD
102
}
330
176AD
100
AcDbXrecord
280
     1
 91
     1023
301

290
     0
302
SUNPOU
330
F
 90
        8
 62
     2
370
    -3
331
14
  1
Color_2
330
30
 90
        1
 62
     7
370
    -3
331
14
  1
Color_7
330
526
 90
        8
 62
     1
370
    -3
331
14
  1
Color_1
330
138F
 90
        8
 62
     6
370
    -3
331
C0D
  1
Color_6
330
1390
 90
        8
 62
     7
370
    -3
331
14
  1
Color_7
330
0
 90
        8
 62
     3
370
    -3
331
14
  1
Color_3
  0
XRECORD
  5
17A6B
102
{ACAD_REACTORS
330
176AD
102
}
330
176AD
100
AcDbXrecord
280
     1
 91
     1023
301

290
     0
302
1
330
F
 90
        8
 62
     2
370
    -3
331
14
  1
Color_2
330
30
 90
        0
 62
     7
370
    -3
331
14
  1
Color_7
330
526
 90
        8
 62
     3
370
    -3
331
14
  1
Color_3
330
138F
 90
        8
 62
     1
370
    -3
331
C0D
  1
Color_1
330
1390
 90
        8
 62
     7
370
    -3
331
14
  1
Color_7
330
0
 90
        8
 62
     3
370
    -3
331
14
  1
Color_3
330
0
 90
        8
 62
     2
370
    -3
331
14
  1
Color_2
330
0
 90
        8
 62
     1
370
    -3
331
14
  1
Color_1
  0
XRECORD
  5
17B01
102
{ACAD_REACTORS
330
176AD
102
}
330
176AD
100
AcDbXrecord
280
     1
 91
     1023
301

290
     0
302
SUNPOU
330
F
 90
        8
 62
     2
370
    -3
331
14
  1
Color_2
330
30
 90
        0
 62
     7
370
    -3
331
14
  1
Color_7
330
526
 90
        8
 62
     1
370
    -3
331
14
  1
Color_1
330
138F
 90
        8
 62
     6
370
    -3
331
C0D
  1
Color_6
330
1390
 90
        8
 62
     7
370
    -3
331
14
  1
Color_7
330
0
 90
        8
 62
     3
370
    -3
331
14
  1
Color_3
  0
XRECORD
  5
17B05
102
{ACAD_REACTORS
330
176AD
102
}
330
176AD
100
AcDbXrecord
280
     1
 91
     1023
301

290
     0
302
0
330
F
 90
        8
 62
     2
370
    -3
331
14
  1
Color_2
330
30
 90
        0
 62
     7
370
    -3
331
14
  1
Color_7
330
526
 90
        8
 62
     1
370
    -3
331
14
  1
Color_1
330
138F
 90
        8
 62
     6
370
    -3
331
C0D
  1
Color_6
330
1390
 90
        8
 62
     7
370
    -3
331
14
  1
Color_7
330
0
 90
        8
 62
     3
370
    -3
331
14
  1
Color_3
  0
XRECORD
  5
17B06
102
{ACAD_REACTORS
330
176AD
102
}
330
176AD
100
AcDbXrecord
280
     1
 91
     1023
301

290
     0
302
0
330
F
 90
        8
 62
     2
370
    -3
331
14
  1
Color_2
330
30
 90
        0
 62
     7
370
    -3
331
14
  1
Color_7
330
526
 90
        8
 62
     1
370
    -3
331
14
  1
Color_1
330
138F
 90
        8
 62
     6
370
    -3
331
C0D
  1
Color_6
330
1390
 90
        8
 62
     7
370
    -3
331
14
  1
Color_7
330
0
 90
        8
 62
     3
370
    -3
331
14
  1
Color_3
  0
XRECORD
  5
17B07
102
{ACAD_REACTORS
330
176AD
102
}
330
176AD
100
AcDbXrecord
280
     1
 91
     1023
301

290
     0
302
0
330
F
 90
        9
 62
     2
370
    -3
331
14
  1
Color_2
330
30
 90
        0
 62
     7
370
    -3
331
14
  1
Color_7
330
526
 90
        8
 62
     1
370
    -3
331
14
  1
Color_1
330
138F
 90
        8
 62
     6
370
    -3
331
C0D
  1
Color_6
330
1390
 90
        8
 62
     7
370
    -3
331
14
  1
Color_7
330
0
 90
        8
 62
     3
370
    -3
331
14
  1
Color_3
  0
XRECORD
  5
17B08
102
{ACAD_REACTORS
330
176AD
102
}
330
176AD
100
AcDbXrecord
280
     1
 91
     1023
301

290
     0
302
0
330
F
 90
        9
 62
     2
370
    -3
331
14
  1
Color_2
330
30
 90
        0
 62
     7
370
    -3
331
14
  1
Color_7
330
526
 90
        8
 62
     1
370
    -3
331
14
  1
Color_1
330
138F
 90
        8
 62
     6
370
    -3
331
C0D
  1
Color_6
330
1390
 90
        9
 62
     7
370
    -3
331
14
  1
Color_7
330
0
 90
        8
 62
     3
370
    -3
331
14
  1
Color_3
  0
XRECORD
  5
17B09
102
{ACAD_REACTORS
330
176AD
102
}
330
176AD
100
AcDbXrecord
280
     1
 91
     1023
301

290
     0
302
0
330
F
 90
        9
 62
     2
370
    -3
331
14
  1
Color_2
330
30
 90
        0
 62
     7
370
    -3
331
14
  1
Color_7
330
526
 90
        9
 62
     1
370
    -3
331
14
  1
Color_1
330
138F
 90
        8
 62
     6
370
    -3
331
C0D
  1
Color_6
330
1390
 90
        9
 62
     7
370
    -3
331
14
  1
Color_7
330
0
 90
        8
 62
     3
370
    -3
331
14
  1
Color_3
  0
XRECORD
  5
17B0A
102
{ACAD_REACTORS
330
176AD
102
}
330
176AD
100
AcDbXrecord
280
     1
 91
     1023
301

290
     0
302
0
330
F
 90
        9
 62
     2
370
    -3
331
14
  1
Color_2
330
30
 90
        0
 62
     7
370
    -3
331
14
  1
Color_7
330
526
 90
        9
 62
     1
370
    -3
331
14
  1
Color_1
330
138F
 90
        9
 62
     6
370
    -3
331
C0D
  1
Color_6
330
1390
 90
        9
 62
     7
370
    -3
331
14
  1
Color_7
330
0
 90
        8
 62
     3
370
    -3
331
14
  1
Color_3
  0
XRECORD
  5
17B0B
102
{ACAD_REACTORS
330
176AD
102
}
330
176AD
100
AcDbXrecord
280
     1
 91
     1023
301

290
     0
302
0
330
F
 90
        9
 62
     2
370
    -3
331
14
  1
Color_2
330
30
 90
        1
 62
     7
370
    -3
331
14
  1
Color_7
330
526
 90
        9
 62
     1
370
    -3
331
14
  1
Color_1
330
138F
 90
        9
 62
     6
370
    -3
331
C0D
  1
Color_6
330
1390
 90
        9
 62
     7
370
    -3
331
14
  1
Color_7
330
0
 90
        8
 62
     3
370
    -3
331
14
  1
Color_3
  0
XRECORD
  5
17B0C
102
{ACAD_REACTORS
330
176AD
102
}
330
176AD
100
AcDbXrecord
280
     1
 91
     1023
301

290
     0
302
0
330
F
 90
        8
 62
     2
370
    -3
331
14
  1
Color_2
330
30
 90
        1
 62
     7
370
    -3
331
14
  1
Color_7
330
526
 90
        9
 62
     1
370
    -3
331
14
  1
Color_1
330
138F
 90
        9
 62
     6
370
    -3
331
C0D
  1
Color_6
330
1390
 90
        9
 62
     7
370
    -3
331
14
  1
Color_7
330
0
 90
        8
 62
     3
370
    -3
331
14
  1
Color_3
  0
XRECORD
  5
17B0D
102
{ACAD_REACTORS
330
176AD
102
}
330
176AD
100
AcDbXrecord
280
     1
 91
     1023
301

290
     0
302
0
330
F
 90
        8
 62
     2
370
    -3
331
14
  1
Color_2
330
30
 90
        1
 62
     7
370
    -3
331
14
  1
Color_7
330
526
 90
        9
 62
     1
370
    -3
331
14
  1
Color_1
330
138F
 90
        9
 62
     6
370
    -3
331
C0D
  1
Color_6
330
1390
 90
        8
 62
     7
370
    -3
331
14
  1
Color_7
330
0
 90
        8
 62
     3
370
    -3
331
14
  1
Color_3
  0
XRECORD
  5
17A71
102
{ACAD_REACTORS
330
176AD
102
}
330
176AD
100
AcDbXrecord
280
     1
 91
     1023
301

290
     0
302
1
330
F
 90
        8
 62
     2
370
    -3
331
14
  1
Color_2
330
30
 90
        0
 62
     7
370
    -3
331
14
  1
Color_7
330
526
 90
        8
 62
     1
370
    -3
331
14
  1
Color_1
330
138F
 90
        8
 62
     6
370
    -3
331
C0D
  1
Color_6
330
1390
 90
        8
 62
     7
370
    -3
331
14
  1
Color_7
330
0
 90
        8
 62
     3
370
    -3
331
14
  1
Color_3
  0
XRECORD
  5
17B0E
102
{ACAD_REACTORS
330
176AD
102
}
330
176AD
100
AcDbXrecord
280
     1
 91
     1023
301

290
     0
302
0
330
F
 90
        8
 62
     2
370
    -3
331
14
  1
Color_2
330
30
 90
        1
 62
     7
370
    -3
331
14
  1
Color_7
330
526
 90
        8
 62
     1
370
    -3
331
14
  1
Color_1
330
138F
 90
        9
 62
     6
370
    -3
331
C0D
  1
Color_6
330
1390
 90
        8
 62
     7
370
    -3
331
14
  1
Color_7
330
0
 90
        8
 62
     3
370
    -3
331
14
  1
Color_3
  0
XRECORD
  5
17B0F
102
{ACAD_REACTORS
330
176AD
102
}
330
176AD
100
AcDbXrecord
280
     1
 91
     1023
301

290
     0
302
0
330
F
 90
        8
 62
     2
370
    -3
331
14
  1
Color_2
330
30
 90
        1
 62
     7
370
    -3
331
14
  1
Color_7
330
526
 90
        8
 62
     1
370
    -3
331
14
  1
Color_1
330
138F
 90
        8
 62
     6
370
    -3
331
C0D
  1
Color_6
330
1390
 90
        8
 62
     7
370
    -3
331
14
  1
Color_7
330
0
 90
        8
 62
     3
370
    -3
331
14
  1
Color_3
  0
XRECORD
  5
17B10
102
{ACAD_REACTORS
330
176AD
102
}
330
176AD
100
AcDbXrecord
280
     1
 91
     1023
301

290
     0
302
3
330
F
 90
        8
 62
     2
370
    -3
331
14
  1
Color_2
330
30
 90
        1
 62
     7
370
    -3
331
14
  1
Color_7
330
526
 90
        8
 62
     1
370
    -3
331
14
  1
Color_1
330
138F
 90
        8
 62
     6
370
    -3
331
C0D
  1
Color_6
330
1390
 90
        8
 62
     7
370
    -3
331
14
  1
Color_7
330
0
 90
        8
 62
     3
370
    -3
331
14
  1
Color_3
  0
XRECORD
  5
17B12
102
{ACAD_REACTORS
330
176AD
102
}
330
176AD
100
AcDbXrecord
280
     1
 91
     1023
301

290
     0
302
3
330
F
 90
        8
 62
     2
370
    -3
331
14
  1
Color_2
330
30
 90
        0
 62
     7
370
    -3
331
14
  1
Color_7
330
526
 90
        8
 62
     1
370
    -3
331
14
  1
Color_1
330
138F
 90
        8
 62
     6
370
    -3
331
C0D
  1
Color_6
330
1390
 90
        8
 62
     7
370
    -3
331
14
  1
Color_7
  0
XRECORD
  5
17B13
102
{ACAD_REACTORS
330
176AD
102
}
330
176AD
100
AcDbXrecord
280
     1
 91
     1023
301

290
     0
302
3
330
F
 90
        9
 62
     2
370
    -3
331
14
  1
Color_2
330
30
 90
        0
 62
     7
370
    -3
331
14
  1
Color_7
330
526
 90
        8
 62
     1
370
    -3
331
14
  1
Color_1
330
138F
 90
        8
 62
     6
370
    -3
331
C0D
  1
Color_6
330
1390
 90
        8
 62
     7
370
    -3
331
14
  1
Color_7
  0
XRECORD
  5
17B14
102
{ACAD_REACTORS
330
176AD
102
}
330
176AD
100
AcDbXrecord
280
     1
 91
     1023
301

290
     0
302
3
330
F
 90
        9
 62
     2
370
    -3
331
14
  1
Color_2
330
30
 90
        0
 62
     7
370
    -3
331
14
  1
Color_7
330
526
 90
        8
 62
     1
370
    -3
331
14
  1
Color_1
330
138F
 90
        8
 62
     6
370
    -3
331
C0D
  1
Color_6
330
1390
 90
        9
 62
     7
370
    -3
331
14
  1
Color_7
  0
XRECORD
  5
17B16
102
{ACAD_REACTORS
330
176AD
102
}
330
176AD
100
AcDbXrecord
280
     1
 91
     1023
301

290
     0
302
3
330
F
 90
        9
 62
     2
370
    -3
331
14
  1
Color_2
330
30
 90
        0
 62
     7
370
    -3
331
14
  1
Color_7
330
526
 90
        9
 62
     1
370
    -3
331
14
  1
Color_1
330
138F
 90
        9
 62
     6
370
    -3
331
C0D
  1
Color_6
330
1390
 90
        9
 62
     7
370
    -3
331
14
  1
Color_7
  0
XRECORD
  5
17A72
102
{ACAD_REACTORS
330
176AD
102
}
330
176AD
100
AcDbXrecord
280
     1
 91
     1023
301

290
     0
302
1
330
F
 90
        8
 62
     2
370
    -3
331
14
  1
Color_2
330
30
 90
        0
 62
     7
370
    -3
331
14
  1
Color_7
330
526
 90
        8
 62
     1
370
    -3
331
14
  1
Color_1
330
138F
 90
        8
 62
     6
370
    -3
331
C0D
  1
Color_6
330
1390
 90
        8
 62
     7
370
    -3
331
14
  1
Color_7
330
0
 90
        8
 62
     3
370
    -3
331
14
  1
Color_3
  0
XRECORD
  5
17A73
102
{ACAD_REACTORS
330
176AD
102
}
330
176AD
100
AcDbXrecord
280
     1
 91
     1023
301

290
     0
302
1
330
F
 90
        9
 62
     2
370
    -3
331
14
  1
Color_2
330
30
 90
        0
 62
     7
370
    -3
331
14
  1
Color_7
330
526
 90
        8
 62
     1
370
    -3
331
14
  1
Color_1
330
138F
 90
        8
 62
     6
370
    -3
331
C0D
  1
Color_6
330
1390
 90
        8
 62
     7
370
    -3
331
14
  1
Color_7
330
0
 90
        8
 62
     3
370
    -3
331
14
  1
Color_3
  0
XRECORD
  5
17A74
102
{ACAD_REACTORS
330
176AD
102
}
330
176AD
100
AcDbXrecord
280
     1
 91
     1023
301

290
     0
302
1
330
F
 90
        9
 62
     2
370
    -3
331
14
  1
Color_2
330
30
 90
        0
 62
     7
370
    -3
331
14
  1
Color_7
330
526
 90
        8
 62
     1
370
    -3
331
14
  1
Color_1
330
138F
 90
        8
 62
     6
370
    -3
331
C0D
  1
Color_6
330
1390
 90
        9
 62
     7
370
    -3
331
14
  1
Color_7
330
0
 90
        8
 62
     3
370
    -3
331
14
  1
Color_3
  0
XRECORD
  5
17A75
102
{ACAD_REACTORS
330
176AD
102
}
330
176AD
100
AcDbXrecord
280
     1
 91
     1023
301

290
     0
302
1
330
F
 90
        9
 62
     2
370
    -3
331
14
  1
Color_2
330
30
 90
        0
 62
     7
370
    -3
331
14
  1
Color_7
330
526
 90
        9
 62
     1
370
    -3
331
14
  1
Color_1
330
138F
 90
        8
 62
     6
370
    -3
331
C0D
  1
Color_6
330
1390
 90
        9
 62
     7
370
    -3
331
14
  1
Color_7
330
0
 90
        8
 62
     3
370
    -3
331
14
  1
Color_3
  0
XRECORD
  5
17A76
102
{ACAD_REACTORS
330
176AD
102
}
330
176AD
100
AcDbXrecord
280
     1
 91
     1023
301

290
     0
302
1
330
F
 90
        9
 62
     2
370
    -3
331
14
  1
Color_2
330
30
 90
        0
 62
     7
370
    -3
331
14
  1
Color_7
330
526
 90
        9
 62
     1
370
    -3
331
14
  1
Color_1
330
138F
 90
        9
 62
     6
370
    -3
331
C0D
  1
Color_6
330
1390
 90
        9
 62
     7
370
    -3
331
14
  1
Color_7
330
0
 90
        8
 62
     3
370
    -3
331
14
  1
Color_3
  0
XRECORD
  5
17A60
102
{ACAD_REACTORS
330
176AD
102
}
330
176AD
100
AcDbXrecord
280
     1
 91
     1023
301

290
     0
302
1
330
F
 90
        8
 62
     2
370
    -3
331
14
  1
Color_2
330
30
 90
        0
 62
     7
370
    -3
331
14
  1
Color_7
330
526
 90
        8
 62
     3
370
    -3
331
14
  1
Color_3
330
138F
 90
        8
 62
     1
370
    -3
331
C0D
  1
Color_1
330
1390
 90
        9
 62
     7
370
    -3
331
14
  1
Color_7
330
0
 90
        8
 62
     3
370
    -3
331
14
  1
Color_3
330
0
 90
        8
 62
     2
370
    -3
331
14
  1
Color_2
330
0
 90
        8
 62
     1
370
    -3
331
14
  1
Color_1
  0
XRECORD
  5
17A77
102
{ACAD_REACTORS
330
176AD
102
}
330
176AD
100
AcDbXrecord
280
     1
 91
     1023
301

290
     0
302
1
330
F
 90
        9
 62
     2
370
    -3
331
14
  1
Color_2
330
30
 90
        1
 62
     7
370
    -3
331
14
  1
Color_7
330
526
 90
        9
 62
     1
370
    -3
331
14
  1
Color_1
330
138F
 90
        9
 62
     6
370
    -3
331
C0D
  1
Color_6
330
1390
 90
        9
 62
     7
370
    -3
331
14
  1
Color_7
330
0
 90
        8
 62
     3
370
    -3
331
14
  1
Color_3
  0
XRECORD
  5
17A78
102
{ACAD_REACTORS
330
176AD
102
}
330
176AD
100
AcDbXrecord
280
     1
 91
     1023
301

290
     0
302
1
330
F
 90
        8
 62
     2
370
    -3
331
14
  1
Color_2
330
30
 90
        1
 62
     7
370
    -3
331
14
  1
Color_7
330
526
 90
        9
 62
     1
370
    -3
331
14
  1
Color_1
330
138F
 90
        9
 62
     6
370
    -3
331
C0D
  1
Color_6
330
1390
 90
        9
 62
     7
370
    -3
331
14
  1
Color_7
330
0
 90
        8
 62
     3
370
    -3
331
14
  1
Color_3
  0
XRECORD
  5
17A79
102
{ACAD_REACTORS
330
176AD
102
}
330
176AD
100
AcDbXrecord
280
     1
 91
     1023
301

290
     0
302
1
330
F
 90
        8
 62
     2
370
    -3
331
14
  1
Color_2
330
30
 90
        1
 62
     7
370
    -3
331
14
  1
Color_7
330
526
 90
        9
 62
     1
370
    -3
331
14
  1
Color_1
330
138F
 90
        9
 62
     6
370
    -3
331
C0D
  1
Color_6
330
1390
 90
        8
 62
     7
370
    -3
331
14
  1
Color_7
330
0
 90
        8
 62
     3
370
    -3
331
14
  1
Color_3
  0
XRECORD
  5
17A7A
102
{ACAD_REACTORS
330
176AD
102
}
330
176AD
100
AcDbXrecord
280
     1
 91
     1023
301

290
     0
302
1
330
F
 90
        8
 62
     2
370
    -3
331
14
  1
Color_2
330
30
 90
        1
 62
     7
370
    -3
331
14
  1
Color_7
330
526
 90
        8
 62
     1
370
    -3
331
14
  1
Color_1
330
138F
 90
        9
 62
     6
370
    -3
331
C0D
  1
Color_6
330
1390
 90
        8
 62
     7
370
    -3
331
14
  1
Color_7
330
0
 90
        8
 62
     3
370
    -3
331
14
  1
Color_3
  0
XRECORD
  5
17A7B
102
{ACAD_REACTORS
330
176AD
102
}
330
176AD
100
AcDbXrecord
280
     1
 91
     1023
301

290
     0
302
2
330
F
 90
        8
 62
     2
370
    -3
331
14
  1
Color_2
330
30
 90
        1
 62
     7
370
    -3
331
14
  1
Color_7
330
526
 90
        8
 62
     1
370
    -3
331
14
  1
Color_1
330
138F
 90
        9
 62
     6
370
    -3
331
C0D
  1
Color_6
330
1390
 90
        8
 62
     7
370
    -3
331
14
  1
Color_7
330
0
 90
        8
 62
     3
370
    -3
331
14
  1
Color_3
  0
XRECORD
  5
17A7C
102
{ACAD_REACTORS
330
176AD
102
}
330
176AD
100
AcDbXrecord
280
     1
 91
     1023
301

290
     0
302
2
330
F
 90
        8
 62
     2
370
    -3
331
14
  1
Color_2
330
30
 90
        1
 62
     7
370
    -3
331
14
  1
Color_7
330
526
 90
        8
 62
     1
370
    -3
331
14
  1
Color_1
330
138F
 90
        8
 62
     6
370
    -3
331
C0D
  1
Color_6
330
1390
 90
        8
 62
     7
370
    -3
331
14
  1
Color_7
330
0
 90
        8
 62
     3
370
    -3
331
14
  1
Color_3
  0
XRECORD
  5
17A7D
102
{ACAD_REACTORS
330
176AD
102
}
330
176AD
100
AcDbXrecord
280
     1
 91
     1023
301

290
     0
302
3
330
F
 90
        8
 62
     2
370
    -3
331
14
  1
Color_2
330
30
 90
        1
 62
     7
370
    -3
331
14
  1
Color_7
330
526
 90
        8
 62
     1
370
    -3
331
14
  1
Color_1
330
138F
 90
        8
 62
     6
370
    -3
331
C0D
  1
Color_6
330
1390
 90
        8
 62
     7
370
    -3
331
14
  1
Color_7
330
0
 90
        8
 62
     3
370
    -3
331
14
  1
Color_3
  0
XRECORD
  5
17A7E
102
{ACAD_REACTORS
330
176AD
102
}
330
176AD
100
AcDbXrecord
280
     1
 91
     1023
301

290
     0
302
3
330
F
 90
        8
 62
     2
370
    -3
331
14
  1
Color_2
330
30
 90
        0
 62
     7
370
    -3
331
14
  1
Color_7
330
526
 90
        8
 62
     1
370
    -3
331
14
  1
Color_1
330
138F
 90
        8
 62
     6
370
    -3
331
C0D
  1
Color_6
330
1390
 90
        8
 62
     7
370
    -3
331
14
  1
Color_7
330
0
 90
        8
 62
     3
370
    -3
331
14
  1
Color_3
  0
XRECORD
  5
17A7F
102
{ACAD_REACTORS
330
176AD
102
}
330
176AD
100
AcDbXrecord
280
     1
 91
     1023
301

290
     0
302
3
330
F
 90
        8
 62
     2
370
    -3
331
14
  1
Color_2
330
30
 90
        0
 62
     7
370
    -3
331
14
  1
Color_7
330
526
 90
        8
 62
     1
370
    -3
331
14
  1
Color_1
330
138F
 90
        8
 62
     6
370
    -3
331
C0D
  1
Color_6
330
1390
 90
        8
 62
     7
370
    -3
331
14
  1
Color_7
330
0
 90
        8
 62
     3
370
    -3
331
14
  1
Color_3
  0
XRECORD
  5
17A80
102
{ACAD_REACTORS
330
176AD
102
}
330
176AD
100
AcDbXrecord
280
     1
 91
     1023
301

290
     0
302
SUNPOU
330
F
 90
        8
 62
     2
370
    -3
331
14
  1
Color_2
330
30
 90
        0
 62
     7
370
    -3
331
14
  1
Color_7
330
526
 90
        8
 62
     1
370
    -3
331
14
  1
Color_1
330
138F
 90
        8
 62
     6
370
    -3
331
C0D
  1
Color_6
330
1390
 90
        8
 62
     7
370
    -3
331
14
  1
Color_7
330
0
 90
        8
 62
     3
370
    -3
331
14
  1
Color_3
  0
XRECORD
  5
17A61
102
{ACAD_REACTORS
330
176AD
102
}
330
176AD
100
AcDbXrecord
280
     1
 91
     1023
301

290
     0
302
1
330
F
 90
        9
 62
     2
370
    -3
331
14
  1
Color_2
330
30
 90
        0
 62
     7
370
    -3
331
14
  1
Color_7
330
526
 90
        8
 62
     3
370
    -3
331
14
  1
Color_3
330
138F
 90
        8
 62
     1
370
    -3
331
C0D
  1
Color_1
330
1390
 90
        9
 62
     7
370
    -3
331
14
  1
Color_7
330
0
 90
        8
 62
     3
370
    -3
331
14
  1
Color_3
330
0
 90
        8
 62
     2
370
    -3
331
14
  1
Color_2
330
0
 90
        8
 62
     1
370
    -3
331
14
  1
Color_1
  0
XRECORD
  5
17A81
102
{ACAD_REACTORS
330
176AD
102
}
330
176AD
100
AcDbXrecord
280
     1
 91
     1023
301

290
     0
302
SUNPOU
330
F
 90
        8
 62
     2
370
    -3
331
14
  1
Color_2
330
30
 90
        0
 62
     7
370
    -3
331
14
  1
Color_7
330
526
 90
        8
 62
     1
370
    -3
331
14
  1
Color_1
330
138F
 90
        8
 62
     6
370
    -3
331
C0D
  1
Color_6
330
1390
 90
        8
 62
     7
370
    -3
331
14
  1
Color_7
330
0
 90
        8
 62
     3
370
    -3
331
14
  1
Color_3
  0
XRECORD
  5
17A82
102
{ACAD_REACTORS
330
176AD
102
}
330
176AD
100
AcDbXrecord
280
     1
 91
     1023
301

290
     0
302
SUNPOU
330
F
 90
        9
 62
     2
370
    -3
331
14
  1
Color_2
330
30
 90
        0
 62
     7
370
    -3
331
14
  1
Color_7
330
526
 90
        8
 62
     1
370
    -3
331
14
  1
Color_1
330
138F
 90
        8
 62
     6
370
    -3
331
C0D
  1
Color_6
330
1390
 90
        8
 62
     7
370
    -3
331
14
  1
Color_7
330
0
 90
        8
 62
     3
370
    -3
331
14
  1
Color_3
  0
XRECORD
  5
17A83
102
{ACAD_REACTORS
330
176AD
102
}
330
176AD
100
AcDbXrecord
280
     1
 91
     1023
301

290
     0
302
SUNPOU
330
F
 90
        9
 62
     2
370
    -3
331
14
  1
Color_2
330
30
 90
        0
 62
     7
370
    -3
331
14
  1
Color_7
330
526
 90
        8
 62
     1
370
    -3
331
14
  1
Color_1
330
138F
 90
        8
 62
     6
370
    -3
331
C0D
  1
Color_6
330
1390
 90
        9
 62
     7
370
    -3
331
14
  1
Color_7
330
0
 90
        8
 62
     3
370
    -3
331
14
  1
Color_3
  0
XRECORD
  5
17A84
102
{ACAD_REACTORS
330
176AD
102
}
330
176AD
100
AcDbXrecord
280
     1
 91
     1023
301

290
     0
302
SUNPOU
330
F
 90
        9
 62
     2
370
    -3
331
14
  1
Color_2
330
30
 90
        0
 62
     7
370
    -3
331
14
  1
Color_7
330
526
 90
        9
 62
     1
370
    -3
331
14
  1
Color_1
330
138F
 90
        8
 62
     6
370
    -3
331
C0D
  1
Color_6
330
1390
 90
        9
 62
     7
370
    -3
331
14
  1
Color_7
330
0
 90
        8
 62
     3
370
    -3
331
14
  1
Color_3
  0
XRECORD
  5
17A85
102
{ACAD_REACTORS
330
176AD
102
}
330
176AD
100
AcDbXrecord
280
     1
 91
     1023
301

290
     0
302
SUNPOU
330
F
 90
        9
 62
     2
370
    -3
331
14
  1
Color_2
330
30
 90
        0
 62
     7
370
    -3
331
14
  1
Color_7
330
526
 90
        9
 62
     1
370
    -3
331
14
  1
Color_1
330
138F
 90
        9
 62
     6
370
    -3
331
C0D
  1
Color_6
330
1390
 90
        9
 62
     7
370
    -3
331
14
  1
Color_7
330
0
 90
        8
 62
     3
370
    -3
331
14
  1
Color_3
  0
XRECORD
  5
17A86
102
{ACAD_REACTORS
330
176AD
102
}
330
176AD
100
AcDbXrecord
280
     1
 91
     1023
301

290
     0
302
SUNPOU
330
F
 90
        9
 62
     2
370
    -3
331
14
  1
Color_2
330
30
 90
        1
 62
     7
370
    -3
331
14
  1
Color_7
330
526
 90
        9
 62
     1
370
    -3
331
14
  1
Color_1
330
138F
 90
        9
 62
     6
370
    -3
331
C0D
  1
Color_6
330
1390
 90
        9
 62
     7
370
    -3
331
14
  1
Color_7
330
0
 90
        8
 62
     3
370
    -3
331
14
  1
Color_3
  0
XRECORD
  5
17A87
102
{ACAD_REACTORS
330
176AD
102
}
330
176AD
100
AcDbXrecord
280
     1
 91
     1023
301

290
     0
302
DEFPOINTS
330
F
 90
        9
 62
     2
370
    -3
331
14
  1
Color_2
330
30
 90
        1
 62
     7
370
    -3
331
14
  1
Color_7
330
526
 90
        9
 62
     1
370
    -3
331
14
  1
Color_1
330
138F
 90
        9
 62
     6
370
    -3
331
C0D
  1
Color_6
330
1390
 90
        9
 62
     7
370
    -3
331
14
  1
Color_7
330
0
 90
        8
 62
     3
370
    -3
331
14
  1
Color_3
  0
XRECORD
  5
17A88
102
{ACAD_REACTORS
330
176AD
102
}
330
176AD
100
AcDbXrecord
280
     1
 91
     1023
301

290
     0
302
DEFPOINTS
330
F
 90
        9
 62
     2
370
    -3
331
14
  1
Color_2
330
30
 90
        1
 62
     7
370
    -3
331
14
  1
Color_7
330
526
 90
        9
 62
     1
370
    -3
331
14
  1
Color_1
330
138F
 90
        9
 62
     6
370
    -3
331
C0D
  1
Color_6
330
1390
 90
        9
 62
     7
370
    -3
331
14
  1
Color_7
330
0
 90
        8
 62
     3
370
    -3
331
14
  1
Color_3
  0
XRECORD
  5
17A89
102
{ACAD_REACTORS
330
176AD
102
}
330
176AD
100
AcDbXrecord
280
     1
 91
     1023
301

290
     0
302
DEFPOINTS
330
F
 90
        8
 62
     2
370
    -3
331
14
  1
Color_2
330
30
 90
        1
 62
     7
370
    -3
331
14
  1
Color_7
330
526
 90
        9
 62
     1
370
    -3
331
14
  1
Color_1
330
138F
 90
        9
 62
     6
370
    -3
331
C0D
  1
Color_6
330
1390
 90
        9
 62
     7
370
    -3
331
14
  1
Color_7
330
0
 90
        8
 62
     3
370
    -3
331
14
  1
Color_3
  0
XRECORD
  5
17A8A
102
{ACAD_REACTORS
330
176AD
102
}
330
176AD
100
AcDbXrecord
280
     1
 91
     1023
301

290
     0
302
DEFPOINTS
330
F
 90
        8
 62
     2
370
    -3
331
14
  1
Color_2
330
30
 90
        1
 62
     7
370
    -3
331
14
  1
Color_7
330
526
 90
        9
 62
     1
370
    -3
331
14
  1
Color_1
330
138F
 90
        9
 62
     6
370
    -3
331
C0D
  1
Color_6
330
1390
 90
        8
 62
     7
370
    -3
331
14
  1
Color_7
330
0
 90
        8
 62
     3
370
    -3
331
14
  1
Color_3
  0
XRECORD
  5
17A62
102
{ACAD_REACTORS
330
176AD
102
}
330
176AD
100
AcDbXrecord
280
     1
 91
     1023
301

290
     0
302
1
330
F
 90
        9
 62
     2
370
    -3
331
14
  1
Color_2
330
30
 90
        0
 62
     7
370
    -3
331
14
  1
Color_7
330
526
 90
        9
 62
     3
370
    -3
331
14
  1
Color_3
330
138F
 90
        8
 62
     1
370
    -3
331
C0D
  1
Color_1
330
1390
 90
        9
 62
     7
370
    -3
331
14
  1
Color_7
330
0
 90
        8
 62
     3
370
    -3
331
14
  1
Color_3
330
0
 90
        8
 62
     2
370
    -3
331
14
  1
Color_2
330
0
 90
        8
 62
     1
370
    -3
331
14
  1
Color_1
  0
XRECORD
  5
17A8B
102
{ACAD_REACTORS
330
176AD
102
}
330
176AD
100
AcDbXrecord
280
     1
 91
     1023
301

290
     0
302
DEFPOINTS
330
F
 90
        8
 62
     2
370
    -3
331
14
  1
Color_2
330
30
 90
        1
 62
     7
370
    -3
331
14
  1
Color_7
330
526
 90
        8
 62
     1
370
    -3
331
14
  1
Color_1
330
138F
 90
        9
 62
     6
370
    -3
331
C0D
  1
Color_6
330
1390
 90
        8
 62
     7
370
    -3
331
14
  1
Color_7
330
0
 90
        8
 62
     3
370
    -3
331
14
  1
Color_3
  0
XRECORD
  5
17A8C
102
{ACAD_REACTORS
330
176AD
102
}
330
176AD
100
AcDbXrecord
280
     1
 91
     1023
301

290
     0
302
3
330
F
 90
        8
 62
     2
370
    -3
331
14
  1
Color_2
330
30
 90
        1
 62
     7
370
    -3
331
14
  1
Color_7
330
526
 90
        8
 62
     1
370
    -3
331
14
  1
Color_1
330
138F
 90
        9
 62
     6
370
    -3
331
C0D
  1
Color_6
330
1390
 90
        8
 62
     7
370
    -3
331
14
  1
Color_7
330
0
 90
        8
 62
     3
370
    -3
331
14
  1
Color_3
  0
XRECORD
  5
17A8D
102
{ACAD_REACTORS
330
176AD
102
}
330
176AD
100
AcDbXrecord
280
     1
 91
     1023
301

290
     0
302
3
330
F
 90
        8
 62
     2
370
    -3
331
14
  1
Color_2
330
30
 90
        1
 62
     7
370
    -3
331
14
  1
Color_7
330
526
 90
        8
 62
     1
370
    -3
331
14
  1
Color_1
330
138F
 90
        8
 62
     6
370
    -3
331
C0D
  1
Color_6
330
1390
 90
        8
 62
     7
370
    -3
331
14
  1
Color_7
330
0
 90
        8
 62
     3
370
    -3
331
14
  1
Color_3
  0
XRECORD
  5
17A8E
102
{ACAD_REACTORS
330
176AD
102
}
330
176AD
100
AcDbXrecord
280
     1
 91
     1023
301

290
     0
302
3
330
F
 90
        8
 62
     2
370
    -3
331
14
  1
Color_2
330
30
 90
        0
 62
     7
370
    -3
331
14
  1
Color_7
330
526
 90
        8
 62
     1
370
    -3
331
14
  1
Color_1
330
138F
 90
        8
 62
     6
370
    -3
331
C0D
  1
Color_6
330
1390
 90
        8
 62
     7
370
    -3
331
14
  1
Color_7
330
0
 90
        8
 62
     3
370
    -3
331
14
  1
Color_3
  0
XRECORD
  5
17A93
102
{ACAD_REACTORS
330
176AD
102
}
330
176AD
100
AcDbXrecord
280
     1
 91
     1023
301

290
     0
302
1
330
F
 90
        8
 62
     2
370
    -3
331
14
  1
Color_2
330
30
 90
        0
 62
     7
370
    -3
331
14
  1
Color_7
330
526
 90
        8
 62
     1
370
    -3
331
14
  1
Color_1
330
138F
 90
        8
 62
     6
370
    -3
331
C0D
  1
Color_6
330
1390
 90
        8
 62
     7
370
    -3
331
14
  1
Color_7
330
0
 90
        9
 62
     3
370
    -3
331
14
  1
Color_3
  0
XRECORD
  5
17A94
102
{ACAD_REACTORS
330
176AD
102
}
330
176AD
100
AcDbXrecord
280
     1
 91
     1023
301

290
     0
302
1
330
F
 90
        8
 62
     2
370
    -3
331
14
  1
Color_2
330
30
 90
        0
 62
     7
370
    -3
331
14
  1
Color_7
330
526
 90
        8
 62
     1
370
    -3
331
14
  1
Color_1
330
138F
 90
        8
 62
     6
370
    -3
331
C0D
  1
Color_6
330
1390
 90
        8
 62
     7
370
    -3
331
14
  1
Color_7
330
0
 90
        9
 62
     3
370
    -3
331
14
  1
Color_3
  0
XRECORD
  5
17A95
102
{ACAD_REACTORS
330
176AD
102
}
330
176AD
100
AcDbXrecord
280
     1
 91
     1023
301

290
     0
302
1
330
F
 90
        8
 62
     2
370
    -3
331
14
  1
Color_2
330
30
 90
        0
 62
     7
370
    -3
331
14
  1
Color_7
330
526
 90
        8
 62
     1
370
    -3
331
14
  1
Color_1
330
138F
 90
        8
 62
     6
370
    -3
331
C0D
  1
Color_6
330
1390
 90
        8
 62
     7
370
    -3
331
14
  1
Color_7
330
0
 90
        8
 62
     3
370
    -3
331
14
  1
Color_3
  0
XRECORD
  5
17A96
102
{ACAD_REACTORS
330
176AD
102
}
330
176AD
100
AcDbXrecord
280
     1
 91
     1023
301

290
     0
302
1
330
F
 90
        8
 62
     2
370
    -3
331
14
  1
Color_2
330
30
 90
        1
 62
     7
370
    -3
331
14
  1
Color_7
330
526
 90
        8
 62
     1
370
    -3
331
14
  1
Color_1
330
138F
 90
        8
 62
     6
370
    -3
331
C0D
  1
Color_6
330
1390
 90
        8
 62
     7
370
    -3
331
14
  1
Color_7
330
0
 90
        8
 62
     3
370
    -3
331
14
  1
Color_3
  0
XRECORD
  5
17A97
102
{ACAD_REACTORS
330
176AD
102
}
330
176AD
100
AcDbXrecord
280
     1
 91
     1023
301

290
     0
302
1
330
F
 90
        8
 62
     2
370
    -3
331
14
  1
Color_2
330
30
 90
        1
 62
     7
370
    -3
331
14
  1
Color_7
330
526
 90
        8
 62
     1
370
    -3
331
14
  1
Color_1
330
138F
 90
        9
 62
     6
370
    -3
331
C0D
  1
Color_6
330
1390
 90
        8
 62
     7
370
    -3
331
14
  1
Color_7
330
0
 90
        8
 62
     3
370
    -3
331
14
  1
Color_3
  0
XRECORD
  5
17A98
102
{ACAD_REACTORS
330
176AD
102
}
330
176AD
100
AcDbXrecord
280
     1
 91
     1023
301

290
     0
302
1
330
F
 90
        8
 62
     2
370
    -3
331
14
  1
Color_2
330
30
 90
        1
 62
     7
370
    -3
331
14
  1
Color_7
330
526
 90
        9
 62
     1
370
    -3
331
14
  1
Color_1
330
138F
 90
        9
 62
     6
370
    -3
331
C0D
  1
Color_6
330
1390
 90
        8
 62
     7
370
    -3
331
14
  1
Color_7
330
0
 90
        8
 62
     3
370
    -3
331
14
  1
Color_3
  0
XRECORD
  5
17A63
102
{ACAD_REACTORS
330
176AD
102
}
330
176AD
100
AcDbXrecord
280
     1
 91
     1023
301

290
     0
302
1
330
F
 90
        9
 62
     2
370
    -3
331
14
  1
Color_2
330
30
 90
        0
 62
     7
370
    -3
331
14
  1
Color_7
330
526
 90
        9
 62
     3
370
    -3
331
14
  1
Color_3
330
138F
 90
        9
 62
     1
370
    -3
331
C0D
  1
Color_1
330
1390
 90
        9
 62
     7
370
    -3
331
14
  1
Color_7
330
0
 90
        8
 62
     3
370
    -3
331
14
  1
Color_3
330
0
 90
        8
 62
     2
370
    -3
331
14
  1
Color_2
330
0
 90
        8
 62
     1
370
    -3
331
14
  1
Color_1
  0
XRECORD
  5
17A99
102
{ACAD_REACTORS
330
176AD
102
}
330
176AD
100
AcDbXrecord
280
     1
 91
     1023
301

290
     0
302
1
330
F
 90
        8
 62
     2
370
    -3
331
14
  1
Color_2
330
30
 90
        1
 62
     7
370
    -3
331
14
  1
Color_7
330
526
 90
        9
 62
     1
370
    -3
331
14
  1
Color_1
330
138F
 90
        9
 62
     6
370
    -3
331
C0D
  1
Color_6
330
1390
 90
        9
 62
     7
370
    -3
331
14
  1
Color_7
330
0
 90
        8
 62
     3
370
    -3
331
14
  1
Color_3
  0
XRECORD
  5
17A9A
102
{ACAD_REACTORS
330
176AD
102
}
330
176AD
100
AcDbXrecord
280
     1
 91
     1023
301

290
     0
302
1
330
F
 90
        9
 62
     2
370
    -3
331
14
  1
Color_2
330
30
 90
        1
 62
     7
370
    -3
331
14
  1
Color_7
330
526
 90
        9
 62
     1
370
    -3
331
14
  1
Color_1
330
138F
 90
        9
 62
     6
370
    -3
331
C0D
  1
Color_6
330
1390
 90
        9
 62
     7
370
    -3
331
14
  1
Color_7
330
0
 90
        8
 62
     3
370
    -3
331
14
  1
Color_3
  0
XRECORD
  5
17A9B
102
{ACAD_REACTORS
330
176AD
102
}
330
176AD
100
AcDbXrecord
280
     1
 91
     1023
301

290
     0
302
1
330
F
 90
        8
 62
     2
370
    -3
331
14
  1
Color_2
330
30
 90
        1
 62
     7
370
    -3
331
14
  1
Color_7
330
526
 90
        9
 62
     1
370
    -3
331
14
  1
Color_1
330
138F
 90
        9
 62
     6
370
    -3
331
C0D
  1
Color_6
330
1390
 90
        9
 62
     7
370
    -3
331
14
  1
Color_7
330
0
 90
        8
 62
     3
370
    -3
331
14
  1
Color_3
  0
XRECORD
  5
17A9C
102
{ACAD_REACTORS
330
176AD
102
}
330
176AD
100
AcDbXrecord
280
     1
 91
     1023
301

290
     0
302
1
330
F
 90
        8
 62
     2
370
    -3
331
14
  1
Color_2
330
30
 90
        1
 62
     7
370
    -3
331
14
  1
Color_7
330
526
 90
        9
 62
     1
370
    -3
331
14
  1
Color_1
330
138F
 90
        9
 62
     6
370
    -3
331
C0D
  1
Color_6
330
1390
 90
        8
 62
     7
370
    -3
331
14
  1
Color_7
330
0
 90
        8
 62
     3
370
    -3
331
14
  1
Color_3
  0
XRECORD
  5
17A9D
102
{ACAD_REACTORS
330
176AD
102
}
330
176AD
100
AcDbXrecord
280
     1
 91
     1023
301

290
     0
302
1
330
F
 90
        8
 62
     2
370
    -3
331
14
  1
Color_2
330
30
 90
        1
 62
     7
370
    -3
331
14
  1
Color_7
330
526
 90
        8
 62
     1
370
    -3
331
14
  1
Color_1
330
138F
 90
        9
 62
     6
370
    -3
331
C0D
  1
Color_6
330
1390
 90
        8
 62
     7
370
    -3
331
14
  1
Color_7
330
0
 90
        8
 62
     3
370
    -3
331
14
  1
Color_3
  0
XRECORD
  5
17A9E
102
{ACAD_REACTORS
330
176AD
102
}
330
176AD
100
AcDbXrecord
280
     1
 91
     1023
301

290
     0
302
1
330
F
 90
        8
 62
     2
370
    -3
331
14
  1
Color_2
330
30
 90
        1
 62
     7
370
    -3
331
14
  1
Color_7
330
526
 90
        9
 62
     1
370
    -3
331
14
  1
Color_1
330
138F
 90
        9
 62
     6
370
    -3
331
C0D
  1
Color_6
330
1390
 90
        8
 62
     7
370
    -3
331
14
  1
Color_7
330
0
 90
        8
 62
     3
370
    -3
331
14
  1
Color_3
  0
XRECORD
  5
17A9F
102
{ACAD_REACTORS
330
176AD
102
}
330
176AD
100
AcDbXrecord
280
     1
 91
     1023
301

290
     0
302
3
330
F
 90
        8
 62
     2
370
    -3
331
14
  1
Color_2
330
30
 90
        1
 62
     7
370
    -3
331
14
  1
Color_7
330
526
 90
        9
 62
     1
370
    -3
331
14
  1
Color_1
330
138F
 90
        9
 62
     6
370
    -3
331
C0D
  1
Color_6
330
1390
 90
        8
 62
     7
370
    -3
331
14
  1
Color_7
330
0
 90
        8
 62
     3
370
    -3
331
14
  1
Color_3
  0
XRECORD
  5
17AA0
102
{ACAD_REACTORS
330
176AD
102
}
330
176AD
100
AcDbXrecord
280
     1
 91
     1023
301

290
     0
302
3
330
F
 90
        8
 62
     2
370
    -3
331
14
  1
Color_2
330
30
 90
        1
 62
     7
370
    -3
331
14
  1
Color_7
330
526
 90
        8
 62
     1
370
    -3
331
14
  1
Color_1
330
138F
 90
        9
 62
     6
370
    -3
331
C0D
  1
Color_6
330
1390
 90
        8
 62
     7
370
    -3
331
14
  1
Color_7
330
0
 90
        8
 62
     3
370
    -3
331
14
  1
Color_3
  0
XRECORD
  5
17AA1
102
{ACAD_REACTORS
330
176AD
102
}
330
176AD
100
AcDbXrecord
280
     1
 91
     1023
301

290
     0
302
3
330
F
 90
        8
 62
     2
370
    -3
331
14
  1
Color_2
330
30
 90
        1
 62
     7
370
    -3
331
14
  1
Color_7
330
526
 90
        8
 62
     1
370
    -3
331
14
  1
Color_1
330
138F
 90
        8
 62
     6
370
    -3
331
C0D
  1
Color_6
330
1390
 90
        8
 62
     7
370
    -3
331
14
  1
Color_7
330
0
 90
        8
 62
     3
370
    -3
331
14
  1
Color_3
  0
XRECORD
  5
17AA2
102
{ACAD_REACTORS
330
176AD
102
}
330
176AD
100
AcDbXrecord
280
     1
 91
     1023
301

290
     0
302
3
330
F
 90
        8
 62
     2
370
    -3
331
14
  1
Color_2
330
30
 90
        0
 62
     7
370
    -3
331
14
  1
Color_7
330
526
 90
        8
 62
     1
370
    -3
331
14
  1
Color_1
330
138F
 90
        8
 62
     6
370
    -3
331
C0D
  1
Color_6
330
1390
 90
        8
 62
     7
370
    -3
331
14
  1
Color_7
330
0
 90
        8
 62
     3
370
    -3
331
14
  1
Color_3
  0
XRECORD
  5
17A64
102
{ACAD_REACTORS
330
176AD
102
}
330
176AD
100
AcDbXrecord
280
     1
 91
     1023
301

290
     0
302
1
330
F
 90
        9
 62
     2
370
    -3
331
14
  1
Color_2
330
30
 90
        1
 62
     7
370
    -3
331
14
  1
Color_7
330
526
 90
        9
 62
     3
370
    -3
331
14
  1
Color_3
330
138F
 90
        9
 62
     1
370
    -3
331
C0D
  1
Color_1
330
1390
 90
        9
 62
     7
370
    -3
331
14
  1
Color_7
330
0
 90
        8
 62
     3
370
    -3
331
14
  1
Color_3
330
0
 90
        8
 62
     2
370
    -3
331
14
  1
Color_2
330
0
 90
        8
 62
     1
370
    -3
331
14
  1
Color_1
  0
XRECORD
  5
17AA6
102
{ACAD_REACTORS
330
176AD
102
}
330
176AD
100
AcDbXrecord
280
     1
 91
     1023
301

290
     0
302
3
330
F
 90
        8
 62
     2
370
    -3
331
14
  1
Color_2
330
30
 90
        0
 62
     7
370
    -3
331
14
  1
Color_7
330
526
 90
        8
 62
     1
370
    -3
331
14
  1
Color_1
330
138F
 90
        8
 62
     6
370
    -3
331
C0D
  1
Color_6
330
1390
 90
        8
 62
     7
370
    -3
331
14
  1
Color_7
330
0
 90
        8
 62
     3
370
    -3
331
14
  1
Color_3
  0
XRECORD
  5
17AA7
102
{ACAD_REACTORS
330
176AD
102
}
330
176AD
100
AcDbXrecord
280
     1
 91
     1023
301

290
     0
302
3
330
F
 90
        8
 62
     2
370
    -3
331
14
  1
Color_2
330
30
 90
        1
 62
     7
370
    -3
331
14
  1
Color_7
330
526
 90
        8
 62
     1
370
    -3
331
14
  1
Color_1
330
138F
 90
        8
 62
     6
370
    -3
331
C0D
  1
Color_6
330
1390
 90
        8
 62
     7
370
    -3
331
14
  1
Color_7
330
0
 90
        8
 62
     3
370
    -3
331
14
  1
Color_3
  0
XRECORD
  5
17AA8
102
{ACAD_REACTORS
330
176AD
102
}
330
176AD
100
AcDbXrecord
280
     1
 91
     1023
301

290
     0
302
3
330
F
 90
        9
 62
     2
370
    -3
331
14
  1
Color_2
330
30
 90
        1
 62
     7
370
    -3
331
14
  1
Color_7
330
526
 90
        8
 62
     1
370
    -3
331
14
  1
Color_1
330
138F
 90
        8
 62
     6
370
    -3
331
C0D
  1
Color_6
330
1390
 90
        8
 62
     7
370
    -3
331
14
  1
Color_7
330
0
 90
        8
 62
     3
370
    -3
331
14
  1
Color_3
  0
XRECORD
  5
17AA9
102
{ACAD_REACTORS
330
176AD
102
}
330
176AD
100
AcDbXrecord
280
     1
 91
     1023
301

290
     0
302
3
330
F
 90
        8
 62
     2
370
    -3
331
14
  1
Color_2
330
30
 90
        1
 62
     7
370
    -3
331
14
  1
Color_7
330
526
 90
        8
 62
     1
370
    -3
331
14
  1
Color_1
330
138F
 90
        8
 62
     6
370
    -3
331
C0D
  1
Color_6
330
1390
 90
        8
 62
     7
370
    -3
331
14
  1
Color_7
330
0
 90
        8
 62
     3
370
    -3
331
14
  1
Color_3
  0
XRECORD
  5
17AAA
102
{ACAD_REACTORS
330
176AD
102
}
330
176AD
100
AcDbXrecord
280
     1
 91
     1023
301

290
     0
302
3
330
F
 90
        9
 62
     2
370
    -3
331
14
  1
Color_2
330
30
 90
        1
 62
     7
370
    -3
331
14
  1
Color_7
330
526
 90
        8
 62
     1
370
    -3
331
14
  1
Color_1
330
138F
 90
        8
 62
     6
370
    -3
331
C0D
  1
Color_6
330
1390
 90
        8
 62
     7
370
    -3
331
14
  1
Color_7
330
0
 90
        8
 62
     3
370
    -3
331
14
  1
Color_3
  0
XRECORD
  5
17AAB
102
{ACAD_REACTORS
330
176AD
102
}
330
176AD
100
AcDbXrecord
280
     1
 91
     1023
301

290
     0
302
3
330
F
 90
        8
 62
     2
370
    -3
331
14
  1
Color_2
330
30
 90
        1
 62
     7
370
    -3
331
14
  1
Color_7
330
526
 90
        8
 62
     1
370
    -3
331
14
  1
Color_1
330
138F
 90
        8
 62
     6
370
    -3
331
C0D
  1
Color_6
330
1390
 90
        8
 62
     7
370
    -3
331
14
  1
Color_7
330
0
 90
        8
 62
     3
370
    -3
331
14
  1
Color_3
  0
XRECORD
  5
17AB0
102
{ACAD_REACTORS
330
176AD
102
}
330
176AD
100
AcDbXrecord
280
     1
 91
     1023
301

290
     0
302
3
330
F
 90
        8
 62
     2
370
    -3
331
14
  1
Color_2
330
30
 90
        1
 62
     7
370
    -3
331
14
  1
Color_7
330
526
 90
        8
 62
     1
370
    -3
331
14
  1
Color_1
330
138F
 90
        8
 62
     6
370
    -3
331
C0D
  1
Color_6
330
1390
 90
        8
 62
     7
370
    -3
331
14
  1
Color_7
330
0
 90
        8
 62
     3
370
    -3
331
14
  1
Color_3
  0
XRECORD
  5
17AB1
102
{ACAD_REACTORS
330
176AD
102
}
330
176AD
100
AcDbXrecord
280
     1
 91
     1023
301

290
     0
302
3
330
F
 90
        8
 62
     2
370
    -3
331
14
  1
Color_2
330
30
 90
        1
 62
     7
370
    -3
331
14
  1
Color_7
330
526
 90
        8
 62
     1
370
    -3
331
14
  1
Color_1
330
138F
 90
        9
 62
     6
370
    -3
331
C0D
  1
Color_6
330
1390
 90
        8
 62
     7
370
    -3
331
14
  1
Color_7
330
0
 90
        8
 62
     3
370
    -3
331
14
  1
Color_3
  0
XRECORD
  5
17AB2
102
{ACAD_REACTORS
330
176AD
102
}
330
176AD
100
AcDbXrecord
280
     1
 91
     1023
301

290
     0
302
3
330
F
 90
        8
 62
     2
370
    -3
331
14
  1
Color_2
330
30
 90
        1
 62
     7
370
    -3
331
14
  1
Color_7
330
526
 90
        9
 62
     1
370
    -3
331
14
  1
Color_1
330
138F
 90
        9
 62
     6
370
    -3
331
C0D
  1
Color_6
330
1390
 90
        8
 62
     7
370
    -3
331
14
  1
Color_7
330
0
 90
        8
 62
     3
370
    -3
331
14
  1
Color_3
  0
XRECORD
  5
17AB3
102
{ACAD_REACTORS
330
176AD
102
}
330
176AD
100
AcDbXrecord
280
     1
 91
     1023
301

290
     0
302
2
330
F
 90
        8
 62
     2
370
    -3
331
14
  1
Color_2
330
30
 90
        1
 62
     7
370
    -3
331
14
  1
Color_7
330
526
 90
        9
 62
     1
370
    -3
331
14
  1
Color_1
330
138F
 90
        9
 62
     6
370
    -3
331
C0D
  1
Color_6
330
1390
 90
        8
 62
     7
370
    -3
331
14
  1
Color_7
330
0
 90
        8
 62
     3
370
    -3
331
14
  1
Color_3
  0
XRECORD
  5
17A65
102
{ACAD_REACTORS
330
176AD
102
}
330
176AD
100
AcDbXrecord
280
     1
 91
     1023
301

290
     0
302
DEFPOINTS
330
F
 90
        9
 62
     2
370
    -3
331
14
  1
Color_2
330
30
 90
        1
 62
     7
370
    -3
331
14
  1
Color_7
330
526
 90
        9
 62
     3
370
    -3
331
14
  1
Color_3
330
138F
 90
        9
 62
     1
370
    -3
331
C0D
  1
Color_1
330
1390
 90
        9
 62
     7
370
    -3
331
14
  1
Color_7
330
0
 90
        8
 62
     3
370
    -3
331
14
  1
Color_3
330
0
 90
        8
 62
     2
370
    -3
331
14
  1
Color_2
330
0
 90
        8
 62
     1
370
    -3
331
14
  1
Color_1
  0
XRECORD
  5
17AB4
102
{ACAD_REACTORS
330
176AD
102
}
330
176AD
100
AcDbXrecord
280
     1
 91
     1023
301

290
     0
302
2
330
F
 90
        8
 62
     2
370
    -3
331
14
  1
Color_2
330
30
 90
        1
 62
     7
370
    -3
331
14
  1
Color_7
330
526
 90
        9
 62
     1
370
    -3
331
14
  1
Color_1
330
138F
 90
        9
 62
     6
370
    -3
331
C0D
  1
Color_6
330
1390
 90
        9
 62
     7
370
    -3
331
14
  1
Color_7
330
0
 90
        8
 62
     3
370
    -3
331
14
  1
Color_3
  0
XRECORD
  5
17AB5
102
{ACAD_REACTORS
330
176AD
102
}
330
176AD
100
AcDbXrecord
280
     1
 91
     1023
301

290
     0
302
2
330
F
 90
        9
 62
     2
370
    -3
331
14
  1
Color_2
330
30
 90
        1
 62
     7
370
    -3
331
14
  1
Color_7
330
526
 90
        9
 62
     1
370
    -3
331
14
  1
Color_1
330
138F
 90
        9
 62
     6
370
    -3
331
C0D
  1
Color_6
330
1390
 90
        9
 62
     7
370
    -3
331
14
  1
Color_7
330
0
 90
        8
 62
     3
370
    -3
331
14
  1
Color_3
  0
XRECORD
  5
17AB6
102
{ACAD_REACTORS
330
176AD
102
}
330
176AD
100
AcDbXrecord
280
     1
 91
     1023
301

290
     0
302
2
330
F
 90
        9
 62
     2
370
    -3
331
14
  1
Color_2
330
30
 90
        1
 62
     7
370
    -3
331
14
  1
Color_7
330
526
 90
        9
 62
     1
370
    -3
331
14
  1
Color_1
330
138F
 90
        9
 62
     6
370
    -3
331
C0D
  1
Color_6
330
1390
 90
        9
 62
     7
370
    -3
331
14
  1
Color_7
330
0
 90
        9
 62
     3
370
    -3
331
14
  1
Color_3
  0
XRECORD
  5
17AB7
102
{ACAD_REACTORS
330
176AD
102
}
330
176AD
100
AcDbXrecord
280
     1
 91
     1023
301

290
     0
302
2
330
F
 90
        9
 62
     2
370
    -3
331
14
  1
Color_2
330
30
 90
        1
 62
     7
370
    -3
331
14
  1
Color_7
330
526
 90
        9
 62
     1
370
    -3
331
14
  1
Color_1
330
138F
 90
        9
 62
     6
370
    -3
331
C0D
  1
Color_6
330
1390
 90
        8
 62
     7
370
    -3
331
14
  1
Color_7
330
0
 90
        9
 62
     3
370
    -3
331
14
  1
Color_3
  0
XRECORD
  5
17AB8
102
{ACAD_REACTORS
330
176AD
102
}
330
176AD
100
AcDbXrecord
280
     1
 91
     1023
301

290
     0
302
2
330
F
 90
        9
 62
     2
370
    -3
331
14
  1
Color_2
330
30
 90
        1
 62
     7
370
    -3
331
14
  1
Color_7
330
526
 90
        8
 62
     1
370
    -3
331
14
  1
Color_1
330
138F
 90
        9
 62
     6
370
    -3
331
C0D
  1
Color_6
330
1390
 90
        8
 62
     7
370
    -3
331
14
  1
Color_7
330
0
 90
        9
 62
     3
370
    -3
331
14
  1
Color_3
  0
XRECORD
  5
17AB9
102
{ACAD_REACTORS
330
176AD
102
}
330
176AD
100
AcDbXrecord
280
     1
 91
     1023
301

290
     0
302
2
330
F
 90
        9
 62
     2
370
    -3
331
14
  1
Color_2
330
30
 90
        0
 62
     7
370
    -3
331
14
  1
Color_7
330
526
 90
        8
 62
     1
370
    -3
331
14
  1
Color_1
330
138F
 90
        9
 62
     6
370
    -3
331
C0D
  1
Color_6
330
1390
 90
        8
 62
     7
370
    -3
331
14
  1
Color_7
330
0
 90
        9
 62
     3
370
    -3
331
14
  1
Color_3
  0
XRECORD
  5
17ABA
102
{ACAD_REACTORS
330
176AD
102
}
330
176AD
100
AcDbXrecord
280
     1
 91
     1023
301

290
     0
302
2
330
F
 90
        9
 62
     2
370
    -3
331
14
  1
Color_2
330
30
 90
        0
 62
     7
370
    -3
331
14
  1
Color_7
330
526
 90
        8
 62
     1
370
    -3
331
14
  1
Color_1
330
138F
 90
        8
 62
     6
370
    -3
331
C0D
  1
Color_6
330
1390
 90
        8
 62
     7
370
    -3
331
14
  1
Color_7
330
0
 90
        9
 62
     3
370
    -3
331
14
  1
Color_3
  0
XRECORD
  5
17ABB
102
{ACAD_REACTORS
330
176AD
102
}
330
176AD
100
AcDbXrecord
280
     1
 91
     1023
301

290
     0
302
2
330
F
 90
        8
 62
     2
370
    -3
331
14
  1
Color_2
330
30
 90
        0
 62
     7
370
    -3
331
14
  1
Color_7
330
526
 90
        8
 62
     1
370
    -3
331
14
  1
Color_1
330
138F
 90
        8
 62
     6
370
    -3
331
C0D
  1
Color_6
330
1390
 90
        8
 62
     7
370
    -3
331
14
  1
Color_7
330
0
 90
        9
 62
     3
370
    -3
331
14
  1
Color_3
  0
XRECORD
  5
17ABC
102
{ACAD_REACTORS
330
176AD
102
}
330
176AD
100
AcDbXrecord
280
     1
 91
     1023
301

290
     0
302
2
330
F
 90
        8
 62
     2
370
    -3
331
14
  1
Color_2
330
30
 90
        0
 62
     7
370
    -3
331
14
  1
Color_7
330
526
 90
        8
 62
     1
370
    -3
331
14
  1
Color_1
330
138F
 90
        8
 62
     6
370
    -3
331
C0D
  1
Color_6
330
1390
 90
        9
 62
     7
370
    -3
331
14
  1
Color_7
330
0
 90
        9
 62
     3
370
    -3
331
14
  1
Color_3
  0
XRECORD
  5
17ABD
102
{ACAD_REACTORS
330
176AD
102
}
330
176AD
100
AcDbXrecord
280
     1
 91
     1023
301

290
     0
302
2
330
F
 90
        8
 62
     2
370
    -3
331
14
  1
Color_2
330
30
 90
        0
 62
     7
370
    -3
331
14
  1
Color_7
330
526
 90
        9
 62
     1
370
    -3
331
14
  1
Color_1
330
138F
 90
        8
 62
     6
370
    -3
331
C0D
  1
Color_6
330
1390
 90
        9
 62
     7
370
    -3
331
14
  1
Color_7
330
0
 90
        9
 62
     3
370
    -3
331
14
  1
Color_3
  0
XRECORD
  5
17A66
102
{ACAD_REACTORS
330
176AD
102
}
330
176AD
100
AcDbXrecord
280
     1
 91
     1023
301

290
     0
302
DEFPOINTS
330
F
 90
        8
 62
     2
370
    -3
331
14
  1
Color_2
330
30
 90
        1
 62
     7
370
    -3
331
14
  1
Color_7
330
526
 90
        9
 62
     3
370
    -3
331
14
  1
Color_3
330
138F
 90
        9
 62
     1
370
    -3
331
C0D
  1
Color_1
330
1390
 90
        9
 62
     7
370
    -3
331
14
  1
Color_7
330
0
 90
        8
 62
     3
370
    -3
331
14
  1
Color_3
330
0
 90
        8
 62
     2
370
    -3
331
14
  1
Color_2
330
0
 90
        8
 62
     1
370
    -3
331
14
  1
Color_1
  0
XRECORD
  5
17ABE
102
{ACAD_REACTORS
330
176AD
102
}
330
176AD
100
AcDbXrecord
280
     1
 91
     1023
301

290
     0
302
2
330
F
 90
        8
 62
     2
370
    -3
331
14
  1
Color_2
330
30
 90
        0
 62
     7
370
    -3
331
14
  1
Color_7
330
526
 90
        9
 62
     1
370
    -3
331
14
  1
Color_1
330
138F
 90
        9
 62
     6
370
    -3
331
C0D
  1
Color_6
330
1390
 90
        9
 62
     7
370
    -3
331
14
  1
Color_7
330
0
 90
        9
 62
     3
370
    -3
331
14
  1
Color_3
  0
XRECORD
  5
17ABF
102
{ACAD_REACTORS
330
176AD
102
}
330
176AD
100
AcDbXrecord
280
     1
 91
     1023
301

290
     0
302
2
330
F
 90
        8
 62
     2
370
    -3
331
14
  1
Color_2
330
30
 90
        1
 62
     7
370
    -3
331
14
  1
Color_7
330
526
 90
        9
 62
     1
370
    -3
331
14
  1
Color_1
330
138F
 90
        9
 62
     6
370
    -3
331
C0D
  1
Color_6
330
1390
 90
        9
 62
     7
370
    -3
331
14
  1
Color_7
330
0
 90
        9
 62
     3
370
    -3
331
14
  1
Color_3
  0
XRECORD
  5
17AC0
102
{ACAD_REACTORS
330
176AD
102
}
330
176AD
100
AcDbXrecord
280
     1
 91
     1023
301

290
     0
302
2
330
F
 90
        8
 62
     2
370
    -3
331
14
  1
Color_2
330
30
 90
        1
 62
     7
370
    -3
331
14
  1
Color_7
330
526
 90
        9
 62
     1
370
    -3
331
14
  1
Color_1
330
138F
 90
        9
 62
     6
370
    -3
331
C0D
  1
Color_6
330
1390
 90
        8
 62
     7
370
    -3
331
14
  1
Color_7
330
0
 90
        9
 62
     3
370
    -3
331
14
  1
Color_3
  0
XRECORD
  5
17AC1
102
{ACAD_REACTORS
330
176AD
102
}
330
176AD
100
AcDbXrecord
280
     1
 91
     1023
301

290
     0
302
2
330
F
 90
        8
 62
     2
370
    -3
331
14
  1
Color_2
330
30
 90
        1
 62
     7
370
    -3
331
14
  1
Color_7
330
526
 90
        8
 62
     1
370
    -3
331
14
  1
Color_1
330
138F
 90
        9
 62
     6
370
    -3
331
C0D
  1
Color_6
330
1390
 90
        8
 62
     7
370
    -3
331
14
  1
Color_7
330
0
 90
        9
 62
     3
370
    -3
331
14
  1
Color_3
  0
XRECORD
  5
17AC2
102
{ACAD_REACTORS
330
176AD
102
}
330
176AD
100
AcDbXrecord
280
     1
 91
     1023
301

290
     0
302
2
330
F
 90
        8
 62
     2
370
    -3
331
14
  1
Color_2
330
30
 90
        1
 62
     7
370
    -3
331
14
  1
Color_7
330
526
 90
        8
 62
     1
370
    -3
331
14
  1
Color_1
330
138F
 90
        8
 62
     6
370
    -3
331
C0D
  1
Color_6
330
1390
 90
        8
 62
     7
370
    -3
331
14
  1
Color_7
330
0
 90
        9
 62
     3
370
    -3
331
14
  1
Color_3
  0
XRECORD
  5
17AC3
102
{ACAD_REACTORS
330
176AD
102
}
330
176AD
100
AcDbXrecord
280
     1
 91
     1023
301

290
     0
302
2
330
F
 90
        8
 62
     2
370
    -3
331
14
  1
Color_2
330
30
 90
        0
 62
     7
370
    -3
331
14
  1
Color_7
330
526
 90
        8
 62
     1
370
    -3
331
14
  1
Color_1
330
138F
 90
        8
 62
     6
370
    -3
331
C0D
  1
Color_6
330
1390
 90
        8
 62
     7
370
    -3
331
14
  1
Color_7
330
0
 90
        9
 62
     3
370
    -3
331
14
  1
Color_3
  0
XRECORD
  5
17ACA
102
{ACAD_REACTORS
330
176AD
102
}
330
176AD
100
AcDbXrecord
280
     1
 91
     1023
301

290
     0
302
2
330
F
 90
        8
 62
     2
370
    -3
331
14
  1
Color_2
330
30
 90
        0
 62
     7
370
    -3
331
14
  1
Color_7
330
526
 90
        8
 62
     1
370
    -3
331
14
  1
Color_1
330
138F
 90
        8
 62
     6
370
    -3
331
C0D
  1
Color_6
330
1390
 90
        8
 62
     7
370
    -3
331
14
  1
Color_7
330
0
 90
        9
 62
     3
370
    -3
331
14
  1
Color_3
  0
XRECORD
  5
17ACB
102
{ACAD_REACTORS
330
176AD
102
}
330
176AD
100
AcDbXrecord
280
     1
 91
     1023
301

290
     0
302
2
330
F
 90
        8
 62
     2
370
    -3
331
14
  1
Color_2
330
30
 90
        0
 62
     7
370
    -3
331
14
  1
Color_7
330
526
 90
        8
 62
     1
370
    -3
331
14
  1
Color_1
330
138F
 90
        8
 62
     6
370
    -3
331
C0D
  1
Color_6
330
1390
 90
        8
 62
     7
370
    -3
331
14
  1
Color_7
330
0
 90
        8
 62
     3
370
    -3
331
14
  1
Color_3
  0
XRECORD
  5
17ACC
102
{ACAD_REACTORS
330
176AD
102
}
330
176AD
100
AcDbXrecord
280
     1
 91
     1023
301

290
     0
302
2
330
F
 90
        8
 62
     2
370
    -3
331
14
  1
Color_2
330
30
 90
        1
 62
     7
370
    -3
331
14
  1
Color_7
330
526
 90
        8
 62
     1
370
    -3
331
14
  1
Color_1
330
138F
 90
        8
 62
     6
370
    -3
331
C0D
  1
Color_6
330
1390
 90
        8
 62
     7
370
    -3
331
14
  1
Color_7
330
0
 90
        8
 62
     3
370
    -3
331
14
  1
Color_3
  0
XRECORD
  5
17ACD
102
{ACAD_REACTORS
330
176AD
102
}
330
176AD
100
AcDbXrecord
280
     1
 91
     1023
301

290
     0
302
2
330
F
 90
        8
 62
     2
370
    -3
331
14
  1
Color_2
330
30
 90
        1
 62
     7
370
    -3
331
14
  1
Color_7
330
526
 90
        8
 62
     1
370
    -3
331
14
  1
Color_1
330
138F
 90
        9
 62
     6
370
    -3
331
C0D
  1
Color_6
330
1390
 90
        8
 62
     7
370
    -3
331
14
  1
Color_7
330
0
 90
        8
 62
     3
370
    -3
331
14
  1
Color_3
  0
XRECORD
  5
17A67
102
{ACAD_REACTORS
330
176AD
102
}
330
176AD
100
AcDbXrecord
280
     1
 91
     1023
301

290
     0
302
DEFPOINTS
330
F
 90
        8
 62
     2
370
    -3
331
14
  1
Color_2
330
30
 90
        1
 62
     7
370
    -3
331
14
  1
Color_7
330
526
 90
        9
 62
     3
370
    -3
331
14
  1
Color_3
330
138F
 90
        9
 62
     1
370
    -3
331
C0D
  1
Color_1
330
1390
 90
        8
 62
     7
370
    -3
331
14
  1
Color_7
330
0
 90
        8
 62
     3
370
    -3
331
14
  1
Color_3
330
0
 90
        8
 62
     2
370
    -3
331
14
  1
Color_2
330
0
 90
        8
 62
     1
370
    -3
331
14
  1
Color_1
  0
XRECORD
  5
17ACE
102
{ACAD_REACTORS
330
176AD
102
}
330
176AD
100
AcDbXrecord
280
     1
 91
     1023
301

290
     0
302
2
330
F
 90
        8
 62
     2
370
    -3
331
14
  1
Color_2
330
30
 90
        1
 62
     7
370
    -3
331
14
  1
Color_7
330
526
 90
        9
 62
     1
370
    -3
331
14
  1
Color_1
330
138F
 90
        9
 62
     6
370
    -3
331
C0D
  1
Color_6
330
1390
 90
        8
 62
     7
370
    -3
331
14
  1
Color_7
330
0
 90
        8
 62
     3
370
    -3
331
14
  1
Color_3
  0
XRECORD
  5
17ACF
102
{ACAD_REACTORS
330
176AD
102
}
330
176AD
100
AcDbXrecord
280
     1
 91
     1023
301

290
     0
302
2
330
F
 90
        8
 62
     2
370
    -3
331
14
  1
Color_2
330
30
 90
        1
 62
     7
370
    -3
331
14
  1
Color_7
330
526
 90
        9
 62
     1
370
    -3
331
14
  1
Color_1
330
138F
 90
        9
 62
     6
370
    -3
331
C0D
  1
Color_6
330
1390
 90
        9
 62
     7
370
    -3
331
14
  1
Color_7
330
0
 90
        8
 62
     3
370
    -3
331
14
  1
Color_3
  0
XRECORD
  5
17AD0
102
{ACAD_REACTORS
330
176AD
102
}
330
176AD
100
AcDbXrecord
280
     1
 91
     1023
301

290
     0
302
1
330
F
 90
        8
 62
     2
370
    -3
331
14
  1
Color_2
330
30
 90
        1
 62
     7
370
    -3
331
14
  1
Color_7
330
526
 90
        9
 62
     1
370
    -3
331
14
  1
Color_1
330
138F
 90
        9
 62
     6
370
    -3
331
C0D
  1
Color_6
330
1390
 90
        9
 62
     7
370
    -3
331
14
  1
Color_7
330
0
 90
        8
 62
     3
370
    -3
331
14
  1
Color_3
  0
XRECORD
  5
17AD1
102
{ACAD_REACTORS
330
176AD
102
}
330
176AD
100
AcDbXrecord
280
     1
 91
     1023
301

290
     0
302
1
330
F
 90
        9
 62
     2
370
    -3
331
14
  1
Color_2
330
30
 90
        1
 62
     7
370
    -3
331
14
  1
Color_7
330
526
 90
        9
 62
     1
370
    -3
331
14
  1
Color_1
330
138F
 90
        9
 62
     6
370
    -3
331
C0D
  1
Color_6
330
1390
 90
        9
 62
     7
370
    -3
331
14
  1
Color_7
330
0
 90
        8
 62
     3
370
    -3
331
14
  1
Color_3
  0
XRECORD
  5
17AD2
102
{ACAD_REACTORS
330
176AD
102
}
330
176AD
100
AcDbXrecord
280
     1
 91
     1023
301

290
     0
302
1
330
F
 90
        8
 62
     2
370
    -3
331
14
  1
Color_2
330
30
 90
        1
 62
     7
370
    -3
331
14
  1
Color_7
330
526
 90
        9
 62
     1
370
    -3
331
14
  1
Color_1
330
138F
 90
        9
 62
     6
370
    -3
331
C0D
  1
Color_6
330
1390
 90
        9
 62
     7
370
    -3
331
14
  1
Color_7
330
0
 90
        8
 62
     3
370
    -3
331
14
  1
Color_3
  0
XRECORD
  5
17AD3
102
{ACAD_REACTORS
330
176AD
102
}
330
176AD
100
AcDbXrecord
280
     1
 91
     1023
301

290
     0
302
1
330
F
 90
        8
 62
     2
370
    -3
331
14
  1
Color_2
330
30
 90
        1
 62
     7
370
    -3
331
14
  1
Color_7
330
526
 90
        9
 62
     1
370
    -3
331
14
  1
Color_1
330
138F
 90
        9
 62
     6
370
    -3
331
C0D
  1
Color_6
330
1390
 90
        8
 62
     7
370
    -3
331
14
  1
Color_7
330
0
 90
        8
 62
     3
370
    -3
331
14
  1
Color_3
  0
XRECORD
  5
17AD4
102
{ACAD_REACTORS
330
176AD
102
}
330
176AD
100
AcDbXrecord
280
     1
 91
     1023
301

290
     0
302
1
330
F
 90
        8
 62
     2
370
    -3
331
14
  1
Color_2
330
30
 90
        1
 62
     7
370
    -3
331
14
  1
Color_7
330
526
 90
        8
 62
     1
370
    -3
331
14
  1
Color_1
330
138F
 90
        9
 62
     6
370
    -3
331
C0D
  1
Color_6
330
1390
 90
        8
 62
     7
370
    -3
331
14
  1
Color_7
330
0
 90
        8
 62
     3
370
    -3
331
14
  1
Color_3
  0
XRECORD
  5
17AD5
102
{ACAD_REACTORS
330
176AD
102
}
330
176AD
100
AcDbXrecord
280
     1
 91
     1023
301

290
     0
302
2
330
F
 90
        8
 62
     2
370
    -3
331
14
  1
Color_2
330
30
 90
        1
 62
     7
370
    -3
331
14
  1
Color_7
330
526
 90
        8
 62
     1
370
    -3
331
14
  1
Color_1
330
138F
 90
        9
 62
     6
370
    -3
331
C0D
  1
Color_6
330
1390
 90
        8
 62
     7
370
    -3
331
14
  1
Color_7
330
0
 90
        8
 62
     3
370
    -3
331
14
  1
Color_3
  0
XRECORD
  5
17AD6
102
{ACAD_REACTORS
330
176AD
102
}
330
176AD
100
AcDbXrecord
280
     1
 91
     1023
301

290
     0
302
2
330
F
 90
        8
 62
     2
370
    -3
331
14
  1
Color_2
330
30
 90
        1
 62
     7
370
    -3
331
14
  1
Color_7
330
526
 90
        8
 62
     1
370
    -3
331
14
  1
Color_1
330
138F
 90
        8
 62
     6
370
    -3
331
C0D
  1
Color_6
330
1390
 90
        8
 62
     7
370
    -3
331
14
  1
Color_7
330
0
 90
        8
 62
     3
370
    -3
331
14
  1
Color_3
  0
XRECORD
  5
17ADB
102
{ACAD_REACTORS
330
176AD
102
}
330
176AD
100
AcDbXrecord
280
     1
 91
     1023
301

290
     0
302
3
330
F
 90
        8
 62
     2
370
    -3
331
14
  1
Color_2
330
30
 90
        0
 62
     7
370
    -3
331
14
  1
Color_7
330
526
 90
        8
 62
     1
370
    -3
331
14
  1
Color_1
330
138F
 90
        8
 62
     6
370
    -3
331
C0D
  1
Color_6
330
1390
 90
        8
 62
     7
370
    -3
331
14
  1
Color_7
330
0
 90
        8
 62
     3
370
    -3
331
14
  1
Color_3
  0
DICTIONARY
  5
17BA1
330
175E2
100
AcDbDictionary
280
     1
281
     1
  3
ACAD_XREC_ROUNDTRIP
360
17BA2
  0
DICTIONARY
  5
17BA3
330
175E3
100
AcDbDictionary
280
     1
281
     1
  3
ACAD_XREC_ROUNDTRIP
360
17BA4
  0
DICTIONARY
  5
17B59
330
17B58
100
AcDbDictionary
280
     1
281
     1
  3
ACAD_XREC_ROUNDTRIP
360
17B95
  3
BUMPTILE
360
17B5B
  3
DIFFUSETILE
360
17B5A
  3
OPACITYTILE
360
17B5E
  3
REFLECTIONTILE
360
17B5D
  3
REFRACTIONTILE
360
17B5F
  3
SPECULARTILE
360
17B5C
  0
DICTIONARY
  5
17B51
330
17B50
100
AcDbDictionary
280
     1
281
     1
  3
ACAD_XREC_ROUNDTRIP
360
17B94
  3
BUMPTILE
360
17B53
  3
DIFFUSETILE
360
17B52
  3
OPACITYTILE
360
17B56
  3
REFLECTIONTILE
360
17B55
  3
REFRACTIONTILE
360
17B57
  3
SPECULARTILE
360
17B54
  0
DICTIONARY
  5
17B61
330
17B60
100
AcDbDictionary
280
     1
281
     1
  3
ACAD_XREC_ROUNDTRIP
360
17B96
  3
BUMPTILE
360
17B63
  3
DIFFUSETILE
360
17B62
  3
OPACITYTILE
360
17B66
  3
REFLECTIONTILE
360
17B65
  3
REFRACTIONTILE
360
17B67
  3
SPECULARTILE
360
17B64
  0
DICTIONARY
  5
17B8D
330
17B7B
100
AcDbDictionary
280
     1
281
     1
  3
ACAD_ROUNDTRIP_2008_TABLESTYLE_CELLSTYLEMAP
360
17B9F
  3
ACAD_XREC_ROUNDTRIP
360
17BA5
  0
XRECORD
  5
17BA2
102
{ACAD_REACTORS
330
17BA1
102
}
330
17BA1
100
AcDbXrecord
280
     1
102
SHADEPLOT
 70
     0
102
SHADEPLOTRESLEVEL
 70
     2
102
SHADEPLOTCUSTOMDPI
 70
   300
  0
XRECORD
  5
17BA4
102
{ACAD_REACTORS
330
17BA3
102
}
330
17BA3
100
AcDbXrecord
280
     1
102
SHADEPLOT
 70
     0
102
SHADEPLOTRESLEVEL
 70
     2
102
SHADEPLOTCUSTOMDPI
 70
   300
  0
XRECORD
  5
17B95
102
{ACAD_REACTORS
330
17B59
102
}
330
17B59
100
AcDbXrecord
280
     1
102
MATERIAL
148
0.0
149
0.0
149
0.0
 93
        0
 94
      127
282
     0
 72
     0
 77
     0
171
     0
175
     0
179
     0
273
     0
  0
XRECORD
  5
17B5B
102
{ACAD_REACTORS
330
17B59
102
}
330
17B59
100
AcDbXrecord
280
     1
270
     1
271
     1
  0
XRECORD
  5
17B5A
102
{ACAD_REACTORS
330
17B59
102
}
330
17B59
100
AcDbXrecord
280
     1
270
     1
271
     1
  0
XRECORD
  5
17B5E
102
{ACAD_REACTORS
330
17B59
102
}
330
17B59
100
AcDbXrecord
280
     1
270
     1
271
     1
  0
XRECORD
  5
17B5D
102
{ACAD_REACTORS
330
17B59
102
}
330
17B59
100
AcDbXrecord
280
     1
270
     1
271
     1
  0
XRECORD
  5
17B5F
102
{ACAD_REACTORS
330
17B59
102
}
330
17B59
100
AcDbXrecord
280
     1
270
     1
271
     1
  0
XRECORD
  5
17B5C
102
{ACAD_REACTORS
330
17B59
102
}
330
17B59
100
AcDbXrecord
280
     1
270
     1
271
     1
  0
XRECORD
  5
17B94
102
{ACAD_REACTORS
330
17B51
102
}
330
17B51
100
AcDbXrecord
280
     1
102
MATERIAL
148
0.0
149
0.0
149
0.0
 93
        0
 94
      127
282
     0
 72
     0
 77
     0
171
     0
175
     0
179
     0
273
     0
  0
XRECORD
  5
17B53
102
{ACAD_REACTORS
330
17B51
102
}
330
17B51
100
AcDbXrecord
280
     1
270
     1
271
     1
  0
XRECORD
  5
17B52
102
{ACAD_REACTORS
330
17B51
102
}
330
17B51
100
AcDbXrecord
280
     1
270
     1
271
     1
  0
XRECORD
  5
17B56
102
{ACAD_REACTORS
330
17B51
102
}
330
17B51
100
AcDbXrecord
280
     1
270
     1
271
     1
  0
XRECORD
  5
17B55
102
{ACAD_REACTORS
330
17B51
102
}
330
17B51
100
AcDbXrecord
280
     1
270
     1
271
     1
  0
XRECORD
  5
17B57
102
{ACAD_REACTORS
330
17B51
102
}
330
17B51
100
AcDbXrecord
280
     1
270
     1
271
     1
  0
XRECORD
  5
17B54
102
{ACAD_REACTORS
330
17B51
102
}
330
17B51
100
AcDbXrecord
280
     1
270
     1
271
     1
  0
XRECORD
  5
17B96
102
{ACAD_REACTORS
330
17B61
102
}
330
17B61
100
AcDbXrecord
280
     1
102
MATERIAL
148
0.0
149
0.0
149
0.0
 93
        0
 94
      127
282
     0
 72
     0
 77
     0
171
     0
175
     0
179
     0
273
     0
  0
XRECORD
  5
17B63
102
{ACAD_REACTORS
330
17B61
102
}
330
17B61
100
AcDbXrecord
280
     1
270
     1
271
     1
  0
XRECORD
  5
17B62
102
{ACAD_REACTORS
330
17B61
102
}
330
17B61
100
AcDbXrecord
280
     1
270
     1
271
     1
  0
XRECORD
  5
17B66
102
{ACAD_REACTORS
330
17B61
102
}
330
17B61
100
AcDbXrecord
280
     1
270
     1
271
     1
  0
XRECORD
  5
17B65
102
{ACAD_REACTORS
330
17B61
102
}
330
17B61
100
AcDbXrecord
280
     1
270
     1
271
     1
  0
XRECORD
  5
17B67
102
{ACAD_REACTORS
330
17B61
102
}
330
17B61
100
AcDbXrecord
280
     1
270
     1
271
     1
  0
XRECORD
  5
17B64
102
{ACAD_REACTORS
330
17B61
102
}
330
17B61
100
AcDbXrecord
280
     1
270
     1
271
     1
  0
CELLSTYLEMAP
  5
17B9F
102
{ACAD_REACTORS
330
17B8D
102
}
330
17B8D
100
AcDbCellStyleMap
 90
        3
300
CELLSTYLE
  1
TABLEFORMAT_BEGIN
 90
        5
170
     1
 91
        0
 92
    32768
 62
   257
 93
        1
300
CONTENTFORMAT
  1
CONTENTFORMAT_BEGIN
 90
        0
 91
        0
 92
      512
 93
        0
300

 40
0.0
140
1.0
 94
        5
 62
     0
340
10
144
6.0
309
CONTENTFORMAT_END
171
     1
301
MARGIN
  1
CELLMARGIN_BEGIN
 40
1.5
 40
1.5
 40
1.5
 40
1.5
 40
0.18
 40
0.18
309
CELLMARGIN_END
 94
        6
 95
        1
302
GRIDFORMAT
  1
GRIDFORMAT_BEGIN
 90
        0
 91
        1
 62
     0
 92
       -2
340
0
 93
        0
 40
1.125
309
GRIDFORMAT_END
 95
        2
302
GRIDFORMAT
  1
GRIDFORMAT_BEGIN
 90
        0
 91
        1
 62
     0
 92
       -2
340
0
 93
        0
 40
1.125
309
GRIDFORMAT_END
 95
        4
302
GRIDFORMAT
  1
GRIDFORMAT_BEGIN
 90
        0
 91
        1
 62
     0
 92
       -2
340
0
 93
        0
 40
1.125
309
GRIDFORMAT_END
 95
        8
302
GRIDFORMAT
  1
GRIDFORMAT_BEGIN
 90
        0
 91
        1
 62
     0
 92
       -2
340
0
 93
        0
 40
1.125
309
GRIDFORMAT_END
 95
       16
302
GRIDFORMAT
  1
GRIDFORMAT_BEGIN
 90
        0
 91
        1
 62
     0
 92
       -2
340
0
 93
        0
 40
1.125
309
GRIDFORMAT_END
 95
       32
302
GRIDFORMAT
  1
GRIDFORMAT_BEGIN
 90
        0
 91
        1
 62
     0
 92
       -2
340
0
 93
        0
 40
1.125
309
GRIDFORMAT_END
309
TABLEFORMAT_END
  1
CELLSTYLE_BEGIN
 90
        1
 91
        1
300
_TITLE
309
CELLSTYLE_END
300
CELLSTYLE
  1
TABLEFORMAT_BEGIN
 90
        5
170
     1
 91
        0
 92
        0
 62
   257
 93
        1
300
CONTENTFORMAT
  1
CONTENTFORMAT_BEGIN
 90
        0
 91
        0
 92
      512
 93
        0
300

 40
0.0
140
1.0
 94
        5
 62
     0
340
10
144
4.5
309
CONTENTFORMAT_END
171
     1
301
MARGIN
  1
CELLMARGIN_BEGIN
 40
1.5
 40
1.5
 40
1.5
 40
1.5
 40
0.18
 40
0.18
309
CELLMARGIN_END
 94
        6
 95
        1
302
GRIDFORMAT
  1
GRIDFORMAT_BEGIN
 90
        0
 91
        1
 62
     0
 92
       -2
340
0
 93
        0
 40
1.125
309
GRIDFORMAT_END
 95
        2
302
GRIDFORMAT
  1
GRIDFORMAT_BEGIN
 90
        0
 91
        1
 62
     0
 92
       -2
340
0
 93
        0
 40
1.125
309
GRIDFORMAT_END
 95
        4
302
GRIDFORMAT
  1
GRIDFORMAT_BEGIN
 90
        0
 91
        1
 62
     0
 92
       -2
340
0
 93
        0
 40
1.125
309
GRIDFORMAT_END
 95
        8
302
GRIDFORMAT
  1
GRIDFORMAT_BEGIN
 90
        0
 91
        1
 62
     0
 92
       -2
340
0
 93
        0
 40
1.125
309
GRIDFORMAT_END
 95
       16
302
GRIDFORMAT
  1
GRIDFORMAT_BEGIN
 90
        0
 91
        1
 62
     0
 92
       -2
340
0
 93
        0
 40
1.125
309
GRIDFORMAT_END
 95
       32
302
GRIDFORMAT
  1
GRIDFORMAT_BEGIN
 90
        0
 91
        1
 62
     0
 92
       -2
340
0
 93
        0
 40
1.125
309
GRIDFORMAT_END
309
TABLEFORMAT_END
  1
CELLSTYLE_BEGIN
 90
        2
 91
        1
300
_HEADER
309
CELLSTYLE_END
300
CELLSTYLE
  1
TABLEFORMAT_BEGIN
 90
        5
170
     1
 91
        0
 92
        0
 62
   257
 93
        1
300
CONTENTFORMAT
  1
CONTENTFORMAT_BEGIN
 90
        0
 91
        0
 92
      512
 93
        0
300

 40
0.0
140
1.0
 94
        2
 62
     0
340
10
144
4.5
309
CONTENTFORMAT_END
171
     1
301
MARGIN
  1
CELLMARGIN_BEGIN
 40
1.5
 40
1.5
 40
1.5
 40
1.5
 40
0.18
 40
0.18
309
CELLMARGIN_END
 94
        6
 95
        1
302
GRIDFORMAT
  1
GRIDFORMAT_BEGIN
 90
        0
 91
        1
 62
     0
 92
       -2
340
0
 93
        0
 40
1.125
309
GRIDFORMAT_END
 95
        2
302
GRIDFORMAT
  1
GRIDFORMAT_BEGIN
 90
        0
 91
        1
 62
     0
 92
       -2
340
0
 93
        0
 40
1.125
309
GRIDFORMAT_END
 95
        4
302
GRIDFORMAT
  1
GRIDFORMAT_BEGIN
 90
        0
 91
        1
 62
     0
 92
       -2
340
0
 93
        0
 40
1.125
309
GRIDFORMAT_END
 95
        8
302
GRIDFORMAT
  1
GRIDFORMAT_BEGIN
 90
        0
 91
        1
 62
     0
 92
       -2
340
0
 93
        0
 40
1.125
309
GRIDFORMAT_END
 95
       16
302
GRIDFORMAT
  1
GRIDFORMAT_BEGIN
 90
        0
 91
        1
 62
     0
 92
       -2
340
0
 93
        0
 40
1.125
309
GRIDFORMAT_END
 95
       32
302
GRIDFORMAT
  1
GRIDFORMAT_BEGIN
 90
        0
 91
        1
 62
     0
 92
       -2
340
0
 93
        0
 40
1.125
309
GRIDFORMAT_END
309
TABLEFORMAT_END
  1
CELLSTYLE_BEGIN
 90
        3
 91
        2
300
_DATA
309
CELLSTYLE_END
  0
XRECORD
  5
17BA5
102
{ACAD_REACTORS
330
17B8D
102
}
330
17B8D
100
AcDbXrecord
280
     1
102
ACAD_ROUNDTRIP_PRE2007_TABLESTYLE
 90
      512
 91
        0
  1

 92
      512
 93
        0
  2

 94
      512
 95
        0
  3

  0
ENDSEC
  0
EOF
